  0
SECTION
  2
HEADER
  9
$ACADVER
  1
AC1015
  9
$ACADMAINTVER
 70
     6
  9
$DWGCODEPAGE
  3
ANSI_949
  9
$INSBASE
 10
0.0
 20
0.0
 30
0.0
  9
$EXTMIN
 10
-62.74943903887356
 20
-49.97073246008785
 30
0.0
  9
$EXTMAX
 10
80.98536683636837
 20
35.16341044024269
 30
0.0
  9
$LIMMIN
 10
0.0
 20
0.0
  9
$LIMMAX
 10
420.0
 20
297.0
  9
$ORTHOMODE
 70
     0
  9
$REGENMODE
 70
     1
  9
$FILLMODE
 70
     1
  9
$QTEXTMODE
 70
     0
  9
$MIRRTEXT
 70
     1
  9
$LTSCALE
 40
1.0
  9
$ATTMODE
 70
     1
  9
$TEXTSIZE
 40
3.5
  9
$TRACEWID
 40
1.0
  9
$TEXTSTYLE
  7
Standard
  9
$CLAYER
  8
0
  9
$CELTYPE
  6
ByLayer
  9
$CECOLOR
 62
   256
  9
$CELTSCALE
 40
1.0
  9
$DISPSILH
 70
     0
  9
$DIMSCALE
 40
1.0
  9
$DIMASZ
 40
3.302
  9
$DIMEXO
 40
1.0
  9
$DIMDLI
 40
3.75
  9
$DIMRND
 40
0.0
  9
$DIMDLE
 40
0.0
  9
$DIMEXE
 40
1.0
  9
$DIMTP
 40
0.0
  9
$DIMTM
 40
0.0
  9
$DIMTXT
 40
3.5
  9
$DIMCEN
 40
2.5
  9
$DIMTSZ
 40
0.0
  9
$DIMTOL
 70
     0
  9
$DIMLIM
 70
     0
  9
$DIMTIH
 70
     1
  9
$DIMTOH
 70
     1
  9
$DIMSE1
 70
     0
  9
$DIMSE2
 70
     0
  9
$DIMTAD
 70
     1
  9
$DIMZIN
 70
     0
  9
$DIMBLK
  1

  9
$DIMASO
 70
     1
  9
$DIMSHO
 70
     1
  9
$DIMPOST
  1

  9
$DIMAPOST
  1

  9
$DIMALT
 70
     0
  9
$DIMALTD
 70
     3
  9
$DIMALTF
 40
0.0393700787401575
  9
$DIMLFAC
 40
1.0
  9
$DIMTOFL
 70
     1
  9
$DIMTVP
 40
0.0
  9
$DIMTIX
 70
     0
  9
$DIMSOXD
 70
     0
  9
$DIMSAH
 70
     0
  9
$DIMBLK1
  1

  9
$DIMBLK2
  1

  9
$DIMSTYLE
  2
ISO-25
  9
$DIMCLRD
 70
     0
  9
$DIMCLRE
 70
     0
  9
$DIMCLRT
 70
     0
  9
$DIMTFAC
 40
1.0
  9
$DIMGAP
 40
1.524
  9
$DIMJUST
 70
     0
  9
$DIMSD1
 70
     0
  9
$DIMSD2
 70
     0
  9
$DIMTOLJ
 70
     0
  9
$DIMTZIN
 70
     0
  9
$DIMALTZ
 70
     0
  9
$DIMALTTZ
 70
     0
  9
$DIMUPT
 70
     0
  9
$DIMDEC
 70
     2
  9
$DIMTDEC
 70
     2
  9
$DIMALTU
 70
     2
  9
$DIMALTTD
 70
     3
  9
$DIMTXSTY
  7
Standard
  9
$DIMAUNIT
 70
     0
  9
$DIMADEC
 70
     2
  9
$DIMALTRND
 40
0.0
  9
$DIMAZIN
 70
     0
  9
$DIMDSEP
 70
    44
  9
$DIMATFIT
 70
     3
  9
$DIMFRAC
 70
     0
  9
$DIMLDRBLK
  1

  9
$DIMLUNIT
 70
     2
  9
$DIMLWD
 70
    -2
  9
$DIMLWE
 70
    -2
  9
$DIMTMOVE
 70
     0
  9
$LUNITS
 70
     2
  9
$LUPREC
 70
     2
  9
$SKETCHINC
 40
1.0
  9
$FILLETRAD
 40
10.0
  9
$AUNITS
 70
     0
  9
$AUPREC
 70
     2
  9
$MENU
  1
.
  9
$ELEVATION
 40
0.0
  9
$PELEVATION
 40
0.0
  9
$THICKNESS
 40
0.0
  9
$LIMCHECK
 70
     0
  9
$CHAMFERA
 40
0.0
  9
$CHAMFERB
 40
0.0
  9
$CHAMFERC
 40
0.0
  9
$CHAMFERD
 40
0.0
  9
$SKPOLY
 70
     0
  9
$TDCREATE
 40
2458262.553181134
  9
$TDUCREATE
 40
2458262.178181134
  9
$TDUPDATE
 40
2458266.566227326
  9
$TDUUPDATE
 40
2458266.191227326
  9
$TDINDWG
 40
0.0023204282
  9
$TDUSRTIMER
 40
2458266.188906933
  9
$USRTIMER
 70
     1
  9
$ANGBASE
 50
0.0
  9
$ANGDIR
 70
     0
  9
$PDMODE
 70
     0
  9
$PDSIZE
 40
-1.0
  9
$PLINEWID
 40
0.0
  9
$SPLFRAME
 70
     0
  9
$SPLINETYPE
 70
     6
  9
$SPLINESEGS
 70
     8
  9
$HANDSEED
  5
13B
  9
$SURFTAB1
 70
     6
  9
$SURFTAB2
 70
     6
  9
$SURFTYPE
 70
     6
  9
$SURFU
 70
     6
  9
$SURFV
 70
     6
  9
$UCSBASE
  2

  9
$UCSNAME
  2

  9
$UCSORG
 10
0.0
 20
0.0
 30
0.0
  9
$UCSXDIR
 10
1.0
 20
0.0
 30
0.0
  9
$UCSYDIR
 10
0.0
 20
1.0
 30
0.0
  9
$UCSORTHOREF
  2

  9
$UCSORTHOVIEW
 70
     0
  9
$UCSORGTOP
 10
0.0
 20
0.0
 30
0.0
  9
$UCSORGBOTTOM
 10
0.0
 20
0.0
 30
0.0
  9
$UCSORGLEFT
 10
0.0
 20
0.0
 30
0.0
  9
$UCSORGRIGHT
 10
0.0
 20
0.0
 30
0.0
  9
$UCSORGFRONT
 10
0.0
 20
0.0
 30
0.0
  9
$UCSORGBACK
 10
0.0
 20
0.0
 30
0.0
  9
$PUCSBASE
  2

  9
$PUCSNAME
  2

  9
$PUCSORG
 10
0.0
 20
0.0
 30
0.0
  9
$PUCSXDIR
 10
1.0
 20
0.0
 30
0.0
  9
$PUCSYDIR
 10
0.0
 20
1.0
 30
0.0
  9
$PUCSORTHOREF
  2

  9
$PUCSORTHOVIEW
 70
     0
  9
$PUCSORGTOP
 10
0.0
 20
0.0
 30
0.0
  9
$PUCSORGBOTTOM
 10
0.0
 20
0.0
 30
0.0
  9
$PUCSORGLEFT
 10
0.0
 20
0.0
 30
0.0
  9
$PUCSORGRIGHT
 10
0.0
 20
0.0
 30
0.0
  9
$PUCSORGFRONT
 10
0.0
 20
0.0
 30
0.0
  9
$PUCSORGBACK
 10
0.0
 20
0.0
 30
0.0
  9
$USERI1
 70
     0
  9
$USERI2
 70
     0
  9
$USERI3
 70
     0
  9
$USERI4
 70
     0
  9
$USERI5
 70
     0
  9
$USERR1
 40
0.0
  9
$USERR2
 40
0.0
  9
$USERR3
 40
0.0
  9
$USERR4
 40
0.0
  9
$USERR5
 40
0.0
  9
$WORLDVIEW
 70
     1
  9
$SHADEDGE
 70
     3
  9
$SHADEDIF
 70
    70
  9
$TILEMODE
 70
     1
  9
$MAXACTVP
 70
    64
  9
$PINSBASE
 10
0.0
 20
0.0
 30
0.0
  9
$PLIMCHECK
 70
     0
  9
$PEXTMIN
 10
1.000000000000000E+20
 20
1.000000000000000E+20
 30
1.000000000000000E+20
  9
$PEXTMAX
 10
-1.000000000000000E+20
 20
-1.000000000000000E+20
 30
-1.000000000000000E+20
  9
$PLIMMIN
 10
0.0
 20
0.0
  9
$PLIMMAX
 10
0.0
 20
0.0
  9
$UNITMODE
 70
     0
  9
$VISRETAIN
 70
     1
  9
$PLINEGEN
 70
     0
  9
$PSLTSCALE
 70
     1
  9
$TREEDEPTH
 70
  3020
  9
$CMLSTYLE
  2
Standard
  9
$CMLJUST
 70
     0
  9
$CMLSCALE
 40
20.0
  9
$PROXYGRAPHICS
 70
     1
  9
$MEASUREMENT
 70
     1
  9
$CELWEIGHT
370
    -1
  9
$ENDCAPS
280
     0
  9
$JOINSTYLE
280
     0
  9
$LWDISPLAY
290
     1
  9
$INSUNITS
 70
     4
  9
$HYPERLINKBASE
  1

  9
$STYLESHEET
  1

  9
$XEDIT
290
     1
  9
$CEPSNTYPE
380
     0
  9
$PSTYLEMODE
290
     1
  9
$FINGERPRINTGUID
  2
{DEBD7AC0-EEC5-42A9-A9E9-A3BAE78DDE60}
  9
$VERSIONGUID
  2
{FAEB1C32-E019-11D5-929B-00C0DF256EC4}
  9
$EXTNAMES
290
     1
  9
$PSVPSCALE
 40
0.0
  9
$OLESTARTUP
290
     0
  0
ENDSEC
  0
SECTION
  2
CLASSES
  0
CLASS
  1
ACDBDICTIONARYWDFLT
  2
AcDbDictionaryWithDefault
  3
ObjectDBX Classes
 90
        0
280
     0
281
     0
  0
CLASS
  1
VISUALSTYLE
  2
AcDbVisualStyle
  3
ObjectDBX Classes
 90
     4095
280
     0
281
     0
  0
CLASS
  1
MATERIAL
  2
AcDbMaterial
  3
ObjectDBX Classes
 90
     1153
280
     0
281
     0
  0
CLASS
  1
SCALE
  2
AcDbScale
  3
ObjectDBX Classes
 90
     1153
280
     0
281
     0
  0
CLASS
  1
SUN
  2
AcDbSun
  3
SCENEOE
 90
     1153
280
     0
281
     0
  0
CLASS
  1
ACDBPLACEHOLDER
  2
AcDbPlaceHolder
  3
ObjectDBX Classes
 90
        0
280
     0
281
     0
  0
CLASS
  1
LAYOUT
  2
AcDbLayout
  3
ObjectDBX Classes
 90
        0
280
     0
281
     0
  0
CLASS
  1
TABLESTYLE
  2
AcDbTableStyle
  3
ObjectDBX Classes
 90
     4095
280
     0
281
     0
  0
CLASS
  1
MLEADERSTYLE
  2
AcDbMLeaderStyle
  3
ACDB_MLEADERSTYLE_CLASS
 90
     4095
280
     0
281
     0
  0
CLASS
  1
RASTERVARIABLES
  2
AcDbRasterVariables
  3
ISM
 90
        0
280
     0
281
     0
  0
ENDSEC
  0
SECTION
  2
TABLES
  0
TABLE
  2
VPORT
  5
8
330
0
100
AcDbSymbolTable
 70
     1
  0
VPORT
  5
29
330
8
100
AcDbSymbolTableRecord
100
AcDbViewportTableRecord
  2
*Active
 70
     0
 10
0.0
 20
0.0
 11
1.0
 21
1.0
 12
9.117963898747405
 22
-7.403661009922587
 13
0.0
 23
0.0
 14
10.0
 24
10.0
 15
10.0
 25
10.0
 16
0.0
 26
0.0
 36
1.0
 17
0.0
 27
0.0
 37
0.0
 40
127.214971460074
 41
1.152454780361757
 42
50.0
 43
0.0
 44
0.0
 50
0.0
 51
0.0
 71
    16
 72
  2000
 73
     1
 74
     3
 75
     0
 76
     0
 77
     0
 78
     0
281
     0
 65
     1
110
0.0
120
0.0
130
0.0
111
1.0
121
0.0
131
0.0
112
0.0
122
1.0
132
0.0
 79
     0
146
0.0
  0
ENDTAB
  0
TABLE
  2
LTYPE
  5
5
330
0
100
AcDbSymbolTable
 70
     6
  0
LTYPE
  5
14
330
5
100
AcDbSymbolTableRecord
100
AcDbLinetypeTableRecord
  2
ByBlock
 70
     0
  3

 72
    65
 73
     0
 40
0.0
  0
LTYPE
  5
15
330
5
100
AcDbSymbolTableRecord
100
AcDbLinetypeTableRecord
  2
ByLayer
 70
     0
  3

 72
    65
 73
     0
 40
0.0
  0
LTYPE
  5
16
330
5
100
AcDbSymbolTableRecord
100
AcDbLinetypeTableRecord
  2
Continuous
 70
     0
  3
Solid line
 72
    65
 73
     0
 40
0.0
  0
LTYPE
  5
6A
330
5
100
AcDbSymbolTableRecord
100
AcDbLinetypeTableRecord
  2
HIDDEN
 70
     0
  3
Hidden __ __ __ __ __ __ __ __ __ __ __ __ __ __
 72
    65
 73
     2
 40
1.905
 49
1.27
 74
     0
 49
-0.635
 74
     0
  0
LTYPE
  5
6B
330
5
100
AcDbSymbolTableRecord
100
AcDbLinetypeTableRecord
  2
PHANTOM
 70
     0
  3
Phantom ______  __  __  ______  __  __  ______
 72
    65
 73
     6
 40
12.7
 49
6.35
 74
     0
 49
-1.27
 74
     0
 49
1.27
 74
     0
 49
-1.27
 74
     0
 49
1.27
 74
     0
 49
-1.27
 74
     0
  0
LTYPE
  5
6C
330
5
100
AcDbSymbolTableRecord
100
AcDbLinetypeTableRecord
  2
CENTER
 70
     0
  3
Center ____ _ ____ _ ____ _ ____ _ ____ _ ____
 72
    65
 73
     4
 40
10.16
 49
6.35
 74
     0
 49
-1.27
 74
     0
 49
1.27
 74
     0
 49
-1.27
 74
     0
  0
LTYPE
  5
6D
330
5
100
AcDbSymbolTableRecord
100
AcDbLinetypeTableRecord
  2
CENTERX2
 70
     0
  3
Center (2x) ________  __  ________  __  _____
 72
    65
 73
     4
 40
20.32
 49
12.7
 74
     0
 49
-2.54
 74
     0
 49
2.54
 74
     0
 49
-2.54
 74
     0
  0
LTYPE
  5
6E
330
5
100
AcDbSymbolTableRecord
100
AcDbLinetypeTableRecord
  2
DOT2
 70
     0
  3
Dot (.5x) ........................................
 72
    65
 73
     2
 40
0.635
 49
0.0
 74
     0
 49
-0.635
 74
     0
  0
ENDTAB
  0
TABLE
  2
LAYER
  5
2
330
0
100
AcDbSymbolTable
 70
    17
  0
LAYER
  5
10
330
2
100
AcDbSymbolTableRecord
100
AcDbLayerTableRecord
  2
0
 70
     0
 62
     7
  6
Continuous
370
    -3
390
F
  0
LAYER
  5
6F
330
2
100
AcDbSymbolTableRecord
100
AcDbLayerTableRecord
  2
FORMAT
 70
     0
 62
     2
  6
Continuous
370
    -3
390
F
  0
LAYER
  5
70
330
2
100
AcDbSymbolTableRecord
100
AcDbLayerTableRecord
  2
외형선
 70
     0
 62
   100
  6
Continuous
370
    30
390
F
  0
LAYER
  5
71
330
2
100
AcDbSymbolTableRecord
100
AcDbLayerTableRecord
  2
숨은선
 70
     0
 62
     2
  6
HIDDEN
370
    15
390
F
  0
LAYER
  5
72
330
2
100
AcDbSymbolTableRecord
100
AcDbLayerTableRecord
  2
중심선
 70
     0
 62
     1
  6
CENTERX2
370
    -3
390
F
  0
LAYER
  5
73
330
2
100
AcDbSymbolTableRecord
100
AcDbLayerTableRecord
  2
파단선
 70
     0
 62
     4
  6
Continuous
370
    -3
390
F
  0
LAYER
  5
74
330
2
100
AcDbSymbolTableRecord
100
AcDbLayerTableRecord
  2
해칭선
 70
     0
 62
     4
  6
Continuous
370
    -3
390
F
  0
LAYER
  5
75
330
2
100
AcDbSymbolTableRecord
100
AcDbLayerTableRecord
  2
가는실선
 70
     0
 62
     4
  6
Continuous
370
    -3
390
F
  0
LAYER
  5
76
330
2
100
AcDbSymbolTableRecord
100
AcDbLayerTableRecord
  2
치수_보조선
 70
     0
 62
     4
  6
Continuous
370
    -3
390
F
  0
LAYER
  5
77
330
2
100
AcDbSymbolTableRecord
100
AcDbLayerTableRecord
  2
치수문자_일반주서
 70
     0
 62
     7
  6
Continuous
370
    15
390
F
  0
LAYER
  5
78
330
2
100
AcDbSymbolTableRecord
100
AcDbLayerTableRecord
  2
개별주서
 70
     0
 62
   100
  6
Continuous
370
    30
390
F
  0
LAYER
  5
79
330
2
100
AcDbSymbolTableRecord
100
AcDbLayerTableRecord
  2
중간선
 70
     0
 62
     2
  6
Continuous
370
    15
390
F
  0
LAYER
  5
7A
330
2
100
AcDbSymbolTableRecord
100
AcDbLayerTableRecord
  2
윤곽선
 70
     0
 62
     3
  6
Continuous
370
    40
390
F
  0
LAYER
  5
7B
330
2
100
AcDbSymbolTableRecord
100
AcDbLayerTableRecord
  2
중심마크
 70
     0
 62
   100
  6
Continuous
370
    30
390
F
  0
LAYER
  5
7C
330
2
100
AcDbSymbolTableRecord
100
AcDbLayerTableRecord
  2
가상선
 70
     0
 62
     4
  6
PHANTOM
370
    -3
390
F
  0
LAYER
  5
7D
330
2
100
AcDbSymbolTableRecord
100
AcDbLayerTableRecord
  2
특수지정선
 70
     0
 62
     5
  6
CENTERX2
370
    60
390
F
  0
LAYER
  5
12B
330
2
100
AcDbSymbolTableRecord
100
AcDbLayerTableRecord
  2
Defpoints
 70
     0
 62
     7
  6
Continuous
290
     0
370
    -3
390
F
  0
ENDTAB
  0
TABLE
  2
STYLE
  5
3
330
0
100
AcDbSymbolTable
 70
     2
  0
STYLE
  5
11
330
3
100
AcDbSymbolTableRecord
100
AcDbTextStyleTableRecord
  2
Standard
 70
     0
 40
0.0
 41
1.0
 50
0.0
 71
     0
 42
3.5
  3
txt
  4

  0
STYLE
  5
93
330
3
100
AcDbSymbolTableRecord
100
AcDbTextStyleTableRecord
  2
SLDTEXTSTYLE0
 70
     0
 40
0.0
 41
0.75
 50
0.0
 71
     0
 42
3.5
  3
TXT
  4

  0
ENDTAB
  0
TABLE
  2
VIEW
  5
6
330
0
100
AcDbSymbolTable
 70
     0
  0
ENDTAB
  0
TABLE
  2
UCS
  5
7
330
0
100
AcDbSymbolTable
 70
     0
  0
ENDTAB
  0
TABLE
  2
APPID
  5
9
330
0
100
AcDbSymbolTable
 70
     1
  0
APPID
  5
12
330
9
100
AcDbSymbolTableRecord
100
AcDbRegAppTableRecord
  2
ACAD
 70
     0
  0
ENDTAB
  0
TABLE
  2
DIMSTYLE
  5
A
330
0
100
AcDbSymbolTable
 70
     3
100
AcDbDimStyleTable
  0
DIMSTYLE
105
27
330
A
100
AcDbSymbolTableRecord
100
AcDbDimStyleTableRecord
  2
ISO-25
 70
     0
 41
2.5
 42
0.625
 43
3.75
 44
1.25
 73
     0
 74
     0
 77
     1
 78
     8
140
2.5
141
2.5
143
0.03937007874016
147
0.625
171
     3
172
     1
178
     0
271
     2
272
     2
274
     3
278
    44
283
     0
284
     8
340
11
  0
DIMSTYLE
105
D1
102
{ACAD_REACTORS
330
D0
330
F3
102
}
330
A
100
AcDbSymbolTableRecord
100
AcDbDimStyleTableRecord
  2
SLDDIMSTYLE0
 70
     0
 41
3.302
 44
0.0
 45
0.000000001
 73
     0
 74
     0
 77
     1
 78
    12
 79
     3
140
3.5
147
0.875
172
     1
173
     1
178
     0
271
     2
272
     2
276
     2
284
    12
289
     0
340
93
  0
DIMSTYLE
105
DF
102
{ACAD_REACTORS
330
DE
330
E9
102
}
330
A
100
AcDbSymbolTableRecord
100
AcDbDimStyleTableRecord
  2
SLDDIMSTYLE1
 70
     0
 41
3.302
 44
0.0
 45
0.000000001
 73
     0
 74
     0
 77
     1
 78
    12
 79
     3
140
3.5
147
0.875
173
     1
178
     0
271
     2
272
     2
276
     2
284
    12
340
93
  0
ENDTAB
  0
TABLE
  2
BLOCK_RECORD
  5
1
330
0
100
AcDbSymbolTable
 70
     7
  0
BLOCK_RECORD
  5
1F
330
1
100
AcDbSymbolTableRecord
100
AcDbBlockTableRecord
  2
*Model_Space
340
22
  0
BLOCK_RECORD
  5
1B
330
1
100
AcDbSymbolTableRecord
100
AcDbBlockTableRecord
  2
*Paper_Space
340
1E
  0
BLOCK_RECORD
  5
23
330
1
100
AcDbSymbolTableRecord
100
AcDbBlockTableRecord
  2
*Paper_Space0
340
26
  0
BLOCK_RECORD
  5
7E
330
1
100
AcDbSymbolTableRecord
100
AcDbBlockTableRecord
  2
블럭10
340
0
102
{BLKREFS
331
C9
102
}
  0
BLOCK_RECORD
  5
D2
330
1
100
AcDbSymbolTableRecord
100
AcDbBlockTableRecord
  2
_D
340
0
  0
BLOCK_RECORD
  5
E0
330
1
100
AcDbSymbolTableRecord
100
AcDbBlockTableRecord
  2
_D_1
340
0
  0
BLOCK_RECORD
  5
EA
330
1
100
AcDbSymbolTableRecord
100
AcDbBlockTableRecord
  2
_D_2
340
0
  0
BLOCK_RECORD
  5
F4
330
1
100
AcDbSymbolTableRecord
100
AcDbBlockTableRecord
  2
_D_3
340
0
  0
BLOCK_RECORD
  5
100
330
1
100
AcDbSymbolTableRecord
100
AcDbBlockTableRecord
  2
SW_DOWELSYMBOL_0
340
0
102
{BLKREFS
331
106
102
}
  0
ENDTAB
  0
ENDSEC
  0
SECTION
  2
BLOCKS
  0
BLOCK
  5
20
330
1F
100
AcDbEntity
  8
0
100
AcDbBlockBegin
  2
*Model_Space
 70
     0
 10
0.0
 20
0.0
 30
0.0
  3
*Model_Space
  1

  0
ENDBLK
  5
21
330
1F
100
AcDbEntity
  8
0
100
AcDbBlockEnd
  0
BLOCK
  5
1C
330
1B
100
AcDbEntity
 67
     1
  8
0
100
AcDbBlockBegin
  2
*Paper_Space
 70
     0
 10
0.0
 20
0.0
 30
0.0
  3
*Paper_Space
  1

  0
ENDBLK
  5
1D
330
1B
100
AcDbEntity
 67
     1
  8
0
100
AcDbBlockEnd
  0
BLOCK
  5
24
330
23
100
AcDbEntity
  8
0
100
AcDbBlockBegin
  2
*Paper_Space0
 70
     0
 10
0.0
 20
0.0
 30
0.0
  3
*Paper_Space0
  1

  0
ENDBLK
  5
25
330
23
100
AcDbEntity
  8
0
100
AcDbBlockEnd
  0
BLOCK
  5
7F
330
7E
100
AcDbEntity
  8
0
100
AcDbBlockBegin
  2
블럭10
 70
     2
 10
0.0
 20
0.0
 30
0.0
  3
블럭10
  1

  0
ELLIPSE
  5
81
330
7E
100
AcDbEntity
  8
중심선
100
AcDbEllipse
 10
20.54032771741204
 20
12.0471743016438
 30
0.0
 11
6.600054785286829
 21
-1.261213355974178E-13
 31
0.0
210
0.0
220
0.0
230
1.0
 40
0.636358354079598
 41
0.9219305317359503
 42
6.513795318482858
  0
ELLIPSE
  5
82
330
7E
100
AcDbEntity
  8
중심선
100
AcDbEllipse
 10
20.54032771746488
 20
12.04717430159265
 30
0.0
 11
3.960054785062283
 21
1.540847449632565E-10
 31
0.0
210
0.0
220
0.0
230
1.0
 40
0.3939339440162632
 41
1.131841032648279
 42
5.62031148352944
  0
LINE
  5
83
330
7E
100
AcDbEntity
  8
중심선
100
AcDbLine
 10
2.268634060543552
 20
16.24717430164393
 30
0.0
 11
5.714909304380834
 21
16.24717430164393
 31
0.0
  0
LINE
  5
84
330
7E
100
AcDbEntity
  8
중심선
100
AcDbLine
 10
5.245725140726316
 20
7.84717430164391
 30
0.0
 11
8.692000384563599
 21
7.84717430164391
 31
0.0
  0
LINE
  5
85
330
7E
100
AcDbEntity
  8
중심선
100
AcDbLine
 10
15.74043728645272
 20
16.24717430164393
 30
0.0
 11
8.692000384563599
 21
7.84717430164391
 31
0.0
  0
LINE
  5
86
330
7E
100
AcDbEntity
  8
중심선
100
AcDbLine
 10
0.1404042013395286
 20
13.71084872107135
 30
0.0
 11
3.58671253028996
 21
13.71088815037384
 31
0.0
  0
LINE
  5
87
330
7E
100
AcDbEntity
  8
중심선
100
AcDbLine
 10
2.750260043222114
 20
10.84717430164391
 30
0.0
 11
6.196535287059397
 21
10.84717430164391
 31
0.0
  0
LINE
  5
88
330
7E
100
AcDbEntity
  8
중심선
100
AcDbLine
 10
12.29416204261559
 20
16.24717430164393
 30
0.0
 11
5.245725140726316
 21
7.84717430164391
 31
0.0
  0
LINE
  5
89
330
7E
100
AcDbEntity
  8
중심선
100
AcDbLine
 10
10.72767329541681
 20
16.24717430164393
 30
0.0
 11
6.196535287059397
 21
10.84717430164391
 31
0.0
  0
LINE
  5
8A
330
7E
100
AcDbEntity
  8
중심선
100
AcDbLine
 10
7.28139805157953
 20
16.24717430164393
 30
0.0
 11
2.750260043222114
 21
10.84717430164391
 31
0.0
  0
LINE
  5
8B
330
7E
100
AcDbEntity
  8
중심선
100
AcDbLine
 10
5.714909304380834
 20
16.24717430164393
 30
0.0
 11
3.58671253028996
 21
13.71088815037384
 31
0.0
  0
LINE
  5
8C
330
7E
100
AcDbEntity
  8
중심선
100
AcDbLine
 10
2.268634060543552
 20
16.24717430164393
 30
0.0
 11
0.1404042013395286
 21
13.71084872107135
 31
0.0
  0
LINE
  5
8D
330
7E
100
AcDbEntity
  8
중심선
100
AcDbLine
 10
7.28139805157953
 20
16.24717430164393
 30
0.0
 11
10.72767329541681
 21
16.24717430164393
 31
0.0
  0
LINE
  5
8E
330
7E
100
AcDbEntity
  8
중심선
100
AcDbLine
 10
12.29416204261559
 20
16.24717430164393
 30
0.0
 11
15.74043728645272
 21
16.24717430164393
 31
0.0
  0
LINE
  5
8F
330
7E
100
AcDbEntity
  8
중심선
100
AcDbLine
 10
19.22036997980202
 20
11.08717430171403
 30
0.0
 11
23.66174974927406
 21
11.08717430171406
 31
0.0
  0
LINE
  5
90
330
7E
100
AcDbEntity
  8
중심선
100
AcDbLine
 10
19.22039502424796
 20
13.00717430171391
 30
0.0
 11
19.22036997980202
 21
11.08717430171403
 31
0.0
  0
LINE
  5
91
330
7E
100
AcDbEntity
  8
중심선
100
AcDbLine
 10
19.22039502424796
 20
13.00717430171391
 30
0.0
 11
26.96566020931264
 21
13.00717430171391
 31
0.0
  0
LINE
  5
92
330
7E
100
AcDbEntity
  8
중심선
100
AcDbLine
 10
22.22332737316547
 20
13.45928029700563
 30
0.0
 11
24.52862924686651
 21
15.39360700705356
 31
0.0
  0
ATTDEF
  5
94
330
7E
100
AcDbEntity
  8
FORMAT
 62
     2
100
AcDbText
 10
-16.11926103943555
 20
2.075366912832191
 30
0.0
 40
4.233333333333333
  1
SEME7020050E [ 2 FLUTE ]
 41
0.75
  7
SLDTEXTSTYLE0
 11
-16.11926103943555
 21
-0.0412997538344756
 31
0.0
100
AcDbAttributeDefinition
  3

  2
AUTOATTR0
 70
     0
 74
     1
  0
ENDBLK
  5
80
330
7E
100
AcDbEntity
  8
0
100
AcDbBlockEnd
  0
BLOCK
  5
D3
330
D2
100
AcDbEntity
  8
0
100
AcDbBlockBegin
  2
_D
 70
     0
 10
0.0
 20
0.0
 30
0.0
  3
_D
  1

  0
LINE
  5
D5
330
D2
100
AcDbEntity
  8
치수문자_일반주서
 62
     0
370
    -2
100
AcDbLine
 10
62.06250000000001
 20
-9.99999999999999
 30
0.0
 11
80.43503350303504
 21
-9.999999999999929
 31
0.0
  0
LINE
  5
D6
330
D2
100
AcDbEntity
  8
치수문자_일반주서
 62
     0
370
    -2
100
AcDbLine
 10
62.06249999999966
 20
10.00000000000001
 30
0.0
 11
80.43503350303497
 21
10.00000000000008
 31
0.0
  0
LINE
  5
D7
330
D2
100
AcDbEntity
  8
치수문자_일반주서
 62
     0
370
    -2
100
AcDbLine
 10
80.43503350303504
 20
-9.999999999999929
 30
0.0
 11
80.43503350303492
 21
26.55957406099052
 31
0.0
  0
LINE
  5
D8
330
D2
100
AcDbEntity
  8
치수문자_일반주서
 62
     0
370
    -2
100
AcDbLine
 10
80.43503350303504
 20
-9.999999999999929
 30
0.0
 11
80.43503350303497
 21
10.00000000000008
 31
0.0
  0
LINE
  5
D9
330
D2
100
AcDbEntity
  8
치수문자_일반주서
 62
     0
370
    -2
100
AcDbLine
 10
80.43503350303506
 20
-13.30199999999993
 30
0.0
 11
80.43503350303507
 21
-16.60399999999993
 31
0.0
  0
LINE
  5
DA
330
D2
100
AcDbEntity
  8
치수문자_일반주서
 62
     0
370
    -2
100
AcDbLine
 10
80.43503350303496
 20
13.30200000000008
 30
0.0
 11
80.43503350303494
 21
16.60400000000008
 31
0.0
  0
SOLID
  5
DB
330
D2
100
AcDbEntity
  8
치수문자_일반주서
 62
     0
100
AcDbTrace
 10
80.98536683636839
 20
-13.30199999999993
 30
0.0
 11
79.88470016970173
 21
-13.30199999999993
 31
0.0
 12
80.43503350303504
 22
-9.999999999999929
 32
0.0
 13
80.43503350303504
 23
-9.999999999999929
 33
0.0
  0
SOLID
  5
DC
330
D2
100
AcDbEntity
  8
치수문자_일반주서
 62
     0
100
AcDbTrace
 10
79.88470016970163
 20
13.30200000000007
 30
0.0
 11
80.98536683636829
 21
13.30200000000008
 31
0.0
 12
80.43503350303497
 22
10.00000000000008
 32
0.0
 13
80.43503350303497
 23
10.00000000000008
 33
0.0
  0
MTEXT
  5
DD
330
D2
100
AcDbEntity
  8
치수문자_일반주서
 62
     0
100
AcDbMText
 10
76.06003350303493
 20
22.4033240609905
 30
0.0
 40
3.5
 41
0.0
 71
     2
 72
     1
  1
\A1;%%c20
  7
SLDTEXTSTYLE0
 11
-3.552713678800500E-15
 21
1.0
 31
0.0
 73
     1
 44
1.0
  0
POINT
  5
137
330
D2
100
AcDbEntity
  8
Defpoints
 62
     0
100
AcDbPoint
 10
62.00000000000001
 20
-9.99999999999999
 30
0.0
  0
POINT
  5
138
330
D2
100
AcDbEntity
  8
Defpoints
 62
     0
100
AcDbPoint
 10
61.99999999999966
 20
10.00000000000001
 30
0.0
  0
POINT
  5
139
330
D2
100
AcDbEntity
  8
Defpoints
 62
     0
100
AcDbPoint
 10
80.43503350303497
 20
10.00000000000008
 30
0.0
  0
ENDBLK
  5
D4
330
D2
100
AcDbEntity
  8
0
100
AcDbBlockEnd
  0
BLOCK
  5
E1
330
E0
100
AcDbEntity
  8
0
100
AcDbBlockBegin
  2
_D_1
 70
     0
 10
0.0
 20
0.0
 30
0.0
  3
_D_1
  1

  0
LINE
  5
E3
330
E0
100
AcDbEntity
  8
치수문자_일반주서
 62
     0
370
    -2
100
AcDbLine
 10
-48.00000000000001
 20
9.062499999999995
 30
0.0
 11
-48.00000000000001
 21
30.78841044024269
 31
0.0
  0
LINE
  5
E4
330
E0
100
AcDbEntity
  8
치수문자_일반주서
 62
     0
370
    -2
100
AcDbLine
 10
61.99999999999966
 20
10.06250000000001
 30
0.0
 11
61.99999999999966
 21
30.78841044024269
 31
0.0
  0
LINE
  5
E5
330
E0
100
AcDbEntity
  8
치수문자_일반주서
 62
     0
370
    -2
100
AcDbLine
 10
-44.69800000000001
 20
30.78841044024269
 30
0.0
 11
58.69799999999966
 21
30.78841044024269
 31
0.0
  0
SOLID
  5
E6
330
E0
100
AcDbEntity
  8
치수문자_일반주서
 62
     0
100
AcDbTrace
 10
-44.69800000000001
 20
31.33874377357603
 30
0.0
 11
-44.69800000000001
 21
30.23807710690936
 31
0.0
 12
-48.00000000000001
 22
30.78841044024269
 32
0.0
 13
-48.00000000000001
 23
30.78841044024269
 33
0.0
  0
SOLID
  5
E7
330
E0
100
AcDbEntity
  8
치수문자_일반주서
 62
     0
100
AcDbTrace
 10
58.69799999999966
 20
30.23807710690936
 30
0.0
 11
58.69799999999966
 21
31.33874377357603
 31
0.0
 12
61.99999999999966
 22
30.78841044024269
 32
0.0
 13
61.99999999999966
 23
30.78841044024269
 33
0.0
  0
MTEXT
  5
E8
330
E0
100
AcDbEntity
  8
치수문자_일반주서
 62
     0
100
AcDbMText
 10
6.99999999999986
 20
35.16341044024269
 30
0.0
 40
3.5
 41
0.0
 71
     2
 72
     1
  1
\A1;110
  7
SLDTEXTSTYLE0
 73
     1
 44
1.0
  0
POINT
  5
12C
330
E0
100
AcDbEntity
  8
Defpoints
 62
     0
100
AcDbPoint
 10
-48.00000000000001
 20
8.999999999999995
 30
0.0
  0
POINT
  5
12D
330
E0
100
AcDbEntity
  8
Defpoints
 62
     0
100
AcDbPoint
 10
61.99999999999966
 20
10.00000000000001
 30
0.0
  0
POINT
  5
12E
330
E0
100
AcDbEntity
  8
Defpoints
 62
     0
100
AcDbPoint
 10
61.99999999999966
 20
30.78841044024269
 30
0.0
  0
ENDBLK
  5
E2
330
E0
100
AcDbEntity
  8
0
100
AcDbBlockEnd
  0
BLOCK
  5
EB
330
EA
100
AcDbEntity
  8
0
100
AcDbBlockBegin
  2
_D_2
 70
     0
 10
0.0
 20
0.0
 30
0.0
  3
_D_2
  1

  0
LINE
  5
ED
330
EA
100
AcDbEntity
  8
치수문자_일반주서
 62
     0
370
    -2
100
AcDbLine
 10
12.0
 20
10.06250000000001
 30
0.0
 11
12.0
 21
23.34699780616753
 31
0.0
  0
LINE
  5
EE
330
EA
100
AcDbEntity
  8
치수문자_일반주서
 62
     0
370
    -2
100
AcDbLine
 10
61.99999999999966
 20
10.06250000000001
 30
0.0
 11
61.99999999999966
 21
23.34699780616753
 31
0.0
  0
LINE
  5
EF
330
EA
100
AcDbEntity
  8
치수문자_일반주서
 62
     0
370
    -2
100
AcDbLine
 10
15.302
 20
23.34699780616753
 30
0.0
 11
58.69799999999966
 21
23.34699780616753
 31
0.0
  0
SOLID
  5
F0
330
EA
100
AcDbEntity
  8
치수문자_일반주서
 62
     0
100
AcDbTrace
 10
15.302
 20
23.89733113950086
 30
0.0
 11
15.302
 21
22.79666447283419
 31
0.0
 12
12.0
 22
23.34699780616753
 32
0.0
 13
12.0
 23
23.34699780616753
 33
0.0
  0
SOLID
  5
F1
330
EA
100
AcDbEntity
  8
치수문자_일반주서
 62
     0
100
AcDbTrace
 10
58.69799999999966
 20
22.79666447283419
 30
0.0
 11
58.69799999999966
 21
23.89733113950086
 31
0.0
 12
61.99999999999966
 22
23.34699780616753
 32
0.0
 13
61.99999999999966
 23
23.34699780616753
 33
0.0
  0
MTEXT
  5
F2
330
EA
100
AcDbEntity
  8
치수문자_일반주서
 62
     0
100
AcDbMText
 10
37.00000000000001
 20
27.72199780616753
 30
0.0
 40
3.5
 41
0.0
 71
     2
 72
     1
  1
\A1;50
  7
SLDTEXTSTYLE0
 73
     1
 44
1.0
  0
POINT
  5
12F
330
EA
100
AcDbEntity
  8
Defpoints
 62
     0
100
AcDbPoint
 10
12.0
 20
10.00000000000001
 30
0.0
  0
POINT
  5
130
330
EA
100
AcDbEntity
  8
Defpoints
 62
     0
100
AcDbPoint
 10
61.99999999999966
 20
10.00000000000001
 30
0.0
  0
POINT
  5
131
330
EA
100
AcDbEntity
  8
Defpoints
 62
     0
100
AcDbPoint
 10
61.99999999999966
 20
23.34699780616753
 30
0.0
  0
ENDBLK
  5
EC
330
EA
100
AcDbEntity
  8
0
100
AcDbBlockEnd
  0
BLOCK
  5
F5
330
F4
100
AcDbEntity
  8
0
100
AcDbBlockBegin
  2
_D_3
 70
     0
 10
0.0
 20
0.0
 30
0.0
  3
_D_3
  1

  0
LINE
  5
F7
330
F4
100
AcDbEntity
  8
치수문자_일반주서
 62
     0
370
    -2
100
AcDbLine
 10
-47.06250000000001
 20
9.999999999999998
 30
0.0
 11
-58.3744390388735
 21
9.999999999999956
 31
0.0
  0
LINE
  5
F8
330
F4
100
AcDbEntity
  8
치수문자_일반주서
 62
     0
370
    -2
100
AcDbLine
 10
-47.06250000000001
 20
-9.999999999999995
 30
0.0
 11
-58.37443903887343
 21
-10.00000000000004
 31
0.0
  0
LINE
  5
F9
330
F4
100
AcDbEntity
  8
치수문자_일반주서
 62
     0
370
    -2
100
AcDbLine
 10
-58.3744390388735
 20
9.999999999999956
 30
0.0
 11
-58.37443903887355
 21
24.91649999999996
 31
0.0
  0
LINE
  5
FA
330
F4
100
AcDbEntity
  8
치수문자_일반주서
 62
     0
370
    -2
100
AcDbLine
 10
-58.3744390388735
 20
9.999999999999956
 30
0.0
 11
-58.37443903887343
 21
-10.00000000000004
 31
0.0
  0
LINE
  5
FB
330
F4
100
AcDbEntity
  8
치수문자_일반주서
 62
     0
370
    -2
100
AcDbLine
 10
-58.37443903887352
 20
13.30199999999996
 30
0.0
 11
-58.37443903887353
 21
16.60399999999996
 31
0.0
  0
LINE
  5
FC
330
F4
100
AcDbEntity
  8
치수문자_일반주서
 62
     0
370
    -2
100
AcDbLine
 10
-58.37443903887342
 20
-13.30200000000004
 30
0.0
 11
-58.3744390388734
 21
-16.60400000000003
 31
0.0
  0
SOLID
  5
FD
330
F4
100
AcDbEntity
  8
치수문자_일반주서
 62
     0
100
AcDbTrace
 10
-58.92477237220685
 20
13.30199999999995
 30
0.0
 11
-57.82410570554018
 21
13.30199999999996
 31
0.0
 12
-58.3744390388735
 22
9.999999999999956
 32
0.0
 13
-58.3744390388735
 23
9.999999999999956
 33
0.0
  0
SOLID
  5
FE
330
F4
100
AcDbEntity
  8
치수문자_일반주서
 62
     0
100
AcDbTrace
 10
-57.82410570554008
 20
-13.30200000000003
 30
0.0
 11
-58.92477237220675
 21
-13.30200000000004
 31
0.0
 12
-58.37443903887343
 22
-10.00000000000004
 32
0.0
 13
-58.37443903887343
 23
-10.00000000000004
 33
0.0
  0
MTEXT
  5
FF
330
F4
100
AcDbEntity
  8
치수문자_일반주서
 62
     0
100
AcDbMText
 10
-62.74943903887354
 20
20.76024999999994
 30
0.0
 40
3.5
 41
0.0
 71
     2
 72
     1
  1
\A1;%%c20
  7
SLDTEXTSTYLE0
 11
-3.552713678800503E-15
 21
1.0
 31
0.0
 73
     1
 44
1.0
  0
POINT
  5
132
330
F4
100
AcDbEntity
  8
Defpoints
 62
     0
100
AcDbPoint
 10
-47.00000000000001
 20
9.999999999999998
 30
0.0
  0
POINT
  5
133
330
F4
100
AcDbEntity
  8
Defpoints
 62
     0
100
AcDbPoint
 10
-47.00000000000001
 20
-9.999999999999995
 30
0.0
  0
POINT
  5
134
330
F4
100
AcDbEntity
  8
Defpoints
 62
     0
100
AcDbPoint
 10
-58.37443903887343
 20
-10.00000000000004
 30
0.0
  0
ENDBLK
  5
F6
330
F4
100
AcDbEntity
  8
0
100
AcDbBlockEnd
  0
BLOCK
  5
101
330
100
100
AcDbEntity
  8
0
100
AcDbBlockBegin
  2
SW_DOWELSYMBOL_0
 70
     0
 10
0.0
 20
0.0
 30
0.0
  3
SW_DOWELSYMBOL_0
  1

  0
CIRCLE
  5
103
330
100
100
AcDbEntity
  8
외형선
 62
     0
100
AcDbCircle
 10
0.0
 20
0.0
 30
0.0
 40
3.000000000000004
  0
HATCH
  5
104
330
100
100
AcDbEntity
  8
0
  6
Continuous
 62
     0
370
    30
100
AcDbHatch
 10
0.0
 20
0.0
 30
0.0
210
0.0
220
0.0
230
1.0
  2
SOLID
 70
     1
 71
     0
 91
        1
 92
        0
 93
        3
 72
     2
 10
0.0000000000000104
 20
0.0
 40
3.000000000000004
 50
0.0
 51
90.0
 73
     1
 72
     1
 10
0.0000000000000104
 20
3.000000000000004
 11
0.0000000000000104
 21
0.0
 72
     1
 10
0.0000000000000104
 20
0.0
 11
3.000000000000015
 21
0.0
 97
        0
 75
     0
 76
     1
 98
        1
 10
0.0
 20
0.0
  0
HATCH
  5
105
330
100
100
AcDbEntity
  8
0
  6
Continuous
 62
     0
370
    30
100
AcDbHatch
 10
0.0
 20
0.0
 30
0.0
210
0.0
220
0.0
230
1.0
  2
SOLID
 70
     1
 71
     0
 91
        1
 92
        0
 93
        3
 72
     2
 10
0.0000000000000104
 20
0.0
 40
3.000000000000004
 50
180.0
 51
270.0000000000008
 73
     1
 72
     1
 10
0.0000000000000104
 20
-3.000000000000004
 11
0.0000000000000104
 21
0.0
 72
     1
 10
0.0000000000000104
 20
0.0
 11
-2.999999999999994
 21
0.0
 97
        0
 75
     0
 76
     1
 98
        1
 10
0.0
 20
0.0
  0
ENDBLK
  5
102
330
100
100
AcDbEntity
  8
0
100
AcDbBlockEnd
  0
ENDSEC
  0
SECTION
  2
ENTITIES
  0
LINE
  5
95
330
1F
100
AcDbEntity
  8
0
  6
Continuous
 62
   131
370
    15
100
AcDbLine
 10
30.53545131723462
 20
2.8299534901297
 30
0.0
 11
30.45318492247745
 21
2.875143978439795
 31
0.0
  0
SPLINE
  5
96
330
1F
100
AcDbEntity
  8
0
  6
Continuous
 62
     1
370
    15
100
AcDbSpline
210
0.0
220
0.0
230
1.0
 70
     8
 71
     3
 72
     9
 73
     5
 74
     0
 42
0.000000001
 43
0.00000001
 40
0.0
 40
0.0
 40
0.0
 40
0.0
 40
0.5259507176743551
 40
1.0
 40
1.0
 40
1.0
 40
1.0
 10
36.09292008148827
 20
2.562459148784067
 30
0.0
 10
35.60642113387211
 20
2.794458190242854
 30
0.0
 10
34.68143152692308
 20
3.235562334913742
 30
0.0
 10
33.75642426550359
 20
3.720319884375167
 30
0.0
 10
33.31792523708166
 20
3.950118852799293
 30
0.0
  0
LINE
  5
97
330
1F
100
AcDbEntity
  8
0
  6
Continuous
 62
     1
370
    15
100
AcDbLine
 10
13.14387828999937
 20
10.00000000000001
 30
0.0
 11
12.0
 21
10.00000000000001
 31
0.0
  0
SPLINE
  5
98
330
1F
100
AcDbEntity
  8
0
  6
Continuous
 62
     1
370
    15
100
AcDbSpline
210
0.0
220
0.0
230
1.0
 70
     8
 71
     3
 72
    21
 73
    17
 74
     0
 42
0.000000001
 43
0.00000001
 40
0.0
 40
0.0
 40
0.0
 40
0.0
 40
0.1077596083206381
 40
0.2090426866284469
 40
0.3010777986497799
 40
0.3765775604652514
 40
0.4367738827982961
 40
0.4881494451948678
 40
0.5323632500396787
 40
0.5829431153775103
 40
0.6545276175004883
 40
0.7378924440178183
 40
0.8046197279971221
 40
0.859721426838748
 40
0.9423422891844757
 40
1.0
 40
1.0
 40
1.0
 40
1.0
 10
32.7875598670262
 20
7.946395298859111
 30
0.0
 10
32.51233764348705
 20
7.931784693725648
 30
0.0
 10
31.97843450552008
 20
7.903441604900766
 30
0.0
 10
31.1431093557492
 20
7.87015632074856
 30
0.0
 10
30.39818700600039
 20
7.847473866795546
 30
0.0
 10
29.76827758117535
 20
7.83174503142476
 30
0.0
 10
29.25671909594804
 20
7.822067602731721
 30
0.0
 10
28.83230456615388
 20
7.816085956305282
 30
0.0
 10
28.43542662681495
 20
7.812127512886453
 30
0.0
 10
27.98341889722289
 20
7.809448674653638
 30
0.0
 10
27.42085915921605
 20
7.809133457786286
 30
0.0
 10
26.81374279375147
 20
7.812927339914882
 30
0.0
 10
26.25242134676226
 20
7.820072724481126
 30
0.0
 10
25.69424294256145
 20
7.830259810333068
 30
0.0
 10
25.16085699553528
 20
7.842499664792977
 30
0.0
 10
24.77790547633224
 20
7.855116913465817
 30
0.0
 10
24.62050361906361
 20
7.8603028920431
 30
0.0
  0
SPLINE
  5
99
330
1F
100
AcDbEntity
  8
0
  6
Continuous
 62
     1
370
    15
100
AcDbSpline
210
0.0
220
0.0
230
1.0
 70
     8
 71
     3
 72
    35
 73
    31
 74
     0
 42
0.000000001
 43
0.00000001
 40
0.0
 40
0.0
 40
0.0
 40
0.0
 40
0.0585666763815858
 40
0.1066481281484169
 40
0.1450290123312229
 40
0.1781614409489046
 40
0.2101921395460007
 40
0.2375540589086615
 40
0.262773859434654
 40
0.2860539487801947
 40
0.3124186300702069
 40
0.3475538991974284
 40
0.3817102682023714
 40
0.4073834635793472
 40
0.4297750075406036
 40
0.4607199804443873
 40
0.4999889427050634
 40
0.5460865736593347
 40
0.5834831013496428
 40
0.619192554160875
 40
0.6591959661795118
 40
0.6965055048616373
 40
0.7270581507868822
 40
0.7523449994964638
 40
0.7778697462829588
 40
0.806101345721305
 40
0.841659391371793
 40
0.8846547600620633
 40
0.9369029098689967
 40
1.0
 40
1.0
 40
1.0
 40
1.0
 10
58.28501079119857
 20
6.839531154278543
 30
0.0
 10
57.9548662600755
 20
6.812251751822047
 30
0.0
 10
57.35368315667878
 20
6.762576793488448
 30
0.0
 10
56.51478107685841
 20
6.706989676902675
 30
0.0
 10
55.80200453185104
 20
6.668210854593922
 30
0.0
 10
55.18822096866853
 20
6.639997779343369
 30
0.0
 10
54.64269626030774
 20
6.619436650453218
 30
0.0
 10
54.15026649054193
 20
6.604628440094975
 30
0.0
 10
53.70789614801016
 20
6.594288544132423
 30
0.0
 10
53.27124356921759
 20
6.586794965735336
 30
0.0
 10
52.77661663654898
 20
6.581454767066586
 30
0.0
 10
52.21922614485393
 20
6.579854314412291
 30
0.0
 10
51.66567020424147
 20
6.58322641356938
 30
0.0
 10
51.18668397932623
 20
6.589817299561688
 30
0.0
 10
50.72456785739731
 20
6.59901997141805
 30
0.0
 10
50.17899877920397
 20
6.613611229784697
 30
0.0
 10
49.49200085993431
 20
6.638071513219478
 30
0.0
 10
48.77022890653661
 20
6.671871515655469
 30
0.0
 10
48.0856185613051
 20
6.711514231256897
 30
0.0
 10
47.43992880478443
 20
6.754388852534382
 30
0.0
 10
46.78148980040289
 20
6.804059016921729
 30
0.0
 10
46.15269476070193
 20
6.85759945865282
 30
0.0
 10
45.60937233556675
 20
6.908416504313753
 30
0.0
 10
45.13474547017459
 20
6.955846066076115
 30
0.0
 10
44.67463553268106
 20
7.0045299725214
 30
0.0
 10
44.15166644545464
 20
7.063102607759368
 30
0.0
 10
43.5199732444154
 20
7.138486979394908
 30
0.0
 10
42.74093789855414
 20
7.237827313011978
 30
0.0
 10
41.8160929946728
 20
7.366528232313795
 30
0.0
 10
41.1685673534602
 20
7.466603699636943
 30
0.0
 10
40.81435261718056
 20
7.521347794711768
 30
0.0
  0
SPLINE
  5
9A
330
1F
100
AcDbEntity
  8
0
  6
Continuous
 62
     1
370
    15
100
AcDbSpline
210
0.0
220
0.0
230
1.0
 70
     8
 71
     3
 72
    32
 73
    28
 74
     0
 42
0.000000001
 43
0.00000001
 40
0.0
 40
0.0
 40
0.0
 40
0.0
 40
0.0596032761478945
 40
0.1145764365283763
 40
0.1640494361656727
 40
0.2051718243529994
 40
0.2385340374122274
 40
0.2669370150197715
 40
0.2911052190566271
 40
0.3184619421040263
 40
0.357316227630297
 40
0.4027163576629541
 40
0.4391426361304676
 40
0.4690059203653176
 40
0.5058585697327195
 40
0.5500482300322499
 40
0.5892670046886294
 40
0.6233506016197989
 40
0.6539628094907459
 40
0.6862824860102129
 40
0.7294711134469137
 40
0.7759476588083469
 40
0.8159314308883824
 40
0.8479325741461057
 40
0.8829997273276872
 40
0.9337410410722676
 40
0.9999999999999999
 40
0.9999999999999999
 40
0.9999999999999999
 40
0.9999999999999999
 10
17.74542487284993
 20
-8.321396002407955
 30
0.0
 10
18.02803284526727
 20
-8.293202291552664
 30
0.0
 10
18.57129517087741
 20
-8.239005020344033
 30
0.0
 10
19.40652090704309
 20
-8.165706483615812
 30
0.0
 10
20.1467256947575
 20
-8.10693495695386
 30
0.0
 10
20.77634982219381
 20
-8.05998337309632
 30
0.0
 10
21.29362766674065
 20
-8.024439123330614
 30
0.0
 10
21.72466126571765
 20
-7.996813355761842
 30
0.0
 10
22.12548744002556
 20
-7.972718813771227
 30
0.0
 10
22.57885400423589
 20
-7.947225496967978
 30
0.0
 10
23.1396404696314
 20
-7.918510314768024
 30
0.0
 10
23.74590609764083
 20
-7.891323622308016
 30
0.0
 10
24.30690115966453
 20
-7.869822878544353
 30
0.0
 10
24.82480484983266
 20
-7.852698644552211
 30
0.0
 10
25.38164711058189
 20
-7.837224367019106
 30
0.0
 10
25.98543116085878
 20
-7.824312534499669
 30
0.0
 10
26.57530818104182
 20
-7.815596816938024
 30
0.0
 10
27.09697491913881
 20
-7.810944427368396
 30
0.0
 10
27.58401521731908
 20
-7.809142141181328
 30
0.0
 10
28.116651509388
 20
-7.809851643841613
 30
0.0
 10
28.72895072653874
 20
-7.814358567898245
 30
0.0
 10
29.37990122220007
 20
-7.823799951645001
 30
0.0
 10
29.97549656166256
 20
-7.836592065406828
 30
0.0
 10
30.51594135962335
 20
-7.851277081409147
 30
0.0
 10
31.10924933562945
 20
-7.870597956804416
 30
0.0
 10
31.87075219111237
 20
-7.900077675099071
 30
0.0
 10
32.45608012866529
 20
-7.929648761707593
 30
0.0
 10
32.7875598670262
 20
-7.946395298859095
 30
0.0
  0
SPLINE
  5
9B
330
1F
100
AcDbEntity
  8
0
  6
Continuous
 62
     1
370
    15
100
AcDbSpline
210
0.0
220
0.0
230
1.0
 70
     8
 71
     3
 72
    19
 73
    15
 74
     0
 42
0.000000001
 43
0.00000001
 40
0.0
 40
0.0
 40
0.0
 40
0.0
 40
0.1473945021933198
 40
0.2694459314323824
 40
0.3698829080277052
 40
0.4529463334049985
 40
0.5188952153058415
 40
0.5785209022970282
 40
0.637590860512981
 40
0.708961695958648
 40
0.7961166007204474
 40
0.8895643807730504
 40
0.9729814925571197
 40
0.9999999999999999
 40
0.9999999999999999
 40
0.9999999999999999
 40
0.9999999999999999
 10
40.81435261718055
 20
-7.521347794711755
 30
0.0
 10
41.16856735176115
 20
-7.466603698474495
 30
0.0
 10
41.81609298986782
 20
-7.366528229026351
 30
0.0
 10
42.74093791286833
 20
-7.237827322805337
 30
0.0
 10
43.51997320410073
 20
-7.138486951812739
 30
0.0
 10
44.15166655757059
 20
-7.063102684465912
 30
0.0
 10
44.67463521996422
 20
-7.004529758569387
 30
0.0
 10
45.13474651727154
 20
-6.955846782470154
 30
0.0
 10
45.60936811196581
 20
-6.908413614645693
 30
0.0
 10
46.15271608505817
 20
-6.85761404817294
 30
0.0
 10
46.78138802112091
 20
-6.803989382421736
 30
0.0
 10
47.44031764241942
 20
-6.75465488422329
 30
0.0
 10
47.93724991954301
 20
-6.720679379725203
 30
0.0
 10
48.20971388319421
 20
-6.70522711737367
 30
0.0
 10
48.27637326067909
 20
-6.701446660775729
 30
0.0
  0
LINE
  5
9C
330
1F
100
AcDbEntity
  8
0
  6
Continuous
 62
     1
370
    15
100
AcDbLine
 10
12.0
 20
-10.0
 30
0.0
 11
13.14387828999937
 21
-10.0
 31
0.0
  0
LINE
  5
9D
330
1F
100
AcDbEntity
  8
0
  6
Continuous
 62
   131
370
    15
100
AcDbLine
 10
12.0
 20
10.00000000000001
 30
0.0
 11
-47.00000000000001
 21
10.0
 31
0.0
  0
LINE
  5
9E
330
1F
100
AcDbEntity
  8
0
  6
Continuous
 62
   131
370
    15
100
AcDbLine
 10
-47.00000000000001
 20
-9.999999999999998
 30
0.0
 11
12.0
 21
-9.999999999999995
 31
0.0
  0
LINE
  5
9F
330
1F
100
AcDbEntity
  8
0
  6
Continuous
 62
   131
370
    15
100
AcDbLine
 10
-47.00000000000001
 20
9.999999999999998
 30
0.0
 11
-48.00000000000001
 21
8.999999999999995
 31
0.0
  0
LINE
  5
A0
330
1F
100
AcDbEntity
  8
0
  6
Continuous
 62
   131
370
    15
100
AcDbLine
 10
-48.00000000000001
 20
-8.999999999999995
 30
0.0
 11
-47.00000000000001
 21
-9.999999999999995
 31
0.0
  0
SPLINE
  5
A1
330
1F
100
AcDbEntity
  8
0
  6
Continuous
 62
     1
370
    15
100
AcDbSpline
210
0.0
220
0.0
230
1.0
 70
     8
 71
     3
 72
    10
 73
     6
 74
     0
 42
0.000000001
 43
0.00000001
 40
0.0
 40
0.0
 40
0.0
 40
0.0
 40
0.5
 40
0.5
 40
1.0
 40
1.0
 40
1.0
 40
1.0
 10
62.00000000000001
 20
-2.672429460296438
 30
0.0
 10
61.1432431594078
 20
-1.998877176673856
 30
0.0
 10
60.29803636418459
 20
-1.303046910902131
 30
0.0
 10
58.63067637845722
 20
0.1330799216816976
 30
0.0
 10
57.80798421885811
 20
0.873731669169751
 30
0.0
 10
57.00000000000226
 20
1.639931148972199
 30
0.0
  0
LINE
  5
A2
330
1F
100
AcDbEntity
  8
0
  6
Continuous
 62
     1
370
    15
100
AcDbLine
 10
57.00000000000001
 20
2.937719435296597
 30
0.0
 11
62.00000000000001
 21
0.000000000000011
 31
0.0
  0
LINE
  5
A3
330
1F
100
AcDbEntity
  8
0
  6
Continuous
 62
     1
370
    15
100
AcDbLine
 10
62.00000000000001
 20
0.000000000000011
 30
0.0
 11
62.00000000000001
 21
-2.672429460296438
 31
0.0
  0
SPLINE
  5
A4
330
1F
100
AcDbEntity
  8
0
  6
Continuous
 62
     1
370
    15
100
AcDbSpline
210
0.0
220
0.0
230
1.0
 70
     8
 71
     3
 72
    66
 73
    62
 74
     0
 42
0.000000001
 43
0.00000001
 40
0.0
 40
0.0
 40
0.0
 40
0.0
 40
0.03125
 40
0.03125
 40
0.0625
 40
0.0625
 40
0.09375
 40
0.09375
 40
0.125
 40
0.125
 40
0.15625
 40
0.15625
 40
0.1875
 40
0.1875
 40
0.21875
 40
0.21875
 40
0.25
 40
0.25
 40
0.28125
 40
0.28125
 40
0.3125
 40
0.3125
 40
0.34375
 40
0.34375
 40
0.375
 40
0.375
 40
0.40625
 40
0.40625
 40
0.4375
 40
0.4375
 40
0.46875
 40
0.46875
 40
0.5
 40
0.5
 40
0.53125
 40
0.53125
 40
0.5625
 40
0.5625
 40
0.59375
 40
0.59375
 40
0.625
 40
0.625
 40
0.65625
 40
0.65625
 40
0.6875
 40
0.6875
 40
0.71875
 40
0.71875
 40
0.75
 40
0.75
 40
0.78125
 40
0.78125
 40
0.8125
 40
0.8125
 40
0.84375
 40
0.84375
 40
0.875
 40
0.875
 40
0.9375
 40
0.9375
 40
1.0
 40
1.0
 40
1.0
 40
1.0
 10
12.00000000000008
 20
9.772414129600511
 30
0.0
 10
12.52174334728085
 20
9.708589412388644
 30
0.0
 10
13.04427378082217
 20
9.631436058841647
 30
0.0
 10
14.08454339283525
 20
9.451493223879393
 30
0.0
 10
14.60316434795424
 20
9.3486954967183
 30
0.0
 10
15.64648282151845
 20
9.117609974352167
 30
0.0
 10
16.16908434142464
 20
8.989436373564898
 30
0.0
 10
17.20980364527485
 20
8.709451018856118
 30
0.0
 10
17.72810040678002
 20
8.557666665441703
 30
0.0
 10
18.77122062549465
 20
8.230660274124116
 30
0.0
 10
19.29387812448728
 20
8.055624170530871
 30
0.0
 10
20.33501733549503
 20
7.684661934001779
 30
0.0
 10
20.85306700658972
 20
7.488828488718872
 30
0.0
 10
21.89595895563522
 20
7.076531842188311
 30
0.0
 10
22.41865732102924
 20
6.860313781922069
 30
0.0
 10
23.46018661431145
 20
6.410399004351029
 30
0.0
 10
23.97806632184735
 20
6.176875834035913
 30
0.0
 10
25.02070000831289
 20
5.692688975495719
 30
0.0
 10
25.54342412347572
 20
5.442307736059417
 30
0.0
 10
26.58531363678365
 20
4.92803322748065
 30
0.0
 10
27.10310052388073
 20
4.664396269148528
 30
0.0
 10
28.14544597963576
 20
4.124052677890816
 30
0.0
 10
28.66818072544737
 20
3.847637162933593
 30
0.0
 10
29.71040056201187
 20
3.285690324176001
 30
0.0
 10
30.22817178067508
 20
3.000487798359886
 30
0.0
 10
31.27019906523589
 20
2.42154256894622
 30
0.0
 10
31.79292932154923
 20
2.128067589590318
 30
0.0
 10
32.835449552933
 20
1.536688294909342
 30
0.0
 10
33.35328225666711
 20
1.239165222230609
 30
0.0
 10
34.3949614600579
 20
0.6404240836952955
 30
0.0
 10
34.91767210715967
 20
0.3394186239073119
 30
0.0
 10
35.96046277611575
 20
-0.2621935040126337
 30
0.0
 10
36.47843411253999
 20
-0.562393161006116
 30
0.0
 10
37.51973535814768
 20
-1.161485394972185
 30
0.0
 10
38.04241127821889
 20
-1.460247935473122
 30
0.0
 10
39.08544240155521
 20
-2.052557575581484
 30
0.0
 10
39.60362950501899
 20
-2.345701609482138
 30
0.0
 10
40.64452295244143
 20
-2.92569325084681
 30
0.0
 10
41.16714903101768
 20
-3.212512755907571
 30
0.0
 10
42.2103906024665
 20
-3.776283958027367
 30
0.0
 10
42.72887058666791
 20
-4.052865506156226
 30
0.0
 10
43.76932643455477
 20
-4.594930286046678
 30
0.0
 10
44.29188756198576
 20
-4.860495226021961
 30
0.0
 10
45.33530955507805
 20
-5.377416831474513
 30
0.0
 10
45.85415950568641
 20
-5.628460817326851
 30
0.0
 10
46.89414799457217
 20
-6.115009687052683
 30
0.0
 10
47.41662906748032
 20
-6.350699765190254
 30
0.0
 10
48.46020143842404
 20
-6.803980822423011
 30
0.0
 10
48.97949840570807
 20
-7.021333433357086
 30
0.0
 10
50.01898982083675
 20
-7.436585969199641
 30
0.0
 10
50.54137574357441
 20
-7.634752263934647
 30
0.0
 10
51.58506843413638
 20
-8.009668057429202
 30
0.0
 10
52.10488942559956
 20
-8.186259980339196
 30
0.0
 10
53.14385409974031
 20
-8.516756808467866
 30
0.0
 10
53.66612978584561
 20
-8.670970297493229
 30
0.0
 10
54.70991272623623
 20
-8.955341214443392
 30
0.0
 10
55.23033469926062
 20
-9.08541618392747
 30
0.0
 10
56.78794717364053
 20
-9.437975558468574
 30
0.0
 10
57.83692515812815
 20
-9.623612312389653
 30
0.0
 10
59.91256994731552
 20
-9.887583500346576
 30
0.0
 10
60.96279303492523
 20
-9.966862632760511
 30
0.0
 10
62.00000000000001
 20
-9.99999999999999
 30
0.0
  0
SPLINE
  5
A5
330
1F
100
AcDbEntity
  8
0
  6
Continuous
 62
     1
370
    15
100
AcDbSpline
210
0.0
220
0.0
230
1.0
 70
     8
 71
     3
 72
    15
 73
    11
 74
     0
 42
0.000000001
 43
0.00000001
 40
0.0
 40
0.0
 40
0.0
 40
0.0
 40
0.066625455011686
 40
0.1984533870507171
 40
0.3302826696279407
 40
0.4621130299126314
 40
0.593944194841691
 40
0.7292964868583725
 40
0.8646489275421989
 40
1.0
 40
1.0
 40
1.0
 40
1.0
 10
37.15216902134765
 20
-0.9458407470746456
 30
0.0
 10
36.59358299525292
 20
-0.7229935481575067
 30
0.0
 10
34.92975512618614
 20
-0.0592114935041588
 30
0.0
 10
32.16066897834724
 20
1.067640418516437
 30
0.0
 10
28.84490486010782
 20
2.371352062458316
 30
0.0
 10
25.52910388196456
 20
3.58987550366778
 30
0.0
 10
22.18378916703611
 20
4.687762117204249
 30
0.0
 10
18.80884763268272
 20
5.614172570524356
 30
0.0
 10
15.40441911918455
 20
6.351232571188892
 30
0.0
 10
13.13480254926129
 20
6.632991561108495
 30
0.0
 10
11.99999999999999
 20
6.773870344016246
 30
0.0
  0
SPLINE
  5
A6
330
1F
100
AcDbEntity
  8
0
  6
Continuous
 62
   131
370
    15
100
AcDbSpline
210
0.0
220
0.0
230
1.0
 70
    24
 71
     3
 72
    10
 73
     6
 74
     0
 42
0.000000001
 43
0.00000001
 40
0.0
 40
0.0
 40
0.0
 40
0.0
 40
0.5
 40
0.5
 40
1.0
 40
1.0
 40
1.0
 40
1.0
 10
12.0
 20
9.772414129601115
 30
0.0
 10
12.0
 20
9.320086710563835
 30
0.0
 10
12.0
 20
8.806372330365363
 30
0.0
 10
12.0
 20
7.768029294692835
 30
0.0
 10
12.0
 20
7.246250747765446
 30
0.0
 10
12.0
 20
6.773870344016245
 30
0.0
  0
SPLINE
  5
A7
330
1F
100
AcDbEntity
  8
0
  6
Continuous
 62
     1
370
    15
100
AcDbSpline
210
0.0
220
0.0
230
1.0
 70
     8
 71
     3
 72
    26
 73
    22
 74
     0
 42
0.000000001
 43
0.00000001
 40
0.0
 40
0.0
 40
0.0
 40
0.0
 40
0.0535120915719826
 40
0.1069943544305801
 40
0.1604640632724421
 40
0.213938560640077
 40
0.2674351631859643
 40
0.3209567568117539
 40
0.3713919830660127
 40
0.4218021910499029
 40
0.4722215766046693
 40
0.5226835727774727
 40
0.5731352733604005
 40
0.6294112117828623
 40
0.6856812089793068
 40
0.7419531045808697
 40
0.798234732134982
 40
0.8545338940290127
 40
0.9108450776203697
 40
0.9671365696009095
 40
1.0
 40
1.0
 40
1.0
 40
1.0
 10
61.99999999999999
 20
-9.489408692318985
 30
0.0
 10
61.12844719800307
 20
-9.30992069721244
 30
0.0
 10
59.38582741502587
 20
-8.951044757208653
 30
0.0
 10
56.77275893105792
 20
-8.151393842367252
 30
0.0
 10
54.16039452591517
 20
-7.182093938138333
 30
0.0
 10
51.54775185804016
 20
-6.045434349987235
 30
0.0
 10
48.93407035810081
 20
-4.772392552917692
 30
0.0
 10
46.36941772297688
 20
-3.41744865240109
 30
0.0
 10
43.85562975274763
 20
-2.016463331665815
 30
0.0
 10
41.39259031261296
 20
-0.6024131505650985
 30
0.0
 10
38.92909623906947
 20
0.8239941717093281
 30
0.0
 10
36.46423172232513
 20
2.232992316501194
 30
0.0
 10
33.90429045881375
 20
3.650073972462908
 30
0.0
 10
31.2498674965796
 20
5.037341292327659
 30
0.0
 10
28.50072591003066
 20
6.347328059904505
 30
0.0
 10
25.75147090488641
 20
7.497941641273473
 30
0.0
 10
23.00164917199823
 20
8.45920254126496
 30
0.0
 10
20.25100470405261
 20
9.210724116647233
 30
0.0
 10
17.49999557903695
 20
9.719078946200531
 30
0.0
 10
15.1309530677086
 20
9.983013581755733
 30
0.0
 10
13.67906084383584
 20
9.973066800407153
 30
0.0
 10
13.14387828999937
 20
9.96940031348956
 30
0.0
  0
SPLINE
  5
A8
330
1F
100
AcDbEntity
  8
0
  6
Continuous
 62
     1
370
    15
100
AcDbSpline
210
0.0
220
0.0
230
1.0
 70
     8
 71
     3
 72
    17
 73
    13
 74
     0
 42
0.000000001
 43
0.00000001
 40
0.0
 40
0.0
 40
0.0
 40
0.0
 40
0.1022159274499423
 40
0.2043788035488564
 40
0.306516221256611
 40
0.4086558953638538
 40
0.510825529855387
 40
0.6130505557647093
 40
0.7152559793997554
 40
0.8174128280792226
 40
0.9195487235894895
 40
1.0
 40
1.0
 40
1.0
 40
1.0
 10
62.00000000000001
 20
-7.88972264368215
 30
0.0
 10
61.11539875409665
 20
-7.710428080241615
 30
0.0
 10
59.34665538145453
 20
-7.351932009492405
 30
0.0
 10
56.69427731097905
 20
-6.592455314688309
 30
0.0
 10
54.04263741790238
 20
-5.692005602708156
 30
0.0
 10
51.3909282466868
 20
-4.654798164161233
 30
0.0
 10
48.73837354691318
 20
-3.509375171094171
 30
0.0
 10
46.0849164889164
 20
-2.282047560454879
 30
0.0
 10
43.43171030184634
 20
-1.000684763637081
 30
0.0
 10
40.77950088493425
 20
0.3024107463391369
 30
0.0
 10
38.31561170713334
 20
1.512800896158105
 30
0.0
 10
36.73564992342261
 20
2.255579645483699
 30
0.0
 10
36.03948961357069
 20
2.5828616656016
 30
0.0
  0
LINE
  5
A9
330
1F
100
AcDbEntity
  8
0
  6
Continuous
 62
     1
370
    15
100
AcDbLine
 10
61.99999999999971
 20
-9.489408692318992
 30
0.0
 11
62.00000000000001
 21
-7.88972264368215
 31
0.0
  0
LINE
  5
AA
330
1F
100
AcDbEntity
  8
0
  6
Continuous
 62
   131
370
    15
100
AcDbLine
 10
12.0
 20
9.772414129601128
 30
0.0
 11
12.0
 21
10.00000000000001
 31
0.0
  0
LINE
  5
AB
330
1F
100
AcDbEntity
  8
0
  6
Continuous
 62
     1
370
    15
100
AcDbLine
 10
62.00000000000001
 20
-9.99999999999999
 30
0.0
 11
61.99999999999994
 21
-9.489408692318978
 31
0.0
  0
SPLINE
  5
AC
330
1F
100
AcDbEntity
  8
0
  6
Continuous
 62
     1
370
    15
100
AcDbSpline
210
0.0
220
0.0
230
1.0
 70
     8
 71
     3
 72
    15
 73
    11
 74
     0
 42
0.000000001
 43
0.00000001
 40
0.0
 40
0.0
 40
0.0
 40
0.0
 40
0.1137142239659042
 40
0.2274374981840103
 40
0.341186076769859
 40
0.4781018755246051
 40
0.6150201409683345
 40
0.7519405986252042
 40
0.8888629735502133
 40
1.0
 40
1.0
 40
1.0
 40
1.0
 10
57.00000000004329
 20
2.277336188968447
 30
0.0
 10
56.08222365441382
 20
2.678243085331156
 30
0.0
 10
54.24659791945726
 20
3.480088785309643
 30
0.0
 10
51.49288380970116
 20
4.5797079690738
 30
0.0
 10
48.55187163564324
 20
5.634961441486754
 30
0.0
 10
45.42326128129275
 20
6.579865622738832
 30
0.0
 10
42.10771532586935
 20
7.343457141604325
 30
0.0
 10
38.79207741010345
 20
7.830166067520701
 30
0.0
 10
35.68454672601132
 20
8.048097477999997
 30
0.0
 10
33.68222325560092
 20
7.962358277222842
 30
0.0
 10
32.78513056224317
 20
7.923944898121937
 30
0.0
  0
SPLINE
  5
AD
330
1F
100
AcDbEntity
  8
0
  6
Continuous
 62
     1
370
    15
100
AcDbSpline
210
0.0
220
0.0
230
1.0
 70
    24
 71
     3
 72
     8
 73
     4
 74
     0
 42
0.000000001
 43
0.00000001
 40
0.0
 40
0.0
 40
0.0
 40
0.0
 40
1.0
 40
1.0
 40
1.0
 40
1.0
 10
57.00000000000001
 20
1.639931148963693
 30
0.0
 10
57.00000000000001
 20
1.854493127011627
 30
0.0
 10
57.00000000000001
 20
2.067125113709694
 30
0.0
 10
57.00000000000001
 20
2.277336188987581
 30
0.0
  0
SPLINE
  5
AE
330
1F
100
AcDbEntity
  8
0
  6
Continuous
 62
     1
370
    15
100
AcDbSpline
210
0.0
220
0.0
230
1.0
 70
    24
 71
     3
 72
    10
 73
     6
 74
     0
 42
0.000000001
 43
0.00000001
 40
0.0
 40
0.0
 40
0.0
 40
0.0
 40
0.5
 40
0.5
 40
1.0
 40
1.0
 40
1.0
 40
1.0
 10
62.00000000000001
 20
-7.889722643682147
 30
0.0
 10
62.00000000000002
 20
-7.284913890038037
 30
0.0
 10
62.00000000000002
 20
-6.520714839064675
 30
0.0
 10
62.00000000000002
 20
-4.744025591506788
 30
0.0
 10
62.00000000000001
 20
-3.733074430513087
 30
0.0
 10
62.00000000000001
 20
-2.672429460296756
 30
0.0
  0
SPLINE
  5
AF
330
1F
100
AcDbEntity
  8
0
  6
Continuous
 62
     1
370
    15
100
AcDbSpline
210
0.0
220
0.0
230
1.0
 70
    24
 71
     3
 72
    10
 73
     6
 74
     0
 42
0.000000001
 43
0.00000001
 40
0.0
 40
0.0
 40
0.0
 40
0.0
 40
0.5000000000000001
 40
0.5000000000000001
 40
1.0
 40
1.0
 40
1.0
 40
1.0
 10
57.0
 20
2.277336188987582
 30
0.0
 10
57.0
 20
2.878840455911244
 30
0.0
 10
57.00000000000001
 20
3.450743803947676
 30
0.0
 10
57.00000000000001
 20
4.486413301752648
 30
0.0
 10
57.0
 20
4.949784524560214
 30
0.0
 10
57.00000000000001
 20
5.338750903172982
 30
0.0
  0
SPLINE
  5
B0
330
1F
100
AcDbEntity
  8
0
  6
Continuous
 62
     1
370
    15
100
AcDbSpline
210
0.0
220
0.0
230
1.0
 70
     8
 71
     3
 72
     9
 73
     5
 74
     0
 42
0.000000001
 43
0.00000001
 40
0.0
 40
0.0
 40
0.0
 40
0.0
 40
0.8915024761703452
 40
1.0
 40
1.0
 40
1.0
 40
1.0
 10
62.00000000000001
 20
7.000000000000011
 30
0.0
 10
60.8949482081813
 20
6.994681443891438
 30
0.0
 10
59.65540954019498
 20
6.988715609526715
 30
0.0
 10
58.41586575600864
 20
6.841960795097736
 30
0.0
 10
58.28137832474598
 20
6.826038261122112
 30
0.0
  0
SPLINE
  5
B1
330
1F
100
AcDbEntity
  8
0
  6
Continuous
 62
     1
370
    15
100
AcDbSpline
210
0.0
220
0.0
230
1.0
 70
     8
 71
     3
 72
    10
 73
     6
 74
     0
 42
0.000000001
 43
0.00000001
 40
0.0
 40
0.0
 40
0.0
 40
0.0
 40
0.5
 40
0.5
 40
1.0
 40
1.0
 40
1.0
 40
1.0
 10
62.00000000000001
 20
7.000000000000011
 30
0.0
 10
61.15763595404824
 20
6.771599311814831
 30
0.0
 10
60.31936082760956
 20
6.520011639069236
 30
0.0
 10
58.65146435802873
 20
5.967828526893996
 30
0.0
 10
57.82259727129095
 20
5.667959600724483
 30
0.0
 10
56.99999999999999
 20
5.338750903172984
 30
0.0
  0
SPLINE
  5
B2
330
1F
100
AcDbEntity
  8
0
  6
Continuous
 62
     1
370
    15
100
AcDbSpline
210
0.0
220
0.0
230
1.0
 70
     8
 71
     3
 72
    10
 73
     6
 74
     0
 42
0.000000001
 43
0.00000001
 40
0.0
 40
0.0
 40
0.0
 40
0.0
 40
0.111758071536275
 40
0.5560393376622967
 40
0.9999999999999999
 40
0.9999999999999999
 40
0.9999999999999999
 40
0.9999999999999999
 10
17.74969875987951
 20
-8.304166650172203
 30
0.0
 10
17.5355041929443
 20
-8.33061413600954
 30
0.0
 10
16.4698039397786
 20
-8.462200537829787
 30
0.0
 10
14.55302643685823
 20
-8.529146813368174
 30
0.0
 10
12.85080401111619
 20
-8.46451981056957
 30
0.0
 10
11.99999999999999
 20
-8.432217972469003
 30
0.0
  0
SPLINE
  5
B3
330
1F
100
AcDbEntity
  8
0
  6
Continuous
 62
     1
370
    15
100
AcDbSpline
210
0.0
220
0.0
230
1.0
 70
     8
 71
     3
 72
    17
 73
    13
 74
     0
 42
0.000000001
 43
0.00000001
 40
0.0
 40
0.0
 40
0.0
 40
0.0
 40
0.0706246574484716
 40
0.1856364469488117
 40
0.3006496156196719
 40
0.4156639318729283
 40
0.5306791638744744
 40
0.6456950795938439
 40
0.7342359904444288
 40
0.8228329177626945
 40
0.9114488787315023
 40
1.0
 40
1.0
 40
1.0
 40
1.0
 10
40.82813451531448
 20
-7.486600298390651
 30
0.0
 10
40.14945438215871
 20
-7.596458836405015
 30
0.0
 10
38.36554812214317
 20
-7.885221280015546
 30
0.0
 10
35.47639405810335
 20
-8.03537945447556
 30
0.0
 10
32.16067018420405
 20
-7.958160047493521
 30
0.0
 10
28.84488671701149
 20
-7.578409186626459
 30
0.0
 10
25.52915484938502
 20
-6.924952072171352
 30
0.0
 10
22.46753752619317
 20
-6.087264876371643
 30
0.0
 10
19.66066010663626
 20
-5.15450861479968
 30
0.0
 10
17.10695461089848
 20
-4.193893995651426
 30
0.0
 10
14.55305990161489
 20
-3.145714103392407
 30
0.0
 10
12.85081230405316
 20
-2.393123946523888
 30
0.0
 10
12.0
 20
-2.016966584756887
 30
0.0
  0
SPLINE
  5
B4
330
1F
100
AcDbEntity
  8
0
  6
Continuous
 62
   131
370
    15
100
AcDbSpline
210
0.0
220
0.0
230
1.0
 70
    24
 71
     3
 72
    14
 73
    10
 74
     0
 42
0.000000001
 43
0.00000001
 40
0.0
 40
0.0
 40
0.0
 40
0.0
 40
0.2499999999999998
 40
0.2499999999999998
 40
0.4999999999999999
 40
0.4999999999999999
 40
0.75
 40
0.75
 40
1.0
 40
1.0
 40
1.0
 40
1.0
 10
12.0
 20
-2.016966584756885
 30
0.0
 10
12.0
 20
-2.735796572830473
 30
0.0
 10
12.0
 20
-3.441983801872904
 30
0.0
 10
12.0
 20
-4.774103870721194
 30
0.0
 10
12.0
 20
-5.399591016894845
 30
0.0
 10
12.0
 20
-6.520815142892622
 30
0.0
 10
12.0
 20
-7.016228347225149
 30
0.0
 10
12.0
 20
-7.84636814833977
 30
0.0
 10
12.0
 20
-8.181044331726513
 30
0.0
 10
12.0
 20
-8.432217972469001
 30
0.0
  0
SPLINE
  5
B5
330
1F
100
AcDbEntity
  8
0
  6
Continuous
 62
   131
370
    15
100
AcDbSpline
210
0.0
220
0.0
230
1.0
 70
    24
 71
     3
 72
    14
 73
    10
 74
     0
 42
0.000000001
 43
0.00000001
 40
0.0
 40
0.0
 40
0.0
 40
0.0
 40
0.25
 40
0.25
 40
0.5
 40
0.5
 40
0.75
 40
0.75
 40
1.0
 40
1.0
 40
1.0
 40
1.0
 10
11.99999999999999
 20
6.773870344016247
 30
0.0
 10
11.99999999999999
 20
6.373150387472192
 30
0.0
 10
11.99999999999999
 20
5.862724162365549
 30
0.0
 10
12.0
 20
4.64081462391392
 30
0.0
 10
12.0
 20
3.929534361562955
 30
0.0
 10
12.0
 20
2.367149189732731
 30
0.0
 10
12.0
 20
1.516876784393565
 30
0.0
 10
12.0
 20
-0.2346377281026621
 30
0.0
 10
11.99999999999999
 20
-1.134932925503503
 30
0.0
 10
11.99999999999999
 20
-2.016966584756883
 30
0.0
  0
LINE
  5
B6
330
1F
100
AcDbEntity
  8
0
  6
Continuous
 62
     1
370
    15
100
AcDbLine
 10
62.00000000000001
 20
0.000000000000011
 30
0.0
 11
62.00000000000001
 21
7.00000000000001
 31
0.0
  0
SPLINE
  5
B7
330
1F
100
AcDbEntity
  8
0
  6
Continuous
 62
     1
370
    15
100
AcDbSpline
210
0.0
220
0.0
230
1.0
 70
     8
 71
     3
 72
    12
 73
     8
 74
     0
 42
0.000000001
 43
0.00000001
 40
0.0
 40
0.0
 40
0.0
 40
0.0
 40
0.12836509140678
 40
0.346291096570369
 40
0.5642636360052592
 40
0.7821599520304886
 40
1.0
 40
1.0
 40
1.0
 40
1.0
 10
24.62207216406017
 20
-7.859756506727502
 30
0.0
 10
24.0820213057649
 20
-8.054365625953217
 30
0.0
 10
22.62512362530287
 20
-8.579363540578688
 30
0.0
 10
20.25100146520447
 20
-9.204057245522407
 30
0.0
 10
17.49999481640387
 20
-9.724654597348458
 30
0.0
 10
14.74964965667515
 20
-10.00986585457539
 30
0.0
 10
12.91647097744497
 20
-9.988744917483652
 30
0.0
 10
11.99999999999631
 20
-9.97818581264548
 30
0.0
  0
SPLINE
  5
B8
330
1F
100
AcDbEntity
  8
0
  6
Continuous
 62
   131
370
    15
100
AcDbSpline
210
0.0
220
0.0
230
1.0
 70
    24
 71
     3
 72
     8
 73
     4
 74
     0
 42
0.000000001
 43
0.00000001
 40
0.0
 40
0.0
 40
0.0
 40
0.0
 40
1.0
 40
1.0
 40
1.0
 40
1.0
 10
12.0
 20
-8.432217972469003
 30
0.0
 10
12.0
 20
-8.955691382903048
 30
0.0
 10
12.0
 20
-9.474362158263215
 30
0.0
 10
12.0
 20
-9.978185812634328
 30
0.0
  0
SPLINE
  5
B9
330
1F
100
AcDbEntity
  8
0
  6
Continuous
 62
     1
370
    15
100
AcDbSpline
210
0.0
220
0.0
230
1.0
 70
     8
 71
     3
 72
    14
 73
    10
 74
     0
 42
0.000000001
 43
0.00000001
 40
0.0
 40
0.0
 40
0.0
 40
0.0
 40
0.0280587896424548
 40
0.237708018377312
 40
0.3430100661216672
 40
0.5055319174946883
 40
0.6687334816183198
 40
0.8340096085368465
 40
1.0
 40
1.0
 40
1.0
 40
1.0
 10
48.24106999142177
 20
6.703482005766565
 30
0.0
 10
48.36977223834433
 20
6.759769352672259
 30
0.0
 10
49.46010993524838
 20
7.236623624120382
 30
0.0
 10
51.0339798707957
 20
7.830378553013142
 30
0.0
 10
53.22233163046793
 20
8.553704272072832
 30
0.0
 10
55.20021066143984
 20
9.099373323532639
 30
0.0
 10
57.45171999120615
 20
9.567436871369537
 30
0.0
 10
59.71909716929888
 20
9.887368741852208
 30
0.0
 10
61.23860695294152
 20
9.956771800717055
 30
0.0
 10
61.99999999999966
 20
10.00000000000001
 30
0.0
  0
SPLINE
  5
BA
330
1F
100
AcDbEntity
  8
0
  6
Continuous
 62
     1
370
    15
100
AcDbSpline
210
0.0
220
0.0
230
1.0
 70
    24
 71
     3
 72
    10
 73
     6
 74
     0
 42
0.000000001
 43
0.00000001
 40
0.0
 40
0.0
 40
0.0
 40
0.0
 40
0.5
 40
0.5
 40
1.0
 40
1.0
 40
1.0
 40
1.0
 10
62.00000000000001
 20
7.000000000000011
 30
0.0
 10
62.00000000000002
 20
7.424322568073149
 30
0.0
 10
62.00000000000001
 20
7.917424688671179
 30
0.0
 10
61.99999999999999
 20
8.951951609608564
 30
0.0
 10
62.00000000000001
 20
9.49073435801474
 30
0.0
 10
61.99999999999966
 20
10.00000000000001
 30
0.0
  0
SPLINE
  5
BB
330
1F
100
AcDbEntity
  8
0
  6
Continuous
 62
   131
370
    15
100
AcDbSpline
210
0.0
220
0.0
230
1.0
 70
     8
 71
     3
 72
    10
 73
     6
 74
     0
 42
0.000000001
 43
0.00000001
 40
0.0
 40
0.0
 40
0.0
 40
0.0
 40
0.5
 40
0.5
 40
1.0
 40
1.0
 40
1.0
 40
1.0
 10
8.949953855871833
 20
9.99291367335321
 30
0.0
 10
9.459357919382368
 20
9.98185832031619
 30
0.0
 10
9.96921863337267
 20
9.957843722706732
 30
0.0
 10
10.98393884481981
 20
9.884278188052635
 30
0.0
 10
11.49071538490887
 20
9.83471477360159
 30
0.0
 10
12.0
 20
9.772414129601126
 30
0.0
  0
SPLINE
  5
BC
330
1F
100
AcDbEntity
  8
0
  6
Continuous
 62
   131
370
    15
100
AcDbSpline
210
0.0
220
0.0
230
1.0
 70
     8
 71
     3
 72
    10
 73
     6
 74
     0
 42
0.000000001
 43
0.00000001
 40
0.0
 40
0.0
 40
0.0
 40
0.0
 40
0.5
 40
0.5
 40
1.0
 40
1.0
 40
1.0
 40
1.0
 10
12.0
 20
-9.978185812645618
 30
0.0
 10
11.4907073279408
 20
-9.958797301833577
 30
0.0
 10
10.98392287075986
 20
-9.92653950613107
 30
0.0
 10
9.969186448296833
 20
-9.836501588705547
 30
0.0
 10
9.459317596045754
 20
-9.778630978994782
 30
0.0
 10
8.949905502726644
 20
-9.708193880178708
 30
0.0
  0
LINE
  5
BD
330
1F
100
AcDbEntity
  8
0
  6
Continuous
 62
   131
370
    15
100
AcDbLine
 10
-47.00000000000001
 20
9.999999999999998
 30
0.0
 11
-47.00000000000001
 21
-9.999999999999998
 31
0.0
  0
LINE
  5
BE
330
1F
100
AcDbEntity
  8
0
  6
Continuous
 62
   131
370
    15
100
AcDbLine
 10
8.949953855871826
 20
-9.708091094657163
 30
0.0
 11
8.949953855871833
 21
9.992913702740518
 31
0.0
  0
LINE
  5
BF
330
1F
100
AcDbEntity
  8
0
  6
Continuous
 62
   131
370
    15
100
AcDbLine
 10
-48.00000000000001
 20
8.999999999999995
 30
0.0
 11
-48.00000000000001
 21
-8.999999999999995
 31
0.0
  0
SPLINE
  5
C0
330
1F
100
AcDbEntity
  8
0
  6
Continuous
 62
   131
370
    15
100
AcDbSpline
210
0.0
220
0.0
230
1.0
 70
     8
 71
     3
 72
    10
 73
     6
 74
     0
 42
0.000000001
 43
0.00000001
 40
0.0
 40
0.0
 40
0.0
 40
0.0
 40
0.5
 40
0.5
 40
1.0
 40
1.0
 40
1.0
 40
1.0
 10
11.99999999999999
 20
-8.432217972469003
 30
0.0
 10
11.4907073279408
 20
-8.400754176816916
 30
0.0
 10
10.98392287075985
 20
-8.358439804672306
 30
0.0
 10
9.969186448296833
 20
-8.252348040437248
 30
0.0
 10
9.459317596045754
 20
-8.188475427688642
 30
0.0
 10
8.949905502726644
 20
-8.114104315481274
 30
0.0
  0
SPLINE
  5
C1
330
1F
100
AcDbEntity
  8
0
  6
Continuous
 62
   131
370
    15
100
AcDbSpline
210
0.0
220
0.0
230
1.0
 70
     8
 71
     3
 72
    10
 73
     6
 74
     0
 42
0.000000001
 43
0.00000001
 40
0.0
 40
0.0
 40
0.0
 40
0.0
 40
0.5
 40
0.5
 40
1.0
 40
1.0
 40
1.0
 40
1.0
 10
12.0
 20
-2.016966584756887
 30
0.0
 10
11.49071244318756
 20
-1.789602755810974
 30
0.0
 10
10.98393301244841
 20
-1.560005221006726
 30
0.0
 10
9.969206882113586
 20
-1.097207282947514
 30
0.0
 10
9.459343196720688
 20
-0.863710697295471
 30
0.0
 10
8.949936201404379
 20
-0.6294669937907438
 30
0.0
  0
SPLINE
  5
C2
330
1F
100
AcDbEntity
  8
0
  6
Continuous
 62
   131
370
    15
100
AcDbSpline
210
0.0
220
0.0
230
1.0
 70
    24
 71
     3
 72
    14
 73
    10
 74
     0
 42
0.000000001
 43
0.00000001
 40
0.0
 40
0.0
 40
0.0
 40
0.0
 40
0.2499999999999998
 40
0.2499999999999998
 40
0.4999999999999999
 40
0.4999999999999999
 40
0.75
 40
0.75
 40
1.0
 40
1.0
 40
1.0
 40
1.0
 10
12.0
 20
-2.016966584756885
 30
0.0
 10
12.0
 20
-2.735796572830473
 30
0.0
 10
12.0
 20
-3.441983801872904
 30
0.0
 10
12.0
 20
-4.774103870721194
 30
0.0
 10
12.0
 20
-5.399591016894845
 30
0.0
 10
12.0
 20
-6.520815142892622
 30
0.0
 10
12.0
 20
-7.016228347225149
 30
0.0
 10
12.0
 20
-7.84636814833977
 30
0.0
 10
12.0
 20
-8.181044331726513
 30
0.0
 10
12.0
 20
-8.432217972469001
 30
0.0
  0
SPLINE
  5
C3
330
1F
100
AcDbEntity
  8
0
  6
Continuous
 62
   131
370
    15
100
AcDbSpline
210
0.0
220
0.0
230
1.0
 70
     8
 71
     3
 72
    10
 73
     6
 74
     0
 42
0.000000001
 43
0.00000001
 40
0.0
 40
0.0
 40
0.0
 40
0.0
 40
0.5
 40
0.5
 40
1.0
 40
1.0
 40
1.0
 40
1.0
 10
11.99999999999998
 20
6.773870344016248
 30
0.0
 10
11.49071344413615
 20
6.825702401724576
 30
0.0
 10
10.9839349969682
 20
6.868691196361268
 30
0.0
 10
9.969210880591172
 20
6.93689030236543
 30
0.0
 10
9.459348206246226
 20
6.96212001602707
 30
0.0
 10
8.94994220850458
 20
6.978297409965222
 30
0.0
  0
SPLINE
  5
C4
330
1F
100
AcDbEntity
  8
0
  6
Continuous
 62
   131
370
    15
100
AcDbSpline
210
0.0
220
0.0
230
1.0
 70
    24
 71
     3
 72
    14
 73
    10
 74
     0
 42
0.000000001
 43
0.00000001
 40
0.0
 40
0.0
 40
0.0
 40
0.0
 40
0.25
 40
0.25
 40
0.5
 40
0.5
 40
0.75
 40
0.75
 40
1.0
 40
1.0
 40
1.0
 40
1.0
 10
12.0
 20
6.773870344016245
 30
0.0
 10
12.0
 20
6.37315038747219
 30
0.0
 10
12.0
 20
5.862724162365547
 30
0.0
 10
12.0
 20
4.64081462391392
 30
0.0
 10
12.0
 20
3.929534361562954
 30
0.0
 10
12.0
 20
2.367149189732728
 30
0.0
 10
12.0
 20
1.516876784393563
 30
0.0
 10
12.0
 20
-0.234637728102665
 30
0.0
 10
12.0
 20
-1.134932925503506
 30
0.0
 10
12.0
 20
-2.016966584756885
 30
0.0
  0
SPLINE
  5
C5
330
1F
100
AcDbEntity
  8
0
  6
Continuous
 62
   131
370
    15
100
AcDbSpline
210
0.0
220
0.0
230
1.0
 70
    24
 71
     3
 72
     8
 73
     4
 74
     0
 42
0.000000001
 43
0.00000001
 40
0.0
 40
0.0
 40
0.0
 40
0.0
 40
1.0
 40
1.0
 40
1.0
 40
1.0
 10
12.0
 20
-8.432217972469003
 30
0.0
 10
12.0
 20
-8.955691382903044
 30
0.0
 10
12.0
 20
-9.474362158263212
 30
0.0
 10
12.0
 20
-9.978185812634322
 30
0.0
  0
SPLINE
  5
C6
330
1F
100
AcDbEntity
  8
0
  6
Continuous
 62
   131
370
    15
100
AcDbSpline
210
0.0
220
0.0
230
1.0
 70
    24
 71
     3
 72
    10
 73
     6
 74
     0
 42
0.000000001
 43
0.00000001
 40
0.0
 40
0.0
 40
0.0
 40
0.0
 40
0.5
 40
0.5
 40
1.0
 40
1.0
 40
1.0
 40
1.0
 10
12.0
 20
9.772414129601115
 30
0.0
 10
12.0
 20
9.320086710563839
 30
0.0
 10
12.0
 20
8.806372330365363
 30
0.0
 10
12.0
 20
7.768029294692836
 30
0.0
 10
12.0
 20
7.246250747765448
 30
0.0
 10
12.0
 20
6.773870344016245
 30
0.0
  0
LINE
  5
C7
330
1F
100
AcDbEntity
  8
중심선
100
AcDbLine
 10
-51.00000000000001
 20
0.0000000000000005
 30
0.0
 11
69.0
 21
0.0000000000000117
 31
0.0
  0
CIRCLE
  5
C8
330
1F
100
AcDbEntity
  8
외형선
100
AcDbCircle
 10
0.0000000000000104
 20
0.0
 30
0.0
 40
3.000000000000005
  0
INSERT
  5
C9
330
1F
100
AcDbEntity
  8
0
  6
Continuous
 62
     7
100
AcDbBlockReference
 66
     1
  2
블럭10
 10
-22.93944368806589
 20
-52.04609937292004
 30
0.0
  0
ATTRIB
  5
CA
330
C9
100
AcDbEntity
  8
FORMAT
 62
     2
100
AcDbText
 10
-39.05870472750145
 20
-49.97073246008785
 30
0.0
 40
4.233333333333333
  1
SEME7020050E [ 2 FLUTE ]
 41
0.75
  7
SLDTEXTSTYLE0
 11
-39.05870472750145
 21
-52.08739912675452
 31
0.0
100
AcDbAttribute
  2
AUTOATTR0
 70
     0
 74
     1
  0
SEQEND
  5
CB
330
C9
100
AcDbEntity
  8
0
  6
Continuous
 62
     7
  0
HATCH
  5
CC
330
1F
100
AcDbEntity
  8
중심선
100
AcDbHatch
 10
0.0
 20
0.0
 30
0.0
210
0.0
220
0.0
230
1.0
  2
SOLID
 70
     1
 71
     0
 91
        1
 92
        0
 93
        4
 72
     1
 10
-17.22453438368504
 20
-35.7989250712761
 11
-20.67080962752232
 21
-35.7989250712761
 72
     1
 10
-20.67080962752232
 20
-35.7989250712761
 11
-22.79903948672635
 21
-38.3352506518487
 72
     1
 10
-22.79903948672635
 20
-38.3352506518487
 11
-19.35273115777591
 21
-38.33521122254621
 72
     1
 10
-19.35273115777591
 20
-38.33521122254621
 11
-17.22453438368504
 21
-35.7989250712761
 97
        0
 75
     0
 76
     1
 98
        1
 10
0.0
 20
0.0
  0
HATCH
  5
CD
330
1F
100
AcDbEntity
  8
중심선
100
AcDbHatch
 10
0.0
 20
0.0
 30
0.0
210
0.0
220
0.0
230
1.0
  2
SOLID
 70
     1
 71
     0
 91
        1
 92
        0
 93
        4
 72
     1
 10
-12.21177039264909
 20
-35.7989250712761
 11
-15.65804563648637
 21
-35.7989250712761
 72
     1
 10
-15.65804563648637
 20
-35.7989250712761
 11
-20.18918364484376
 21
-41.19892507127612
 72
     1
 10
-20.18918364484376
 20
-41.19892507127612
 11
-16.74290840100648
 21
-41.19892507127612
 72
     1
 10
-16.74290840100648
 20
-41.19892507127612
 11
-12.21177039264909
 21
-35.7989250712761
 97
        0
 75
     0
 76
     1
 98
        1
 10
0.0
 20
0.0
  0
HATCH
  5
CE
330
1F
100
AcDbEntity
  8
중심선
100
AcDbHatch
 10
0.0
 20
0.0
 30
0.0
210
0.0
220
0.0
230
1.0
  2
SOLID
 70
     1
 71
     0
 91
        1
 92
        0
 93
        4
 72
     1
 10
-7.199006401613195
 20
-35.79892507127613
 11
-10.64528164545031
 21
-35.7989250712761
 72
     1
 10
-10.64528164545031
 20
-35.7989250712761
 11
-17.69371854733956
 21
-44.19892507127612
 72
     1
 10
-17.69371854733956
 20
-44.19892507127612
 11
-14.24744330350228
 21
-44.19892507127612
 72
     1
 10
-14.24744330350228
 20
-44.19892507127612
 11
-7.199006401613195
 21
-35.79892507127613
 97
        0
 75
     0
 76
     1
 98
        1
 10
0.0
 20
0.0
  0
HATCH
  5
CF
330
1F
100
AcDbEntity
  8
중심선
100
AcDbHatch
 10
0.0
 20
0.0
 30
0.0
210
0.0
220
0.0
230
1.0
  2
SOLID
 70
     1
 71
     0
 91
        1
 92
        0
 93
        6
 72
     3
 10
-2.399115970600996
 20
-39.99892507132738
 11
3.960054785062284
 21
1.540850780301639E-10
 40
0.3939339440162633
 50
17.09539180608433
 51
320.0019657685079
 73
     0
 72
     1
 10
-0.7161163149004002
 20
-38.58681907591441
 11
1.589185558800638
 21
-36.65249236586649
 72
     3
 10
-2.399115970653842
 20
-39.99892507127625
 11
6.600054785286829
 21
-1.249000902703301E-13
 40
0.6363583540795982
 50
39.99873849337408
 51
368.4976242363725
 73
     1
 72
     1
 10
4.026216521246767
 20
-39.03892507120613
 11
-3.71904866381792
 21
-39.0389250712061
 72
     1
 10
-3.71904866381792
 20
-39.0389250712061
 11
-3.719073708263854
 21
-40.95892507120602
 72
     1
 10
-3.719073708263854
 20
-40.95892507120602
 11
0.7223060612081831
 21
-40.95892507120599
 97
        0
 75
     0
 76
     1
 98
        1
 10
0.0
 20
0.0
  0
DIMENSION
  5
D0
330
1F
100
AcDbEntity
  8
치수문자_일반주서
100
AcDbDimension
  2
_D
 10
80.43503350303497
 20
10.00000000000008
 30
0.0
 11
80.43503350303493
 21
22.40332406099052
 31
0.0
 70
   160
  1
%%c<>
 71
     2
 42
20.0
 52
-270.0
  3
SLDDIMSTYLE0
100
AcDbAlignedDimension
 13
62.00000000000001
 23
-9.99999999999999
 33
0.0
 14
61.99999999999966
 24
10.00000000000001
 34
0.0
 50
90.0000000000002
100
AcDbRotatedDimension
  0
DIMENSION
  5
DE
330
1F
100
AcDbEntity
  8
치수문자_일반주서
100
AcDbDimension
  2
_D_1
 10
61.99999999999966
 20
30.78841044024269
 30
0.0
 11
6.99999999999986
 21
30.78841044024269
 31
0.0
 70
   160
  1
<>
 71
     2
 42
109.9999999999997
  3
SLDDIMSTYLE1
100
AcDbAlignedDimension
 13
-48.00000000000001
 23
8.999999999999995
 33
0.0
 14
61.99999999999966
 24
10.00000000000001
 34
0.0
 50
-0.0000000000000037
100
AcDbRotatedDimension
  0
DIMENSION
  5
E9
330
1F
100
AcDbEntity
  8
치수문자_일반주서
100
AcDbDimension
  2
_D_2
 10
61.99999999999966
 20
23.34699780616753
 30
0.0
 11
37.00000000000001
 21
23.34699780616753
 31
0.0
 70
   160
  1
<>
 71
     2
 42
49.99999999999966
  3
SLDDIMSTYLE1
100
AcDbAlignedDimension
 13
12.0
 23
10.00000000000001
 33
0.0
 14
61.99999999999966
 24
10.00000000000001
 34
0.0
100
AcDbRotatedDimension
  0
DIMENSION
  5
F3
330
1F
100
AcDbEntity
  8
치수문자_일반주서
100
AcDbDimension
  2
_D_3
 10
-58.37443903887343
 20
-10.00000000000004
 30
0.0
 11
-58.37443903887354
 21
20.76024999999996
 31
0.0
 70
   160
  1
%%c<>
 71
     2
 42
19.99999999999999
 52
-270.0
  3
SLDDIMSTYLE0
100
AcDbAlignedDimension
 13
-47.00000000000001
 23
9.999999999999998
 33
0.0
 14
-47.00000000000001
 24
-9.999999999999995
 34
0.0
 50
90.0000000000002
100
AcDbRotatedDimension
  0
INSERT
  5
106
330
1F
100
AcDbEntity
  8
외형선
100
AcDbBlockReference
  2
SW_DOWELSYMBOL_0
 10
0.0000000000000104
 20
0.0
 30
0.0
  0
ENDSEC
  0
SECTION
  2
OBJECTS
  0
DICTIONARY
  5
C
330
0
100
AcDbDictionary
281
     1
  3
ACAD_GROUP
350
D
  3
ACAD_IMAGE_VARS
350
12A
  3
ACAD_LAYOUT
350
1A
  3
ACAD_MLINESTYLE
350
17
  3
ACAD_PLOTSETTINGS
350
19
  3
ACAD_PLOTSTYLENAME
350
E
  3
ACAD_SCALELIST
350
47
  3
APPDATA
350
128
  3
DWGPROPS
350
13A
  0
DICTIONARY
  5
D
102
{ACAD_REACTORS
330
C
102
}
330
C
100
AcDbDictionary
281
     1
  0
RASTERVARIABLES
  5
12A
102
{ACAD_REACTORS
330
C
102
}
330
C
100
AcDbRasterVariables
 90
        0
 70
     1
 71
     1
 72
     1
  0
DICTIONARY
  5
1A
102
{ACAD_REACTORS
330
C
102
}
330
C
100
AcDbDictionary
281
     1
  3
Layout1
350
1E
  3
Layout2
350
26
  3
Model
350
22
  0
DICTIONARY
  5
17
102
{ACAD_REACTORS
330
C
102
}
330
C
100
AcDbDictionary
281
     1
  3
Standard
350
18
  0
DICTIONARY
  5
19
102
{ACAD_REACTORS
330
C
102
}
330
C
100
AcDbDictionary
281
     1
  0
ACDBDICTIONARYWDFLT
  5
E
102
{ACAD_REACTORS
330
C
102
}
330
C
100
AcDbDictionary
281
     1
  3
Normal
350
F
100
AcDbDictionaryWithDefault
340
F
  0
DICTIONARY
  5
47
102
{ACAD_REACTORS
330
C
102
}
330
C
100
AcDbDictionary
281
     1
  3
A0
350
48
  3
A1
350
49
  3
A2
350
4A
  3
A3
350
4B
  3
A4
350
4C
  3
A5
350
4D
  3
A6
350
4E
  3
A7
350
4F
  3
A8
350
50
  3
A9
350
51
  3
B0
350
52
  3
B1
350
53
  3
B2
350
54
  3
B3
350
55
  3
B4
350
56
  3
B5
350
57
  3
B6
350
58
  3
B7
350
59
  3
B8
350
5A
  3
B9
350
5B
  3
C0
350
5C
  3
C1
350
5D
  3
C2
350
5E
  3
C3
350
5F
  3
C4
350
60
  3
C5
350
61
  3
C6
350
62
  3
C7
350
63
  3
C8
350
64
  3
C9
350
65
  3
D0
350
66
  3
D1
350
67
  3
D2
350
68
  0
DICTIONARY
  5
128
102
{ACAD_REACTORS
330
C
102
}
330
C
100
AcDbDictionary
281
     1
  0
XRECORD
  5
13A
102
{ACAD_REACTORS
330
C
102
}
330
C
100
AcDbXrecord
280
     1
  1
DWGPROPS COOKIE
  2

  3

  4

  6

  7

  8
12014102
  9

300
=
301
=
302
=
303
=
304
=
305
=
306
=
307
=
308
=
309
=
 40
0.0
 41
2458262.178181134
 42
2458266.191227326
  1

 90
        0
  0
LAYOUT
  5
1E
102
{ACAD_REACTORS
330
1A
102
}
330
1A
100
AcDbPlotSettings
  1

  2
none_device
  4

  6

 40
0.0
 41
0.0
 42
0.0
 43
0.0
 44
0.0
 45
0.0
 46
0.0
 47
0.0
 48
0.0
 49
0.0
140
0.0
141
0.0
142
1.0
143
1.0
 70
   688
 72
     1
 73
     0
 74
     5
  7

 75
    16
147
1.0
148
0.0
149
0.0
100
AcDbLayout
  1
Layout1
 70
     1
 71
     1
 10
0.0
 20
0.0
 11
420.0
 21
297.0
 12
0.0
 22
0.0
 32
0.0
 14
1.000000000000000E+20
 24
1.000000000000000E+20
 34
1.000000000000000E+20
 15
-1.000000000000000E+20
 25
-1.000000000000000E+20
 35
-1.000000000000000E+20
146
0.0
 13
0.0
 23
0.0
 33
0.0
 16
1.0
 26
0.0
 36
0.0
 17
0.0
 27
1.0
 37
0.0
 76
     0
330
1B
  0
LAYOUT
  5
26
102
{ACAD_REACTORS
330
1A
102
}
330
1A
100
AcDbPlotSettings
  1

  2
none_device
  4

  6

 40
0.0
 41
0.0
 42
0.0
 43
0.0
 44
0.0
 45
0.0
 46
0.0
 47
0.0
 48
0.0
 49
0.0
140
0.0
141
0.0
142
1.0
143
1.0
 70
   688
 72
     1
 73
     0
 74
     5
  7

 75
    16
147
1.0
148
0.0
149
0.0
100
AcDbLayout
  1
Layout2
 70
     1
 71
     2
 10
0.0
 20
0.0
 11
0.0
 21
0.0
 12
0.0
 22
0.0
 32
0.0
 14
0.0
 24
0.0
 34
0.0
 15
0.0
 25
0.0
 35
0.0
146
0.0
 13
0.0
 23
0.0
 33
0.0
 16
1.0
 26
0.0
 36
0.0
 17
0.0
 27
1.0
 37
0.0
 76
     0
330
23
  0
LAYOUT
  5
22
102
{ACAD_REACTORS
330
1A
102
}
330
1A
100
AcDbPlotSettings
  1

  2
none_device
  4
ANSI_A_(11.00_x_8.50_Inches)
  6

 40
6.35
 41
19.05
 42
6.35000508
 43
19.05000254
 44
279.4
 45
215.9
 46
129.0319724949912
 47
105.8102142242175
 48
0.0
 49
0.0
140
0.0
141
0.0
142
0.0863862919975999
143
1.0
 70
  1696
 72
     0
 73
     0
 74
     0
  7

 75
     0
147
0.0235690232323232
148
0.0
149
0.0
100
AcDbLayout
  1
Model
 70
     1
 71
     0
 10
0.0
 20
0.0
 11
420.0
 21
297.0
 12
0.0
 22
0.0
 32
0.0
 14
-62.74943903887356
 24
-49.97073246008785
 34
0.0
 15
80.98536683636837
 25
35.16341044024269
 35
0.0
146
0.0
 13
0.0
 23
0.0
 33
0.0
 16
1.0
 26
0.0
 36
0.0
 17
0.0
 27
1.0
 37
0.0
 76
     0
330
1F
331
29
  0
MLINESTYLE
  5
18
102
{ACAD_REACTORS
330
17
102
}
330
17
100
AcDbMlineStyle
  2
Standard
 70
     0
  3

 62
   256
 51
90.0
 52
90.0
 71
     2
 49
0.5
 62
   256
  6
BYLAYER
 49
-0.5
 62
   256
  6
BYLAYER
  0
ACDBPLACEHOLDER
  5
F
102
{ACAD_REACTORS
330
E
102
}
330
E
  0
SCALE
  5
48
102
{ACAD_REACTORS
330
47
102
}
330
47
100
AcDbScale
 70
     0
300
1:1
140
1.0
141
1.0
290
     1
  0
SCALE
  5
49
102
{ACAD_REACTORS
330
47
102
}
330
47
100
AcDbScale
 70
     0
300
1:2
140
1.0
141
2.0
290
     0
  0
SCALE
  5
4A
102
{ACAD_REACTORS
330
47
102
}
330
47
100
AcDbScale
 70
     0
300
1:4
140
1.0
141
4.0
290
     0
  0
SCALE
  5
4B
102
{ACAD_REACTORS
330
47
102
}
330
47
100
AcDbScale
 70
     0
300
1:5
140
1.0
141
5.0
290
     0
  0
SCALE
  5
4C
102
{ACAD_REACTORS
330
47
102
}
330
47
100
AcDbScale
 70
     0
300
1:8
140
1.0
141
8.0
290
     0
  0
SCALE
  5
4D
102
{ACAD_REACTORS
330
47
102
}
330
47
100
AcDbScale
 70
     0
300
1:10
140
1.0
141
10.0
290
     0
  0
SCALE
  5
4E
102
{ACAD_REACTORS
330
47
102
}
330
47
100
AcDbScale
 70
     0
300
1:16
140
1.0
141
16.0
290
     0
  0
SCALE
  5
4F
102
{ACAD_REACTORS
330
47
102
}
330
47
100
AcDbScale
 70
     0
300
1:20
140
1.0
141
20.0
290
     0
  0
SCALE
  5
50
102
{ACAD_REACTORS
330
47
102
}
330
47
100
AcDbScale
 70
     0
300
1:30
140
1.0
141
30.0
290
     0
  0
SCALE
  5
51
102
{ACAD_REACTORS
330
47
102
}
330
47
100
AcDbScale
 70
     0
300
1:40
140
1.0
141
40.0
290
     0
  0
SCALE
  5
52
102
{ACAD_REACTORS
330
47
102
}
330
47
100
AcDbScale
 70
     0
300
1:50
140
1.0
141
50.0
290
     0
  0
SCALE
  5
53
102
{ACAD_REACTORS
330
47
102
}
330
47
100
AcDbScale
 70
     0
300
1:100
140
1.0
141
100.0
290
     0
  0
SCALE
  5
54
102
{ACAD_REACTORS
330
47
102
}
330
47
100
AcDbScale
 70
     0
300
2:1
140
2.0
141
1.0
290
     0
  0
SCALE
  5
55
102
{ACAD_REACTORS
330
47
102
}
330
47
100
AcDbScale
 70
     0
300
4:1
140
4.0
141
1.0
290
     0
  0
SCALE
  5
56
102
{ACAD_REACTORS
330
47
102
}
330
47
100
AcDbScale
 70
     0
300
8:1
140
8.0
141
1.0
290
     0
  0
SCALE
  5
57
102
{ACAD_REACTORS
330
47
102
}
330
47
100
AcDbScale
 70
     0
300
10:1
140
10.0
141
1.0
290
     0
  0
SCALE
  5
58
102
{ACAD_REACTORS
330
47
102
}
330
47
100
AcDbScale
 70
     0
300
100:1
140
100.0
141
1.0
290
     0
  0
SCALE
  5
59
102
{ACAD_REACTORS
330
47
102
}
330
47
100
AcDbScale
 70
     0
300
1/128" = 1'-0"
140
0.0078125
141
12.0
290
     0
  0
SCALE
  5
5A
102
{ACAD_REACTORS
330
47
102
}
330
47
100
AcDbScale
 70
     0
300
1/64" = 1'-0"
140
0.015625
141
12.0
290
     0
  0
SCALE
  5
5B
102
{ACAD_REACTORS
330
47
102
}
330
47
100
AcDbScale
 70
     0
300
1/32" = 1'-0"
140
0.03125
141
12.0
290
     0
  0
SCALE
  5
5C
102
{ACAD_REACTORS
330
47
102
}
330
47
100
AcDbScale
 70
     0
300
1/16" = 1'-0"
140
0.0625
141
12.0
290
     0
  0
SCALE
  5
5D
102
{ACAD_REACTORS
330
47
102
}
330
47
100
AcDbScale
 70
     0
300
3/32" = 1'-0"
140
0.09375
141
12.0
290
     0
  0
SCALE
  5
5E
102
{ACAD_REACTORS
330
47
102
}
330
47
100
AcDbScale
 70
     0
300
1/8" = 1'-0"
140
0.125
141
12.0
290
     0
  0
SCALE
  5
5F
102
{ACAD_REACTORS
330
47
102
}
330
47
100
AcDbScale
 70
     0
300
3/16" = 1'-0"
140
0.1875
141
12.0
290
     0
  0
SCALE
  5
60
102
{ACAD_REACTORS
330
47
102
}
330
47
100
AcDbScale
 70
     0
300
1/4" = 1'-0"
140
0.25
141
12.0
290
     0
  0
SCALE
  5
61
102
{ACAD_REACTORS
330
47
102
}
330
47
100
AcDbScale
 70
     0
300
3/8" = 1'-0"
140
0.375
141
12.0
290
     0
  0
SCALE
  5
62
102
{ACAD_REACTORS
330
47
102
}
330
47
100
AcDbScale
 70
     0
300
1/2" = 1'-0"
140
0.5
141
12.0
290
     0
  0
SCALE
  5
63
102
{ACAD_REACTORS
330
47
102
}
330
47
100
AcDbScale
 70
     0
300
3/4" = 1'-0"
140
0.75
141
12.0
290
     0
  0
SCALE
  5
64
102
{ACAD_REACTORS
330
47
102
}
330
47
100
AcDbScale
 70
     0
300
1" = 1'-0"
140
1.0
141
12.0
290
     0
  0
SCALE
  5
65
102
{ACAD_REACTORS
330
47
102
}
330
47
100
AcDbScale
 70
     0
300
1-1/2" = 1'-0"
140
1.5
141
12.0
290
     0
  0
SCALE
  5
66
102
{ACAD_REACTORS
330
47
102
}
330
47
100
AcDbScale
 70
     0
300
3" = 1'-0"
140
3.0
141
12.0
290
     0
  0
SCALE
  5
67
102
{ACAD_REACTORS
330
47
102
}
330
47
100
AcDbScale
 70
     0
300
6" = 1'-0"
140
6.0
141
12.0
290
     0
  0
SCALE
  5
68
102
{ACAD_REACTORS
330
47
102
}
330
47
100
AcDbScale
 70
     0
300
1'-0" = 1'-0"
140
12.0
141
12.0
290
     0
  0
ENDSEC
  0
EOF
