  0
SECTION
  2
HEADER
  9
$ACADVER
  1
AC1015
  9
$ACADMAINTVER
 70
     6
  9
$DWGCODEPAGE
  3
ANSI_949
  9
$INSBASE
 10
0.0
 20
0.0
 30
0.0
  9
$EXTMIN
 10
-136.3905447108421
 20
-49.97073246008785
 30
0.0
  9
$EXTMAX
 10
148.5305524134259
 20
35.16341044024269
 30
0.0
  9
$LIMMIN
 10
0.0
 20
0.0
  9
$LIMMAX
 10
420.0
 20
297.0
  9
$ORTHOMODE
 70
     0
  9
$REGENMODE
 70
     1
  9
$FILLMODE
 70
     1
  9
$QTEXTMODE
 70
     0
  9
$MIRRTEXT
 70
     1
  9
$LTSCALE
 40
1.0
  9
$ATTMODE
 70
     1
  9
$TEXTSIZE
 40
3.5
  9
$TRACEWID
 40
1.0
  9
$TEXTSTYLE
  7
Standard
  9
$CLAYER
  8
0
  9
$CELTYPE
  6
ByLayer
  9
$CECOLOR
 62
   256
  9
$CELTSCALE
 40
1.0
  9
$DISPSILH
 70
     0
  9
$DIMSCALE
 40
1.0
  9
$DIMASZ
 40
3.302
  9
$DIMEXO
 40
1.0
  9
$DIMDLI
 40
3.75
  9
$DIMRND
 40
0.0
  9
$DIMDLE
 40
0.0
  9
$DIMEXE
 40
1.0
  9
$DIMTP
 40
0.0
  9
$DIMTM
 40
0.0
  9
$DIMTXT
 40
3.5
  9
$DIMCEN
 40
2.5
  9
$DIMTSZ
 40
0.0
  9
$DIMTOL
 70
     0
  9
$DIMLIM
 70
     0
  9
$DIMTIH
 70
     1
  9
$DIMTOH
 70
     1
  9
$DIMSE1
 70
     0
  9
$DIMSE2
 70
     0
  9
$DIMTAD
 70
     1
  9
$DIMZIN
 70
     0
  9
$DIMBLK
  1

  9
$DIMASO
 70
     1
  9
$DIMSHO
 70
     1
  9
$DIMPOST
  1

  9
$DIMAPOST
  1

  9
$DIMALT
 70
     0
  9
$DIMALTD
 70
     3
  9
$DIMALTF
 40
0.0393700787401575
  9
$DIMLFAC
 40
1.0
  9
$DIMTOFL
 70
     1
  9
$DIMTVP
 40
0.0
  9
$DIMTIX
 70
     0
  9
$DIMSOXD
 70
     0
  9
$DIMSAH
 70
     0
  9
$DIMBLK1
  1

  9
$DIMBLK2
  1

  9
$DIMSTYLE
  2
ISO-25
  9
$DIMCLRD
 70
     0
  9
$DIMCLRE
 70
     0
  9
$DIMCLRT
 70
     0
  9
$DIMTFAC
 40
1.0
  9
$DIMGAP
 40
1.524
  9
$DIMJUST
 70
     0
  9
$DIMSD1
 70
     0
  9
$DIMSD2
 70
     0
  9
$DIMTOLJ
 70
     0
  9
$DIMTZIN
 70
     0
  9
$DIMALTZ
 70
     0
  9
$DIMALTTZ
 70
     0
  9
$DIMUPT
 70
     0
  9
$DIMDEC
 70
     2
  9
$DIMTDEC
 70
     2
  9
$DIMALTU
 70
     2
  9
$DIMALTTD
 70
     3
  9
$DIMTXSTY
  7
Standard
  9
$DIMAUNIT
 70
     0
  9
$DIMADEC
 70
     2
  9
$DIMALTRND
 40
0.0
  9
$DIMAZIN
 70
     0
  9
$DIMDSEP
 70
    44
  9
$DIMATFIT
 70
     3
  9
$DIMFRAC
 70
     0
  9
$DIMLDRBLK
  1

  9
$DIMLUNIT
 70
     2
  9
$DIMLWD
 70
    -2
  9
$DIMLWE
 70
    -2
  9
$DIMTMOVE
 70
     0
  9
$LUNITS
 70
     2
  9
$LUPREC
 70
     2
  9
$SKETCHINC
 40
1.0
  9
$FILLETRAD
 40
10.0
  9
$AUNITS
 70
     0
  9
$AUPREC
 70
     2
  9
$MENU
  1
.
  9
$ELEVATION
 40
0.0
  9
$PELEVATION
 40
0.0
  9
$THICKNESS
 40
0.0
  9
$LIMCHECK
 70
     0
  9
$CHAMFERA
 40
0.0
  9
$CHAMFERB
 40
0.0
  9
$CHAMFERC
 40
0.0
  9
$CHAMFERD
 40
0.0
  9
$SKPOLY
 70
     0
  9
$TDCREATE
 40
2458262.552805856
  9
$TDUCREATE
 40
2458262.177805856
  9
$TDUPDATE
 40
2458266.629320938
  9
$TDUUPDATE
 40
2458266.254320938
  9
$TDINDWG
 40
0.0019596412
  9
$TDUSRTIMER
 40
2458266.252361331
  9
$USRTIMER
 70
     1
  9
$ANGBASE
 50
0.0
  9
$ANGDIR
 70
     0
  9
$PDMODE
 70
     0
  9
$PDSIZE
 40
-1.0
  9
$PLINEWID
 40
0.0
  9
$SPLFRAME
 70
     0
  9
$SPLINETYPE
 70
     6
  9
$SPLINESEGS
 70
     8
  9
$HANDSEED
  5
14E
  9
$SURFTAB1
 70
     6
  9
$SURFTAB2
 70
     6
  9
$SURFTYPE
 70
     6
  9
$SURFU
 70
     6
  9
$SURFV
 70
     6
  9
$UCSBASE
  2

  9
$UCSNAME
  2

  9
$UCSORG
 10
0.0
 20
0.0
 30
0.0
  9
$UCSXDIR
 10
1.0
 20
0.0
 30
0.0
  9
$UCSYDIR
 10
0.0
 20
1.0
 30
0.0
  9
$UCSORTHOREF
  2

  9
$UCSORTHOVIEW
 70
     0
  9
$UCSORGTOP
 10
0.0
 20
0.0
 30
0.0
  9
$UCSORGBOTTOM
 10
0.0
 20
0.0
 30
0.0
  9
$UCSORGLEFT
 10
0.0
 20
0.0
 30
0.0
  9
$UCSORGRIGHT
 10
0.0
 20
0.0
 30
0.0
  9
$UCSORGFRONT
 10
0.0
 20
0.0
 30
0.0
  9
$UCSORGBACK
 10
0.0
 20
0.0
 30
0.0
  9
$PUCSBASE
  2

  9
$PUCSNAME
  2

  9
$PUCSORG
 10
0.0
 20
0.0
 30
0.0
  9
$PUCSXDIR
 10
1.0
 20
0.0
 30
0.0
  9
$PUCSYDIR
 10
0.0
 20
1.0
 30
0.0
  9
$PUCSORTHOREF
  2

  9
$PUCSORTHOVIEW
 70
     0
  9
$PUCSORGTOP
 10
0.0
 20
0.0
 30
0.0
  9
$PUCSORGBOTTOM
 10
0.0
 20
0.0
 30
0.0
  9
$PUCSORGLEFT
 10
0.0
 20
0.0
 30
0.0
  9
$PUCSORGRIGHT
 10
0.0
 20
0.0
 30
0.0
  9
$PUCSORGFRONT
 10
0.0
 20
0.0
 30
0.0
  9
$PUCSORGBACK
 10
0.0
 20
0.0
 30
0.0
  9
$USERI1
 70
     0
  9
$USERI2
 70
     0
  9
$USERI3
 70
     0
  9
$USERI4
 70
     0
  9
$USERI5
 70
     0
  9
$USERR1
 40
0.0
  9
$USERR2
 40
0.0
  9
$USERR3
 40
0.0
  9
$USERR4
 40
0.0
  9
$USERR5
 40
0.0
  9
$WORLDVIEW
 70
     1
  9
$SHADEDGE
 70
     3
  9
$SHADEDIF
 70
    70
  9
$TILEMODE
 70
     1
  9
$MAXACTVP
 70
    64
  9
$PINSBASE
 10
0.0
 20
0.0
 30
0.0
  9
$PLIMCHECK
 70
     0
  9
$PEXTMIN
 10
1.000000000000000E+20
 20
1.000000000000000E+20
 30
1.000000000000000E+20
  9
$PEXTMAX
 10
-1.000000000000000E+20
 20
-1.000000000000000E+20
 30
-1.000000000000000E+20
  9
$PLIMMIN
 10
0.0
 20
0.0
  9
$PLIMMAX
 10
0.0
 20
0.0
  9
$UNITMODE
 70
     0
  9
$VISRETAIN
 70
     1
  9
$PLINEGEN
 70
     0
  9
$PSLTSCALE
 70
     1
  9
$TREEDEPTH
 70
  3020
  9
$CMLSTYLE
  2
Standard
  9
$CMLJUST
 70
     0
  9
$CMLSCALE
 40
20.0
  9
$PROXYGRAPHICS
 70
     1
  9
$MEASUREMENT
 70
     1
  9
$CELWEIGHT
370
    -1
  9
$ENDCAPS
280
     0
  9
$JOINSTYLE
280
     0
  9
$LWDISPLAY
290
     1
  9
$INSUNITS
 70
     4
  9
$HYPERLINKBASE
  1

  9
$STYLESHEET
  1

  9
$XEDIT
290
     1
  9
$CEPSNTYPE
380
     0
  9
$PSTYLEMODE
290
     1
  9
$FINGERPRINTGUID
  2
{F28199C1-52D6-4A98-841D-B1EB6578E7FE}
  9
$VERSIONGUID
  2
{FAEB1C32-E019-11D5-929B-00C0DF256EC4}
  9
$EXTNAMES
290
     1
  9
$PSVPSCALE
 40
0.0
  9
$OLESTARTUP
290
     0
  0
ENDSEC
  0
SECTION
  2
CLASSES
  0
CLASS
  1
ACDBDICTIONARYWDFLT
  2
AcDbDictionaryWithDefault
  3
ObjectDBX Classes
 90
        0
280
     0
281
     0
  0
CLASS
  1
VISUALSTYLE
  2
AcDbVisualStyle
  3
ObjectDBX Classes
 90
     4095
280
     0
281
     0
  0
CLASS
  1
MATERIAL
  2
AcDbMaterial
  3
ObjectDBX Classes
 90
     1153
280
     0
281
     0
  0
CLASS
  1
SCALE
  2
AcDbScale
  3
ObjectDBX Classes
 90
     1153
280
     0
281
     0
  0
CLASS
  1
SUN
  2
AcDbSun
  3
SCENEOE
 90
     1153
280
     0
281
     0
  0
CLASS
  1
ACDBPLACEHOLDER
  2
AcDbPlaceHolder
  3
ObjectDBX Classes
 90
        0
280
     0
281
     0
  0
CLASS
  1
LAYOUT
  2
AcDbLayout
  3
ObjectDBX Classes
 90
        0
280
     0
281
     0
  0
CLASS
  1
TABLESTYLE
  2
AcDbTableStyle
  3
ObjectDBX Classes
 90
     4095
280
     0
281
     0
  0
CLASS
  1
MLEADERSTYLE
  2
AcDbMLeaderStyle
  3
ACDB_MLEADERSTYLE_CLASS
 90
     4095
280
     0
281
     0
  0
CLASS
  1
RASTERVARIABLES
  2
AcDbRasterVariables
  3
ISM
 90
        0
280
     0
281
     0
  0
ENDSEC
  0
SECTION
  2
TABLES
  0
TABLE
  2
VPORT
  5
8
330
0
100
AcDbSymbolTable
 70
     1
  0
VPORT
  5
29
330
8
100
AcDbSymbolTableRecord
100
AcDbViewportTableRecord
  2
*Active
 70
     0
 10
0.0
 20
0.0
 11
1.0
 21
1.0
 12
6.070003851291915
 22
-7.40366100992258
 13
0.0
 23
0.0
 14
10.0
 24
10.0
 15
10.0
 25
10.0
 16
0.0
 26
0.0
 36
1.0
 17
0.0
 27
0.0
 37
0.0
 40
252.1743360511965
 41
1.152454780361757
 42
50.0
 43
0.0
 44
0.0
 50
0.0
 51
0.0
 71
    16
 72
  2000
 73
     1
 74
     3
 75
     0
 76
     0
 77
     0
 78
     0
281
     0
 65
     1
110
0.0
120
0.0
130
0.0
111
1.0
121
0.0
131
0.0
112
0.0
122
1.0
132
0.0
 79
     0
146
0.0
  0
ENDTAB
  0
TABLE
  2
LTYPE
  5
5
330
0
100
AcDbSymbolTable
 70
     6
  0
LTYPE
  5
14
330
5
100
AcDbSymbolTableRecord
100
AcDbLinetypeTableRecord
  2
ByBlock
 70
     0
  3

 72
    65
 73
     0
 40
0.0
  0
LTYPE
  5
15
330
5
100
AcDbSymbolTableRecord
100
AcDbLinetypeTableRecord
  2
ByLayer
 70
     0
  3

 72
    65
 73
     0
 40
0.0
  0
LTYPE
  5
16
330
5
100
AcDbSymbolTableRecord
100
AcDbLinetypeTableRecord
  2
Continuous
 70
     0
  3
Solid line
 72
    65
 73
     0
 40
0.0
  0
LTYPE
  5
6A
330
5
100
AcDbSymbolTableRecord
100
AcDbLinetypeTableRecord
  2
HIDDEN
 70
     0
  3
Hidden __ __ __ __ __ __ __ __ __ __ __ __ __ __
 72
    65
 73
     2
 40
1.905
 49
1.27
 74
     0
 49
-0.635
 74
     0
  0
LTYPE
  5
6B
330
5
100
AcDbSymbolTableRecord
100
AcDbLinetypeTableRecord
  2
PHANTOM
 70
     0
  3
Phantom ______  __  __  ______  __  __  ______
 72
    65
 73
     6
 40
12.7
 49
6.35
 74
     0
 49
-1.27
 74
     0
 49
1.27
 74
     0
 49
-1.27
 74
     0
 49
1.27
 74
     0
 49
-1.27
 74
     0
  0
LTYPE
  5
6C
330
5
100
AcDbSymbolTableRecord
100
AcDbLinetypeTableRecord
  2
CENTER
 70
     0
  3
Center ____ _ ____ _ ____ _ ____ _ ____ _ ____
 72
    65
 73
     4
 40
10.16
 49
6.35
 74
     0
 49
-1.27
 74
     0
 49
1.27
 74
     0
 49
-1.27
 74
     0
  0
LTYPE
  5
6D
330
5
100
AcDbSymbolTableRecord
100
AcDbLinetypeTableRecord
  2
CENTERX2
 70
     0
  3
Center (2x) ________  __  ________  __  _____
 72
    65
 73
     4
 40
20.32
 49
12.7
 74
     0
 49
-2.54
 74
     0
 49
2.54
 74
     0
 49
-2.54
 74
     0
  0
LTYPE
  5
6E
330
5
100
AcDbSymbolTableRecord
100
AcDbLinetypeTableRecord
  2
DOT2
 70
     0
  3
Dot (.5x) ........................................
 72
    65
 73
     2
 40
0.635
 49
0.0
 74
     0
 49
-0.635
 74
     0
  0
ENDTAB
  0
TABLE
  2
LAYER
  5
2
330
0
100
AcDbSymbolTable
 70
    17
  0
LAYER
  5
10
330
2
100
AcDbSymbolTableRecord
100
AcDbLayerTableRecord
  2
0
 70
     0
 62
     7
  6
Continuous
370
    -3
390
F
  0
LAYER
  5
6F
330
2
100
AcDbSymbolTableRecord
100
AcDbLayerTableRecord
  2
FORMAT
 70
     0
 62
     2
  6
Continuous
370
    -3
390
F
  0
LAYER
  5
70
330
2
100
AcDbSymbolTableRecord
100
AcDbLayerTableRecord
  2
외형선
 70
     0
 62
   100
  6
Continuous
370
    30
390
F
  0
LAYER
  5
71
330
2
100
AcDbSymbolTableRecord
100
AcDbLayerTableRecord
  2
숨은선
 70
     0
 62
     2
  6
HIDDEN
370
    15
390
F
  0
LAYER
  5
72
330
2
100
AcDbSymbolTableRecord
100
AcDbLayerTableRecord
  2
중심선
 70
     0
 62
     1
  6
CENTERX2
370
    -3
390
F
  0
LAYER
  5
73
330
2
100
AcDbSymbolTableRecord
100
AcDbLayerTableRecord
  2
파단선
 70
     0
 62
     4
  6
Continuous
370
    -3
390
F
  0
LAYER
  5
74
330
2
100
AcDbSymbolTableRecord
100
AcDbLayerTableRecord
  2
해칭선
 70
     0
 62
     4
  6
Continuous
370
    -3
390
F
  0
LAYER
  5
75
330
2
100
AcDbSymbolTableRecord
100
AcDbLayerTableRecord
  2
가는실선
 70
     0
 62
     4
  6
Continuous
370
    -3
390
F
  0
LAYER
  5
76
330
2
100
AcDbSymbolTableRecord
100
AcDbLayerTableRecord
  2
치수_보조선
 70
     0
 62
     4
  6
Continuous
370
    -3
390
F
  0
LAYER
  5
77
330
2
100
AcDbSymbolTableRecord
100
AcDbLayerTableRecord
  2
치수문자_일반주서
 70
     0
 62
     7
  6
Continuous
370
    15
390
F
  0
LAYER
  5
78
330
2
100
AcDbSymbolTableRecord
100
AcDbLayerTableRecord
  2
개별주서
 70
     0
 62
   100
  6
Continuous
370
    30
390
F
  0
LAYER
  5
79
330
2
100
AcDbSymbolTableRecord
100
AcDbLayerTableRecord
  2
중간선
 70
     0
 62
     2
  6
Continuous
370
    15
390
F
  0
LAYER
  5
7A
330
2
100
AcDbSymbolTableRecord
100
AcDbLayerTableRecord
  2
윤곽선
 70
     0
 62
     3
  6
Continuous
370
    40
390
F
  0
LAYER
  5
7B
330
2
100
AcDbSymbolTableRecord
100
AcDbLayerTableRecord
  2
중심마크
 70
     0
 62
   100
  6
Continuous
370
    30
390
F
  0
LAYER
  5
7C
330
2
100
AcDbSymbolTableRecord
100
AcDbLayerTableRecord
  2
가상선
 70
     0
 62
     4
  6
PHANTOM
370
    -3
390
F
  0
LAYER
  5
7D
330
2
100
AcDbSymbolTableRecord
100
AcDbLayerTableRecord
  2
특수지정선
 70
     0
 62
     5
  6
CENTERX2
370
    60
390
F
  0
LAYER
  5
13D
330
2
100
AcDbSymbolTableRecord
100
AcDbLayerTableRecord
  2
Defpoints
 70
     0
 62
     7
  6
Continuous
290
     0
370
    -3
390
F
  0
ENDTAB
  0
TABLE
  2
STYLE
  5
3
330
0
100
AcDbSymbolTable
 70
     2
  0
STYLE
  5
11
330
3
100
AcDbSymbolTableRecord
100
AcDbTextStyleTableRecord
  2
Standard
 70
     0
 40
0.0
 41
1.0
 50
0.0
 71
     0
 42
3.5
  3
txt
  4

  0
STYLE
  5
93
330
3
100
AcDbSymbolTableRecord
100
AcDbTextStyleTableRecord
  2
SLDTEXTSTYLE0
 70
     0
 40
0.0
 41
0.75
 50
0.0
 71
     0
 42
3.5
  3
TXT
  4

  0
ENDTAB
  0
TABLE
  2
VIEW
  5
6
330
0
100
AcDbSymbolTable
 70
     0
  0
ENDTAB
  0
TABLE
  2
UCS
  5
7
330
0
100
AcDbSymbolTable
 70
     0
  0
ENDTAB
  0
TABLE
  2
APPID
  5
9
330
0
100
AcDbSymbolTable
 70
     1
  0
APPID
  5
12
330
9
100
AcDbSymbolTableRecord
100
AcDbRegAppTableRecord
  2
ACAD
 70
     0
  0
ENDTAB
  0
TABLE
  2
DIMSTYLE
  5
A
330
0
100
AcDbSymbolTable
 70
     3
100
AcDbDimStyleTable
  0
DIMSTYLE
105
27
330
A
100
AcDbSymbolTableRecord
100
AcDbDimStyleTableRecord
  2
ISO-25
 70
     0
 41
2.5
 42
0.625
 43
3.75
 44
1.25
 73
     0
 74
     0
 77
     1
 78
     8
140
2.5
141
2.5
143
0.03937007874016
147
0.625
171
     3
172
     1
178
     0
271
     2
272
     2
274
     3
278
    44
283
     0
284
     8
340
11
  0
DIMSTYLE
105
E3
102
{ACAD_REACTORS
330
E2
330
105
102
}
330
A
100
AcDbSymbolTableRecord
100
AcDbDimStyleTableRecord
  2
SLDDIMSTYLE0
 70
     0
 41
3.302
 44
0.0
 45
0.000000001
 73
     0
 74
     0
 77
     1
 78
    12
 79
     3
140
3.5
147
0.875
172
     1
173
     1
178
     0
271
     2
272
     2
276
     2
284
    12
289
     0
340
93
  0
DIMSTYLE
105
F1
102
{ACAD_REACTORS
330
F0
330
FB
102
}
330
A
100
AcDbSymbolTableRecord
100
AcDbDimStyleTableRecord
  2
SLDDIMSTYLE1
 70
     0
 41
3.302
 44
0.0
 45
0.000000001
 73
     0
 74
     0
 77
     1
 78
    12
 79
     3
140
3.5
147
0.875
173
     1
178
     0
271
     2
272
     2
276
     2
284
    12
340
93
  0
ENDTAB
  0
TABLE
  2
BLOCK_RECORD
  5
1
330
0
100
AcDbSymbolTable
 70
     7
  0
BLOCK_RECORD
  5
1F
330
1
100
AcDbSymbolTableRecord
100
AcDbBlockTableRecord
  2
*Model_Space
340
22
  0
BLOCK_RECORD
  5
1B
330
1
100
AcDbSymbolTableRecord
100
AcDbBlockTableRecord
  2
*Paper_Space
340
1E
  0
BLOCK_RECORD
  5
23
330
1
100
AcDbSymbolTableRecord
100
AcDbBlockTableRecord
  2
*Paper_Space0
340
26
  0
BLOCK_RECORD
  5
7E
330
1
100
AcDbSymbolTableRecord
100
AcDbBlockTableRecord
  2
블럭10
340
0
102
{BLKREFS
331
DB
102
}
  0
BLOCK_RECORD
  5
E4
330
1
100
AcDbSymbolTableRecord
100
AcDbBlockTableRecord
  2
_D
340
0
  0
BLOCK_RECORD
  5
F2
330
1
100
AcDbSymbolTableRecord
100
AcDbBlockTableRecord
  2
_D_1
340
0
  0
BLOCK_RECORD
  5
FC
330
1
100
AcDbSymbolTableRecord
100
AcDbBlockTableRecord
  2
_D_2
340
0
  0
BLOCK_RECORD
  5
106
330
1
100
AcDbSymbolTableRecord
100
AcDbBlockTableRecord
  2
_D_3
340
0
  0
BLOCK_RECORD
  5
112
330
1
100
AcDbSymbolTableRecord
100
AcDbBlockTableRecord
  2
SW_DOWELSYMBOL_0
340
0
102
{BLKREFS
331
118
102
}
  0
ENDTAB
  0
ENDSEC
  0
SECTION
  2
BLOCKS
  0
BLOCK
  5
20
330
1F
100
AcDbEntity
  8
0
100
AcDbBlockBegin
  2
*Model_Space
 70
     0
 10
0.0
 20
0.0
 30
0.0
  3
*Model_Space
  1

  0
ENDBLK
  5
21
330
1F
100
AcDbEntity
  8
0
100
AcDbBlockEnd
  0
BLOCK
  5
1C
330
1B
100
AcDbEntity
 67
     1
  8
0
100
AcDbBlockBegin
  2
*Paper_Space
 70
     0
 10
0.0
 20
0.0
 30
0.0
  3
*Paper_Space
  1

  0
ENDBLK
  5
1D
330
1B
100
AcDbEntity
 67
     1
  8
0
100
AcDbBlockEnd
  0
BLOCK
  5
24
330
23
100
AcDbEntity
  8
0
100
AcDbBlockBegin
  2
*Paper_Space0
 70
     0
 10
0.0
 20
0.0
 30
0.0
  3
*Paper_Space0
  1

  0
ENDBLK
  5
25
330
23
100
AcDbEntity
  8
0
100
AcDbBlockEnd
  0
BLOCK
  5
7F
330
7E
100
AcDbEntity
  8
0
100
AcDbBlockBegin
  2
블럭10
 70
     2
 10
0.0
 20
0.0
 30
0.0
  3
블럭10
  1

  0
ELLIPSE
  5
81
330
7E
100
AcDbEntity
  8
중심선
100
AcDbEllipse
 10
20.54032771741204
 20
12.0471743016438
 30
0.0
 11
6.600054785286829
 21
-1.261213355974178E-13
 31
0.0
210
0.0
220
0.0
230
1.0
 40
0.636358354079598
 41
0.9219305317359503
 42
6.513795318482858
  0
ELLIPSE
  5
82
330
7E
100
AcDbEntity
  8
중심선
100
AcDbEllipse
 10
20.54032771746488
 20
12.04717430159265
 30
0.0
 11
3.960054785062283
 21
1.540847449632565E-10
 31
0.0
210
0.0
220
0.0
230
1.0
 40
0.3939339440162632
 41
1.131841032648279
 42
5.62031148352944
  0
LINE
  5
83
330
7E
100
AcDbEntity
  8
중심선
100
AcDbLine
 10
2.268634060543552
 20
16.24717430164393
 30
0.0
 11
5.714909304380834
 21
16.24717430164393
 31
0.0
  0
LINE
  5
84
330
7E
100
AcDbEntity
  8
중심선
100
AcDbLine
 10
5.245725140726316
 20
7.84717430164391
 30
0.0
 11
8.692000384563599
 21
7.84717430164391
 31
0.0
  0
LINE
  5
85
330
7E
100
AcDbEntity
  8
중심선
100
AcDbLine
 10
15.74043728645272
 20
16.24717430164393
 30
0.0
 11
8.692000384563599
 21
7.84717430164391
 31
0.0
  0
LINE
  5
86
330
7E
100
AcDbEntity
  8
중심선
100
AcDbLine
 10
0.1404042013395286
 20
13.71084872107135
 30
0.0
 11
3.58671253028996
 21
13.71088815037384
 31
0.0
  0
LINE
  5
87
330
7E
100
AcDbEntity
  8
중심선
100
AcDbLine
 10
2.750260043222114
 20
10.84717430164391
 30
0.0
 11
6.196535287059397
 21
10.84717430164391
 31
0.0
  0
LINE
  5
88
330
7E
100
AcDbEntity
  8
중심선
100
AcDbLine
 10
12.29416204261559
 20
16.24717430164393
 30
0.0
 11
5.245725140726316
 21
7.84717430164391
 31
0.0
  0
LINE
  5
89
330
7E
100
AcDbEntity
  8
중심선
100
AcDbLine
 10
10.72767329541681
 20
16.24717430164393
 30
0.0
 11
6.196535287059397
 21
10.84717430164391
 31
0.0
  0
LINE
  5
8A
330
7E
100
AcDbEntity
  8
중심선
100
AcDbLine
 10
7.28139805157953
 20
16.24717430164393
 30
0.0
 11
2.750260043222114
 21
10.84717430164391
 31
0.0
  0
LINE
  5
8B
330
7E
100
AcDbEntity
  8
중심선
100
AcDbLine
 10
5.714909304380834
 20
16.24717430164393
 30
0.0
 11
3.58671253028996
 21
13.71088815037384
 31
0.0
  0
LINE
  5
8C
330
7E
100
AcDbEntity
  8
중심선
100
AcDbLine
 10
2.268634060543552
 20
16.24717430164393
 30
0.0
 11
0.1404042013395286
 21
13.71084872107135
 31
0.0
  0
LINE
  5
8D
330
7E
100
AcDbEntity
  8
중심선
100
AcDbLine
 10
7.28139805157953
 20
16.24717430164393
 30
0.0
 11
10.72767329541681
 21
16.24717430164393
 31
0.0
  0
LINE
  5
8E
330
7E
100
AcDbEntity
  8
중심선
100
AcDbLine
 10
12.29416204261559
 20
16.24717430164393
 30
0.0
 11
15.74043728645272
 21
16.24717430164393
 31
0.0
  0
LINE
  5
8F
330
7E
100
AcDbEntity
  8
중심선
100
AcDbLine
 10
19.22036997980202
 20
11.08717430171403
 30
0.0
 11
23.66174974927406
 21
11.08717430171406
 31
0.0
  0
LINE
  5
90
330
7E
100
AcDbEntity
  8
중심선
100
AcDbLine
 10
19.22039502424796
 20
13.00717430171391
 30
0.0
 11
19.22036997980202
 21
11.08717430171403
 31
0.0
  0
LINE
  5
91
330
7E
100
AcDbEntity
  8
중심선
100
AcDbLine
 10
19.22039502424796
 20
13.00717430171391
 30
0.0
 11
26.96566020931264
 21
13.00717430171391
 31
0.0
  0
LINE
  5
92
330
7E
100
AcDbEntity
  8
중심선
100
AcDbLine
 10
22.22332737316547
 20
13.45928029700563
 30
0.0
 11
24.52862924686651
 21
15.39360700705356
 31
0.0
  0
ATTDEF
  5
94
330
7E
100
AcDbEntity
  8
FORMAT
 62
     2
100
AcDbText
 10
-17.69892196172445
 20
2.075366912832191
 30
0.0
 40
4.233333333333333
  1
SEME70200120E [ 2 FLUTE ]
 41
0.75
  7
SLDTEXTSTYLE0
 11
-17.69892196172445
 21
-0.0412997538344756
 31
0.0
100
AcDbAttributeDefinition
  3

  2
AUTOATTR0
 70
     0
 74
     1
  0
ENDBLK
  5
80
330
7E
100
AcDbEntity
  8
0
100
AcDbBlockEnd
  0
BLOCK
  5
E5
330
E4
100
AcDbEntity
  8
0
100
AcDbBlockBegin
  2
_D
 70
     0
 10
0.0
 20
0.0
 30
0.0
  3
_D
  1

  0
LINE
  5
E7
330
E4
100
AcDbEntity
  8
치수문자_일반주서
 62
     0
370
    -2
100
AcDbLine
 10
132.0625000000001
 20
-9.999999999999979
 30
0.0
 11
147.9802190800926
 21
-9.999999999999922
 31
0.0
  0
LINE
  5
E8
330
E4
100
AcDbEntity
  8
치수문자_일반주서
 62
     0
370
    -2
100
AcDbLine
 10
132.0624999999995
 20
10.00000000000002
 30
0.0
 11
147.9802190800926
 21
10.00000000000008
 31
0.0
  0
LINE
  5
E9
330
E4
100
AcDbEntity
  8
치수문자_일반주서
 62
     0
370
    -2
100
AcDbLine
 10
147.9802190800926
 20
-9.999999999999922
 30
0.0
 11
147.9802190800926
 21
26.34501682768754
 31
0.0
  0
LINE
  5
EA
330
E4
100
AcDbEntity
  8
치수문자_일반주서
 62
     0
370
    -2
100
AcDbLine
 10
147.9802190800926
 20
-9.999999999999922
 30
0.0
 11
147.9802190800926
 21
10.00000000000008
 31
0.0
  0
LINE
  5
EB
330
E4
100
AcDbEntity
  8
치수문자_일반주서
 62
     0
370
    -2
100
AcDbLine
 10
147.9802190800926
 20
-13.30199999999992
 30
0.0
 11
147.9802190800926
 21
-16.60399999999992
 31
0.0
  0
LINE
  5
EC
330
E4
100
AcDbEntity
  8
치수문자_일반주서
 62
     0
370
    -2
100
AcDbLine
 10
147.9802190800926
 20
13.30200000000008
 30
0.0
 11
147.9802190800926
 21
16.60400000000008
 31
0.0
  0
SOLID
  5
ED
330
E4
100
AcDbEntity
  8
치수문자_일반주서
 62
     0
100
AcDbTrace
 10
148.530552413426
 20
-13.30199999999992
 30
0.0
 11
147.4298857467593
 21
-13.30199999999992
 31
0.0
 12
147.9802190800926
 22
-9.999999999999922
 32
0.0
 13
147.9802190800926
 23
-9.999999999999922
 33
0.0
  0
SOLID
  5
EE
330
E4
100
AcDbEntity
  8
치수문자_일반주서
 62
     0
100
AcDbTrace
 10
147.4298857467593
 20
13.30200000000008
 30
0.0
 11
148.5305524134259
 21
13.30200000000008
 31
0.0
 12
147.9802190800926
 22
10.00000000000008
 32
0.0
 13
147.9802190800926
 23
10.00000000000008
 33
0.0
  0
MTEXT
  5
EF
330
E4
100
AcDbEntity
  8
치수문자_일반주서
 62
     0
100
AcDbMText
 10
143.6052190800926
 20
22.18876682768753
 30
0.0
 40
3.5
 41
0.0
 71
     2
 72
     1
  1
\A1;%%c20
  7
SLDTEXTSTYLE0
 11
-2.842170943040401E-15
 21
1.0
 31
0.0
 73
     1
 44
1.0
  0
POINT
  5
144
330
E4
100
AcDbEntity
  8
Defpoints
 62
     0
100
AcDbPoint
 10
132.0000000000001
 20
-9.999999999999979
 30
0.0
  0
POINT
  5
145
330
E4
100
AcDbEntity
  8
Defpoints
 62
     0
100
AcDbPoint
 10
131.9999999999995
 20
10.00000000000002
 30
0.0
  0
POINT
  5
146
330
E4
100
AcDbEntity
  8
Defpoints
 62
     0
100
AcDbPoint
 10
147.9802190800926
 20
10.00000000000008
 30
0.0
  0
ENDBLK
  5
E6
330
E4
100
AcDbEntity
  8
0
100
AcDbBlockEnd
  0
BLOCK
  5
F3
330
F2
100
AcDbEntity
  8
0
100
AcDbBlockBegin
  2
_D_1
 70
     0
 10
0.0
 20
0.0
 30
0.0
  3
_D_1
  1

  0
LINE
  5
F5
330
F2
100
AcDbEntity
  8
치수문자_일반주서
 62
     0
370
    -2
100
AcDbLine
 10
-118.0
 20
9.062499999999988
 30
0.0
 11
-118.0
 21
30.78841044024269
 31
0.0
  0
LINE
  5
F6
330
F2
100
AcDbEntity
  8
치수문자_일반주서
 62
     0
370
    -2
100
AcDbLine
 10
131.9999999999995
 20
10.06250000000002
 30
0.0
 11
131.9999999999995
 21
30.78841044024269
 31
0.0
  0
LINE
  5
F7
330
F2
100
AcDbEntity
  8
치수문자_일반주서
 62
     0
370
    -2
100
AcDbLine
 10
-114.698
 20
30.78841044024269
 30
0.0
 11
128.6979999999995
 21
30.78841044024269
 31
0.0
  0
SOLID
  5
F8
330
F2
100
AcDbEntity
  8
치수문자_일반주서
 62
     0
100
AcDbTrace
 10
-114.698
 20
31.33874377357602
 30
0.0
 11
-114.698
 21
30.23807710690935
 31
0.0
 12
-118.0
 22
30.78841044024269
 32
0.0
 13
-118.0
 23
30.78841044024269
 33
0.0
  0
SOLID
  5
F9
330
F2
100
AcDbEntity
  8
치수문자_일반주서
 62
     0
100
AcDbTrace
 10
128.6979999999995
 20
30.23807710690935
 30
0.0
 11
128.6979999999995
 21
31.33874377357602
 31
0.0
 12
131.9999999999995
 22
30.78841044024269
 32
0.0
 13
131.9999999999995
 23
30.78841044024269
 33
0.0
  0
MTEXT
  5
FA
330
F2
100
AcDbEntity
  8
치수문자_일반주서
 62
     0
100
AcDbMText
 10
6.999999999999735
 20
35.16341044024269
 30
0.0
 40
3.5
 41
0.0
 71
     2
 72
     1
  1
\A1;250
  7
SLDTEXTSTYLE0
 73
     1
 44
1.0
  0
POINT
  5
13E
330
F2
100
AcDbEntity
  8
Defpoints
 62
     0
100
AcDbPoint
 10
-118.0
 20
8.999999999999988
 30
0.0
  0
POINT
  5
13F
330
F2
100
AcDbEntity
  8
Defpoints
 62
     0
100
AcDbPoint
 10
131.9999999999995
 20
10.00000000000002
 30
0.0
  0
POINT
  5
140
330
F2
100
AcDbEntity
  8
Defpoints
 62
     0
100
AcDbPoint
 10
131.9999999999995
 20
30.78841044024269
 30
0.0
  0
ENDBLK
  5
F4
330
F2
100
AcDbEntity
  8
0
100
AcDbBlockEnd
  0
BLOCK
  5
FD
330
FC
100
AcDbEntity
  8
0
100
AcDbBlockBegin
  2
_D_2
 70
     0
 10
0.0
 20
0.0
 30
0.0
  3
_D_2
  1

  0
LINE
  5
FF
330
FC
100
AcDbEntity
  8
치수문자_일반주서
 62
     0
370
    -2
100
AcDbLine
 10
12.0
 20
7.799489092224509
 30
0.0
 11
12.0
 21
21.08398689839203
 31
0.0
  0
LINE
  5
100
330
FC
100
AcDbEntity
  8
치수문자_일반주서
 62
     0
370
    -2
100
AcDbLine
 10
131.9999999999995
 20
10.06250000000002
 30
0.0
 11
131.9999999999995
 21
21.08398689839203
 31
0.0
  0
LINE
  5
101
330
FC
100
AcDbEntity
  8
치수문자_일반주서
 62
     0
370
    -2
100
AcDbLine
 10
15.302
 20
21.08398689839203
 30
0.0
 11
128.6979999999995
 21
21.08398689839203
 31
0.0
  0
SOLID
  5
102
330
FC
100
AcDbEntity
  8
치수문자_일반주서
 62
     0
100
AcDbTrace
 10
15.302
 20
21.63432023172536
 30
0.0
 11
15.302
 21
20.5336535650587
 31
0.0
 12
12.0
 22
21.08398689839203
 32
0.0
 13
12.0
 23
21.08398689839203
 33
0.0
  0
SOLID
  5
103
330
FC
100
AcDbEntity
  8
치수문자_일반주서
 62
     0
100
AcDbTrace
 10
128.6979999999995
 20
20.5336535650587
 30
0.0
 11
128.6979999999995
 21
21.63432023172536
 31
0.0
 12
131.9999999999995
 22
21.08398689839203
 32
0.0
 13
131.9999999999995
 23
21.08398689839203
 33
0.0
  0
MTEXT
  5
104
330
FC
100
AcDbEntity
  8
치수문자_일반주서
 62
     0
100
AcDbMText
 10
72.0
 20
25.45898689839203
 30
0.0
 40
3.5
 41
0.0
 71
     2
 72
     1
  1
\A1;120
  7
SLDTEXTSTYLE0
 73
     1
 44
1.0
  0
POINT
  5
141
330
FC
100
AcDbEntity
  8
Defpoints
 62
     0
100
AcDbPoint
 10
12.0
 20
7.736989092224509
 30
0.0
  0
POINT
  5
142
330
FC
100
AcDbEntity
  8
Defpoints
 62
     0
100
AcDbPoint
 10
131.9999999999995
 20
10.00000000000002
 30
0.0
  0
POINT
  5
143
330
FC
100
AcDbEntity
  8
Defpoints
 62
     0
100
AcDbPoint
 10
131.9999999999995
 20
21.08398689839203
 30
0.0
  0
ENDBLK
  5
FE
330
FC
100
AcDbEntity
  8
0
100
AcDbBlockEnd
  0
BLOCK
  5
107
330
106
100
AcDbEntity
  8
0
100
AcDbBlockBegin
  2
_D_3
 70
     0
 10
0.0
 20
0.0
 30
0.0
  3
_D_3
  1

  0
LINE
  5
109
330
106
100
AcDbEntity
  8
치수문자_일반주서
 62
     0
370
    -2
100
AcDbLine
 10
-117.0625
 20
9.999999999999988
 30
0.0
 11
-132.0155447108421
 21
9.99999999999993
 31
0.0
  0
LINE
  5
10A
330
106
100
AcDbEntity
  8
치수문자_일반주서
 62
     0
370
    -2
100
AcDbLine
 10
-117.0625
 20
-9.999999999999998
 30
0.0
 11
-132.015544710842
 21
-10.00000000000006
 31
0.0
  0
LINE
  5
10B
330
106
100
AcDbEntity
  8
치수문자_일반주서
 62
     0
370
    -2
100
AcDbLine
 10
-132.0155447108421
 20
9.99999999999993
 30
0.0
 11
-132.0155447108421
 21
28.72189088363774
 31
0.0
  0
LINE
  5
10C
330
106
100
AcDbEntity
  8
치수문자_일반주서
 62
     0
370
    -2
100
AcDbLine
 10
-132.0155447108421
 20
9.99999999999993
 30
0.0
 11
-132.015544710842
 21
-10.00000000000006
 31
0.0
  0
LINE
  5
10D
330
106
100
AcDbEntity
  8
치수문자_일반주서
 62
     0
370
    -2
100
AcDbLine
 10
-132.0155447108421
 20
13.30199999999993
 30
0.0
 11
-132.0155447108421
 21
16.60399999999993
 31
0.0
  0
LINE
  5
10E
330
106
100
AcDbEntity
  8
치수문자_일반주서
 62
     0
370
    -2
100
AcDbLine
 10
-132.015544710842
 20
-13.30200000000006
 30
0.0
 11
-132.015544710842
 21
-16.60400000000006
 31
0.0
  0
SOLID
  5
10F
330
106
100
AcDbEntity
  8
치수문자_일반주서
 62
     0
100
AcDbTrace
 10
-132.5658780441754
 20
13.30199999999993
 30
0.0
 11
-131.4652113775088
 21
13.30199999999993
 31
0.0
 12
-132.0155447108421
 22
9.99999999999993
 32
0.0
 13
-132.0155447108421
 23
9.99999999999993
 33
0.0
  0
SOLID
  5
110
330
106
100
AcDbEntity
  8
치수문자_일반주서
 62
     0
100
AcDbTrace
 10
-131.4652113775087
 20
-13.30200000000005
 30
0.0
 11
-132.5658780441753
 21
-13.30200000000006
 31
0.0
 12
-132.015544710842
 22
-10.00000000000006
 32
0.0
 13
-132.015544710842
 23
-10.00000000000006
 33
0.0
  0
MTEXT
  5
111
330
106
100
AcDbEntity
  8
치수문자_일반주서
 62
     0
100
AcDbMText
 10
-136.3905447108421
 20
24.56564088363773
 30
0.0
 40
3.5
 41
0.0
 71
     2
 72
     1
  1
\A1;%%c20
  7
SLDTEXTSTYLE0
 11
-2.842170943040403E-15
 21
1.0
 31
0.0
 73
     1
 44
1.0
  0
POINT
  5
147
330
106
100
AcDbEntity
  8
Defpoints
 62
     0
100
AcDbPoint
 10
-117.0
 20
9.999999999999988
 30
0.0
  0
POINT
  5
148
330
106
100
AcDbEntity
  8
Defpoints
 62
     0
100
AcDbPoint
 10
-117.0
 20
-9.999999999999998
 30
0.0
  0
POINT
  5
149
330
106
100
AcDbEntity
  8
Defpoints
 62
     0
100
AcDbPoint
 10
-132.015544710842
 20
-10.00000000000006
 30
0.0
  0
ENDBLK
  5
108
330
106
100
AcDbEntity
  8
0
100
AcDbBlockEnd
  0
BLOCK
  5
113
330
112
100
AcDbEntity
  8
0
100
AcDbBlockBegin
  2
SW_DOWELSYMBOL_0
 70
     0
 10
0.0
 20
0.0
 30
0.0
  3
SW_DOWELSYMBOL_0
  1

  0
CIRCLE
  5
115
330
112
100
AcDbEntity
  8
외형선
 62
     0
100
AcDbCircle
 10
0.0
 20
0.0
 30
0.0
 40
3.000000000000004
  0
HATCH
  5
116
330
112
100
AcDbEntity
  8
0
  6
Continuous
 62
     0
370
    30
100
AcDbHatch
 10
0.0
 20
0.0
 30
0.0
210
0.0
220
0.0
230
1.0
  2
SOLID
 70
     1
 71
     0
 91
        1
 92
        0
 93
        3
 72
     2
 10
0.0000000000000104
 20
0.0
 40
3.000000000000004
 50
0.0
 51
90.0
 73
     1
 72
     1
 10
0.0000000000000104
 20
3.000000000000004
 11
0.0000000000000104
 21
0.0
 72
     1
 10
0.0000000000000104
 20
0.0
 11
3.000000000000015
 21
0.0
 97
        0
 75
     0
 76
     1
 98
        1
 10
0.0
 20
0.0
  0
HATCH
  5
117
330
112
100
AcDbEntity
  8
0
  6
Continuous
 62
     0
370
    30
100
AcDbHatch
 10
0.0
 20
0.0
 30
0.0
210
0.0
220
0.0
230
1.0
  2
SOLID
 70
     1
 71
     0
 91
        1
 92
        0
 93
        3
 72
     2
 10
0.0000000000000104
 20
0.0
 40
3.000000000000004
 50
180.0
 51
270.0000000000008
 73
     1
 72
     1
 10
0.0000000000000104
 20
-3.000000000000004
 11
0.0000000000000104
 21
0.0
 72
     1
 10
0.0000000000000104
 20
0.0
 11
-2.999999999999994
 21
0.0
 97
        0
 75
     0
 76
     1
 98
        1
 10
0.0
 20
0.0
  0
ENDBLK
  5
114
330
112
100
AcDbEntity
  8
0
100
AcDbBlockEnd
  0
ENDSEC
  0
SECTION
  2
ENTITIES
  0
LINE
  5
95
330
1F
100
AcDbEntity
  8
0
  6
Continuous
 62
     1
370
    15
100
AcDbLine
 10
78.29684466804832
 20
-10.00000000000001
 30
0.0
 11
83.14317967408209
 21
-10.00000000000001
 31
0.0
  0
LINE
  5
96
330
1F
100
AcDbEntity
  8
0
  6
Continuous
 62
     1
370
    15
100
AcDbLine
 10
28.72916001710294
 20
10.00000000000002
 30
0.0
 11
23.88329605029398
 21
10.00000000000002
 31
0.0
  0
LINE
  5
97
330
1F
100
AcDbEntity
  8
0
  6
Continuous
 62
     1
370
    15
100
AcDbLine
 10
23.88329605029393
 20
-10.00000000000001
 30
0.0
 11
28.72916001710297
 21
-10.00000000000001
 31
0.0
  0
LINE
  5
98
330
1F
100
AcDbEntity
  8
0
  6
Continuous
 62
     1
370
    15
100
AcDbLine
 10
83.143179674082
 20
10.00000000000002
 30
0.0
 11
78.29684466804832
 21
10.00000000000002
 31
0.0
  0
LINE
  5
99
330
1F
100
AcDbEntity
  8
0
  6
Continuous
 62
     1
370
    15
100
AcDbLine
 10
103.4144081112352
 20
3.900410153847583
 30
0.0
 11
103.3180950166594
 21
3.950028603060274
 31
0.0
  0
SPLINE
  5
9A
330
1F
100
AcDbEntity
  8
0
  6
Continuous
 62
     1
370
    15
100
AcDbSpline
210
0.0
220
0.0
230
1.0
 70
     8
 71
     3
 72
     9
 73
     5
 74
     0
 42
0.000000001
 43
0.00000001
 40
0.0
 40
0.0
 40
0.0
 40
0.0
 40
0.4980135564846512
 40
1.0
 40
1.0
 40
1.0
 40
1.0
 10
106.0929207288047
 20
2.562458845471772
 30
0.0
 10
105.6481861893048
 20
2.774106647352634
 30
0.0
 10
104.7551692549083
 20
3.199090664604753
 30
0.0
 10
103.862510636409
 20
3.666018640067311
 30
0.0
 10
103.4144081112352
 20
3.900410153847583
 30
0.0
  0
LINE
  5
9B
330
1F
100
AcDbEntity
  8
0
  6
Continuous
 62
     1
370
    15
100
AcDbLine
 10
48.99939112036436
 20
3.900965539989361
 30
0.0
 11
48.90407778173533
 21
3.950047903276928
 31
0.0
  0
SPLINE
  5
9C
330
1F
100
AcDbEntity
  8
0
  6
Continuous
 62
     1
370
    15
100
AcDbSpline
210
0.0
220
0.0
230
1.0
 70
     8
 71
     3
 72
     9
 73
     5
 74
     0
 42
0.000000001
 43
0.00000001
 40
0.0
 40
0.0
 40
0.0
 40
0.0
 40
0.4905451685130734
 40
1.0
 40
1.0
 40
1.0
 40
1.0
 10
51.67890751070787
 20
2.562473976056223
 30
0.0
 10
51.24068786477805
 20
2.770976014963629
 30
0.0
 10
50.34735596782321
 20
3.1960174837022
 30
0.0
 10
49.45434160307339
 20
3.663039114016725
 30
0.0
 10
48.99939112036436
 20
3.900965539989361
 30
0.0
  0
SPLINE
  5
9D
330
1F
100
AcDbEntity
  8
0
  6
Continuous
 62
     1
370
    15
100
AcDbSpline
210
0.0
220
0.0
230
1.0
 70
     8
 71
     3
 72
    18
 73
    14
 74
     0
 42
0.000000001
 43
0.00000001
 40
0.0
 40
0.0
 40
0.0
 40
0.0
 40
0.1089844817329103
 40
0.1907429067407431
 40
0.253629115563019
 40
0.3192496242463112
 40
0.3870060274287674
 40
0.4547458615592055
 40
0.6547442795310918
 40
0.700596868400636
 40
0.7671826335025744
 40
0.8668528527998747
 40
1.0
 40
1.0
 40
1.0
 40
1.0
 10
33.33104921750756
 20
-8.321435517222058
 30
0.0
 10
33.87952962007454
 20
-8.268881586245918
 30
0.0
 10
34.83947129812326
 20
-8.17690253202049
 30
0.0
 10
36.11117353504476
 20
-8.076998392092687
 30
0.0
 10
37.16026126759537
 20
-8.00494703643442
 30
0.0
 10
38.14372653892079
 20
-7.947118108599701
 30
0.0
 10
39.15223980540583
 20
-7.897862361565927
 30
0.0
 10
40.83425311947515
 20
-7.833534563228407
 30
0.0
 10
42.40663605313663
 20
-7.806696705250685
 30
0.0
 10
43.97356403073604
 20
-7.810729965799097
 30
0.0
 10
45.03622347682675
 20
-7.823235827848777
 30
0.0
 10
46.53603584753372
 20
-7.85899574701615
 30
0.0
 10
47.70525199206781
 20
-7.914608762448226
 30
0.0
 10
48.37392115728992
 20
-7.946413582094531
 30
0.0
  0
SPLINE
  5
9E
330
1F
100
AcDbEntity
  8
0
  6
Continuous
 62
     1
370
    15
100
AcDbSpline
210
0.0
220
0.0
230
1.0
 70
     8
 71
     3
 72
    14
 73
    10
 74
     0
 42
0.000000001
 43
0.00000001
 40
0.0
 40
0.0
 40
0.0
 40
0.0
 40
0.2096910481298921
 40
0.3651566774904293
 40
0.4672839902180213
 40
0.5501938790550013
 40
0.6340412498271032
 40
0.9671884944903452
 40
1.0
 40
1.0
 40
1.0
 40
1.0
 10
102.7879222053519
 20
7.94641465698118
 30
0.0
 10
102.2132632146388
 20
7.918613716294383
 30
0.0
 10
101.2125501674667
 20
7.870201067195455
 30
0.0
 10
99.93471146169108
 20
7.834257095759749
 30
0.0
 10
99.00338067567174
 20
7.817544083440105
 30
0.0
 10
98.26743547792609
 20
7.810345535613405
 30
0.0
 10
96.89945237638483
 20
7.807504850583596
 30
0.0
 10
95.66860295143326
 20
7.821509293217976
 30
0.0
 10
94.66725935004925
 20
7.858987633987212
 30
0.0
 10
94.5774798569278
 20
7.862347905558967
 30
0.0
  0
SPLINE
  5
9F
330
1F
100
AcDbEntity
  8
0
  6
Continuous
 62
     1
370
    15
100
AcDbSpline
210
0.0
220
0.0
230
1.0
 70
     8
 71
     3
 72
    18
 73
    14
 74
     0
 42
0.000000001
 43
0.00000001
 40
0.0
 40
0.0
 40
0.0
 40
0.0
 40
0.1072348196463562
 40
0.1882211638469622
 40
0.2510315205585008
 40
0.3166429428765894
 40
0.3844133268330611
 40
0.4521416731800074
 40
0.6521441224059412
 40
0.6980002172389674
 40
0.7649353114536213
 40
0.8654705480754071
 40
1.0
 40
1.0
 40
1.0
 40
1.0
 10
87.7452571081422
 20
-8.321412797243712
 30
0.0
 10
88.28475866915548
 20
-8.269686911013489
 30
0.0
 10
89.2317049320024
 20
-8.17889637731021
 30
0.0
 10
90.49024962851936
 20
-8.079632400471874
 30
0.0
 10
91.53568365467166
 20
-8.007407107553755
 30
0.0
 10
92.51887321221793
 20
-7.949214774415135
 30
0.0
 10
93.5273335342149
 20
-7.89957037305039
 30
0.0
 10
95.20931595530732
 20
-7.834545600097445
 30
0.0
 10
96.78166891645228
 20
-7.807066172814051
 30
0.0
 10
98.35034061814699
 20
-7.810454746219822
 30
0.0
 10
99.41907096334862
 20
-7.822622144047483
 30
0.0
 10
100.9318352316123
 20
-7.858239488652891
 30
0.0
 10
102.1123206847667
 20
-7.914319567341901
 30
0.0
 10
102.7879222053519
 20
-7.946414656981158
 30
0.0
  0
SPLINE
  5
A0
330
1F
100
AcDbEntity
  8
0
  6
Continuous
 62
     1
370
    15
100
AcDbSpline
210
0.0
220
0.0
230
1.0
 70
     8
 71
     3
 72
    14
 73
    10
 74
     0
 42
0.000000001
 43
0.00000001
 40
0.0
 40
0.0
 40
0.0
 40
0.0
 40
0.2109702638003939
 40
0.3673851973023404
 40
0.4701376046938917
 40
0.5535560912743894
 40
0.6379154905464345
 40
0.9730968045552745
 40
1.0
 40
1.0
 40
1.0
 40
1.0
 10
48.37392115728993
 20
7.946413582094547
 30
0.0
 10
47.79926223543259
 20
7.918612835442267
 30
0.0
 10
46.79854688538754
 20
7.870200407026938
 30
0.0
 10
45.52069945910824
 20
7.834255837572407
 30
0.0
 10
44.58934885380875
 20
7.817544328855464
 30
0.0
 10
43.85338553457223
 20
7.810341996094633
 30
0.0
 10
42.48538885684781
 20
7.807531909722105
 30
0.0
 10
41.27114551944589
 20
7.82106646175397
 30
0.0
 10
40.2864077984577
 20
7.857795501370891
 30
0.0
 10
40.21324092531663
 20
7.860524501108555
 30
0.0
  0
SPLINE
  5
A1
330
1F
100
AcDbEntity
  8
0
  6
Continuous
 62
     1
370
    15
100
AcDbSpline
210
0.0
220
0.0
230
1.0
 70
     8
 71
     3
 72
    13
 73
     9
 74
     0
 42
0.000000001
 43
0.00000001
 40
0.0
 40
0.0
 40
0.0
 40
0.0
 40
0.2544978238455811
 40
0.4447219416145209
 40
0.5707553049832467
 40
0.666131479153835
 40
0.7622400432364572
 40
0.9999999999999999
 40
0.9999999999999999
 40
0.9999999999999999
 40
0.9999999999999999
 10
56.39975426295955
 20
-7.521444837879652
 30
0.0
 10
57.03916895042841
 20
-7.424890719193428
 30
0.0
 10
58.15651344088869
 20
-7.256167330976678
 30
0.0
 10
59.58656379443789
 20
-7.078513370711659
 30
0.0
 10
60.61963237840238
 20
-6.965043638018856
 30
0.0
 10
61.41730956945643
 20
-6.887004308368237
 30
0.0
 10
62.49151356545192
 20
-6.789032868370891
 30
0.0
 10
63.32719018154132
 20
-6.744725439192374
 30
0.0
 10
63.92230599421558
 20
-6.713172502068836
 30
0.0
  0
SPLINE
  5
A2
330
1F
100
AcDbEntity
  8
0
  6
Continuous
 62
     1
370
    15
100
AcDbSpline
210
0.0
220
0.0
230
1.0
 70
     8
 71
     3
 72
    20
 73
    16
 74
     0
 42
0.000000001
 43
0.00000001
 40
0.0
 40
0.0
 40
0.0
 40
0.0
 40
0.1026853024616139
 40
0.1790257984551064
 40
0.229904232674821
 40
0.2736528180545165
 40
0.3189885942682408
 40
0.5008486013197201
 40
0.6021725093536999
 40
0.6958575172559722
 40
0.7261808511289982
 40
0.7562724543356597
 40
0.7940453441404747
 40
0.8797051663395542
 40
1.0
 40
1.0
 40
1.0
 40
1.0
 10
128.2849491918843
 20
6.839525851421126
 30
0.0
 10
127.6824978876496
 20
6.79198116775354
 30
0.0
 10
126.6321593953299
 20
6.70908980207765
 30
0.0
 10
125.2900969266882
 20
6.642149523486071
 30
0.0
 10
124.3023280414266
 20
6.607667424519598
 30
0.0
 10
123.4942604524893
 20
6.589275546934727
 30
0.0
 10
121.9190759447016
 20
6.571045567119508
 30
0.0
 10
120.0035040807765
 20
6.605000537847943
 30
0.0
 10
117.8096547533096
 20
6.723318440732403
 30
0.0
 10
116.4972766334047
 20
6.825517661267901
 30
0.0
 10
115.6005877085609
 20
6.909185230330295
 30
0.0
 10
115.0288332023748
 20
6.966454691088762
 30
0.0
 10
114.1354356861017
 20
7.063128185976149
 30
0.0
 10
112.7176035830213
 20
7.234945474526604
 30
0.0
 10
111.5157348667759
 20
7.415805960797793
 30
0.0
 10
110.8137424952073
 20
7.521443689748089
 30
0.0
  0
SPLINE
  5
A3
330
1F
100
AcDbEntity
  8
0
  6
Continuous
 62
     1
370
    15
100
AcDbSpline
210
0.0
220
0.0
230
1.0
 70
     8
 71
     3
 72
     9
 73
     5
 74
     0
 42
0.000000001
 43
0.00000001
 40
0.0
 40
0.0
 40
0.0
 40
0.0
 40
0.4955757318127119
 40
1.0
 40
1.0
 40
1.0
 40
1.0
 10
19.45692438856365
 20
6.839520432262948
 30
0.0
 10
18.2199404816395
 20
6.749010283774541
 30
0.0
 10
15.72388624105044
 20
6.566373922309984
 30
0.0
 10
13.24859631134369
 20
6.586868507506781
 30
0.0
 10
11.99999999999999
 20
6.597206473646477
 30
0.0
  0
SPLINE
  5
A4
330
1F
100
AcDbEntity
  8
0
  6
Continuous
 62
     1
370
    15
100
AcDbSpline
210
0.0
220
0.0
230
1.0
 70
     8
 71
     3
 72
    13
 73
     9
 74
     0
 42
0.000000001
 43
0.00000001
 40
0.0
 40
0.0
 40
0.0
 40
0.0
 40
0.2801371372306153
 40
0.4796178350822586
 40
0.6235966569607234
 40
0.7510224194985243
 40
0.8815161019343037
 40
1.0
 40
1.0
 40
1.0
 40
1.0
 10
110.8137424952073
 20
-7.521443689748066
 30
0.0
 10
111.5157543252059
 20
-7.415810080945323
 30
0.0
 10
112.7176563558848
 20
-7.234956648705846
 30
0.0
 10
114.2752361552689
 20
-7.046144653649407
 30
0.0
 10
115.4524388122452
 20
-6.921876773391066
 30
0.0
 10
116.4567413985245
 20
-6.829965933317238
 30
0.0
 10
117.3979305235493
 20
-6.755491210037015
 30
0.0
 10
118.020555435721
 20
-6.717560927124389
 30
0.0
 10
118.3168512968919
 20
-6.699510595985452
 30
0.0
  0
SPLINE
  5
A5
330
1F
100
AcDbEntity
  8
0
  6
Continuous
 62
     1
370
    15
100
AcDbSpline
210
0.0
220
0.0
230
1.0
 70
     8
 71
     3
 72
    19
 73
    15
 74
     0
 42
0.000000001
 43
0.00000001
 40
0.0
 40
0.0
 40
0.0
 40
0.0
 40
0.1013712421687714
 40
0.1769710878559772
 40
0.2276629260155985
 40
0.2714136909801814
 40
0.3167557359911752
 40
0.4986106085145799
 40
0.6116358246774584
 40
0.7162117887509014
 40
0.756530342508781
 40
0.8110278189366061
 40
0.8921628818419798
 40
1.0
 40
1.0
 40
1.0
 40
1.0
 10
73.87096079818465
 20
6.839525208637
 30
0.0
 10
73.2761502551742
 20
6.792530384690661
 30
0.0
 10
72.23774659539157
 20
6.710488131488936
 30
0.0
 10
70.90862429614066
 20
6.643612267094789
 30
0.0
 10
69.92628816235347
 20
6.608784213732576
 30
0.0
 10
69.11928136136956
 20
6.589957123868318
 30
0.0
 10
67.5440093301008
 20
6.570822532432366
 30
0.0
 10
65.56014489238137
 20
6.60487510419976
 30
0.0
 10
63.23496831834223
 20
6.732378515815705
 30
0.0
 10
61.7391646885655
 20
6.854497712163997
 30
0.0
 10
60.57522455678166
 20
6.969842267450157
 30
0.0
 10
59.54954325831573
 20
7.082842217254281
 30
0.0
 10
58.13224130159686
 20
7.259715362046066
 30
0.0
 10
57.02920357597922
 20
7.42635296412456
 30
0.0
 10
56.39975426295955
 20
7.521444837879669
 30
0.0
  0
LINE
  5
A6
330
1F
100
AcDbEntity
  8
0
  6
Continuous
 62
   131
370
    15
100
AcDbLine
 10
8.95003577691192
 20
10.00000000000001
 30
0.0
 11
-117.0
 21
9.999999999999995
 31
0.0
  0
LINE
  5
A7
330
1F
100
AcDbEntity
  8
0
  6
Continuous
 62
   131
370
    15
100
AcDbLine
 10
-117.0
 20
-10.00000000000001
 30
0.0
 11
8.950035776911923
 21
-9.999999999999995
 31
0.0
  0
LINE
  5
A8
330
1F
100
AcDbEntity
  8
0
  6
Continuous
 62
   131
370
    15
100
AcDbLine
 10
-117.0
 20
9.999999999999988
 30
0.0
 11
-118.0
 21
8.999999999999988
 31
0.0
  0
LINE
  5
A9
330
1F
100
AcDbEntity
  8
0
  6
Continuous
 62
   131
370
    15
100
AcDbLine
 10
-118.0
 20
-8.999999999999998
 30
0.0
 11
-117.0
 21
-9.999999999999998
 31
0.0
  0
SPLINE
  5
AA
330
1F
100
AcDbEntity
  8
0
  6
Continuous
 62
   131
370
    15
100
AcDbSpline
210
0.0
220
0.0
230
1.0
 70
     8
 71
     3
 72
     9
 73
     5
 74
     0
 42
0.000000001
 43
0.00000001
 40
0.0
 40
0.0
 40
0.0
 40
0.0
 40
0.4378589212378925
 40
0.9999999999999999
 40
0.9999999999999999
 40
0.9999999999999999
 40
0.9999999999999999
 10
12.00000000000001
 20
6.597206473646477
 30
0.0
 10
11.55482876313754
 20
6.609203362879571
 30
0.0
 10
10.53812859952341
 20
6.636602346093563
 30
0.0
 10
9.521521448392507
 20
6.697803170167975
 30
0.0
 10
8.950044807778509
 20
6.732206667434297
 30
0.0
  0
LINE
  5
AB
330
1F
100
AcDbEntity
  8
0
  6
Continuous
 62
   131
370
    15
100
AcDbLine
 10
8.950044807778509
 20
-6.732206667434285
 30
0.0
 11
9.438872330418219
 21
-6.704462955582911
 31
0.0
  0
SPLINE
  5
AC
330
1F
100
AcDbEntity
  8
0
  6
Continuous
 62
     1
370
    15
100
AcDbSpline
210
0.0
220
0.0
230
1.0
 70
     8
 71
     3
 72
    10
 73
     6
 74
     0
 42
0.000000001
 43
0.00000001
 40
0.0
 40
0.0
 40
0.0
 40
0.0
 40
0.5
 40
0.5
 40
1.0
 40
1.0
 40
1.0
 40
1.0
 10
132.0
 20
-2.672429460296429
 30
0.0
 10
131.1432431594078
 20
-1.998877176673841
 30
0.0
 10
130.2980363641846
 20
-1.303046910902114
 30
0.0
 10
128.6306763784572
 20
0.1330799216817287
 30
0.0
 10
127.8079842188581
 20
0.873731669169787
 30
0.0
 10
127.0000000000022
 20
1.639931148972243
 30
0.0
  0
LINE
  5
AD
330
1F
100
AcDbEntity
  8
0
  6
Continuous
 62
     1
370
    15
100
AcDbLine
 10
127.0
 20
2.93771943529661
 30
0.0
 11
132.0
 21
0.0000000000000196
 31
0.0
  0
LINE
  5
AE
330
1F
100
AcDbEntity
  8
0
  6
Continuous
 62
     1
370
    15
100
AcDbLine
 10
132.0
 20
0.0000000000000196
 30
0.0
 11
132.0
 21
-2.672429460296429
 31
0.0
  0
SPLINE
  5
AF
330
1F
100
AcDbEntity
  8
0
  6
Continuous
 62
     1
370
    15
100
AcDbSpline
210
0.0
220
0.0
230
1.0
 70
     8
 71
     3
 72
    11
 73
     7
 74
     0
 42
0.000000001
 43
0.00000001
 40
0.0
 40
0.0
 40
0.0
 40
0.0
 40
0.3332268190151874
 40
0.6662944929571931
 40
0.9993290696461012
 40
0.9999999999999999
 40
0.9999999999999999
 40
0.9999999999999999
 40
0.9999999999999999
 10
12.00000000000001
 20
-7.736989092224515
 30
0.0
 10
13.3200634265829
 20
-8.183992618634642
 30
0.0
 10
15.95955983352216
 20
-9.077786188011
 30
0.0
 10
19.91788198533837
 20
-9.779035068997414
 30
0.0
 10
22.55871534362212
 20
-10.08629900079306
 30
0.0
 10
23.88063826313281
 20
-9.999651485756537
 30
0.0
 10
23.88329605029393
 20
-9.999477276920597
 30
0.0
  0
SPLINE
  5
B0
330
1F
100
AcDbEntity
  8
0
  6
Continuous
 62
     1
370
    15
100
AcDbSpline
210
0.0
220
0.0
230
1.0
 70
     8
 71
     3
 72
    25
 73
    21
 74
     0
 42
0.000000001
 43
0.00000001
 40
0.0
 40
0.0
 40
0.0
 40
0.0
 40
0.0400530019403254
 40
0.0965306245362253
 40
0.1529855836412548
 40
0.2094344054189392
 40
0.2659087697797382
 40
0.3223927280887732
 40
0.3788698540049781
 40
0.4353237672957503
 40
0.4917734972358663
 40
0.5482484509815043
 40
0.6047324464941214
 40
0.6612090571814436
 40
0.7176619062858545
 40
0.7741126178203922
 40
0.8305881424182815
 40
0.8870721565327606
 40
0.9435482334459513
 40
1.0
 40
1.0
 40
1.0
 40
1.0
 10
63.90234984426336
 20
6.705049694548781
 30
0.0
 10
64.81157313353236
 20
7.090678391325613
 30
0.0
 10
67.00286686194704
 20
8.020071374014382
 30
0.0
 10
70.47569484288891
 20
9.06370502159794
 30
0.0
 10
74.32029760185185
 20
9.819748707462564
 30
0.0
 10
78.16466960990044
 20
10.08164454653794
 30
0.0
 10
82.0102422911433
 20
9.851894893259422
 30
0.0
 10
85.85652982910239
 20
9.137691347106003
 30
0.0
 10
89.70230426597553
 20
7.975280444097532
 30
0.0
 10
93.54686723752843
 20
6.421177202702819
 30
0.0
 10
97.39127284546149
 20
4.55170622339079
 30
0.0
 10
101.2368865136624
 20
2.459258102321275
 30
0.0
 10
105.0831767423633
 20
0.2458733644010591
 30
0.0
 10
108.9289124076202
 20
-1.979340641451257
 30
0.0
 10
112.7734346538541
 20
-4.107925759687407
 30
0.0
 10
116.617876852795
 20
-6.03421650818408
 30
0.0
 10
120.4635314432751
 20
-7.6664813099977
 30
0.0
 10
124.3098229773468
 20
-8.91315927310243
 30
0.0
 10
128.1555184671636
 20
-9.757497485012367
 30
0.0
 10
130.7186900832647
 20
-9.913542460645127
 30
0.0
 10
132.0000000000001
 20
-9.999999999999979
 30
0.0
  0
SPLINE
  5
B1
330
1F
100
AcDbEntity
  8
0
  6
Continuous
 62
     1
370
    15
100
AcDbSpline
210
0.0
220
0.0
230
1.0
 70
     8
 71
     3
 72
    15
 73
    11
 74
     0
 42
0.000000001
 43
0.00000001
 40
0.0
 40
0.0
 40
0.0
 40
0.0
 40
0.0234474601279344
 40
0.1774607265105665
 40
0.3313956340900084
 40
0.4854572109621769
 40
0.6393970327514487
 40
0.7933962043595827
 40
0.9474139736124422
 40
1.0
 40
1.0
 40
1.0
 40
1.0
 10
107.1453213551113
 20
-0.939685128475688
 30
0.0
 10
106.8850924403249
 20
-0.8381547689972048
 30
0.0
 10
104.9155651642321
 20
-0.0697281992270701
 30
0.0
 10
101.2374331890821
 20
1.45440594530243
 30
0.0
 10
96.11041251139392
 20
3.412707154019281
 30
0.0
 10
90.983100101431
 20
5.080143938844974
 30
0.0
 10
85.85610979209088
 20
6.315478757736035
 30
0.0
 10
80.72907588520448
 20
6.960925992947612
 30
0.0
 10
76.72681128849635
 20
7.109572907016549
 30
0.0
 10
74.43396368998339
 20
6.839758377624399
 30
0.0
 10
73.85037448754733
 20
6.771083579475694
 30
0.0
  0
SPLINE
  5
B2
330
1F
100
AcDbEntity
  8
0
  6
Continuous
 62
     1
370
    15
100
AcDbSpline
210
0.0
220
0.0
230
1.0
 70
     8
 71
     3
 72
    25
 73
    21
 74
     0
 42
0.000000001
 43
0.00000001
 40
0.0
 40
0.0
 40
0.0
 40
0.0
 40
0.0597287141928745
 40
0.1194289026787865
 40
0.1791231586999087
 40
0.2388495056112382
 40
0.2985808413000751
 40
0.3582897302562749
 40
0.4179777473801929
 40
0.4759853337435662
 40
0.5340039088758558
 40
0.5920166010117185
 40
0.6500065780899458
 40
0.7079883383250248
 40
0.7659965681459425
 40
0.8240152197059758
 40
0.8820274207237341
 40
0.9400163424509043
 40
0.9979989600906979
 40
1.0
 40
1.0
 40
1.0
 40
1.0
 10
12.0
 20
7.736989092224524
 30
0.0
 10
13.320066320911
 20
8.18063960776405
 30
0.0
 10
15.95956851512417
 20
9.06772875675639
 30
0.0
 10
19.91784727971545
 20
9.81924071491738
 30
0.0
 10
23.87591978584628
 20
10.08875101367255
 30
0.0
 10
27.83535314058526
 20
9.825736709950302
 30
0.0
 10
31.79512415694398
 20
9.05378425079361
 30
0.0
 10
35.75371473655193
 20
7.810384922061984
 30
0.0
 10
39.67375182690268
 20
6.176029270782336
 30
0.0
 10
43.55695324136408
 20
4.24844841081392
 30
0.0
 10
47.40323495463924
 20
2.130815116756809
 30
0.0
 10
51.24908173816922
 20
-0.0912336226939301
 30
0.0
 10
55.09372641807897
 20
-2.309088061903511
 30
0.0
 10
58.93806716333043
 20
-4.413561126259509
 30
0.0
 10
62.78359833928766
 20
-6.301951813124295
 30
0.0
 10
66.62988427203402
 20
-7.877144231563985
 30
0.0
 10
70.47568664890633
 20
-9.080843029586841
 30
0.0
 10
74.32032558116725
 20
-9.78203930146674
 30
0.0
 10
76.92702702191372
 20
-10.07586702689776
 30
0.0
 10
78.25262311190988
 20
-9.994534878612567
 30
0.0
 10
78.29684466804832
 20
-9.991821658357624
 30
0.0
  0
SPLINE
  5
B3
330
1F
100
AcDbEntity
  8
0
  6
Continuous
 62
     1
370
    15
100
AcDbSpline
210
0.0
220
0.0
230
1.0
 70
     8
 71
     3
 72
    11
 73
     7
 74
     0
 42
0.000000001
 43
0.00000001
 40
0.0
 40
0.0
 40
0.0
 40
0.0
 40
0.1563632886022511
 40
0.4376422297241706
 40
0.7188816451925244
 40
1.0
 40
1.0
 40
1.0
 40
1.0
 10
118.3250588545449
 20
6.702961834695666
 30
0.0
 10
119.0378177827094
 20
7.013145299284912
 30
0.0
 10
121.0327451685818
 20
7.881311889281096
 30
0.0
 10
124.3098317172424
 20
8.90320748786731
 30
0.0
 10
128.1555162834149
 20
9.759984036306236
 30
0.0
 10
130.718689355453
 20
9.91437119211494
 30
0.0
 10
131.9999999999995
 20
10.00000000000002
 30
0.0
  0
SPLINE
  5
B4
330
1F
100
AcDbEntity
  8
0
  6
Continuous
 62
     1
370
    15
100
AcDbSpline
210
0.0
220
0.0
230
1.0
 70
    24
 71
     3
 72
    10
 73
     6
 74
     0
 42
0.000000001
 43
0.00000001
 40
0.0
 40
0.0
 40
0.0
 40
0.0
 40
0.5
 40
0.5
 40
1.0
 40
1.0
 40
1.0
 40
1.0
 10
132.0
 20
7.00000000000002
 30
0.0
 10
132.0
 20
7.424322568073157
 30
0.0
 10
132.0
 20
7.917424688671196
 30
0.0
 10
132.0
 20
8.951951609608585
 30
0.0
 10
132.0
 20
9.490734358014757
 30
0.0
 10
131.9999999999995
 20
10.00000000000002
 30
0.0
  0
LINE
  5
B5
330
1F
100
AcDbEntity
  8
0
  6
Continuous
 62
     1
370
    15
100
AcDbLine
 10
132.0
 20
7.00000000000002
 30
0.0
 11
128.2665445491249
 21
6.778314819969489
 31
0.0
  0
SPLINE
  5
B6
330
1F
100
AcDbEntity
  8
0
  6
Continuous
 62
     1
370
    15
100
AcDbSpline
210
0.0
220
0.0
230
1.0
 70
     8
 71
     3
 72
    15
 73
    11
 74
     0
 42
0.000000001
 43
0.00000001
 40
0.0
 40
0.0
 40
0.0
 40
0.0
 40
0.0830019408413785
 40
0.2370027291468758
 40
0.3911316966528299
 40
0.5451439562880513
 40
0.6992027886749511
 40
0.8532973795560319
 40
0.9768260768535731
 40
1.0
 40
1.0
 40
1.0
 40
1.0
 10
52.72799208749324
 20
-0.9367552448225517
 30
0.0
 10
51.80718516011948
 20
-0.5695605116406653
 30
0.0
 10
49.17792429473821
 20
0.4789228492337256
 30
0.0
 10
44.83942001431835
 20
2.236323392511185
 30
0.0
 10
39.71211207598564
 20
4.102313769276187
 30
0.0
 10
34.58513014648541
 20
5.614245358682822
 30
0.0
 10
29.45819395628891
 20
6.648129244525204
 30
0.0
 10
24.66887381437051
 20
7.030762143592416
 30
0.0
 10
21.33280207116637
 20
7.03885502507275
 30
0.0
 10
19.70575056547601
 20
6.841178642398373
 30
0.0
 10
19.44873288962236
 20
6.8099526337143
 30
0.0
  0
SPLINE
  5
B7
330
1F
100
AcDbEntity
  8
0
  6
Continuous
 62
   131
370
    15
100
AcDbSpline
210
0.0
220
0.0
230
1.0
 70
    24
 71
     3
 72
    10
 73
     6
 74
     0
 42
0.000000001
 43
0.00000001
 40
0.0
 40
0.0
 40
0.0
 40
0.0
 40
0.2182397487269691
 40
0.782287313140287
 40
1.0
 40
1.0
 40
1.0
 40
1.0
 10
12.0
 20
7.736989092224517
 30
0.0
 10
11.99999999999999
 20
7.658745132657106
 30
0.0
 10
11.99999999999998
 20
7.378277173651043
 30
0.0
 10
11.99999999999999
 20
7.031946320575115
 30
0.0
 10
11.99999999999999
 20
6.803224165760994
 30
0.0
 10
11.99999999999999
 20
6.739527252560513
 30
0.0
  0
SPLINE
  5
B8
330
1F
100
AcDbEntity
  8
0
  6
Continuous
 62
     1
370
    15
100
AcDbSpline
210
0.0
220
0.0
230
1.0
 70
     8
 71
     3
 72
    25
 73
    21
 74
     0
 42
0.000000001
 43
0.00000001
 40
0.0
 40
0.0
 40
0.0
 40
0.0
 40
0.0156881774268517
 40
0.0740684970531471
 40
0.1324728216586788
 40
0.1908842121486246
 40
0.2492856817441526
 40
0.3076607374403525
 40
0.3660421382878788
 40
0.4244469763967936
 40
0.4828583092086595
 40
0.541259150334095
 40
0.5996333429849809
 40
0.658015806056761
 40
0.716421138493359
 40
0.7748323944018044
 40
0.8332325879119725
 40
0.8933246644351112
 40
0.9534377524191993
 40
1.0
 40
1.0
 40
1.0
 40
1.0
 10
94.57996406814135
 20
-7.861412999322137
 30
0.0
 10
94.2356277723772
 20
-7.994288645501574
 30
0.0
 10
92.60991490502738
 20
-8.621633628904883
 30
0.0
 10
89.70232435030192
 20
-9.350346938660469
 30
0.0
 10
85.85654193904986
 20
-9.96413053555074
 30
0.0
 10
82.01025804180674
 20
-10.05956392079266
 30
0.0
 10
78.16468577392402
 20
-9.669135774281614
 30
0.0
 10
74.32031533944729
 20
-8.801822112628138
 30
0.0
 10
70.47571278944372
 20
-7.503033985919598
 30
0.0
 10
66.62990218366755
 20
-5.835998531443632
 30
0.0
 10
62.783619943307
 20
-3.882412274474983
 30
0.0
 10
58.93808921764377
 20
-1.738496037651157
 30
0.0
 10
55.09374979466969
 20
0.4913539784422452
 30
0.0
 10
51.24910626874992
 20
2.696709767721003
 30
0.0
 10
47.4032607513955
 20
4.769813613400708
 30
0.0
 10
43.55698003503596
 20
6.607797764231106
 30
0.0
 10
39.6737786328425
 20
8.140369454889541
 30
0.0
 10
35.7537368984656
 20
9.259431662296137
 30
0.0
 10
32.09309597068031
 20
9.915170734719602
 30
0.0
 10
29.75131408336428
 20
9.942501883925013
 30
0.0
 10
28.72916001710294
 20
9.954431536915848
 30
0.0
  0
LINE
  5
B9
330
1F
100
AcDbEntity
  8
0
  6
Continuous
 62
   131
370
    15
100
AcDbLine
 10
12.0
 20
-7.736989092224507
 30
0.0
 11
12.0
 21
-5.68631148866196
 31
0.0
  0
SPLINE
  5
BA
330
1F
100
AcDbEntity
  8
0
  6
Continuous
 62
     1
370
    15
100
AcDbSpline
210
0.0
220
0.0
230
1.0
 70
     8
 71
     3
 72
    20
 73
    16
 74
     0
 42
0.000000001
 43
0.00000001
 40
0.0
 40
0.0
 40
0.0
 40
0.0
 40
0.0786836395660568
 40
0.1574011633420605
 40
0.2361297501996237
 40
0.3148465043572503
 40
0.3935286737996196
 40
0.472213821841803
 40
0.5509320894070903
 40
0.6296606503510115
 40
0.7083766090670457
 40
0.7870574106720328
 40
0.8657440416080608
 40
0.9444630271278577
 40
1.0
 40
1.0
 40
1.0
 40
1.0
 10
132.0
 20
-9.489408692318989
 30
0.0
 10
130.7186904728507
 20
-9.210781467948019
 30
0.0
 10
128.155519637251
 20
-8.653407031576888
 30
0.0
 10
124.3098253195613
 20
-7.268021282592525
 30
0.0
 10
120.4635349546643
 20
-5.559226851820656
 30
0.0
 10
116.6178815252636
 20
-3.568786804887975
 30
0.0
 10
112.7734404864268
 20
-1.40515537156513
 30
0.0
 10
108.9289194202094
 20
0.8280550540967728
 30
0.0
 10
105.0831849417125
 20
3.020009782871151
 30
0.0
 10
101.2368958663595
 20
5.064301523647146
 30
0.0
 10
97.39128340466155
 20
6.858549920226851
 30
0.0
 10
93.54687873759005
 20
8.32125580921853
 30
0.0
 10
89.70231774255771
 20
9.357614425160438
 30
0.0
 10
86.23424833796955
 20
9.937514242569955
 30
0.0
 10
84.04768436447739
 20
9.945537552192334
 30
0.0
 10
83.143179674082
 20
9.948856513482244
 30
0.0
  0
SPLINE
  5
BB
330
1F
100
AcDbEntity
  8
0
  6
Continuous
 62
     1
370
    15
100
AcDbSpline
210
0.0
220
0.0
230
1.0
 70
     8
 71
     3
 72
    15
 73
    11
 74
     0
 42
0.000000001
 43
0.00000001
 40
0.0
 40
0.0
 40
0.0
 40
0.0
 40
0.0178507534519576
 40
0.158103534864133
 40
0.2984053562830815
 40
0.4387599244407444
 40
0.5791027713989542
 40
0.719370212411779
 40
0.8596515913700077
 40
1.0
 40
1.0
 40
1.0
 40
1.0
 10
40.21465112985764
 20
-7.859973682814057
 30
0.0
 10
40.04676659222619
 20
-7.926401366081525
 30
0.0
 10
38.55981877683021
 20
-8.514749166956571
 30
0.0
 10
35.75376136507532
 20
-9.246204241008881
 30
0.0
 10
31.79513814496174
 20
-9.93645500108924
 30
0.0
 10
27.83537082150591
 20
-10.07202787130737
 30
0.0
 10
23.87593137899962
 20
-9.695395932871824
 30
0.0
 10
19.91785539666605
 20
-8.805851017894488
 30
0.0
 10
15.95957248952208
 20
-7.480157459761504
 30
0.0
 10
13.32006764899209
 20
-6.28435535325272
 30
0.0
 10
11.9999999999971
 20
-5.686311488674944
 30
0.0
  0
LINE
  5
BC
330
1F
100
AcDbEntity
  8
0
  6
Continuous
 62
     1
370
    15
100
AcDbLine
 10
132.0000000000001
 20
-9.999999999999979
 30
0.0
 11
132.0000000000005
 21
-9.489408692318971
 31
0.0
  0
SPLINE
  5
BD
330
1F
100
AcDbEntity
  8
0
  6
Continuous
 62
   131
370
    15
100
AcDbSpline
210
0.0
220
0.0
230
1.0
 70
    24
 71
     3
 72
     8
 73
     4
 74
     0
 42
0.000000001
 43
0.00000001
 40
0.0
 40
0.0
 40
0.0
 40
0.0
 40
1.0
 40
1.0
 40
1.0
 40
1.0
 10
12.00000000000001
 20
-4.403154019351011
 30
0.0
 10
12.00000000000001
 20
-4.803146742004874
 30
0.0
 10
12.00000000000001
 20
-5.233491831538569
 30
0.0
 10
12.00000000000001
 20
-5.686311488667855
 30
0.0
  0
SPLINE
  5
BE
330
1F
100
AcDbEntity
  8
0
  6
Continuous
 62
     1
370
    15
100
AcDbSpline
210
0.0
220
0.0
230
1.0
 70
     8
 71
     3
 72
    14
 73
    10
 74
     0
 42
0.000000001
 43
0.00000001
 40
0.0
 40
0.0
 40
0.0
 40
0.0
 40
0.148045404022246
 40
0.2961574137034728
 40
0.4442911702637425
 40
0.5924016671000908
 40
0.7404441813576118
 40
0.8884925505328665
 40
1.0
 40
1.0
 40
1.0
 40
1.0
 10
132.0
 20
-7.889722643682139
 30
0.0
 10
130.7186844776374
 20
-7.618117255426147
 30
0.0
 10
128.1554769687843
 20
-7.074784283591803
 30
0.0
 10
124.3098152018162
 20
-5.808926241978633
 30
0.0
 10
120.4635456401701
 20
-4.285932482401934
 30
0.0
 10
116.6179263481629
 20
-2.544228436337157
 30
0.0
 10
112.7734332645876
 20
-0.6831863727189867
 30
0.0
 10
109.2457108025573
 20
1.069241937463739
 30
0.0
 10
106.9990651097564
 20
2.125687084143343
 30
0.0
 10
106.0338864735352
 20
2.57954515761801
 30
0.0
  0
SPLINE
  5
BF
330
1F
100
AcDbEntity
  8
0
  6
Continuous
 62
     1
370
    15
100
AcDbSpline
210
0.0
220
0.0
230
1.0
 70
     8
 71
     3
 72
    13
 73
     9
 74
     0
 42
0.000000001
 43
0.00000001
 40
0.0
 40
0.0
 40
0.0
 40
0.0
 40
0.0619707303667861
 40
0.2421589181459481
 40
0.4223643565110725
 40
0.6149205637771926
 40
0.8073910742618848
 40
0.9999999999999999
 40
0.9999999999999999
 40
0.9999999999999999
 40
0.9999999999999999
 10
33.34564115192119
 20
-8.274141945907278
 30
0.0
 10
32.90473985594998
 20
-8.330929986680724
 30
0.0
 10
31.18185906675154
 20
-8.552836852001391
 30
0.0
 10
28.17658595582748
 20
-8.516056479235315
 30
0.0
 10
24.24227167820261
 20
-8.147204593810457
 30
0.0
 10
20.22029775164381
 20
-7.303264751841052
 30
0.0
 10
16.1107510303324
 20
-6.056557259614699
 30
0.0
 10
13.37057865808753
 20
-4.954420485648031
 30
0.0
 10
12.00000000000003
 20
-4.403154019351021
 30
0.0
  0
LINE
  5
C0
330
1F
100
AcDbEntity
  8
0
  6
Continuous
 62
     1
370
    15
100
AcDbLine
 10
131.9999999999995
 20
-9.489408692318996
 30
0.0
 11
132.0
 21
-7.889722643682139
 31
0.0
  0
SPLINE
  5
C1
330
1F
100
AcDbEntity
  8
0
  6
Continuous
 62
     1
370
    15
100
AcDbSpline
210
0.0
220
0.0
230
1.0
 70
     8
 71
     3
 72
    17
 73
    13
 74
     0
 42
0.000000001
 43
0.00000001
 40
0.0
 40
0.0
 40
0.0
 40
0.0
 40
0.0526732879072048
 40
0.1590393810072865
 40
0.2653866004803606
 40
0.3716835707135347
 40
0.4779926117208094
 40
0.5843462394732085
 40
0.6907122228453018
 40
0.797058246715568
 40
0.9033535751221657
 40
1.0
 40
1.0
 40
1.0
 40
1.0
 10
87.76153964599436
 20
-8.268726683193368
 30
0.0
 10
87.12659244141668
 20
-8.34252853208654
 30
0.0
 10
85.2094611135557
 20
-8.565362549697923
 30
0.0
 10
82.01026379483372
 20
-8.488918558149251
 30
0.0
 10
78.1647337392848
 20
-8.06069755649182
 30
0.0
 10
74.32030271963546
 20
-7.21513221696308
 30
0.0
 10
70.47567463044348
 20
-6.021127869117392
 30
0.0
 10
66.62989379986087
 20
-4.530432960824431
 30
0.0
 10
62.78363430717626
 20
-2.816876882561287
 30
0.0
 10
58.93813201396581
 20
-0.9680823726650738
 30
0.0
 10
55.21023887429071
 20
0.88184020368247
 30
0.0
 10
52.76399729809399
 20
2.042762747870732
 30
0.0
 10
51.59903001609967
 20
2.595625880469292
 30
0.0
  0
SPLINE
  5
C2
330
1F
100
AcDbEntity
  8
0
  6
Continuous
 62
   131
370
    15
100
AcDbSpline
210
0.0
220
0.0
230
1.0
 70
    24
 71
     3
 72
    14
 73
    10
 74
     0
 42
0.000000001
 43
0.00000001
 40
0.0
 40
0.0
 40
0.0
 40
0.0
 40
0.2500000000000001
 40
0.2500000000000001
 40
0.5000000000000001
 40
0.5000000000000001
 40
0.7500000000000001
 40
0.7500000000000001
 40
1.0
 40
1.0
 40
1.0
 40
1.0
 10
12.0
 20
4.809718270115802
 30
0.0
 10
12.0
 20
4.143989036086894
 30
0.0
 10
12.0
 20
3.421051979826123
 30
0.0
 10
12.0
 20
1.90148854211729
 30
0.0
 10
12.0
 20
1.105192374129626
 30
0.0
 10
12.0
 20
-0.5049853190582416
 30
0.0
 10
12.00000000000001
 20
-1.318401873819368
 30
0.0
 10
12.00000000000001
 20
-2.904036164879779
 30
0.0
 10
12.00000000000001
 20
-3.675871660768124
 30
0.0
 10
12.00000000000001
 20
-4.403154019351009
 30
0.0
  0
SPLINE
  5
C3
330
1F
100
AcDbEntity
  8
0
  6
Continuous
 62
     1
370
    15
100
AcDbSpline
210
0.0
220
0.0
230
1.0
 70
     8
 71
     3
 72
    14
 73
    10
 74
     0
 42
0.000000001
 43
0.00000001
 40
0.0
 40
0.0
 40
0.0
 40
0.0
 40
0.1429043869955275
 40
0.2858031244638244
 40
0.4286930163951327
 40
0.5874044187519717
 40
0.7461221867897379
 40
0.9049107249048618
 40
1.0
 40
1.0
 40
1.0
 40
1.0
 10
127.0
 20
2.277336188987596
 30
0.0
 10
125.846315912609
 20
2.779306056089983
 30
0.0
 10
123.5389933471311
 20
3.783225945610539
 30
0.0
 10
120.0781110476095
 20
5.114582301922844
 30
0.0
 10
116.4896996280423
 20
6.289649684172478
 30
0.0
 10
112.7734066831984
 20
7.227693920270343
 30
0.0
 10
108.9288671935805
 20
7.82652612438066
 30
0.0
 10
105.597638998749
 20
8.067731300877435
 30
0.0
 10
103.5478636466815
 20
7.944949520233228
 30
0.0
 10
102.7801256160464
 20
7.89896192340972
 30
0.0
  0
SPLINE
  5
C4
330
1F
100
AcDbEntity
  8
0
  6
Continuous
 62
     1
370
    15
100
AcDbSpline
210
0.0
220
0.0
230
1.0
 70
     8
 71
     3
 72
    19
 73
    15
 74
     0
 42
0.000000001
 43
0.00000001
 40
0.0
 40
0.0
 40
0.0
 40
0.0
 40
0.0298727880993312
 40
0.1164205801910307
 40
0.2030042855301626
 40
0.2895972925405941
 40
0.376172926274009
 40
0.4627064925698675
 40
0.5492559231581181
 40
0.6358403747797629
 40
0.7224332307763726
 40
0.8149608421525043
 40
0.9074467006679529
 40
1.0
 40
1.0
 40
1.0
 40
1.0
 10
56.42077108773017
 20
-7.476724604177093
 30
0.0
 10
55.97847521766292
 20
-7.557809508881308
 30
0.0
 10
54.25475456466913
 20
-7.873814550627327
 30
0.0
 10
51.24904557833715
 20
-8.040201233781456
 30
0.0
 10
47.4032328278833
 20
-7.951402139758888
 30
0.0
 10
43.55698496126427
 20
-7.447364097611142
 30
0.0
 10
39.7115388035484
 20
-6.584575308459222
 30
0.0
 10
35.86713735479804
 20
-5.396468095080381
 30
0.0
 10
32.02243498920522
 20
-3.944024905392209
 30
0.0
 10
28.17657590025214
 20
-2.298331995161478
 30
0.0
 10
24.24224503310258
 20
-0.4982396781563544
 30
0.0
 10
20.22030396986218
 20
1.365820811454926
 30
0.0
 10
16.11071713106821
 20
3.214607584905643
 30
0.0
 10
13.370571941928
 20
4.277885531517591
 30
0.0
 10
12.0
 20
4.809718270115801
 30
0.0
  0
SPLINE
  5
C5
330
1F
100
AcDbEntity
  8
0
  6
Continuous
 62
     1
370
    15
100
AcDbSpline
210
0.0
220
0.0
230
1.0
 70
    24
 71
     3
 72
     8
 73
     4
 74
     0
 42
0.000000001
 43
0.00000001
 40
0.0
 40
0.0
 40
0.0
 40
0.0
 40
1.0
 40
1.0
 40
1.0
 40
1.0
 10
127.0
 20
1.639931148963798
 30
0.0
 10
127.0
 20
1.854493127011701
 30
0.0
 10
127.0
 20
2.067125113709737
 30
0.0
 10
127.0
 20
2.277336188987594
 30
0.0
  0
SPLINE
  5
C6
330
1F
100
AcDbEntity
  8
0
  6
Continuous
 62
     1
370
    15
100
AcDbSpline
210
0.0
220
0.0
230
1.0
 70
    24
 71
     3
 72
    10
 73
     6
 74
     0
 42
0.000000001
 43
0.00000001
 40
0.0
 40
0.0
 40
0.0
 40
0.0
 40
0.5
 40
0.5
 40
1.0
 40
1.0
 40
1.0
 40
1.0
 10
132.0
 20
-7.889722643682137
 30
0.0
 10
132.0
 20
-7.284913890038029
 30
0.0
 10
132.0
 20
-6.520714839064666
 30
0.0
 10
132.0
 20
-4.744025591506779
 30
0.0
 10
132.0
 20
-3.73307443051308
 30
0.0
 10
132.0
 20
-2.672429460296749
 30
0.0
  0
SPLINE
  5
C7
330
1F
100
AcDbEntity
  8
0
  6
Continuous
 62
     1
370
    15
100
AcDbSpline
210
0.0
220
0.0
230
1.0
 70
     8
 71
     3
 72
    24
 73
    20
 74
     0
 42
0.000000001
 43
0.00000001
 40
0.0
 40
0.0
 40
0.0
 40
0.0
 40
0.0305416918568573
 40
0.0921072526639243
 40
0.153681341434439
 40
0.2152449890319487
 40
0.2767795093388127
 40
0.3383188598858207
 40
0.399885015613738
 40
0.4614590614303893
 40
0.5230220284921051
 40
0.5845555001858267
 40
0.6460960582686102
 40
0.707662787501757
 40
0.7692367688880276
 40
0.830799034022921
 40
0.8923315418885435
 40
0.9538732862885947
 40
0.9999999999999999
 40
0.9999999999999999
 40
0.9999999999999999
 40
0.9999999999999999
 10
110.8372239921733
 20
-7.47164814608039
 30
0.0
 10
110.2012815599833
 20
-7.581106336630951
 30
0.0
 10
108.2834143194923
 20
-7.911208979943194
 30
0.0
 10
105.0831612200396
 20
-8.052686415166963
 30
0.0
 10
101.2369069903988
 20
-7.899892455459449
 30
0.0
 10
97.39133621226128
 20
-7.339997837122946
 30
0.0
 10
93.54686063273331
 20
-6.424821051465514
 30
0.0
 10
89.7022561708443
 20
-5.192878431217531
 30
0.0
 10
85.85652334420595
 20
-3.706641890686026
 30
0.0
 10
82.01026435690841
 20
-2.038240540831059
 30
0.0
 10
78.16473677888774
 20
-0.2700248645064391
 30
0.0
 10
74.32028811474393
 20
1.51196342769548
 30
0.0
 10
70.47565001537725
 20
3.219450805959291
 30
0.0
 10
66.62987890917003
 20
4.768958068701025
 30
0.0
 10
62.78362396399728
 20
6.083564168069134
 30
0.0
 10
58.93813804425461
 20
7.102940061593656
 30
0.0
 10
55.09371169864546
 20
7.760931059460606
 30
0.0
 10
51.57055853627829
 20
8.058983649579055
 30
0.0
 10
49.32848768145381
 20
7.954136395184036
 30
0.0
 10
48.36795232824834
 20
7.909218325660839
 30
0.0
  0
SPLINE
  5
C8
330
1F
100
AcDbEntity
  8
0
  6
Continuous
 62
     1
370
    15
100
AcDbSpline
210
0.0
220
0.0
230
1.0
 70
    24
 71
     3
 72
    10
 73
     6
 74
     0
 42
0.000000001
 43
0.00000001
 40
0.0
 40
0.0
 40
0.0
 40
0.0
 40
0.5
 40
0.5
 40
1.0
 40
1.0
 40
1.0
 40
1.0
 10
127.0
 20
2.277336188987597
 30
0.0
 10
127.0
 20
2.878840455911257
 30
0.0
 10
127.0
 20
3.450743803947689
 30
0.0
 10
127.0
 20
4.486413301752658
 30
0.0
 10
127.0
 20
4.949784524560224
 30
0.0
 10
127.0
 20
5.33875090317299
 30
0.0
  0
SPLINE
  5
C9
330
1F
100
AcDbEntity
  8
0
  6
Continuous
 62
     1
370
    15
100
AcDbSpline
210
0.0
220
0.0
230
1.0
 70
     8
 71
     3
 72
    10
 73
     6
 74
     0
 42
0.000000001
 43
0.00000001
 40
0.0
 40
0.0
 40
0.0
 40
0.0
 40
0.5
 40
0.5
 40
1.0
 40
1.0
 40
1.0
 40
1.0
 10
132.0
 20
7.00000000000002
 30
0.0
 10
131.1576359540482
 20
6.771599311814843
 30
0.0
 10
130.3193608276096
 20
6.520011639069247
 30
0.0
 10
128.6514643580288
 20
5.967828526894003
 30
0.0
 10
127.822597271291
 20
5.667959600724487
 30
0.0
 10
127.0
 20
5.338750903172984
 30
0.0
  0
SPLINE
  5
CA
330
1F
100
AcDbEntity
  8
0
  6
Continuous
 62
   131
370
    15
100
AcDbSpline
210
0.0
220
0.0
230
1.0
 70
    24
 71
     3
 72
    11
 73
     7
 74
     0
 42
0.000000001
 43
0.00000001
 40
0.0
 40
0.0
 40
0.0
 40
0.0
 40
0.129582727107146
 40
0.4245110745073905
 40
0.7082286458637815
 40
0.9999999999999999
 40
0.9999999999999999
 40
0.9999999999999999
 40
0.9999999999999999
 10
12.00000000000002
 20
6.559543664358166
 30
0.0
 10
12.00000000000002
 20
6.568512474636008
 30
0.0
 10
12.00000000000002
 20
6.597894162867888
 30
0.0
 10
12.00000000000001
 20
6.312748853618998
 30
0.0
 10
12.00000000000004
 20
5.744974551904292
 30
0.0
 10
12.00000000000001
 20
5.124365439150939
 30
0.0
 10
11.99999999999999
 20
4.809718270115801
 30
0.0
  0
LINE
  5
CB
330
1F
100
AcDbEntity
  8
0
  6
Continuous
 62
     1
370
    15
100
AcDbLine
 10
132.0
 20
0.0000000000000196
 30
0.0
 11
132.0
 21
7.000000000000019
 31
0.0
  0
SPLINE
  5
CC
330
1F
100
AcDbEntity
  8
0
  6
Continuous
 62
   131
370
    15
100
AcDbSpline
210
0.0
220
0.0
230
1.0
 70
     8
 71
     3
 72
     8
 73
     4
 74
     0
 42
0.000000001
 43
0.00000001
 40
0.0
 40
0.0
 40
0.0
 40
0.0
 40
1.0
 40
1.0
 40
1.0
 40
1.0
 10
12.00000000000001
 20
-5.686311488676318
 30
0.0
 10
10.98108127130849
 20
-5.203089981398096
 30
0.0
 10
9.968910518041723
 20
-4.691515003355192
 30
0.0
 10
8.950073267256426
 20
-4.15726106529151
 30
0.0
  0
SPLINE
  5
CD
330
1F
100
AcDbEntity
  8
0
  6
Continuous
 62
   131
370
    15
100
AcDbSpline
210
0.0
220
0.0
230
1.0
 70
     8
 71
     3
 72
     8
 73
     4
 74
     0
 42
0.000000001
 43
0.00000001
 40
0.0
 40
0.0
 40
0.0
 40
0.0
 40
1.0
 40
1.0
 40
1.0
 40
1.0
 10
12.0
 20
-7.736989092224499
 30
0.0
 10
10.98106877352782
 20
-7.364811649517895
 30
0.0
 10
9.968885559088621
 20
-6.953422742648097
 30
0.0
 10
8.950035776911923
 20
-6.507387064351192
 30
0.0
  0
LINE
  5
CE
330
1F
100
AcDbEntity
  8
0
  6
Continuous
 62
   131
370
    15
100
AcDbLine
 10
8.950035776911923
 20
-9.999999999999995
 30
0.0
 11
8.950035776911923
 21
-6.50738647152677
 31
0.0
  0
LINE
  5
CF
330
1F
100
AcDbEntity
  8
0
  6
Continuous
 62
   131
370
    15
100
AcDbLine
 10
9.441851375681502
 20
6.705663966424011
 30
0.0
 11
12.0
 21
7.736989092224509
 31
0.0
  0
LINE
  5
D0
330
1F
100
AcDbEntity
  8
0
  6
Continuous
 62
   131
370
    15
100
AcDbLine
 10
8.950035776911923
 20
-4.156871279705392
 30
0.0
 11
8.95003577691192
 21
10.00000000000001
 31
0.0
  0
LINE
  5
D1
330
1F
100
AcDbEntity
  8
0
  6
Continuous
 62
   131
370
    15
100
AcDbLine
 10
-117.0
 20
9.999999999999988
 30
0.0
 11
-117.0
 21
-10.00000000000001
 31
0.0
  0
LINE
  5
D2
330
1F
100
AcDbEntity
  8
0
  6
Continuous
 62
   131
370
    15
100
AcDbLine
 10
-118.0
 20
8.999999999999988
 30
0.0
 11
-118.0
 21
-8.999999999999998
 31
0.0
  0
SPLINE
  5
D3
330
1F
100
AcDbEntity
  8
0
  6
Continuous
 62
   131
370
    15
100
AcDbSpline
210
0.0
220
0.0
230
1.0
 70
    24
 71
     3
 72
     8
 73
     4
 74
     0
 42
0.000000001
 43
0.00000001
 40
0.0
 40
0.0
 40
0.0
 40
0.0
 40
1.0
 40
1.0
 40
1.0
 40
1.0
 10
12.00000000000001
 20
-4.403154019351011
 30
0.0
 10
12.00000000000001
 20
-4.803146742004874
 30
0.0
 10
12.00000000000001
 20
-5.233491831538567
 30
0.0
 10
12.00000000000001
 20
-5.686311488667852
 30
0.0
  0
SPLINE
  5
D4
330
1F
100
AcDbEntity
  8
0
  6
Continuous
 62
   131
370
    15
100
AcDbSpline
210
0.0
220
0.0
230
1.0
 70
     8
 71
     3
 72
     8
 73
     4
 74
     0
 42
0.000000001
 43
0.00000001
 40
0.0
 40
0.0
 40
0.0
 40
0.0
 40
1.0
 40
1.0
 40
1.0
 40
1.0
 10
12.00000000000003
 20
-4.40315401935102
 30
0.0
 10
10.98108127130851
 20
-3.97604946089717
 30
0.0
 10
9.96891051804173
 20
-3.527106793551258
 30
0.0
 10
8.950073267256426
 20
-3.061305553127533
 30
0.0
  0
SPLINE
  5
D5
330
1F
100
AcDbEntity
  8
0
  6
Continuous
 62
   131
370
    15
100
AcDbSpline
210
0.0
220
0.0
230
1.0
 70
     8
 71
     3
 72
     8
 73
     4
 74
     0
 42
0.000000001
 43
0.00000001
 40
0.0
 40
0.0
 40
0.0
 40
0.0
 40
1.0
 40
1.0
 40
1.0
 40
1.0
 10
12.0
 20
4.809718270115801
 30
0.0
 10
10.98107333665518
 20
5.185252160943106
 30
0.0
 10
9.968894671977983
 20
5.535066495090021
 30
0.0
 10
8.95004946519969
 20
5.855284554004676
 30
0.0
  0
SPLINE
  5
D6
330
1F
100
AcDbEntity
  8
0
  6
Continuous
 62
   131
370
    15
100
AcDbSpline
210
0.0
220
0.0
230
1.0
 70
    24
 71
     3
 72
    14
 73
    10
 74
     0
 42
0.000000001
 43
0.00000001
 40
0.0
 40
0.0
 40
0.0
 40
0.0
 40
0.2500000000000001
 40
0.2500000000000001
 40
0.5000000000000001
 40
0.5000000000000001
 40
0.7500000000000001
 40
0.7500000000000001
 40
1.0
 40
1.0
 40
1.0
 40
1.0
 10
12.0
 20
4.809718270115802
 30
0.0
 10
12.0
 20
4.143989036086894
 30
0.0
 10
12.0
 20
3.421051979826123
 30
0.0
 10
12.0
 20
1.90148854211729
 30
0.0
 10
12.0
 20
1.105192374129626
 30
0.0
 10
12.0
 20
-0.5049853190582416
 30
0.0
 10
12.00000000000001
 20
-1.318401873819368
 30
0.0
 10
12.00000000000001
 20
-2.904036164879779
 30
0.0
 10
12.00000000000001
 20
-3.675871660768124
 30
0.0
 10
12.00000000000001
 20
-4.403154019351009
 30
0.0
  0
SPLINE
  5
D7
330
1F
100
AcDbEntity
  8
0
  6
Continuous
 62
   131
370
    15
100
AcDbSpline
210
0.0
220
0.0
230
1.0
 70
    24
 71
     3
 72
    11
 73
     7
 74
     0
 42
0.000000001
 43
0.00000001
 40
0.0
 40
0.0
 40
0.0
 40
0.0
 40
0.1249611527893675
 40
0.4214554540354035
 40
0.7066794544139635
 40
1.0
 40
1.0
 40
1.0
 40
1.0
 10
12.00000000000002
 20
6.559879634892008
 30
0.0
 10
12.00000000000002
 20
6.568319387173547
 30
0.0
 10
12.00000000000002
 20
6.596784070400012
 30
0.0
 10
12.00000000000001
 20
6.312405339553766
 30
0.0
 10
12.00000000000004
 20
5.745061846994501
 30
0.0
 10
12.00000000000001
 20
5.124394807735293
 30
0.0
 10
11.99999999999999
 20
4.809718270115801
 30
0.0
  0
SPLINE
  5
D8
330
1F
100
AcDbEntity
  8
0
  6
Continuous
 62
   131
370
    15
100
AcDbSpline
210
0.0
220
0.0
230
1.0
 70
    24
 71
     3
 72
    10
 73
     6
 74
     0
 42
0.000000001
 43
0.00000001
 40
0.0
 40
0.0
 40
0.0
 40
0.0
 40
0.2182397487269728
 40
0.7822873131402946
 40
1.0
 40
1.0
 40
1.0
 40
1.0
 10
12.0
 20
7.736989092224517
 30
0.0
 10
11.99999999999999
 20
7.658745132657104
 30
0.0
 10
11.99999999999999
 20
7.378277173651044
 30
0.0
 10
11.99999999999999
 20
7.03194632057511
 30
0.0
 10
11.99999999999999
 20
6.803224165760994
 30
0.0
 10
11.99999999999999
 20
6.739527252560513
 30
0.0
  0
LINE
  5
D9
330
1F
100
AcDbEntity
  8
중심선
100
AcDbLine
 10
-121.0
 20
0.0000000000000005
 30
0.0
 11
139.0
 21
0.0000000000000202
 31
0.0
  0
CIRCLE
  5
DA
330
1F
100
AcDbEntity
  8
외형선
100
AcDbCircle
 10
0.0000000000000104
 20
0.0
 30
0.0
 40
3.000000000000005
  0
INSERT
  5
DB
330
1F
100
AcDbEntity
  8
0
  6
Continuous
 62
     7
100
AcDbBlockReference
 66
     1
  2
블럭10
 10
-22.93944368806589
 20
-52.04609937292004
 30
0.0
  0
ATTRIB
  5
DC
330
DB
100
AcDbEntity
  8
FORMAT
 62
     2
100
AcDbText
 10
-40.63836564979034
 20
-49.97073246008785
 30
0.0
 40
4.233333333333333
  1
SEME70200120E [ 2 FLUTE ]
 41
0.75
  7
SLDTEXTSTYLE0
 11
-40.63836564979034
 21
-52.08739912675452
 31
0.0
100
AcDbAttribute
  2
AUTOATTR0
 70
     0
 74
     1
  0
SEQEND
  5
DD
330
DB
100
AcDbEntity
  8
0
  6
Continuous
 62
     7
  0
HATCH
  5
DE
330
1F
100
AcDbEntity
  8
중심선
100
AcDbHatch
 10
0.0
 20
0.0
 30
0.0
210
0.0
220
0.0
230
1.0
  2
SOLID
 70
     1
 71
     0
 91
        1
 92
        0
 93
        4
 72
     1
 10
-17.22453438368504
 20
-35.7989250712761
 11
-20.67080962752232
 21
-35.7989250712761
 72
     1
 10
-20.67080962752232
 20
-35.7989250712761
 11
-22.79903948672635
 21
-38.3352506518487
 72
     1
 10
-22.79903948672635
 20
-38.3352506518487
 11
-19.35273115777591
 21
-38.33521122254621
 72
     1
 10
-19.35273115777591
 20
-38.33521122254621
 11
-17.22453438368504
 21
-35.7989250712761
 97
        0
 75
     0
 76
     1
 98
        1
 10
0.0
 20
0.0
  0
HATCH
  5
DF
330
1F
100
AcDbEntity
  8
중심선
100
AcDbHatch
 10
0.0
 20
0.0
 30
0.0
210
0.0
220
0.0
230
1.0
  2
SOLID
 70
     1
 71
     0
 91
        1
 92
        0
 93
        4
 72
     1
 10
-12.21177039264909
 20
-35.7989250712761
 11
-15.65804563648637
 21
-35.7989250712761
 72
     1
 10
-15.65804563648637
 20
-35.7989250712761
 11
-20.18918364484376
 21
-41.19892507127612
 72
     1
 10
-20.18918364484376
 20
-41.19892507127612
 11
-16.74290840100648
 21
-41.19892507127612
 72
     1
 10
-16.74290840100648
 20
-41.19892507127612
 11
-12.21177039264909
 21
-35.7989250712761
 97
        0
 75
     0
 76
     1
 98
        1
 10
0.0
 20
0.0
  0
HATCH
  5
E0
330
1F
100
AcDbEntity
  8
중심선
100
AcDbHatch
 10
0.0
 20
0.0
 30
0.0
210
0.0
220
0.0
230
1.0
  2
SOLID
 70
     1
 71
     0
 91
        1
 92
        0
 93
        4
 72
     1
 10
-7.199006401613195
 20
-35.79892507127613
 11
-10.64528164545031
 21
-35.7989250712761
 72
     1
 10
-10.64528164545031
 20
-35.7989250712761
 11
-17.69371854733956
 21
-44.19892507127612
 72
     1
 10
-17.69371854733956
 20
-44.19892507127612
 11
-14.24744330350228
 21
-44.19892507127612
 72
     1
 10
-14.24744330350228
 20
-44.19892507127612
 11
-7.199006401613195
 21
-35.79892507127613
 97
        0
 75
     0
 76
     1
 98
        1
 10
0.0
 20
0.0
  0
HATCH
  5
E1
330
1F
100
AcDbEntity
  8
중심선
100
AcDbHatch
 10
0.0
 20
0.0
 30
0.0
210
0.0
220
0.0
230
1.0
  2
SOLID
 70
     1
 71
     0
 91
        1
 92
        0
 93
        6
 72
     3
 10
-2.399115970600996
 20
-39.99892507132738
 11
3.960054785062284
 21
1.540850780301639E-10
 40
0.3939339440162633
 50
17.09539180608433
 51
320.0019657685079
 73
     0
 72
     1
 10
-0.7161163149004002
 20
-38.58681907591441
 11
1.589185558800638
 21
-36.65249236586649
 72
     3
 10
-2.399115970653842
 20
-39.99892507127625
 11
6.600054785286829
 21
-1.249000902703301E-13
 40
0.6363583540795982
 50
39.99873849337408
 51
368.4976242363725
 73
     1
 72
     1
 10
4.026216521246767
 20
-39.03892507120613
 11
-3.71904866381792
 21
-39.0389250712061
 72
     1
 10
-3.71904866381792
 20
-39.0389250712061
 11
-3.719073708263854
 21
-40.95892507120602
 72
     1
 10
-3.719073708263854
 20
-40.95892507120602
 11
0.7223060612081831
 21
-40.95892507120599
 97
        0
 75
     0
 76
     1
 98
        1
 10
0.0
 20
0.0
  0
DIMENSION
  5
E2
330
1F
100
AcDbEntity
  8
치수문자_일반주서
100
AcDbDimension
  2
_D
 10
147.9802190800926
 20
10.00000000000008
 30
0.0
 11
147.9802190800926
 21
22.18876682768754
 31
0.0
 70
   160
  1
%%c<>
 71
     2
 42
20.0
 52
-270.0
  3
SLDDIMSTYLE0
100
AcDbAlignedDimension
 13
132.0000000000001
 23
-9.999999999999979
 33
0.0
 14
131.9999999999995
 24
10.00000000000002
 34
0.0
 50
90.0000000000002
100
AcDbRotatedDimension
  0
DIMENSION
  5
F0
330
1F
100
AcDbEntity
  8
치수문자_일반주서
100
AcDbDimension
  2
_D_1
 10
131.9999999999995
 20
30.78841044024269
 30
0.0
 11
6.999999999999735
 21
30.78841044024269
 31
0.0
 70
   160
  1
<>
 71
     2
 42
249.9999999999995
  3
SLDDIMSTYLE1
100
AcDbAlignedDimension
 13
-118.0
 23
8.999999999999988
 33
0.0
 14
131.9999999999995
 24
10.00000000000002
 34
0.0
 50
-0.0000000000000033
100
AcDbRotatedDimension
  0
DIMENSION
  5
FB
330
1F
100
AcDbEntity
  8
치수문자_일반주서
100
AcDbDimension
  2
_D_2
 10
131.9999999999995
 20
21.08398689839203
 30
0.0
 11
72.0
 21
21.08398689839203
 31
0.0
 70
   160
  1
<>
 71
     2
 42
119.9999999999995
  3
SLDDIMSTYLE1
100
AcDbAlignedDimension
 13
12.0
 23
7.736989092224509
 33
0.0
 14
131.9999999999995
 24
10.00000000000002
 34
0.0
 50
-0.0000000000000034
100
AcDbRotatedDimension
  0
DIMENSION
  5
105
330
1F
100
AcDbEntity
  8
치수문자_일반주서
100
AcDbDimension
  2
_D_3
 10
-132.015544710842
 20
-10.00000000000006
 30
0.0
 11
-132.0155447108421
 21
24.56564088363774
 31
0.0
 70
   160
  1
%%c<>
 71
     2
 42
19.99999999999999
 52
-270.0
  3
SLDDIMSTYLE0
100
AcDbAlignedDimension
 13
-117.0
 23
9.999999999999988
 33
0.0
 14
-117.0
 24
-9.999999999999998
 34
0.0
 50
90.0000000000002
100
AcDbRotatedDimension
  0
INSERT
  5
118
330
1F
100
AcDbEntity
  8
외형선
100
AcDbBlockReference
  2
SW_DOWELSYMBOL_0
 10
0.0000000000000104
 20
0.0
 30
0.0
  0
ENDSEC
  0
SECTION
  2
OBJECTS
  0
DICTIONARY
  5
C
330
0
100
AcDbDictionary
281
     1
  3
ACAD_GROUP
350
D
  3
ACAD_IMAGE_VARS
350
13C
  3
ACAD_LAYOUT
350
1A
  3
ACAD_MLINESTYLE
350
17
  3
ACAD_PLOTSETTINGS
350
19
  3
ACAD_PLOTSTYLENAME
350
E
  3
ACAD_SCALELIST
350
47
  3
APPDATA
350
13A
  3
DWGPROPS
350
14D
  0
DICTIONARY
  5
D
102
{ACAD_REACTORS
330
C
102
}
330
C
100
AcDbDictionary
281
     1
  0
RASTERVARIABLES
  5
13C
102
{ACAD_REACTORS
330
C
102
}
330
C
100
AcDbRasterVariables
 90
        0
 70
     1
 71
     1
 72
     1
  0
DICTIONARY
  5
1A
102
{ACAD_REACTORS
330
C
102
}
330
C
100
AcDbDictionary
281
     1
  3
Layout1
350
1E
  3
Layout2
350
26
  3
Model
350
22
  0
DICTIONARY
  5
17
102
{ACAD_REACTORS
330
C
102
}
330
C
100
AcDbDictionary
281
     1
  3
Standard
350
18
  0
DICTIONARY
  5
19
102
{ACAD_REACTORS
330
C
102
}
330
C
100
AcDbDictionary
281
     1
  0
ACDBDICTIONARYWDFLT
  5
E
102
{ACAD_REACTORS
330
C
102
}
330
C
100
AcDbDictionary
281
     1
  3
Normal
350
F
100
AcDbDictionaryWithDefault
340
F
  0
DICTIONARY
  5
47
102
{ACAD_REACTORS
330
C
102
}
330
C
100
AcDbDictionary
281
     1
  3
A0
350
48
  3
A1
350
49
  3
A2
350
4A
  3
A3
350
4B
  3
A4
350
4C
  3
A5
350
4D
  3
A6
350
4E
  3
A7
350
4F
  3
A8
350
50
  3
A9
350
51
  3
B0
350
52
  3
B1
350
53
  3
B2
350
54
  3
B3
350
55
  3
B4
350
56
  3
B5
350
57
  3
B6
350
58
  3
B7
350
59
  3
B8
350
5A
  3
B9
350
5B
  3
C0
350
5C
  3
C1
350
5D
  3
C2
350
5E
  3
C3
350
5F
  3
C4
350
60
  3
C5
350
61
  3
C6
350
62
  3
C7
350
63
  3
C8
350
64
  3
C9
350
65
  3
D0
350
66
  3
D1
350
67
  3
D2
350
68
  0
DICTIONARY
  5
13A
102
{ACAD_REACTORS
330
C
102
}
330
C
100
AcDbDictionary
281
     1
  0
XRECORD
  5
14D
102
{ACAD_REACTORS
330
C
102
}
330
C
100
AcDbXrecord
280
     1
  1
DWGPROPS COOKIE
  2

  3

  4

  6

  7

  8
12014102
  9

300
=
301
=
302
=
303
=
304
=
305
=
306
=
307
=
308
=
309
=
 40
0.0
 41
2458262.177805856
 42
2458266.254320938
  1

 90
        0
  0
LAYOUT
  5
1E
102
{ACAD_REACTORS
330
1A
102
}
330
1A
100
AcDbPlotSettings
  1

  2
none_device
  4

  6

 40
0.0
 41
0.0
 42
0.0
 43
0.0
 44
0.0
 45
0.0
 46
0.0
 47
0.0
 48
0.0
 49
0.0
140
0.0
141
0.0
142
1.0
143
1.0
 70
   688
 72
     1
 73
     0
 74
     5
  7

 75
    16
147
1.0
148
0.0
149
0.0
100
AcDbLayout
  1
Layout1
 70
     1
 71
     1
 10
0.0
 20
0.0
 11
420.0
 21
297.0
 12
0.0
 22
0.0
 32
0.0
 14
1.000000000000000E+20
 24
1.000000000000000E+20
 34
1.000000000000000E+20
 15
-1.000000000000000E+20
 25
-1.000000000000000E+20
 35
-1.000000000000000E+20
146
0.0
 13
0.0
 23
0.0
 33
0.0
 16
1.0
 26
0.0
 36
0.0
 17
0.0
 27
1.0
 37
0.0
 76
     0
330
1B
  0
LAYOUT
  5
26
102
{ACAD_REACTORS
330
1A
102
}
330
1A
100
AcDbPlotSettings
  1

  2
none_device
  4

  6

 40
0.0
 41
0.0
 42
0.0
 43
0.0
 44
0.0
 45
0.0
 46
0.0
 47
0.0
 48
0.0
 49
0.0
140
0.0
141
0.0
142
1.0
143
1.0
 70
   688
 72
     1
 73
     0
 74
     5
  7

 75
    16
147
1.0
148
0.0
149
0.0
100
AcDbLayout
  1
Layout2
 70
     1
 71
     2
 10
0.0
 20
0.0
 11
0.0
 21
0.0
 12
0.0
 22
0.0
 32
0.0
 14
0.0
 24
0.0
 34
0.0
 15
0.0
 25
0.0
 35
0.0
146
0.0
 13
0.0
 23
0.0
 33
0.0
 16
1.0
 26
0.0
 36
0.0
 17
0.0
 27
1.0
 37
0.0
 76
     0
330
23
  0
LAYOUT
  5
22
102
{ACAD_REACTORS
330
1A
102
}
330
1A
100
AcDbPlotSettings
  1

  2
none_device
  4
ANSI_A_(11.00_x_8.50_Inches)
  6

 40
6.35
 41
19.05
 42
6.35000508
 43
19.05000254
 44
279.4
 45
215.9
 46
131.3040904639732
 47
96.91216365824668
 48
0.0
 49
0.0
140
0.0
141
0.0
142
0.0409303606604614
143
1.0
 70
  1696
 72
     0
 73
     0
 74
     0
  7

 75
     0
147
0.0235690232323232
148
0.0
149
0.0
100
AcDbLayout
  1
Model
 70
     1
 71
     0
 10
0.0
 20
0.0
 11
420.0
 21
297.0
 12
0.0
 22
0.0
 32
0.0
 14
-136.3905447108421
 24
-49.97073246008785
 34
0.0
 15
148.5305524134259
 25
35.16341044024269
 35
0.0
146
0.0
 13
0.0
 23
0.0
 33
0.0
 16
1.0
 26
0.0
 36
0.0
 17
0.0
 27
1.0
 37
0.0
 76
     0
330
1F
331
29
  0
MLINESTYLE
  5
18
102
{ACAD_REACTORS
330
17
102
}
330
17
100
AcDbMlineStyle
  2
Standard
 70
     0
  3

 62
   256
 51
90.0
 52
90.0
 71
     2
 49
0.5
 62
   256
  6
BYLAYER
 49
-0.5
 62
   256
  6
BYLAYER
  0
ACDBPLACEHOLDER
  5
F
102
{ACAD_REACTORS
330
E
102
}
330
E
  0
SCALE
  5
48
102
{ACAD_REACTORS
330
47
102
}
330
47
100
AcDbScale
 70
     0
300
1:1
140
1.0
141
1.0
290
     1
  0
SCALE
  5
49
102
{ACAD_REACTORS
330
47
102
}
330
47
100
AcDbScale
 70
     0
300
1:2
140
1.0
141
2.0
290
     0
  0
SCALE
  5
4A
102
{ACAD_REACTORS
330
47
102
}
330
47
100
AcDbScale
 70
     0
300
1:4
140
1.0
141
4.0
290
     0
  0
SCALE
  5
4B
102
{ACAD_REACTORS
330
47
102
}
330
47
100
AcDbScale
 70
     0
300
1:5
140
1.0
141
5.0
290
     0
  0
SCALE
  5
4C
102
{ACAD_REACTORS
330
47
102
}
330
47
100
AcDbScale
 70
     0
300
1:8
140
1.0
141
8.0
290
     0
  0
SCALE
  5
4D
102
{ACAD_REACTORS
330
47
102
}
330
47
100
AcDbScale
 70
     0
300
1:10
140
1.0
141
10.0
290
     0
  0
SCALE
  5
4E
102
{ACAD_REACTORS
330
47
102
}
330
47
100
AcDbScale
 70
     0
300
1:16
140
1.0
141
16.0
290
     0
  0
SCALE
  5
4F
102
{ACAD_REACTORS
330
47
102
}
330
47
100
AcDbScale
 70
     0
300
1:20
140
1.0
141
20.0
290
     0
  0
SCALE
  5
50
102
{ACAD_REACTORS
330
47
102
}
330
47
100
AcDbScale
 70
     0
300
1:30
140
1.0
141
30.0
290
     0
  0
SCALE
  5
51
102
{ACAD_REACTORS
330
47
102
}
330
47
100
AcDbScale
 70
     0
300
1:40
140
1.0
141
40.0
290
     0
  0
SCALE
  5
52
102
{ACAD_REACTORS
330
47
102
}
330
47
100
AcDbScale
 70
     0
300
1:50
140
1.0
141
50.0
290
     0
  0
SCALE
  5
53
102
{ACAD_REACTORS
330
47
102
}
330
47
100
AcDbScale
 70
     0
300
1:100
140
1.0
141
100.0
290
     0
  0
SCALE
  5
54
102
{ACAD_REACTORS
330
47
102
}
330
47
100
AcDbScale
 70
     0
300
2:1
140
2.0
141
1.0
290
     0
  0
SCALE
  5
55
102
{ACAD_REACTORS
330
47
102
}
330
47
100
AcDbScale
 70
     0
300
4:1
140
4.0
141
1.0
290
     0
  0
SCALE
  5
56
102
{ACAD_REACTORS
330
47
102
}
330
47
100
AcDbScale
 70
     0
300
8:1
140
8.0
141
1.0
290
     0
  0
SCALE
  5
57
102
{ACAD_REACTORS
330
47
102
}
330
47
100
AcDbScale
 70
     0
300
10:1
140
10.0
141
1.0
290
     0
  0
SCALE
  5
58
102
{ACAD_REACTORS
330
47
102
}
330
47
100
AcDbScale
 70
     0
300
100:1
140
100.0
141
1.0
290
     0
  0
SCALE
  5
59
102
{ACAD_REACTORS
330
47
102
}
330
47
100
AcDbScale
 70
     0
300
1/128" = 1'-0"
140
0.0078125
141
12.0
290
     0
  0
SCALE
  5
5A
102
{ACAD_REACTORS
330
47
102
}
330
47
100
AcDbScale
 70
     0
300
1/64" = 1'-0"
140
0.015625
141
12.0
290
     0
  0
SCALE
  5
5B
102
{ACAD_REACTORS
330
47
102
}
330
47
100
AcDbScale
 70
     0
300
1/32" = 1'-0"
140
0.03125
141
12.0
290
     0
  0
SCALE
  5
5C
102
{ACAD_REACTORS
330
47
102
}
330
47
100
AcDbScale
 70
     0
300
1/16" = 1'-0"
140
0.0625
141
12.0
290
     0
  0
SCALE
  5
5D
102
{ACAD_REACTORS
330
47
102
}
330
47
100
AcDbScale
 70
     0
300
3/32" = 1'-0"
140
0.09375
141
12.0
290
     0
  0
SCALE
  5
5E
102
{ACAD_REACTORS
330
47
102
}
330
47
100
AcDbScale
 70
     0
300
1/8" = 1'-0"
140
0.125
141
12.0
290
     0
  0
SCALE
  5
5F
102
{ACAD_REACTORS
330
47
102
}
330
47
100
AcDbScale
 70
     0
300
3/16" = 1'-0"
140
0.1875
141
12.0
290
     0
  0
SCALE
  5
60
102
{ACAD_REACTORS
330
47
102
}
330
47
100
AcDbScale
 70
     0
300
1/4" = 1'-0"
140
0.25
141
12.0
290
     0
  0
SCALE
  5
61
102
{ACAD_REACTORS
330
47
102
}
330
47
100
AcDbScale
 70
     0
300
3/8" = 1'-0"
140
0.375
141
12.0
290
     0
  0
SCALE
  5
62
102
{ACAD_REACTORS
330
47
102
}
330
47
100
AcDbScale
 70
     0
300
1/2" = 1'-0"
140
0.5
141
12.0
290
     0
  0
SCALE
  5
63
102
{ACAD_REACTORS
330
47
102
}
330
47
100
AcDbScale
 70
     0
300
3/4" = 1'-0"
140
0.75
141
12.0
290
     0
  0
SCALE
  5
64
102
{ACAD_REACTORS
330
47
102
}
330
47
100
AcDbScale
 70
     0
300
1" = 1'-0"
140
1.0
141
12.0
290
     0
  0
SCALE
  5
65
102
{ACAD_REACTORS
330
47
102
}
330
47
100
AcDbScale
 70
     0
300
1-1/2" = 1'-0"
140
1.5
141
12.0
290
     0
  0
SCALE
  5
66
102
{ACAD_REACTORS
330
47
102
}
330
47
100
AcDbScale
 70
     0
300
3" = 1'-0"
140
3.0
141
12.0
290
     0
  0
SCALE
  5
67
102
{ACAD_REACTORS
330
47
102
}
330
47
100
AcDbScale
 70
     0
300
6" = 1'-0"
140
6.0
141
12.0
290
     0
  0
SCALE
  5
68
102
{ACAD_REACTORS
330
47
102
}
330
47
100
AcDbScale
 70
     0
300
1'-0" = 1'-0"
140
12.0
141
12.0
290
     0
  0
ENDSEC
  0
EOF
