  0
SECTION
  2
HEADER
  9
$ACADVER
  1
AC1015
  9
$ACADMAINTVER
 70
     6
  9
$DWGCODEPAGE
  3
ANSI_949
  9
$INSBASE
 10
0.0
 20
0.0
 30
0.0
  9
$EXTMIN
 10
-69.37508211821428
 20
-49.97073246008785
 30
0.0
  9
$EXTMAX
 10
91.34873322651599
 20
35.16341044024269
 30
0.0
  9
$LIMMIN
 10
0.0
 20
0.0
  9
$LIMMAX
 10
420.0
 20
297.0
  9
$ORTHOMODE
 70
     0
  9
$REGENMODE
 70
     1
  9
$FILLMODE
 70
     1
  9
$QTEXTMODE
 70
     0
  9
$MIRRTEXT
 70
     1
  9
$LTSCALE
 40
1.0
  9
$ATTMODE
 70
     1
  9
$TEXTSIZE
 40
3.5
  9
$TRACEWID
 40
1.0
  9
$TEXTSTYLE
  7
Standard
  9
$CLAYER
  8
0
  9
$CELTYPE
  6
ByLayer
  9
$CECOLOR
 62
   256
  9
$CELTSCALE
 40
1.0
  9
$DISPSILH
 70
     0
  9
$DIMSCALE
 40
1.0
  9
$DIMASZ
 40
3.302
  9
$DIMEXO
 40
1.0
  9
$DIMDLI
 40
3.75
  9
$DIMRND
 40
0.0
  9
$DIMDLE
 40
0.0
  9
$DIMEXE
 40
1.0
  9
$DIMTP
 40
0.0
  9
$DIMTM
 40
0.0
  9
$DIMTXT
 40
3.5
  9
$DIMCEN
 40
2.5
  9
$DIMTSZ
 40
0.0
  9
$DIMTOL
 70
     0
  9
$DIMLIM
 70
     0
  9
$DIMTIH
 70
     1
  9
$DIMTOH
 70
     1
  9
$DIMSE1
 70
     0
  9
$DIMSE2
 70
     0
  9
$DIMTAD
 70
     1
  9
$DIMZIN
 70
     0
  9
$DIMBLK
  1

  9
$DIMASO
 70
     1
  9
$DIMSHO
 70
     1
  9
$DIMPOST
  1

  9
$DIMAPOST
  1

  9
$DIMALT
 70
     0
  9
$DIMALTD
 70
     3
  9
$DIMALTF
 40
0.0393700787401575
  9
$DIMLFAC
 40
1.0
  9
$DIMTOFL
 70
     1
  9
$DIMTVP
 40
0.0
  9
$DIMTIX
 70
     0
  9
$DIMSOXD
 70
     0
  9
$DIMSAH
 70
     0
  9
$DIMBLK1
  1

  9
$DIMBLK2
  1

  9
$DIMSTYLE
  2
ISO-25
  9
$DIMCLRD
 70
     0
  9
$DIMCLRE
 70
     0
  9
$DIMCLRT
 70
     0
  9
$DIMTFAC
 40
1.0
  9
$DIMGAP
 40
1.524
  9
$DIMJUST
 70
     0
  9
$DIMSD1
 70
     0
  9
$DIMSD2
 70
     0
  9
$DIMTOLJ
 70
     0
  9
$DIMTZIN
 70
     0
  9
$DIMALTZ
 70
     0
  9
$DIMALTTZ
 70
     0
  9
$DIMUPT
 70
     0
  9
$DIMDEC
 70
     2
  9
$DIMTDEC
 70
     2
  9
$DIMALTU
 70
     2
  9
$DIMALTTD
 70
     3
  9
$DIMTXSTY
  7
Standard
  9
$DIMAUNIT
 70
     0
  9
$DIMADEC
 70
     2
  9
$DIMALTRND
 40
0.0
  9
$DIMAZIN
 70
     0
  9
$DIMDSEP
 70
    44
  9
$DIMATFIT
 70
     3
  9
$DIMFRAC
 70
     0
  9
$DIMLDRBLK
  1

  9
$DIMLUNIT
 70
     2
  9
$DIMLWD
 70
    -2
  9
$DIMLWE
 70
    -2
  9
$DIMTMOVE
 70
     0
  9
$LUNITS
 70
     2
  9
$LUPREC
 70
     2
  9
$SKETCHINC
 40
1.0
  9
$FILLETRAD
 40
10.0
  9
$AUNITS
 70
     0
  9
$AUPREC
 70
     2
  9
$MENU
  1
.
  9
$ELEVATION
 40
0.0
  9
$PELEVATION
 40
0.0
  9
$THICKNESS
 40
0.0
  9
$LIMCHECK
 70
     0
  9
$CHAMFERA
 40
0.0
  9
$CHAMFERB
 40
0.0
  9
$CHAMFERC
 40
0.0
  9
$CHAMFERD
 40
0.0
  9
$SKPOLY
 70
     0
  9
$TDCREATE
 40
2458262.552429653
  9
$TDUCREATE
 40
2458262.177429653
  9
$TDUPDATE
 40
2459702.651317234
  9
$TDUUPDATE
 40
2459702.276317234
  9
$TDINDWG
 40
0.0026822917
  9
$TDUSRTIMER
 40
0.0016172106
  9
$USRTIMER
 70
     1
  9
$ANGBASE
 50
0.0
  9
$ANGDIR
 70
     0
  9
$PDMODE
 70
     0
  9
$PDSIZE
 40
-1.0
  9
$PLINEWID
 40
0.0
  9
$SPLFRAME
 70
     0
  9
$SPLINETYPE
 70
     6
  9
$SPLINESEGS
 70
     8
  9
$HANDSEED
  5
176
  9
$SURFTAB1
 70
     6
  9
$SURFTAB2
 70
     6
  9
$SURFTYPE
 70
     6
  9
$SURFU
 70
     6
  9
$SURFV
 70
     6
  9
$UCSBASE
  2

  9
$UCSNAME
  2

  9
$UCSORG
 10
0.0
 20
0.0
 30
0.0
  9
$UCSXDIR
 10
1.0
 20
0.0
 30
0.0
  9
$UCSYDIR
 10
0.0
 20
1.0
 30
0.0
  9
$UCSORTHOREF
  2

  9
$UCSORTHOVIEW
 70
     0
  9
$UCSORGTOP
 10
0.0
 20
0.0
 30
0.0
  9
$UCSORGBOTTOM
 10
0.0
 20
0.0
 30
0.0
  9
$UCSORGLEFT
 10
0.0
 20
0.0
 30
0.0
  9
$UCSORGRIGHT
 10
0.0
 20
0.0
 30
0.0
  9
$UCSORGFRONT
 10
0.0
 20
0.0
 30
0.0
  9
$UCSORGBACK
 10
0.0
 20
0.0
 30
0.0
  9
$PUCSBASE
  2

  9
$PUCSNAME
  2

  9
$PUCSORG
 10
0.0
 20
0.0
 30
0.0
  9
$PUCSXDIR
 10
1.0
 20
0.0
 30
0.0
  9
$PUCSYDIR
 10
0.0
 20
1.0
 30
0.0
  9
$PUCSORTHOREF
  2

  9
$PUCSORTHOVIEW
 70
     0
  9
$PUCSORGTOP
 10
0.0
 20
0.0
 30
0.0
  9
$PUCSORGBOTTOM
 10
0.0
 20
0.0
 30
0.0
  9
$PUCSORGLEFT
 10
0.0
 20
0.0
 30
0.0
  9
$PUCSORGRIGHT
 10
0.0
 20
0.0
 30
0.0
  9
$PUCSORGFRONT
 10
0.0
 20
0.0
 30
0.0
  9
$PUCSORGBACK
 10
0.0
 20
0.0
 30
0.0
  9
$USERI1
 70
     0
  9
$USERI2
 70
     0
  9
$USERI3
 70
     0
  9
$USERI4
 70
     0
  9
$USERI5
 70
     0
  9
$USERR1
 40
0.0
  9
$USERR2
 40
0.0
  9
$USERR3
 40
0.0
  9
$USERR4
 40
0.0
  9
$USERR5
 40
0.0
  9
$WORLDVIEW
 70
     1
  9
$SHADEDGE
 70
     3
  9
$SHADEDIF
 70
    70
  9
$TILEMODE
 70
     1
  9
$MAXACTVP
 70
    64
  9
$PINSBASE
 10
0.0
 20
0.0
 30
0.0
  9
$PLIMCHECK
 70
     0
  9
$PEXTMIN
 10
1.000000000000000E+20
 20
1.000000000000000E+20
 30
1.000000000000000E+20
  9
$PEXTMAX
 10
-1.000000000000000E+20
 20
-1.000000000000000E+20
 30
-1.000000000000000E+20
  9
$PLIMMIN
 10
0.0
 20
0.0
  9
$PLIMMAX
 10
0.0
 20
0.0
  9
$UNITMODE
 70
     0
  9
$VISRETAIN
 70
     1
  9
$PLINEGEN
 70
     0
  9
$PSLTSCALE
 70
     1
  9
$TREEDEPTH
 70
  3020
  9
$CMLSTYLE
  2
Standard
  9
$CMLJUST
 70
     0
  9
$CMLSCALE
 40
20.0
  9
$PROXYGRAPHICS
 70
     1
  9
$MEASUREMENT
 70
     1
  9
$CELWEIGHT
370
    -1
  9
$ENDCAPS
280
     0
  9
$JOINSTYLE
280
     0
  9
$LWDISPLAY
290
     1
  9
$INSUNITS
 70
     4
  9
$HYPERLINKBASE
  1

  9
$STYLESHEET
  1

  9
$XEDIT
290
     1
  9
$CEPSNTYPE
380
     0
  9
$PSTYLEMODE
290
     1
  9
$FINGERPRINTGUID
  2
{A981BDE1-E4DC-4175-91B2-E7EE788DF6B3}
  9
$VERSIONGUID
  2
{FAEB1C32-E019-11D5-929B-00C0DF256EC4}
  9
$EXTNAMES
290
     1
  9
$PSVPSCALE
 40
0.0
  9
$OLESTARTUP
290
     0
  0
ENDSEC
  0
SECTION
  2
CLASSES
  0
CLASS
  1
ACDBDICTIONARYWDFLT
  2
AcDbDictionaryWithDefault
  3
ObjectDBX Classes
 90
        0
280
     0
281
     0
  0
CLASS
  1
VISUALSTYLE
  2
AcDbVisualStyle
  3
ObjectDBX Classes
 90
     4095
280
     0
281
     0
  0
CLASS
  1
MATERIAL
  2
AcDbMaterial
  3
ObjectDBX Classes
 90
     1153
280
     0
281
     0
  0
CLASS
  1
SCALE
  2
AcDbScale
  3
ObjectDBX Classes
 90
     1153
280
     0
281
     0
  0
CLASS
  1
SUN
  2
AcDbSun
  3
SCENEOE
 90
     1153
280
     0
281
     0
  0
CLASS
  1
ACDBPLACEHOLDER
  2
AcDbPlaceHolder
  3
ObjectDBX Classes
 90
        0
280
     0
281
     0
  0
CLASS
  1
LAYOUT
  2
AcDbLayout
  3
ObjectDBX Classes
 90
        0
280
     0
281
     0
  0
CLASS
  1
TABLESTYLE
  2
AcDbTableStyle
  3
ObjectDBX Classes
 90
     4095
280
     0
281
     0
  0
CLASS
  1
MLEADERSTYLE
  2
AcDbMLeaderStyle
  3
ACDB_MLEADERSTYLE_CLASS
 90
     4095
280
     0
281
     0
  0
CLASS
  1
RASTERVARIABLES
  2
AcDbRasterVariables
  3
ISM
 90
        0
280
     0
281
     0
  0
CLASS
  1
DICTIONARYVAR
  2
AcDbDictionaryVar
  3
ObjectDBX Classes
 90
        0
280
     0
281
     0
  0
ENDSEC
  0
SECTION
  2
TABLES
  0
TABLE
  2
VPORT
  5
8
330
0
100
AcDbSymbolTable
 70
     1
  0
VPORT
  5
29
330
8
100
AcDbSymbolTableRecord
100
AcDbViewportTableRecord
  2
*Active
 70
     0
 10
0.0
 20
0.0
 11
1.0
 21
1.0
 12
10.98682555415085
 22
-7.40366100992258
 13
0.0
 23
0.0
 14
10.0
 24
10.0
 15
10.0
 25
10.0
 16
0.0
 26
0.0
 36
1.0
 17
0.0
 27
0.0
 37
0.0
 40
86.83682575833716
 41
2.085714285714286
 42
50.0
 43
0.0
 44
0.0
 50
0.0
 51
0.0
 71
    16
 72
  2000
 73
     1
 74
     3
 75
     0
 76
     0
 77
     0
 78
     0
281
     0
 65
     1
110
0.0
120
0.0
130
0.0
111
1.0
121
0.0
131
0.0
112
0.0
122
1.0
132
0.0
 79
     0
146
0.0
  0
ENDTAB
  0
TABLE
  2
LTYPE
  5
5
330
0
100
AcDbSymbolTable
 70
     6
  0
LTYPE
  5
14
330
5
100
AcDbSymbolTableRecord
100
AcDbLinetypeTableRecord
  2
ByBlock
 70
     0
  3

 72
    65
 73
     0
 40
0.0
  0
LTYPE
  5
15
330
5
100
AcDbSymbolTableRecord
100
AcDbLinetypeTableRecord
  2
ByLayer
 70
     0
  3

 72
    65
 73
     0
 40
0.0
  0
LTYPE
  5
16
330
5
100
AcDbSymbolTableRecord
100
AcDbLinetypeTableRecord
  2
Continuous
 70
     0
  3
Solid line
 72
    65
 73
     0
 40
0.0
  0
LTYPE
  5
6A
330
5
100
AcDbSymbolTableRecord
100
AcDbLinetypeTableRecord
  2
HIDDEN
 70
     0
  3
Hidden __ __ __ __ __ __ __ __ __ __ __ __ __ __
 72
    65
 73
     2
 40
1.905
 49
1.27
 74
     0
 49
-0.635
 74
     0
  0
LTYPE
  5
6B
330
5
100
AcDbSymbolTableRecord
100
AcDbLinetypeTableRecord
  2
PHANTOM
 70
     0
  3
Phantom ______  __  __  ______  __  __  ______
 72
    65
 73
     6
 40
12.7
 49
6.35
 74
     0
 49
-1.27
 74
     0
 49
1.27
 74
     0
 49
-1.27
 74
     0
 49
1.27
 74
     0
 49
-1.27
 74
     0
  0
LTYPE
  5
6C
330
5
100
AcDbSymbolTableRecord
100
AcDbLinetypeTableRecord
  2
CENTER
 70
     0
  3
Center ____ _ ____ _ ____ _ ____ _ ____ _ ____
 72
    65
 73
     4
 40
10.16
 49
6.35
 74
     0
 49
-1.27
 74
     0
 49
1.27
 74
     0
 49
-1.27
 74
     0
  0
LTYPE
  5
6D
330
5
100
AcDbSymbolTableRecord
100
AcDbLinetypeTableRecord
  2
CENTERX2
 70
     0
  3
Center (2x) ________  __  ________  __  _____
 72
    65
 73
     4
 40
20.32
 49
12.7
 74
     0
 49
-2.54
 74
     0
 49
2.54
 74
     0
 49
-2.54
 74
     0
  0
LTYPE
  5
6E
330
5
100
AcDbSymbolTableRecord
100
AcDbLinetypeTableRecord
  2
DOT2
 70
     0
  3
Dot (.5x) ........................................
 72
    65
 73
     2
 40
0.635
 49
0.0
 74
     0
 49
-0.635
 74
     0
  0
ENDTAB
  0
TABLE
  2
LAYER
  5
2
330
0
100
AcDbSymbolTable
 70
    17
  0
LAYER
  5
10
330
2
100
AcDbSymbolTableRecord
100
AcDbLayerTableRecord
  2
0
 70
     0
 62
     7
  6
Continuous
370
    -3
390
F
  0
LAYER
  5
6F
330
2
100
AcDbSymbolTableRecord
100
AcDbLayerTableRecord
  2
FORMAT
 70
     0
 62
     2
  6
Continuous
370
    -3
390
F
  0
LAYER
  5
70
330
2
100
AcDbSymbolTableRecord
100
AcDbLayerTableRecord
  2
외형선
 70
     0
 62
   100
  6
Continuous
370
    30
390
F
  0
LAYER
  5
71
330
2
100
AcDbSymbolTableRecord
100
AcDbLayerTableRecord
  2
숨은선
 70
     0
 62
     2
  6
HIDDEN
370
    15
390
F
  0
LAYER
  5
72
330
2
100
AcDbSymbolTableRecord
100
AcDbLayerTableRecord
  2
중심선
 70
     0
 62
     1
  6
CENTERX2
370
    -3
390
F
  0
LAYER
  5
73
330
2
100
AcDbSymbolTableRecord
100
AcDbLayerTableRecord
  2
파단선
 70
     0
 62
     4
  6
Continuous
370
    -3
390
F
  0
LAYER
  5
74
330
2
100
AcDbSymbolTableRecord
100
AcDbLayerTableRecord
  2
해칭선
 70
     0
 62
     4
  6
Continuous
370
    -3
390
F
  0
LAYER
  5
75
330
2
100
AcDbSymbolTableRecord
100
AcDbLayerTableRecord
  2
가는실선
 70
     0
 62
     4
  6
Continuous
370
    -3
390
F
  0
LAYER
  5
76
330
2
100
AcDbSymbolTableRecord
100
AcDbLayerTableRecord
  2
치수_보조선
 70
     0
 62
     4
  6
Continuous
370
    -3
390
F
  0
LAYER
  5
77
330
2
100
AcDbSymbolTableRecord
100
AcDbLayerTableRecord
  2
치수문자_일반주서
 70
     0
 62
     7
  6
Continuous
370
    15
390
F
  0
LAYER
  5
78
330
2
100
AcDbSymbolTableRecord
100
AcDbLayerTableRecord
  2
개별주서
 70
     0
 62
   100
  6
Continuous
370
    30
390
F
  0
LAYER
  5
79
330
2
100
AcDbSymbolTableRecord
100
AcDbLayerTableRecord
  2
중간선
 70
     0
 62
     2
  6
Continuous
370
    15
390
F
  0
LAYER
  5
7A
330
2
100
AcDbSymbolTableRecord
100
AcDbLayerTableRecord
  2
윤곽선
 70
     0
 62
     3
  6
Continuous
370
    40
390
F
  0
LAYER
  5
7B
330
2
100
AcDbSymbolTableRecord
100
AcDbLayerTableRecord
  2
중심마크
 70
     0
 62
   100
  6
Continuous
370
    30
390
F
  0
LAYER
  5
7C
330
2
100
AcDbSymbolTableRecord
100
AcDbLayerTableRecord
  2
가상선
 70
     0
 62
     4
  6
PHANTOM
370
    -3
390
F
  0
LAYER
  5
7D
330
2
100
AcDbSymbolTableRecord
100
AcDbLayerTableRecord
  2
특수지정선
 70
     0
 62
     5
  6
CENTERX2
370
    60
390
F
  0
LAYER
  5
136
330
2
100
AcDbSymbolTableRecord
100
AcDbLayerTableRecord
  2
Defpoints
 70
     0
 62
     7
  6
Continuous
290
     0
370
    -3
390
F
  0
ENDTAB
  0
TABLE
  2
STYLE
  5
3
330
0
100
AcDbSymbolTable
 70
     2
  0
STYLE
  5
11
330
3
100
AcDbSymbolTableRecord
100
AcDbTextStyleTableRecord
  2
Standard
 70
     0
 40
0.0
 41
1.0
 50
0.0
 71
     0
 42
3.5
  3
txt
  4

  0
STYLE
  5
93
330
3
100
AcDbSymbolTableRecord
100
AcDbTextStyleTableRecord
  2
SLDTEXTSTYLE0
 70
     0
 40
0.0
 41
0.75
 50
0.0
 71
     0
 42
3.5
  3
TXT
  4

  0
ENDTAB
  0
TABLE
  2
VIEW
  5
6
330
0
100
AcDbSymbolTable
 70
     0
  0
ENDTAB
  0
TABLE
  2
UCS
  5
7
330
0
100
AcDbSymbolTable
 70
     0
  0
ENDTAB
  0
TABLE
  2
APPID
  5
9
330
0
100
AcDbSymbolTable
 70
     2
  0
APPID
  5
12
330
9
100
AcDbSymbolTableRecord
100
AcDbRegAppTableRecord
  2
ACAD
 70
     0
  0
APPID
  5
171
330
9
100
AcDbSymbolTableRecord
100
AcDbRegAppTableRecord
  2
PE_URL
 70
     0
  0
ENDTAB
  0
TABLE
  2
DIMSTYLE
  5
A
330
0
100
AcDbSymbolTable
 70
     3
100
AcDbDimStyleTable
  0
DIMSTYLE
105
27
330
A
100
AcDbSymbolTableRecord
100
AcDbDimStyleTableRecord
  2
ISO-25
 70
     0
 41
2.5
 42
0.625
 43
3.75
 44
1.25
 73
     0
 74
     0
 77
     1
 78
     8
140
2.5
141
2.5
143
0.03937007874016
147
0.625
171
     3
172
     1
178
     0
271
     2
272
     2
274
     3
278
    44
283
     0
284
     8
340
11
  0
DIMSTYLE
105
DC
102
{ACAD_REACTORS
330
DB
330
FE
102
}
330
A
100
AcDbSymbolTableRecord
100
AcDbDimStyleTableRecord
  2
SLDDIMSTYLE0
 70
     0
 41
3.302
 44
0.0
 45
0.000000001
 73
     0
 74
     0
 77
     1
 78
    12
 79
     3
140
3.5
147
0.875
172
     1
173
     1
178
     0
271
     2
272
     2
276
     2
284
    12
289
     0
340
93
  0
DIMSTYLE
105
EA
102
{ACAD_REACTORS
330
E9
330
F4
102
}
330
A
100
AcDbSymbolTableRecord
100
AcDbDimStyleTableRecord
  2
SLDDIMSTYLE1
 70
     0
 41
3.302
 44
0.0
 45
0.000000001
 73
     0
 74
     0
 77
     1
 78
    12
 79
     3
140
3.5
147
0.875
173
     1
178
     0
271
     2
272
     2
276
     2
284
    12
340
93
  0
ENDTAB
  0
TABLE
  2
BLOCK_RECORD
  5
1
330
0
100
AcDbSymbolTable
 70
     7
  0
BLOCK_RECORD
  5
1F
102
{ACAD_XDICTIONARY
360
173
102
}
330
1
100
AcDbSymbolTableRecord
100
AcDbBlockTableRecord
  2
*Model_Space
340
22
  0
BLOCK_RECORD
  5
1B
330
1
100
AcDbSymbolTableRecord
100
AcDbBlockTableRecord
  2
*Paper_Space
340
1E
  0
BLOCK_RECORD
  5
23
330
1
100
AcDbSymbolTableRecord
100
AcDbBlockTableRecord
  2
*Paper_Space0
340
26
  0
BLOCK_RECORD
  5
7E
330
1
100
AcDbSymbolTableRecord
100
AcDbBlockTableRecord
  2
블럭10
340
0
102
{BLKREFS
331
D4
102
}
  0
BLOCK_RECORD
  5
DD
330
1
100
AcDbSymbolTableRecord
100
AcDbBlockTableRecord
  2
_D
340
0
  0
BLOCK_RECORD
  5
EB
330
1
100
AcDbSymbolTableRecord
100
AcDbBlockTableRecord
  2
_D_1
340
0
  0
BLOCK_RECORD
  5
F5
330
1
100
AcDbSymbolTableRecord
100
AcDbBlockTableRecord
  2
_D_2
340
0
  0
BLOCK_RECORD
  5
FF
330
1
100
AcDbSymbolTableRecord
100
AcDbBlockTableRecord
  2
_D_3
340
0
  0
BLOCK_RECORD
  5
10B
330
1
100
AcDbSymbolTableRecord
100
AcDbBlockTableRecord
  2
SW_DOWELSYMBOL_0
340
0
102
{BLKREFS
331
111
102
}
  0
ENDTAB
  0
ENDSEC
  0
SECTION
  2
BLOCKS
  0
BLOCK
  5
20
330
1F
100
AcDbEntity
  8
0
100
AcDbBlockBegin
  2
*Model_Space
 70
     0
 10
0.0
 20
0.0
 30
0.0
  3
*Model_Space
  1

  0
ENDBLK
  5
21
330
1F
100
AcDbEntity
  8
0
100
AcDbBlockEnd
  0
BLOCK
  5
1C
330
1B
100
AcDbEntity
 67
     1
  8
0
100
AcDbBlockBegin
  2
*Paper_Space
 70
     0
 10
0.0
 20
0.0
 30
0.0
  3
*Paper_Space
  1

  0
ENDBLK
  5
1D
330
1B
100
AcDbEntity
 67
     1
  8
0
100
AcDbBlockEnd
  0
BLOCK
  5
24
330
23
100
AcDbEntity
  8
0
100
AcDbBlockBegin
  2
*Paper_Space0
 70
     0
 10
0.0
 20
0.0
 30
0.0
  3
*Paper_Space0
  1

  0
ENDBLK
  5
25
330
23
100
AcDbEntity
  8
0
100
AcDbBlockEnd
  0
BLOCK
  5
7F
330
7E
100
AcDbEntity
  8
0
100
AcDbBlockBegin
  2
블럭10
 70
     2
 10
0.0
 20
0.0
 30
0.0
  3
블럭10
  1

  0
ELLIPSE
  5
81
330
7E
100
AcDbEntity
  8
중심선
100
AcDbEllipse
 10
20.54032771741204
 20
12.0471743016438
 30
0.0
 11
6.600054785286829
 21
-1.261213355974178E-13
 31
0.0
210
0.0
220
0.0
230
1.0
 40
0.636358354079598
 41
0.9219305317359503
 42
6.513795318482858
  0
ELLIPSE
  5
82
330
7E
100
AcDbEntity
  8
중심선
100
AcDbEllipse
 10
20.54032771746488
 20
12.04717430159265
 30
0.0
 11
3.960054785062283
 21
1.540847449632565E-10
 31
0.0
210
0.0
220
0.0
230
1.0
 40
0.3939339440162632
 41
1.131841032648279
 42
5.62031148352944
  0
LINE
  5
83
330
7E
100
AcDbEntity
  8
중심선
100
AcDbLine
 10
2.268634060543552
 20
16.24717430164393
 30
0.0
 11
5.714909304380834
 21
16.24717430164393
 31
0.0
  0
LINE
  5
84
330
7E
100
AcDbEntity
  8
중심선
100
AcDbLine
 10
5.245725140726316
 20
7.84717430164391
 30
0.0
 11
8.692000384563599
 21
7.84717430164391
 31
0.0
  0
LINE
  5
85
330
7E
100
AcDbEntity
  8
중심선
100
AcDbLine
 10
15.74043728645272
 20
16.24717430164393
 30
0.0
 11
8.692000384563599
 21
7.84717430164391
 31
0.0
  0
LINE
  5
86
330
7E
100
AcDbEntity
  8
중심선
100
AcDbLine
 10
0.1404042013395286
 20
13.71084872107135
 30
0.0
 11
3.58671253028996
 21
13.71088815037384
 31
0.0
  0
LINE
  5
87
330
7E
100
AcDbEntity
  8
중심선
100
AcDbLine
 10
2.750260043222114
 20
10.84717430164391
 30
0.0
 11
6.196535287059397
 21
10.84717430164391
 31
0.0
  0
LINE
  5
88
330
7E
100
AcDbEntity
  8
중심선
100
AcDbLine
 10
12.29416204261559
 20
16.24717430164393
 30
0.0
 11
5.245725140726316
 21
7.84717430164391
 31
0.0
  0
LINE
  5
89
330
7E
100
AcDbEntity
  8
중심선
100
AcDbLine
 10
10.72767329541681
 20
16.24717430164393
 30
0.0
 11
6.196535287059397
 21
10.84717430164391
 31
0.0
  0
LINE
  5
8A
330
7E
100
AcDbEntity
  8
중심선
100
AcDbLine
 10
7.28139805157953
 20
16.24717430164393
 30
0.0
 11
2.750260043222114
 21
10.84717430164391
 31
0.0
  0
LINE
  5
8B
330
7E
100
AcDbEntity
  8
중심선
100
AcDbLine
 10
5.714909304380834
 20
16.24717430164393
 30
0.0
 11
3.58671253028996
 21
13.71088815037384
 31
0.0
  0
LINE
  5
8C
330
7E
100
AcDbEntity
  8
중심선
100
AcDbLine
 10
2.268634060543552
 20
16.24717430164393
 30
0.0
 11
0.1404042013395286
 21
13.71084872107135
 31
0.0
  0
LINE
  5
8D
330
7E
100
AcDbEntity
  8
중심선
100
AcDbLine
 10
7.28139805157953
 20
16.24717430164393
 30
0.0
 11
10.72767329541681
 21
16.24717430164393
 31
0.0
  0
LINE
  5
8E
330
7E
100
AcDbEntity
  8
중심선
100
AcDbLine
 10
12.29416204261559
 20
16.24717430164393
 30
0.0
 11
15.74043728645272
 21
16.24717430164393
 31
0.0
  0
LINE
  5
8F
330
7E
100
AcDbEntity
  8
중심선
100
AcDbLine
 10
19.22036997980202
 20
11.08717430171403
 30
0.0
 11
23.66174974927406
 21
11.08717430171406
 31
0.0
  0
LINE
  5
90
330
7E
100
AcDbEntity
  8
중심선
100
AcDbLine
 10
19.22039502424796
 20
13.00717430171391
 30
0.0
 11
19.22036997980202
 21
11.08717430171403
 31
0.0
  0
LINE
  5
91
330
7E
100
AcDbEntity
  8
중심선
100
AcDbLine
 10
19.22039502424796
 20
13.00717430171391
 30
0.0
 11
26.96566020931264
 21
13.00717430171391
 31
0.0
  0
LINE
  5
92
330
7E
100
AcDbEntity
  8
중심선
100
AcDbLine
 10
22.22332737316547
 20
13.45928029700563
 30
0.0
 11
24.52862924686651
 21
15.39360700705356
 31
0.0
  0
ATTDEF
  5
94
330
7E
100
AcDbEntity
  8
FORMAT
 62
     2
100
AcDbText
 10
-16.11926103943555
 20
2.075366912832191
 30
0.0
 40
4.233333333333333
  1
SEME7018070E [ 2 FLUTE ]
 41
0.75
  7
SLDTEXTSTYLE0
 11
-16.11926103943555
 21
-0.0412997538344756
 31
0.0
100
AcDbAttributeDefinition
  3

  2
AUTOATTR0
 70
     0
 74
     1
  0
ENDBLK
  5
80
330
7E
100
AcDbEntity
  8
0
100
AcDbBlockEnd
  0
BLOCK
  5
DE
330
DD
100
AcDbEntity
  8
0
100
AcDbBlockBegin
  2
_D
 70
     0
 10
0.0
 20
0.0
 30
0.0
  3
_D
  1

  0
LINE
  5
E0
330
DD
100
AcDbEntity
  8
치수문자_일반주서
 62
     0
370
    -2
100
AcDbLine
 10
76.79455080756888
 20
-8.999999999999742
 30
0.0
 11
90.79839989318266
 21
-8.999999999999691
 31
0.0
  0
LINE
  5
E1
330
DD
100
AcDbEntity
  8
치수문자_일반주서
 62
     0
370
    -2
100
AcDbLine
 10
76.79455080756888
 20
9.000000000000256
 30
0.0
 11
90.7983998931826
 21
9.00000000000031
 31
0.0
  0
LINE
  5
E2
330
DD
100
AcDbEntity
  8
치수문자_일반주서
 62
     0
370
    -2
100
AcDbLine
 10
90.79839989318266
 20
-8.999999999999691
 30
0.0
 11
90.79839989318256
 21
23.47900000000031
 31
0.0
  0
LINE
  5
E3
330
DD
100
AcDbEntity
  8
치수문자_일반주서
 62
     0
370
    -2
100
AcDbLine
 10
90.79839989318266
 20
-8.999999999999691
 30
0.0
 11
90.7983998931826
 21
9.00000000000031
 31
0.0
  0
LINE
  5
E4
330
DD
100
AcDbEntity
  8
치수문자_일반주서
 62
     0
370
    -2
100
AcDbLine
 10
90.79839989318268
 20
-12.30199999999969
 30
0.0
 11
90.79839989318269
 21
-15.60399999999969
 31
0.0
  0
LINE
  5
E5
330
DD
100
AcDbEntity
  8
치수문자_일반주서
 62
     0
370
    -2
100
AcDbLine
 10
90.79839989318259
 20
12.30200000000031
 30
0.0
 11
90.79839989318258
 21
15.60400000000031
 31
0.0
  0
SOLID
  5
E6
330
DD
100
AcDbEntity
  8
치수문자_일반주서
 62
     0
100
AcDbTrace
 10
91.348733226516
 20
-12.30199999999969
 30
0.0
 11
90.24806655984935
 21
-12.30199999999969
 31
0.0
 12
90.79839989318266
 22
-8.999999999999691
 32
0.0
 13
90.79839989318266
 23
-8.999999999999691
 33
0.0
  0
SOLID
  5
E7
330
DD
100
AcDbEntity
  8
치수문자_일반주서
 62
     0
100
AcDbTrace
 10
90.24806655984926
 20
12.30200000000031
 30
0.0
 11
91.34873322651592
 21
12.30200000000031
 31
0.0
 12
90.7983998931826
 22
9.00000000000031
 32
0.0
 13
90.7983998931826
 23
9.00000000000031
 33
0.0
  0
MTEXT
  5
E8
330
DD
100
AcDbEntity
  8
치수문자_일반주서
 62
     0
100
AcDbMText
 10
86.42339989318258
 20
19.5415000000003
 30
0.0
 40
3.5
 41
0.0
 71
     2
 72
     1
  1
\A1;%%c18
  7
SLDTEXTSTYLE0
 11
-3.157967714489335E-15
 21
1.0
 31
0.0
 73
     1
 44
1.0
  0
POINT
  5
140
330
DD
100
AcDbEntity
  8
Defpoints
 62
     0
100
AcDbPoint
 10
76.73205080756888
 20
-8.999999999999742
 30
0.0
  0
POINT
  5
141
330
DD
100
AcDbEntity
  8
Defpoints
 62
     0
100
AcDbPoint
 10
76.73205080756888
 20
9.000000000000256
 30
0.0
  0
POINT
  5
142
330
DD
100
AcDbEntity
  8
Defpoints
 62
     0
100
AcDbPoint
 10
90.7983998931826
 20
9.000000000000309
 30
0.0
  0
ENDBLK
  5
DF
330
DD
100
AcDbEntity
  8
0
100
AcDbBlockEnd
  0
BLOCK
  5
EC
330
EB
100
AcDbEntity
  8
0
100
AcDbBlockBegin
  2
_D_1
 70
     0
 10
0.0
 20
0.0
 30
0.0
  3
_D_1
  1

  0
LINE
  5
EE
330
EB
100
AcDbEntity
  8
치수문자_일반주서
 62
     0
370
    -2
100
AcDbLine
 10
-53.26794919243113
 20
9.062499999999995
 30
0.0
 11
-53.26794919243112
 21
30.78841044024269
 31
0.0
  0
LINE
  5
EF
330
EB
100
AcDbEntity
  8
치수문자_일반주서
 62
     0
370
    -2
100
AcDbLine
 10
76.73205080756888
 20
9.062500000000256
 30
0.0
 11
76.73205080756888
 21
30.78841044024269
 31
0.0
  0
LINE
  5
F0
330
EB
100
AcDbEntity
  8
치수문자_일반주서
 62
     0
370
    -2
100
AcDbLine
 10
-49.96594919243112
 20
30.78841044024269
 30
0.0
 11
73.43005080756888
 21
30.78841044024269
 31
0.0
  0
SOLID
  5
F1
330
EB
100
AcDbEntity
  8
치수문자_일반주서
 62
     0
100
AcDbTrace
 10
-49.96594919243112
 20
31.33874377357603
 30
0.0
 11
-49.96594919243112
 21
30.23807710690936
 31
0.0
 12
-53.26794919243112
 22
30.78841044024269
 32
0.0
 13
-53.26794919243112
 23
30.78841044024269
 33
0.0
  0
SOLID
  5
F2
330
EB
100
AcDbEntity
  8
치수문자_일반주서
 62
     0
100
AcDbTrace
 10
73.43005080756888
 20
30.23807710690936
 30
0.0
 11
73.43005080756888
 21
31.33874377357603
 31
0.0
 12
76.73205080756888
 22
30.78841044024269
 32
0.0
 13
76.73205080756888
 23
30.78841044024269
 33
0.0
  0
MTEXT
  5
F3
330
EB
100
AcDbEntity
  8
치수문자_일반주서
 62
     0
100
AcDbMText
 10
11.73205080756888
 20
35.16341044024269
 30
0.0
 40
3.5
 41
0.0
 71
     2
 72
     1
  1
\A1;130
  7
SLDTEXTSTYLE0
 73
     1
 44
1.0
  0
POINT
  5
137
330
EB
100
AcDbEntity
  8
Defpoints
 62
     0
100
AcDbPoint
 10
-53.26794919243113
 20
8.999999999999995
 30
0.0
  0
POINT
  5
138
330
EB
100
AcDbEntity
  8
Defpoints
 62
     0
100
AcDbPoint
 10
76.73205080756888
 20
9.000000000000256
 30
0.0
  0
POINT
  5
139
330
EB
100
AcDbEntity
  8
Defpoints
 62
     0
100
AcDbPoint
 10
76.73205080756888
 20
30.78841044024269
 30
0.0
  0
ENDBLK
  5
ED
330
EB
100
AcDbEntity
  8
0
100
AcDbBlockEnd
  0
BLOCK
  5
F6
330
F5
100
AcDbEntity
  8
0
100
AcDbBlockBegin
  2
_D_2
 70
     0
 10
0.0
 20
0.0
 30
0.0
  3
_D_2
  1

  0
LINE
  5
F8
330
F5
100
AcDbEntity
  8
치수문자_일반주서
 62
     0
370
    -2
100
AcDbLine
 10
6.732050807568873
 20
7.086054506764385
 30
0.0
 11
6.732050807568868
 21
20.37055231293191
 31
0.0
  0
LINE
  5
F9
330
F5
100
AcDbEntity
  8
치수문자_일반주서
 62
     0
370
    -2
100
AcDbLine
 10
76.73205080756888
 20
9.062500000000256
 30
0.0
 11
76.73205080756887
 21
20.37055231293191
 31
0.0
  0
LINE
  5
FA
330
F5
100
AcDbEntity
  8
치수문자_일반주서
 62
     0
370
    -2
100
AcDbLine
 10
10.03405080756887
 20
20.37055231293191
 30
0.0
 11
73.43005080756888
 21
20.37055231293191
 31
0.0
  0
SOLID
  5
FB
330
F5
100
AcDbEntity
  8
치수문자_일반주서
 62
     0
100
AcDbTrace
 10
10.03405080756887
 20
20.92088564626524
 30
0.0
 11
10.03405080756887
 21
19.82021897959857
 31
0.0
 12
6.732050807568868
 22
20.37055231293191
 32
0.0
 13
6.732050807568868
 23
20.37055231293191
 33
0.0
  0
SOLID
  5
FC
330
F5
100
AcDbEntity
  8
치수문자_일반주서
 62
     0
100
AcDbTrace
 10
73.43005080756888
 20
19.82021897959857
 30
0.0
 11
73.43005080756888
 21
20.92088564626524
 31
0.0
 12
76.73205080756887
 22
20.37055231293191
 32
0.0
 13
76.73205080756887
 23
20.37055231293191
 33
0.0
  0
MTEXT
  5
FD
330
F5
100
AcDbEntity
  8
치수문자_일반주서
 62
     0
100
AcDbMText
 10
41.73205080756888
 20
24.74555231293191
 30
0.0
 40
3.5
 41
0.0
 71
     2
 72
     1
  1
\A1;70
  7
SLDTEXTSTYLE0
 73
     1
 44
1.0
  0
POINT
  5
13A
330
F5
100
AcDbEntity
  8
Defpoints
 62
     0
100
AcDbPoint
 10
6.732050807568873
 20
7.023554506764385
 30
0.0
  0
POINT
  5
13B
330
F5
100
AcDbEntity
  8
Defpoints
 62
     0
100
AcDbPoint
 10
76.73205080756888
 20
9.000000000000256
 30
0.0
  0
POINT
  5
13C
330
F5
100
AcDbEntity
  8
Defpoints
 62
     0
100
AcDbPoint
 10
76.73205080756888
 20
20.37055231293191
 30
0.0
  0
ENDBLK
  5
F7
330
F5
100
AcDbEntity
  8
0
100
AcDbBlockEnd
  0
BLOCK
  5
100
330
FF
100
AcDbEntity
  8
0
100
AcDbBlockBegin
  2
_D_3
 70
     0
 10
0.0
 20
0.0
 30
0.0
  3
_D_3
  1

  0
LINE
  5
102
330
FF
100
AcDbEntity
  8
치수문자_일반주서
 62
     0
370
    -2
100
AcDbLine
 10
-52.33044919243112
 20
9.999999999999995
 30
0.0
 11
-65.00008211821422
 21
9.999999999999947
 31
0.0
  0
LINE
  5
103
330
FF
100
AcDbEntity
  8
치수문자_일반주서
 62
     0
370
    -2
100
AcDbLine
 10
-52.33044919243112
 20
-10.0
 30
0.0
 11
-65.00008211821415
 21
-10.00000000000005
 31
0.0
  0
LINE
  5
104
330
FF
100
AcDbEntity
  8
치수문자_일반주서
 62
     0
370
    -2
100
AcDbLine
 10
-65.00008211821422
 20
9.999999999999947
 30
0.0
 11
-65.00008211821428
 21
24.91649999999995
 31
0.0
  0
LINE
  5
105
330
FF
100
AcDbEntity
  8
치수문자_일반주서
 62
     0
370
    -2
100
AcDbLine
 10
-65.00008211821422
 20
9.999999999999947
 30
0.0
 11
-65.00008211821415
 21
-10.00000000000005
 31
0.0
  0
LINE
  5
106
330
FF
100
AcDbEntity
  8
치수문자_일반주서
 62
     0
370
    -2
100
AcDbLine
 10
-65.00008211821424
 20
13.30199999999995
 30
0.0
 11
-65.00008211821425
 21
16.60399999999995
 31
0.0
  0
LINE
  5
107
330
FF
100
AcDbEntity
  8
치수문자_일반주서
 62
     0
370
    -2
100
AcDbLine
 10
-65.00008211821414
 20
-13.30200000000005
 30
0.0
 11
-65.00008211821412
 21
-16.60400000000005
 31
0.0
  0
SOLID
  5
108
330
FF
100
AcDbEntity
  8
치수문자_일반주서
 62
     0
100
AcDbTrace
 10
-65.55041545154756
 20
13.30199999999994
 30
0.0
 11
-64.44974878488091
 21
13.30199999999995
 31
0.0
 12
-65.00008211821422
 22
9.999999999999947
 32
0.0
 13
-65.00008211821422
 23
9.999999999999947
 33
0.0
  0
SOLID
  5
109
330
FF
100
AcDbEntity
  8
치수문자_일반주서
 62
     0
100
AcDbTrace
 10
-64.44974878488081
 20
-13.30200000000005
 30
0.0
 11
-65.55041545154747
 21
-13.30200000000005
 31
0.0
 12
-65.00008211821415
 22
-10.00000000000005
 32
0.0
 13
-65.00008211821415
 23
-10.00000000000005
 33
0.0
  0
MTEXT
  5
10A
330
FF
100
AcDbEntity
  8
치수문자_일반주서
 62
     0
100
AcDbMText
 10
-69.37508211821427
 20
20.76024999999993
 30
0.0
 40
3.5
 41
0.0
 71
     2
 72
     1
  1
\A1;%%c20
  7
SLDTEXTSTYLE0
 11
-3.552713678800502E-15
 21
1.0
 31
0.0
 73
     1
 44
1.0
  0
POINT
  5
13D
330
FF
100
AcDbEntity
  8
Defpoints
 62
     0
100
AcDbPoint
 10
-52.26794919243112
 20
9.999999999999995
 30
0.0
  0
POINT
  5
13E
330
FF
100
AcDbEntity
  8
Defpoints
 62
     0
100
AcDbPoint
 10
-52.26794919243112
 20
-10.0
 30
0.0
  0
POINT
  5
13F
330
FF
100
AcDbEntity
  8
Defpoints
 62
     0
100
AcDbPoint
 10
-65.00008211821415
 20
-10.00000000000005
 30
0.0
  0
ENDBLK
  5
101
330
FF
100
AcDbEntity
  8
0
100
AcDbBlockEnd
  0
BLOCK
  5
10C
330
10B
100
AcDbEntity
  8
0
100
AcDbBlockBegin
  2
SW_DOWELSYMBOL_0
 70
     0
 10
0.0
 20
0.0
 30
0.0
  3
SW_DOWELSYMBOL_0
  1

  0
CIRCLE
  5
10E
330
10B
100
AcDbEntity
  8
외형선
 62
     0
100
AcDbCircle
 10
0.0
 20
0.0
 30
0.0
 40
3.000000000000004
  0
HATCH
  5
10F
330
10B
100
AcDbEntity
  8
0
  6
Continuous
 62
     0
370
    30
100
AcDbHatch
 10
0.0
 20
0.0
 30
0.0
210
0.0
220
0.0
230
1.0
  2
SOLID
 70
     1
 71
     0
 91
        1
 92
        0
 93
        3
 72
     2
 10
0.0000000000000104
 20
0.0
 40
3.000000000000004
 50
0.0
 51
90.0
 73
     1
 72
     1
 10
0.0000000000000104
 20
3.000000000000004
 11
0.0000000000000104
 21
0.0
 72
     1
 10
0.0000000000000104
 20
0.0
 11
3.000000000000015
 21
0.0
 97
        0
 75
     0
 76
     1
 98
        1
 10
0.0
 20
0.0
  0
HATCH
  5
110
330
10B
100
AcDbEntity
  8
0
  6
Continuous
 62
     0
370
    30
100
AcDbHatch
 10
0.0
 20
0.0
 30
0.0
210
0.0
220
0.0
230
1.0
  2
SOLID
 70
     1
 71
     0
 91
        1
 92
        0
 93
        3
 72
     2
 10
0.0000000000000104
 20
0.0
 40
3.000000000000004
 50
180.0
 51
270.0000000000007
 73
     1
 72
     1
 10
0.0000000000000104
 20
-3.000000000000004
 11
0.0000000000000104
 21
0.0
 72
     1
 10
0.0000000000000104
 20
0.0
 11
-2.999999999999994
 21
0.0
 97
        0
 75
     0
 76
     1
 98
        1
 10
0.0
 20
0.0
  0
ENDBLK
  5
10D
330
10B
100
AcDbEntity
  8
0
100
AcDbBlockEnd
  0
ENDSEC
  0
SECTION
  2
ENTITIES
  0
LINE
  5
95
330
1F
100
AcDbEntity
  8
0
  6
Continuous
 62
     1
370
    15
100
AcDbLine
 10
48.44731139183968
 20
2.528480487754724
 30
0.0
 11
48.34012607429953
 21
2.587514014407081
 31
0.0
  0
LINE
  5
96
330
1F
100
AcDbEntity
  8
0
  6
Continuous
 62
     1
370
    15
100
AcDbLine
 10
32.76184549109635
 20
9.000000000000004
 30
0.0
 11
28.39904859352735
 21
9.000000000000004
 31
0.0
  0
SPLINE
  5
97
330
1F
100
AcDbEntity
  8
0
  6
Continuous
 62
     1
370
    15
100
AcDbSpline
210
0.0
220
0.0
230
1.0
 70
     8
 71
     3
 72
     9
 73
     5
 74
     0
 42
0.000000001
 43
0.00000001
 40
0.0
 40
0.0
 40
0.0
 40
0.0
 40
0.5226474107293629
 40
1.0
 40
1.0
 40
1.0
 40
1.0
 10
53.41568598099726
 20
2.306209907024837
 30
0.0
 10
52.9806265057883
 20
2.513655802418175
 30
0.0
 10
52.14821163817838
 20
2.910569459952313
 30
0.0
 10
51.31578202766566
 20
3.346763243884408
 30
0.0
 10
50.91841959770186
 20
3.55498147606815
 30
0.0
  0
LINE
  5
98
330
1F
100
AcDbEntity
  8
0
  6
Continuous
 62
     1
370
    15
100
AcDbLine
 10
28.39904859352735
 20
-9.000000000000005
 30
0.0
 11
32.76184549109637
 21
-9.000000000000005
 31
0.0
  0
SPLINE
  5
99
330
1F
100
AcDbEntity
  8
0
  6
Continuous
 62
     1
370
    15
100
AcDbSpline
210
0.0
220
0.0
230
1.0
 70
     8
 71
     3
 72
    25
 73
    21
 74
     0
 42
0.000000001
 43
0.00000001
 40
0.0
 40
0.0
 40
0.0
 40
0.0
 40
0.1077084017757545
 40
0.1913493073099977
 40
0.2511939347957918
 40
0.2904122799360781
 40
0.3189618418308841
 40
0.3469798401270207
 40
0.3782686802909097
 40
0.4157812322497335
 40
0.4597436445459484
 40
0.5089289717593686
 40
0.5548605786764726
 40
0.6244201632542191
 40
0.6804143355026885
 40
0.7401976621116029
 40
0.7913385528573268
 40
0.8492325953099101
 40
0.9182050445472315
 40
1.0
 40
1.0
 40
1.0
 40
1.0
 10
36.9026780997341
 20
-7.489281939027457
 30
0.0
 10
37.390900978051
 20
-7.44250365176034
 30
0.0
 10
38.25825308836577
 20
-7.359399708909657
 30
0.0
 10
39.39360104125169
 20
-7.27015097628976
 30
0.0
 10
40.219320380061
 20
-7.213322871087738
 30
0.0
 10
40.79372793286738
 20
-7.178144197950229
 30
0.0
 10
41.22844826530432
 20
-7.153806850947401
 30
0.0
 10
41.63176943665823
 20
-7.133107505974512
 30
0.0
 10
42.07542954431721
 20
-7.112160878569406
 30
0.0
 10
42.58878337563063
 20
-7.090680413783577
 30
0.0
 10
43.18095654610863
 20
-7.06985717424663
 30
0.0
 10
43.80842974739396
 20
-7.052463879520056
 30
0.0
 10
44.55085868470051
 20
-7.037397943520062
 30
0.0
 10
45.32392938397743
 20
-7.028836226083675
 30
0.0
 10
46.15368964123902
 20
-7.027556287303967
 30
0.0
 10
46.92510994616718
 20
-7.034474390326795
 30
0.0
 10
47.70089282661618
 20
-7.046017848895809
 30
0.0
 10
48.52593198182888
 20
-7.063002803770482
 30
0.0
 10
49.46072442160597
 20
-7.100144709748608
 30
0.0
 10
50.09606112669493
 20
-7.133599800624457
 30
0.0
 10
50.44074662152774
 20
-7.151749994782694
 30
0.0
  0
SPLINE
  5
9A
330
1F
100
AcDbEntity
  8
0
  6
Continuous
 62
     1
370
    15
100
AcDbSpline
210
0.0
220
0.0
230
1.0
 70
     8
 71
     3
 72
    16
 73
    12
 74
     0
 42
0.000000001
 43
0.00000001
 40
0.0
 40
0.0
 40
0.0
 40
0.0
 40
0.1510860127066129
 40
0.2784871743576307
 40
0.4050692427130491
 40
0.5147538328513658
 40
0.6103513411995203
 40
0.7052719363471933
 40
0.8221642006212021
 40
0.9372844100010713
 40
1.0
 40
1.0
 40
1.0
 40
1.0
 10
50.44074662152775
 20
7.151749994782702
 30
0.0
 10
50.09610734897075
 20
7.133601325640651
 30
0.0
 10
49.46085584244347
 20
7.100149045729498
 30
0.0
 10
48.47785796693536
 20
7.061095586850504
 30
0.0
 10
47.56472758813742
 20
7.04373690895607
 30
0.0
 10
46.73747728940672
 20
7.032090202392998
 30
0.0
 10
45.99102572601209
 20
7.027475696759772
 30
0.0
 10
45.24692941186652
 20
7.02952279320137
 30
0.0
 10
44.44840161796769
 20
7.039103925342029
 30
0.0
 10
43.72980920153496
 20
7.053561376239109
 30
0.0
 10
43.29414610328246
 20
7.067920901137244
 30
0.0
 10
43.14050511343054
 20
7.072984932559694
 30
0.0
  0
SPLINE
  5
9B
330
1F
100
AcDbEntity
  8
0
  6
Continuous
 62
     1
370
    15
100
AcDbSpline
210
0.0
220
0.0
230
1.0
 70
     8
 71
     3
 72
    18
 73
    14
 74
     0
 42
0.000000001
 43
0.00000001
 40
0.0
 40
0.0
 40
0.0
 40
0.0
 40
0.1630877840296998
 40
0.2871736740574226
 40
0.3804717116430564
 40
0.4391908254864484
 40
0.5033891285910517
 40
0.5756138240551572
 40
0.6536313638555488
 40
0.7311399282567488
 40
0.8081126189142385
 40
0.9427962901403104
 40
1.0
 40
1.0
 40
1.0
 40
1.0
 10
57.66482390735253
 20
-6.769235689222781
 30
0.0
 10
58.02967259722243
 20
-6.713370117185973
 30
0.0
 10
58.67211764219218
 20
-6.614999036417545
 30
0.0
 10
59.51984315887799
 20
-6.498950013116572
 30
0.0
 10
60.13348030830505
 20
-6.420846488164022
 30
0.0
 10
60.60869637123821
 20
-6.363982348152255
 30
0.0
 10
61.04191961516609
 20
-6.314667257655813
 30
0.0
 10
61.51980977192436
 20
-6.263480031931979
 30
0.0
 10
62.02905282837136
 20
-6.212719857126244
 30
0.0
 10
62.54983110288838
 20
-6.164712564738463
 30
0.0
 10
63.19859078989298
 20
-6.110527709600051
 30
0.0
 10
63.80705375190314
 20
-6.064949889694158
 30
0.0
 10
64.22990830963778
 20
-6.040568397336512
 30
0.0
 10
64.35596584034475
 20
-6.033300009978879
 30
0.0
  0
SPLINE
  5
9C
330
1F
100
AcDbEntity
  8
0
  6
Continuous
 62
     1
370
    15
100
AcDbSpline
210
0.0
220
0.0
230
1.0
 70
     8
 71
     3
 72
    28
 73
    24
 74
     0
 42
0.000000001
 43
0.00000001
 40
0.0
 40
0.0
 40
0.0
 40
0.0
 40
0.0738065290168052
 40
0.1262650196488583
 40
0.158050015728678
 40
0.1888398085822535
 40
0.2287747735150669
 40
0.2738000366874529
 40
0.3143134904834863
 40
0.3741744977171068
 40
0.4261357533307393
 40
0.4804228340957926
 40
0.5360069864919889
 40
0.5956607387059116
 40
0.6555183272491226
 40
0.7040539875453007
 40
0.7312807747680642
 40
0.757568540345129
 40
0.784645245804982
 40
0.817483035251882
 40
0.864346733274355
 40
0.9250822534371442
 40
1.0
 40
1.0
 40
1.0
 40
1.0
 10
24.41598474005141
 20
6.155578646160614
 30
0.0
 10
24.02936523435056
 20
6.124282199312329
 30
0.0
 10
23.36795329513265
 20
6.070741590793285
 30
0.0
 10
22.54144540458147
 20
6.020715478915437
 30
0.0
 10
21.93712507726528
 20
5.989782643657976
 30
0.0
 10
21.3980394462035
 20
5.966635897810797
 30
0.0
 10
20.79072378086724
 20
5.946060253646465
 30
0.0
 10
20.13316660433352
 20
5.930928513133095
 30
0.0
 10
19.37152944430319
 20
5.921717555172852
 30
0.0
 10
18.57389779213144
 20
5.922385315985702
 30
0.0
 10
17.70318960045481
 20
5.935630911453782
 30
0.0
 10
16.8547164923985
 20
5.960032307023559
 30
0.0
 10
15.9668115664582
 20
5.998169955408131
 30
0.0
 10
15.04933103769561
 20
6.050814203447912
 30
0.0
 10
14.16842690116111
 20
6.114320252512922
 30
0.0
 10
13.45749753719595
 20
6.175182108689664
 30
0.0
 10
12.92260774575899
 20
6.225910255793274
 30
0.0
 10
12.50031978401825
 20
6.268542167738113
 30
0.0
 10
12.04887245988292
 20
6.31690941450385
 30
0.0
 10
11.49010733973087
 20
6.380589199877894
 30
0.0
 10
10.75476984925349
 20
6.471297963018732
 30
0.0
 10
9.7985502962381
 20
6.600223443819899
 30
0.0
 10
9.08586082126651
 20
6.70910185055925
 30
0.0
 10
8.692261089002612
 20
6.769232543163677
 30
0.0
  0
SPLINE
  5
9D
330
1F
100
AcDbEntity
  8
0
  6
Continuous
 62
     1
370
    15
100
AcDbSpline
210
0.0
220
0.0
230
1.0
 70
     8
 71
     3
 72
    17
 73
    13
 74
     0
 42
0.000000001
 43
0.00000001
 40
0.0
 40
0.0
 40
0.0
 40
0.0
 40
0.1461735978270223
 40
0.2586808208490776
 40
0.337675242757126
 40
0.3905665124522966
 40
0.4496081539439817
 40
0.5420774746604524
 40
0.6454309828023149
 40
0.7394518069677452
 40
0.8825769134303703
 40
1.0
 40
1.0
 40
1.0
 40
1.0
 10
8.69226108900259
 20
-6.769232543163679
 30
0.0
 10
9.019116964256293
 20
-6.719045773539499
 30
0.0
 10
9.597548003560851
 20
-6.630231138371869
 30
0.0
 10
10.35149423402206
 20
-6.525552456609557
 30
0.0
 10
10.89698125844031
 20
-6.454151634289348
 30
0.0
 10
11.32476717012481
 20
-6.401088520989858
 30
0.0
 10
11.78235315848265
 20
-6.346820579652031
 30
0.0
 10
12.3524654277765
 20
-6.283471206806179
 30
0.0
 10
13.0001204814695
 20
-6.217699954498862
 30
0.0
 10
13.76034992957611
 20
-6.148050390292084
 30
0.0
 10
14.55233306405785
 20
-6.084603410352609
 30
0.0
 10
15.13466128914145
 20
-6.048202941785079
 30
0.0
 10
15.39710324581034
 20
-6.031798086613999
 30
0.0
  0
SPLINE
  5
9E
330
1F
100
AcDbEntity
  8
0
  6
Continuous
 62
     1
370
    15
100
AcDbSpline
210
0.0
220
0.0
230
1.0
 70
     8
 71
     3
 72
    29
 73
    25
 74
     0
 42
0.000000001
 43
0.00000001
 40
0.0
 40
0.0
 40
0.0
 40
0.0
 40
0.0623158669457093
 40
0.1107889977731543
 40
0.1452956064858243
 40
0.1771767229245171
 40
0.2152458950376663
 40
0.2591758023445127
 40
0.300071171372603
 40
0.3448380060679629
 40
0.3829538254401563
 40
0.4215174473777226
 40
0.4674823782270377
 40
0.5303665749839978
 40
0.5899213329673875
 40
0.6426373725803097
 40
0.6882270899516691
 40
0.7162703649770072
 40
0.7454869322443756
 40
0.7773612341689577
 40
0.8133123772836621
 40
0.8624325447004463
 40
0.9245527965024258
 40
1.0
 40
1.0
 40
1.0
 40
1.0
 10
73.38850160428638
 20
6.155572967042306
 30
0.0
 10
73.06494392308676
 20
6.129103869024918
 30
0.0
 10
72.48970308991116
 20
6.08204547146045
 30
0.0
 10
71.73275914981011
 20
6.033371387549957
 30
0.0
 10
71.12637735537092
 20
6.000222016038501
 30
0.0
 10
70.57253132858696
 20
5.974697227236498
 30
0.0
 10
69.97305733802159
 20
5.95243958441996
 30
0.0
 10
69.32850924188847
 20
5.935284004507251
 30
0.0
 10
68.64967527930806
 20
5.924564582046625
 30
0.0
 10
68.0014651425825
 20
5.921445760294812
 30
0.0
 10
67.36556777393668
 20
5.925202778555674
 30
0.0
 10
66.72544448403907
 20
5.935247093709217
 30
0.0
 10
65.95309783596514
 20
5.95566099603603
 30
0.0
 10
65.0684735979401
 20
5.991505924815945
 30
0.0
 10
64.14936376991116
 20
6.042954666466127
 30
0.0
 10
63.32183099146317
 20
6.100726862026244
 30
0.0
 10
62.65936943623855
 20
6.155023408091024
 30
0.0
 10
62.12045045218721
 20
6.204173012238458
 30
0.0
 10
61.65351727568205
 20
6.249852161441283
 30
0.0
 10
61.1451890720392
 20
6.303175214353873
 30
0.0
 10
60.53307051814113
 20
6.372125885827986
 30
0.0
 10
59.76222978606934
 20
6.466668003442461
 30
0.0
 10
58.78404648276549
 20
6.598289412215875
 30
0.0
 10
58.06123894227595
 20
6.708688595321725
 30
0.0
 10
57.66482390735254
 20
6.769235689222791
 30
0.0
  0
LINE
  5
A1
330
1F
100
AcDbEntity
  8
0
  6
Continuous
 62
   131
370
    15
100
AcDbLine
 10
4.732050807568189
 20
10.0
 30
0.0
 11
-52.26794919243112
 21
9.999999999999998
 31
0.0
  0
LINE
  5
A2
330
1F
100
AcDbEntity
  8
0
  6
Continuous
 62
   131
370
    15
100
AcDbLine
 10
-52.26794919243112
 20
-10.0
 30
0.0
 11
4.732050807568193
 21
-9.999999999999998
 31
0.0
  0
LINE
  5
A3
330
1F
100
AcDbEntity
  8
0
  6
Continuous
 62
   131
370
    15
100
AcDbLine
 10
-52.26794919243112
 20
9.999999999999995
 30
0.0
 11
-53.26794919243113
 21
8.999999999999995
 31
0.0
  0
LINE
  5
A4
330
1F
100
AcDbEntity
  8
0
  6
Continuous
 62
   131
370
    15
100
AcDbLine
 10
-53.26794919243113
 20
-9.000000000000002
 30
0.0
 11
-52.26794919243112
 21
-10.0
 31
0.0
  0
SPLINE
  5
A6
330
1F
100
AcDbEntity
  8
0
  6
Continuous
 62
     1
370
    15
100
AcDbSpline
210
0.0
220
0.0
230
1.0
 70
     8
 71
     3
 72
    28
 73
    24
 74
     0
 42
0.000000001
 43
0.00000001
 40
0.0
 40
0.0
 40
0.0
 40
0.0
 40
0.0075009731371017
 40
0.0571050876876765
 40
0.1067065154524548
 40
0.1563255154279891
 40
0.2059471257542525
 40
0.2555713381716089
 40
0.3051977921690188
 40
0.3548261260552386
 40
0.4044559771481096
 40
0.4540869819649732
 40
0.5037187764139922
 40
0.5533509959861705
 40
0.6029832759478448
 40
0.652615251533433
 40
0.7022465581382187
 40
0.7518768315109542
 40
0.8015057079460578
 40
0.8511328244751921
 40
0.9007578190580035
 40
0.9503803307718062
 40
1.0
 40
1.0
 40
1.0
 40
1.0
 10
15.39979403029077
 20
6.033015144633703
 30
0.0
 10
15.5531438903833
 20
6.103047940456884
 30
0.0
 10
16.72060003872782
 20
6.636209288111186
 30
0.0
 10
18.90208115027931
 20
7.414215757075599
 30
0.0
 10
21.94458818417198
 20
8.295089112572727
 30
0.0
 10
24.98741692245638
 20
8.840249430397808
 30
0.0
 10
28.03076136177808
 20
9.055076950977284
 30
0.0
 10
31.074286425611
 20
8.924310183908094
 30
0.0
 10
34.1179773991296
 20
8.45478191535753
 30
0.0
 10
37.16180643418747
 20
7.663816551342513
 30
0.0
 10
40.20574718007431
 20
6.581599762272901
 30
0.0
 10
43.24977280355879
 20
5.249220505187232
 30
0.0
 10
46.29385653788425
 20
3.717326775674599
 30
0.0
 10
49.33797155434656
 20
2.044140223561582
 30
0.0
 10
52.3820910147747
 20
0.2932625728668972
 30
0.0
 10
55.4261880780669
 20
-1.468766026930475
 30
0.0
 10
58.47023590971415
 20
-3.174927558420312
 30
0.0
 10
61.51420772533501
 20
-4.760533237352918
 30
0.0
 10
64.55807669509811
 20
-6.164721152045813
 30
0.0
 10
67.60181637037626
 20
-7.336362310871758
 30
0.0
 10
70.64539916039637
 20
-8.222600817425143
 30
0.0
 10
73.68880208584868
 20
-8.820882623662177
 30
0.0
 10
75.71765393705948
 20
-8.93522419091888
 30
0.0
 10
76.73205080756888
 20
-8.999999999999742
 30
0.0
  0
SPLINE
  5
A7
330
1F
100
AcDbEntity
  8
0
  6
Continuous
 62
     1
370
    15
100
AcDbSpline
210
0.0
220
0.0
230
1.0
 70
     8
 71
     3
 72
    18
 73
    14
 74
     0
 42
0.000000001
 43
0.00000001
 40
0.0
 40
0.0
 40
0.0
 40
0.0
 40
0.0664558215197003
 40
0.1680505972528016
 40
0.269645238568033
 40
0.3712389334160742
 40
0.4728308702567247
 40
0.5744202384951215
 40
0.6760062289168774
 40
0.7775880341216406
 40
0.8791648489545788
 40
0.9807358709353049
 40
1.0
 40
1.0
 40
1.0
 40
1.0
 10
54.37334423682029
 20
-0.8538993778778032
 30
0.0
 10
53.70959723220766
 20
-0.5880505824369807
 30
0.0
 10
52.03114261379854
 20
0.0842163135417897
 30
0.0
 10
49.33797873312992
 20
1.176534668076617
 30
0.0
 10
46.29386559906933
 20
2.362069362148115
 30
0.0
 10
43.24978360115997
 20
3.459031799600265
 30
0.0
 10
40.20575975132203
 20
4.424098033117432
 30
0.0
 10
37.16182075625441
 20
5.221492261101608
 30
0.0
 10
34.11799350021793
 20
5.818932099851315
 30
0.0
 10
31.07430418390873
 20
6.200736479236867
 30
0.0
 10
28.0307811985266
 20
6.326316203571242
 30
0.0
 10
25.80942487813927
 20
6.298527601248073
 30
0.0
 10
24.60258409958589
 20
6.159485475574945
 30
0.0
 10
24.41018365718606
 20
6.137318701823904
 30
0.0
  0
SPLINE
  5
A8
330
1F
100
AcDbEntity
  8
0
  6
Continuous
 62
     1
370
    15
100
AcDbSpline
210
0.0
220
0.0
230
1.0
 70
     8
 71
     3
 72
    22
 73
    18
 74
     0
 42
0.000000001
 43
0.00000001
 40
0.0
 40
0.0
 40
0.0
 40
0.0
 40
0.069212891942163
 40
0.1384297486319596
 40
0.2076500684813832
 40
0.2768733480807449
 40
0.3460990824614636
 40
0.4153267653606256
 40
0.4845558894870126
 40
0.5537859467883017
 40
0.6230164287191305
 40
0.6922468265097241
 40
0.7614766314347778
 40
0.8307053350822898
 40
0.899932429622035
 40
0.9691574080733788
 40
1.0
 40
1.0
 40
1.0
 40
1.0
 10
76.7320508075689
 20
-8.540467823087088
 30
0.0
 10
75.71765502394628
 20
-8.324265661154671
 30
0.0
 10
73.68880534869301
 20
-7.891848952501599
 30
0.0
 10
70.64540569173992
 20
-6.856370311415104
 30
0.0
 10
67.60182617637324
 20
-5.583612712635938
 30
0.0
 10
64.55808978043042
 20
-4.092388651796443
 30
0.0
 10
61.51422409308799
 20
-2.447285004866786
 30
0.0
 10
58.4702555611857
 20
-0.7087005693300681
 30
0.0
 10
55.42621101362687
 20
1.056706507151403
 30
0.0
 10
52.38211723060124
 20
2.782020046400409
 30
0.0
 10
49.33800105461096
 20
4.401490369764109
 30
0.0
 10
46.29388928927514
 20
5.854050639295452
 30
0.0
 10
43.24980890500758
 20
7.082697728487746
 30
0.0
 10
40.20578622935675
 20
8.047411445453678
 30
0.0
 10
37.16184989175306
 20
8.686613932611882
 30
0.0
 10
34.68054199853548
 20
8.998335455341515
 30
0.0
 10
33.2138926994123
 20
8.96723749002614
 30
0.0
 10
32.76184549109635
 20
8.957652548067948
 30
0.0
  0
LINE
  5
A9
330
1F
100
AcDbEntity
  8
0
  6
Continuous
 62
     1
370
    15
100
AcDbLine
 10
76.73205080756888
 20
-8.999999999999742
 30
0.0
 11
76.73205080756945
 21
-8.540467823087106
 31
0.0
  0
SPLINE
  5
AA
330
1F
100
AcDbEntity
  8
0
  6
Continuous
 62
     1
370
    15
100
AcDbSpline
210
0.0
220
0.0
230
1.0
 70
     8
 71
     3
 72
    19
 73
    15
 74
     0
 42
0.000000001
 43
0.00000001
 40
0.0
 40
0.0
 40
0.0
 40
0.0
 40
0.0806956485442529
 40
0.1642913114293472
 40
0.247884419017071
 40
0.3314743604475677
 40
0.4150605265298382
 40
0.4986423100605444
 40
0.5822196958745535
 40
0.665767892861452
 40
0.7493206162594277
 40
0.8328772725658549
 40
0.9164372662380343
 40
1.0
 40
1.0
 40
1.0
 40
1.0
 10
43.14412570316837
 20
-7.071849701406438
 30
0.0
 10
42.16467133480766
 20
-7.398886943831647
 30
0.0
 10
40.17056328107613
 20
-8.064714388229842
 30
0.0
 10
37.16184910786748
 20
-8.695373412516703
 30
0.0
 10
34.11802314243236
 20
-9.02404878942694
 30
0.0
 10
31.07433544750526
 20
-9.004110799696122
 30
0.0
 10
28.03081354347155
 20
-8.643503935092857
 30
0.0
 10
24.98747245814648
 20
-7.954039789392204
 30
0.0
 10
21.94464143198166
 20
-6.962509429484559
 30
0.0
 10
18.90212969630282
 20
-5.706682707904918
 30
0.0
 10
15.85983567839546
 20
-4.234138014894873
 30
0.0
 10
12.8173698392518
 20
-2.601425871519847
 30
0.0
 10
9.77475925745148
 20
-0.8674684261698102
 30
0.0
 10
7.746298043522968
 20
0.3044195415997841
 30
0.0
 10
6.732050807564137
 20
0.8903731324312255
 30
0.0
  0
SPLINE
  5
AB
330
1F
100
AcDbEntity
  8
0
  6
Continuous
 62
   131
370
    15
100
AcDbSpline
210
0.0
220
0.0
230
1.0
 70
    24
 71
     3
 72
     8
 73
     4
 74
     0
 42
0.000000001
 43
0.00000001
 40
0.0
 40
0.0
 40
0.0
 40
0.0
 40
1.0
 40
1.0
 40
1.0
 40
1.0
 10
6.732050807568895
 20
1.214259721816089
 30
0.0
 10
6.732050807568895
 20
1.144200682343806
 30
0.0
 10
6.732050807568895
 20
1.035712797978155
 30
0.0
 10
6.732050807568895
 20
0.8903731324328216
 30
0.0
  0
SPLINE
  5
AC
330
1F
100
AcDbEntity
  8
0
  6
Continuous
 62
     1
370
    15
100
AcDbSpline
210
0.0
220
0.0
230
1.0
 70
     8
 71
     3
 72
    17
 73
    13
 74
     0
 42
0.000000001
 43
0.00000001
 40
0.0
 40
0.0
 40
0.0
 40
0.0
 40
0.0923949525941757
 40
0.1932661613095226
 40
0.2941326104489362
 40
0.3949935345742356
 40
0.4958489146316346
 40
0.5967077955598968
 40
0.6975724599689851
 40
0.7984421433685348
 40
0.8992193855985579
 40
1.0
 40
1.0
 40
1.0
 40
1.0
 10
36.90593604191836
 20
-7.477867376619211
 30
0.0
 10
35.97661915742219
 20
-7.552343611661802
 30
0.0
 10
34.0327304290457
 20
-7.708128485741327
 30
0.0
 10
31.0743387635228
 20
-7.585477553536951
 30
0.0
 10
28.03081693183825
 20
-7.196013623106624
 30
0.0
 10
24.98747666981729
 20
-6.526410194154727
 30
0.0
 10
21.94425080017508
 20
-5.610546709736826
 30
0.0
 10
18.90096082498396
 20
-4.4810769798368
 30
0.0
 10
15.85750059565462
 20
-3.181198539681485
 30
0.0
 10
12.81483812652879
 20
-1.761705336929627
 30
0.0
 10
9.773005991435712
 20
-0.2724838816295201
 30
0.0
 10
7.745713841420736
 20
0.7186729931382427
 30
0.0
 10
6.732050807568873
 20
1.2142597218161
 30
0.0
  0
SPLINE
  5
AD
330
1F
100
AcDbEntity
  8
0
  6
Continuous
 62
     1
370
    15
100
AcDbSpline
210
0.0
220
0.0
230
1.0
 70
     8
 71
     3
 72
    15
 73
    11
 74
     0
 42
0.000000001
 43
0.00000001
 40
0.0
 40
0.0
 40
0.0
 40
0.0
 40
0.1302314353995896
 40
0.2604706643703705
 40
0.3907167010166681
 40
0.5209685558275338
 40
0.6512252361982531
 40
0.7814857469553738
 40
0.9117490908846558
 40
1.0
 40
1.0
 40
1.0
 40
1.0
 10
76.73205080756888
 20
-7.100750379313933
 30
0.0
 10
75.71765446046797
 20
-6.889371043000812
 30
0.0
 10
73.68880106072196
 20
-6.466599720587668
 30
0.0
 10
70.64540239201382
 20
-5.514427030750047
 30
0.0
 10
67.60182324021467
 20
-4.371984258062918
 30
0.0
 10
64.55808736677496
 20
-3.058408777299762
 30
0.0
 10
61.51422220184034
 20
-1.629104821459038
 30
0.0
 10
58.4702540428512
 20
-0.1407261121272768
 30
0.0
 10
55.75347980643689
 20
1.203090027938374
 30
0.0
 10
54.05136323141423
 20
1.999592551852575
 30
0.0
 10
53.36393285525763
 20
2.321274414105007
 30
0.0
  0
LINE
  5
AE
330
1F
100
AcDbEntity
  8
0
  6
Continuous
 62
     1
370
    15
100
AcDbLine
 10
76.73205080756888
 20
-8.540467823087099
 30
0.0
 11
76.73205080756888
 21
-7.100750379313933
 31
0.0
  0
SPLINE
  5
AF
330
1F
100
AcDbEntity
  8
0
  6
Continuous
 62
     1
370
    15
100
AcDbSpline
210
0.0
220
0.0
230
1.0
 70
     8
 71
     3
 72
    15
 73
    11
 74
     0
 42
0.000000001
 43
0.00000001
 40
0.0
 40
0.0
 40
0.0
 40
0.0
 40
0.1404283162273505
 40
0.2808520284214395
 40
0.4212701330666607
 40
0.5616816295592748
 40
0.7020855207228183
 40
0.8425391525264533
 40
0.9830001732988373
 40
1.0
 40
1.0
 40
1.0
 40
1.0
 10
6.732050807568873
 20
-1.617690686947835
 30
0.0
 10
7.746294116280124
 20
-2.187763672534652
 30
0.0
 10
9.77474748107912
 20
-3.327890953496387
 30
0.0
 10
12.81734631613959
 20
-4.895087721192001
 30
0.0
 10
15.85980037937004
 20
-6.281432036637669
 30
0.0
 10
18.90208285455581
 20
-7.4255954569832
 30
0.0
 10
21.94458728667538
 20
-8.297347716390197
 30
0.0
 10
24.98741880833688
 20
-8.819821939017276
 30
0.0
 10
27.13903325005406
 20
-9.042319548919057
 30
0.0
 10
28.27626996400995
 20
-8.987687947304279
 30
0.0
 10
28.39904859352735
 20
-8.981789796908421
 30
0.0
  0
SPLINE
  5
B0
330
1F
100
AcDbEntity
  8
0
  6
Continuous
 62
     1
370
    15
100
AcDbSpline
210
0.0
220
0.0
230
1.0
 70
     8
 71
     3
 72
    12
 73
     8
 74
     0
 42
0.000000001
 43
0.00000001
 40
0.0
 40
0.0
 40
0.0
 40
0.0
 40
0.0162717323700147
 40
0.2622213607724758
 40
0.5081604729099163
 40
0.7540872800666781
 40
1.0
 40
1.0
 40
1.0
 40
1.0
 10
64.35673708950685
 20
6.033653640689627
 30
0.0
 10
64.4238611098524
 20
6.064567949946054
 30
0.0
 10
65.50557457190271
 20
6.562756591218202
 30
0.0
 10
67.6018150031898
 20
7.321622824094861
 30
0.0
 10
70.64539952495313
 20
8.226531064182883
 30
0.0
 10
73.68880199471748
 20
8.81990014811905
 30
0.0
 10
75.71765390668298
 20
8.934896705324563
 30
0.0
 10
76.73205080756888
 20
9.000000000000256
 30
0.0
  0
LINE
  5
B1
330
1F
100
AcDbEntity
  8
0
  6
Continuous
 62
   131
370
    15
100
AcDbLine
 10
6.732050807568873
 20
-1.617690686947832
 30
0.0
 11
6.732050807568871
 21
0.8903731324368711
 31
0.0
  0
SPLINE
  5
B2
330
1F
100
AcDbEntity
  8
0
  6
Continuous
 62
     1
370
    15
100
AcDbSpline
210
0.0
220
0.0
230
1.0
 70
    24
 71
     3
 72
    10
 73
     6
 74
     0
 42
0.000000001
 43
0.00000001
 40
0.0
 40
0.0
 40
0.0
 40
0.0
 40
0.5
 40
0.5
 40
1.0
 40
1.0
 40
1.0
 40
1.0
 10
76.73205080756888
 20
6.30000000000001
 30
0.0
 10
76.7320508075689
 20
6.681890311265833
 30
0.0
 10
76.73205080756888
 20
7.125682219804064
 30
0.0
 10
76.7320508075689
 20
8.056756448647711
 30
0.0
 10
76.73205080756888
 20
8.541660922213264
 30
0.0
 10
76.73205080756888
 20
9.000000000000256
 30
0.0
  0
SPLINE
  5
B3
330
1F
100
AcDbEntity
  8
0
  6
Continuous
 62
     1
370
    15
100
AcDbSpline
210
0.0
220
0.0
230
1.0
 70
     8
 71
     3
 72
     9
 73
     5
 74
     0
 42
0.000000001
 43
0.00000001
 40
0.0
 40
0.0
 40
0.0
 40
0.0
 40
0.9093177053667983
 40
0.9999999999999999
 40
0.9999999999999999
 40
0.9999999999999999
 40
0.9999999999999999
 10
76.73205080756888
 20
6.30000000000001
 30
0.0
 10
75.71765464343079
 20
6.2956906897896
 30
0.0
 10
74.60209716758804
 20
6.290951630839162
 30
0.0
 10
73.48652894168262
 20
6.157082457910966
 30
0.0
 10
73.38536665513763
 20
6.144942894129188
 30
0.0
  0
SPLINE
  5
B4
330
1F
100
AcDbEntity
  8
0
  6
Continuous
 62
     1
370
    15
100
AcDbSpline
210
0.0
220
0.0
230
1.0
 70
     8
 71
     3
 72
    12
 73
     8
 74
     0
 42
0.000000001
 43
0.00000001
 40
0.0
 40
0.0
 40
0.0
 40
0.0
 40
0.5
 40
0.5
 40
0.75
 40
0.75
 40
1.0
 40
1.0
 40
1.0
 40
1.0
 10
76.73205080756888
 20
-2.405186514266794
 30
0.0
 10
75.87176462055211
 20
-1.72885958183917
 30
0.0
 10
75.02436949923344
 20
-1.027668077686353
 30
0.0
 10
73.77279890264752
 20
0.0617738072465265
 30
0.0
 10
73.35890487088074
 20
0.43127882198725
 30
0.0
 10
72.53829602611533
 20
1.184136286907577
 30
0.0
 10
72.13002746222075
 20
1.569041250122956
 30
0.0
 10
71.73205080756885
 20
1.955973187525299
 30
0.0
  0
LINE
  5
B5
330
1F
100
AcDbEntity
  8
0
  6
Continuous
 62
     1
370
    15
100
AcDbLine
 10
71.73205080756888
 20
2.9377194352966
 30
0.0
 11
76.73205080756888
 21
0.0000000000000093
 31
0.0
  0
LINE
  5
B6
330
1F
100
AcDbEntity
  8
0
  6
Continuous
 62
     1
370
    15
100
AcDbLine
 10
76.73205080756888
 20
0.0000000000000093
 30
0.0
 11
76.73205080756888
 21
-2.405186514266794
 31
0.0
  0
SPLINE
  5
B7
330
1F
100
AcDbEntity
  8
0
  6
Continuous
 62
     1
370
    15
100
AcDbSpline
210
0.0
220
0.0
230
1.0
 70
     8
 71
     3
 72
    24
 73
    20
 74
     0
 42
0.000000001
 43
0.00000001
 40
0.0
 40
0.0
 40
0.0
 40
0.0
 40
0.0442095198712152
 40
0.1039597037112947
 40
0.1637102757508428
 40
0.2234607708059997
 40
0.2832107237341034
 40
0.342959669682566
 40
0.4027071443374175
 40
0.462452684171236
 40
0.5221958266901771
 40
0.5819361106798253
 40
0.6416730764495876
 40
0.701406713170564
 40
0.7611424535054471
 40
0.8208816670772933
 40
0.880623894765636
 40
0.9403109351031954
 40
1.0
 40
1.0
 40
1.0
 40
1.0
 10
57.67855426981978
 20
-6.742155636270267
 30
0.0
 10
56.92777272198703
 20
-6.856938121041088
 30
0.0
 10
55.16229262874082
 20
-7.126851776352923
 30
0.0
 10
52.38209986800381
 20
-7.240144756912087
 30
0.0
 10
49.3379824784116
 20
-7.121676129515806
 30
0.0
 10
46.2938692648172
 20
-6.723777904286726
 30
0.0
 10
43.24978740214574
 20
-6.072673407007951
 30
0.0
 10
40.20576362568688
 20
-5.190141186736814
 30
0.0
 10
37.16182473308375
 20
-4.110527978312557
 30
0.0
 10
34.11799752143593
 20
-2.874660223838111
 30
0.0
 10
31.07430844911526
 20
-1.529576320644383
 30
0.0
 10
28.03078496383055
 20
-0.1263769522914477
 30
0.0
 10
24.98744284931366
 20
1.281566559104706
 30
0.0
 10
21.94421264709063
 20
2.64094491073367
 30
0.0
 10
18.90092024485623
 20
3.899561818938789
 30
0.0
 10
15.85745805520495
 20
5.011377801211981
 30
0.0
 10
12.81480172273546
 20
5.927339619967443
 30
0.0
 10
9.7729834197696
 20
6.637131527767864
 30
0.0
 10
7.745706472171312
 20
6.89474539076464
 30
0.0
 10
6.732050807568873
 20
7.023554506764387
 30
0.0
  0
SPLINE
  5
B8
330
1F
100
AcDbEntity
  8
0
  6
Continuous
 62
   131
370
    15
100
AcDbSpline
210
0.0
220
0.0
230
1.0
 70
    24
 71
     3
 72
    14
 73
    10
 74
     0
 42
0.000000001
 43
0.00000001
 40
0.0
 40
0.0
 40
0.0
 40
0.0
 40
0.2500000000000002
 40
0.2500000000000002
 40
0.5000000000000001
 40
0.5000000000000001
 40
0.75
 40
0.75
 40
1.0
 40
1.0
 40
1.0
 40
1.0
 10
6.732050807568873
 20
7.023554506764387
 30
0.0
 10
6.732050807568871
 20
6.793602849739682
 30
0.0
 10
6.732050807568873
 20
6.488550480963633
 30
0.0
 10
6.732050807568873
 20
5.734135583128659
 30
0.0
 10
6.732050807568873
 20
5.284820821077616
 30
0.0
 10
6.732050807568873
 20
4.269502624756703
 30
0.0
 10
6.732050807568873
 20
3.703792383560833
 30
0.0
 10
6.732050807568873
 20
2.50018502675144
 30
0.0
 10
6.732050807568871
 20
1.862689391056426
 30
0.0
 10
6.732050807568873
 20
1.214259721816099
 30
0.0
  0
SPLINE
  5
B9
330
1F
100
AcDbEntity
  8
0
  6
Continuous
 62
     1
370
    15
100
AcDbSpline
210
0.0
220
0.0
230
1.0
 70
     8
 71
     3
 72
    15
 73
    11
 74
     0
 42
0.000000001
 43
0.00000001
 40
0.0
 40
0.0
 40
0.0
 40
0.0
 40
0.0969817312973605
 40
0.1939867340019907
 40
0.3369147330773214
 40
0.4798481014601607
 40
0.6227857318238055
 40
0.7657265145641989
 40
0.9086693383916933
 40
1.0
 40
1.0
 40
1.0
 40
1.0
 10
71.73205080756888
 20
2.269675982330467
 30
0.0
 10
71.0437769830532
 20
2.567666196291241
 30
0.0
 10
69.66706417816965
 20
3.163718128933716
 30
0.0
 10
67.27604234816359
 20
4.122278405455924
 30
0.0
 10
64.55802645924948
 20
5.1014642477596
 30
0.0
 10
61.51422504227989
 20
6.002049039159288
 30
0.0
 10
58.47023748691039
 20
6.677877550449161
 30
0.0
 10
55.42619622202659
 20
7.088680871110756
 30
0.0
 10
52.74848320085963
 20
7.249603357710414
 30
0.0
 10
51.08545657618495
 20
7.156426275703192
 30
0.0
 10
50.43713172789395
 20
7.12010153101166
 30
0.0
  0
LINE
  5
BA
330
1F
100
AcDbEntity
  8
0
  6
Continuous
 62
     1
370
    15
100
AcDbLine
 10
8.707893541873707
 20
-6.737480435165748
 30
0.0
 11
6.732050807568873
 21
-7.023554506764386
 31
0.0
  0
SPLINE
  5
BB
330
1F
100
AcDbEntity
  8
0
  6
Continuous
 62
     1
370
    15
100
AcDbSpline
210
0.0
220
0.0
230
1.0
 70
    24
 71
     3
 72
     8
 73
     4
 74
     0
 42
0.000000001
 43
0.00000001
 40
0.0
 40
0.0
 40
0.0
 40
0.0
 40
1.0
 40
1.0
 40
1.0
 40
1.0
 10
71.7320508075689
 20
1.955973187525305
 30
0.0
 10
71.7320508075689
 20
2.061208827775577
 30
0.0
 10
71.73205080756888
 20
2.165800204981211
 30
0.0
 10
71.73205080756888
 20
2.269675982330471
 30
0.0
  0
SPLINE
  5
BC
330
1F
100
AcDbEntity
  8
0
  6
Continuous
 62
     1
370
    15
100
AcDbSpline
210
0.0
220
0.0
230
1.0
 70
    24
 71
     3
 72
    10
 73
     6
 74
     0
 42
0.000000001
 43
0.00000001
 40
0.0
 40
0.0
 40
0.0
 40
0.0
 40
0.5
 40
0.5
 40
1.0
 40
1.0
 40
1.0
 40
1.0
 10
76.73205080756888
 20
-7.100750379313931
 30
0.0
 10
76.73205080756887
 20
-6.556422501034232
 30
0.0
 10
76.7320508075689
 20
-5.868643355158206
 30
0.0
 10
76.73205080756888
 20
-4.269623032356111
 30
0.0
 10
76.73205080756887
 20
-3.359766987461779
 30
0.0
 10
76.73205080756887
 20
-2.405186514267082
 30
0.0
  0
SPLINE
  5
BD
330
1F
100
AcDbEntity
  8
0
  6
Continuous
 62
     1
370
    15
100
AcDbSpline
210
0.0
220
0.0
230
1.0
 70
    24
 71
     3
 72
    10
 73
     6
 74
     0
 42
0.000000001
 43
0.00000001
 40
0.0
 40
0.0
 40
0.0
 40
0.0
 40
0.4999999999999999
 40
0.4999999999999999
 40
1.0
 40
1.0
 40
1.0
 40
1.0
 10
71.73205080756888
 20
2.26967598233047
 30
0.0
 10
71.73205080756888
 20
2.716702351941905
 30
0.0
 10
71.73205080756891
 20
3.143168731149025
 30
0.0
 10
71.73205080756887
 20
3.928424395620575
 30
0.0
 10
71.7320508075689
 20
4.287058423038026
 30
0.0
 10
71.73205080756888
 20
4.600248776142756
 30
0.0
  0
SPLINE
  5
BE
330
1F
100
AcDbEntity
  8
0
  6
Continuous
 62
     1
370
    15
100
AcDbSpline
210
0.0
220
0.0
230
1.0
 70
     8
 71
     3
 72
    10
 73
     6
 74
     0
 42
0.000000001
 43
0.00000001
 40
0.0
 40
0.0
 40
0.0
 40
0.0
 40
0.5
 40
0.5
 40
1.0
 40
1.0
 40
1.0
 40
1.0
 10
76.73205080756888
 20
6.30000000000001
 30
0.0
 10
75.88836407111407
 20
6.071240674213189
 30
0.0
 10
75.04927594384233
 20
5.816690976438027
 30
0.0
 10
73.38094039447454
 20
5.252507842484853
 30
0.0
 10
72.55267183820955
 20
4.943697147379763
 30
0.0
 10
71.73205080756888
 20
4.600248776142756
 30
0.0
  0
SPLINE
  5
BF
330
1F
100
AcDbEntity
  8
0
  6
Continuous
 62
   131
370
    15
100
AcDbSpline
210
0.0
220
0.0
230
1.0
 70
    24
 71
     3
 72
    13
 73
     9
 74
     0
 42
0.000000001
 43
0.00000001
 40
0.0
 40
0.0
 40
0.0
 40
0.0
 40
0.1419095025085255
 40
0.3162082788779467
 40
0.485594833682962
 40
0.6598936100523831
 40
0.8275669651497551
 40
1.0
 40
1.0
 40
1.0
 40
1.0
 10
6.732050807568873
 20
-1.617690686947835
 30
0.0
 10
6.732050807568873
 20
-2.024209979235451
 30
0.0
 10
6.732050807568871
 20
-2.930032094546053
 30
0.0
 10
6.732050807568873
 20
-4.139247741704671
 30
0.0
 10
6.732050807568873
 20
-5.245590864542717
 30
0.0
 10
6.732050807568873
 20
-6.102874689518949
 30
0.0
 10
6.732050807568873
 20
-6.734673778179726
 30
0.0
 10
6.732050807568873
 20
-6.926366703583686
 30
0.0
 10
6.732050807568873
 20
-7.023554506764382
 30
0.0
  0
LINE
  5
C0
330
1F
100
AcDbEntity
  8
0
  6
Continuous
 62
     1
370
    15
100
AcDbLine
 10
76.73205080756888
 20
0.0000000000000093
 30
0.0
 11
76.73205080756888
 21
6.30000000000001
 31
0.0
  0
LINE
  5
C1
330
1F
100
AcDbEntity
  8
0
  6
Continuous
 62
   131
370
    15
100
AcDbLine
 10
5.732050807567932
 20
1.978111184128221
 30
0.0
 11
5.732050807567932
 21
9.000000000000258
 31
0.0
  0
LINE
  5
C3
330
1F
100
AcDbEntity
  8
0
  6
Continuous
 62
   131
370
    15
100
AcDbLine
 10
5.732050807568873
 20
1.461959916872606
 30
0.0
 11
5.732050807568873
 21
-1.047515914339309
 31
0.0
  0
LINE
  5
C5
330
1F
100
AcDbEntity
  8
0
  6
Continuous
 62
   131
370
    15
100
AcDbLine
 10
5.732050807567932
 20
-9.000000000000279
 30
0.0
 11
5.732050807567932
 21
-0.6208750222363655
 31
0.0
  0
LINE
  5
C6
330
1F
100
AcDbEntity
  8
0
  6
Continuous
 62
   131
370
    15
100
AcDbLine
 10
4.732050807568189
 20
10.0
 30
0.0
 11
4.732050807568189
 21
-10.0
 31
0.0
  0
LINE
  5
C7
330
1F
100
AcDbEntity
  8
0
  6
Continuous
 62
   131
370
    15
100
AcDbLine
 10
-52.26794919243112
 20
9.999999999999995
 30
0.0
 11
-52.26794919243112
 21
-10.0
 31
0.0
  0
LINE
  5
C8
330
1F
100
AcDbEntity
  8
0
  6
Continuous
 62
   131
370
    15
100
AcDbLine
 10
-53.26794919243113
 20
8.999999999999995
 30
0.0
 11
-53.26794919243113
 21
-9.000000000000012
 31
0.0
  0
SPLINE
  5
CA
330
1F
100
AcDbEntity
  8
0
  6
Continuous
 62
   131
370
    15
100
AcDbSpline
210
0.0
220
0.0
230
1.0
 70
     8
 71
     3
 72
     8
 73
     4
 74
     0
 42
0.000000001
 43
0.00000001
 40
0.0
 40
0.0
 40
0.0
 40
0.0
 40
1.0
 40
1.0
 40
1.0
 40
1.0
 10
6.732050807568873
 20
-1.61769068694783
 30
0.0
 10
6.398968689861855
 20
-1.428656996944923
 30
0.0
 10
6.06529331024667
 20
-1.238403854659094
 30
0.0
 10
5.732050807568873
 20
-1.047515914339309
 30
0.0
  0
SPLINE
  5
CB
330
1F
100
AcDbEntity
  8
0
  6
Continuous
 62
   131
370
    15
100
AcDbSpline
210
0.0
220
0.0
230
1.0
 70
    24
 71
     3
 72
     8
 73
     4
 74
     0
 42
0.000000001
 43
0.00000001
 40
0.0
 40
0.0
 40
0.0
 40
0.0
 40
1.0
 40
1.0
 40
1.0
 40
1.0
 10
6.732050807568895
 20
1.214259721816089
 30
0.0
 10
6.732050807568895
 20
1.144200682343806
 30
0.0
 10
6.732050807568895
 20
1.035712797978154
 30
0.0
 10
6.732050807568895
 20
0.89037313243282
 30
0.0
  0
SPLINE
  5
CC
330
1F
100
AcDbEntity
  8
0
  6
Continuous
 62
   131
370
    15
100
AcDbSpline
210
0.0
220
0.0
230
1.0
 70
     8
 71
     3
 72
     8
 73
     4
 74
     0
 42
0.000000001
 43
0.00000001
 40
0.0
 40
0.0
 40
0.0
 40
0.0
 40
1.0
 40
1.0
 40
1.0
 40
1.0
 10
6.732050807568873
 20
0.890373132428507
 30
0.0
 10
6.398968689861855
 20
1.081593801209698
 30
0.0
 10
6.06529331024667
 20
1.272318372522865
 30
0.0
 10
5.732050807568873
 20
1.461959916872606
 30
0.0
  0
SPLINE
  5
CE
330
1F
100
AcDbEntity
  8
0
  6
Continuous
 62
   131
370
    15
100
AcDbSpline
210
0.0
220
0.0
230
1.0
 70
     8
 71
     3
 72
     8
 73
     4
 74
     0
 42
0.000000001
 43
0.00000001
 40
0.0
 40
0.0
 40
0.0
 40
0.0
 40
0.3272958838806226
 40
0.3272958838806226
 40
0.3272958838806226
 40
0.3272958838806226
 10
6.732050807568864
 20
7.023554506764388
 30
0.0
 10
6.398968576243368
 20
7.057379487838307
 30
0.0
 10
6.065293529581295
 20
7.086410027879364
 30
0.0
 10
5.732050807567932
 20
7.110570300335048
 30
0.0
  0
SPLINE
  5
CF
330
1F
100
AcDbEntity
  8
0
  6
Continuous
 62
   131
370
    15
100
AcDbSpline
210
0.0
220
0.0
230
1.0
 70
    24
 71
     3
 72
    14
 73
    10
 74
     0
 42
0.000000001
 43
0.00000001
 40
0.0
 40
0.0
 40
0.0
 40
0.0
 40
0.2500000000000002
 40
0.2500000000000002
 40
0.5000000000000001
 40
0.5000000000000001
 40
0.75
 40
0.75
 40
1.0
 40
1.0
 40
1.0
 40
1.0
 10
6.732050807568873
 20
7.023554506764387
 30
0.0
 10
6.732050807568871
 20
6.793602849739682
 30
0.0
 10
6.732050807568873
 20
6.488550480963633
 30
0.0
 10
6.732050807568873
 20
5.734135583128659
 30
0.0
 10
6.732050807568873
 20
5.284820821077616
 30
0.0
 10
6.732050807568873
 20
4.269502624756703
 30
0.0
 10
6.732050807568873
 20
3.703792383560833
 30
0.0
 10
6.732050807568873
 20
2.50018502675144
 30
0.0
 10
6.732050807568871
 20
1.862689391056426
 30
0.0
 10
6.732050807568873
 20
1.214259721816099
 30
0.0
  0
SPLINE
  5
D0
330
1F
100
AcDbEntity
  8
0
  6
Continuous
 62
   131
370
    15
100
AcDbSpline
210
0.0
220
0.0
230
1.0
 70
     8
 71
     3
 72
     8
 73
     4
 74
     0
 42
0.000000001
 43
0.00000001
 40
0.0
 40
0.0
 40
0.0
 40
0.0
 40
0.3272958838806218
 40
0.3272958838806218
 40
0.3272958838806218
 40
0.3272958838806218
 10
6.732050807568864
 20
-7.023554506764387
 30
0.0
 10
6.398968576243369
 20
-7.057379487838306
 30
0.0
 10
6.065293529581298
 20
-7.086410027879364
 30
0.0
 10
5.732050807567935
 20
-7.110570300335047
 30
0.0
  0
SPLINE
  5
D1
330
1F
100
AcDbEntity
  8
0
  6
Continuous
 62
   131
370
    15
100
AcDbSpline
210
0.0
220
0.0
230
1.0
 70
    24
 71
     3
 72
    13
 73
     9
 74
     0
 42
0.000000001
 43
0.00000001
 40
0.0
 40
0.0
 40
0.0
 40
0.0
 40
0.1419095025085254
 40
0.3162082788779464
 40
0.4855948336829618
 40
0.6598936100523828
 40
0.8275669651497549
 40
1.0
 40
1.0
 40
1.0
 40
1.0
 10
6.732050807568873
 20
-1.617690686947835
 30
0.0
 10
6.732050807568873
 20
-2.024209979235451
 30
0.0
 10
6.732050807568873
 20
-2.930032094546053
 30
0.0
 10
6.732050807568873
 20
-4.139247741704669
 30
0.0
 10
6.732050807568873
 20
-5.245590864542713
 30
0.0
 10
6.732050807568873
 20
-6.10287468951895
 30
0.0
 10
6.732050807568873
 20
-6.734673778179719
 30
0.0
 10
6.732050807568873
 20
-6.926366703583684
 30
0.0
 10
6.732050807568873
 20
-7.023554506764382
 30
0.0
  0
LINE
  5
D2
330
1F
100
AcDbEntity
  8
중심선
100
AcDbLine
 10
-56.26794919243113
 20
-0.0000000000000037
 30
0.0
 11
83.73205080756887
 21
0.00000000000001
 31
0.0
  0
CIRCLE
  5
D3
330
1F
100
AcDbEntity
  8
외형선
100
AcDbCircle
 10
0.0000000000000104
 20
0.0
 30
0.0
 40
3.000000000000005
  0
INSERT
  5
D4
330
1F
100
AcDbEntity
  8
0
  6
Continuous
 62
     7
100
AcDbBlockReference
 66
     1
  2
블럭10
 10
-22.93944368806589
 20
-52.04609937292004
 30
0.0
  0
ATTRIB
  5
D5
330
D4
100
AcDbEntity
  8
FORMAT
 62
     2
100
AcDbText
 10
-39.05870472750145
 20
-49.97073246008785
 30
0.0
 40
4.233333333333333
  1
SEME7018070E [ 2 FLUTE ]
 41
0.75
  7
SLDTEXTSTYLE0
 11
-39.05870472750145
 21
-52.08739912675452
 31
0.0
100
AcDbAttribute
  2
AUTOATTR0
 70
     0
 74
     1
  0
SEQEND
  5
D6
330
D4
100
AcDbEntity
  8
0
  6
Continuous
 62
     7
  0
HATCH
  5
D7
330
1F
100
AcDbEntity
  8
중심선
100
AcDbHatch
 10
0.0
 20
0.0
 30
0.0
210
0.0
220
0.0
230
1.0
  2
SOLID
 70
     1
 71
     0
 91
        1
 92
        0
 93
        4
 72
     1
 10
-17.22453438368504
 20
-35.7989250712761
 11
-20.67080962752232
 21
-35.7989250712761
 72
     1
 10
-20.67080962752232
 20
-35.7989250712761
 11
-22.79903948672635
 21
-38.3352506518487
 72
     1
 10
-22.79903948672635
 20
-38.3352506518487
 11
-19.35273115777591
 21
-38.33521122254621
 72
     1
 10
-19.35273115777591
 20
-38.33521122254621
 11
-17.22453438368504
 21
-35.7989250712761
 97
        0
 75
     0
 76
     1
 98
        1
 10
0.0
 20
0.0
  0
HATCH
  5
D8
330
1F
100
AcDbEntity
  8
중심선
100
AcDbHatch
 10
0.0
 20
0.0
 30
0.0
210
0.0
220
0.0
230
1.0
  2
SOLID
 70
     1
 71
     0
 91
        1
 92
        0
 93
        4
 72
     1
 10
-12.21177039264909
 20
-35.7989250712761
 11
-15.65804563648637
 21
-35.7989250712761
 72
     1
 10
-15.65804563648637
 20
-35.7989250712761
 11
-20.18918364484376
 21
-41.19892507127612
 72
     1
 10
-20.18918364484376
 20
-41.19892507127612
 11
-16.74290840100648
 21
-41.19892507127612
 72
     1
 10
-16.74290840100648
 20
-41.19892507127612
 11
-12.21177039264909
 21
-35.7989250712761
 97
        0
 75
     0
 76
     1
 98
        1
 10
0.0
 20
0.0
  0
HATCH
  5
D9
330
1F
100
AcDbEntity
  8
중심선
100
AcDbHatch
 10
0.0
 20
0.0
 30
0.0
210
0.0
220
0.0
230
1.0
  2
SOLID
 70
     1
 71
     0
 91
        1
 92
        0
 93
        4
 72
     1
 10
-7.199006401613195
 20
-35.79892507127613
 11
-10.64528164545031
 21
-35.7989250712761
 72
     1
 10
-10.64528164545031
 20
-35.7989250712761
 11
-17.69371854733956
 21
-44.19892507127612
 72
     1
 10
-17.69371854733956
 20
-44.19892507127612
 11
-14.24744330350228
 21
-44.19892507127612
 72
     1
 10
-14.24744330350228
 20
-44.19892507127612
 11
-7.199006401613195
 21
-35.79892507127613
 97
        0
 75
     0
 76
     1
 98
        1
 10
0.0
 20
0.0
  0
HATCH
  5
DA
330
1F
100
AcDbEntity
  8
중심선
100
AcDbHatch
 10
0.0
 20
0.0
 30
0.0
210
0.0
220
0.0
230
1.0
  2
SOLID
 70
     1
 71
     0
 91
        1
 92
        0
 93
        6
 72
     3
 10
-2.399115970600996
 20
-39.99892507132738
 11
3.960054785062284
 21
1.540850780301639E-10
 40
0.3939339440162633
 50
17.09539180608433
 51
320.0019657685079
 73
     0
 72
     1
 10
-0.7161163149004002
 20
-38.58681907591441
 11
1.589185558800638
 21
-36.65249236586649
 72
     3
 10
-2.399115970653842
 20
-39.99892507127625
 11
6.600054785286829
 21
-1.249000902703301E-13
 40
0.6363583540795982
 50
39.99873849337408
 51
368.4976242363724
 73
     1
 72
     1
 10
4.026216521246767
 20
-39.03892507120613
 11
-3.71904866381792
 21
-39.0389250712061
 72
     1
 10
-3.71904866381792
 20
-39.0389250712061
 11
-3.719073708263854
 21
-40.95892507120602
 72
     1
 10
-3.719073708263854
 20
-40.95892507120602
 11
0.7223060612081835
 21
-40.95892507120599
 97
        0
 75
     0
 76
     1
 98
        1
 10
0.0
 20
0.0
  0
DIMENSION
  5
DB
330
1F
100
AcDbEntity
  8
치수문자_일반주서
100
AcDbDimension
  2
_D
 10
90.7983998931826
 20
9.00000000000031
 30
0.0
 11
90.79839989318258
 21
19.54150000000031
 31
0.0
 70
   160
  1
%%c<>
 71
     2
 42
18.0
 52
-270.0
  3
SLDDIMSTYLE0
100
AcDbAlignedDimension
 13
76.73205080756888
 23
-8.999999999999742
 33
0.0
 14
76.73205080756888
 24
9.000000000000256
 34
0.0
 50
90.0000000000002
100
AcDbRotatedDimension
  0
DIMENSION
  5
E9
330
1F
100
AcDbEntity
  8
치수문자_일반주서
100
AcDbDimension
  2
_D_1
 10
76.73205080756888
 20
30.78841044024269
 30
0.0
 11
11.73205080756888
 21
30.78841044024269
 31
0.0
 70
   160
  1
<>
 71
     2
 42
130.0
  3
SLDDIMSTYLE1
100
AcDbAlignedDimension
 13
-53.26794919243113
 23
8.999999999999995
 33
0.0
 14
76.73205080756888
 24
9.000000000000256
 34
0.0
 50
-0.0000000000000031
100
AcDbRotatedDimension
  0
DIMENSION
  5
F4
330
1F
100
AcDbEntity
  8
치수문자_일반주서
100
AcDbDimension
  2
_D_2
 10
76.73205080756887
 20
20.37055231293191
 30
0.0
 11
41.73205080756888
 21
20.37055231293191
 31
0.0
 70
   160
  1
<>
 71
     2
 42
70.00000000000001
  3
SLDDIMSTYLE1
100
AcDbAlignedDimension
 13
6.732050807568873
 23
7.023554506764385
 33
0.0
 14
76.73205080756888
 24
9.000000000000256
 34
0.0
 50
-0.0000000000000029
100
AcDbRotatedDimension
  0
DIMENSION
  5
FE
330
1F
100
AcDbEntity
  8
치수문자_일반주서
100
AcDbDimension
  2
_D_3
 10
-65.00008211821415
 20
-10.00000000000005
 30
0.0
 11
-65.00008211821427
 21
20.76024999999995
 31
0.0
 70
   160
  1
%%c<>
 71
     2
 42
20.0
 52
-270.0
  3
SLDDIMSTYLE0
100
AcDbAlignedDimension
 13
-52.26794919243112
 23
9.999999999999995
 33
0.0
 14
-52.26794919243112
 24
-10.0
 34
0.0
 50
90.0000000000002
100
AcDbRotatedDimension
  0
INSERT
  5
111
330
1F
100
AcDbEntity
  8
외형선
100
AcDbBlockReference
  2
SW_DOWELSYMBOL_0
 10
0.0000000000000104
 20
0.0
 30
0.0
  0
LINE
  5
170
330
1F
100
AcDbEntity
  8
0
  6
Continuous
 62
   131
370
    15
100
AcDbLine
 10
5.732050807567932
 20
9.000000000000258
 30
0.0
 11
4.732050807568189
 21
10.0
 31
0.0
1001
PE_URL
1000

  0
LINE
  5
172
330
1F
100
AcDbEntity
  8
0
  6
Continuous
 62
   131
370
    15
100
AcDbLine
 10
5.732050807567954
 20
-9.000000000000256
 30
0.0
 11
4.732050807568214
 21
-10.0
 31
0.0
1001
PE_URL
1000

  0
ENDSEC
  0
SECTION
  2
OBJECTS
  0
DICTIONARY
  5
C
330
0
100
AcDbDictionary
281
     1
  3
ACAD_DETAILVIEWSTYLE
350
16E
  3
ACAD_GROUP
350
D
  3
ACAD_IMAGE_VARS
350
135
  3
ACAD_LAYOUT
350
1A
  3
ACAD_MLINESTYLE
350
17
  3
ACAD_PLOTSETTINGS
350
19
  3
ACAD_PLOTSTYLENAME
350
E
  3
ACAD_SCALELIST
350
47
  3
ACAD_SECTIONVIEWSTYLE
350
16F
  3
AcDbVariableDictionary
350
169
  3
APPDATA
350
133
  3
DWGPROPS
350
175
  0
DICTIONARY
  5
173
330
1F
100
AcDbDictionary
280
     1
281
     1
  3
DIM_BOUNDING_BOXES_V1
360
174
  0
DICTIONARY
  5
16E
102
{ACAD_REACTORS
330
C
102
}
330
C
100
AcDbDictionary
281
     1
  0
DICTIONARY
  5
D
102
{ACAD_REACTORS
330
C
102
}
330
C
100
AcDbDictionary
281
     1
  0
RASTERVARIABLES
  5
135
102
{ACAD_REACTORS
330
C
102
}
330
C
100
AcDbRasterVariables
 90
        0
 70
     1
 71
     1
 72
     1
  0
DICTIONARY
  5
1A
102
{ACAD_REACTORS
330
C
102
}
330
C
100
AcDbDictionary
281
     1
  3
Layout1
350
1E
  3
Layout2
350
26
  3
Model
350
22
  0
DICTIONARY
  5
17
102
{ACAD_REACTORS
330
C
102
}
330
C
100
AcDbDictionary
281
     1
  3
Standard
350
18
  0
DICTIONARY
  5
19
102
{ACAD_REACTORS
330
C
102
}
330
C
100
AcDbDictionary
281
     1
  0
ACDBDICTIONARYWDFLT
  5
E
102
{ACAD_REACTORS
330
C
102
}
330
C
100
AcDbDictionary
281
     1
  3
Normal
350
F
100
AcDbDictionaryWithDefault
340
F
  0
DICTIONARY
  5
47
102
{ACAD_REACTORS
330
C
102
}
330
C
100
AcDbDictionary
281
     1
  3
A0
350
48
  3
A1
350
49
  3
A2
350
4A
  3
A3
350
4B
  3
A4
350
4C
  3
A5
350
4D
  3
A6
350
4E
  3
A7
350
4F
  3
A8
350
50
  3
A9
350
51
  3
B0
350
52
  3
B1
350
53
  3
B2
350
54
  3
B3
350
55
  3
B4
350
56
  3
B5
350
57
  3
B6
350
58
  3
B7
350
59
  3
B8
350
5A
  3
B9
350
5B
  3
C0
350
5C
  3
C1
350
5D
  3
C2
350
5E
  3
C3
350
5F
  3
C4
350
60
  3
C5
350
61
  3
C6
350
62
  3
C7
350
63
  3
C8
350
64
  3
C9
350
65
  3
D0
350
66
  3
D1
350
67
  3
D2
350
68
  0
DICTIONARY
  5
16F
102
{ACAD_REACTORS
330
C
102
}
330
C
100
AcDbDictionary
281
     1
  0
DICTIONARY
  5
169
102
{ACAD_REACTORS
330
C
102
}
330
C
100
AcDbDictionary
281
     1
  0
DICTIONARY
  5
133
102
{ACAD_REACTORS
330
C
102
}
330
C
100
AcDbDictionary
281
     1
  0
XRECORD
  5
175
102
{ACAD_REACTORS
330
C
102
}
330
C
100
AcDbXrecord
280
     1
  1
DWGPROPS COOKIE
  2

  3

  4

  6

  7

  8
12014102
  9

300
=
301
=
302
=
303
=
304
=
305
=
306
=
307
=
308
=
309
=
 40
0.0
 41
2458262.177429653
 42
2459702.276317234
  1

 90
        0
  0
DICTIONARY
  5
174
102
{ACAD_REACTORS
330
173
102
}
330
173
100
AcDbDictionary
281
     1
  0
LAYOUT
  5
1E
102
{ACAD_REACTORS
330
1A
102
}
330
1A
100
AcDbPlotSettings
  1

  2
none_device
  4

  6

 40
0.0
 41
0.0
 42
0.0
 43
0.0
 44
0.0
 45
0.0
 46
0.0
 47
0.0
 48
0.0
 49
0.0
140
0.0
141
0.0
142
1.0
143
1.0
 70
   688
 72
     1
 73
     0
 74
     5
  7

 75
    16
147
1.0
148
0.0
149
0.0
100
AcDbLayout
  1
Layout1
 70
     1
 71
     1
 10
0.0
 20
0.0
 11
420.0
 21
297.0
 12
0.0
 22
0.0
 32
0.0
 14
1.000000000000000E+20
 24
1.000000000000000E+20
 34
1.000000000000000E+20
 15
-1.000000000000000E+20
 25
-1.000000000000000E+20
 35
-1.000000000000000E+20
146
0.0
 13
0.0
 23
0.0
 33
0.0
 16
1.0
 26
0.0
 36
0.0
 17
0.0
 27
1.0
 37
0.0
 76
     0
330
1B
  0
LAYOUT
  5
26
102
{ACAD_REACTORS
330
1A
102
}
330
1A
100
AcDbPlotSettings
  1

  2
none_device
  4

  6

 40
0.0
 41
0.0
 42
0.0
 43
0.0
 44
0.0
 45
0.0
 46
0.0
 47
0.0
 48
0.0
 49
0.0
140
0.0
141
0.0
142
1.0
143
1.0
 70
   688
 72
     1
 73
     0
 74
     5
  7

 75
    16
147
1.0
148
0.0
149
0.0
100
AcDbLayout
  1
Layout2
 70
     1
 71
     2
 10
0.0
 20
0.0
 11
0.0
 21
0.0
 12
0.0
 22
0.0
 32
0.0
 14
0.0
 24
0.0
 34
0.0
 15
0.0
 25
0.0
 35
0.0
146
0.0
 13
0.0
 23
0.0
 33
0.0
 16
1.0
 26
0.0
 36
0.0
 17
0.0
 27
1.0
 37
0.0
 76
     0
330
23
  0
LAYOUT
  5
22
102
{ACAD_REACTORS
330
1A
102
}
330
1A
100
AcDbPlotSettings
  1

  2
none_device
  4
ANSI_A_(11.00_x_8.50_Inches)
  6

 40
6.35
 41
19.05
 42
6.35000508
 43
19.05000254
 44
279.4
 45
215.9
 46
110.6856154359156
 47
103.494724361852
 48
0.0
 49
0.0
140
0.0
141
0.0
142
0.074557549576417
143
1.0
 70
  1696
 72
     0
 73
     0
 74
     0
  7

 75
     0
147
0.0235690232323232
148
0.0
149
0.0
100
AcDbLayout
  1
Model
 70
     1
 71
     0
 10
0.0
 20
0.0
 11
420.0
 21
297.0
 12
0.0
 22
0.0
 32
0.0
 14
-69.37508211821428
 24
-49.97073246008785
 34
0.0
 15
91.34873322651599
 25
35.16341044024269
 35
0.0
146
0.0
 13
0.0
 23
0.0
 33
0.0
 16
1.0
 26
0.0
 36
0.0
 17
0.0
 27
1.0
 37
0.0
 76
     0
330
1F
331
29
  0
MLINESTYLE
  5
18
102
{ACAD_REACTORS
330
17
102
}
330
17
100
AcDbMlineStyle
  2
Standard
 70
     0
  3

 62
   256
 51
90.0
 52
90.0
 71
     2
 49
0.5
 62
   256
  6
BYLAYER
 49
-0.5
 62
   256
  6
BYLAYER
  0
ACDBPLACEHOLDER
  5
F
102
{ACAD_REACTORS
330
E
102
}
330
E
  0
SCALE
  5
48
102
{ACAD_REACTORS
330
47
102
}
330
47
100
AcDbScale
 70
     0
300
1:1
140
1.0
141
1.0
290
     1
  0
SCALE
  5
49
102
{ACAD_REACTORS
330
47
102
}
330
47
100
AcDbScale
 70
     0
300
1:2
140
1.0
141
2.0
290
     0
  0
SCALE
  5
4A
102
{ACAD_REACTORS
330
47
102
}
330
47
100
AcDbScale
 70
     0
300
1:4
140
1.0
141
4.0
290
     0
  0
SCALE
  5
4B
102
{ACAD_REACTORS
330
47
102
}
330
47
100
AcDbScale
 70
     0
300
1:5
140
1.0
141
5.0
290
     0
  0
SCALE
  5
4C
102
{ACAD_REACTORS
330
47
102
}
330
47
100
AcDbScale
 70
     0
300
1:8
140
1.0
141
8.0
290
     0
  0
SCALE
  5
4D
102
{ACAD_REACTORS
330
47
102
}
330
47
100
AcDbScale
 70
     0
300
1:10
140
1.0
141
10.0
290
     0
  0
SCALE
  5
4E
102
{ACAD_REACTORS
330
47
102
}
330
47
100
AcDbScale
 70
     0
300
1:16
140
1.0
141
16.0
290
     0
  0
SCALE
  5
4F
102
{ACAD_REACTORS
330
47
102
}
330
47
100
AcDbScale
 70
     0
300
1:20
140
1.0
141
20.0
290
     0
  0
SCALE
  5
50
102
{ACAD_REACTORS
330
47
102
}
330
47
100
AcDbScale
 70
     0
300
1:30
140
1.0
141
30.0
290
     0
  0
SCALE
  5
51
102
{ACAD_REACTORS
330
47
102
}
330
47
100
AcDbScale
 70
     0
300
1:40
140
1.0
141
40.0
290
     0
  0
SCALE
  5
52
102
{ACAD_REACTORS
330
47
102
}
330
47
100
AcDbScale
 70
     0
300
1:50
140
1.0
141
50.0
290
     0
  0
SCALE
  5
53
102
{ACAD_REACTORS
330
47
102
}
330
47
100
AcDbScale
 70
     0
300
1:100
140
1.0
141
100.0
290
     0
  0
SCALE
  5
54
102
{ACAD_REACTORS
330
47
102
}
330
47
100
AcDbScale
 70
     0
300
2:1
140
2.0
141
1.0
290
     0
  0
SCALE
  5
55
102
{ACAD_REACTORS
330
47
102
}
330
47
100
AcDbScale
 70
     0
300
4:1
140
4.0
141
1.0
290
     0
  0
SCALE
  5
56
102
{ACAD_REACTORS
330
47
102
}
330
47
100
AcDbScale
 70
     0
300
8:1
140
8.0
141
1.0
290
     0
  0
SCALE
  5
57
102
{ACAD_REACTORS
330
47
102
}
330
47
100
AcDbScale
 70
     0
300
10:1
140
10.0
141
1.0
290
     0
  0
SCALE
  5
58
102
{ACAD_REACTORS
330
47
102
}
330
47
100
AcDbScale
 70
     0
300
100:1
140
100.0
141
1.0
290
     0
  0
SCALE
  5
59
102
{ACAD_REACTORS
330
47
102
}
330
47
100
AcDbScale
 70
     0
300
1/128" = 1'-0"
140
0.0078125
141
12.0
290
     0
  0
SCALE
  5
5A
102
{ACAD_REACTORS
330
47
102
}
330
47
100
AcDbScale
 70
     0
300
1/64" = 1'-0"
140
0.015625
141
12.0
290
     0
  0
SCALE
  5
5B
102
{ACAD_REACTORS
330
47
102
}
330
47
100
AcDbScale
 70
     0
300
1/32" = 1'-0"
140
0.03125
141
12.0
290
     0
  0
SCALE
  5
5C
102
{ACAD_REACTORS
330
47
102
}
330
47
100
AcDbScale
 70
     0
300
1/16" = 1'-0"
140
0.0625
141
12.0
290
     0
  0
SCALE
  5
5D
102
{ACAD_REACTORS
330
47
102
}
330
47
100
AcDbScale
 70
     0
300
3/32" = 1'-0"
140
0.09375
141
12.0
290
     0
  0
SCALE
  5
5E
102
{ACAD_REACTORS
330
47
102
}
330
47
100
AcDbScale
 70
     0
300
1/8" = 1'-0"
140
0.125
141
12.0
290
     0
  0
SCALE
  5
5F
102
{ACAD_REACTORS
330
47
102
}
330
47
100
AcDbScale
 70
     0
300
3/16" = 1'-0"
140
0.1875
141
12.0
290
     0
  0
SCALE
  5
60
102
{ACAD_REACTORS
330
47
102
}
330
47
100
AcDbScale
 70
     0
300
1/4" = 1'-0"
140
0.25
141
12.0
290
     0
  0
SCALE
  5
61
102
{ACAD_REACTORS
330
47
102
}
330
47
100
AcDbScale
 70
     0
300
3/8" = 1'-0"
140
0.375
141
12.0
290
     0
  0
SCALE
  5
62
102
{ACAD_REACTORS
330
47
102
}
330
47
100
AcDbScale
 70
     0
300
1/2" = 1'-0"
140
0.5
141
12.0
290
     0
  0
SCALE
  5
63
102
{ACAD_REACTORS
330
47
102
}
330
47
100
AcDbScale
 70
     0
300
3/4" = 1'-0"
140
0.75
141
12.0
290
     0
  0
SCALE
  5
64
102
{ACAD_REACTORS
330
47
102
}
330
47
100
AcDbScale
 70
     0
300
1" = 1'-0"
140
1.0
141
12.0
290
     0
  0
SCALE
  5
65
102
{ACAD_REACTORS
330
47
102
}
330
47
100
AcDbScale
 70
     0
300
1-1/2" = 1'-0"
140
1.5
141
12.0
290
     0
  0
SCALE
  5
66
102
{ACAD_REACTORS
330
47
102
}
330
47
100
AcDbScale
 70
     0
300
3" = 1'-0"
140
3.0
141
12.0
290
     0
  0
SCALE
  5
67
102
{ACAD_REACTORS
330
47
102
}
330
47
100
AcDbScale
 70
     0
300
6" = 1'-0"
140
6.0
141
12.0
290
     0
  0
SCALE
  5
68
102
{ACAD_REACTORS
330
47
102
}
330
47
100
AcDbScale
 70
     0
300
1'-0" = 1'-0"
140
12.0
141
12.0
290
     0
  0
ENDSEC
  0
EOF
