  0
SECTION
  2
HEADER
  9
$ACADVER
  1
AC1015
  9
$ACADMAINTVER
 70
     6
  9
$DWGCODEPAGE
  3
ANSI_949
  9
$INSBASE
 10
0.0
 20
0.0
 30
0.0
  9
$EXTMIN
 10
-65.80957504232349
 20
-49.97073246008785
 30
0.0
  9
$EXTMAX
 10
117.3750928360494
 20
33.1634104402427
 30
0.0
  9
$LIMMIN
 10
0.0
 20
0.0
  9
$LIMMAX
 10
420.0
 20
297.0
  9
$ORTHOMODE
 70
     0
  9
$REGENMODE
 70
     1
  9
$FILLMODE
 70
     1
  9
$QTEXTMODE
 70
     0
  9
$MIRRTEXT
 70
     1
  9
$LTSCALE
 40
1.0
  9
$ATTMODE
 70
     1
  9
$TEXTSIZE
 40
3.5
  9
$TRACEWID
 40
1.0
  9
$TEXTSTYLE
  7
Standard
  9
$CLAYER
  8
0
  9
$CELTYPE
  6
ByLayer
  9
$CECOLOR
 62
   256
  9
$CELTSCALE
 40
1.0
  9
$DISPSILH
 70
     0
  9
$DIMSCALE
 40
1.0
  9
$DIMASZ
 40
3.302
  9
$DIMEXO
 40
1.0
  9
$DIMDLI
 40
3.75
  9
$DIMRND
 40
0.0
  9
$DIMDLE
 40
0.0
  9
$DIMEXE
 40
1.0
  9
$DIMTP
 40
0.0
  9
$DIMTM
 40
0.0
  9
$DIMTXT
 40
3.5
  9
$DIMCEN
 40
2.5
  9
$DIMTSZ
 40
0.0
  9
$DIMTOL
 70
     0
  9
$DIMLIM
 70
     0
  9
$DIMTIH
 70
     1
  9
$DIMTOH
 70
     1
  9
$DIMSE1
 70
     0
  9
$DIMSE2
 70
     0
  9
$DIMTAD
 70
     1
  9
$DIMZIN
 70
     0
  9
$DIMBLK
  1

  9
$DIMASO
 70
     1
  9
$DIMSHO
 70
     1
  9
$DIMPOST
  1

  9
$DIMAPOST
  1

  9
$DIMALT
 70
     0
  9
$DIMALTD
 70
     3
  9
$DIMALTF
 40
0.0393700787401575
  9
$DIMLFAC
 40
1.0
  9
$DIMTOFL
 70
     1
  9
$DIMTVP
 40
0.0
  9
$DIMTIX
 70
     0
  9
$DIMSOXD
 70
     0
  9
$DIMSAH
 70
     0
  9
$DIMBLK1
  1

  9
$DIMBLK2
  1

  9
$DIMSTYLE
  2
ISO-25
  9
$DIMCLRD
 70
     0
  9
$DIMCLRE
 70
     0
  9
$DIMCLRT
 70
     0
  9
$DIMTFAC
 40
1.0
  9
$DIMGAP
 40
1.524
  9
$DIMJUST
 70
     0
  9
$DIMSD1
 70
     0
  9
$DIMSD2
 70
     0
  9
$DIMTOLJ
 70
     0
  9
$DIMTZIN
 70
     0
  9
$DIMALTZ
 70
     0
  9
$DIMALTTZ
 70
     0
  9
$DIMUPT
 70
     0
  9
$DIMDEC
 70
     2
  9
$DIMTDEC
 70
     2
  9
$DIMALTU
 70
     2
  9
$DIMALTTD
 70
     3
  9
$DIMTXSTY
  7
Standard
  9
$DIMAUNIT
 70
     0
  9
$DIMADEC
 70
     2
  9
$DIMALTRND
 40
0.0
  9
$DIMAZIN
 70
     0
  9
$DIMDSEP
 70
    44
  9
$DIMATFIT
 70
     3
  9
$DIMFRAC
 70
     0
  9
$DIMLDRBLK
  1

  9
$DIMLUNIT
 70
     2
  9
$DIMLWD
 70
    -2
  9
$DIMLWE
 70
    -2
  9
$DIMTMOVE
 70
     0
  9
$LUNITS
 70
     2
  9
$LUPREC
 70
     2
  9
$SKETCHINC
 40
1.0
  9
$FILLETRAD
 40
10.0
  9
$AUNITS
 70
     0
  9
$AUPREC
 70
     2
  9
$MENU
  1
.
  9
$ELEVATION
 40
0.0
  9
$PELEVATION
 40
0.0
  9
$THICKNESS
 40
0.0
  9
$LIMCHECK
 70
     0
  9
$CHAMFERA
 40
0.0
  9
$CHAMFERB
 40
0.0
  9
$CHAMFERC
 40
0.0
  9
$CHAMFERD
 40
0.0
  9
$SKPOLY
 70
     0
  9
$TDCREATE
 40
2458262.551867373
  9
$TDUCREATE
 40
2458262.176867373
  9
$TDUPDATE
 40
2458266.560332164
  9
$TDUUPDATE
 40
2458266.185332164
  9
$TDINDWG
 40
0.0015018056
  9
$TDUSRTIMER
 40
2458266.183830393
  9
$USRTIMER
 70
     1
  9
$ANGBASE
 50
0.0
  9
$ANGDIR
 70
     0
  9
$PDMODE
 70
     0
  9
$PDSIZE
 40
-1.0
  9
$PLINEWID
 40
0.0
  9
$SPLFRAME
 70
     0
  9
$SPLINETYPE
 70
     6
  9
$SPLINESEGS
 70
     8
  9
$HANDSEED
  5
14A
  9
$SURFTAB1
 70
     6
  9
$SURFTAB2
 70
     6
  9
$SURFTYPE
 70
     6
  9
$SURFU
 70
     6
  9
$SURFV
 70
     6
  9
$UCSBASE
  2

  9
$UCSNAME
  2

  9
$UCSORG
 10
0.0
 20
0.0
 30
0.0
  9
$UCSXDIR
 10
1.0
 20
0.0
 30
0.0
  9
$UCSYDIR
 10
0.0
 20
1.0
 30
0.0
  9
$UCSORTHOREF
  2

  9
$UCSORTHOVIEW
 70
     0
  9
$UCSORGTOP
 10
0.0
 20
0.0
 30
0.0
  9
$UCSORGBOTTOM
 10
0.0
 20
0.0
 30
0.0
  9
$UCSORGLEFT
 10
0.0
 20
0.0
 30
0.0
  9
$UCSORGRIGHT
 10
0.0
 20
0.0
 30
0.0
  9
$UCSORGFRONT
 10
0.0
 20
0.0
 30
0.0
  9
$UCSORGBACK
 10
0.0
 20
0.0
 30
0.0
  9
$PUCSBASE
  2

  9
$PUCSNAME
  2

  9
$PUCSORG
 10
0.0
 20
0.0
 30
0.0
  9
$PUCSXDIR
 10
1.0
 20
0.0
 30
0.0
  9
$PUCSYDIR
 10
0.0
 20
1.0
 30
0.0
  9
$PUCSORTHOREF
  2

  9
$PUCSORTHOVIEW
 70
     0
  9
$PUCSORGTOP
 10
0.0
 20
0.0
 30
0.0
  9
$PUCSORGBOTTOM
 10
0.0
 20
0.0
 30
0.0
  9
$PUCSORGLEFT
 10
0.0
 20
0.0
 30
0.0
  9
$PUCSORGRIGHT
 10
0.0
 20
0.0
 30
0.0
  9
$PUCSORGFRONT
 10
0.0
 20
0.0
 30
0.0
  9
$PUCSORGBACK
 10
0.0
 20
0.0
 30
0.0
  9
$USERI1
 70
     0
  9
$USERI2
 70
     0
  9
$USERI3
 70
     0
  9
$USERI4
 70
     0
  9
$USERI5
 70
     0
  9
$USERR1
 40
0.0
  9
$USERR2
 40
0.0
  9
$USERR3
 40
0.0
  9
$USERR4
 40
0.0
  9
$USERR5
 40
0.0
  9
$WORLDVIEW
 70
     1
  9
$SHADEDGE
 70
     3
  9
$SHADEDIF
 70
    70
  9
$TILEMODE
 70
     1
  9
$MAXACTVP
 70
    64
  9
$PINSBASE
 10
0.0
 20
0.0
 30
0.0
  9
$PLIMCHECK
 70
     0
  9
$PEXTMIN
 10
1.000000000000000E+20
 20
1.000000000000000E+20
 30
1.000000000000000E+20
  9
$PEXTMAX
 10
-1.000000000000000E+20
 20
-1.000000000000000E+20
 30
-1.000000000000000E+20
  9
$PLIMMIN
 10
0.0
 20
0.0
  9
$PLIMMAX
 10
0.0
 20
0.0
  9
$UNITMODE
 70
     0
  9
$VISRETAIN
 70
     1
  9
$PLINEGEN
 70
     0
  9
$PSLTSCALE
 70
     1
  9
$TREEDEPTH
 70
  3020
  9
$CMLSTYLE
  2
Standard
  9
$CMLJUST
 70
     0
  9
$CMLSCALE
 40
20.0
  9
$PROXYGRAPHICS
 70
     1
  9
$MEASUREMENT
 70
     1
  9
$CELWEIGHT
370
    -1
  9
$ENDCAPS
280
     0
  9
$JOINSTYLE
280
     0
  9
$LWDISPLAY
290
     1
  9
$INSUNITS
 70
     4
  9
$HYPERLINKBASE
  1

  9
$STYLESHEET
  1

  9
$XEDIT
290
     1
  9
$CEPSNTYPE
380
     0
  9
$PSTYLEMODE
290
     1
  9
$FINGERPRINTGUID
  2
{B3C6063C-53FC-4E24-B6FC-4A33FEC1D418}
  9
$VERSIONGUID
  2
{FAEB1C32-E019-11D5-929B-00C0DF256EC4}
  9
$EXTNAMES
290
     1
  9
$PSVPSCALE
 40
0.0
  9
$OLESTARTUP
290
     0
  0
ENDSEC
  0
SECTION
  2
CLASSES
  0
CLASS
  1
ACDBDICTIONARYWDFLT
  2
AcDbDictionaryWithDefault
  3
ObjectDBX Classes
 90
        0
280
     0
281
     0
  0
CLASS
  1
VISUALSTYLE
  2
AcDbVisualStyle
  3
ObjectDBX Classes
 90
     4095
280
     0
281
     0
  0
CLASS
  1
MATERIAL
  2
AcDbMaterial
  3
ObjectDBX Classes
 90
     1153
280
     0
281
     0
  0
CLASS
  1
SCALE
  2
AcDbScale
  3
ObjectDBX Classes
 90
     1153
280
     0
281
     0
  0
CLASS
  1
SUN
  2
AcDbSun
  3
SCENEOE
 90
     1153
280
     0
281
     0
  0
CLASS
  1
ACDBPLACEHOLDER
  2
AcDbPlaceHolder
  3
ObjectDBX Classes
 90
        0
280
     0
281
     0
  0
CLASS
  1
LAYOUT
  2
AcDbLayout
  3
ObjectDBX Classes
 90
        0
280
     0
281
     0
  0
CLASS
  1
TABLESTYLE
  2
AcDbTableStyle
  3
ObjectDBX Classes
 90
     4095
280
     0
281
     0
  0
CLASS
  1
MLEADERSTYLE
  2
AcDbMLeaderStyle
  3
ACDB_MLEADERSTYLE_CLASS
 90
     4095
280
     0
281
     0
  0
CLASS
  1
RASTERVARIABLES
  2
AcDbRasterVariables
  3
ISM
 90
        0
280
     0
281
     0
  0
ENDSEC
  0
SECTION
  2
TABLES
  0
TABLE
  2
VPORT
  5
8
330
0
100
AcDbSymbolTable
 70
     1
  0
VPORT
  5
29
330
8
100
AcDbSymbolTableRecord
100
AcDbViewportTableRecord
  2
*Active
 70
     0
 10
0.0
 20
0.0
 11
1.0
 21
1.0
 12
25.78275889686297
 22
-8.40366100992258
 13
0.0
 23
0.0
 14
10.0
 24
10.0
 15
10.0
 25
10.0
 16
0.0
 26
0.0
 36
1.0
 17
0.0
 27
0.0
 37
0.0
 40
162.1307529110066
 41
1.152454780361757
 42
50.0
 43
0.0
 44
0.0
 50
0.0
 51
0.0
 71
    16
 72
  2000
 73
     1
 74
     3
 75
     0
 76
     0
 77
     0
 78
     0
281
     0
 65
     1
110
0.0
120
0.0
130
0.0
111
1.0
121
0.0
131
0.0
112
0.0
122
1.0
132
0.0
 79
     0
146
0.0
  0
ENDTAB
  0
TABLE
  2
LTYPE
  5
5
330
0
100
AcDbSymbolTable
 70
     6
  0
LTYPE
  5
14
330
5
100
AcDbSymbolTableRecord
100
AcDbLinetypeTableRecord
  2
ByBlock
 70
     0
  3

 72
    65
 73
     0
 40
0.0
  0
LTYPE
  5
15
330
5
100
AcDbSymbolTableRecord
100
AcDbLinetypeTableRecord
  2
ByLayer
 70
     0
  3

 72
    65
 73
     0
 40
0.0
  0
LTYPE
  5
16
330
5
100
AcDbSymbolTableRecord
100
AcDbLinetypeTableRecord
  2
Continuous
 70
     0
  3
Solid line
 72
    65
 73
     0
 40
0.0
  0
LTYPE
  5
6A
330
5
100
AcDbSymbolTableRecord
100
AcDbLinetypeTableRecord
  2
HIDDEN
 70
     0
  3
Hidden __ __ __ __ __ __ __ __ __ __ __ __ __ __
 72
    65
 73
     2
 40
1.905
 49
1.27
 74
     0
 49
-0.635
 74
     0
  0
LTYPE
  5
6B
330
5
100
AcDbSymbolTableRecord
100
AcDbLinetypeTableRecord
  2
PHANTOM
 70
     0
  3
Phantom ______  __  __  ______  __  __  ______
 72
    65
 73
     6
 40
12.7
 49
6.35
 74
     0
 49
-1.27
 74
     0
 49
1.27
 74
     0
 49
-1.27
 74
     0
 49
1.27
 74
     0
 49
-1.27
 74
     0
  0
LTYPE
  5
6C
330
5
100
AcDbSymbolTableRecord
100
AcDbLinetypeTableRecord
  2
CENTER
 70
     0
  3
Center ____ _ ____ _ ____ _ ____ _ ____ _ ____
 72
    65
 73
     4
 40
10.16
 49
6.35
 74
     0
 49
-1.27
 74
     0
 49
1.27
 74
     0
 49
-1.27
 74
     0
  0
LTYPE
  5
6D
330
5
100
AcDbSymbolTableRecord
100
AcDbLinetypeTableRecord
  2
CENTERX2
 70
     0
  3
Center (2x) ________  __  ________  __  _____
 72
    65
 73
     4
 40
20.32
 49
12.7
 74
     0
 49
-2.54
 74
     0
 49
2.54
 74
     0
 49
-2.54
 74
     0
  0
LTYPE
  5
6E
330
5
100
AcDbSymbolTableRecord
100
AcDbLinetypeTableRecord
  2
DOT2
 70
     0
  3
Dot (.5x) ........................................
 72
    65
 73
     2
 40
0.635
 49
0.0
 74
     0
 49
-0.635
 74
     0
  0
ENDTAB
  0
TABLE
  2
LAYER
  5
2
330
0
100
AcDbSymbolTable
 70
    17
  0
LAYER
  5
10
330
2
100
AcDbSymbolTableRecord
100
AcDbLayerTableRecord
  2
0
 70
     0
 62
     7
  6
Continuous
370
    -3
390
F
  0
LAYER
  5
6F
330
2
100
AcDbSymbolTableRecord
100
AcDbLayerTableRecord
  2
FORMAT
 70
     0
 62
     2
  6
Continuous
370
    -3
390
F
  0
LAYER
  5
70
330
2
100
AcDbSymbolTableRecord
100
AcDbLayerTableRecord
  2
외형선
 70
     0
 62
   100
  6
Continuous
370
    30
390
F
  0
LAYER
  5
71
330
2
100
AcDbSymbolTableRecord
100
AcDbLayerTableRecord
  2
숨은선
 70
     0
 62
     2
  6
HIDDEN
370
    15
390
F
  0
LAYER
  5
72
330
2
100
AcDbSymbolTableRecord
100
AcDbLayerTableRecord
  2
중심선
 70
     0
 62
     1
  6
CENTERX2
370
    -3
390
F
  0
LAYER
  5
73
330
2
100
AcDbSymbolTableRecord
100
AcDbLayerTableRecord
  2
파단선
 70
     0
 62
     4
  6
Continuous
370
    -3
390
F
  0
LAYER
  5
74
330
2
100
AcDbSymbolTableRecord
100
AcDbLayerTableRecord
  2
해칭선
 70
     0
 62
     4
  6
Continuous
370
    -3
390
F
  0
LAYER
  5
75
330
2
100
AcDbSymbolTableRecord
100
AcDbLayerTableRecord
  2
가는실선
 70
     0
 62
     4
  6
Continuous
370
    -3
390
F
  0
LAYER
  5
76
330
2
100
AcDbSymbolTableRecord
100
AcDbLayerTableRecord
  2
치수_보조선
 70
     0
 62
     4
  6
Continuous
370
    -3
390
F
  0
LAYER
  5
77
330
2
100
AcDbSymbolTableRecord
100
AcDbLayerTableRecord
  2
치수문자_일반주서
 70
     0
 62
     7
  6
Continuous
370
    15
390
F
  0
LAYER
  5
78
330
2
100
AcDbSymbolTableRecord
100
AcDbLayerTableRecord
  2
개별주서
 70
     0
 62
   100
  6
Continuous
370
    30
390
F
  0
LAYER
  5
79
330
2
100
AcDbSymbolTableRecord
100
AcDbLayerTableRecord
  2
중간선
 70
     0
 62
     2
  6
Continuous
370
    15
390
F
  0
LAYER
  5
7A
330
2
100
AcDbSymbolTableRecord
100
AcDbLayerTableRecord
  2
윤곽선
 70
     0
 62
     3
  6
Continuous
370
    40
390
F
  0
LAYER
  5
7B
330
2
100
AcDbSymbolTableRecord
100
AcDbLayerTableRecord
  2
중심마크
 70
     0
 62
   100
  6
Continuous
370
    30
390
F
  0
LAYER
  5
7C
330
2
100
AcDbSymbolTableRecord
100
AcDbLayerTableRecord
  2
가상선
 70
     0
 62
     4
  6
PHANTOM
370
    -3
390
F
  0
LAYER
  5
7D
330
2
100
AcDbSymbolTableRecord
100
AcDbLayerTableRecord
  2
특수지정선
 70
     0
 62
     5
  6
CENTERX2
370
    60
390
F
  0
LAYER
  5
13B
330
2
100
AcDbSymbolTableRecord
100
AcDbLayerTableRecord
  2
Defpoints
 70
     0
 62
     7
  6
Continuous
290
     0
370
    -3
390
F
  0
ENDTAB
  0
TABLE
  2
STYLE
  5
3
330
0
100
AcDbSymbolTable
 70
     2
  0
STYLE
  5
11
330
3
100
AcDbSymbolTableRecord
100
AcDbTextStyleTableRecord
  2
Standard
 70
     0
 40
0.0
 41
1.0
 50
0.0
 71
     0
 42
3.5
  3
txt
  4

  0
STYLE
  5
93
330
3
100
AcDbSymbolTableRecord
100
AcDbTextStyleTableRecord
  2
SLDTEXTSTYLE0
 70
     0
 40
0.0
 41
0.75
 50
0.0
 71
     0
 42
3.5
  3
TXT
  4

  0
ENDTAB
  0
TABLE
  2
VIEW
  5
6
330
0
100
AcDbSymbolTable
 70
     0
  0
ENDTAB
  0
TABLE
  2
UCS
  5
7
330
0
100
AcDbSymbolTable
 70
     0
  0
ENDTAB
  0
TABLE
  2
APPID
  5
9
330
0
100
AcDbSymbolTable
 70
     1
  0
APPID
  5
12
330
9
100
AcDbSymbolTableRecord
100
AcDbRegAppTableRecord
  2
ACAD
 70
     0
  0
ENDTAB
  0
TABLE
  2
DIMSTYLE
  5
A
330
0
100
AcDbSymbolTable
 70
     3
100
AcDbDimStyleTable
  0
DIMSTYLE
105
27
330
A
100
AcDbSymbolTableRecord
100
AcDbDimStyleTableRecord
  2
ISO-25
 70
     0
 41
2.5
 42
0.625
 43
3.75
 44
1.25
 73
     0
 74
     0
 77
     1
 78
     8
140
2.5
141
2.5
143
0.03937007874016
147
0.625
171
     3
172
     1
178
     0
271
     2
272
     2
274
     3
278
    44
283
     0
284
     8
340
11
  0
DIMSTYLE
105
E1
102
{ACAD_REACTORS
330
E0
330
103
102
}
330
A
100
AcDbSymbolTableRecord
100
AcDbDimStyleTableRecord
  2
SLDDIMSTYLE0
 70
     0
 41
3.302
 44
0.0
 45
0.000000001
 73
     0
 74
     0
 77
     1
 78
    12
 79
     3
140
3.5
147
0.875
172
     1
173
     1
178
     0
271
     2
272
     2
276
     2
284
    12
289
     0
340
93
  0
DIMSTYLE
105
EF
102
{ACAD_REACTORS
330
EE
330
F9
102
}
330
A
100
AcDbSymbolTableRecord
100
AcDbDimStyleTableRecord
  2
SLDDIMSTYLE1
 70
     0
 41
3.302
 44
0.0
 45
0.000000001
 73
     0
 74
     0
 77
     1
 78
    12
 79
     3
140
3.5
147
0.875
173
     1
178
     0
271
     2
272
     2
276
     2
284
    12
340
93
  0
ENDTAB
  0
TABLE
  2
BLOCK_RECORD
  5
1
330
0
100
AcDbSymbolTable
 70
     7
  0
BLOCK_RECORD
  5
1F
330
1
100
AcDbSymbolTableRecord
100
AcDbBlockTableRecord
  2
*Model_Space
340
22
  0
BLOCK_RECORD
  5
1B
330
1
100
AcDbSymbolTableRecord
100
AcDbBlockTableRecord
  2
*Paper_Space
340
1E
  0
BLOCK_RECORD
  5
23
330
1
100
AcDbSymbolTableRecord
100
AcDbBlockTableRecord
  2
*Paper_Space0
340
26
  0
BLOCK_RECORD
  5
7E
330
1
100
AcDbSymbolTableRecord
100
AcDbBlockTableRecord
  2
블럭10
340
0
102
{BLKREFS
331
D9
102
}
  0
BLOCK_RECORD
  5
E2
330
1
100
AcDbSymbolTableRecord
100
AcDbBlockTableRecord
  2
_D
340
0
  0
BLOCK_RECORD
  5
F0
330
1
100
AcDbSymbolTableRecord
100
AcDbBlockTableRecord
  2
_D_1
340
0
  0
BLOCK_RECORD
  5
FA
330
1
100
AcDbSymbolTableRecord
100
AcDbBlockTableRecord
  2
_D_2
340
0
  0
BLOCK_RECORD
  5
104
330
1
100
AcDbSymbolTableRecord
100
AcDbBlockTableRecord
  2
_D_3
340
0
  0
BLOCK_RECORD
  5
110
330
1
100
AcDbSymbolTableRecord
100
AcDbBlockTableRecord
  2
SW_DOWELSYMBOL_0
340
0
102
{BLKREFS
331
116
102
}
  0
ENDTAB
  0
ENDSEC
  0
SECTION
  2
BLOCKS
  0
BLOCK
  5
20
330
1F
100
AcDbEntity
  8
0
100
AcDbBlockBegin
  2
*Model_Space
 70
     0
 10
0.0
 20
0.0
 30
0.0
  3
*Model_Space
  1

  0
ENDBLK
  5
21
330
1F
100
AcDbEntity
  8
0
100
AcDbBlockEnd
  0
BLOCK
  5
1C
330
1B
100
AcDbEntity
 67
     1
  8
0
100
AcDbBlockBegin
  2
*Paper_Space
 70
     0
 10
0.0
 20
0.0
 30
0.0
  3
*Paper_Space
  1

  0
ENDBLK
  5
1D
330
1B
100
AcDbEntity
 67
     1
  8
0
100
AcDbBlockEnd
  0
BLOCK
  5
24
330
23
100
AcDbEntity
  8
0
100
AcDbBlockBegin
  2
*Paper_Space0
 70
     0
 10
0.0
 20
0.0
 30
0.0
  3
*Paper_Space0
  1

  0
ENDBLK
  5
25
330
23
100
AcDbEntity
  8
0
100
AcDbBlockEnd
  0
BLOCK
  5
7F
330
7E
100
AcDbEntity
  8
0
100
AcDbBlockBegin
  2
블럭10
 70
     2
 10
0.0
 20
0.0
 30
0.0
  3
블럭10
  1

  0
ELLIPSE
  5
81
330
7E
100
AcDbEntity
  8
중심선
100
AcDbEllipse
 10
20.54032771741204
 20
12.0471743016438
 30
0.0
 11
6.600054785286829
 21
-1.261213355974178E-13
 31
0.0
210
0.0
220
0.0
230
1.0
 40
0.636358354079598
 41
0.9219305317359503
 42
6.513795318482858
  0
ELLIPSE
  5
82
330
7E
100
AcDbEntity
  8
중심선
100
AcDbEllipse
 10
20.54032771746488
 20
12.04717430159265
 30
0.0
 11
3.960054785062283
 21
1.540847449632565E-10
 31
0.0
210
0.0
220
0.0
230
1.0
 40
0.3939339440162632
 41
1.131841032648279
 42
5.62031148352944
  0
LINE
  5
83
330
7E
100
AcDbEntity
  8
중심선
100
AcDbLine
 10
2.268634060543552
 20
16.24717430164393
 30
0.0
 11
5.714909304380834
 21
16.24717430164393
 31
0.0
  0
LINE
  5
84
330
7E
100
AcDbEntity
  8
중심선
100
AcDbLine
 10
5.245725140726316
 20
7.84717430164391
 30
0.0
 11
8.692000384563599
 21
7.84717430164391
 31
0.0
  0
LINE
  5
85
330
7E
100
AcDbEntity
  8
중심선
100
AcDbLine
 10
15.74043728645272
 20
16.24717430164393
 30
0.0
 11
8.692000384563599
 21
7.84717430164391
 31
0.0
  0
LINE
  5
86
330
7E
100
AcDbEntity
  8
중심선
100
AcDbLine
 10
0.1404042013395286
 20
13.71084872107135
 30
0.0
 11
3.58671253028996
 21
13.71088815037384
 31
0.0
  0
LINE
  5
87
330
7E
100
AcDbEntity
  8
중심선
100
AcDbLine
 10
2.750260043222114
 20
10.84717430164391
 30
0.0
 11
6.196535287059397
 21
10.84717430164391
 31
0.0
  0
LINE
  5
88
330
7E
100
AcDbEntity
  8
중심선
100
AcDbLine
 10
12.29416204261559
 20
16.24717430164393
 30
0.0
 11
5.245725140726316
 21
7.84717430164391
 31
0.0
  0
LINE
  5
89
330
7E
100
AcDbEntity
  8
중심선
100
AcDbLine
 10
10.72767329541681
 20
16.24717430164393
 30
0.0
 11
6.196535287059397
 21
10.84717430164391
 31
0.0
  0
LINE
  5
8A
330
7E
100
AcDbEntity
  8
중심선
100
AcDbLine
 10
7.28139805157953
 20
16.24717430164393
 30
0.0
 11
2.750260043222114
 21
10.84717430164391
 31
0.0
  0
LINE
  5
8B
330
7E
100
AcDbEntity
  8
중심선
100
AcDbLine
 10
5.714909304380834
 20
16.24717430164393
 30
0.0
 11
3.58671253028996
 21
13.71088815037384
 31
0.0
  0
LINE
  5
8C
330
7E
100
AcDbEntity
  8
중심선
100
AcDbLine
 10
2.268634060543552
 20
16.24717430164393
 30
0.0
 11
0.1404042013395286
 21
13.71084872107135
 31
0.0
  0
LINE
  5
8D
330
7E
100
AcDbEntity
  8
중심선
100
AcDbLine
 10
7.28139805157953
 20
16.24717430164393
 30
0.0
 11
10.72767329541681
 21
16.24717430164393
 31
0.0
  0
LINE
  5
8E
330
7E
100
AcDbEntity
  8
중심선
100
AcDbLine
 10
12.29416204261559
 20
16.24717430164393
 30
0.0
 11
15.74043728645272
 21
16.24717430164393
 31
0.0
  0
LINE
  5
8F
330
7E
100
AcDbEntity
  8
중심선
100
AcDbLine
 10
19.22036997980202
 20
11.08717430171403
 30
0.0
 11
23.66174974927406
 21
11.08717430171406
 31
0.0
  0
LINE
  5
90
330
7E
100
AcDbEntity
  8
중심선
100
AcDbLine
 10
19.22039502424796
 20
13.00717430171391
 30
0.0
 11
19.22036997980202
 21
11.08717430171403
 31
0.0
  0
LINE
  5
91
330
7E
100
AcDbEntity
  8
중심선
100
AcDbLine
 10
19.22039502424796
 20
13.00717430171391
 30
0.0
 11
26.96566020931264
 21
13.00717430171391
 31
0.0
  0
LINE
  5
92
330
7E
100
AcDbEntity
  8
중심선
100
AcDbLine
 10
22.22332737316547
 20
13.45928029700563
 30
0.0
 11
24.52862924686651
 21
15.39360700705356
 31
0.0
  0
ATTDEF
  5
94
330
7E
100
AcDbEntity
  8
FORMAT
 62
     2
100
AcDbText
 10
-16.11926103943555
 20
2.075366912832191
 30
0.0
 40
4.233333333333333
  1
SEME7016090E [ 2 FLUTE ]
 41
0.75
  7
SLDTEXTSTYLE0
 11
-16.11926103943555
 21
-0.0412997538344756
 31
0.0
100
AcDbAttributeDefinition
  3

  2
AUTOATTR0
 70
     0
 74
     1
  0
ENDBLK
  5
80
330
7E
100
AcDbEntity
  8
0
100
AcDbBlockEnd
  0
BLOCK
  5
E3
330
E2
100
AcDbEntity
  8
0
100
AcDbBlockBegin
  2
_D
 70
     0
 10
0.0
 20
0.0
 30
0.0
  3
_D
  1

  0
LINE
  5
E5
330
E2
100
AcDbEntity
  8
치수문자_일반주서
 62
     0
370
    -2
100
AcDbLine
 10
102.0625
 20
-7.999999999999661
 30
0.0
 11
116.8247595027161
 21
-7.999999999999606
 31
0.0
  0
LINE
  5
E6
330
E2
100
AcDbEntity
  8
치수문자_일반주서
 62
     0
370
    -2
100
AcDbLine
 10
102.0625
 20
8.000000000000334
 30
0.0
 11
116.824759502716
 21
8.000000000000389
 31
0.0
  0
LINE
  5
E7
330
E2
100
AcDbEntity
  8
치수문자_일반주서
 62
     0
370
    -2
100
AcDbLine
 10
116.8247595027161
 20
-7.999999999999606
 30
0.0
 11
116.824759502716
 21
22.4790000000004
 31
0.0
  0
LINE
  5
E8
330
E2
100
AcDbEntity
  8
치수문자_일반주서
 62
     0
370
    -2
100
AcDbLine
 10
116.8247595027161
 20
-7.999999999999606
 30
0.0
 11
116.824759502716
 21
8.000000000000389
 31
0.0
  0
LINE
  5
E9
330
E2
100
AcDbEntity
  8
치수문자_일반주서
 62
     0
370
    -2
100
AcDbLine
 10
116.8247595027161
 20
-11.30199999999961
 30
0.0
 11
116.8247595027161
 21
-14.6039999999996
 31
0.0
  0
LINE
  5
EA
330
E2
100
AcDbEntity
  8
치수문자_일반주서
 62
     0
370
    -2
100
AcDbLine
 10
116.824759502716
 20
11.30200000000039
 30
0.0
 11
116.824759502716
 21
14.60400000000039
 31
0.0
  0
SOLID
  5
EB
330
E2
100
AcDbEntity
  8
치수문자_일반주서
 62
     0
100
AcDbTrace
 10
117.3750928360494
 20
-11.3019999999996
 30
0.0
 11
116.2744261693828
 21
-11.30199999999961
 31
0.0
 12
116.8247595027161
 22
-7.999999999999606
 32
0.0
 13
116.8247595027161
 23
-7.999999999999606
 33
0.0
  0
SOLID
  5
EC
330
E2
100
AcDbEntity
  8
치수문자_일반주서
 62
     0
100
AcDbTrace
 10
116.2744261693827
 20
11.30200000000039
 30
0.0
 11
117.3750928360494
 21
11.30200000000039
 31
0.0
 12
116.824759502716
 22
8.000000000000389
 32
0.0
 13
116.824759502716
 23
8.000000000000389
 33
0.0
  0
MTEXT
  5
ED
330
E2
100
AcDbEntity
  8
치수문자_일반주서
 62
     0
100
AcDbMText
 10
112.449759502716
 20
18.54150000000038
 30
0.0
 40
3.5
 41
0.0
 71
     2
 72
     1
  1
\A1;%%c16
  7
SLDTEXTSTYLE0
 11
-3.552713678800503E-15
 21
1.0
 31
0.0
 73
     1
 44
1.0
  0
POINT
  5
145
330
E2
100
AcDbEntity
  8
Defpoints
 62
     0
100
AcDbPoint
 10
102.0
 20
-7.999999999999661
 30
0.0
  0
POINT
  5
146
330
E2
100
AcDbEntity
  8
Defpoints
 62
     0
100
AcDbPoint
 10
102.0
 20
8.000000000000334
 30
0.0
  0
POINT
  5
147
330
E2
100
AcDbEntity
  8
Defpoints
 62
     0
100
AcDbPoint
 10
116.824759502716
 20
8.000000000000389
 30
0.0
  0
ENDBLK
  5
E4
330
E2
100
AcDbEntity
  8
0
100
AcDbBlockEnd
  0
BLOCK
  5
F1
330
F0
100
AcDbEntity
  8
0
100
AcDbBlockBegin
  2
_D_1
 70
     0
 10
0.0
 20
0.0
 30
0.0
  3
_D_1
  1

  0
LINE
  5
F3
330
F0
100
AcDbEntity
  8
치수문자_일반주서
 62
     0
370
    -2
100
AcDbLine
 10
-47.99999999999998
 20
7.062500000000001
 30
0.0
 11
-47.99999999999998
 21
28.7884104402427
 31
0.0
  0
LINE
  5
F4
330
F0
100
AcDbEntity
  8
치수문자_일반주서
 62
     0
370
    -2
100
AcDbLine
 10
102.0
 20
8.062500000000334
 30
0.0
 11
102.0
 21
28.7884104402427
 31
0.0
  0
LINE
  5
F5
330
F0
100
AcDbEntity
  8
치수문자_일반주서
 62
     0
370
    -2
100
AcDbLine
 10
-44.69799999999998
 20
28.7884104402427
 30
0.0
 11
98.69800000000001
 21
28.7884104402427
 31
0.0
  0
SOLID
  5
F6
330
F0
100
AcDbEntity
  8
치수문자_일반주서
 62
     0
100
AcDbTrace
 10
-44.69799999999998
 20
29.33874377357603
 30
0.0
 11
-44.69799999999998
 21
28.23807710690937
 31
0.0
 12
-47.99999999999998
 22
28.7884104402427
 32
0.0
 13
-47.99999999999998
 23
28.7884104402427
 33
0.0
  0
SOLID
  5
F7
330
F0
100
AcDbEntity
  8
치수문자_일반주서
 62
     0
100
AcDbTrace
 10
98.69800000000001
 20
28.23807710690937
 30
0.0
 11
98.69800000000001
 21
29.33874377357603
 31
0.0
 12
102.0
 22
28.7884104402427
 32
0.0
 13
102.0
 23
28.7884104402427
 33
0.0
  0
MTEXT
  5
F8
330
F0
100
AcDbEntity
  8
치수문자_일반주서
 62
     0
100
AcDbMText
 10
27.00000000000002
 20
33.1634104402427
 30
0.0
 40
3.5
 41
0.0
 71
     2
 72
     1
  1
\A1;150
  7
SLDTEXTSTYLE0
 73
     1
 44
1.0
  0
POINT
  5
13C
330
F0
100
AcDbEntity
  8
Defpoints
 62
     0
100
AcDbPoint
 10
-47.99999999999998
 20
7.000000000000001
 30
0.0
  0
POINT
  5
13D
330
F0
100
AcDbEntity
  8
Defpoints
 62
     0
100
AcDbPoint
 10
102.0
 20
8.000000000000334
 30
0.0
  0
POINT
  5
13E
330
F0
100
AcDbEntity
  8
Defpoints
 62
     0
100
AcDbPoint
 10
102.0
 20
28.7884104402427
 30
0.0
  0
ENDBLK
  5
F2
330
F0
100
AcDbEntity
  8
0
100
AcDbBlockEnd
  0
BLOCK
  5
FB
330
FA
100
AcDbEntity
  8
0
100
AcDbBlockBegin
  2
_D_2
 70
     0
 10
0.0
 20
0.0
 30
0.0
  3
_D_2
  1

  0
LINE
  5
FD
330
FA
100
AcDbEntity
  8
치수문자_일반주서
 62
     0
370
    -2
100
AcDbLine
 10
12.00000000000002
 20
7.80750385022582
 30
0.0
 11
12.00000000000001
 21
21.0920016563934
 31
0.0
  0
LINE
  5
FE
330
FA
100
AcDbEntity
  8
치수문자_일반주서
 62
     0
370
    -2
100
AcDbLine
 10
102.0
 20
8.062500000000334
 30
0.0
 11
102.0
 21
21.0920016563934
 31
0.0
  0
LINE
  5
FF
330
FA
100
AcDbEntity
  8
치수문자_일반주서
 62
     0
370
    -2
100
AcDbLine
 10
15.30200000000001
 20
21.0920016563934
 30
0.0
 11
98.69800000000001
 21
21.0920016563934
 31
0.0
  0
SOLID
  5
100
330
FA
100
AcDbEntity
  8
치수문자_일반주서
 62
     0
100
AcDbTrace
 10
15.30200000000001
 20
21.64233498972673
 30
0.0
 11
15.30200000000001
 21
20.54166832306007
 31
0.0
 12
12.00000000000001
 22
21.0920016563934
 32
0.0
 13
12.00000000000001
 23
21.0920016563934
 33
0.0
  0
SOLID
  5
101
330
FA
100
AcDbEntity
  8
치수문자_일반주서
 62
     0
100
AcDbTrace
 10
98.69800000000001
 20
20.54166832306007
 30
0.0
 11
98.69800000000001
 21
21.64233498972673
 31
0.0
 12
102.0
 22
21.0920016563934
 32
0.0
 13
102.0
 23
21.0920016563934
 33
0.0
  0
MTEXT
  5
102
330
FA
100
AcDbEntity
  8
치수문자_일반주서
 62
     0
100
AcDbMText
 10
56.99999999999999
 20
25.4670016563934
 30
0.0
 40
3.5
 41
0.0
 71
     2
 72
     1
  1
\A1;90
  7
SLDTEXTSTYLE0
 73
     1
 44
1.0
  0
POINT
  5
13F
330
FA
100
AcDbEntity
  8
Defpoints
 62
     0
100
AcDbPoint
 10
12.00000000000002
 20
7.74500385022582
 30
0.0
  0
POINT
  5
140
330
FA
100
AcDbEntity
  8
Defpoints
 62
     0
100
AcDbPoint
 10
102.0
 20
8.000000000000334
 30
0.0
  0
POINT
  5
141
330
FA
100
AcDbEntity
  8
Defpoints
 62
     0
100
AcDbPoint
 10
102.0
 20
21.0920016563934
 30
0.0
  0
ENDBLK
  5
FC
330
FA
100
AcDbEntity
  8
0
100
AcDbBlockEnd
  0
BLOCK
  5
105
330
104
100
AcDbEntity
  8
0
100
AcDbBlockBegin
  2
_D_3
 70
     0
 10
0.0
 20
0.0
 30
0.0
  3
_D_3
  1

  0
LINE
  5
107
330
104
100
AcDbEntity
  8
치수문자_일반주서
 62
     0
370
    -2
100
AcDbLine
 10
-47.06249999999997
 20
8.0
 30
0.0
 11
-61.43457504232343
 21
7.999999999999947
 31
0.0
  0
LINE
  5
108
330
104
100
AcDbEntity
  8
치수문자_일반주서
 62
     0
370
    -2
100
AcDbLine
 10
-47.06249999999997
 20
-7.999999999999996
 30
0.0
 11
-61.43457504232337
 21
-8.00000000000005
 31
0.0
  0
LINE
  5
109
330
104
100
AcDbEntity
  8
치수문자_일반주서
 62
     0
370
    -2
100
AcDbLine
 10
-61.43457504232343
 20
7.999999999999947
 30
0.0
 11
-61.43457504232348
 21
22.47899999999995
 31
0.0
  0
LINE
  5
10A
330
104
100
AcDbEntity
  8
치수문자_일반주서
 62
     0
370
    -2
100
AcDbLine
 10
-61.43457504232343
 20
7.999999999999947
 30
0.0
 11
-61.43457504232337
 21
-8.00000000000005
 31
0.0
  0
LINE
  5
10B
330
104
100
AcDbEntity
  8
치수문자_일반주서
 62
     0
370
    -2
100
AcDbLine
 10
-61.43457504232344
 20
11.30199999999995
 30
0.0
 11
-61.43457504232346
 21
14.60399999999995
 31
0.0
  0
LINE
  5
10C
330
104
100
AcDbEntity
  8
치수문자_일반주서
 62
     0
370
    -2
100
AcDbLine
 10
-61.43457504232336
 20
-11.30200000000005
 30
0.0
 11
-61.43457504232335
 21
-14.60400000000005
 31
0.0
  0
SOLID
  5
10D
330
104
100
AcDbEntity
  8
치수문자_일반주서
 62
     0
100
AcDbTrace
 10
-61.98490837565678
 20
11.30199999999994
 30
0.0
 11
-60.88424170899011
 21
11.30199999999995
 31
0.0
 12
-61.43457504232343
 22
7.999999999999947
 32
0.0
 13
-61.43457504232343
 23
7.999999999999947
 33
0.0
  0
SOLID
  5
10E
330
104
100
AcDbEntity
  8
치수문자_일반주서
 62
     0
100
AcDbTrace
 10
-60.88424170899003
 20
-11.30200000000005
 30
0.0
 11
-61.98490837565669
 21
-11.30200000000005
 31
0.0
 12
-61.43457504232337
 22
-8.00000000000005
 32
0.0
 13
-61.43457504232337
 23
-8.00000000000005
 33
0.0
  0
MTEXT
  5
10F
330
104
100
AcDbEntity
  8
치수문자_일반주서
 62
     0
100
AcDbMText
 10
-65.80957504232347
 20
18.54149999999993
 30
0.0
 40
3.5
 41
0.0
 71
     2
 72
     1
  1
\A1;%%c16
  7
SLDTEXTSTYLE0
 11
-3.552713678800502E-15
 21
1.0
 31
0.0
 73
     1
 44
1.0
  0
POINT
  5
142
330
104
100
AcDbEntity
  8
Defpoints
 62
     0
100
AcDbPoint
 10
-46.99999999999997
 20
8.0
 30
0.0
  0
POINT
  5
143
330
104
100
AcDbEntity
  8
Defpoints
 62
     0
100
AcDbPoint
 10
-46.99999999999997
 20
-7.999999999999996
 30
0.0
  0
POINT
  5
144
330
104
100
AcDbEntity
  8
Defpoints
 62
     0
100
AcDbPoint
 10
-61.43457504232337
 20
-8.00000000000005
 30
0.0
  0
ENDBLK
  5
106
330
104
100
AcDbEntity
  8
0
100
AcDbBlockEnd
  0
BLOCK
  5
111
330
110
100
AcDbEntity
  8
0
100
AcDbBlockBegin
  2
SW_DOWELSYMBOL_0
 70
     0
 10
0.0
 20
0.0
 30
0.0
  3
SW_DOWELSYMBOL_0
  1

  0
CIRCLE
  5
113
330
110
100
AcDbEntity
  8
외형선
 62
     0
100
AcDbCircle
 10
0.0
 20
0.0
 30
0.0
 40
3.000000000000004
  0
HATCH
  5
114
330
110
100
AcDbEntity
  8
0
  6
Continuous
 62
     0
370
    30
100
AcDbHatch
 10
0.0
 20
0.0
 30
0.0
210
0.0
220
0.0
230
1.0
  2
SOLID
 70
     1
 71
     0
 91
        1
 92
        0
 93
        3
 72
     2
 10
0.0000000000000104
 20
0.0
 40
3.000000000000004
 50
0.0
 51
90.0
 73
     1
 72
     1
 10
0.0000000000000104
 20
3.000000000000004
 11
0.0000000000000104
 21
0.0
 72
     1
 10
0.0000000000000104
 20
0.0
 11
3.000000000000015
 21
0.0
 97
        0
 75
     0
 76
     1
 98
        1
 10
0.0
 20
0.0
  0
HATCH
  5
115
330
110
100
AcDbEntity
  8
0
  6
Continuous
 62
     0
370
    30
100
AcDbHatch
 10
0.0
 20
0.0
 30
0.0
210
0.0
220
0.0
230
1.0
  2
SOLID
 70
     1
 71
     0
 91
        1
 92
        0
 93
        3
 72
     2
 10
0.0000000000000104
 20
0.0
 40
3.000000000000004
 50
180.0
 51
270.0000000000008
 73
     1
 72
     1
 10
0.0000000000000104
 20
-3.000000000000004
 11
0.0000000000000104
 21
0.0
 72
     1
 10
0.0000000000000104
 20
0.0
 11
-2.999999999999994
 21
0.0
 97
        0
 75
     0
 76
     1
 98
        1
 10
0.0
 20
0.0
  0
ENDBLK
  5
112
330
110
100
AcDbEntity
  8
0
100
AcDbBlockEnd
  0
ENDSEC
  0
SECTION
  2
ENTITIES
  0
SPLINE
  5
95
330
1F
100
AcDbEntity
  8
0
  6
Continuous
 62
     1
370
    15
100
AcDbSpline
210
0.0
220
0.0
230
1.0
 70
     8
 71
     3
 72
     9
 73
     5
 74
     0
 42
0.000000001
 43
0.00000001
 40
0.0
 40
0.0
 40
0.0
 40
0.0
 40
0.5039446102602798
 40
1.0
 40
1.0
 40
1.0
 40
1.0
 10
37.74196931849055
 20
2.050056124401275
 30
0.0
 10
37.36846643886026
 20
2.228329757104694
 30
0.0
 10
36.62730784320154
 20
2.582086160236666
 30
0.0
 10
35.8898001057121
 20
2.968348943675057
 30
0.0
 10
35.5239554175557
 20
3.159956679255538
 30
0.0
  0
SPLINE
  5
96
330
1F
100
AcDbEntity
  8
0
  6
Continuous
 62
     1
370
    15
100
AcDbSpline
210
0.0
220
0.0
230
1.0
 70
     8
 71
     3
 72
     9
 73
     5
 74
     0
 42
0.000000001
 43
0.00000001
 40
0.0
 40
0.0
 40
0.0
 40
0.0
 40
0.4908908912404662
 40
0.9999999999999999
 40
0.9999999999999999
 40
0.9999999999999999
 40
0.9999999999999999
 10
81.27317465357301
 20
2.050046501304756
 30
0.0
 10
80.90906570108487
 20
2.223742970288346
 30
0.0
 10
80.16733478086338
 20
2.577582228834506
 30
0.0
 10
79.43036597408498
 20
2.963478429939892
 30
0.0
 10
79.05516844168245
 20
3.159941700958344
 30
0.0
  0
LINE
  5
97
330
1F
100
AcDbEntity
  8
0
  6
Continuous
 62
     1
370
    15
100
AcDbLine
 10
15.50640971675652
 20
-8.000000000000004
 30
0.0
 11
19.38443147561305
 21
-8.000000000000004
 31
0.0
  0
LINE
  5
98
330
1F
100
AcDbEntity
  8
0
  6
Continuous
 62
     1
370
    15
100
AcDbLine
 10
62.91710229149496
 20
8.000000000000014
 30
0.0
 11
59.03886612165947
 21
8.000000000000014
 31
0.0
  0
LINE
  5
99
330
1F
100
AcDbEntity
  8
0
  6
Continuous
 62
     1
370
    15
100
AcDbLine
 10
59.03886612165941
 20
-8.000000000000004
 30
0.0
 11
62.91710229149493
 21
-8.000000000000004
 31
0.0
  0
LINE
  5
9A
330
1F
100
AcDbEntity
  8
0
  6
Continuous
 62
     1
370
    15
100
AcDbLine
 10
19.384431475613
 20
8.000000000000014
 30
0.0
 11
15.50640971675651
 21
8.000000000000014
 31
0.0
  0
LINE
  5
9B
330
1F
100
AcDbEntity
  8
0
  6
Continuous
 62
     1
370
    15
100
AcDbLine
 10
33.35507636087733
 20
2.232821036583511
 30
0.0
 11
33.23316657115208
 21
2.299905747668905
 31
0.0
  0
SPLINE
  5
9C
330
1F
100
AcDbEntity
  8
0
  6
Continuous
 62
     1
370
    15
100
AcDbSpline
210
0.0
220
0.0
230
1.0
 70
     8
 71
     3
 72
    28
 73
    24
 74
     0
 42
0.000000001
 43
0.00000001
 40
0.0
 40
0.0
 40
0.0
 40
0.0
 40
0.0733357243479401
 40
0.1252385823651544
 40
0.1593021387424688
 40
0.1950474293214655
 40
0.2351496798232785
 40
0.2773843530204666
 40
0.3164819971794938
 40
0.3646633778834643
 40
0.40677639017275
 40
0.4458857449564477
 40
0.4991474854723572
 40
0.5591320424079724
 40
0.6035016193984449
 40
0.6414084024883471
 40
0.6803923935247106
 40
0.7365998752290778
 40
0.7867007452270159
 40
0.8226323279613514
 40
0.8554260493058262
 40
0.9140223358034513
 40
1.0
 40
1.0
 40
1.0
 40
1.0
 10
23.0661100300645
 20
-6.657100114490373
 30
0.0
 10
23.35859600872027
 20
-6.628577880444262
 30
0.0
 10
23.85808694106234
 20
-6.579869230061613
 30
0.0
 10
24.49541671813443
 20
-6.525108352941809
 30
0.0
 10
24.9878945607275
 20
-6.485655792013143
 30
0.0
 10
25.43125468525704
 20
-6.452342096515925
 30
0.0
 10
25.90632960440045
 20
-6.419166683212334
 30
0.0
 10
26.39400743586812
 20
-6.388186672841871
 30
0.0
 10
26.91359651025992
 20
-6.358461815854938
 30
0.0
 10
27.4330366506406
 20
-6.332181529317435
 30
0.0
 10
27.94725579588855
 20
-6.309900039783777
 30
0.0
 10
28.46366105332037
 20
-6.289712351051389
 30
0.0
 10
29.08486808415689
 20
-6.271143562260624
 30
0.0
 10
29.72507629182426
 20
-6.257935561244518
 30
0.0
 10
30.29882262780026
 20
-6.250532694822027
 30
0.0
 10
30.78493082263476
 20
-6.247492256695871
 30
0.0
 10
31.31902511630886
 20
-6.247419449992572
 30
0.0
 10
31.90172437891287
 20
-6.251804013502976
 30
0.0
 10
32.47283495314601
 20
-6.260933338033344
 30
0.0
 10
32.94816024136361
 20
-6.271750546396983
 30
0.0
 10
33.45599288430721
 20
-6.286084711569261
 30
0.0
 10
34.16914980887664
 20
-6.310972502108316
 30
0.0
 10
34.75145532771424
 20
-6.339903923749745
 30
0.0
 10
35.09775054976514
 20
-6.357109347290237
 30
0.0
  0
SPLINE
  5
9D
330
1F
100
AcDbEntity
  8
0
  6
Continuous
 62
     1
370
    15
100
AcDbSpline
210
0.0
220
0.0
230
1.0
 70
     8
 71
     3
 72
    16
 73
    12
 74
     0
 42
0.000000001
 43
0.00000001
 40
0.0
 40
0.0
 40
0.0
 40
0.0
 40
0.1829227810329818
 40
0.3253316891585604
 40
0.4255128888732491
 40
0.5121834018941994
 40
0.6246746680361063
 40
0.7689606258397483
 40
0.8685163113330778
 40
0.9878709772812946
 40
1.0
 40
1.0
 40
1.0
 40
1.0
 10
78.6289185236473
 20
6.357108453463193
 30
0.0
 10
78.23910277115542
 20
6.337544221281929
 30
0.0
 10
77.5458079475001
 20
6.302748857540579
 30
0.0
 10
76.59264926765005
 20
6.273847780584959
 30
0.0
 10
75.86914507295481
 20
6.258197690063239
 30
0.0
 10
75.21490691824778
 20
6.249525541335425
 30
0.0
 10
74.45772638024005
 20
6.24608740711045
 30
0.0
 10
73.65824500286837
 20
6.250489733986107
 30
0.0
 10
72.891666777582
 20
6.265570664616064
 30
0.0
 10
72.38631515091801
 20
6.276748419453124
 30
0.0
 10
72.0981743335851
 20
6.287910059128615
 30
0.0
 10
72.07159410485063
 20
6.288939690884268
 30
0.0
  0
SPLINE
  5
9E
330
1F
100
AcDbEntity
  8
0
  6
Continuous
 62
     1
370
    15
100
AcDbSpline
210
0.0
220
0.0
230
1.0
 70
     8
 71
     3
 72
    28
 73
    24
 74
     0
 42
0.000000001
 43
0.00000001
 40
0.0
 40
0.0
 40
0.0
 40
0.0
 40
0.0714032165786385
 40
0.1238719142839131
 40
0.1584079051944107
 40
0.1928235646413437
 40
0.2327804765908928
 40
0.2742758419001662
 40
0.3110071761305572
 40
0.3428162904382102
 40
0.3846389113656573
 40
0.4210769117168618
 40
0.4571570975699876
 40
0.5127462069793348
 40
0.5850831735846672
 40
0.6390387508114137
 40
0.6860965786761194
 40
0.7521934324802075
 40
0.7952970689177626
 40
0.8279448897485013
 40
0.8577807846525735
 40
0.9140981133808105
 40
1.0
 40
1.0
 40
1.0
 40
1.0
 10
66.59728647101626
 20
-6.65710094769022
 30
0.0
 10
66.88257524500116
 20
-6.629270874300492
 30
0.0
 10
67.37750065943682
 20
-6.580990633848707
 30
0.0
 10
68.0111729734152
 20
-6.526440969505952
 30
0.0
 10
68.50075671933837
 20
-6.487090354109667
 30
0.0
 10
68.93947102105354
 20
-6.454024997529051
 30
0.0
 10
69.40460905040203
 20
-6.421386404861115
 30
0.0
 10
69.87839100074586
 20
-6.391072568966932
 30
0.0
 10
70.31964350605652
 20
-6.36551495214584
 30
0.0
 10
70.7621684251041
 20
-6.3422068929286
 30
0.0
 10
71.20357582341084
 20
-6.321449158867281
 30
0.0
 10
71.66122541848603
 20
-6.30268125572691
 30
0.0
 10
72.17326485889222
 20
-6.284507478478819
 30
0.0
 10
72.83244290793843
 20
-6.265941238872751
 30
0.0
 10
73.56311897660949
 20
-6.25284552454879
 30
0.0
 10
74.25834455890784
 20
-6.247352546074741
 30
0.0
 10
74.92777618964192
 20
-6.247464649721937
 30
0.0
 10
75.55447207367267
 20
-6.253258614171346
 30
0.0
 10
76.12353401206862
 20
-6.263454667781456
 30
0.0
 10
76.54625332663255
 20
-6.273548762469975
 30
0.0
 10
77.02058803030651
 20
-6.287253400237738
 30
0.0
 10
77.71140222657552
 20
-6.311515551962077
 30
0.0
 10
78.28341615563818
 20
-6.339939869664382
 30
0.0
 10
78.62891852364731
 20
-6.357108453463177
 30
0.0
  0
SPLINE
  5
9F
330
1F
100
AcDbEntity
  8
0
  6
Continuous
 62
     1
370
    15
100
AcDbSpline
210
0.0
220
0.0
230
1.0
 70
     8
 71
     3
 72
    18
 73
    14
 74
     0
 42
0.000000001
 43
0.00000001
 40
0.0
 40
0.0
 40
0.0
 40
0.0
 40
0.1595564771612957
 40
0.2828138217344266
 40
0.3814184213676045
 40
0.4606309506410827
 40
0.5277254554384649
 40
0.606963374365437
 40
0.7100369434037529
 40
0.8012740377800452
 40
0.8694769907477223
 40
0.9576525032319387
 40
1.0
 40
1.0
 40
1.0
 40
1.0
 10
35.09775054976516
 20
6.35710934729025
 30
0.0
 10
34.75731445979674
 20
6.339923704589423
 30
0.0
 10
34.15389156294396
 20
6.309462156567968
 30
0.0
 10
33.30622069877796
 20
6.280922926530375
 30
0.0
 10
32.64003320275261
 20
6.26415500503026
 30
0.0
 10
32.10499884119772
 20
6.25484706594273
 30
0.0
 10
31.61104521209618
 20
6.24936331645902
 30
0.0
 10
31.06492743615949
 20
6.246784077049823
 30
0.0
 10
30.46567226178499
 20
6.248776013414465
 30
0.0
 10
29.89081913428016
 20
6.255452674636679
 30
0.0
 10
29.34968622761405
 20
6.265756416579793
 30
0.0
 10
28.914893486294
 20
6.276026384266768
 30
0.0
 10
28.62928271403313
 20
6.286167955468449
 30
0.0
 10
28.53661781667496
 20
6.289458334353722
 30
0.0
  0
SPLINE
  5
A0
330
1F
100
AcDbEntity
  8
0
  6
Continuous
 62
     1
370
    15
100
AcDbSpline
210
0.0
220
0.0
230
1.0
 70
     8
 71
     3
 72
    15
 73
    11
 74
     0
 42
0.000000001
 43
0.00000001
 40
0.0
 40
0.0
 40
0.0
 40
0.0
 40
0.156969600639031
 40
0.2755029379545731
 40
0.4074110961526912
 40
0.5542568067541537
 40
0.6879841202607727
 40
0.7895673265172136
 40
0.9308301458228708
 40
1.0
 40
1.0
 40
1.0
 40
1.0
 10
41.52156389999978
 20
-6.017074925771864
 30
0.0
 10
41.83372507568665
 20
-5.969053800756109
 30
0.0
 10
42.38161027554047
 20
-5.884770213540087
 30
0.0
 10
43.19049509061106
 20
-5.773676506496438
 30
0.0
 10
43.97699532296288
 20
-5.674405461774898
 30
0.0
 10
44.79494354143075
 20
-5.582040404586114
 30
0.0
 10
45.55220999664238
 20
-5.506928513687642
 30
0.0
 10
46.30009561968413
 20
-5.442374100316425
 30
0.0
 10
46.92009504140343
 20
-5.395362761246961
 30
0.0
 10
47.33725191640538
 20
-5.370731001919132
 30
0.0
 10
47.47437263884508
 20
-5.362634468369314
 30
0.0
  0
SPLINE
  5
A1
330
1F
100
AcDbEntity
  8
0
  6
Continuous
 62
     1
370
    15
100
AcDbSpline
210
0.0
220
0.0
230
1.0
 70
     8
 71
     3
 72
    27
 73
    23
 74
     0
 42
0.000000001
 43
0.00000001
 40
0.0
 40
0.0
 40
0.0
 40
0.0
 40
0.0593953393133544
 40
0.1103071302304714
 40
0.1532812203499266
 40
0.186876309439655
 40
0.2193249719869966
 40
0.2676596556752666
 40
0.3223934557625233
 40
0.3622725619123019
 40
0.4048497187879657
 40
0.4575551073581873
 40
0.5405098764702049
 40
0.5984880845834838
 40
0.6540951270916806
 40
0.7208453927839773
 40
0.7544191721207418
 40
0.7797572061812347
 40
0.8020263637942161
 40
0.8448795580889041
 40
0.9110203108203275
 40
1.0
 40
1.0
 40
1.0
 40
1.0
 10
99.04468319958787
 20
5.473063872477007
 30
0.0
 10
98.78249160172572
 20
5.45096363356147
 30
0.0
 10
98.2955577266933
 20
5.409919774559005
 30
0.0
 10
97.5668077369758
 20
5.362788483124005
 30
0.0
 10
96.95201760069524
 20
5.330252261252292
 30
0.0
 10
96.43455725105645
 20
5.30713153681636
 30
0.0
 10
95.91442037331623
 20
5.288738600248322
 30
0.0
 10
95.27916487402331
 20
5.272440521723931
 30
0.0
 10
94.61254965588085
 20
5.264335719907018
 30
0.0
 10
93.97222127665201
 20
5.264274286067499
 30
0.0
 10
93.34141215033317
 20
5.270976792954276
 30
0.0
 10
92.50905462691425
 20
5.289991503631604
 30
0.0
 10
91.6051250815576
 20
5.32623468480798
 30
0.0
 10
90.68751157018843
 20
5.379688030079687
 30
0.0
 10
89.845776964439
 20
5.440407662273474
 30
0.0
 10
89.1178349015602
 20
5.503756559998054
 30
0.0
 10
88.53086568271374
 20
5.562048968446098
 30
0.0
 10
88.15258058511716
 20
5.602352739611983
 30
0.0
 10
87.73281797360299
 20
5.649241083324618
 30
0.0
 10
87.12041315520226
 20
5.722256525970708
 30
0.0
 10
86.19583927414958
 20
5.842684892236693
 30
0.0
 10
85.46943082651678
 20
5.95350583908713
 30
0.0
 10
85.05275074817546
 20
6.017074594332169
 30
0.0
  0
SPLINE
  5
A2
330
1F
100
AcDbEntity
  8
0
  6
Continuous
 62
     1
370
    15
100
AcDbSpline
210
0.0
220
0.0
230
1.0
 70
     8
 71
     3
 72
    15
 73
    11
 74
     0
 42
0.000000001
 43
0.00000001
 40
0.0
 40
0.0
 40
0.0
 40
0.0
 40
0.1613603017756183
 40
0.281521210498169
 40
0.409516080134692
 40
0.5592549543531614
 40
0.6973594045176961
 40
0.7985671432876195
 40
0.9383995273819375
 40
1.0
 40
1.0
 40
1.0
 40
1.0
 10
85.05275074817547
 20
-6.017074594332152
 30
0.0
 10
85.37446634539067
 20
-5.967616218968518
 30
0.0
 10
85.9357553574186
 20
-5.881327450613311
 30
0.0
 10
86.75106577473667
 20
-5.76981412268871
 30
0.0
 10
87.53826077906069
 20
-5.67083625665462
 30
0.0
 10
88.36408571158273
 20
-5.577901132246857
 30
0.0
 10
89.13587546727312
 20
-5.502000091659127
 30
0.0
 10
89.8914625865571
 20
-5.437623246126575
 30
0.0
 10
90.5027076618538
 20
-5.391678571705431
 30
0.0
 10
90.90191167048424
 20
-5.368535376341011
 30
0.0
 10
91.02399282449265
 20
-5.361457922366479
 30
0.0
  0
SPLINE
  5
A3
330
1F
100
AcDbEntity
  8
0
  6
Continuous
 62
     1
370
    15
100
AcDbSpline
210
0.0
220
0.0
230
1.0
 70
     8
 71
     3
 72
    27
 73
    23
 74
     0
 42
0.000000001
 43
0.00000001
 40
0.0
 40
0.0
 40
0.0
 40
0.0
 40
0.0619549449659898
 40
0.1139257777689043
 40
0.1569578642600009
 40
0.1905714732693919
 40
0.2225627959150164
 40
0.2689633841955328
 40
0.3229997892968337
 40
0.3652656518191152
 40
0.4089380261617461
 40
0.461006968617772
 40
0.5413659886468518
 40
0.6008434032234038
 40
0.6560172603169867
 40
0.722298008374001
 40
0.7576680250330262
 40
0.7839948698061511
 40
0.8063662378065589
 40
0.8485293856541827
 40
0.913208226281286
 40
1.0
 40
1.0
 40
1.0
 40
1.0
 10
55.49675688918619
 20
5.471625081672562
 30
0.0
 10
55.22373827407829
 20
5.448783172356638
 30
0.0
 10
54.72169831441685
 20
5.406780354244674
 30
0.0
 10
53.97787240514582
 20
5.359261826443662
 30
0.0
 10
53.35811817931236
 20
5.327201060928068
 30
0.0
 10
52.84296910016069
 20
5.304775469446212
 30
0.0
 10
52.33330447181226
 20
5.287297782278618
 30
0.0
 10
51.71337166039854
 20
5.271891995702956
 30
0.0
 10
51.0484619616465
 20
5.264086236771971
 30
0.0
 10
50.39558360249049
 20
5.26445834397519
 30
0.0
 10
49.75604859286516
 20
5.271922458299902
 30
0.0
 10
48.93623146761918
 20
5.291448094068331
 30
0.0
 10
48.03703920669889
 20
5.328085303890919
 30
0.0
 10
47.12615270578818
 20
5.381632423412072
 30
0.0
 10
46.28268624823432
 20
5.443000081919143
 30
0.0
 10
45.55124379872768
 20
5.507008169625751
 30
0.0
 10
44.95409881508603
 20
5.566711938000755
 30
0.0
 10
44.56354455976136
 20
5.608680383583304
 30
0.0
 10
44.14490229344435
 20
5.655819277142263
 30
0.0
 10
43.54195550021564
 20
5.728225966829661
 30
0.0
 10
42.637893885929
 20
5.846613478903229
 30
0.0
 10
41.92820911295694
 20
5.954980982012775
 30
0.0
 10
41.52156389999978
 20
6.017074925771878
 30
0.0
  0
LINE
  5
A4
330
1F
100
AcDbEntity
  8
0
  6
Continuous
 62
   131
370
    15
100
AcDbLine
 10
8.950117987707062
 20
8.000000000000004
 30
0.0
 11
-46.99999999999997
 21
8.0
 31
0.0
  0
LINE
  5
A5
330
1F
100
AcDbEntity
  8
0
  6
Continuous
 62
   131
370
    15
100
AcDbLine
 10
-46.99999999999997
 20
-7.999999999999999
 30
0.0
 11
8.950117987707062
 21
-7.999999999999996
 31
0.0
  0
LINE
  5
A6
330
1F
100
AcDbEntity
  8
0
  6
Continuous
 62
   131
370
    15
100
AcDbLine
 10
-46.99999999999997
 20
8.0
 30
0.0
 11
-47.99999999999998
 21
7.0
 31
0.0
  0
LINE
  5
A7
330
1F
100
AcDbEntity
  8
0
  6
Continuous
 62
   131
370
    15
100
AcDbLine
 10
-47.99999999999998
 20
-6.999999999999998
 30
0.0
 11
-46.99999999999997
 21
-7.999999999999996
 31
0.0
  0
SPLINE
  5
A8
330
1F
100
AcDbEntity
  8
0
  6
Continuous
 62
   131
370
    15
100
AcDbSpline
210
0.0
220
0.0
230
1.0
 70
     8
 71
     3
 72
     9
 73
     5
 74
     0
 42
0.000000001
 43
0.00000001
 40
0.0
 40
0.0
 40
0.0
 40
0.0
 40
0.5384405630069824
 40
0.9999999999999999
 40
0.9999999999999999
 40
0.9999999999999999
 40
0.9999999999999999
 10
11.6052379530937
 20
5.438752677228747
 30
0.0
 10
11.13278519830727
 20
5.405045193245022
 30
0.0
 10
10.25533875900493
 20
5.34244314150605
 30
0.0
 10
9.362326151361115
 20
5.308416331948093
 30
0.0
 10
8.950147754949368
 20
5.292710936885853
 30
0.0
  0
SPLINE
  5
A9
330
1F
100
AcDbEntity
  8
0
  6
Continuous
 62
     1
370
    15
100
AcDbSpline
210
0.0
220
0.0
230
1.0
 70
     8
 71
     3
 72
    28
 73
    24
 74
     0
 42
0.000000001
 43
0.00000001
 40
0.0
 40
0.0
 40
0.0
 40
0.0
 40
0.0218537740568263
 40
0.0713005635334658
 40
0.1207478873005318
 40
0.1693127074925324
 40
0.2178794776006693
 40
0.2664487200067963
 40
0.3150209554860707
 40
0.3644765748956338
 40
0.4139341638128084
 40
0.4633930358406202
 40
0.5128501099265894
 40
0.5623052616374126
 40
0.6108769204381717
 40
0.6594456797016378
 40
0.7080120605168063
 40
0.7565765855186951
 40
0.811380286944682
 40
0.8661819986779726
 40
0.9209811481241497
 40
0.9757771644791572
 40
1.0
 40
1.0
 40
1.0
 40
1.0
 10
72.07285156588617
 20
-6.288488499951824
 30
0.0
 10
71.68905176946271
 20
-6.430727322169076
 30
0.0
 10
70.43685882110216
 20
-6.894798569270613
 30
0.0
 10
68.3162643445956
 20
-7.435871550529984
 30
0.0
 10
65.7265394623167
 20
-7.88365192830602
 30
0.0
 10
63.15233973000599
 20
-8.043874620679746
 30
0.0
 10
60.59351801573219
 20
-7.932937236753946
 30
0.0
 10
58.03454483943333
 20
-7.551314586224622
 30
0.0
 10
55.45993267725795
 20
-6.90927299484969
 30
0.0
 10
52.86966421598991
 20
-6.023115152964606
 30
0.0
 10
50.26381310848798
 20
-4.919328036877513
 30
0.0
 10
47.65791070289306
 20
-3.642123648363957
 30
0.0
 10
45.05208389083919
 20
-2.236501674187111
 30
0.0
 10
42.4618471226984
 20
-0.7608569723196172
 30
0.0
 10
39.88726686924173
 20
0.7318212871083695
 30
0.0
 10
37.32833109433049
 20
2.190664040156338
 30
0.0
 10
34.76950755722917
 20
3.574881253528933
 30
0.0
 10
32.10135817296282
 20
4.891955017856913
 30
0.0
 10
29.32308781063034
 20
6.071536252584509
 30
0.0
 10
26.43551351058927
 20
7.040294941711369
 30
0.0
 10
23.54805327564258
 20
7.684420158183208
 30
0.0
 10
21.19770990671958
 20
7.998832289886592
 30
0.0
 10
19.80986761771537
 20
7.966969524739976
 30
0.0
 10
19.38443147561301
 20
7.957202152764004
 30
0.0
  0
SPLINE
  5
AA
330
1F
100
AcDbEntity
  8
0
  6
Continuous
 62
     1
370
    15
100
AcDbSpline
210
0.0
220
0.0
230
1.0
 70
     8
 71
     3
 72
    18
 73
    14
 74
     0
 42
0.000000001
 43
0.00000001
 40
0.0
 40
0.0
 40
0.0
 40
0.0
 40
0.0832099321547499
 40
0.1837748223736067
 40
0.2843317457448203
 40
0.3848959045621145
 40
0.4854690088241272
 40
0.5860495296944649
 40
0.6866359317571993
 40
0.7872266743713562
 40
0.8878202130353404
 40
0.9884150007587147
 40
1.0
 40
1.0
 40
1.0
 40
1.0
 10
66.60264951591722
 20
-6.63538252820426
 30
0.0
 10
65.8007797458587
 20
-6.704944692628136
 30
0.0
 10
64.02979555270726
 20
-6.858577487174189
 30
0.0
 10
61.28981505750333
 20
-6.737088702312421
 30
0.0
 10
58.38265131749219
 20
-6.343643811563813
 30
0.0
 10
55.47535813787786
 20
-5.663562821062341
 30
0.0
 10
52.56780060987719
 20
-4.737268640537101
 30
0.0
 10
49.65999649963299
 20
-3.60229008049329
 30
0.0
 10
46.75199729138072
 20
-2.310145730084204
 30
0.0
 10
43.84385386565023
 20
-0.9137174763652178
 30
0.0
 10
40.93561800095603
 20
0.5121743417537977
 30
0.0
 10
38.88512305777421
 20
1.529651231417422
 30
0.0
 10
37.80404863641088
 20
2.017606092368669
 30
0.0
 10
37.69240422443485
 20
2.067998028802659
 30
0.0
  0
SPLINE
  5
AB
330
1F
100
AcDbEntity
  8
0
  6
Continuous
 62
     1
370
    15
100
AcDbSpline
210
0.0
220
0.0
230
1.0
 70
     8
 71
     3
 72
    23
 73
    19
 74
     0
 42
0.000000001
 43
0.00000001
 40
0.0
 40
0.0
 40
0.0
 40
0.0
 40
0.0666739150942692
 40
0.1333450811665113
 40
0.2000137498879661
 40
0.2666801737524935
 40
0.3333446059942724
 40
0.3988169581708566
 40
0.4642865907815384
 40
0.529754209554852
 40
0.5952205215303656
 40
0.6618781964537932
 40
0.7285358235067388
 40
0.7951936588323291
 40
0.8618519585046736
 40
0.9285109784440311
 40
0.9939803116839837
 40
1.0
 40
1.0
 40
1.0
 40
1.0
 10
102.0
 20
-7.59152695385519
 30
0.0
 10
101.1313600373748
 20
-7.4074399640532
 30
0.0
 10
99.3941159268861
 20
-7.039273574511826
 30
0.0
 10
96.78832824027923
 20
-6.167135577025044
 30
0.0
 10
94.18265470340117
 20
-5.096809260713279
 30
0.0
 10
91.57709160158679
 20
-3.841672896517536
 30
0.0
 10
88.98711172625428
 20
-2.460766133971581
 30
0.0
 10
86.41280130890897
 20
-1.00314973909612
 30
0.0
 10
83.85409184150953
 20
0.4797041741612197
 30
0.0
 10
81.29547388902701
 20
1.946237870332657
 30
0.0
 10
78.72141273190809
 20
3.355118870830729
 30
0.0
 10
76.1317612234776
 20
4.656085687077789
 30
0.0
 10
73.52661236579786
 20
5.801296886970764
 30
0.0
 10
70.92144537881234
 20
6.739912250698307
 30
0.0
 10
68.31626507222617
 20
7.448810951623293
 30
0.0
 10
65.72653708870936
 20
7.863336753694793
 30
0.0
 10
63.92684797686137
 20
8.036513401328595
 30
0.0
 10
62.99552385617314
 20
7.99235360882137
 30
0.0
 10
62.91710229149496
 20
7.988635161132373
 30
0.0
  0
SPLINE
  5
AC
330
1F
100
AcDbEntity
  8
0
  6
Continuous
 62
     1
370
    15
100
AcDbSpline
210
0.0
220
0.0
230
1.0
 70
     8
 71
     3
 72
    13
 73
     9
 74
     0
 42
0.000000001
 43
0.00000001
 40
0.0
 40
0.0
 40
0.0
 40
0.0
 40
0.1272093597904283
 40
0.3017860066919223
 40
0.4763526723335544
 40
0.650907545238542
 40
0.825450206169689
 40
1.0
 40
1.0
 40
1.0
 40
1.0
 10
28.5395003495486
 20
-6.288502476266336
 30
0.0
 10
27.83815412716142
 20
-6.5340227120611
 30
0.0
 10
26.17431055376885
 20
-7.116484345738284
 30
0.0
 10
23.548054318641
 20
-7.690693982511115
 30
0.0
 10
20.66080140109085
 20
-8.026485446054739
 30
0.0
 10
17.77377023649077
 20
-7.999716919345637
 30
0.0
 10
14.8868968880829
 20
-7.650785323402636
 30
0.0
 10
12.96231207084171
 20
-7.143849875941605
 30
0.0
 10
11.99999999999518
 20
-6.890376973182756
 30
0.0
  0
SPLINE
  5
AD
330
1F
100
AcDbEntity
  8
0
  6
Continuous
 62
   131
370
    15
100
AcDbSpline
210
0.0
220
0.0
230
1.0
 70
    24
 71
     3
 72
     8
 73
     4
 74
     0
 42
0.000000001
 43
0.00000001
 40
0.0
 40
0.0
 40
0.0
 40
0.0
 40
1.0
 40
1.0
 40
1.0
 40
1.0
 10
12.00000000000017
 20
-5.637927644396019
 30
0.0
 10
12.00000000000017
 20
-6.046156352710002
 30
0.0
 10
12.00000000000017
 20
-6.466281574333457
 30
0.0
 10
12.00000000000017
 20
-6.890376973167553
 30
0.0
  0
SPLINE
  5
AE
330
1F
100
AcDbEntity
  8
0
  6
Continuous
 62
     1
370
    15
100
AcDbSpline
210
0.0
220
0.0
230
1.0
 70
     8
 71
     3
 72
    15
 73
    11
 74
     0
 42
0.000000001
 43
0.00000001
 40
0.0
 40
0.0
 40
0.0
 40
0.0
 40
0.1399363481144482
 40
0.2798861240165176
 40
0.4198472050749876
 40
0.559817458637358
 40
0.6997947439071365
 40
0.8397769138365906
 40
0.9797618170314024
 40
1.0
 40
1.0
 40
1.0
 40
1.0
 10
102.0
 20
-6.311778114945715
 30
0.0
 10
101.0309629586199
 20
-6.107960878172463
 30
0.0
 10
99.0927958905575
 20
-5.700306847058495
 30
0.0
 10
96.18536626348333
 20
-4.764601803222264
 30
0.0
 10
93.27767041007743
 20
-3.639510098260773
 30
0.0
 10
90.36975483712588
 20
-2.350084203766456
 30
0.0
 10
87.46167175403298
 20
-0.956265857034783
 30
0.0
 10
84.5534721433843
 20
0.4699339924977655
 30
0.0
 10
82.47448384456551
 20
1.501284323908852
 30
0.0
 10
81.36490306968692
 20
2.003050800677207
 30
0.0
 10
81.22474911760582
 20
2.066430192545803
 30
0.0
  0
SPLINE
  5
AF
330
1F
100
AcDbEntity
  8
0
  6
Continuous
 62
     1
370
    15
100
AcDbSpline
210
0.0
220
0.0
230
1.0
 70
     8
 71
     3
 72
    11
 73
     7
 74
     0
 42
0.000000001
 43
0.00000001
 40
0.0
 40
0.0
 40
0.0
 40
0.0
 40
0.2250047087345013
 40
0.4833393837060684
 40
0.7416636095565389
 40
1.0
 40
1.0
 40
1.0
 40
1.0
 10
23.070555748751
 20
-6.63843819474841
 30
0.0
 10
22.24023190188404
 20
-6.708486242867929
 30
0.0
 10
20.45658826758712
 20
-6.858958562306591
 30
0.0
 10
17.71972768785555
 20
-6.729623214686431
 30
0.0
 10
14.85988403475553
 20
-6.354269804963435
 30
0.0
 10
12.9533096414602
 20
-5.87671211256122
 30
0.0
 10
11.99999999999986
 20
-5.637927644395933
 30
0.0
  0
LINE
  5
B0
330
1F
100
AcDbEntity
  8
0
  6
Continuous
 62
     1
370
    15
100
AcDbLine
 10
102.0
 20
-7.591526953855197
 30
0.0
 11
102.0
 21
-6.311778114945715
 31
0.0
  0
SPLINE
  5
B1
330
1F
100
AcDbEntity
  8
0
  6
Continuous
 62
     1
370
    15
100
AcDbSpline
210
0.0
220
0.0
230
1.0
 70
     8
 71
     3
 72
     9
 73
     5
 74
     0
 42
0.000000001
 43
0.00000001
 40
0.0
 40
0.0
 40
0.0
 40
0.0
 40
0.823323715960654
 40
1.0
 40
1.0
 40
1.0
 40
1.0
 10
11.99999999999769
 20
-7.745003850225486
 30
0.0
 10
12.96230804712316
 20
-7.874772643815277
 30
0.0
 10
14.13111689893991
 20
-8.032388404267873
 30
0.0
 10
15.299911440371
 20
-7.980030958569285
 30
0.0
 10
15.50640971675651
 20
-7.970780639621463
 30
0.0
  0
SPLINE
  5
B2
330
1F
100
AcDbEntity
  8
0
  6
Continuous
 62
     1
370
    15
100
AcDbSpline
210
0.0
220
0.0
230
1.0
 70
     8
 71
     3
 72
    29
 73
    25
 74
     0
 42
0.000000001
 43
0.00000001
 40
0.0
 40
0.0
 40
0.0
 40
0.0
 40
0.0058941812017953
 40
0.0528346038508141
 40
0.0997770832778629
 40
0.1467160732835577
 40
0.1945035662227214
 40
0.2422895180212241
 40
0.2900741103641358
 40
0.3378575253854548
 40
0.3856399456083023
 40
0.4325675407509839
 40
0.4794940427623784
 40
0.526419958873079
 40
0.57334579669541
 40
0.6211262509800064
 40
0.6689071067091531
 40
0.7166885472529423
 40
0.7644707557877959
 40
0.8122539152359237
 40
0.8591858296525668
 40
0.906120480980559
 40
0.953058371152226
 40
1.0
 40
1.0
 40
1.0
 40
1.0
 10
47.47553412504325
 20
5.363160457405542
 30
0.0
 10
47.58266111746171
 20
5.412050321281088
 30
0.0
 10
48.54293227513061
 20
5.850292123110631
 30
0.0
 10
50.35642175676547
 20
6.506536575613837
 30
0.0
 10
52.91594407918289
 20
7.275683016806285
 30
0.0
 10
55.49079780019654
 20
7.783238928618093
 30
0.0
 10
58.08098423519926
 20
8.028257474759481
 30
0.0
 10
60.68651673800964
 20
7.990434491095433
 30
0.0
 10
63.29196343394126
 20
7.67127695086654
 30
0.0
 10
65.89732671392356
 20
7.081609018762212
 30
0.0
 10
68.4871258003218
 20
6.247338388672611
 30
0.0
 10
71.06126021985239
 20
5.202597400093125
 30
0.0
 10
73.61983401421419
 20
3.987249890635442
 30
0.0
 10
76.178370664101
 20
2.636325325613658
 30
0.0
 10
78.75240390505598
 20
1.187008900956466
 30
0.0
 10
81.34206972057073
 20
-0.3125539658413045
 30
0.0
 10
83.94726482251117
 20
-1.81011153669499
 30
0.0
 10
86.55250605950144
 20
-3.243840895101956
 30
0.0
 10
89.15779148761627
 20
-4.563336445424891
 30
0.0
 10
91.747663580237
 20
-5.71471169535765
 30
0.0
 10
94.32208543987241
 20
-6.663100276786485
 30
0.0
 10
96.88119420462174
 20
-7.373971595864873
 30
0.0
 10
99.44050654533088
 20
-7.853583010781504
 30
0.0
 10
101.1468128643528
 20
-7.946685448908773
 30
0.0
 10
102.0
 20
-7.999999999999661
 30
0.0
  0
LINE
  5
B3
330
1F
100
AcDbEntity
  8
0
  6
Continuous
 62
   131
370
    15
100
AcDbLine
 10
12.00000000000002
 20
-7.745003850225815
 30
0.0
 11
12.00000000000002
 21
-6.890376973169705
 31
0.0
  0
LINE
  5
B4
330
1F
100
AcDbEntity
  8
0
  6
Continuous
 62
     1
370
    15
100
AcDbLine
 10
102.0
 20
-7.999999999999661
 30
0.0
 11
102.0
 21
-7.591526953855208
 31
0.0
  0
SPLINE
  5
B5
330
1F
100
AcDbEntity
  8
0
  6
Continuous
 62
     1
370
    15
100
AcDbSpline
210
0.0
220
0.0
230
1.0
 70
     8
 71
     3
 72
    25
 73
    21
 74
     0
 42
0.000000001
 43
0.00000001
 40
0.0
 40
0.0
 40
0.0
 40
0.0
 40
0.0613719798947885
 40
0.1227414515367314
 40
0.1841152160360593
 40
0.2454931263921724
 40
0.3068745458364553
 40
0.368258835152046
 40
0.4296453531171215
 40
0.4850330205804973
 40
0.540421657705796
 40
0.5958114764047128
 40
0.6512026881981604
 40
0.706595504146663
 40
0.7610038154473532
 40
0.8154162821441873
 40
0.8698311330199391
 40
0.9242419390232226
 40
0.979636313878341
 40
1.0
 40
1.0
 40
1.0
 40
1.0
 10
11.99999999999769
 20
7.745003850225496
 30
0.0
 10
12.96230769159463
 20
7.851701064116188
 30
0.0
 10
14.88688374558634
 20
8.065091131217159
 30
0.0
 10
17.77374367161097
 20
7.946483567779581
 30
0.0
 10
20.66076241321809
 20
7.508139601068714
 30
0.0
 10
23.54799898359248
 20
6.7385018760994
 30
0.0
 10
26.43544656976293
 20
5.679018989842505
 30
0.0
 10
29.32301260196444
 20
4.373330536926148
 30
0.0
 10
32.11677075598693
 20
2.927216829036027
 30
0.0
 10
34.81598837864486
 20
1.41901853460561
 30
0.0
 10
37.42132671364246
 20
-0.0866328340673809
 30
0.0
 10
40.02669756713961
 20
-1.589243266865489
 30
0.0
 10
42.63215415808916
 20
-3.035865435908644
 30
0.0
 10
45.22224224902289
 20
-4.367452520581447
 30
0.0
 10
47.79697178957208
 20
-5.54035570405935
 30
0.0
 10
50.35641992367673
 20
-6.516502180499065
 30
0.0
 10
52.91594474913146
 20
-7.275818679932954
 30
0.0
 10
55.49079694430324
 20
-7.772668178849904
 30
0.0
 10
57.53175736753976
 20
-8.007971116066882
 30
0.0
 10
58.71958052244257
 20
-7.975798877342732
 30
0.0
 10
59.03886612165944
 20
-7.967151013831409
 30
0.0
  0
SPLINE
  5
B6
330
1F
100
AcDbEntity
  8
0
  6
Continuous
 62
     1
370
    15
100
AcDbSpline
210
0.0
220
0.0
230
1.0
 70
     8
 71
     3
 72
    12
 73
     8
 74
     0
 42
0.000000001
 43
0.00000001
 40
0.0
 40
0.0
 40
0.0
 40
0.0
 40
0.0672412024406779
 40
0.3004080144859711
 40
0.533588424035266
 40
0.7667849247852673
 40
0.9999999999999999
 40
0.9999999999999999
 40
0.9999999999999999
 40
0.9999999999999999
 10
91.02517531972173
 20
5.361980673516626
 30
0.0
 10
91.27115951506691
 20
5.472497770829123
 30
0.0
 10
92.3701229636127
 20
5.96624595743673
 30
0.0
 10
94.32208466899394
 20
6.654585177049114
 30
0.0
 10
96.88119441020967
 20
7.376242513988314
 30
0.0
 10
99.44050649392767
 20
7.853015212168344
 30
0.0
 10
101.1468128472179
 20
7.94649617767955
 30
0.0
 10
102.0
 20
8.000000000000334
 30
0.0
  0
SPLINE
  5
B7
330
1F
100
AcDbEntity
  8
0
  6
Continuous
 62
     1
370
    15
100
AcDbSpline
210
0.0
220
0.0
230
1.0
 70
    24
 71
     3
 72
    10
 73
     6
 74
     0
 42
0.000000001
 43
0.00000001
 40
0.0
 40
0.0
 40
0.0
 40
0.0
 40
0.5
 40
0.5
 40
1.0
 40
1.0
 40
1.0
 40
1.0
 10
102.0
 20
5.600000000000016
 30
0.0
 10
102.0
 20
5.939458054458525
 30
0.0
 10
102.0000000000001
 20
6.333939750936957
 30
0.0
 10
102.0
 20
7.161561287686866
 30
0.0
 10
102.0
 20
7.592587486411801
 30
0.0
 10
102.0
 20
8.000000000000334
 30
0.0
  0
SPLINE
  5
B8
330
1F
100
AcDbEntity
  8
0
  6
Continuous
 62
     1
370
    15
100
AcDbSpline
210
0.0
220
0.0
230
1.0
 70
     8
 71
     3
 72
     9
 73
     5
 74
     0
 42
0.000000001
 43
0.00000001
 40
0.0
 40
0.0
 40
0.0
 40
0.0
 40
0.983520067362472
 40
1.0
 40
1.0
 40
1.0
 40
1.0
 10
102.0
 20
5.600000000000016
 30
0.0
 10
101.0309638794825
 20
5.598438782642311
 30
0.0
 10
100.0456905203773
 20
5.596851405414826
 30
0.0
 10
99.06040193939462
 20
5.473116616539486
 30
0.0
 10
99.0441644499515
 20
5.4710774755539
 30
0.0
  0
SPLINE
  5
B9
330
1F
100
AcDbEntity
  8
0
  6
Continuous
 62
     1
370
    15
100
AcDbSpline
210
0.0
220
0.0
230
1.0
 70
     8
 71
     3
 72
    17
 73
    13
 74
     0
 42
0.000000001
 43
0.00000001
 40
0.0
 40
0.0
 40
0.0
 40
0.0
 40
0.0212818039213427
 40
0.1306414709583022
 40
0.2399990469617322
 40
0.3493527818533494
 40
0.4587009290005123
 40
0.5680417467784589
 40
0.6773735001229967
 40
0.7849169259557383
 40
0.8924558271019197
 40
1.0
 40
1.0
 40
1.0
 40
1.0
 10
38.59323615157822
 20
-0.7580333715994653
 30
0.0
 10
38.40458171623536
 20
-0.6836228004281595
 30
0.0
 10
37.2464988287559
 20
-0.2268426088336913
 30
0.0
 10
35.11900594555163
 20
0.6457891430339524
 30
0.0
 10
32.2107976205706
 20
1.796227530121247
 30
0.0
 10
29.30270194784377
 20
2.871586830894211
 30
0.0
 10
26.39476990745244
 20
3.81999934909397
 30
0.0
 10
23.48705384692459
 20
4.600719883532486
 30
0.0
 10
20.59535653772408
 20
5.17757722800014
 30
0.0
 10
17.71967509200364
 20
5.523797879287939
 30
0.0
 10
14.85985348488377
 20
5.650272593921602
 30
0.0
 10
12.95330007169693
 20
5.533142020754243
 30
0.0
 10
12.0
 20
5.474575298717484
 30
0.0
  0
SPLINE
  5
BA
330
1F
100
AcDbEntity
  8
0
  6
Continuous
 62
   131
370
    15
100
AcDbSpline
210
0.0
220
0.0
230
1.0
 70
    24
 71
     3
 72
    10
 73
     6
 74
     0
 42
0.000000001
 43
0.00000001
 40
0.0
 40
0.0
 40
0.0
 40
0.0
 40
0.5
 40
0.5
 40
1.0
 40
1.0
 40
1.0
 40
1.0
 10
12.00000000000002
 20
7.745003850225815
 30
0.0
 10
12.00000000000002
 20
7.331750947718358
 30
0.0
 10
12.00000000000002
 20
6.905260915429524
 30
0.0
 10
12.00000000000002
 20
6.121041961187498
 30
0.0
 10
12.00000000000002
 20
5.765183403541192
 30
0.0
 10
12.00000000000002
 20
5.474575298717483
 30
0.0
  0
SPLINE
  5
BB
330
1F
100
AcDbEntity
  8
0
  6
Continuous
 62
     1
370
    15
100
AcDbSpline
210
0.0
220
0.0
230
1.0
 70
     8
 71
     3
 72
    17
 73
    13
 74
     0
 42
0.000000001
 43
0.00000001
 40
0.0
 40
0.0
 40
0.0
 40
0.0
 40
0.0181083689070696
 40
0.1273142507433334
 40
0.2365188531953713
 40
0.3457204275904163
 40
0.4549172279728293
 40
0.5641075126675492
 40
0.6732895458353657
 40
0.7824615990170711
 40
0.8916246503085005
 40
1.0
 40
1.0
 40
1.0
 40
1.0
 10
82.12743973311588
 20
-0.759523543547879
 30
0.0
 10
81.96668996570256
 20
-0.6961893658247446
 30
0.0
 10
80.83650887096009
 20
-0.2509066667232274
 30
0.0
 10
78.7369055774806
 20
0.6109405642915742
 30
0.0
 10
75.82866269526403
 20
1.762735392920652
 30
0.0
 10
72.92050845020671
 20
2.841214000099348
 30
0.0
 10
70.0124945504073
 20
3.794003266108414
 30
0.0
 10
67.10467180975256
 20
4.580252965952459
 30
0.0
 10
64.1970921275651
 20
5.166700763379374
 30
0.0
 10
61.28977896394461
 20
5.521773256541091
 30
0.0
 10
58.38966845328655
 20
5.651820639260558
 30
0.0
 10
56.45861610285522
 20
5.530945001897994
 30
0.0
 10
55.49658607594971
 20
5.470726027182912
 30
0.0
  0
SPLINE
  5
BC
330
1F
100
AcDbEntity
  8
0
  6
Continuous
 62
     1
370
    15
100
AcDbSpline
210
0.0
220
0.0
230
1.0
 70
     8
 71
     3
 72
     8
 73
     4
 74
     0
 42
0.000000001
 43
0.00000001
 40
0.0
 40
0.0
 40
0.0
 40
0.0
 40
1.0
 40
1.0
 40
1.0
 40
1.0
 10
97.05015961782927
 20
2.237560614295347
 30
0.0
 10
97.03334167603637
 20
2.257479982395536
 30
0.0
 10
97.01662136476904
 20
2.277367021151922
 30
0.0
 10
97.00000000000831
 20
2.297221294790954
 30
0.0
  0
LINE
  5
BD
330
1F
100
AcDbEntity
  8
0
  6
Continuous
 62
     1
370
    15
100
AcDbLine
 10
97.00000000000001
 20
2.937719435296606
 30
0.0
 11
102.0
 21
0.000000000000016
 31
0.0
  0
LINE
  5
BE
330
1F
100
AcDbEntity
  8
0
  6
Continuous
 62
     1
370
    15
100
AcDbLine
 10
102.0
 20
0.000000000000016
 30
0.0
 11
102.0
 21
-2.137943568237143
 31
0.0
  0
SPLINE
  5
BF
330
1F
100
AcDbEntity
  8
0
  6
Continuous
 62
     1
370
    15
100
AcDbSpline
210
0.0
220
0.0
230
1.0
 70
     8
 71
     3
 72
    12
 73
     8
 74
     0
 42
0.000000001
 43
0.00000001
 40
0.0
 40
0.0
 40
0.0
 40
0.0
 40
0.4999999999999976
 40
0.4999999999999976
 40
0.7499999999999988
 40
0.7499999999999988
 40
1.0
 40
1.0
 40
1.0
 40
1.0
 10
102.0
 20
-2.137943568237152
 30
0.0
 10
101.1431630450194
 20
-1.464327440546175
 30
0.0
 10
100.3006401780238
 20
-0.7630972272402718
 30
0.0
 10
99.05889110091626
 20
0.3312574405560051
 30
0.0
 10
98.64870036019444
 20
0.7032296227316487
 30
0.0
 10
97.83670336351734
 20
1.463348952643245
 30
0.0
 10
97.437096428692
 20
1.849539909839684
 30
0.0
 10
97.05015961782927
 20
2.237560614295343
 30
0.0
  0
SPLINE
  5
C0
330
1F
100
AcDbEntity
  8
0
  6
Continuous
 62
   131
370
    15
100
AcDbSpline
210
0.0
220
0.0
230
1.0
 70
    24
 71
     3
 72
    14
 73
    10
 74
     0
 42
0.000000001
 43
0.00000001
 40
0.0
 40
0.0
 40
0.0
 40
0.0
 40
0.2500000000000001
 40
0.2500000000000001
 40
0.5
 40
0.5
 40
0.75
 40
0.75
 40
1.0
 40
1.0
 40
1.0
 40
1.0
 10
12.0
 20
1.346936199230187
 30
0.0
 10
12.0
 20
0.7328154475751266
 30
0.0
 10
12.0
 20
0.0978110813716176
 30
0.0
 10
12.0
 20
-1.171684311069829
 30
0.0
 10
12.0
 20
-1.805832521819751
 30
0.0
 10
12.0
 20
-3.026610537360028
 30
0.0
 10
12.0
 20
-3.612887818517556
 30
0.0
 10
12.0
 20
-4.69764012011916
 30
0.0
 10
12.0
 20
-5.195917799503996
 30
0.0
 10
12.0
 20
-5.637927644395968
 30
0.0
  0
SPLINE
  5
C1
330
1F
100
AcDbEntity
  8
0
  6
Continuous
 62
     1
370
    15
100
AcDbSpline
210
0.0
220
0.0
230
1.0
 70
     8
 71
     3
 72
    14
 73
    10
 74
     0
 42
0.000000001
 43
0.00000001
 40
0.0
 40
0.0
 40
0.0
 40
0.0
 40
0.1812847596702072
 40
0.3626235630822336
 40
0.5204888831882873
 40
0.6783597892056196
 40
0.8362338207826266
 40
0.9941085147768756
 40
1.0
 40
1.0
 40
1.0
 40
1.0
 10
97.0501596178293
 20
2.237560614295337
 30
0.0
 10
95.93697058460008
 20
2.706850749622091
 30
0.0
 10
93.71026065957383
 20
3.645570922796683
 30
0.0
 10
90.51386093421384
 20
4.75815415825883
 30
0.0
 10
87.46167661204473
 20
5.588923503959913
 30
0.0
 10
84.55345205367715
 20
6.141817983065515
 30
0.0
 10
81.64519180480951
 20
6.393765373721755
 30
0.0
 10
79.67015228146539
 20
6.455238933748317
 30
0.0
 10
78.66454545456928
 20
6.355677607401698
 30
0.0
 10
78.62836876784897
 20
6.352095890555346
 30
0.0
  0
SPLINE
  5
C2
330
1F
100
AcDbEntity
  8
0
  6
Continuous
 62
     1
370
    15
100
AcDbSpline
210
0.0
220
0.0
230
1.0
 70
     8
 71
     3
 72
    18
 73
    14
 74
     0
 42
0.000000001
 43
0.00000001
 40
0.0
 40
0.0
 40
0.0
 40
0.0
 40
0.0202028899371776
 40
0.1186793299398957
 40
0.2171554726514432
 40
0.3156297815777995
 40
0.4141007218623972
 40
0.5125667616549195
 40
0.6110263734743652
 40
0.7094780355637936
 40
0.8063197951286832
 40
0.9031575857343866
 40
1.0
 40
1.0
 40
1.0
 40
1.0
 10
41.53222605722247
 20
-5.994072343867026
 30
0.0
 10
41.33334317706198
 20
-6.032016064043801
 30
0.0
 10
40.16503077089835
 20
-6.254911664624183
 30
0.0
 10
38.0272857673756
 20
-6.40366459745271
 30
0.0
 10
35.11901643314298
 20
-6.408851412505748
 30
0.0
 10
32.21080777841327
 20
-6.110346977406867
 30
0.0
 10
29.30271203943226
 20
-5.549745795790892
 30
0.0
 10
26.39477979516879
 20
-4.744002250248026
 30
0.0
 10
23.48706380495366
 20
-3.730646833513652
 30
0.0
 10
20.59536355625982
 20
-2.559578218112204
 30
0.0
 10
17.71968236845941
 20
-1.286242120579927
 30
0.0
 10
14.85986022280341
 20
0.0388703041187983
 30
0.0
 10
12.95330191246811
 20
0.910907294914844
 30
0.0
 10
12.00000000000002
 20
1.346936199230177
 30
0.0
  0
SPLINE
  5
C3
330
1F
100
AcDbEntity
  8
0
  6
Continuous
 62
     1
370
    15
100
AcDbSpline
210
0.0
220
0.0
230
1.0
 70
    24
 71
     3
 72
    10
 73
     6
 74
     0
 42
0.000000001
 43
0.00000001
 40
0.0
 40
0.0
 40
0.0
 40
0.0
 40
0.5
 40
0.5
 40
1.0
 40
1.0
 40
1.0
 40
1.0
 10
102.0
 20
-6.311778114945712
 30
0.0
 10
102.0
 20
-5.827931112030425
 30
0.0
 10
102.0
 20
-5.216571871251737
 30
0.0
 10
102.0
 20
-3.79522047320543
 30
0.0
 10
102.0
 20
-2.986459544410471
 30
0.0
 10
102.0
 20
-2.137943568237408
 30
0.0
  0
SPLINE
  5
C4
330
1F
100
AcDbEntity
  8
0
  6
Continuous
 62
     1
370
    15
100
AcDbSpline
210
0.0
220
0.0
230
1.0
 70
     8
 71
     3
 72
    26
 73
    22
 74
     0
 42
0.000000001
 43
0.00000001
 40
0.0
 40
0.0
 40
0.0
 40
0.0
 40
0.0101836270909604
 40
0.0683895211816623
 40
0.1265956594961129
 40
0.1848011336908517
 40
0.2430050360155231
 40
0.301206460122976
 40
0.3594045018766819
 40
0.4175982601539442
 40
0.4757868376433627
 40
0.5339707418342381
 40
0.5921588923536477
 40
0.6503522911545241
 40
0.7085500412450408
 40
0.7667512417622061
 40
0.8249549887688393
 40
0.8831603760563961
 40
0.9413664959521238
 40
0.9995724401290146
 40
1.0
 40
1.0
 40
1.0
 40
1.0
 10
85.06230261483555
 20
-5.996736100770194
 30
0.0
 10
84.89269340809167
 20
-6.029397318702025
 30
0.0
 10
83.75365990523376
 20
-6.248738132698487
 30
0.0
 10
81.64518941190751
 20
-6.398975654843311
 30
0.0
 10
78.73690930978596
 20
-6.413513648995329
 30
0.0
 10
75.82866588233885
 20
-6.123006142181777
 30
0.0
 10
72.9205116214235
 20
-5.570144027594068
 30
0.0
 10
70.01249756364368
 20
-4.771179529481145
 30
0.0
 10
67.10467470216335
 20
-3.763337954557292
 30
0.0
 10
64.1970948920376
 20
-2.590282506127339
 30
0.0
 10
61.28978221944612
 20
-1.303653041779675
 30
0.0
 10
58.38261305601714
 20
0.0402479635752337
 30
0.0
 10
55.47531718721747
 20
1.382306637338836
 30
0.0
 10
52.56775747958055
 20
2.663799698289561
 30
0.0
 10
49.65995118368085
 20
3.828276051484457
 30
0.0
 10
46.75194975621697
 20
4.825447498820163
 30
0.0
 10
43.8438043004239
 20
5.608473135849406
 30
0.0
 10
40.9355657418466
 20
6.154432386882205
 30
0.0
 10
38.02728685841754
 20
6.396614706475521
 30
0.0
 10
36.08130399958483
 20
6.455027334624276
 30
0.0
 10
35.10475736915488
 20
6.356808925140594
 30
0.0
 10
35.09763631851843
 20
6.356092709195988
 30
0.0
  0
SPLINE
  5
C5
330
1F
100
AcDbEntity
  8
0
  6
Continuous
 62
     1
370
    15
100
AcDbSpline
210
0.0
220
0.0
230
1.0
 70
    24
 71
     3
 72
     8
 73
     4
 74
     0
 42
0.000000001
 43
0.00000001
 40
0.0
 40
0.0
 40
0.0
 40
0.0
 40
1.0
 40
1.0
 40
1.0
 40
1.0
 10
97.0
 20
2.297221294800909
 30
0.0
 10
97.0
 20
2.87388751383248
 30
0.0
 10
97.00000000000001
 20
3.404182854907328
 30
0.0
 10
97.00000000000001
 20
3.849725336690634
 30
0.0
  0
SPLINE
  5
C6
330
1F
100
AcDbEntity
  8
0
  6
Continuous
 62
     1
370
    15
100
AcDbSpline
210
0.0
220
0.0
230
1.0
 70
     8
 71
     3
 72
    10
 73
     6
 74
     0
 42
0.000000001
 43
0.00000001
 40
0.0
 40
0.0
 40
0.0
 40
0.0
 40
0.5
 40
0.5
 40
1.0
 40
1.0
 40
1.0
 40
1.0
 10
102.0
 20
5.600000000000016
 30
0.0
 10
101.1545154810572
 20
5.370725705910428
 30
0.0
 10
100.3142708767343
 20
5.112464311961343
 30
0.0
 10
98.6452159193447
 20
4.532874482727862
 30
0.0
 10
97.81772385668928
 20
4.21251697254367
 30
0.0
 10
97.0
 20
3.849725336688071
 30
0.0
  0
SPLINE
  5
C7
330
1F
100
AcDbEntity
  8
0
  6
Continuous
 62
   131
370
    15
100
AcDbSpline
210
0.0
220
0.0
230
1.0
 70
    24
 71
     3
 72
    14
 73
    10
 74
     0
 42
0.000000001
 43
0.00000001
 40
0.0
 40
0.0
 40
0.0
 40
0.0
 40
0.25
 40
0.25
 40
0.5
 40
0.5
 40
0.75
 40
0.75
 40
1.0
 40
1.0
 40
1.0
 40
1.0
 10
12.00000000000002
 20
5.474575298717483
 30
0.0
 10
12.00000000000002
 20
5.472808630962814
 30
0.0
 10
12.00000000000002
 20
5.384118988019591
 30
0.0
 10
12.00000000000002
 20
5.01547255362314
 30
0.0
 10
12.00000000000002
 20
4.735323046011367
 30
0.0
 10
12.00000000000002
 20
4.001722573615199
 30
0.0
 10
12.00000000000002
 20
3.54866250183303
 30
0.0
 10
12.00000000000002
 20
2.521170949426763
 30
0.0
 10
12.00000000000002
 20
1.947472136161994
 30
0.0
 10
12.00000000000002
 20
1.346936199230178
 30
0.0
  0
LINE
  5
C8
330
1F
100
AcDbEntity
  8
0
  6
Continuous
 62
     1
370
    15
100
AcDbLine
 10
102.0
 20
0.000000000000016
 30
0.0
 11
102.0
 21
5.600000000000017
 31
0.0
  0
SPLINE
  5
C9
330
1F
100
AcDbEntity
  8
0
  6
Continuous
 62
   131
370
    15
100
AcDbSpline
210
0.0
220
0.0
230
1.0
 70
     8
 71
     3
 72
    10
 73
     6
 74
     0
 42
0.000000001
 43
0.00000001
 40
0.0
 40
0.0
 40
0.0
 40
0.0
 40
0.5
 40
0.5
 40
1.0
 40
1.0
 40
1.0
 40
1.0
 10
11.99999999999769
 20
-6.890376973183488
 30
0.0
 10
11.49300074114754
 20
-6.741379692244347
 30
0.0
 10
10.98253858648177
 20
-6.578114836842964
 30
0.0
 10
9.963931988954895
 20
-6.225887221718292
 30
0.0
 10
9.458520155935643
 20
-6.037305750352954
 30
0.0
 10
8.950241520348813
 20
-5.836587692593008
 30
0.0
  0
SPLINE
  5
CA
330
1F
100
AcDbEntity
  8
0
  6
Continuous
 62
   131
370
    15
100
AcDbSpline
210
0.0
220
0.0
230
1.0
 70
     8
 71
     3
 72
    10
 73
     6
 74
     0
 42
0.000000001
 43
0.00000001
 40
0.0
 40
0.0
 40
0.0
 40
0.0
 40
0.5
 40
0.5
 40
1.0
 40
1.0
 40
1.0
 40
1.0
 10
11.99999999999769
 20
-7.745003850225472
 30
0.0
 10
11.49298020420553
 20
-7.671553553435494
 30
0.0
 10
10.9824972317676
 20
-7.5822783102934
 30
0.0
 10
9.963849562052019
 20
-7.373556852362221
 30
0.0
 10
9.458417611499101
 20
-7.254373571598477
 30
0.0
 10
8.950117987707058
 20
-7.120590900632255
 30
0.0
  0
LINE
  5
CB
330
1F
100
AcDbEntity
  8
0
  6
Continuous
 62
   131
370
    15
100
AcDbLine
 10
8.950117987707062
 20
-7.999999999999996
 30
0.0
 11
8.950117987707058
 21
-7.120591294202807
 31
0.0
  0
SPLINE
  5
CC
330
1F
100
AcDbEntity
  8
0
  6
Continuous
 62
   131
370
    15
100
AcDbSpline
210
0.0
220
0.0
230
1.0
 70
     8
 71
     3
 72
    10
 73
     6
 74
     0
 42
0.000000001
 43
0.00000001
 40
0.0
 40
0.0
 40
0.0
 40
0.0
 40
0.5
 40
0.5
 40
1.0
 40
1.0
 40
1.0
 40
1.0
 10
11.99999999999769
 20
7.745003850225483
 30
0.0
 10
11.49298020420552
 20
7.671553553435504
 30
0.0
 10
10.9824972317676
 20
7.58227831029341
 30
0.0
 10
9.963849562052019
 20
7.373556852362231
 30
0.0
 10
9.458417611499101
 20
7.254373571598488
 30
0.0
 10
8.950117987707054
 20
7.120590900632266
 30
0.0
  0
LINE
  5
CD
330
1F
100
AcDbEntity
  8
0
  6
Continuous
 62
   131
370
    15
100
AcDbLine
 10
8.950117987707062
 20
-5.836353206151528
 30
0.0
 11
8.950117987707062
 21
8.000000000000004
 31
0.0
  0
LINE
  5
CE
330
1F
100
AcDbEntity
  8
0
  6
Continuous
 62
   131
370
    15
100
AcDbLine
 10
-46.99999999999997
 20
8.0
 30
0.0
 11
-46.99999999999997
 21
-7.999999999999999
 31
0.0
  0
LINE
  5
CF
330
1F
100
AcDbEntity
  8
0
  6
Continuous
 62
   131
370
    15
100
AcDbLine
 10
-47.99999999999998
 20
7.000000000000001
 30
0.0
 11
-47.99999999999998
 21
-6.999999999999998
 31
0.0
  0
SPLINE
  5
D0
330
1F
100
AcDbEntity
  8
0
  6
Continuous
 62
   131
370
    15
100
AcDbSpline
210
0.0
220
0.0
230
1.0
 70
     8
 71
     3
 72
    10
 73
     6
 74
     0
 42
0.000000001
 43
0.00000001
 40
0.0
 40
0.0
 40
0.0
 40
0.0
 40
0.5
 40
0.5
 40
1.0
 40
1.0
 40
1.0
 40
1.0
 10
11.99999999999553
 20
-5.637927644394741
 30
0.0
 10
11.49300074114573
 20
-5.498570780505628
 30
0.0
 10
10.98253858648033
 20
-5.347500116125429
 30
0.0
 10
9.963931988954174
 20
-5.024569994319974
 30
0.0
 10
9.458520155935283
 20
-4.853053251372589
 30
0.0
 10
8.950241520348813
 20
-4.671783356037678
 30
0.0
  0
SPLINE
  5
D1
330
1F
100
AcDbEntity
  8
0
  6
Continuous
 62
   131
370
    15
100
AcDbSpline
210
0.0
220
0.0
230
1.0
 70
     8
 71
     3
 72
    10
 73
     6
 74
     0
 42
0.000000001
 43
0.00000001
 40
0.0
 40
0.0
 40
0.0
 40
0.0
 40
0.5
 40
0.5
 40
1.0
 40
1.0
 40
1.0
 40
1.0
 10
11.9999999999948
 20
1.34693619923254
 30
0.0
 10
11.49298770456678
 20
1.576282275161079
 30
0.0
 10
10.98251233505722
 20
1.803426194089706
 30
0.0
 10
9.963879665445516
 20
2.249162464722477
 30
0.0
 10
9.458455062101738
 20
2.467373947421758
 30
0.0
 10
8.950163103477914
 20
2.680584061508722
 30
0.0
  0
SPLINE
  5
D2
330
1F
100
AcDbEntity
  8
0
  6
Continuous
 62
   131
370
    15
100
AcDbSpline
210
0.0
220
0.0
230
1.0
 70
    24
 71
     3
 72
    14
 73
    10
 74
     0
 42
0.000000001
 43
0.00000001
 40
0.0
 40
0.0
 40
0.0
 40
0.0
 40
0.2500000000000001
 40
0.2500000000000001
 40
0.5
 40
0.5
 40
0.75
 40
0.75
 40
1.0
 40
1.0
 40
1.0
 40
1.0
 10
12.0
 20
1.346936199230187
 30
0.0
 10
12.0
 20
0.7328154475751266
 30
0.0
 10
12.0
 20
0.0978110813716176
 30
0.0
 10
12.0
 20
-1.171684311069829
 30
0.0
 10
12.0
 20
-1.805832521819751
 30
0.0
 10
12.0
 20
-3.026610537360028
 30
0.0
 10
12.0
 20
-3.612887818517556
 30
0.0
 10
12.0
 20
-4.69764012011916
 30
0.0
 10
12.0
 20
-5.195917799503996
 30
0.0
 10
12.0
 20
-5.637927644395968
 30
0.0
  0
LINE
  5
D3
330
1F
100
AcDbEntity
  8
0
  6
Continuous
 62
   131
370
    15
100
AcDbLine
 10
12.0
 20
5.474575298717483
 30
0.0
 11
11.60142711553634
 21
5.42368031988621
 31
0.0
  0
SPLINE
  5
D4
330
1F
100
AcDbEntity
  8
0
  6
Continuous
 62
   131
370
    15
100
AcDbSpline
210
0.0
220
0.0
230
1.0
 70
    24
 71
     3
 72
    14
 73
    10
 74
     0
 42
0.000000001
 43
0.00000001
 40
0.0
 40
0.0
 40
0.0
 40
0.0
 40
0.25
 40
0.25
 40
0.5
 40
0.5
 40
0.75
 40
0.75
 40
1.0
 40
1.0
 40
1.0
 40
1.0
 10
12.00000000000002
 20
5.474575298717483
 30
0.0
 10
12.00000000000002
 20
5.472808630962814
 30
0.0
 10
12.00000000000002
 20
5.384118988019591
 30
0.0
 10
12.00000000000002
 20
5.01547255362314
 30
0.0
 10
12.00000000000002
 20
4.735323046011367
 30
0.0
 10
12.00000000000002
 20
4.001722573615199
 30
0.0
 10
12.00000000000002
 20
3.54866250183303
 30
0.0
 10
12.00000000000002
 20
2.521170949426763
 30
0.0
 10
12.00000000000002
 20
1.947472136161994
 30
0.0
 10
12.00000000000002
 20
1.346936199230178
 30
0.0
  0
SPLINE
  5
D5
330
1F
100
AcDbEntity
  8
0
  6
Continuous
 62
   131
370
    15
100
AcDbSpline
210
0.0
220
0.0
230
1.0
 70
    24
 71
     3
 72
     8
 73
     4
 74
     0
 42
0.000000001
 43
0.00000001
 40
0.0
 40
0.0
 40
0.0
 40
0.0
 40
1.0
 40
1.0
 40
1.0
 40
1.0
 10
12.00000000000017
 20
-5.637927644396019
 30
0.0
 10
12.00000000000017
 20
-6.046156352709998
 30
0.0
 10
12.00000000000017
 20
-6.466281574333449
 30
0.0
 10
12.00000000000017
 20
-6.890376973167542
 30
0.0
  0
SPLINE
  5
D6
330
1F
100
AcDbEntity
  8
0
  6
Continuous
 62
   131
370
    15
100
AcDbSpline
210
0.0
220
0.0
230
1.0
 70
    24
 71
     3
 72
    10
 73
     6
 74
     0
 42
0.000000001
 43
0.00000001
 40
0.0
 40
0.0
 40
0.0
 40
0.0
 40
0.5
 40
0.5
 40
1.0
 40
1.0
 40
1.0
 40
1.0
 10
12.00000000000002
 20
7.745003850225816
 30
0.0
 10
12.00000000000002
 20
7.331750947718359
 30
0.0
 10
12.00000000000002
 20
6.905260915429523
 30
0.0
 10
12.00000000000002
 20
6.121041961187502
 30
0.0
 10
12.00000000000002
 20
5.765183403541194
 30
0.0
 10
12.00000000000002
 20
5.474575298717483
 30
0.0
  0
LINE
  5
D7
330
1F
100
AcDbEntity
  8
중심선
100
AcDbLine
 10
-50.99999999999998
 20
-0.0000000000000004
 30
0.0
 11
109.0
 21
0.0000000000000167
 31
0.0
  0
CIRCLE
  5
D8
330
1F
100
AcDbEntity
  8
외형선
100
AcDbCircle
 10
0.0000000000000104
 20
0.0
 30
0.0
 40
3.000000000000005
  0
INSERT
  5
D9
330
1F
100
AcDbEntity
  8
0
  6
Continuous
 62
     7
100
AcDbBlockReference
 66
     1
  2
블럭10
 10
-22.93944368806589
 20
-52.04609937292004
 30
0.0
  0
ATTRIB
  5
DA
330
D9
100
AcDbEntity
  8
FORMAT
 62
     2
100
AcDbText
 10
-39.05870472750145
 20
-49.97073246008785
 30
0.0
 40
4.233333333333333
  1
SEME7016090E [ 2 FLUTE ]
 41
0.75
  7
SLDTEXTSTYLE0
 11
-39.05870472750145
 21
-52.08739912675452
 31
0.0
100
AcDbAttribute
  2
AUTOATTR0
 70
     0
 74
     1
  0
SEQEND
  5
DB
330
D9
100
AcDbEntity
  8
0
  6
Continuous
 62
     7
  0
HATCH
  5
DC
330
1F
100
AcDbEntity
  8
중심선
100
AcDbHatch
 10
0.0
 20
0.0
 30
0.0
210
0.0
220
0.0
230
1.0
  2
SOLID
 70
     1
 71
     0
 91
        1
 92
        0
 93
        4
 72
     1
 10
-17.22453438368504
 20
-35.7989250712761
 11
-20.67080962752232
 21
-35.7989250712761
 72
     1
 10
-20.67080962752232
 20
-35.7989250712761
 11
-22.79903948672635
 21
-38.3352506518487
 72
     1
 10
-22.79903948672635
 20
-38.3352506518487
 11
-19.35273115777591
 21
-38.33521122254621
 72
     1
 10
-19.35273115777591
 20
-38.33521122254621
 11
-17.22453438368504
 21
-35.7989250712761
 97
        0
 75
     0
 76
     1
 98
        1
 10
0.0
 20
0.0
  0
HATCH
  5
DD
330
1F
100
AcDbEntity
  8
중심선
100
AcDbHatch
 10
0.0
 20
0.0
 30
0.0
210
0.0
220
0.0
230
1.0
  2
SOLID
 70
     1
 71
     0
 91
        1
 92
        0
 93
        4
 72
     1
 10
-12.21177039264909
 20
-35.7989250712761
 11
-15.65804563648637
 21
-35.7989250712761
 72
     1
 10
-15.65804563648637
 20
-35.7989250712761
 11
-20.18918364484376
 21
-41.19892507127612
 72
     1
 10
-20.18918364484376
 20
-41.19892507127612
 11
-16.74290840100648
 21
-41.19892507127612
 72
     1
 10
-16.74290840100648
 20
-41.19892507127612
 11
-12.21177039264909
 21
-35.7989250712761
 97
        0
 75
     0
 76
     1
 98
        1
 10
0.0
 20
0.0
  0
HATCH
  5
DE
330
1F
100
AcDbEntity
  8
중심선
100
AcDbHatch
 10
0.0
 20
0.0
 30
0.0
210
0.0
220
0.0
230
1.0
  2
SOLID
 70
     1
 71
     0
 91
        1
 92
        0
 93
        4
 72
     1
 10
-7.199006401613195
 20
-35.79892507127613
 11
-10.64528164545031
 21
-35.7989250712761
 72
     1
 10
-10.64528164545031
 20
-35.7989250712761
 11
-17.69371854733956
 21
-44.19892507127612
 72
     1
 10
-17.69371854733956
 20
-44.19892507127612
 11
-14.24744330350228
 21
-44.19892507127612
 72
     1
 10
-14.24744330350228
 20
-44.19892507127612
 11
-7.199006401613195
 21
-35.79892507127613
 97
        0
 75
     0
 76
     1
 98
        1
 10
0.0
 20
0.0
  0
HATCH
  5
DF
330
1F
100
AcDbEntity
  8
중심선
100
AcDbHatch
 10
0.0
 20
0.0
 30
0.0
210
0.0
220
0.0
230
1.0
  2
SOLID
 70
     1
 71
     0
 91
        1
 92
        0
 93
        6
 72
     3
 10
-2.399115970600996
 20
-39.99892507132738
 11
3.960054785062284
 21
1.540850780301639E-10
 40
0.3939339440162633
 50
17.09539180608433
 51
320.0019657685079
 73
     0
 72
     1
 10
-0.7161163149004002
 20
-38.58681907591441
 11
1.589185558800638
 21
-36.65249236586649
 72
     3
 10
-2.399115970653842
 20
-39.99892507127625
 11
6.600054785286829
 21
-1.249000902703301E-13
 40
0.6363583540795982
 50
39.99873849337408
 51
368.4976242363725
 73
     1
 72
     1
 10
4.026216521246767
 20
-39.03892507120613
 11
-3.71904866381792
 21
-39.0389250712061
 72
     1
 10
-3.71904866381792
 20
-39.0389250712061
 11
-3.719073708263854
 21
-40.95892507120602
 72
     1
 10
-3.719073708263854
 20
-40.95892507120602
 11
0.7223060612081831
 21
-40.95892507120599
 97
        0
 75
     0
 76
     1
 98
        1
 10
0.0
 20
0.0
  0
DIMENSION
  5
E0
330
1F
100
AcDbEntity
  8
치수문자_일반주서
100
AcDbDimension
  2
_D
 10
116.824759502716
 20
8.000000000000389
 30
0.0
 11
116.824759502716
 21
18.5415000000004
 31
0.0
 70
   160
  1
%%c<>
 71
     2
 42
15.99999999999999
 52
-270.0
  3
SLDDIMSTYLE0
100
AcDbAlignedDimension
 13
102.0
 23
-7.999999999999661
 33
0.0
 14
102.0
 24
8.000000000000334
 34
0.0
 50
90.0000000000002
100
AcDbRotatedDimension
  0
DIMENSION
  5
EE
330
1F
100
AcDbEntity
  8
치수문자_일반주서
100
AcDbDimension
  2
_D_1
 10
102.0
 20
28.7884104402427
 30
0.0
 11
27.00000000000002
 21
28.7884104402427
 31
0.0
 70
   160
  1
<>
 71
     2
 42
150.0
  3
SLDDIMSTYLE1
100
AcDbAlignedDimension
 13
-47.99999999999998
 23
7.000000000000001
 33
0.0
 14
102.0
 24
8.000000000000334
 34
0.0
 50
-0.0000000000000041
100
AcDbRotatedDimension
  0
DIMENSION
  5
F9
330
1F
100
AcDbEntity
  8
치수문자_일반주서
100
AcDbDimension
  2
_D_2
 10
102.0
 20
21.0920016563934
 30
0.0
 11
56.99999999999999
 21
21.0920016563934
 31
0.0
 70
   160
  1
<>
 71
     2
 42
89.99999999999999
  3
SLDDIMSTYLE1
100
AcDbAlignedDimension
 13
12.00000000000002
 23
7.74500385022582
 33
0.0
 14
102.0
 24
8.000000000000334
 34
0.0
 50
0.0000000000000701
100
AcDbRotatedDimension
  0
DIMENSION
  5
103
330
1F
100
AcDbEntity
  8
치수문자_일반주서
100
AcDbDimension
  2
_D_3
 10
-61.43457504232337
 20
-8.00000000000005
 30
0.0
 11
-61.43457504232347
 21
18.54149999999995
 31
0.0
 70
   160
  1
%%c<>
 71
     2
 42
16.0
 52
-270.0
  3
SLDDIMSTYLE0
100
AcDbAlignedDimension
 13
-46.99999999999997
 23
8.0
 33
0.0
 14
-46.99999999999997
 24
-7.999999999999996
 34
0.0
 50
90.0000000000002
100
AcDbRotatedDimension
  0
INSERT
  5
116
330
1F
100
AcDbEntity
  8
외형선
100
AcDbBlockReference
  2
SW_DOWELSYMBOL_0
 10
0.0000000000000104
 20
0.0
 30
0.0
  0
ENDSEC
  0
SECTION
  2
OBJECTS
  0
DICTIONARY
  5
C
330
0
100
AcDbDictionary
281
     1
  3
ACAD_GROUP
350
D
  3
ACAD_IMAGE_VARS
350
13A
  3
ACAD_LAYOUT
350
1A
  3
ACAD_MLINESTYLE
350
17
  3
ACAD_PLOTSETTINGS
350
19
  3
ACAD_PLOTSTYLENAME
350
E
  3
ACAD_SCALELIST
350
47
  3
APPDATA
350
138
  3
DWGPROPS
350
149
  0
DICTIONARY
  5
D
102
{ACAD_REACTORS
330
C
102
}
330
C
100
AcDbDictionary
281
     1
  0
RASTERVARIABLES
  5
13A
102
{ACAD_REACTORS
330
C
102
}
330
C
100
AcDbRasterVariables
 90
        0
 70
     1
 71
     1
 72
     1
  0
DICTIONARY
  5
1A
102
{ACAD_REACTORS
330
C
102
}
330
C
100
AcDbDictionary
281
     1
  3
Layout1
350
1E
  3
Layout2
350
26
  3
Model
350
22
  0
DICTIONARY
  5
17
102
{ACAD_REACTORS
330
C
102
}
330
C
100
AcDbDictionary
281
     1
  3
Standard
350
18
  0
DICTIONARY
  5
19
102
{ACAD_REACTORS
330
C
102
}
330
C
100
AcDbDictionary
281
     1
  0
ACDBDICTIONARYWDFLT
  5
E
102
{ACAD_REACTORS
330
C
102
}
330
C
100
AcDbDictionary
281
     1
  3
Normal
350
F
100
AcDbDictionaryWithDefault
340
F
  0
DICTIONARY
  5
47
102
{ACAD_REACTORS
330
C
102
}
330
C
100
AcDbDictionary
281
     1
  3
A0
350
48
  3
A1
350
49
  3
A2
350
4A
  3
A3
350
4B
  3
A4
350
4C
  3
A5
350
4D
  3
A6
350
4E
  3
A7
350
4F
  3
A8
350
50
  3
A9
350
51
  3
B0
350
52
  3
B1
350
53
  3
B2
350
54
  3
B3
350
55
  3
B4
350
56
  3
B5
350
57
  3
B6
350
58
  3
B7
350
59
  3
B8
350
5A
  3
B9
350
5B
  3
C0
350
5C
  3
C1
350
5D
  3
C2
350
5E
  3
C3
350
5F
  3
C4
350
60
  3
C5
350
61
  3
C6
350
62
  3
C7
350
63
  3
C8
350
64
  3
C9
350
65
  3
D0
350
66
  3
D1
350
67
  3
D2
350
68
  0
DICTIONARY
  5
138
102
{ACAD_REACTORS
330
C
102
}
330
C
100
AcDbDictionary
281
     1
  0
XRECORD
  5
149
102
{ACAD_REACTORS
330
C
102
}
330
C
100
AcDbXrecord
280
     1
  1
DWGPROPS COOKIE
  2

  3

  4

  6

  7

  8
12014102
  9

300
=
301
=
302
=
303
=
304
=
305
=
306
=
307
=
308
=
309
=
 40
0.0
 41
2458262.176867373
 42
2458266.185332164
  1

 90
        0
  0
LAYOUT
  5
1E
102
{ACAD_REACTORS
330
1A
102
}
330
1A
100
AcDbPlotSettings
  1

  2
none_device
  4

  6

 40
0.0
 41
0.0
 42
0.0
 43
0.0
 44
0.0
 45
0.0
 46
0.0
 47
0.0
 48
0.0
 49
0.0
140
0.0
141
0.0
142
1.0
143
1.0
 70
   688
 72
     1
 73
     0
 74
     5
  7

 75
    16
147
1.0
148
0.0
149
0.0
100
AcDbLayout
  1
Layout1
 70
     1
 71
     1
 10
0.0
 20
0.0
 11
420.0
 21
297.0
 12
0.0
 22
0.0
 32
0.0
 14
1.000000000000000E+20
 24
1.000000000000000E+20
 34
1.000000000000000E+20
 15
-1.000000000000000E+20
 25
-1.000000000000000E+20
 35
-1.000000000000000E+20
146
0.0
 13
0.0
 23
0.0
 33
0.0
 16
1.0
 26
0.0
 36
0.0
 17
0.0
 27
1.0
 37
0.0
 76
     0
330
1B
  0
LAYOUT
  5
26
102
{ACAD_REACTORS
330
1A
102
}
330
1A
100
AcDbPlotSettings
  1

  2
none_device
  4

  6

 40
0.0
 41
0.0
 42
0.0
 43
0.0
 44
0.0
 45
0.0
 46
0.0
 47
0.0
 48
0.0
 49
0.0
140
0.0
141
0.0
142
1.0
143
1.0
 70
   688
 72
     1
 73
     0
 74
     5
  7

 75
    16
147
1.0
148
0.0
149
0.0
100
AcDbLayout
  1
Layout2
 70
     1
 71
     2
 10
0.0
 20
0.0
 11
0.0
 21
0.0
 12
0.0
 22
0.0
 32
0.0
 14
0.0
 24
0.0
 34
0.0
 15
0.0
 25
0.0
 35
0.0
146
0.0
 13
0.0
 23
0.0
 33
0.0
 16
1.0
 26
0.0
 36
0.0
 17
0.0
 27
1.0
 37
0.0
 76
     0
330
23
  0
LAYOUT
  5
22
102
{ACAD_REACTORS
330
1A
102
}
330
1A
100
AcDbPlotSettings
  1

  2
none_device
  4
ANSI_A_(11.00_x_8.50_Inches)
  6

 40
6.35
 41
19.05
 42
6.35000508
 43
19.05000254
 44
279.4
 45
215.9
 46
96.75842563169341
 47
103.4026590894338
 48
0.0
 49
0.0
140
0.0
141
0.0
142
0.065578048070227
143
1.0
 70
  1696
 72
     0
 73
     0
 74
     0
  7

 75
     0
147
0.0235690232323232
148
0.0
149
0.0
100
AcDbLayout
  1
Model
 70
     1
 71
     0
 10
0.0
 20
0.0
 11
420.0
 21
297.0
 12
0.0
 22
0.0
 32
0.0
 14
-65.80957504232349
 24
-49.97073246008785
 34
0.0
 15
117.3750928360494
 25
33.1634104402427
 35
0.0
146
0.0
 13
0.0
 23
0.0
 33
0.0
 16
1.0
 26
0.0
 36
0.0
 17
0.0
 27
1.0
 37
0.0
 76
     0
330
1F
331
29
  0
MLINESTYLE
  5
18
102
{ACAD_REACTORS
330
17
102
}
330
17
100
AcDbMlineStyle
  2
Standard
 70
     0
  3

 62
   256
 51
90.0
 52
90.0
 71
     2
 49
0.5
 62
   256
  6
BYLAYER
 49
-0.5
 62
   256
  6
BYLAYER
  0
ACDBPLACEHOLDER
  5
F
102
{ACAD_REACTORS
330
E
102
}
330
E
  0
SCALE
  5
48
102
{ACAD_REACTORS
330
47
102
}
330
47
100
AcDbScale
 70
     0
300
1:1
140
1.0
141
1.0
290
     1
  0
SCALE
  5
49
102
{ACAD_REACTORS
330
47
102
}
330
47
100
AcDbScale
 70
     0
300
1:2
140
1.0
141
2.0
290
     0
  0
SCALE
  5
4A
102
{ACAD_REACTORS
330
47
102
}
330
47
100
AcDbScale
 70
     0
300
1:4
140
1.0
141
4.0
290
     0
  0
SCALE
  5
4B
102
{ACAD_REACTORS
330
47
102
}
330
47
100
AcDbScale
 70
     0
300
1:5
140
1.0
141
5.0
290
     0
  0
SCALE
  5
4C
102
{ACAD_REACTORS
330
47
102
}
330
47
100
AcDbScale
 70
     0
300
1:8
140
1.0
141
8.0
290
     0
  0
SCALE
  5
4D
102
{ACAD_REACTORS
330
47
102
}
330
47
100
AcDbScale
 70
     0
300
1:10
140
1.0
141
10.0
290
     0
  0
SCALE
  5
4E
102
{ACAD_REACTORS
330
47
102
}
330
47
100
AcDbScale
 70
     0
300
1:16
140
1.0
141
16.0
290
     0
  0
SCALE
  5
4F
102
{ACAD_REACTORS
330
47
102
}
330
47
100
AcDbScale
 70
     0
300
1:20
140
1.0
141
20.0
290
     0
  0
SCALE
  5
50
102
{ACAD_REACTORS
330
47
102
}
330
47
100
AcDbScale
 70
     0
300
1:30
140
1.0
141
30.0
290
     0
  0
SCALE
  5
51
102
{ACAD_REACTORS
330
47
102
}
330
47
100
AcDbScale
 70
     0
300
1:40
140
1.0
141
40.0
290
     0
  0
SCALE
  5
52
102
{ACAD_REACTORS
330
47
102
}
330
47
100
AcDbScale
 70
     0
300
1:50
140
1.0
141
50.0
290
     0
  0
SCALE
  5
53
102
{ACAD_REACTORS
330
47
102
}
330
47
100
AcDbScale
 70
     0
300
1:100
140
1.0
141
100.0
290
     0
  0
SCALE
  5
54
102
{ACAD_REACTORS
330
47
102
}
330
47
100
AcDbScale
 70
     0
300
2:1
140
2.0
141
1.0
290
     0
  0
SCALE
  5
55
102
{ACAD_REACTORS
330
47
102
}
330
47
100
AcDbScale
 70
     0
300
4:1
140
4.0
141
1.0
290
     0
  0
SCALE
  5
56
102
{ACAD_REACTORS
330
47
102
}
330
47
100
AcDbScale
 70
     0
300
8:1
140
8.0
141
1.0
290
     0
  0
SCALE
  5
57
102
{ACAD_REACTORS
330
47
102
}
330
47
100
AcDbScale
 70
     0
300
10:1
140
10.0
141
1.0
290
     0
  0
SCALE
  5
58
102
{ACAD_REACTORS
330
47
102
}
330
47
100
AcDbScale
 70
     0
300
100:1
140
100.0
141
1.0
290
     0
  0
SCALE
  5
59
102
{ACAD_REACTORS
330
47
102
}
330
47
100
AcDbScale
 70
     0
300
1/128" = 1'-0"
140
0.0078125
141
12.0
290
     0
  0
SCALE
  5
5A
102
{ACAD_REACTORS
330
47
102
}
330
47
100
AcDbScale
 70
     0
300
1/64" = 1'-0"
140
0.015625
141
12.0
290
     0
  0
SCALE
  5
5B
102
{ACAD_REACTORS
330
47
102
}
330
47
100
AcDbScale
 70
     0
300
1/32" = 1'-0"
140
0.03125
141
12.0
290
     0
  0
SCALE
  5
5C
102
{ACAD_REACTORS
330
47
102
}
330
47
100
AcDbScale
 70
     0
300
1/16" = 1'-0"
140
0.0625
141
12.0
290
     0
  0
SCALE
  5
5D
102
{ACAD_REACTORS
330
47
102
}
330
47
100
AcDbScale
 70
     0
300
3/32" = 1'-0"
140
0.09375
141
12.0
290
     0
  0
SCALE
  5
5E
102
{ACAD_REACTORS
330
47
102
}
330
47
100
AcDbScale
 70
     0
300
1/8" = 1'-0"
140
0.125
141
12.0
290
     0
  0
SCALE
  5
5F
102
{ACAD_REACTORS
330
47
102
}
330
47
100
AcDbScale
 70
     0
300
3/16" = 1'-0"
140
0.1875
141
12.0
290
     0
  0
SCALE
  5
60
102
{ACAD_REACTORS
330
47
102
}
330
47
100
AcDbScale
 70
     0
300
1/4" = 1'-0"
140
0.25
141
12.0
290
     0
  0
SCALE
  5
61
102
{ACAD_REACTORS
330
47
102
}
330
47
100
AcDbScale
 70
     0
300
3/8" = 1'-0"
140
0.375
141
12.0
290
     0
  0
SCALE
  5
62
102
{ACAD_REACTORS
330
47
102
}
330
47
100
AcDbScale
 70
     0
300
1/2" = 1'-0"
140
0.5
141
12.0
290
     0
  0
SCALE
  5
63
102
{ACAD_REACTORS
330
47
102
}
330
47
100
AcDbScale
 70
     0
300
3/4" = 1'-0"
140
0.75
141
12.0
290
     0
  0
SCALE
  5
64
102
{ACAD_REACTORS
330
47
102
}
330
47
100
AcDbScale
 70
     0
300
1" = 1'-0"
140
1.0
141
12.0
290
     0
  0
SCALE
  5
65
102
{ACAD_REACTORS
330
47
102
}
330
47
100
AcDbScale
 70
     0
300
1-1/2" = 1'-0"
140
1.5
141
12.0
290
     0
  0
SCALE
  5
66
102
{ACAD_REACTORS
330
47
102
}
330
47
100
AcDbScale
 70
     0
300
3" = 1'-0"
140
3.0
141
12.0
290
     0
  0
SCALE
  5
67
102
{ACAD_REACTORS
330
47
102
}
330
47
100
AcDbScale
 70
     0
300
6" = 1'-0"
140
6.0
141
12.0
290
     0
  0
SCALE
  5
68
102
{ACAD_REACTORS
330
47
102
}
330
47
100
AcDbScale
 70
     0
300
1'-0" = 1'-0"
140
12.0
141
12.0
290
     0
  0
ENDSEC
  0
EOF
