  0
SECTION
  2
HEADER
  9
$ACADVER
  1
AC1015
  9
$ACADMAINTVER
 70
     6
  9
$DWGCODEPAGE
  3
ANSI_949
  9
$INSBASE
 10
0.0
 20
0.0
 30
0.0
  9
$EXTMIN
 10
-82.97713568417952
 20
-49.97073246008785
 30
0.0
  9
$EXTMAX
 10
96.63225759155078
 20
33.1634104402427
 30
0.0
  9
$LIMMIN
 10
0.0
 20
0.0
  9
$LIMMAX
 10
420.0
 20
297.0
  9
$ORTHOMODE
 70
     0
  9
$REGENMODE
 70
     1
  9
$FILLMODE
 70
     1
  9
$QTEXTMODE
 70
     0
  9
$MIRRTEXT
 70
     1
  9
$LTSCALE
 40
1.0
  9
$ATTMODE
 70
     1
  9
$TEXTSIZE
 40
3.5
  9
$TRACEWID
 40
1.0
  9
$TEXTSTYLE
  7
Standard
  9
$CLAYER
  8
0
  9
$CELTYPE
  6
ByLayer
  9
$CECOLOR
 62
   256
  9
$CELTSCALE
 40
1.0
  9
$DISPSILH
 70
     0
  9
$DIMSCALE
 40
1.0
  9
$DIMASZ
 40
3.302
  9
$DIMEXO
 40
1.0
  9
$DIMDLI
 40
3.75
  9
$DIMRND
 40
0.0
  9
$DIMDLE
 40
0.0
  9
$DIMEXE
 40
1.0
  9
$DIMTP
 40
0.0
  9
$DIMTM
 40
0.0
  9
$DIMTXT
 40
3.5
  9
$DIMCEN
 40
2.5
  9
$DIMTSZ
 40
0.0
  9
$DIMTOL
 70
     0
  9
$DIMLIM
 70
     0
  9
$DIMTIH
 70
     1
  9
$DIMTOH
 70
     1
  9
$DIMSE1
 70
     0
  9
$DIMSE2
 70
     0
  9
$DIMTAD
 70
     1
  9
$DIMZIN
 70
     0
  9
$DIMBLK
  1

  9
$DIMASO
 70
     1
  9
$DIMSHO
 70
     1
  9
$DIMPOST
  1

  9
$DIMAPOST
  1

  9
$DIMALT
 70
     0
  9
$DIMALTD
 70
     3
  9
$DIMALTF
 40
0.0393700787401575
  9
$DIMLFAC
 40
1.0
  9
$DIMTOFL
 70
     1
  9
$DIMTVP
 40
0.0
  9
$DIMTIX
 70
     0
  9
$DIMSOXD
 70
     0
  9
$DIMSAH
 70
     0
  9
$DIMBLK1
  1

  9
$DIMBLK2
  1

  9
$DIMSTYLE
  2
ISO-25
  9
$DIMCLRD
 70
     0
  9
$DIMCLRE
 70
     0
  9
$DIMCLRT
 70
     0
  9
$DIMTFAC
 40
1.0
  9
$DIMGAP
 40
1.524
  9
$DIMJUST
 70
     0
  9
$DIMSD1
 70
     0
  9
$DIMSD2
 70
     0
  9
$DIMTOLJ
 70
     0
  9
$DIMTZIN
 70
     0
  9
$DIMALTZ
 70
     0
  9
$DIMALTTZ
 70
     0
  9
$DIMUPT
 70
     0
  9
$DIMDEC
 70
     2
  9
$DIMTDEC
 70
     2
  9
$DIMALTU
 70
     2
  9
$DIMALTTD
 70
     3
  9
$DIMTXSTY
  7
Standard
  9
$DIMAUNIT
 70
     0
  9
$DIMADEC
 70
     2
  9
$DIMALTRND
 40
0.0
  9
$DIMAZIN
 70
     0
  9
$DIMDSEP
 70
    44
  9
$DIMATFIT
 70
     3
  9
$DIMFRAC
 70
     0
  9
$DIMLDRBLK
  1

  9
$DIMLUNIT
 70
     2
  9
$DIMLWD
 70
    -2
  9
$DIMLWE
 70
    -2
  9
$DIMTMOVE
 70
     0
  9
$LUNITS
 70
     2
  9
$LUPREC
 70
     2
  9
$SKETCHINC
 40
1.0
  9
$FILLETRAD
 40
10.0
  9
$AUNITS
 70
     0
  9
$AUPREC
 70
     2
  9
$MENU
  1
.
  9
$ELEVATION
 40
0.0
  9
$PELEVATION
 40
0.0
  9
$THICKNESS
 40
0.0
  9
$LIMCHECK
 70
     0
  9
$CHAMFERA
 40
0.0
  9
$CHAMFERB
 40
0.0
  9
$CHAMFERC
 40
0.0
  9
$CHAMFERD
 40
0.0
  9
$SKPOLY
 70
     0
  9
$TDCREATE
 40
2458262.55111625
  9
$TDUCREATE
 40
2458262.17611625
  9
$TDUPDATE
 40
2458266.690418345
  9
$TDUUPDATE
 40
2458266.315418345
  9
$TDINDWG
 40
0.0011964931
  9
$TDUSRTIMER
 40
2458266.314221886
  9
$USRTIMER
 70
     1
  9
$ANGBASE
 50
0.0
  9
$ANGDIR
 70
     0
  9
$PDMODE
 70
     0
  9
$PDSIZE
 40
-1.0
  9
$PLINEWID
 40
0.0
  9
$SPLFRAME
 70
     0
  9
$SPLINETYPE
 70
     6
  9
$SPLINESEGS
 70
     8
  9
$HANDSEED
  5
144
  9
$SURFTAB1
 70
     6
  9
$SURFTAB2
 70
     6
  9
$SURFTYPE
 70
     6
  9
$SURFU
 70
     6
  9
$SURFV
 70
     6
  9
$UCSBASE
  2

  9
$UCSNAME
  2

  9
$UCSORG
 10
0.0
 20
0.0
 30
0.0
  9
$UCSXDIR
 10
1.0
 20
0.0
 30
0.0
  9
$UCSYDIR
 10
0.0
 20
1.0
 30
0.0
  9
$UCSORTHOREF
  2

  9
$UCSORTHOVIEW
 70
     0
  9
$UCSORGTOP
 10
0.0
 20
0.0
 30
0.0
  9
$UCSORGBOTTOM
 10
0.0
 20
0.0
 30
0.0
  9
$UCSORGLEFT
 10
0.0
 20
0.0
 30
0.0
  9
$UCSORGRIGHT
 10
0.0
 20
0.0
 30
0.0
  9
$UCSORGFRONT
 10
0.0
 20
0.0
 30
0.0
  9
$UCSORGBACK
 10
0.0
 20
0.0
 30
0.0
  9
$PUCSBASE
  2

  9
$PUCSNAME
  2

  9
$PUCSORG
 10
0.0
 20
0.0
 30
0.0
  9
$PUCSXDIR
 10
1.0
 20
0.0
 30
0.0
  9
$PUCSYDIR
 10
0.0
 20
1.0
 30
0.0
  9
$PUCSORTHOREF
  2

  9
$PUCSORTHOVIEW
 70
     0
  9
$PUCSORGTOP
 10
0.0
 20
0.0
 30
0.0
  9
$PUCSORGBOTTOM
 10
0.0
 20
0.0
 30
0.0
  9
$PUCSORGLEFT
 10
0.0
 20
0.0
 30
0.0
  9
$PUCSORGRIGHT
 10
0.0
 20
0.0
 30
0.0
  9
$PUCSORGFRONT
 10
0.0
 20
0.0
 30
0.0
  9
$PUCSORGBACK
 10
0.0
 20
0.0
 30
0.0
  9
$USERI1
 70
     0
  9
$USERI2
 70
     0
  9
$USERI3
 70
     0
  9
$USERI4
 70
     0
  9
$USERI5
 70
     0
  9
$USERR1
 40
0.0
  9
$USERR2
 40
0.0
  9
$USERR3
 40
0.0
  9
$USERR4
 40
0.0
  9
$USERR5
 40
0.0
  9
$WORLDVIEW
 70
     1
  9
$SHADEDGE
 70
     3
  9
$SHADEDIF
 70
    70
  9
$TILEMODE
 70
     1
  9
$MAXACTVP
 70
    64
  9
$PINSBASE
 10
0.0
 20
0.0
 30
0.0
  9
$PLIMCHECK
 70
     0
  9
$PEXTMIN
 10
1.000000000000000E+20
 20
1.000000000000000E+20
 30
1.000000000000000E+20
  9
$PEXTMAX
 10
-1.000000000000000E+20
 20
-1.000000000000000E+20
 30
-1.000000000000000E+20
  9
$PLIMMIN
 10
0.0
 20
0.0
  9
$PLIMMAX
 10
0.0
 20
0.0
  9
$UNITMODE
 70
     0
  9
$VISRETAIN
 70
     1
  9
$PLINEGEN
 70
     0
  9
$PSLTSCALE
 70
     1
  9
$TREEDEPTH
 70
  3020
  9
$CMLSTYLE
  2
Standard
  9
$CMLJUST
 70
     0
  9
$CMLSCALE
 40
20.0
  9
$PROXYGRAPHICS
 70
     1
  9
$MEASUREMENT
 70
     1
  9
$CELWEIGHT
370
    -1
  9
$ENDCAPS
280
     0
  9
$JOINSTYLE
280
     0
  9
$LWDISPLAY
290
     1
  9
$INSUNITS
 70
     4
  9
$HYPERLINKBASE
  1

  9
$STYLESHEET
  1

  9
$XEDIT
290
     1
  9
$CEPSNTYPE
380
     0
  9
$PSTYLEMODE
290
     1
  9
$FINGERPRINTGUID
  2
{27962177-6A86-4AE9-8DDB-5666472ACA8F}
  9
$VERSIONGUID
  2
{FAEB1C32-E019-11D5-929B-00C0DF256EC4}
  9
$EXTNAMES
290
     1
  9
$PSVPSCALE
 40
0.0
  9
$OLESTARTUP
290
     0
  0
ENDSEC
  0
SECTION
  2
CLASSES
  0
CLASS
  1
ACDBDICTIONARYWDFLT
  2
AcDbDictionaryWithDefault
  3
ObjectDBX Classes
 90
        0
280
     0
281
     0
  0
CLASS
  1
VISUALSTYLE
  2
AcDbVisualStyle
  3
ObjectDBX Classes
 90
     4095
280
     0
281
     0
  0
CLASS
  1
MATERIAL
  2
AcDbMaterial
  3
ObjectDBX Classes
 90
     1153
280
     0
281
     0
  0
CLASS
  1
SCALE
  2
AcDbScale
  3
ObjectDBX Classes
 90
     1153
280
     0
281
     0
  0
CLASS
  1
SUN
  2
AcDbSun
  3
SCENEOE
 90
     1153
280
     0
281
     0
  0
CLASS
  1
ACDBPLACEHOLDER
  2
AcDbPlaceHolder
  3
ObjectDBX Classes
 90
        0
280
     0
281
     0
  0
CLASS
  1
LAYOUT
  2
AcDbLayout
  3
ObjectDBX Classes
 90
        0
280
     0
281
     0
  0
CLASS
  1
TABLESTYLE
  2
AcDbTableStyle
  3
ObjectDBX Classes
 90
     4095
280
     0
281
     0
  0
CLASS
  1
MLEADERSTYLE
  2
AcDbMLeaderStyle
  3
ACDB_MLEADERSTYLE_CLASS
 90
     4095
280
     0
281
     0
  0
CLASS
  1
RASTERVARIABLES
  2
AcDbRasterVariables
  3
ISM
 90
        0
280
     0
281
     0
  0
ENDSEC
  0
SECTION
  2
TABLES
  0
TABLE
  2
VPORT
  5
8
330
0
100
AcDbSymbolTable
 70
     1
  0
VPORT
  5
29
330
8
100
AcDbSymbolTableRecord
100
AcDbViewportTableRecord
  2
*Active
 70
     0
 10
0.0
 20
0.0
 11
1.0
 21
1.0
 12
6.827560953685634
 22
-8.40366100992258
 13
0.0
 23
0.0
 14
10.0
 24
10.0
 15
10.0
 25
10.0
 16
0.0
 26
0.0
 36
1.0
 17
0.0
 27
0.0
 37
0.0
 40
158.9663943983448
 41
1.152454780361757
 42
50.0
 43
0.0
 44
0.0
 50
0.0
 51
0.0
 71
    16
 72
  2000
 73
     1
 74
     3
 75
     0
 76
     0
 77
     0
 78
     0
281
     0
 65
     1
110
0.0
120
0.0
130
0.0
111
1.0
121
0.0
131
0.0
112
0.0
122
1.0
132
0.0
 79
     0
146
0.0
  0
ENDTAB
  0
TABLE
  2
LTYPE
  5
5
330
0
100
AcDbSymbolTable
 70
     6
  0
LTYPE
  5
14
330
5
100
AcDbSymbolTableRecord
100
AcDbLinetypeTableRecord
  2
ByBlock
 70
     0
  3

 72
    65
 73
     0
 40
0.0
  0
LTYPE
  5
15
330
5
100
AcDbSymbolTableRecord
100
AcDbLinetypeTableRecord
  2
ByLayer
 70
     0
  3

 72
    65
 73
     0
 40
0.0
  0
LTYPE
  5
16
330
5
100
AcDbSymbolTableRecord
100
AcDbLinetypeTableRecord
  2
Continuous
 70
     0
  3
Solid line
 72
    65
 73
     0
 40
0.0
  0
LTYPE
  5
6A
330
5
100
AcDbSymbolTableRecord
100
AcDbLinetypeTableRecord
  2
HIDDEN
 70
     0
  3
Hidden __ __ __ __ __ __ __ __ __ __ __ __ __ __
 72
    65
 73
     2
 40
1.905
 49
1.27
 74
     0
 49
-0.635
 74
     0
  0
LTYPE
  5
6B
330
5
100
AcDbSymbolTableRecord
100
AcDbLinetypeTableRecord
  2
PHANTOM
 70
     0
  3
Phantom ______  __  __  ______  __  __  ______
 72
    65
 73
     6
 40
12.7
 49
6.35
 74
     0
 49
-1.27
 74
     0
 49
1.27
 74
     0
 49
-1.27
 74
     0
 49
1.27
 74
     0
 49
-1.27
 74
     0
  0
LTYPE
  5
6C
330
5
100
AcDbSymbolTableRecord
100
AcDbLinetypeTableRecord
  2
CENTER
 70
     0
  3
Center ____ _ ____ _ ____ _ ____ _ ____ _ ____
 72
    65
 73
     4
 40
10.16
 49
6.35
 74
     0
 49
-1.27
 74
     0
 49
1.27
 74
     0
 49
-1.27
 74
     0
  0
LTYPE
  5
6D
330
5
100
AcDbSymbolTableRecord
100
AcDbLinetypeTableRecord
  2
CENTERX2
 70
     0
  3
Center (2x) ________  __  ________  __  _____
 72
    65
 73
     4
 40
20.32
 49
12.7
 74
     0
 49
-2.54
 74
     0
 49
2.54
 74
     0
 49
-2.54
 74
     0
  0
LTYPE
  5
6E
330
5
100
AcDbSymbolTableRecord
100
AcDbLinetypeTableRecord
  2
DOT2
 70
     0
  3
Dot (.5x) ........................................
 72
    65
 73
     2
 40
0.635
 49
0.0
 74
     0
 49
-0.635
 74
     0
  0
ENDTAB
  0
TABLE
  2
LAYER
  5
2
330
0
100
AcDbSymbolTable
 70
    17
  0
LAYER
  5
10
330
2
100
AcDbSymbolTableRecord
100
AcDbLayerTableRecord
  2
0
 70
     0
 62
     7
  6
Continuous
370
    -3
390
F
  0
LAYER
  5
6F
330
2
100
AcDbSymbolTableRecord
100
AcDbLayerTableRecord
  2
FORMAT
 70
     0
 62
     2
  6
Continuous
370
    -3
390
F
  0
LAYER
  5
70
330
2
100
AcDbSymbolTableRecord
100
AcDbLayerTableRecord
  2
외형선
 70
     0
 62
   100
  6
Continuous
370
    30
390
F
  0
LAYER
  5
71
330
2
100
AcDbSymbolTableRecord
100
AcDbLayerTableRecord
  2
숨은선
 70
     0
 62
     2
  6
HIDDEN
370
    15
390
F
  0
LAYER
  5
72
330
2
100
AcDbSymbolTableRecord
100
AcDbLayerTableRecord
  2
중심선
 70
     0
 62
     1
  6
CENTERX2
370
    -3
390
F
  0
LAYER
  5
73
330
2
100
AcDbSymbolTableRecord
100
AcDbLayerTableRecord
  2
파단선
 70
     0
 62
     4
  6
Continuous
370
    -3
390
F
  0
LAYER
  5
74
330
2
100
AcDbSymbolTableRecord
100
AcDbLayerTableRecord
  2
해칭선
 70
     0
 62
     4
  6
Continuous
370
    -3
390
F
  0
LAYER
  5
75
330
2
100
AcDbSymbolTableRecord
100
AcDbLayerTableRecord
  2
가는실선
 70
     0
 62
     4
  6
Continuous
370
    -3
390
F
  0
LAYER
  5
76
330
2
100
AcDbSymbolTableRecord
100
AcDbLayerTableRecord
  2
치수_보조선
 70
     0
 62
     4
  6
Continuous
370
    -3
390
F
  0
LAYER
  5
77
330
2
100
AcDbSymbolTableRecord
100
AcDbLayerTableRecord
  2
치수문자_일반주서
 70
     0
 62
     7
  6
Continuous
370
    15
390
F
  0
LAYER
  5
78
330
2
100
AcDbSymbolTableRecord
100
AcDbLayerTableRecord
  2
개별주서
 70
     0
 62
   100
  6
Continuous
370
    30
390
F
  0
LAYER
  5
79
330
2
100
AcDbSymbolTableRecord
100
AcDbLayerTableRecord
  2
중간선
 70
     0
 62
     2
  6
Continuous
370
    15
390
F
  0
LAYER
  5
7A
330
2
100
AcDbSymbolTableRecord
100
AcDbLayerTableRecord
  2
윤곽선
 70
     0
 62
     3
  6
Continuous
370
    40
390
F
  0
LAYER
  5
7B
330
2
100
AcDbSymbolTableRecord
100
AcDbLayerTableRecord
  2
중심마크
 70
     0
 62
   100
  6
Continuous
370
    30
390
F
  0
LAYER
  5
7C
330
2
100
AcDbSymbolTableRecord
100
AcDbLayerTableRecord
  2
가상선
 70
     0
 62
     4
  6
PHANTOM
370
    -3
390
F
  0
LAYER
  5
7D
330
2
100
AcDbSymbolTableRecord
100
AcDbLayerTableRecord
  2
특수지정선
 70
     0
 62
     5
  6
CENTERX2
370
    60
390
F
  0
LAYER
  5
136
330
2
100
AcDbSymbolTableRecord
100
AcDbLayerTableRecord
  2
Defpoints
 70
     0
 62
     7
  6
Continuous
290
     0
370
    -3
390
F
  0
ENDTAB
  0
TABLE
  2
STYLE
  5
3
330
0
100
AcDbSymbolTable
 70
     2
  0
STYLE
  5
11
330
3
100
AcDbSymbolTableRecord
100
AcDbTextStyleTableRecord
  2
Standard
 70
     0
 40
0.0
 41
1.0
 50
0.0
 71
     0
 42
3.5
  3
txt
  4

  0
STYLE
  5
93
330
3
100
AcDbSymbolTableRecord
100
AcDbTextStyleTableRecord
  2
SLDTEXTSTYLE0
 70
     0
 40
0.0
 41
0.75
 50
0.0
 71
     0
 42
3.5
  3
TXT
  4

  0
ENDTAB
  0
TABLE
  2
VIEW
  5
6
330
0
100
AcDbSymbolTable
 70
     0
  0
ENDTAB
  0
TABLE
  2
UCS
  5
7
330
0
100
AcDbSymbolTable
 70
     0
  0
ENDTAB
  0
TABLE
  2
APPID
  5
9
330
0
100
AcDbSymbolTable
 70
     1
  0
APPID
  5
12
330
9
100
AcDbSymbolTableRecord
100
AcDbRegAppTableRecord
  2
ACAD
 70
     0
  0
ENDTAB
  0
TABLE
  2
DIMSTYLE
  5
A
330
0
100
AcDbSymbolTable
 70
     3
100
AcDbDimStyleTable
  0
DIMSTYLE
105
27
330
A
100
AcDbSymbolTableRecord
100
AcDbDimStyleTableRecord
  2
ISO-25
 70
     0
 41
2.5
 42
0.625
 43
3.75
 44
1.25
 73
     0
 74
     0
 77
     1
 78
     8
140
2.5
141
2.5
143
0.03937007874016
147
0.625
171
     3
172
     1
178
     0
271
     2
272
     2
274
     3
278
    44
283
     0
284
     8
340
11
  0
DIMSTYLE
105
DC
102
{ACAD_REACTORS
330
DB
330
FE
102
}
330
A
100
AcDbSymbolTableRecord
100
AcDbDimStyleTableRecord
  2
SLDDIMSTYLE0
 70
     0
 41
3.302
 44
0.0
 45
0.000000001
 73
     0
 74
     0
 77
     1
 78
    12
 79
     3
140
3.5
147
0.875
172
     1
173
     1
178
     0
271
     2
272
     2
276
     2
284
    12
289
     0
340
93
  0
DIMSTYLE
105
EA
102
{ACAD_REACTORS
330
E9
330
F4
102
}
330
A
100
AcDbSymbolTableRecord
100
AcDbDimStyleTableRecord
  2
SLDDIMSTYLE1
 70
     0
 41
3.302
 44
0.0
 45
0.000000001
 73
     0
 74
     0
 77
     1
 78
    12
 79
     3
140
3.5
147
0.875
173
     1
178
     0
271
     2
272
     2
276
     2
284
    12
340
93
  0
ENDTAB
  0
TABLE
  2
BLOCK_RECORD
  5
1
330
0
100
AcDbSymbolTable
 70
     7
  0
BLOCK_RECORD
  5
1F
330
1
100
AcDbSymbolTableRecord
100
AcDbBlockTableRecord
  2
*Model_Space
340
22
  0
BLOCK_RECORD
  5
1B
330
1
100
AcDbSymbolTableRecord
100
AcDbBlockTableRecord
  2
*Paper_Space
340
1E
  0
BLOCK_RECORD
  5
23
330
1
100
AcDbSymbolTableRecord
100
AcDbBlockTableRecord
  2
*Paper_Space0
340
26
  0
BLOCK_RECORD
  5
7E
330
1
100
AcDbSymbolTableRecord
100
AcDbBlockTableRecord
  2
블럭10
340
0
102
{BLKREFS
331
D4
102
}
  0
BLOCK_RECORD
  5
DD
330
1
100
AcDbSymbolTableRecord
100
AcDbBlockTableRecord
  2
_D
340
0
  0
BLOCK_RECORD
  5
EB
330
1
100
AcDbSymbolTableRecord
100
AcDbBlockTableRecord
  2
_D_1
340
0
  0
BLOCK_RECORD
  5
F5
330
1
100
AcDbSymbolTableRecord
100
AcDbBlockTableRecord
  2
_D_2
340
0
  0
BLOCK_RECORD
  5
FF
330
1
100
AcDbSymbolTableRecord
100
AcDbBlockTableRecord
  2
_D_3
340
0
  0
BLOCK_RECORD
  5
10B
330
1
100
AcDbSymbolTableRecord
100
AcDbBlockTableRecord
  2
SW_DOWELSYMBOL_0
340
0
102
{BLKREFS
331
111
102
}
  0
ENDTAB
  0
ENDSEC
  0
SECTION
  2
BLOCKS
  0
BLOCK
  5
20
330
1F
100
AcDbEntity
  8
0
100
AcDbBlockBegin
  2
*Model_Space
 70
     0
 10
0.0
 20
0.0
 30
0.0
  3
*Model_Space
  1

  0
ENDBLK
  5
21
330
1F
100
AcDbEntity
  8
0
100
AcDbBlockEnd
  0
BLOCK
  5
1C
330
1B
100
AcDbEntity
 67
     1
  8
0
100
AcDbBlockBegin
  2
*Paper_Space
 70
     0
 10
0.0
 20
0.0
 30
0.0
  3
*Paper_Space
  1

  0
ENDBLK
  5
1D
330
1B
100
AcDbEntity
 67
     1
  8
0
100
AcDbBlockEnd
  0
BLOCK
  5
24
330
23
100
AcDbEntity
  8
0
100
AcDbBlockBegin
  2
*Paper_Space0
 70
     0
 10
0.0
 20
0.0
 30
0.0
  3
*Paper_Space0
  1

  0
ENDBLK
  5
25
330
23
100
AcDbEntity
  8
0
100
AcDbBlockEnd
  0
BLOCK
  5
7F
330
7E
100
AcDbEntity
  8
0
100
AcDbBlockBegin
  2
블럭10
 70
     2
 10
0.0
 20
0.0
 30
0.0
  3
블럭10
  1

  0
ELLIPSE
  5
81
330
7E
100
AcDbEntity
  8
중심선
100
AcDbEllipse
 10
20.54032771741204
 20
12.0471743016438
 30
0.0
 11
6.600054785286829
 21
-1.261213355974178E-13
 31
0.0
210
0.0
220
0.0
230
1.0
 40
0.636358354079598
 41
0.9219305317359503
 42
6.513795318482858
  0
ELLIPSE
  5
82
330
7E
100
AcDbEntity
  8
중심선
100
AcDbEllipse
 10
20.54032771746488
 20
12.04717430159265
 30
0.0
 11
3.960054785062283
 21
1.540847449632565E-10
 31
0.0
210
0.0
220
0.0
230
1.0
 40
0.3939339440162632
 41
1.131841032648279
 42
5.62031148352944
  0
LINE
  5
83
330
7E
100
AcDbEntity
  8
중심선
100
AcDbLine
 10
2.268634060543552
 20
16.24717430164393
 30
0.0
 11
5.714909304380834
 21
16.24717430164393
 31
0.0
  0
LINE
  5
84
330
7E
100
AcDbEntity
  8
중심선
100
AcDbLine
 10
5.245725140726316
 20
7.84717430164391
 30
0.0
 11
8.692000384563599
 21
7.84717430164391
 31
0.0
  0
LINE
  5
85
330
7E
100
AcDbEntity
  8
중심선
100
AcDbLine
 10
15.74043728645272
 20
16.24717430164393
 30
0.0
 11
8.692000384563599
 21
7.84717430164391
 31
0.0
  0
LINE
  5
86
330
7E
100
AcDbEntity
  8
중심선
100
AcDbLine
 10
0.1404042013395286
 20
13.71084872107135
 30
0.0
 11
3.58671253028996
 21
13.71088815037384
 31
0.0
  0
LINE
  5
87
330
7E
100
AcDbEntity
  8
중심선
100
AcDbLine
 10
2.750260043222114
 20
10.84717430164391
 30
0.0
 11
6.196535287059397
 21
10.84717430164391
 31
0.0
  0
LINE
  5
88
330
7E
100
AcDbEntity
  8
중심선
100
AcDbLine
 10
12.29416204261559
 20
16.24717430164393
 30
0.0
 11
5.245725140726316
 21
7.84717430164391
 31
0.0
  0
LINE
  5
89
330
7E
100
AcDbEntity
  8
중심선
100
AcDbLine
 10
10.72767329541681
 20
16.24717430164393
 30
0.0
 11
6.196535287059397
 21
10.84717430164391
 31
0.0
  0
LINE
  5
8A
330
7E
100
AcDbEntity
  8
중심선
100
AcDbLine
 10
7.28139805157953
 20
16.24717430164393
 30
0.0
 11
2.750260043222114
 21
10.84717430164391
 31
0.0
  0
LINE
  5
8B
330
7E
100
AcDbEntity
  8
중심선
100
AcDbLine
 10
5.714909304380834
 20
16.24717430164393
 30
0.0
 11
3.58671253028996
 21
13.71088815037384
 31
0.0
  0
LINE
  5
8C
330
7E
100
AcDbEntity
  8
중심선
100
AcDbLine
 10
2.268634060543552
 20
16.24717430164393
 30
0.0
 11
0.1404042013395286
 21
13.71084872107135
 31
0.0
  0
LINE
  5
8D
330
7E
100
AcDbEntity
  8
중심선
100
AcDbLine
 10
7.28139805157953
 20
16.24717430164393
 30
0.0
 11
10.72767329541681
 21
16.24717430164393
 31
0.0
  0
LINE
  5
8E
330
7E
100
AcDbEntity
  8
중심선
100
AcDbLine
 10
12.29416204261559
 20
16.24717430164393
 30
0.0
 11
15.74043728645272
 21
16.24717430164393
 31
0.0
  0
LINE
  5
8F
330
7E
100
AcDbEntity
  8
중심선
100
AcDbLine
 10
19.22036997980202
 20
11.08717430171403
 30
0.0
 11
23.66174974927406
 21
11.08717430171406
 31
0.0
  0
LINE
  5
90
330
7E
100
AcDbEntity
  8
중심선
100
AcDbLine
 10
19.22039502424796
 20
13.00717430171391
 30
0.0
 11
19.22036997980202
 21
11.08717430171403
 31
0.0
  0
LINE
  5
91
330
7E
100
AcDbEntity
  8
중심선
100
AcDbLine
 10
19.22039502424796
 20
13.00717430171391
 30
0.0
 11
26.96566020931264
 21
13.00717430171391
 31
0.0
  0
LINE
  5
92
330
7E
100
AcDbEntity
  8
중심선
100
AcDbLine
 10
22.22332737316547
 20
13.45928029700563
 30
0.0
 11
24.52862924686651
 21
15.39360700705356
 31
0.0
  0
ATTDEF
  5
94
330
7E
100
AcDbEntity
  8
FORMAT
 62
     2
100
AcDbText
 10
-20.85824753159254
 20
2.075366912832191
 30
0.0
 40
4.233333333333333
  1
SEME7016070150E [ 2 FLUTE ]
 41
0.75
  7
SLDTEXTSTYLE0
 11
-20.85824753159254
 21
-0.0412997538344756
 31
0.0
100
AcDbAttributeDefinition
  3

  2
AUTOATTR0
 70
     0
 74
     1
  0
ENDBLK
  5
80
330
7E
100
AcDbEntity
  8
0
100
AcDbBlockEnd
  0
BLOCK
  5
DE
330
DD
100
AcDbEntity
  8
0
100
AcDbBlockBegin
  2
_D
 70
     0
 10
0.0
 20
0.0
 30
0.0
  3
_D
  1

  0
LINE
  5
E0
330
DD
100
AcDbEntity
  8
치수문자_일반주서
 62
     0
370
    -2
100
AcDbLine
 10
82.06250000000001
 20
-7.999999999999733
 30
0.0
 11
96.08192425821744
 21
-7.99999999999968
 31
0.0
  0
LINE
  5
E1
330
DD
100
AcDbEntity
  8
치수문자_일반주서
 62
     0
370
    -2
100
AcDbLine
 10
82.06250000000001
 20
8.000000000000258
 30
0.0
 11
96.08192425821738
 21
8.00000000000031
 31
0.0
  0
LINE
  5
E2
330
DD
100
AcDbEntity
  8
치수문자_일반주서
 62
     0
370
    -2
100
AcDbLine
 10
96.08192425821744
 20
-7.99999999999968
 30
0.0
 11
96.08192425821733
 21
22.47900000000032
 31
0.0
  0
LINE
  5
E3
330
DD
100
AcDbEntity
  8
치수문자_일반주서
 62
     0
370
    -2
100
AcDbLine
 10
96.08192425821744
 20
-7.99999999999968
 30
0.0
 11
96.08192425821738
 21
8.00000000000031
 31
0.0
  0
LINE
  5
E4
330
DD
100
AcDbEntity
  8
치수문자_일반주서
 62
     0
370
    -2
100
AcDbLine
 10
96.08192425821746
 20
-11.30199999999968
 30
0.0
 11
96.08192425821747
 21
-14.60399999999968
 31
0.0
  0
LINE
  5
E5
330
DD
100
AcDbEntity
  8
치수문자_일반주서
 62
     0
370
    -2
100
AcDbLine
 10
96.08192425821737
 20
11.30200000000031
 30
0.0
 11
96.08192425821736
 21
14.60400000000031
 31
0.0
  0
SOLID
  5
E6
330
DD
100
AcDbEntity
  8
치수문자_일반주서
 62
     0
100
AcDbTrace
 10
96.63225759155078
 20
-11.30199999999968
 30
0.0
 11
95.53159092488413
 21
-11.30199999999968
 31
0.0
 12
96.08192425821744
 22
-7.99999999999968
 32
0.0
 13
96.08192425821744
 23
-7.99999999999968
 33
0.0
  0
SOLID
  5
E7
330
DD
100
AcDbEntity
  8
치수문자_일반주서
 62
     0
100
AcDbTrace
 10
95.53159092488404
 20
11.30200000000031
 30
0.0
 11
96.6322575915507
 21
11.30200000000031
 31
0.0
 12
96.08192425821738
 22
8.00000000000031
 32
0.0
 13
96.08192425821738
 23
8.00000000000031
 33
0.0
  0
MTEXT
  5
E8
330
DD
100
AcDbEntity
  8
치수문자_일반주서
 62
     0
100
AcDbMText
 10
91.70692425821734
 20
18.5415000000003
 30
0.0
 40
3.5
 41
0.0
 71
     2
 72
     1
  1
\A1;%%c16
  7
SLDTEXTSTYLE0
 11
-3.552713678800503E-15
 21
1.0
 31
0.0
 73
     1
 44
1.0
  0
POINT
  5
140
330
DD
100
AcDbEntity
  8
Defpoints
 62
     0
100
AcDbPoint
 10
82.00000000000001
 20
-7.999999999999733
 30
0.0
  0
POINT
  5
141
330
DD
100
AcDbEntity
  8
Defpoints
 62
     0
100
AcDbPoint
 10
82.00000000000001
 20
8.000000000000258
 30
0.0
  0
POINT
  5
142
330
DD
100
AcDbEntity
  8
Defpoints
 62
     0
100
AcDbPoint
 10
96.08192425821738
 20
8.00000000000031
 30
0.0
  0
ENDBLK
  5
DF
330
DD
100
AcDbEntity
  8
0
100
AcDbBlockEnd
  0
BLOCK
  5
EC
330
EB
100
AcDbEntity
  8
0
100
AcDbBlockBegin
  2
_D_1
 70
     0
 10
0.0
 20
0.0
 30
0.0
  3
_D_1
  1

  0
LINE
  5
EE
330
EB
100
AcDbEntity
  8
치수문자_일반주서
 62
     0
370
    -2
100
AcDbLine
 10
-67.99999999999997
 20
7.062499999999996
 30
0.0
 11
-67.99999999999997
 21
28.7884104402427
 31
0.0
  0
LINE
  5
EF
330
EB
100
AcDbEntity
  8
치수문자_일반주서
 62
     0
370
    -2
100
AcDbLine
 10
82.00000000000003
 20
8.06250000000026
 30
0.0
 11
82.00000000000003
 21
28.7884104402427
 31
0.0
  0
LINE
  5
F0
330
EB
100
AcDbEntity
  8
치수문자_일반주서
 62
     0
370
    -2
100
AcDbLine
 10
-64.69799999999998
 20
28.7884104402427
 30
0.0
 11
78.69800000000004
 21
28.7884104402427
 31
0.0
  0
SOLID
  5
F1
330
EB
100
AcDbEntity
  8
치수문자_일반주서
 62
     0
100
AcDbTrace
 10
-64.69799999999998
 20
29.33874377357603
 30
0.0
 11
-64.69799999999998
 21
28.23807710690936
 31
0.0
 12
-67.99999999999997
 22
28.7884104402427
 32
0.0
 13
-67.99999999999997
 23
28.7884104402427
 33
0.0
  0
SOLID
  5
F2
330
EB
100
AcDbEntity
  8
치수문자_일반주서
 62
     0
100
AcDbTrace
 10
78.69800000000004
 20
28.23807710690936
 30
0.0
 11
78.69800000000004
 21
29.33874377357603
 31
0.0
 12
82.00000000000003
 22
28.7884104402427
 32
0.0
 13
82.00000000000003
 23
28.7884104402427
 33
0.0
  0
MTEXT
  5
F3
330
EB
100
AcDbEntity
  8
치수문자_일반주서
 62
     0
100
AcDbMText
 10
7.000000000000032
 20
33.1634104402427
 30
0.0
 40
3.5
 41
0.0
 71
     2
 72
     1
  1
\A1;150
  7
SLDTEXTSTYLE0
 73
     1
 44
1.0
  0
POINT
  5
137
330
EB
100
AcDbEntity
  8
Defpoints
 62
     0
100
AcDbPoint
 10
-67.99999999999997
 20
6.999999999999996
 30
0.0
  0
POINT
  5
138
330
EB
100
AcDbEntity
  8
Defpoints
 62
     0
100
AcDbPoint
 10
82.00000000000003
 20
8.00000000000026
 30
0.0
  0
POINT
  5
139
330
EB
100
AcDbEntity
  8
Defpoints
 62
     0
100
AcDbPoint
 10
82.00000000000003
 20
28.7884104402427
 30
0.0
  0
ENDBLK
  5
ED
330
EB
100
AcDbEntity
  8
0
100
AcDbBlockEnd
  0
BLOCK
  5
F6
330
F5
100
AcDbEntity
  8
0
100
AcDbBlockBegin
  2
_D_2
 70
     0
 10
0.0
 20
0.0
 30
0.0
  3
_D_2
  1

  0
LINE
  5
F8
330
F5
100
AcDbEntity
  8
치수문자_일반주서
 62
     0
370
    -2
100
AcDbLine
 10
12.00000000000002
 20
6.316418263706757
 30
0.0
 11
12.00000000000001
 21
19.60091606987428
 31
0.0
  0
LINE
  5
F9
330
F5
100
AcDbEntity
  8
치수문자_일반주서
 62
     0
370
    -2
100
AcDbLine
 10
82.00000000000003
 20
8.06250000000026
 30
0.0
 11
82.00000000000003
 21
19.60091606987428
 31
0.0
  0
LINE
  5
FA
330
F5
100
AcDbEntity
  8
치수문자_일반주서
 62
     0
370
    -2
100
AcDbLine
 10
15.30200000000001
 20
19.60091606987428
 30
0.0
 11
78.69800000000004
 21
19.60091606987428
 31
0.0
  0
SOLID
  5
FB
330
F5
100
AcDbEntity
  8
치수문자_일반주서
 62
     0
100
AcDbTrace
 10
15.30200000000001
 20
20.15124940320761
 30
0.0
 11
15.30200000000001
 21
19.05058273654094
 31
0.0
 12
12.00000000000001
 22
19.60091606987428
 32
0.0
 13
12.00000000000001
 23
19.60091606987428
 33
0.0
  0
SOLID
  5
FC
330
F5
100
AcDbEntity
  8
치수문자_일반주서
 62
     0
100
AcDbTrace
 10
78.69800000000004
 20
19.05058273654094
 30
0.0
 11
78.69800000000004
 21
20.15124940320761
 31
0.0
 12
82.00000000000003
 22
19.60091606987428
 32
0.0
 13
82.00000000000003
 23
19.60091606987428
 33
0.0
  0
MTEXT
  5
FD
330
F5
100
AcDbEntity
  8
치수문자_일반주서
 62
     0
100
AcDbMText
 10
47.00000000000002
 20
23.97591606987428
 30
0.0
 40
3.5
 41
0.0
 71
     2
 72
     1
  1
\A1;70
  7
SLDTEXTSTYLE0
 73
     1
 44
1.0
  0
POINT
  5
13A
330
F5
100
AcDbEntity
  8
Defpoints
 62
     0
100
AcDbPoint
 10
12.00000000000002
 20
6.253918263706757
 30
0.0
  0
POINT
  5
13B
330
F5
100
AcDbEntity
  8
Defpoints
 62
     0
100
AcDbPoint
 10
82.00000000000003
 20
8.00000000000026
 30
0.0
  0
POINT
  5
13C
330
F5
100
AcDbEntity
  8
Defpoints
 62
     0
100
AcDbPoint
 10
82.00000000000003
 20
19.60091606987428
 30
0.0
  0
ENDBLK
  5
F7
330
F5
100
AcDbEntity
  8
0
100
AcDbBlockEnd
  0
BLOCK
  5
100
330
FF
100
AcDbEntity
  8
0
100
AcDbBlockBegin
  2
_D_3
 70
     0
 10
0.0
 20
0.0
 30
0.0
  3
_D_3
  1

  0
LINE
  5
102
330
FF
100
AcDbEntity
  8
치수문자_일반주서
 62
     0
370
    -2
100
AcDbLine
 10
-67.06249999999997
 20
7.999999999999994
 30
0.0
 11
-78.60213568417946
 21
7.999999999999948
 31
0.0
  0
LINE
  5
103
330
FF
100
AcDbEntity
  8
치수문자_일반주서
 62
     0
370
    -2
100
AcDbLine
 10
-67.06249999999997
 20
-7.999999999999996
 30
0.0
 11
-78.6021356841794
 21
-8.000000000000039
 31
0.0
  0
LINE
  5
104
330
FF
100
AcDbEntity
  8
치수문자_일반주서
 62
     0
370
    -2
100
AcDbLine
 10
-78.60213568417946
 20
7.999999999999948
 30
0.0
 11
-78.60213568417952
 21
22.47899999999995
 31
0.0
  0
LINE
  5
105
330
FF
100
AcDbEntity
  8
치수문자_일반주서
 62
     0
370
    -2
100
AcDbLine
 10
-78.60213568417946
 20
7.999999999999948
 30
0.0
 11
-78.6021356841794
 21
-8.000000000000039
 31
0.0
  0
LINE
  5
106
330
FF
100
AcDbEntity
  8
치수문자_일반주서
 62
     0
370
    -2
100
AcDbLine
 10
-78.60213568417947
 20
11.30199999999995
 30
0.0
 11
-78.60213568417949
 21
14.60399999999995
 31
0.0
  0
LINE
  5
107
330
FF
100
AcDbEntity
  8
치수문자_일반주서
 62
     0
370
    -2
100
AcDbLine
 10
-78.60213568417939
 20
-11.30200000000004
 30
0.0
 11
-78.60213568417937
 21
-14.60400000000004
 31
0.0
  0
SOLID
  5
108
330
FF
100
AcDbEntity
  8
치수문자_일반주서
 62
     0
100
AcDbTrace
 10
-79.1524690175128
 20
11.30199999999995
 30
0.0
 11
-78.05180235084615
 21
11.30199999999995
 31
0.0
 12
-78.60213568417946
 22
7.999999999999948
 32
0.0
 13
-78.60213568417946
 23
7.999999999999948
 33
0.0
  0
SOLID
  5
109
330
FF
100
AcDbEntity
  8
치수문자_일반주서
 62
     0
100
AcDbTrace
 10
-78.05180235084606
 20
-11.30200000000004
 30
0.0
 11
-79.15246901751271
 21
-11.30200000000004
 31
0.0
 12
-78.6021356841794
 22
-8.000000000000039
 32
0.0
 13
-78.6021356841794
 23
-8.000000000000039
 33
0.0
  0
MTEXT
  5
10A
330
FF
100
AcDbEntity
  8
치수문자_일반주서
 62
     0
100
AcDbMText
 10
-82.9771356841795
 20
18.54149999999993
 30
0.0
 40
3.5
 41
0.0
 71
     2
 72
     1
  1
\A1;%%c16
  7
SLDTEXTSTYLE0
 11
-3.552713678800503E-15
 21
1.0
 31
0.0
 73
     1
 44
1.0
  0
POINT
  5
13D
330
FF
100
AcDbEntity
  8
Defpoints
 62
     0
100
AcDbPoint
 10
-66.99999999999997
 20
7.999999999999994
 30
0.0
  0
POINT
  5
13E
330
FF
100
AcDbEntity
  8
Defpoints
 62
     0
100
AcDbPoint
 10
-66.99999999999997
 20
-7.999999999999996
 30
0.0
  0
POINT
  5
13F
330
FF
100
AcDbEntity
  8
Defpoints
 62
     0
100
AcDbPoint
 10
-78.6021356841794
 20
-8.000000000000039
 30
0.0
  0
ENDBLK
  5
101
330
FF
100
AcDbEntity
  8
0
100
AcDbBlockEnd
  0
BLOCK
  5
10C
330
10B
100
AcDbEntity
  8
0
100
AcDbBlockBegin
  2
SW_DOWELSYMBOL_0
 70
     0
 10
0.0
 20
0.0
 30
0.0
  3
SW_DOWELSYMBOL_0
  1

  0
CIRCLE
  5
10E
330
10B
100
AcDbEntity
  8
외형선
 62
     0
100
AcDbCircle
 10
0.0
 20
0.0
 30
0.0
 40
3.000000000000004
  0
HATCH
  5
10F
330
10B
100
AcDbEntity
  8
0
  6
Continuous
 62
     0
370
    30
100
AcDbHatch
 10
0.0
 20
0.0
 30
0.0
210
0.0
220
0.0
230
1.0
  2
SOLID
 70
     1
 71
     0
 91
        1
 92
        0
 93
        3
 72
     2
 10
0.0000000000000104
 20
0.0
 40
3.000000000000004
 50
0.0
 51
90.0
 73
     1
 72
     1
 10
0.0000000000000104
 20
3.000000000000004
 11
0.0000000000000104
 21
0.0
 72
     1
 10
0.0000000000000104
 20
0.0
 11
3.000000000000015
 21
0.0
 97
        0
 75
     0
 76
     1
 98
        1
 10
0.0
 20
0.0
  0
HATCH
  5
110
330
10B
100
AcDbEntity
  8
0
  6
Continuous
 62
     0
370
    30
100
AcDbHatch
 10
0.0
 20
0.0
 30
0.0
210
0.0
220
0.0
230
1.0
  2
SOLID
 70
     1
 71
     0
 91
        1
 92
        0
 93
        3
 72
     2
 10
0.0000000000000104
 20
0.0
 40
3.000000000000004
 50
180.0
 51
270.0000000000008
 73
     1
 72
     1
 10
0.0000000000000104
 20
-3.000000000000004
 11
0.0000000000000104
 21
0.0
 72
     1
 10
0.0000000000000104
 20
0.0
 11
-2.999999999999994
 21
0.0
 97
        0
 75
     0
 76
     1
 98
        1
 10
0.0
 20
0.0
  0
ENDBLK
  5
10D
330
10B
100
AcDbEntity
  8
0
100
AcDbBlockEnd
  0
ENDSEC
  0
SECTION
  2
ENTITIES
  0
LINE
  5
95
330
1F
100
AcDbEntity
  8
0
  6
Continuous
 62
     1
370
    15
100
AcDbLine
 10
59.13086135712188
 20
3.121020228753741
 30
0.0
 11
59.05509624780667
 21
3.159979934507684
 31
0.0
  0
SPLINE
  5
96
330
1F
100
AcDbEntity
  8
0
  6
Continuous
 62
     1
370
    15
100
AcDbSpline
210
0.0
220
0.0
230
1.0
 70
     8
 71
     3
 72
     9
 73
     5
 74
     0
 42
0.000000001
 43
0.00000001
 40
0.0
 40
0.0
 40
0.0
 40
0.0
 40
0.4545615287387412
 40
1.0
 40
1.0
 40
1.0
 40
1.0
 10
61.27334441925899
 20
2.049967171518947
 30
0.0
 10
60.94830665620274
 20
2.204569161656618
 30
0.0
 10
60.23324886422873
 20
2.544681512489828
 30
0.0
 10
59.51993188163339
 20
2.917610443004644
 30
0.0
 10
59.13086135712188
 20
3.121020228753741
 30
0.0
  0
SPLINE
  5
97
330
1F
100
AcDbEntity
  8
0
  6
Continuous
 62
     1
370
    15
100
AcDbSpline
210
0.0
220
0.0
230
1.0
 70
     8
 71
     3
 72
     9
 73
     5
 74
     0
 42
0.000000001
 43
0.00000001
 40
0.0
 40
0.0
 40
0.0
 40
0.0
 40
0.4378284431427678
 40
1.0
 40
1.0
 40
1.0
 40
1.0
 10
17.74224425117084
 20
2.049927651057295
 30
0.0
 10
17.4183666248559
 20
2.204042191197518
 30
0.0
 10
16.67863024777147
 20
2.556039743101586
 30
0.0
 10
15.9396509768085
 20
2.942538876365007
 30
0.0
 10
15.52421784956602
 20
3.159817695835675
 30
0.0
  0
LINE
  5
98
330
1F
100
AcDbEntity
  8
0
  6
Continuous
 62
     1
370
    15
100
AcDbLine
 10
42.91459635205609
 20
8.00000000000001
 30
0.0
 11
39.0392606057108
 21
8.00000000000001
 31
0.0
  0
LINE
  5
99
330
1F
100
AcDbEntity
  8
0
  6
Continuous
 62
     1
370
    15
100
AcDbLine
 10
39.03926060571082
 20
-8.000000000000004
 30
0.0
 11
42.91459635205609
 21
-8.000000000000004
 31
0.0
  0
LINE
  5
9A
330
1F
100
AcDbEntity
  8
0
  6
Continuous
 62
     1
370
    15
100
AcDbLine
 10
13.29766358143551
 20
2.264588604440968
 30
0.0
 11
13.1932129568836
 21
2.321974159379079
 31
0.0
  0
SPLINE
  5
9B
330
1F
100
AcDbEntity
  8
0
  6
Continuous
 62
     1
370
    15
100
AcDbSpline
210
0.0
220
0.0
230
1.0
 70
     8
 71
     3
 72
    23
 73
    19
 74
     0
 42
0.000000001
 43
0.00000001
 40
0.0
 40
0.0
 40
0.0
 40
0.0
 40
0.0743073559706399
 40
0.1350877862362433
 40
0.1936480252793074
 40
0.2300209579060159
 40
0.2621890567835245
 40
0.2954653744500865
 40
0.3293033172853796
 40
0.3620851428221689
 40
0.4376596314534239
 40
0.5230565311884464
 40
0.6564506404270826
 40
0.7819929781845412
 40
0.8254078107617699
 40
0.8662240535768098
 40
0.9226491439488977
 40
1.0
 40
1.0
 40
1.0
 40
1.0
 10
46.59734006455218
 20
-6.657095568065794
 30
0.0
 10
46.89669314513055
 20
-6.627940833839865
 30
0.0
 10
47.4409050125843
 20
-6.574938698944327
 30
0.0
 10
48.21945188012783
 20
-6.508804055161831
 30
0.0
 10
48.84496963507399
 20
-6.460590571413733
 30
0.0
 10
49.35085756396737
 20
-6.425156313204111
 30
0.0
 10
49.75660461780825
 20
-6.398740588383427
 30
0.0
 10
50.15405013625016
 20
-6.374873111939725
 30
0.0
 10
50.55499598599622
 20
-6.352857822591941
 30
0.0
 10
51.12545757807938
 20
-6.324457542379267
 30
0.0
 10
51.90268620741283
 20
-6.292186807001088
 30
0.0
 10
53.08367429170595
 20
-6.258060452628901
 30
0.0
 10
54.46189871121906
 20
-6.242257429033454
 30
0.0
 10
55.68584216421706
 20
-6.253492563148494
 30
0.0
 10
56.53129437767375
 20
-6.272583843124204
 30
0.0
 10
57.09345336150716
 20
-6.289337877565277
 30
0.0
 10
57.78799641884534
 20
-6.315006010698077
 30
0.0
 10
58.32073539365599
 20
-6.341678348136969
 30
0.0
 10
58.62877145585685
 20
-6.357100613416675
 30
0.0
  0
SPLINE
  5
9C
330
1F
100
AcDbEntity
  8
0
  6
Continuous
 62
     1
370
    15
100
AcDbSpline
210
0.0
220
0.0
230
1.0
 70
     8
 71
     3
 72
     9
 73
     5
 74
     0
 42
0.000000001
 43
0.00000001
 40
0.0
 40
0.0
 40
0.0
 40
0.0
 40
0.4843627434062846
 40
0.9999999999999999
 40
0.9999999999999999
 40
0.9999999999999999
 40
0.9999999999999999
 10
15.09764491923206
 20
6.357103716356218
 30
0.0
 10
14.59733360648016
 20
6.332752453312033
 30
0.0
 10
13.5644066946507
 20
6.282477605843511
 30
0.0
 10
12.53222918130125
 20
6.263634480678398
 30
0.0
 10
12.00000000000002
 20
6.253918263312608
 30
0.0
  0
SPLINE
  5
9D
330
1F
100
AcDbEntity
  8
0
  6
Continuous
 62
     1
370
    15
100
AcDbSpline
210
0.0
220
0.0
230
1.0
 70
     8
 71
     3
 72
     9
 73
     5
 74
     0
 42
0.000000001
 43
0.00000001
 40
0.0
 40
0.0
 40
0.0
 40
0.0
 40
0.5156372565937154
 40
0.9999999999999999
 40
0.9999999999999999
 40
0.9999999999999999
 40
0.9999999999999999
 10
12.00000000000002
 20
-6.253918263312597
 30
0.0
 10
12.53222918130125
 20
-6.263634480678387
 30
0.0
 10
13.5644066946507
 20
-6.282477605843498
 30
0.0
 10
14.59733360648016
 20
-6.33275245331202
 30
0.0
 10
15.09764491923206
 20
-6.357103716356208
 30
0.0
  0
SPLINE
  5
9E
330
1F
100
AcDbEntity
  8
0
  6
Continuous
 62
     1
370
    15
100
AcDbSpline
210
0.0
220
0.0
230
1.0
 70
     8
 71
     3
 72
    15
 73
    11
 74
     0
 42
0.000000001
 43
0.00000001
 40
0.0
 40
0.0
 40
0.0
 40
0.0
 40
0.1444549365277815
 40
0.2490388537216248
 40
0.3251820911582848
 40
0.4069681747668531
 40
0.4965169277881636
 40
0.6844738512758857
 40
0.8769821548293651
 40
1.0
 40
1.0
 40
1.0
 40
1.0
 10
58.62877145585685
 20
6.357100613416693
 30
0.0
 10
58.31590912569867
 20
6.341451796715322
 30
0.0
 10
57.77653762377508
 20
6.314473394543103
 30
0.0
 10
57.07306384773193
 20
6.288634151951061
 30
0.0
 10
56.50215406964291
 20
6.271804402084202
 30
0.0
 10
55.95982007581289
 20
6.259810244038544
 30
0.0
 10
55.16849138306858
 20
6.248130051824299
 30
0.0
 10
54.13994898422956
 20
6.245857728666672
 30
0.0
 10
53.04247026710991
 20
6.25857270646811
 30
0.0
 10
52.35415939533645
 20
6.281670023589514
 30
0.0
 10
52.08579963943194
 20
6.290675242944509
 30
0.0
  0
SPLINE
  5
9F
330
1F
100
AcDbEntity
  8
0
  6
Continuous
 62
     1
370
    15
100
AcDbSpline
210
0.0
220
0.0
230
1.0
 70
     8
 71
     3
 72
    18
 73
    14
 74
     0
 42
0.000000001
 43
0.00000001
 40
0.0
 40
0.0
 40
0.0
 40
0.0
 40
0.1671781687090033
 40
0.3008643399783367
 40
0.410268054769885
 40
0.4783298975776027
 40
0.5348699581148747
 40
0.5911607067140858
 40
0.6476248740912958
 40
0.7087782715186676
 40
0.77651492382939
 40
0.9861615409239175
 40
1.0
 40
1.0
 40
1.0
 40
1.0
 10
65.05305996301043
 20
-6.017025941749599
 30
0.0
 10
65.38798545479618
 20
-5.965586161461941
 30
0.0
 10
65.99073842072585
 20
-5.873011899736322
 30
0.0
 10
66.8099929181243
 20
-5.762032336184213
 30
0.0
 10
67.43040622060599
 20
-5.684679577882441
 30
0.0
 10
67.89126845144851
 20
-5.631291792498091
 30
0.0
 10
68.24712843167
 20
-5.592100291169634
 30
0.0
 10
68.58216855673106
 20
-5.556961222627855
 30
0.0
 10
68.92829859906765
 20
-5.522750238258509
 30
0.0
 10
69.29750471336547
 20
-5.488409238560267
 30
0.0
 10
69.9716713535414
 20
-5.431043652840479
 30
0.0
 10
70.5513479661156
 20
-5.384705108543197
 30
0.0
 10
70.99604196518767
 20
-5.36281991611977
 30
0.0
 10
71.02357794124917
 20
-5.361464759234518
 30
0.0
  0
SPLINE
  5
A0
330
1F
100
AcDbEntity
  8
0
  6
Continuous
 62
     1
370
    15
100
AcDbSpline
210
0.0
220
0.0
230
1.0
 70
     8
 71
     3
 72
    27
 73
    23
 74
     0
 42
0.000000001
 43
0.00000001
 40
0.0
 40
0.0
 40
0.0
 40
0.0
 40
0.0708585343272988
 40
0.1275312231822681
 40
0.1738543869567762
 40
0.2028239561102967
 40
0.2269512134395323
 40
0.2510617361827172
 40
0.27520851012297
 40
0.3013349795383492
 40
0.3303252105473773
 40
0.4203117801450679
 40
0.5058321996462705
 40
0.5706916350436536
 40
0.6283251597481085
 40
0.6868819701662067
 40
0.7176535433428286
 40
0.7496450457934289
 40
0.7889775634701689
 40
0.8439465665201878
 40
0.9144372194187881
 40
1.0
 40
1.0
 40
1.0
 40
1.0
 10
35.4969677545877
 20
5.471643252663794
 30
0.0
 10
35.16418170754157
 20
5.444633256811693
 30
0.0
 10
34.56523322461431
 20
5.396020653659961
 30
0.0
 10
33.75207465107603
 20
5.346779666413545
 30
0.0
 10
33.13635346581039
 20
5.316734498891761
 30
0.0
 10
32.67868403315877
 20
5.298966623636202
 30
0.0
 10
32.32344626995968
 20
5.287519618645735
 30
0.0
 10
31.98809408480092
 20
5.278742600152682
 30
0.0
 10
31.64155216429209
 20
5.271807960177893
 30
0.0
 10
31.27194821396324
 20
5.266793856342397
 30
0.0
 10
30.59564876856635
 20
5.262390327284931
 30
0.0
 10
29.64339049384824
 20
5.270844493858172
 30
0.0
 10
28.52322413394878
 20
5.305874169615726
 30
0.0
 10
27.55439307774248
 20
5.354767146058817
 30
0.0
 10
26.71031378344453
 20
5.41050884948876
 30
0.0
 10
26.04054076039521
 20
5.463743615938932
 30
0.0
 10
25.47653368867552
 20
5.514712346445655
 30
0.0
 10
24.99736873025965
 20
5.5619154667002
 30
0.0
 10
24.40452766948817
 20
5.625440428500513
 30
0.0
 10
23.63495134701375
 20
5.716066908278575
 30
0.0
 10
22.64979740519424
 20
5.844756597643355
 30
0.0
 10
21.92115743262548
 20
5.956043606380617
 30
0.0
 10
21.52165028494286
 20
6.017061334076802
 30
0.0
  0
SPLINE
  5
A1
330
1F
100
AcDbEntity
  8
0
  6
Continuous
 62
     1
370
    15
100
AcDbSpline
210
0.0
220
0.0
230
1.0
 70
     8
 71
     3
 72
    16
 73
    12
 74
     0
 42
0.000000001
 43
0.00000001
 40
0.0
 40
0.0
 40
0.0
 40
0.0
 40
0.1878798300111413
 40
0.3268255893468875
 40
0.4161128167184119
 40
0.4782545336176909
 40
0.5431267663930742
 40
0.6109246501716765
 40
0.684487885933138
 40
0.8436223858336726
 40
1.0
 40
1.0
 40
1.0
 40
1.0
 10
21.52165028494286
 20
-6.017061334076788
 30
0.0
 10
21.89749602774093
 20
-5.959520176908982
 30
0.0
 10
22.551296951375
 20
-5.859424692460462
 30
0.0
 10
23.38135270326536
 20
-5.748931447293835
 30
0.0
 10
23.95797156950101
 20
-5.677923259235316
 30
0.0
 10
24.38434170314596
 20
-5.628567168743392
 30
0.0
 10
24.77052624408094
 20
-5.586131032411046
 30
0.0
 10
25.18033753357432
 20
-5.543724651569179
 30
0.0
 10
25.77882948633741
 20
-5.486436921458534
 30
0.0
 10
26.55343483946172
 20
-5.420504857215995
 30
0.0
 10
27.1811406564652
 20
-5.380909887336236
 30
0.0
 10
27.49225117706008
 20
-5.361285389110243
 30
0.0
  0
SPLINE
  5
A2
330
1F
100
AcDbEntity
  8
0
  6
Continuous
 62
     1
370
    15
100
AcDbSpline
210
0.0
220
0.0
230
1.0
 70
     8
 71
     3
 72
    25
 73
    21
 74
     0
 42
0.000000001
 43
0.00000001
 40
0.0
 40
0.0
 40
0.0
 40
0.0
 40
0.0795481384017955
 40
0.1384387903620072
 40
0.1764019046309827
 40
0.2028841865764809
 40
0.2307795057423742
 40
0.2601518903703408
 40
0.2919356354919267
 40
0.3600400764661258
 40
0.4323943387335941
 40
0.4935524201661426
 40
0.5804828065909288
 40
0.6637714367845886
 40
0.6954963619150172
 40
0.7308676111277383
 40
0.7721241244172822
 40
0.8301794312326841
 40
0.9063284076494588
 40
1.0
 40
1.0
 40
1.0
 40
1.0
 10
79.02796434461672
 20
5.471627039059051
 30
0.0
 10
78.65513325813339
 20
5.441585859409625
 30
0.0
 10
78.00628985765802
 20
5.389304754467761
 30
0.0
 10
77.18255287089072
 20
5.3415187653009
 30
0.0
 10
76.6097448530874
 20
5.314534254467456
 30
0.0
 10
76.18415587031856
 20
5.298062116520513
 30
0.0
 10
75.79557368198338
 20
5.285679174048299
 30
0.0
 10
75.3812607788728
 20
5.275518235042219
 30
0.0
 10
74.77865468911165
 20
5.265454059133495
 30
0.0
 10
73.97635254798746
 20
5.262312287690504
 30
0.0
 10
73.03768048514047
 20
5.275690928582082
 30
0.0
 10
72.01074965196031
 20
5.30773181854323
 30
0.0
 10
70.93300521059247
 20
5.36187189637702
 30
0.0
 10
69.99244121169654
 20
5.429030470492664
 30
0.0
 10
69.29222220980326
 20
5.488748108330083
 30
0.0
 10
68.78766618980123
 20
5.535890691869217
 30
0.0
 10
68.1607461765855
 20
5.600405478851651
 30
0.0
 10
67.34432393839741
 20
5.693845883460932
 30
0.0
 10
66.28277056221575
 20
5.829800146013425
 30
0.0
 10
65.49022268340872
 20
5.950467079651774
 30
0.0
 10
65.05305996301045
 20
6.017025941749615
 30
0.0
  0
LINE
  5
A3
330
1F
100
AcDbEntity
  8
0
  6
Continuous
 62
   131
370
    15
100
AcDbLine
 10
8.949890148750208
 20
8.000000000000004
 30
0.0
 11
-66.99999999999997
 21
8.0
 31
0.0
  0
LINE
  5
A4
330
1F
100
AcDbEntity
  8
0
  6
Continuous
 62
   131
370
    15
100
AcDbLine
 10
-66.99999999999997
 20
-7.999999999999999
 30
0.0
 11
8.949890148750212
 21
-7.999999999999996
 31
0.0
  0
LINE
  5
A5
330
1F
100
AcDbEntity
  8
0
  6
Continuous
 62
   131
370
    15
100
AcDbLine
 10
-66.99999999999997
 20
7.999999999999994
 30
0.0
 11
-67.99999999999997
 21
6.999999999999995
 31
0.0
  0
LINE
  5
A6
330
1F
100
AcDbEntity
  8
0
  6
Continuous
 62
   131
370
    15
100
AcDbLine
 10
-67.99999999999997
 20
-6.999999999999996
 30
0.0
 11
-66.99999999999997
 21
-7.999999999999996
 31
0.0
  0
SPLINE
  5
A7
330
1F
100
AcDbEntity
  8
0
  6
Continuous
 62
   131
370
    15
100
AcDbSpline
210
0.0
220
0.0
230
1.0
 70
     8
 71
     3
 72
     9
 73
     5
 74
     0
 42
0.000000001
 43
0.00000001
 40
0.0
 40
0.0
 40
0.0
 40
0.0
 40
0.43665243754634
 40
1.0
 40
1.0
 40
1.0
 40
1.0
 10
12.00000000000004
 20
6.253918263312606
 30
0.0
 10
11.55329816698817
 20
6.250116270551961
 30
0.0
 10
10.53028353429311
 20
6.241409133172837
 30
0.0
 10
9.507613156686748
 20
6.26393080663046
 30
0.0
 10
8.93149429226864
 20
6.27661833647519
 30
0.0
  0
SPLINE
  5
A8
330
1F
100
AcDbEntity
  8
0
  6
Continuous
 62
   131
370
    15
100
AcDbSpline
210
0.0
220
0.0
230
1.0
 70
     8
 71
     3
 72
     9
 73
     5
 74
     0
 42
0.000000001
 43
0.00000001
 40
0.0
 40
0.0
 40
0.0
 40
0.0
 40
0.4382059616127896
 40
1.0
 40
1.0
 40
1.0
 40
1.0
 10
8.93149429226864
 20
-6.276618336475181
 30
0.0
 10
9.379629973121201
 20
-6.266183588568743
 30
0.0
 10
10.40228990956576
 20
-6.24237116057704
 30
0.0
 10
11.42528657312337
 20
-6.24976464681898
 30
0.0
 10
12.00000000000004
 20
-6.253918263312597
 30
0.0
  0
SPLINE
  5
A9
330
1F
100
AcDbEntity
  8
0
  6
Continuous
 62
     1
370
    15
100
AcDbSpline
210
0.0
220
0.0
230
1.0
 70
     8
 71
     3
 72
    20
 73
    16
 74
     0
 42
0.000000001
 43
0.00000001
 40
0.0
 40
0.0
 40
0.0
 40
0.0
 40
0.0778510705776918
 40
0.1557201572690814
 40
0.2336016797234201
 40
0.3114900248704021
 40
0.3893795616572036
 40
0.4672646558879186
 40
0.5451396850809168
 40
0.6229990532594484
 40
0.7008450491928323
 40
0.7787071951050122
 40
0.8565841416508875
 40
0.9344702878083625
 40
1.0
 40
1.0
 40
1.0
 40
1.0
 10
82.00000000000003
 20
-7.591526953855189
 30
0.0
 10
80.98578915405156
 20
-7.371377052051288
 30
0.0
 10
78.95713275583935
 20
-6.931026301865199
 30
0.0
 10
75.91367874967712
 20
-5.839761302860794
 30
0.0
 10
72.86965516136463
 20
-4.493978424762775
 30
0.0
 10
69.82530825557738
 20
-2.925140464001239
 30
0.0
 10
66.78090651768824
 20
-1.217588566911249
 30
0.0
 10
63.73671248096284
 20
0.5489611745606634
 30
0.0
 10
60.69299117215364
 20
2.28884727847357
 30
0.0
 10
57.64989802078768
 20
3.918908915295808
 30
0.0
 10
54.60715171918372
 20
5.360052164138183
 30
0.0
 10
51.5639680733624
 20
6.54629026081107
 30
0.0
 10
48.52015905115955
 20
7.40744172666434
 30
0.0
 10
45.6369523553748
 20
7.92337535013301
 30
0.0
 10
43.76838427835176
 20
7.958322585024589
 30
0.0
 10
42.91459635205609
 20
7.974290709266222
 30
0.0
  0
SPLINE
  5
AA
330
1F
100
AcDbEntity
  8
0
  6
Continuous
 62
     1
370
    15
100
AcDbSpline
210
0.0
220
0.0
230
1.0
 70
     8
 71
     3
 72
    14
 73
    10
 74
     0
 42
0.000000001
 43
0.00000001
 40
0.0
 40
0.0
 40
0.0
 40
0.0
 40
0.14650776572495
 40
0.2930509520441764
 40
0.439618588202538
 40
0.5861996385663408
 40
0.7327830318448018
 40
0.8793576905147914
 40
1.0
 40
1.0
 40
1.0
 40
1.0
 10
82.00000000000003
 20
-6.311778114945716
 30
0.0
 10
80.98578679422224
 20
-6.097121205504938
 30
0.0
 10
78.95711518041203
 20
-5.667755489884254
 30
0.0
 10
75.91366834305954
 20
-4.670105784719858
 30
0.0
 10
72.86964917163503
 20
-3.469929394983014
 30
0.0
 10
69.82530684741191
 20
-2.096387664240149
 30
0.0
 10
66.78091189139823
 20
-0.6263240204514127
 30
0.0
 10
63.91611209530566
 20
0.7952090267644903
 30
0.0
 10
62.06618331483385
 20
1.668971216335392
 30
0.0
 10
61.23098305790384
 20
2.063454729932714
 30
0.0
  0
LINE
  5
AB
330
1F
100
AcDbEntity
  8
0
  6
Continuous
 62
     1
370
    15
100
AcDbLine
 10
82.00000000000003
 20
-7.591526953855196
 30
0.0
 11
82.00000000000003
 21
-6.311778114945716
 31
0.0
  0
SPLINE
  5
AC
330
1F
100
AcDbEntity
  8
0
  6
Continuous
 62
     1
370
    15
100
AcDbSpline
210
0.0
220
0.0
230
1.0
 70
     8
 71
     3
 72
    21
 73
    17
 74
     0
 42
0.000000001
 43
0.00000001
 40
0.0
 40
0.0
 40
0.0
 40
0.0
 40
0.0131159397891275
 40
0.089042191278914
 40
0.1649774119444954
 40
0.2409161174351205
 40
0.3168528142101098
 40
0.3927820140267506
 40
0.4686982483979951
 40
0.5445966287240497
 40
0.6205007132969255
 40
0.6963889762240294
 40
0.7722884523925624
 40
0.8481937319366935
 40
0.9240993898159455
 40
1.0
 40
1.0
 40
1.0
 40
1.0
 10
52.08994090725109
 20
-6.289076874019251
 30
0.0
 10
51.91467569414012
 20
-6.357865419159214
 30
0.0
 10
50.72482587161327
 20
-6.824860761668202
 30
0.0
 10
48.52015084883018
 20
-7.397353814913933
 30
0.0
 10
45.47591724609956
 20
-7.931867334360284
 30
0.0
 10
42.43150435244189
 20
-8.058478555317247
 30
0.0
 10
39.38718999275337
 20
-7.804935164908666
 30
0.0
 10
36.34323990159655
 20
-7.174384564790473
 30
0.0
 10
33.29988823994692
 20
-6.199657211167131
 30
0.0
 10
30.25708572821677
 20
-4.9267874365158
 30
0.0
 10
27.21457437748992
 20
-3.417397664916231
 30
0.0
 10
24.1718912430082
 20
-1.744435324329014
 30
0.0
 10
21.12910832829363
 20
0.0133738631051376
 30
0.0
 10
18.08604631059108
 20
1.766061552707637
 30
0.0
 10
15.0429605488066
 20
3.450856357110747
 30
0.0
 10
13.01429769798163
 20
4.421532833596499
 30
0.0
 10
12.000000000003
 20
4.906854933905644
 30
0.0
  0
SPLINE
  5
AD
330
1F
100
AcDbEntity
  8
0
  6
Continuous
 62
     1
370
    15
100
AcDbSpline
210
0.0
220
0.0
230
1.0
 70
     8
 71
     3
 72
    18
 73
    14
 74
     0
 42
0.000000001
 43
0.00000001
 40
0.0
 40
0.0
 40
0.0
 40
0.0
 40
0.0391905815926329
 40
0.144496451884383
 40
0.2497994120388685
 40
0.3550915110062894
 40
0.4603648266017744
 40
0.5656122771231356
 40
0.6708679912985311
 40
0.7761479404992133
 40
0.8814442347822968
 40
0.9867489408180995
 40
0.9999999999999999
 40
0.9999999999999999
 40
0.9999999999999999
 40
0.9999999999999999
 10
46.6089800964288
 20
-6.618631120289228
 30
0.0
 10
46.23130621924397
 20
-6.666317953561476
 30
0.0
 10
44.83881514090577
 20
-6.842140253956667
 30
0.0
 10
42.4315051541635
 20
-6.810843389364701
 30
0.0
 10
39.38719715005398
 20
-6.521286053169169
 30
0.0
 10
36.34325078868068
 20
-5.897587392439323
 30
0.0
 10
33.2999069201977
 20
-4.996169428064438
 30
0.0
 10
30.25707912998271
 20
-3.852846146892923
 30
0.0
 10
27.21412395428518
 20
-2.525660387980214
 30
0.0
 10
24.17057373575027
 20
-1.073966589368174
 30
0.0
 10
21.12648831282495
 20
0.4179920041285842
 30
0.0
 10
18.96923671538693
 20
1.491194238288667
 30
0.0
 10
17.82672537702528
 20
2.006360891490751
 30
0.0
 10
17.69902610122185
 20
2.063941421611635
 30
0.0
  0
SPLINE
  5
AE
330
1F
100
AcDbEntity
  8
0
  6
Continuous
 62
     1
370
    15
100
AcDbSpline
210
0.0
220
0.0
230
1.0
 70
     8
 71
     3
 72
    31
 73
    27
 74
     0
 42
0.000000001
 43
0.00000001
 40
0.0
 40
0.0
 40
0.0
 40
0.0
 40
0.0200102942424186
 40
0.062502715382977
 40
0.1047027976809949
 40
0.1471952251299416
 40
0.1893953890375237
 40
0.2318885483393086
 40
0.2740886269811844
 40
0.3165811484610486
 40
0.358778723797406
 40
0.4012685048646293
 40
0.4434657723155485
 40
0.4859561671844407
 40
0.5281532895137728
 40
0.5706429196547759
 40
0.612840022060108
 40
0.6553293355969879
 40
0.697526506628788
 40
0.7400163550207379
 40
0.7822134962354399
 40
0.8247033037574506
 40
0.8677323168268835
 40
0.9110713077660872
 40
0.9553664406475957
 40
1.0
 40
1.0
 40
1.0
 40
1.0
 10
27.49133024493068
 20
5.360890653219593
 30
0.0
 10
27.85487921315647
 20
5.52013856762982
 30
0.0
 10
28.99043461346756
 20
6.017553895417224
 30
0.0
 10
30.89277361651349
 20
6.683102759947928
 30
0.0
 10
33.20372115835915
 20
7.336471901910218
 30
0.0
 10
35.5096593920799
 20
7.777353381877955
 30
0.0
 10
37.82057801870174
 20
8.006113762140082
 30
0.0
 10
40.1260781011883
 20
8.01235543870657
 30
0.0
 10
42.43677774014326
 20
7.796592362403248
 30
0.0
 10
44.74218069157307
 20
7.365586011381007
 30
0.0
 10
47.05290918643026
 20
6.729508629231189
 30
0.0
 10
49.35857455810768
 20
5.909081105603092
 30
0.0
 10
51.66957004064698
 20
4.923242735095402
 30
0.0
 10
53.97496766613425
 20
3.803081901640113
 30
0.0
 10
56.28554811595655
 20
2.574834157774102
 30
0.0
 10
58.59080445909375
 20
1.278063566424415
 30
0.0
 10
60.90140024469874
 20
-0.0569296630946532
 30
0.0
 10
63.20683916307398
 20
-1.387144363917042
 30
0.0
 10
65.51791818567449
 20
-2.681322026395228
 30
0.0
 10
67.82343062002839
 20
-3.898977779438938
 30
0.0
 10
70.13406777539537
 20
-5.011635102017536
 30
0.0
 10
72.45443299642963
 20
-5.989351144755514
 30
0.0
 10
74.79559325247769
 20
-6.807185646859783
 30
0.0
 10
77.16963261305048
 20
-7.434196089189875
 30
0.0
 10
79.57297947356317
 20
-7.864601775497196
 30
0.0
 10
81.18894325732256
 20
-7.950250957727729
 30
0.0
 10
82.00000000000001
 20
-7.999999999999733
 30
0.0
  0
LINE
  5
AF
330
1F
100
AcDbEntity
  8
0
  6
Continuous
 62
     1
370
    15
100
AcDbLine
 10
82.00000000000001
 20
-7.999999999999733
 30
0.0
 11
82.00000000000003
 21
-7.591526953855204
 31
0.0
  0
SPLINE
  5
B0
330
1F
100
AcDbEntity
  8
0
  6
Continuous
 62
     1
370
    15
100
AcDbSpline
210
0.0
220
0.0
230
1.0
 70
     8
 71
     3
 72
    19
 73
    15
 74
     0
 42
0.000000001
 43
0.00000001
 40
0.0
 40
0.0
 40
0.0
 40
0.0
 40
0.0929706092542993
 40
0.186711681001849
 40
0.2717848471267302
 40
0.3574478979213072
 40
0.442521069926666
 40
0.5281844977642817
 40
0.613257578954625
 40
0.6989200185455589
 40
0.7839931187256747
 40
0.8696555710339813
 40
0.9547288357345971
 40
1.0
 40
1.0
 40
1.0
 40
1.0
 10
12.00000000000002
 20
2.970972642010478
 30
0.0
 10
12.83797072701412
 20
2.512332487482829
 30
0.0
 10
14.52085658014635
 20
1.591251353201191
 30
0.0
 10
16.97057971844113
 20
0.1735736567559694
 30
0.0
 10
19.35455067056798
 20
-1.202359472880571
 30
0.0
 10
21.66031428665055
 20
-2.502022835239232
 30
0.0
 10
23.97112968652816
 20
-3.735185612785776
 30
0.0
 10
26.27657531523621
 20
-4.862468657554798
 30
0.0
 10
28.58727415196783
 20
-5.857650214641929
 30
0.0
 10
30.89277223415673
 20
-6.687666805490124
 30
0.0
 10
33.20372237780764
 20
-7.336957791029215
 30
0.0
 10
35.50965588445175
 20
-7.770781726524712
 30
0.0
 10
37.45653001775847
 20
-7.990654102577404
 30
0.0
 10
38.63125551278808
 20
-7.976925900213884
 30
0.0
 10
39.03926060571082
 20
-7.972157827583567
 30
0.0
  0
SPLINE
  5
B1
330
1F
100
AcDbEntity
  8
0
  6
Continuous
 62
     1
370
    15
100
AcDbSpline
210
0.0
220
0.0
230
1.0
 70
     8
 71
     3
 72
    12
 73
     8
 74
     0
 42
0.000000001
 43
0.00000001
 40
0.0
 40
0.0
 40
0.0
 40
0.0
 40
0.1294332424674459
 40
0.3431259656654426
 40
0.5583581156454434
 40
0.7783387030363916
 40
1.0
 40
1.0
 40
1.0
 40
1.0
 10
71.02410446789516
 20
5.361685635424485
 30
0.0
 10
71.49761708983716
 20
5.565666390903187
 30
0.0
 10
72.75289334314965
 20
6.106416915007536
 30
0.0
 10
74.7955927858849
 20
6.80304048844346
 30
0.0
 10
77.16963274089768
 20
7.435331869338993
 30
0.0
 10
79.57297944102383
 20
7.864312700121588
 30
0.0
 10
81.18894324644867
 20
7.950154355111501
 30
0.0
 10
82.00000000000003
 20
8.00000000000026
 30
0.0
  0
LINE
  5
B2
330
1F
100
AcDbEntity
  8
0
  6
Continuous
 62
   131
370
    15
100
AcDbLine
 10
12.00000000000002
 20
2.970972642010477
 30
0.0
 11
12.00000000000002
 21
4.906854933903332
 31
0.0
  0
SPLINE
  5
B3
330
1F
100
AcDbEntity
  8
0
  6
Continuous
 62
     1
370
    15
100
AcDbSpline
210
0.0
220
0.0
230
1.0
 70
    24
 71
     3
 72
    10
 73
     6
 74
     0
 42
0.000000001
 43
0.00000001
 40
0.0
 40
0.0
 40
0.0
 40
0.0
 40
0.5
 40
0.5
 40
1.0
 40
1.0
 40
1.0
 40
1.0
 10
82.00000000000003
 20
5.600000000000013
 30
0.0
 10
82.00000000000004
 20
5.939458054458521
 30
0.0
 10
82.00000000000001
 20
6.333939750936949
 30
0.0
 10
82.00000000000001
 20
7.161561287686859
 30
0.0
 10
82.00000000000003
 20
7.592587486411796
 30
0.0
 10
82.00000000000003
 20
8.00000000000026
 30
0.0
  0
LINE
  5
B4
330
1F
100
AcDbEntity
  8
0
  6
Continuous
 62
     1
370
    15
100
AcDbLine
 10
82.00000000000003
 20
5.600000000000013
 30
0.0
 11
79.02712464726136
 21
5.468556364327284
 31
0.0
  0
SPLINE
  5
B5
330
1F
100
AcDbEntity
  8
0
  6
Continuous
 62
     1
370
    15
100
AcDbSpline
210
0.0
220
0.0
230
1.0
 70
     8
 71
     3
 72
    10
 73
     6
 74
     0
 42
0.000000001
 43
0.00000001
 40
0.0
 40
0.0
 40
0.0
 40
0.0
 40
0.0764628240620025
 40
0.5382480299134942
 40
0.9999999999999999
 40
0.9999999999999999
 40
0.9999999999999999
 40
0.9999999999999999
 10
18.58576898112699
 20
-0.7550149851684735
 30
0.0
 10
18.41791288037381
 20
-0.6889544385855668
 30
0.0
 10
17.23631624635338
 20
-0.2239316057324974
 30
0.0
 10
15.04104632987884
 20
0.6821557749453657
 30
0.0
 10
13.01365778976591
 20
1.470191393062788
 30
0.0
 10
12.00000000000001
 20
1.864195022418025
 30
0.0
  0
SPLINE
  5
B6
330
1F
100
AcDbEntity
  8
0
  6
Continuous
 62
   131
370
    15
100
AcDbSpline
210
0.0
220
0.0
230
1.0
 70
    24
 71
     3
 72
    10
 73
     6
 74
     0
 42
0.000000001
 43
0.00000001
 40
0.0
 40
0.0
 40
0.0
 40
0.0
 40
0.5
 40
0.5
 40
1.0
 40
1.0
 40
1.0
 40
1.0
 10
12.00000000000002
 20
2.970972642010475
 30
0.0
 10
12.00000000000002
 20
2.934267962925388
 30
0.0
 10
12.00000000000002
 20
2.813712509268581
 30
0.0
 10
12.00000000000002
 20
2.42679077124335
 30
0.0
 10
12.00000000000002
 20
2.162006002983188
 30
0.0
 10
12.00000000000002
 20
1.864195022418022
 30
0.0
  0
SPLINE
  5
B7
330
1F
100
AcDbEntity
  8
0
  6
Continuous
 62
     1
370
    15
100
AcDbSpline
210
0.0
220
0.0
230
1.0
 70
     8
 71
     3
 72
    17
 73
    13
 74
     0
 42
0.000000001
 43
0.00000001
 40
0.0
 40
0.0
 40
0.0
 40
0.0
 40
0.0533604674666481
 40
0.1676524068543498
 40
0.2819229940653936
 40
0.39621936274626
 40
0.5105393626210938
 40
0.6248740518299379
 40
0.7392144492108443
 40
0.8535515583118525
 40
0.9678763914902458
 40
1.0
 40
1.0
 40
1.0
 40
1.0
 10
62.113599419313
 20
-0.7527507030890424
 30
0.0
 10
61.64000907732324
 20
-0.5641525559541924
 30
0.0
 10
60.15204308925941
 20
0.0284009728392198
 30
0.0
 10
57.64995735712877
 20
1.047932284725693
 30
0.0
 10
54.60715021160231
 20
2.229988833787362
 30
0.0
 10
51.56398024828
 20
3.306684688626516
 30
0.0
 10
48.52018292256828
 20
4.224386042546716
 30
0.0
 10
45.47595308412973
 20
4.937830763174541
 30
0.0
 10
42.43155478480097
 20
5.419239939691662
 30
0.0
 10
39.38725808643141
 20
5.620377102734505
 30
0.0
 10
37.07268243710437
 20
5.624163129898284
 30
0.0
 10
35.77292999510643
 20
5.476849596437485
 30
0.0
 10
35.48782802935627
 20
5.444536229203708
 30
0.0
  0
SPLINE
  5
B8
330
1F
100
AcDbEntity
  8
0
  6
Continuous
 62
     1
370
    15
100
AcDbSpline
210
0.0
220
0.0
230
1.0
 70
     8
 71
     3
 72
     8
 73
     4
 74
     0
 42
0.000000001
 43
0.00000001
 40
0.0
 40
0.0
 40
0.0
 40
0.0
 40
1.0
 40
1.0
 40
1.0
 40
1.0
 10
77.05015961782932
 20
2.237560614295323
 30
0.0
 10
77.03334167603637
 20
2.257479982395578
 30
0.0
 10
77.016621364769
 20
2.27736702115203
 30
0.0
 10
77.00000000000821
 20
2.297221294791127
 30
0.0
  0
LINE
  5
B9
330
1F
100
AcDbEntity
  8
0
  6
Continuous
 62
     1
370
    15
100
AcDbLine
 10
77.00000000000003
 20
2.937719435296604
 30
0.0
 11
82.00000000000003
 21
0.0000000000000135
 31
0.0
  0
LINE
  5
BA
330
1F
100
AcDbEntity
  8
0
  6
Continuous
 62
     1
370
    15
100
AcDbLine
 10
82.00000000000003
 20
0.0000000000000135
 30
0.0
 11
82.00000000000003
 21
-2.137943568237145
 31
0.0
  0
SPLINE
  5
BB
330
1F
100
AcDbEntity
  8
0
  6
Continuous
 62
     1
370
    15
100
AcDbSpline
210
0.0
220
0.0
230
1.0
 70
     8
 71
     3
 72
    12
 73
     8
 74
     0
 42
0.000000001
 43
0.00000001
 40
0.0
 40
0.0
 40
0.0
 40
0.0
 40
0.5000000000000023
 40
0.5000000000000023
 40
0.7500000000000011
 40
0.7500000000000011
 40
1.0
 40
1.0
 40
1.0
 40
1.0
 10
82.00000000000003
 20
-2.137943568237145
 30
0.0
 10
81.14316304501945
 20
-1.46432744054617
 30
0.0
 10
80.30064017802377
 20
-0.7630972272402687
 30
0.0
 10
79.05889110091631
 20
0.3312574405560028
 30
0.0
 10
78.64870036019443
 20
0.7032296227316419
 30
0.0
 10
77.83670336351733
 20
1.463348952643236
 30
0.0
 10
77.43709642869204
 20
1.84953990983968
 30
0.0
 10
77.0501596178293
 20
2.237560614295338
 30
0.0
  0
SPLINE
  5
BC
330
1F
100
AcDbEntity
  8
0
  6
Continuous
 62
     1
370
    15
100
AcDbSpline
210
0.0
220
0.0
230
1.0
 70
     8
 71
     3
 72
    24
 73
    20
 74
     0
 42
0.000000001
 43
0.00000001
 40
0.0
 40
0.0
 40
0.0
 40
0.0
 40
0.0267030312700208
 40
0.0876102480266374
 40
0.1485044900640236
 40
0.2093876521161269
 40
0.2702841930943995
 40
0.3311929967642264
 40
0.3921094229101565
 40
0.4530288110163287
 40
0.5139464926694114
 40
0.574857804006608
 40
0.6357580981376886
 40
0.6966432202896246
 40
0.7575331851474741
 40
0.8184373663936074
 40
0.879351136106745
 40
0.9402698408495419
 40
1.0
 40
1.0
 40
1.0
 40
1.0
 10
65.07109768493333
 20
-5.978384351523203
 30
0.0
 10
64.62626847265682
 20
-6.056829200105925
 30
0.0
 10
63.16682376681202
 20
-6.3141997050216
 30
0.0
 10
60.69303192638115
 20
-6.437626507301873
 30
0.0
 10
57.64994110087638
 20
-6.342626459155495
 30
0.0
 10
54.60715636815405
 20
-5.926048748153246
 30
0.0
 10
51.56398198454708
 20
-5.229249104006496
 30
0.0
 10
48.52018165403244
 20
-4.279920451537198
 30
0.0
 10
45.47594758981999
 20
-3.125177439380475
 30
0.0
 10
42.43154690779392
 20
-1.820123581634622
 30
0.0
 10
39.38724167225669
 20
-0.4276325255340959
 30
0.0
 10
36.34330013394769
 20
0.9853747927389586
 30
0.0
 10
33.29996157245085
 20
2.350882902626254
 30
0.0
 10
30.25712863218849
 20
3.60368489566065
 30
0.0
 10
27.21417341660152
 20
4.682783596149755
 30
0.0
 10
24.1706285281552
 20
5.538498474075863
 30
0.0
 10
21.12654703826468
 20
6.121955954416843
 30
0.0
 10
18.10198558729756
 20
6.432123852843588
 30
0.0
 10
16.09216362097673
 20
6.380066146451349
 30
0.0
 10
15.09715229605749
 20
6.354293710744311
 30
0.0
  0
SPLINE
  5
BD
330
1F
100
AcDbEntity
  8
0
  6
Continuous
 62
   131
370
    15
100
AcDbSpline
210
0.0
220
0.0
230
1.0
 70
    24
 71
     3
 72
    12
 73
     8
 74
     0
 42
0.000000001
 43
0.00000001
 40
0.0
 40
0.0
 40
0.0
 40
0.0
 40
0.0080760352783501
 40
0.3189839335178947
 40
0.6389081818687836
 40
0.919668397535938
 40
1.0
 40
1.0
 40
1.0
 40
1.0
 10
12.00000000000002
 20
6.251828884484709
 30
0.0
 10
12.00000000000002
 20
6.252524342872756
 30
0.0
 10
12.00000000000002
 20
6.279993273427273
 30
0.0
 10
12.00000000000002
 20
6.156012651240327
 30
0.0
 10
12.00000000000002
 20
5.796762281538643
 30
0.0
 10
12.00000000000002
 20
5.39122828770377
 30
0.0
 10
12.00000000000002
 20
5.07970623895665
 30
0.0
 10
12.00000000000002
 20
5.010402355229077
 30
0.0
  0
SPLINE
  5
BE
330
1F
100
AcDbEntity
  8
0
  6
Continuous
 62
     1
370
    15
100
AcDbSpline
210
0.0
220
0.0
230
1.0
 70
     8
 71
     3
 72
    14
 73
    10
 74
     0
 42
0.000000001
 43
0.00000001
 40
0.0
 40
0.0
 40
0.0
 40
0.0
 40
0.1134762308610414
 40
0.2269170452341144
 40
0.392125540907813
 40
0.5573367145906006
 40
0.7225379067831413
 40
0.8877164845967733
 40
1.0
 40
1.0
 40
1.0
 40
1.0
 10
77.050159616911
 20
2.237560614692847
 30
0.0
 10
76.35328087590332
 20
2.534230696275105
 30
0.0
 10
74.9597408931595
 20
3.127478267252736
 30
0.0
 10
72.55203022958091
 20
4.055809176207579
 30
0.0
 10
69.82523698889354
 20
4.966691641173639
 30
0.0
 10
66.78094827031968
 20
5.746718582682111
 30
0.0
 10
63.73673911418794
 20
6.239335824204137
 30
0.0
 10
61.01771065291565
 20
6.450073743522029
 30
0.0
 10
59.31348058724391
 20
6.359904912339603
 30
0.0
 10
58.62381180903019
 20
6.323415339196184
 30
0.0
  0
SPLINE
  5
BF
330
1F
100
AcDbEntity
  8
0
  6
Continuous
 62
     1
370
    15
100
AcDbSpline
210
0.0
220
0.0
230
1.0
 70
     8
 71
     3
 72
    11
 73
     7
 74
     0
 42
0.000000001
 43
0.00000001
 40
0.0
 40
0.0
 40
0.0
 40
0.0
 40
0.042336971490398
 40
0.3617906177707764
 40
0.6809064934024921
 40
1.0
 40
1.0
 40
1.0
 40
1.0
 10
21.5300955406958
 20
-5.999368237467901
 30
0.0
 10
21.39560478920787
 20
-6.025830758795324
 30
0.0
 10
20.24631398373988
 20
-6.251966252237312
 30
0.0
 10
18.08325849205648
 20
-6.398714058254813
 30
0.0
 10
15.04103794315486
 20
-6.42262703305234
 30
0.0
 10
13.01365562801828
 20
-6.164189869975839
 30
0.0
 10
12.00000000000002
 20
-6.034975817507438
 30
0.0
  0
SPLINE
  5
C0
330
1F
100
AcDbEntity
  8
0
  6
Continuous
 62
     1
370
    15
100
AcDbSpline
210
0.0
220
0.0
230
1.0
 70
    24
 71
     3
 72
    10
 73
     6
 74
     0
 42
0.000000001
 43
0.00000001
 40
0.0
 40
0.0
 40
0.0
 40
0.0
 40
0.5
 40
0.5
 40
1.0
 40
1.0
 40
1.0
 40
1.0
 10
82.00000000000003
 20
-6.311778114945715
 30
0.0
 10
82.00000000000004
 20
-5.827931112030427
 30
0.0
 10
82.00000000000003
 20
-5.216571871251736
 30
0.0
 10
82.00000000000004
 20
-3.795220473205428
 30
0.0
 10
82.00000000000003
 20
-2.986459544410466
 30
0.0
 10
82.00000000000003
 20
-2.137943568237402
 30
0.0
  0
SPLINE
  5
C1
330
1F
100
AcDbEntity
  8
0
  6
Continuous
 62
   131
370
    15
100
AcDbSpline
210
0.0
220
0.0
230
1.0
 70
    24
 71
     3
 72
     9
 73
     5
 74
     0
 42
0.000000001
 43
0.00000001
 40
0.0
 40
0.0
 40
0.0
 40
0.0
 40
0.5063845080580534
 40
1.0
 40
1.0
 40
1.0
 40
1.0
 10
12.00000000000002
 20
-6.034975817507437
 30
0.0
 10
12.00000000000002
 20
-6.099474755945089
 30
0.0
 10
12.00000000000002
 20
-6.226846224485862
 30
0.0
 10
12.00000000000002
 20
-6.24357252394755
 30
0.0
 10
12.00000000000002
 20
-6.251828884484699
 30
0.0
  0
SPLINE
  5
C2
330
1F
100
AcDbEntity
  8
0
  6
Continuous
 62
     1
370
    15
100
AcDbSpline
210
0.0
220
0.0
230
1.0
 70
    24
 71
     3
 72
     8
 73
     4
 74
     0
 42
0.000000001
 43
0.00000001
 40
0.0
 40
0.0
 40
0.0
 40
0.0
 40
1.0
 40
1.0
 40
1.0
 40
1.0
 10
77.00000000000006
 20
2.297221294800901
 30
0.0
 10
77.00000000000006
 20
2.873887513832472
 30
0.0
 10
77.00000000000006
 20
3.404182854907321
 30
0.0
 10
77.00000000000006
 20
3.849725336690629
 30
0.0
  0
SPLINE
  5
C3
330
1F
100
AcDbEntity
  8
0
  6
Continuous
 62
     1
370
    15
100
AcDbSpline
210
0.0
220
0.0
230
1.0
 70
     8
 71
     3
 72
    10
 73
     6
 74
     0
 42
0.000000001
 43
0.00000001
 40
0.0
 40
0.0
 40
0.0
 40
0.0
 40
0.5
 40
0.5
 40
1.0
 40
1.0
 40
1.0
 40
1.0
 10
82.00000000000003
 20
5.600000000000013
 30
0.0
 10
81.15469777286494
 20
5.370775138897779
 30
0.0
 10
80.31414799209605
 20
5.112419133122749
 30
0.0
 10
78.64552416480089
 20
4.532984028997614
 30
0.0
 10
77.81744921700519
 20
4.212395125810848
 30
0.0
 10
77.00000000000004
 20
3.849725336688062
 30
0.0
  0
SPLINE
  5
C4
330
1F
100
AcDbEntity
  8
0
  6
Continuous
 62
   131
370
    15
100
AcDbSpline
210
0.0
220
0.0
230
1.0
 70
    24
 71
     3
 72
    14
 73
    10
 74
     0
 42
0.000000001
 43
0.00000001
 40
0.0
 40
0.0
 40
0.0
 40
0.0
 40
0.25
 40
0.25
 40
0.5
 40
0.5
 40
0.75
 40
0.75
 40
1.0
 40
1.0
 40
1.0
 40
1.0
 10
11.99999999999999
 20
1.864195022418034
 30
0.0
 10
11.99999999999999
 20
1.161033100998826
 30
0.0
 10
11.99999999999999
 20
0.4244757154312851
 30
0.0
 10
11.99999999999999
 20
-1.051004185680851
 30
0.0
 10
11.99999999999999
 20
-1.789214012450037
 30
0.0
 10
11.99999999999999
 20
-3.193124412568865
 30
0.0
 10
11.99999999999999
 20
-3.858076923762326
 30
0.0
 10
11.99999999999999
 20
-5.054422782618909
 30
0.0
 10
11.99999999999999
 20
-5.585495500330341
 30
0.0
 10
11.99999999999999
 20
-6.03497581750743
 30
0.0
  0
LINE
  5
C5
330
1F
100
AcDbEntity
  8
0
  6
Continuous
 62
     1
370
    15
100
AcDbLine
 10
82.00000000000003
 20
0.0000000000000135
 30
0.0
 11
82.00000000000003
 21
5.600000000000014
 31
0.0
  0
LINE
  5
C6
330
1F
100
AcDbEntity
  8
0
  6
Continuous
 62
   131
370
    15
100
AcDbLine
 10
8.949890148750212
 20
6.168348675443906
 30
0.0
 11
8.949890148750208
 21
8.000000000000004
 31
0.0
  0
SPLINE
  5
C7
330
1F
100
AcDbEntity
  8
0
  6
Continuous
 62
   131
370
    15
100
AcDbSpline
210
0.0
220
0.0
230
1.0
 70
     8
 71
     3
 72
    10
 73
     6
 74
     0
 42
0.000000001
 43
0.00000001
 40
0.0
 40
0.0
 40
0.0
 40
0.0
 40
0.5000000000000001
 40
0.5000000000000001
 40
1.0
 40
1.0
 40
1.0
 40
1.0
 10
12.0000000000055
 20
4.906854933904503
 30
0.0
 10
11.49116829627083
 20
5.138740051560069
 30
0.0
 10
10.98614779177081
 20
5.360156774276715
 30
0.0
 10
9.968263527859285
 20
5.781612602142175
 30
0.0
 10
9.457577212696691
 20
5.98128899395129
 30
0.0
 10
8.949775175555278
 20
6.168130344169973
 30
0.0
  0
SPLINE
  5
C8
330
1F
100
AcDbEntity
  8
0
  6
Continuous
 62
   131
370
    15
100
AcDbSpline
210
0.0
220
0.0
230
1.0
 70
     8
 71
     3
 72
    10
 73
     6
 74
     0
 42
0.000000001
 43
0.00000001
 40
0.0
 40
0.0
 40
0.0
 40
0.0
 40
0.5
 40
0.5
 40
1.0
 40
1.0
 40
1.0
 40
1.0
 10
8.949890148750216
 20
4.521161065372531
 30
0.0
 10
9.45767345822913
 20
4.279118003571948
 30
0.0
 10
9.968340480380247
 20
4.027469452473472
 30
0.0
 10
10.98618607050785
 20
3.509485919608701
 30
0.0
 10
11.49118749731227
 20
3.243563128280798
 30
0.0
 10
12.00000000000002
 20
2.970972642010476
 30
0.0
  0
LINE
  5
C9
330
1F
100
AcDbEntity
  8
0
  6
Continuous
 62
   131
370
    15
100
AcDbLine
 10
8.949890148750212
 20
-7.999999999999996
 30
0.0
 11
8.949890148750216
 21
4.52116035304086
 31
0.0
  0
LINE
  5
CA
330
1F
100
AcDbEntity
  8
0
  6
Continuous
 62
   131
370
    15
100
AcDbLine
 10
-66.99999999999997
 20
7.999999999999994
 30
0.0
 11
-66.99999999999997
 21
-7.999999999999999
 31
0.0
  0
LINE
  5
CB
330
1F
100
AcDbEntity
  8
0
  6
Continuous
 62
   131
370
    15
100
AcDbLine
 10
-67.99999999999997
 20
6.999999999999996
 30
0.0
 11
-67.99999999999997
 21
-6.999999999999996
 31
0.0
  0
SPLINE
  5
CC
330
1F
100
AcDbEntity
  8
0
  6
Continuous
 62
   131
370
    15
100
AcDbSpline
210
0.0
220
0.0
230
1.0
 70
    24
 71
     3
 72
    10
 73
     6
 74
     0
 42
0.000000001
 43
0.00000001
 40
0.0
 40
0.0
 40
0.0
 40
0.0
 40
0.5
 40
0.5
 40
1.0
 40
1.0
 40
1.0
 40
1.0
 10
12.00000000000002
 20
2.970972642010475
 30
0.0
 10
12.00000000000002
 20
2.934267962925388
 30
0.0
 10
12.00000000000002
 20
2.813712509268581
 30
0.0
 10
12.00000000000002
 20
2.42679077124335
 30
0.0
 10
12.00000000000002
 20
2.162006002983188
 30
0.0
 10
12.00000000000002
 20
1.864195022418022
 30
0.0
  0
SPLINE
  5
CD
330
1F
100
AcDbEntity
  8
0
  6
Continuous
 62
   131
370
    15
100
AcDbSpline
210
0.0
220
0.0
230
1.0
 70
     8
 71
     3
 72
    10
 73
     6
 74
     0
 42
0.000000001
 43
0.00000001
 40
0.0
 40
0.0
 40
0.0
 40
0.0
 40
0.5
 40
0.5
 40
1.0
 40
1.0
 40
1.0
 40
1.0
 10
12.00000000000001
 20
1.864195022418023
 30
0.0
 10
11.49118286989058
 20
2.0579860502529
 30
0.0
 10
10.9861768453936
 20
2.247536477830964
 30
0.0
 10
9.96832193494516
 20
2.617780912935905
 30
0.0
 10
9.457650263206759
 20
2.79818313194041
 30
0.0
 10
8.949862440383278
 20
2.972242327502002
 30
0.0
  0
SPLINE
  5
CE
330
1F
100
AcDbEntity
  8
0
  6
Continuous
 62
   131
370
    15
100
AcDbSpline
210
0.0
220
0.0
230
1.0
 70
     8
 71
     3
 72
    10
 73
     6
 74
     0
 42
0.000000001
 43
0.00000001
 40
0.0
 40
0.0
 40
0.0
 40
0.0
 40
0.5
 40
0.5
 40
1.0
 40
1.0
 40
1.0
 40
1.0
 10
12.00000000000002
 20
-6.034975817507437
 30
0.0
 10
11.49118048381125
 20
-5.95678866325895
 30
0.0
 10
10.98617208856402
 20
-5.866633552818334
 30
0.0
 10
9.9683123721943
 20
-5.662559831159655
 30
0.0
 10
9.457638302947677
 20
-5.548724607303964
 30
0.0
 10
8.949848152869404
 20
-5.424148144829361
 30
0.0
  0
SPLINE
  5
CF
330
1F
100
AcDbEntity
  8
0
  6
Continuous
 62
   131
370
    15
100
AcDbSpline
210
0.0
220
0.0
230
1.0
 70
    24
 71
     3
 72
    14
 73
    10
 74
     0
 42
0.000000001
 43
0.00000001
 40
0.0
 40
0.0
 40
0.0
 40
0.0
 40
0.25
 40
0.25
 40
0.5
 40
0.5
 40
0.75
 40
0.75
 40
1.0
 40
1.0
 40
1.0
 40
1.0
 10
11.99999999999999
 20
1.864195022418034
 30
0.0
 10
11.99999999999999
 20
1.161033100998826
 30
0.0
 10
11.99999999999999
 20
0.4244757154312851
 30
0.0
 10
11.99999999999999
 20
-1.051004185680851
 30
0.0
 10
11.99999999999999
 20
-1.789214012450037
 30
0.0
 10
11.99999999999999
 20
-3.193124412568865
 30
0.0
 10
11.99999999999999
 20
-3.858076923762326
 30
0.0
 10
11.99999999999999
 20
-5.054422782618909
 30
0.0
 10
11.99999999999999
 20
-5.585495500330341
 30
0.0
 10
11.99999999999999
 20
-6.03497581750743
 30
0.0
  0
SPLINE
  5
D0
330
1F
100
AcDbEntity
  8
0
  6
Continuous
 62
   131
370
    15
100
AcDbSpline
210
0.0
220
0.0
230
1.0
 70
    24
 71
     3
 72
    12
 73
     8
 74
     0
 42
0.000000001
 43
0.00000001
 40
0.0
 40
0.0
 40
0.0
 40
0.0
 40
0.0069085940984088
 40
0.3181824142195526
 40
0.6384831962113958
 40
0.9195738515585224
 40
1.0
 40
1.0
 40
1.0
 40
1.0
 10
12.00000000000002
 20
6.252124242611121
 30
0.0
 10
12.00000000000002
 20
6.252716153158667
 30
0.0
 10
12.00000000000002
 20
6.279977202850954
 30
0.0
 10
12.00000000000002
 20
6.155912119527022
 30
0.0
 10
12.00000000000002
 20
5.796786721500268
 30
0.0
 10
12.00000000000002
 20
5.391226949377857
 30
0.0
 10
12.00000000000002
 20
5.07970599540395
 30
0.0
 10
12.00000000000002
 20
5.010402355229077
 30
0.0
  0
SPLINE
  5
D1
330
1F
100
AcDbEntity
  8
0
  6
Continuous
 62
   131
370
    15
100
AcDbSpline
210
0.0
220
0.0
230
1.0
 70
    24
 71
     3
 72
     9
 73
     5
 74
     0
 42
0.000000001
 43
0.00000001
 40
0.0
 40
0.0
 40
0.0
 40
0.0
 40
0.50496151960163
 40
1.0
 40
1.0
 40
1.0
 40
1.0
 10
12.00000000000002
 20
-6.034975817507437
 30
0.0
 10
12.00000000000002
 20
-6.099448179738577
 30
0.0
 10
12.00000000000002
 20
-6.227125952654825
 30
0.0
 10
12.00000000000002
 20
-6.243846756894897
 30
0.0
 10
12.00000000000002
 20
-6.25212419841694
 30
0.0
  0
LINE
  5
D2
330
1F
100
AcDbEntity
  8
중심선
100
AcDbLine
 10
-70.99999999999997
 20
-0.0000000000000004
 30
0.0
 11
89.00000000000003
 21
0.0000000000000142
 31
0.0
  0
CIRCLE
  5
D3
330
1F
100
AcDbEntity
  8
외형선
100
AcDbCircle
 10
0.0000000000000104
 20
0.0
 30
0.0
 40
3.000000000000005
  0
INSERT
  5
D4
330
1F
100
AcDbEntity
  8
0
  6
Continuous
 62
     7
100
AcDbBlockReference
 66
     1
  2
블럭10
 10
-22.93944368806589
 20
-52.04609937292004
 30
0.0
  0
ATTRIB
  5
D5
330
D4
100
AcDbEntity
  8
FORMAT
 62
     2
100
AcDbText
 10
-43.79769121965843
 20
-49.97073246008785
 30
0.0
 40
4.233333333333333
  1
SEME7016070150E [ 2 FLUTE ]
 41
0.75
  7
SLDTEXTSTYLE0
 11
-43.79769121965843
 21
-52.08739912675452
 31
0.0
100
AcDbAttribute
  2
AUTOATTR0
 70
     0
 74
     1
  0
SEQEND
  5
D6
330
D4
100
AcDbEntity
  8
0
  6
Continuous
 62
     7
  0
HATCH
  5
D7
330
1F
100
AcDbEntity
  8
중심선
100
AcDbHatch
 10
0.0
 20
0.0
 30
0.0
210
0.0
220
0.0
230
1.0
  2
SOLID
 70
     1
 71
     0
 91
        1
 92
        0
 93
        4
 72
     1
 10
-17.22453438368504
 20
-35.7989250712761
 11
-20.67080962752232
 21
-35.7989250712761
 72
     1
 10
-20.67080962752232
 20
-35.7989250712761
 11
-22.79903948672635
 21
-38.3352506518487
 72
     1
 10
-22.79903948672635
 20
-38.3352506518487
 11
-19.35273115777591
 21
-38.33521122254621
 72
     1
 10
-19.35273115777591
 20
-38.33521122254621
 11
-17.22453438368504
 21
-35.7989250712761
 97
        0
 75
     0
 76
     1
 98
        1
 10
0.0
 20
0.0
  0
HATCH
  5
D8
330
1F
100
AcDbEntity
  8
중심선
100
AcDbHatch
 10
0.0
 20
0.0
 30
0.0
210
0.0
220
0.0
230
1.0
  2
SOLID
 70
     1
 71
     0
 91
        1
 92
        0
 93
        4
 72
     1
 10
-12.21177039264909
 20
-35.7989250712761
 11
-15.65804563648637
 21
-35.7989250712761
 72
     1
 10
-15.65804563648637
 20
-35.7989250712761
 11
-20.18918364484376
 21
-41.19892507127612
 72
     1
 10
-20.18918364484376
 20
-41.19892507127612
 11
-16.74290840100648
 21
-41.19892507127612
 72
     1
 10
-16.74290840100648
 20
-41.19892507127612
 11
-12.21177039264909
 21
-35.7989250712761
 97
        0
 75
     0
 76
     1
 98
        1
 10
0.0
 20
0.0
  0
HATCH
  5
D9
330
1F
100
AcDbEntity
  8
중심선
100
AcDbHatch
 10
0.0
 20
0.0
 30
0.0
210
0.0
220
0.0
230
1.0
  2
SOLID
 70
     1
 71
     0
 91
        1
 92
        0
 93
        4
 72
     1
 10
-7.199006401613195
 20
-35.79892507127613
 11
-10.64528164545031
 21
-35.7989250712761
 72
     1
 10
-10.64528164545031
 20
-35.7989250712761
 11
-17.69371854733956
 21
-44.19892507127612
 72
     1
 10
-17.69371854733956
 20
-44.19892507127612
 11
-14.24744330350228
 21
-44.19892507127612
 72
     1
 10
-14.24744330350228
 20
-44.19892507127612
 11
-7.199006401613195
 21
-35.79892507127613
 97
        0
 75
     0
 76
     1
 98
        1
 10
0.0
 20
0.0
  0
HATCH
  5
DA
330
1F
100
AcDbEntity
  8
중심선
100
AcDbHatch
 10
0.0
 20
0.0
 30
0.0
210
0.0
220
0.0
230
1.0
  2
SOLID
 70
     1
 71
     0
 91
        1
 92
        0
 93
        6
 72
     3
 10
-2.399115970600996
 20
-39.99892507132738
 11
3.960054785062284
 21
1.540850780301639E-10
 40
0.3939339440162633
 50
17.09539180608433
 51
320.0019657685079
 73
     0
 72
     1
 10
-0.7161163149004002
 20
-38.58681907591441
 11
1.589185558800638
 21
-36.65249236586649
 72
     3
 10
-2.399115970653842
 20
-39.99892507127625
 11
6.600054785286829
 21
-1.249000902703301E-13
 40
0.6363583540795982
 50
39.99873849337408
 51
368.4976242363725
 73
     1
 72
     1
 10
4.026216521246767
 20
-39.03892507120613
 11
-3.71904866381792
 21
-39.0389250712061
 72
     1
 10
-3.71904866381792
 20
-39.0389250712061
 11
-3.719073708263854
 21
-40.95892507120602
 72
     1
 10
-3.719073708263854
 20
-40.95892507120602
 11
0.7223060612081831
 21
-40.95892507120599
 97
        0
 75
     0
 76
     1
 98
        1
 10
0.0
 20
0.0
  0
DIMENSION
  5
DB
330
1F
100
AcDbEntity
  8
치수문자_일반주서
100
AcDbDimension
  2
_D
 10
96.08192425821738
 20
8.00000000000031
 30
0.0
 11
96.08192425821734
 21
18.54150000000032
 31
0.0
 70
   160
  1
%%c<>
 71
     2
 42
15.99999999999999
 52
-270.0
  3
SLDDIMSTYLE0
100
AcDbAlignedDimension
 13
82.00000000000001
 23
-7.999999999999733
 33
0.0
 14
82.00000000000001
 24
8.000000000000258
 34
0.0
 50
90.0000000000002
100
AcDbRotatedDimension
  0
DIMENSION
  5
E9
330
1F
100
AcDbEntity
  8
치수문자_일반주서
100
AcDbDimension
  2
_D_1
 10
82.00000000000003
 20
28.7884104402427
 30
0.0
 11
7.000000000000032
 21
28.7884104402427
 31
0.0
 70
   160
  1
<>
 71
     2
 42
150.0
  3
SLDDIMSTYLE1
100
AcDbAlignedDimension
 13
-67.99999999999997
 23
6.999999999999996
 33
0.0
 14
82.00000000000003
 24
8.00000000000026
 34
0.0
 50
-0.0000000000000027
100
AcDbRotatedDimension
  0
DIMENSION
  5
F4
330
1F
100
AcDbEntity
  8
치수문자_일반주서
100
AcDbDimension
  2
_D_2
 10
82.00000000000003
 20
19.60091606987428
 30
0.0
 11
47.00000000000002
 21
19.60091606987428
 31
0.0
 70
   160
  1
<>
 71
     2
 42
70.00000000000001
  3
SLDDIMSTYLE1
100
AcDbAlignedDimension
 13
12.00000000000002
 23
6.253918263706757
 33
0.0
 14
82.00000000000003
 24
8.00000000000026
 34
0.0
 50
-0.0000000000000058
100
AcDbRotatedDimension
  0
DIMENSION
  5
FE
330
1F
100
AcDbEntity
  8
치수문자_일반주서
100
AcDbDimension
  2
_D_3
 10
-78.6021356841794
 20
-8.000000000000039
 30
0.0
 11
-78.6021356841795
 21
18.54149999999995
 31
0.0
 70
   160
  1
%%c<>
 71
     2
 42
15.99999999999999
 52
-270.0
  3
SLDDIMSTYLE0
100
AcDbAlignedDimension
 13
-66.99999999999997
 23
7.999999999999994
 33
0.0
 14
-66.99999999999997
 24
-7.999999999999996
 34
0.0
 50
90.0000000000002
100
AcDbRotatedDimension
  0
INSERT
  5
111
330
1F
100
AcDbEntity
  8
외형선
100
AcDbBlockReference
  2
SW_DOWELSYMBOL_0
 10
0.0000000000000104
 20
0.0
 30
0.0
  0
ENDSEC
  0
SECTION
  2
OBJECTS
  0
DICTIONARY
  5
C
330
0
100
AcDbDictionary
281
     1
  3
ACAD_GROUP
350
D
  3
ACAD_IMAGE_VARS
350
135
  3
ACAD_LAYOUT
350
1A
  3
ACAD_MLINESTYLE
350
17
  3
ACAD_PLOTSETTINGS
350
19
  3
ACAD_PLOTSTYLENAME
350
E
  3
ACAD_SCALELIST
350
47
  3
APPDATA
350
133
  3
DWGPROPS
350
143
  0
DICTIONARY
  5
D
102
{ACAD_REACTORS
330
C
102
}
330
C
100
AcDbDictionary
281
     1
  0
RASTERVARIABLES
  5
135
102
{ACAD_REACTORS
330
C
102
}
330
C
100
AcDbRasterVariables
 90
        0
 70
     1
 71
     1
 72
     1
  0
DICTIONARY
  5
1A
102
{ACAD_REACTORS
330
C
102
}
330
C
100
AcDbDictionary
281
     1
  3
Layout1
350
1E
  3
Layout2
350
26
  3
Model
350
22
  0
DICTIONARY
  5
17
102
{ACAD_REACTORS
330
C
102
}
330
C
100
AcDbDictionary
281
     1
  3
Standard
350
18
  0
DICTIONARY
  5
19
102
{ACAD_REACTORS
330
C
102
}
330
C
100
AcDbDictionary
281
     1
  0
ACDBDICTIONARYWDFLT
  5
E
102
{ACAD_REACTORS
330
C
102
}
330
C
100
AcDbDictionary
281
     1
  3
Normal
350
F
100
AcDbDictionaryWithDefault
340
F
  0
DICTIONARY
  5
47
102
{ACAD_REACTORS
330
C
102
}
330
C
100
AcDbDictionary
281
     1
  3
A0
350
48
  3
A1
350
49
  3
A2
350
4A
  3
A3
350
4B
  3
A4
350
4C
  3
A5
350
4D
  3
A6
350
4E
  3
A7
350
4F
  3
A8
350
50
  3
A9
350
51
  3
B0
350
52
  3
B1
350
53
  3
B2
350
54
  3
B3
350
55
  3
B4
350
56
  3
B5
350
57
  3
B6
350
58
  3
B7
350
59
  3
B8
350
5A
  3
B9
350
5B
  3
C0
350
5C
  3
C1
350
5D
  3
C2
350
5E
  3
C3
350
5F
  3
C4
350
60
  3
C5
350
61
  3
C6
350
62
  3
C7
350
63
  3
C8
350
64
  3
C9
350
65
  3
D0
350
66
  3
D1
350
67
  3
D2
350
68
  0
DICTIONARY
  5
133
102
{ACAD_REACTORS
330
C
102
}
330
C
100
AcDbDictionary
281
     1
  0
XRECORD
  5
143
102
{ACAD_REACTORS
330
C
102
}
330
C
100
AcDbXrecord
280
     1
  1
DWGPROPS COOKIE
  2

  3

  4

  6

  7

  8
12014102
  9

300
=
301
=
302
=
303
=
304
=
305
=
306
=
307
=
308
=
309
=
 40
0.0
 41
2458262.17611625
 42
2458266.315418345
  1

 90
        0
  0
LAYOUT
  5
1E
102
{ACAD_REACTORS
330
1A
102
}
330
1A
100
AcDbPlotSettings
  1

  2
none_device
  4

  6

 40
0.0
 41
0.0
 42
0.0
 43
0.0
 44
0.0
 45
0.0
 46
0.0
 47
0.0
 48
0.0
 49
0.0
140
0.0
141
0.0
142
1.0
143
1.0
 70
   688
 72
     1
 73
     0
 74
     5
  7

 75
    16
147
1.0
148
0.0
149
0.0
100
AcDbLayout
  1
Layout1
 70
     1
 71
     1
 10
0.0
 20
0.0
 11
420.0
 21
297.0
 12
0.0
 22
0.0
 32
0.0
 14
1.000000000000000E+20
 24
1.000000000000000E+20
 34
1.000000000000000E+20
 15
-1.000000000000000E+20
 25
-1.000000000000000E+20
 35
-1.000000000000000E+20
146
0.0
 13
0.0
 23
0.0
 33
0.0
 16
1.0
 26
0.0
 36
0.0
 17
0.0
 27
1.0
 37
0.0
 76
     0
330
1B
  0
LAYOUT
  5
26
102
{ACAD_REACTORS
330
1A
102
}
330
1A
100
AcDbPlotSettings
  1

  2
none_device
  4

  6

 40
0.0
 41
0.0
 42
0.0
 43
0.0
 44
0.0
 45
0.0
 46
0.0
 47
0.0
 48
0.0
 49
0.0
140
0.0
141
0.0
142
1.0
143
1.0
 70
   688
 72
     1
 73
     0
 74
     5
  7

 75
    16
147
1.0
148
0.0
149
0.0
100
AcDbLayout
  1
Layout2
 70
     1
 71
     2
 10
0.0
 20
0.0
 11
0.0
 21
0.0
 12
0.0
 22
0.0
 32
0.0
 14
0.0
 24
0.0
 34
0.0
 15
0.0
 25
0.0
 35
0.0
146
0.0
 13
0.0
 23
0.0
 33
0.0
 16
1.0
 26
0.0
 36
0.0
 17
0.0
 27
1.0
 37
0.0
 76
     0
330
23
  0
LAYOUT
  5
22
102
{ACAD_REACTORS
330
1A
102
}
330
1A
100
AcDbPlotSettings
  1

  2
none_device
  4
ANSI_A_(11.00_x_8.50_Inches)
  6

 40
6.35
 41
19.05
 42
6.35000508
 43
19.05000254
 44
279.4
 45
215.9
 46
130.0720740513688
 47
103.4026590894338
 48
0.0
 49
0.0
140
0.0
141
0.0
142
0.065578048070227
143
1.0
 70
  1696
 72
     0
 73
     0
 74
     0
  7

 75
     0
147
0.0235690232323232
148
0.0
149
0.0
100
AcDbLayout
  1
Model
 70
     1
 71
     0
 10
0.0
 20
0.0
 11
420.0
 21
297.0
 12
0.0
 22
0.0
 32
0.0
 14
-82.97713568417952
 24
-49.97073246008785
 34
0.0
 15
96.63225759155078
 25
33.1634104402427
 35
0.0
146
0.0
 13
0.0
 23
0.0
 33
0.0
 16
1.0
 26
0.0
 36
0.0
 17
0.0
 27
1.0
 37
0.0
 76
     0
330
1F
331
29
  0
MLINESTYLE
  5
18
102
{ACAD_REACTORS
330
17
102
}
330
17
100
AcDbMlineStyle
  2
Standard
 70
     0
  3

 62
   256
 51
90.0
 52
90.0
 71
     2
 49
0.5
 62
   256
  6
BYLAYER
 49
-0.5
 62
   256
  6
BYLAYER
  0
ACDBPLACEHOLDER
  5
F
102
{ACAD_REACTORS
330
E
102
}
330
E
  0
SCALE
  5
48
102
{ACAD_REACTORS
330
47
102
}
330
47
100
AcDbScale
 70
     0
300
1:1
140
1.0
141
1.0
290
     1
  0
SCALE
  5
49
102
{ACAD_REACTORS
330
47
102
}
330
47
100
AcDbScale
 70
     0
300
1:2
140
1.0
141
2.0
290
     0
  0
SCALE
  5
4A
102
{ACAD_REACTORS
330
47
102
}
330
47
100
AcDbScale
 70
     0
300
1:4
140
1.0
141
4.0
290
     0
  0
SCALE
  5
4B
102
{ACAD_REACTORS
330
47
102
}
330
47
100
AcDbScale
 70
     0
300
1:5
140
1.0
141
5.0
290
     0
  0
SCALE
  5
4C
102
{ACAD_REACTORS
330
47
102
}
330
47
100
AcDbScale
 70
     0
300
1:8
140
1.0
141
8.0
290
     0
  0
SCALE
  5
4D
102
{ACAD_REACTORS
330
47
102
}
330
47
100
AcDbScale
 70
     0
300
1:10
140
1.0
141
10.0
290
     0
  0
SCALE
  5
4E
102
{ACAD_REACTORS
330
47
102
}
330
47
100
AcDbScale
 70
     0
300
1:16
140
1.0
141
16.0
290
     0
  0
SCALE
  5
4F
102
{ACAD_REACTORS
330
47
102
}
330
47
100
AcDbScale
 70
     0
300
1:20
140
1.0
141
20.0
290
     0
  0
SCALE
  5
50
102
{ACAD_REACTORS
330
47
102
}
330
47
100
AcDbScale
 70
     0
300
1:30
140
1.0
141
30.0
290
     0
  0
SCALE
  5
51
102
{ACAD_REACTORS
330
47
102
}
330
47
100
AcDbScale
 70
     0
300
1:40
140
1.0
141
40.0
290
     0
  0
SCALE
  5
52
102
{ACAD_REACTORS
330
47
102
}
330
47
100
AcDbScale
 70
     0
300
1:50
140
1.0
141
50.0
290
     0
  0
SCALE
  5
53
102
{ACAD_REACTORS
330
47
102
}
330
47
100
AcDbScale
 70
     0
300
1:100
140
1.0
141
100.0
290
     0
  0
SCALE
  5
54
102
{ACAD_REACTORS
330
47
102
}
330
47
100
AcDbScale
 70
     0
300
2:1
140
2.0
141
1.0
290
     0
  0
SCALE
  5
55
102
{ACAD_REACTORS
330
47
102
}
330
47
100
AcDbScale
 70
     0
300
4:1
140
4.0
141
1.0
290
     0
  0
SCALE
  5
56
102
{ACAD_REACTORS
330
47
102
}
330
47
100
AcDbScale
 70
     0
300
8:1
140
8.0
141
1.0
290
     0
  0
SCALE
  5
57
102
{ACAD_REACTORS
330
47
102
}
330
47
100
AcDbScale
 70
     0
300
10:1
140
10.0
141
1.0
290
     0
  0
SCALE
  5
58
102
{ACAD_REACTORS
330
47
102
}
330
47
100
AcDbScale
 70
     0
300
100:1
140
100.0
141
1.0
290
     0
  0
SCALE
  5
59
102
{ACAD_REACTORS
330
47
102
}
330
47
100
AcDbScale
 70
     0
300
1/128" = 1'-0"
140
0.0078125
141
12.0
290
     0
  0
SCALE
  5
5A
102
{ACAD_REACTORS
330
47
102
}
330
47
100
AcDbScale
 70
     0
300
1/64" = 1'-0"
140
0.015625
141
12.0
290
     0
  0
SCALE
  5
5B
102
{ACAD_REACTORS
330
47
102
}
330
47
100
AcDbScale
 70
     0
300
1/32" = 1'-0"
140
0.03125
141
12.0
290
     0
  0
SCALE
  5
5C
102
{ACAD_REACTORS
330
47
102
}
330
47
100
AcDbScale
 70
     0
300
1/16" = 1'-0"
140
0.0625
141
12.0
290
     0
  0
SCALE
  5
5D
102
{ACAD_REACTORS
330
47
102
}
330
47
100
AcDbScale
 70
     0
300
3/32" = 1'-0"
140
0.09375
141
12.0
290
     0
  0
SCALE
  5
5E
102
{ACAD_REACTORS
330
47
102
}
330
47
100
AcDbScale
 70
     0
300
1/8" = 1'-0"
140
0.125
141
12.0
290
     0
  0
SCALE
  5
5F
102
{ACAD_REACTORS
330
47
102
}
330
47
100
AcDbScale
 70
     0
300
3/16" = 1'-0"
140
0.1875
141
12.0
290
     0
  0
SCALE
  5
60
102
{ACAD_REACTORS
330
47
102
}
330
47
100
AcDbScale
 70
     0
300
1/4" = 1'-0"
140
0.25
141
12.0
290
     0
  0
SCALE
  5
61
102
{ACAD_REACTORS
330
47
102
}
330
47
100
AcDbScale
 70
     0
300
3/8" = 1'-0"
140
0.375
141
12.0
290
     0
  0
SCALE
  5
62
102
{ACAD_REACTORS
330
47
102
}
330
47
100
AcDbScale
 70
     0
300
1/2" = 1'-0"
140
0.5
141
12.0
290
     0
  0
SCALE
  5
63
102
{ACAD_REACTORS
330
47
102
}
330
47
100
AcDbScale
 70
     0
300
3/4" = 1'-0"
140
0.75
141
12.0
290
     0
  0
SCALE
  5
64
102
{ACAD_REACTORS
330
47
102
}
330
47
100
AcDbScale
 70
     0
300
1" = 1'-0"
140
1.0
141
12.0
290
     0
  0
SCALE
  5
65
102
{ACAD_REACTORS
330
47
102
}
330
47
100
AcDbScale
 70
     0
300
1-1/2" = 1'-0"
140
1.5
141
12.0
290
     0
  0
SCALE
  5
66
102
{ACAD_REACTORS
330
47
102
}
330
47
100
AcDbScale
 70
     0
300
3" = 1'-0"
140
3.0
141
12.0
290
     0
  0
SCALE
  5
67
102
{ACAD_REACTORS
330
47
102
}
330
47
100
AcDbScale
 70
     0
300
6" = 1'-0"
140
6.0
141
12.0
290
     0
  0
SCALE
  5
68
102
{ACAD_REACTORS
330
47
102
}
330
47
100
AcDbScale
 70
     0
300
1'-0" = 1'-0"
140
12.0
141
12.0
290
     0
  0
ENDSEC
  0
EOF
