  0
SECTION
  2
HEADER
  9
$ACADVER
  1
AC1015
  9
$ACADMAINTVER
 70
     6
  9
$DWGCODEPAGE
  3
ANSI_949
  9
$INSBASE
 10
0.0
 20
0.0
 30
0.0
  9
$EXTMIN
 10
-63.95739531346129
 20
-49.97073246008785
 30
0.0
  9
$EXTMAX
 10
79.21698255432833
 20
33.1634104402427
 30
0.0
  9
$LIMMIN
 10
0.0
 20
0.0
  9
$LIMMAX
 10
420.0
 20
297.0
  9
$ORTHOMODE
 70
     0
  9
$REGENMODE
 70
     1
  9
$FILLMODE
 70
     1
  9
$QTEXTMODE
 70
     0
  9
$MIRRTEXT
 70
     1
  9
$LTSCALE
 40
1.0
  9
$ATTMODE
 70
     1
  9
$TEXTSIZE
 40
3.5
  9
$TRACEWID
 40
1.0
  9
$TEXTSTYLE
  7
Standard
  9
$CLAYER
  8
0
  9
$CELTYPE
  6
ByLayer
  9
$CECOLOR
 62
   256
  9
$CELTSCALE
 40
1.0
  9
$DISPSILH
 70
     0
  9
$DIMSCALE
 40
1.0
  9
$DIMASZ
 40
3.302
  9
$DIMEXO
 40
1.0
  9
$DIMDLI
 40
3.75
  9
$DIMRND
 40
0.0
  9
$DIMDLE
 40
0.0
  9
$DIMEXE
 40
1.0
  9
$DIMTP
 40
0.0
  9
$DIMTM
 40
0.0
  9
$DIMTXT
 40
3.5
  9
$DIMCEN
 40
2.5
  9
$DIMTSZ
 40
0.0
  9
$DIMTOL
 70
     0
  9
$DIMLIM
 70
     0
  9
$DIMTIH
 70
     1
  9
$DIMTOH
 70
     1
  9
$DIMSE1
 70
     0
  9
$DIMSE2
 70
     0
  9
$DIMTAD
 70
     1
  9
$DIMZIN
 70
     0
  9
$DIMBLK
  1

  9
$DIMASO
 70
     1
  9
$DIMSHO
 70
     1
  9
$DIMPOST
  1

  9
$DIMAPOST
  1

  9
$DIMALT
 70
     0
  9
$DIMALTD
 70
     3
  9
$DIMALTF
 40
0.0393700787401575
  9
$DIMLFAC
 40
1.0
  9
$DIMTOFL
 70
     1
  9
$DIMTVP
 40
0.0
  9
$DIMTIX
 70
     0
  9
$DIMSOXD
 70
     0
  9
$DIMSAH
 70
     0
  9
$DIMBLK1
  1

  9
$DIMBLK2
  1

  9
$DIMSTYLE
  2
ISO-25
  9
$DIMCLRD
 70
     0
  9
$DIMCLRE
 70
     0
  9
$DIMCLRT
 70
     0
  9
$DIMTFAC
 40
1.0
  9
$DIMGAP
 40
1.524
  9
$DIMJUST
 70
     0
  9
$DIMSD1
 70
     0
  9
$DIMSD2
 70
     0
  9
$DIMTOLJ
 70
     0
  9
$DIMTZIN
 70
     0
  9
$DIMALTZ
 70
     0
  9
$DIMALTTZ
 70
     0
  9
$DIMUPT
 70
     0
  9
$DIMDEC
 70
     2
  9
$DIMTDEC
 70
     2
  9
$DIMALTU
 70
     2
  9
$DIMALTTD
 70
     3
  9
$DIMTXSTY
  7
Standard
  9
$DIMAUNIT
 70
     0
  9
$DIMADEC
 70
     2
  9
$DIMALTRND
 40
0.0
  9
$DIMAZIN
 70
     0
  9
$DIMDSEP
 70
    44
  9
$DIMATFIT
 70
     3
  9
$DIMFRAC
 70
     0
  9
$DIMLDRBLK
  1

  9
$DIMLUNIT
 70
     2
  9
$DIMLWD
 70
    -2
  9
$DIMLWE
 70
    -2
  9
$DIMTMOVE
 70
     0
  9
$LUNITS
 70
     2
  9
$LUPREC
 70
     2
  9
$SKETCHINC
 40
1.0
  9
$FILLETRAD
 40
10.0
  9
$AUNITS
 70
     0
  9
$AUPREC
 70
     2
  9
$MENU
  1
.
  9
$ELEVATION
 40
0.0
  9
$PELEVATION
 40
0.0
  9
$THICKNESS
 40
0.0
  9
$LIMCHECK
 70
     0
  9
$CHAMFERA
 40
0.0
  9
$CHAMFERB
 40
0.0
  9
$CHAMFERC
 40
0.0
  9
$CHAMFERD
 40
0.0
  9
$SKPOLY
 70
     0
  9
$TDCREATE
 40
2458262.550740602
  9
$TDUCREATE
 40
2458262.175740602
  9
$TDUPDATE
 40
2458266.553811007
  9
$TDUUPDATE
 40
2458266.178811007
  9
$TDINDWG
 40
0.0015215162
  9
$TDUSRTIMER
 40
2458266.177289537
  9
$USRTIMER
 70
     1
  9
$ANGBASE
 50
0.0
  9
$ANGDIR
 70
     0
  9
$PDMODE
 70
     0
  9
$PDSIZE
 40
-1.0
  9
$PLINEWID
 40
0.0
  9
$SPLFRAME
 70
     0
  9
$SPLINETYPE
 70
     6
  9
$SPLINESEGS
 70
     8
  9
$HANDSEED
  5
13D
  9
$SURFTAB1
 70
     6
  9
$SURFTAB2
 70
     6
  9
$SURFTYPE
 70
     6
  9
$SURFU
 70
     6
  9
$SURFV
 70
     6
  9
$UCSBASE
  2

  9
$UCSNAME
  2

  9
$UCSORG
 10
0.0
 20
0.0
 30
0.0
  9
$UCSXDIR
 10
1.0
 20
0.0
 30
0.0
  9
$UCSYDIR
 10
0.0
 20
1.0
 30
0.0
  9
$UCSORTHOREF
  2

  9
$UCSORTHOVIEW
 70
     0
  9
$UCSORGTOP
 10
0.0
 20
0.0
 30
0.0
  9
$UCSORGBOTTOM
 10
0.0
 20
0.0
 30
0.0
  9
$UCSORGLEFT
 10
0.0
 20
0.0
 30
0.0
  9
$UCSORGRIGHT
 10
0.0
 20
0.0
 30
0.0
  9
$UCSORGFRONT
 10
0.0
 20
0.0
 30
0.0
  9
$UCSORGBACK
 10
0.0
 20
0.0
 30
0.0
  9
$PUCSBASE
  2

  9
$PUCSNAME
  2

  9
$PUCSORG
 10
0.0
 20
0.0
 30
0.0
  9
$PUCSXDIR
 10
1.0
 20
0.0
 30
0.0
  9
$PUCSYDIR
 10
0.0
 20
1.0
 30
0.0
  9
$PUCSORTHOREF
  2

  9
$PUCSORTHOVIEW
 70
     0
  9
$PUCSORGTOP
 10
0.0
 20
0.0
 30
0.0
  9
$PUCSORGBOTTOM
 10
0.0
 20
0.0
 30
0.0
  9
$PUCSORGLEFT
 10
0.0
 20
0.0
 30
0.0
  9
$PUCSORGRIGHT
 10
0.0
 20
0.0
 30
0.0
  9
$PUCSORGFRONT
 10
0.0
 20
0.0
 30
0.0
  9
$PUCSORGBACK
 10
0.0
 20
0.0
 30
0.0
  9
$USERI1
 70
     0
  9
$USERI2
 70
     0
  9
$USERI3
 70
     0
  9
$USERI4
 70
     0
  9
$USERI5
 70
     0
  9
$USERR1
 40
0.0
  9
$USERR2
 40
0.0
  9
$USERR3
 40
0.0
  9
$USERR4
 40
0.0
  9
$USERR5
 40
0.0
  9
$WORLDVIEW
 70
     1
  9
$SHADEDGE
 70
     3
  9
$SHADEDIF
 70
    70
  9
$TILEMODE
 70
     1
  9
$MAXACTVP
 70
    64
  9
$PINSBASE
 10
0.0
 20
0.0
 30
0.0
  9
$PLIMCHECK
 70
     0
  9
$PEXTMIN
 10
1.000000000000000E+20
 20
1.000000000000000E+20
 30
1.000000000000000E+20
  9
$PEXTMAX
 10
-1.000000000000000E+20
 20
-1.000000000000000E+20
 30
-1.000000000000000E+20
  9
$PLIMMIN
 10
0.0
 20
0.0
  9
$PLIMMAX
 10
0.0
 20
0.0
  9
$UNITMODE
 70
     0
  9
$VISRETAIN
 70
     1
  9
$PLINEGEN
 70
     0
  9
$PSLTSCALE
 70
     1
  9
$TREEDEPTH
 70
  3020
  9
$CMLSTYLE
  2
Standard
  9
$CMLJUST
 70
     0
  9
$CMLSCALE
 40
20.0
  9
$PROXYGRAPHICS
 70
     1
  9
$MEASUREMENT
 70
     1
  9
$CELWEIGHT
370
    -1
  9
$ENDCAPS
280
     0
  9
$JOINSTYLE
280
     0
  9
$LWDISPLAY
290
     1
  9
$INSUNITS
 70
     4
  9
$HYPERLINKBASE
  1

  9
$STYLESHEET
  1

  9
$XEDIT
290
     1
  9
$CEPSNTYPE
380
     0
  9
$PSTYLEMODE
290
     1
  9
$FINGERPRINTGUID
  2
{BC652AFE-70E6-4A7E-91E1-170B9253EC25}
  9
$VERSIONGUID
  2
{FAEB1C32-E019-11D5-929B-00C0DF256EC4}
  9
$EXTNAMES
290
     1
  9
$PSVPSCALE
 40
0.0
  9
$OLESTARTUP
290
     0
  0
ENDSEC
  0
SECTION
  2
CLASSES
  0
CLASS
  1
ACDBDICTIONARYWDFLT
  2
AcDbDictionaryWithDefault
  3
ObjectDBX Classes
 90
        0
280
     0
281
     0
  0
CLASS
  1
VISUALSTYLE
  2
AcDbVisualStyle
  3
ObjectDBX Classes
 90
     4095
280
     0
281
     0
  0
CLASS
  1
MATERIAL
  2
AcDbMaterial
  3
ObjectDBX Classes
 90
     1153
280
     0
281
     0
  0
CLASS
  1
SCALE
  2
AcDbScale
  3
ObjectDBX Classes
 90
     1153
280
     0
281
     0
  0
CLASS
  1
SUN
  2
AcDbSun
  3
SCENEOE
 90
     1153
280
     0
281
     0
  0
CLASS
  1
ACDBPLACEHOLDER
  2
AcDbPlaceHolder
  3
ObjectDBX Classes
 90
        0
280
     0
281
     0
  0
CLASS
  1
LAYOUT
  2
AcDbLayout
  3
ObjectDBX Classes
 90
        0
280
     0
281
     0
  0
CLASS
  1
TABLESTYLE
  2
AcDbTableStyle
  3
ObjectDBX Classes
 90
     4095
280
     0
281
     0
  0
CLASS
  1
MLEADERSTYLE
  2
AcDbMLeaderStyle
  3
ACDB_MLEADERSTYLE_CLASS
 90
     4095
280
     0
281
     0
  0
CLASS
  1
RASTERVARIABLES
  2
AcDbRasterVariables
  3
ISM
 90
        0
280
     0
281
     0
  0
ENDSEC
  0
SECTION
  2
TABLES
  0
TABLE
  2
VPORT
  5
8
330
0
100
AcDbSymbolTable
 70
     1
  0
VPORT
  5
29
330
8
100
AcDbSymbolTableRecord
100
AcDbViewportTableRecord
  2
*Active
 70
     0
 10
0.0
 20
0.0
 11
1.0
 21
1.0
 12
7.629793620433531
 22
-8.40366100992258
 13
0.0
 23
0.0
 14
10.0
 24
10.0
 15
10.0
 25
10.0
 16
0.0
 26
0.0
 36
1.0
 17
0.0
 27
0.0
 37
0.0
 40
126.7189549765276
 41
1.152454780361757
 42
50.0
 43
0.0
 44
0.0
 50
0.0
 51
0.0
 71
    16
 72
  2000
 73
     1
 74
     3
 75
     0
 76
     0
 77
     0
 78
     0
281
     0
 65
     1
110
0.0
120
0.0
130
0.0
111
1.0
121
0.0
131
0.0
112
0.0
122
1.0
132
0.0
 79
     0
146
0.0
  0
ENDTAB
  0
TABLE
  2
LTYPE
  5
5
330
0
100
AcDbSymbolTable
 70
     6
  0
LTYPE
  5
14
330
5
100
AcDbSymbolTableRecord
100
AcDbLinetypeTableRecord
  2
ByBlock
 70
     0
  3

 72
    65
 73
     0
 40
0.0
  0
LTYPE
  5
15
330
5
100
AcDbSymbolTableRecord
100
AcDbLinetypeTableRecord
  2
ByLayer
 70
     0
  3

 72
    65
 73
     0
 40
0.0
  0
LTYPE
  5
16
330
5
100
AcDbSymbolTableRecord
100
AcDbLinetypeTableRecord
  2
Continuous
 70
     0
  3
Solid line
 72
    65
 73
     0
 40
0.0
  0
LTYPE
  5
6A
330
5
100
AcDbSymbolTableRecord
100
AcDbLinetypeTableRecord
  2
HIDDEN
 70
     0
  3
Hidden __ __ __ __ __ __ __ __ __ __ __ __ __ __
 72
    65
 73
     2
 40
1.905
 49
1.27
 74
     0
 49
-0.635
 74
     0
  0
LTYPE
  5
6B
330
5
100
AcDbSymbolTableRecord
100
AcDbLinetypeTableRecord
  2
PHANTOM
 70
     0
  3
Phantom ______  __  __  ______  __  __  ______
 72
    65
 73
     6
 40
12.7
 49
6.35
 74
     0
 49
-1.27
 74
     0
 49
1.27
 74
     0
 49
-1.27
 74
     0
 49
1.27
 74
     0
 49
-1.27
 74
     0
  0
LTYPE
  5
6C
330
5
100
AcDbSymbolTableRecord
100
AcDbLinetypeTableRecord
  2
CENTER
 70
     0
  3
Center ____ _ ____ _ ____ _ ____ _ ____ _ ____
 72
    65
 73
     4
 40
10.16
 49
6.35
 74
     0
 49
-1.27
 74
     0
 49
1.27
 74
     0
 49
-1.27
 74
     0
  0
LTYPE
  5
6D
330
5
100
AcDbSymbolTableRecord
100
AcDbLinetypeTableRecord
  2
CENTERX2
 70
     0
  3
Center (2x) ________  __  ________  __  _____
 72
    65
 73
     4
 40
20.32
 49
12.7
 74
     0
 49
-2.54
 74
     0
 49
2.54
 74
     0
 49
-2.54
 74
     0
  0
LTYPE
  5
6E
330
5
100
AcDbSymbolTableRecord
100
AcDbLinetypeTableRecord
  2
DOT2
 70
     0
  3
Dot (.5x) ........................................
 72
    65
 73
     2
 40
0.635
 49
0.0
 74
     0
 49
-0.635
 74
     0
  0
ENDTAB
  0
TABLE
  2
LAYER
  5
2
330
0
100
AcDbSymbolTable
 70
    17
  0
LAYER
  5
10
330
2
100
AcDbSymbolTableRecord
100
AcDbLayerTableRecord
  2
0
 70
     0
 62
     7
  6
Continuous
370
    -3
390
F
  0
LAYER
  5
6F
330
2
100
AcDbSymbolTableRecord
100
AcDbLayerTableRecord
  2
FORMAT
 70
     0
 62
     2
  6
Continuous
370
    -3
390
F
  0
LAYER
  5
70
330
2
100
AcDbSymbolTableRecord
100
AcDbLayerTableRecord
  2
외형선
 70
     0
 62
   100
  6
Continuous
370
    30
390
F
  0
LAYER
  5
71
330
2
100
AcDbSymbolTableRecord
100
AcDbLayerTableRecord
  2
숨은선
 70
     0
 62
     2
  6
HIDDEN
370
    15
390
F
  0
LAYER
  5
72
330
2
100
AcDbSymbolTableRecord
100
AcDbLayerTableRecord
  2
중심선
 70
     0
 62
     1
  6
CENTERX2
370
    -3
390
F
  0
LAYER
  5
73
330
2
100
AcDbSymbolTableRecord
100
AcDbLayerTableRecord
  2
파단선
 70
     0
 62
     4
  6
Continuous
370
    -3
390
F
  0
LAYER
  5
74
330
2
100
AcDbSymbolTableRecord
100
AcDbLayerTableRecord
  2
해칭선
 70
     0
 62
     4
  6
Continuous
370
    -3
390
F
  0
LAYER
  5
75
330
2
100
AcDbSymbolTableRecord
100
AcDbLayerTableRecord
  2
가는실선
 70
     0
 62
     4
  6
Continuous
370
    -3
390
F
  0
LAYER
  5
76
330
2
100
AcDbSymbolTableRecord
100
AcDbLayerTableRecord
  2
치수_보조선
 70
     0
 62
     4
  6
Continuous
370
    -3
390
F
  0
LAYER
  5
77
330
2
100
AcDbSymbolTableRecord
100
AcDbLayerTableRecord
  2
치수문자_일반주서
 70
     0
 62
     7
  6
Continuous
370
    15
390
F
  0
LAYER
  5
78
330
2
100
AcDbSymbolTableRecord
100
AcDbLayerTableRecord
  2
개별주서
 70
     0
 62
   100
  6
Continuous
370
    30
390
F
  0
LAYER
  5
79
330
2
100
AcDbSymbolTableRecord
100
AcDbLayerTableRecord
  2
중간선
 70
     0
 62
     2
  6
Continuous
370
    15
390
F
  0
LAYER
  5
7A
330
2
100
AcDbSymbolTableRecord
100
AcDbLayerTableRecord
  2
윤곽선
 70
     0
 62
     3
  6
Continuous
370
    40
390
F
  0
LAYER
  5
7B
330
2
100
AcDbSymbolTableRecord
100
AcDbLayerTableRecord
  2
중심마크
 70
     0
 62
   100
  6
Continuous
370
    30
390
F
  0
LAYER
  5
7C
330
2
100
AcDbSymbolTableRecord
100
AcDbLayerTableRecord
  2
가상선
 70
     0
 62
     4
  6
PHANTOM
370
    -3
390
F
  0
LAYER
  5
7D
330
2
100
AcDbSymbolTableRecord
100
AcDbLayerTableRecord
  2
특수지정선
 70
     0
 62
     5
  6
CENTERX2
370
    60
390
F
  0
LAYER
  5
12F
330
2
100
AcDbSymbolTableRecord
100
AcDbLayerTableRecord
  2
Defpoints
 70
     0
 62
     7
  6
Continuous
290
     0
370
    -3
390
F
  0
ENDTAB
  0
TABLE
  2
STYLE
  5
3
330
0
100
AcDbSymbolTable
 70
     2
  0
STYLE
  5
11
330
3
100
AcDbSymbolTableRecord
100
AcDbTextStyleTableRecord
  2
Standard
 70
     0
 40
0.0
 41
1.0
 50
0.0
 71
     0
 42
3.5
  3
txt
  4

  0
STYLE
  5
93
330
3
100
AcDbSymbolTableRecord
100
AcDbTextStyleTableRecord
  2
SLDTEXTSTYLE0
 70
     0
 40
0.0
 41
0.75
 50
0.0
 71
     0
 42
3.5
  3
TXT
  4

  0
ENDTAB
  0
TABLE
  2
VIEW
  5
6
330
0
100
AcDbSymbolTable
 70
     0
  0
ENDTAB
  0
TABLE
  2
UCS
  5
7
330
0
100
AcDbSymbolTable
 70
     0
  0
ENDTAB
  0
TABLE
  2
APPID
  5
9
330
0
100
AcDbSymbolTable
 70
     1
  0
APPID
  5
12
330
9
100
AcDbSymbolTableRecord
100
AcDbRegAppTableRecord
  2
ACAD
 70
     0
  0
ENDTAB
  0
TABLE
  2
DIMSTYLE
  5
A
330
0
100
AcDbSymbolTable
 70
     3
100
AcDbDimStyleTable
  0
DIMSTYLE
105
27
330
A
100
AcDbSymbolTableRecord
100
AcDbDimStyleTableRecord
  2
ISO-25
 70
     0
 41
2.5
 42
0.625
 43
3.75
 44
1.25
 73
     0
 74
     0
 77
     1
 78
     8
140
2.5
141
2.5
143
0.03937007874016
147
0.625
171
     3
172
     1
178
     0
271
     2
272
     2
274
     3
278
    44
283
     0
284
     8
340
11
  0
DIMSTYLE
105
D5
102
{ACAD_REACTORS
330
D4
330
F7
102
}
330
A
100
AcDbSymbolTableRecord
100
AcDbDimStyleTableRecord
  2
SLDDIMSTYLE0
 70
     0
 41
3.302
 44
0.0
 45
0.000000001
 73
     0
 74
     0
 77
     1
 78
    12
 79
     3
140
3.5
147
0.875
172
     1
173
     1
178
     0
271
     2
272
     2
276
     2
284
    12
289
     0
340
93
  0
DIMSTYLE
105
E3
102
{ACAD_REACTORS
330
E2
330
ED
102
}
330
A
100
AcDbSymbolTableRecord
100
AcDbDimStyleTableRecord
  2
SLDDIMSTYLE1
 70
     0
 41
3.302
 44
0.0
 45
0.000000001
 73
     0
 74
     0
 77
     1
 78
    12
 79
     3
140
3.5
147
0.875
173
     1
178
     0
271
     2
272
     2
276
     2
284
    12
340
93
  0
ENDTAB
  0
TABLE
  2
BLOCK_RECORD
  5
1
330
0
100
AcDbSymbolTable
 70
     7
  0
BLOCK_RECORD
  5
1F
330
1
100
AcDbSymbolTableRecord
100
AcDbBlockTableRecord
  2
*Model_Space
340
22
  0
BLOCK_RECORD
  5
1B
330
1
100
AcDbSymbolTableRecord
100
AcDbBlockTableRecord
  2
*Paper_Space
340
1E
  0
BLOCK_RECORD
  5
23
330
1
100
AcDbSymbolTableRecord
100
AcDbBlockTableRecord
  2
*Paper_Space0
340
26
  0
BLOCK_RECORD
  5
7E
330
1
100
AcDbSymbolTableRecord
100
AcDbBlockTableRecord
  2
블럭10
340
0
102
{BLKREFS
331
CD
102
}
  0
BLOCK_RECORD
  5
D6
330
1
100
AcDbSymbolTableRecord
100
AcDbBlockTableRecord
  2
_D
340
0
  0
BLOCK_RECORD
  5
E4
330
1
100
AcDbSymbolTableRecord
100
AcDbBlockTableRecord
  2
_D_1
340
0
  0
BLOCK_RECORD
  5
EE
330
1
100
AcDbSymbolTableRecord
100
AcDbBlockTableRecord
  2
_D_2
340
0
  0
BLOCK_RECORD
  5
F8
330
1
100
AcDbSymbolTableRecord
100
AcDbBlockTableRecord
  2
_D_3
340
0
  0
BLOCK_RECORD
  5
104
330
1
100
AcDbSymbolTableRecord
100
AcDbBlockTableRecord
  2
SW_DOWELSYMBOL_0
340
0
102
{BLKREFS
331
10A
102
}
  0
ENDTAB
  0
ENDSEC
  0
SECTION
  2
BLOCKS
  0
BLOCK
  5
20
330
1F
100
AcDbEntity
  8
0
100
AcDbBlockBegin
  2
*Model_Space
 70
     0
 10
0.0
 20
0.0
 30
0.0
  3
*Model_Space
  1

  0
ENDBLK
  5
21
330
1F
100
AcDbEntity
  8
0
100
AcDbBlockEnd
  0
BLOCK
  5
1C
330
1B
100
AcDbEntity
 67
     1
  8
0
100
AcDbBlockBegin
  2
*Paper_Space
 70
     0
 10
0.0
 20
0.0
 30
0.0
  3
*Paper_Space
  1

  0
ENDBLK
  5
1D
330
1B
100
AcDbEntity
 67
     1
  8
0
100
AcDbBlockEnd
  0
BLOCK
  5
24
330
23
100
AcDbEntity
  8
0
100
AcDbBlockBegin
  2
*Paper_Space0
 70
     0
 10
0.0
 20
0.0
 30
0.0
  3
*Paper_Space0
  1

  0
ENDBLK
  5
25
330
23
100
AcDbEntity
  8
0
100
AcDbBlockEnd
  0
BLOCK
  5
7F
330
7E
100
AcDbEntity
  8
0
100
AcDbBlockBegin
  2
블럭10
 70
     2
 10
0.0
 20
0.0
 30
0.0
  3
블럭10
  1

  0
ELLIPSE
  5
81
330
7E
100
AcDbEntity
  8
중심선
100
AcDbEllipse
 10
20.54032771741204
 20
12.0471743016438
 30
0.0
 11
6.600054785286829
 21
-1.261213355974178E-13
 31
0.0
210
0.0
220
0.0
230
1.0
 40
0.636358354079598
 41
0.9219305317359503
 42
6.513795318482858
  0
ELLIPSE
  5
82
330
7E
100
AcDbEntity
  8
중심선
100
AcDbEllipse
 10
20.54032771746488
 20
12.04717430159265
 30
0.0
 11
3.960054785062283
 21
1.540847449632565E-10
 31
0.0
210
0.0
220
0.0
230
1.0
 40
0.3939339440162632
 41
1.131841032648279
 42
5.62031148352944
  0
LINE
  5
83
330
7E
100
AcDbEntity
  8
중심선
100
AcDbLine
 10
2.268634060543552
 20
16.24717430164393
 30
0.0
 11
5.714909304380834
 21
16.24717430164393
 31
0.0
  0
LINE
  5
84
330
7E
100
AcDbEntity
  8
중심선
100
AcDbLine
 10
5.245725140726316
 20
7.84717430164391
 30
0.0
 11
8.692000384563599
 21
7.84717430164391
 31
0.0
  0
LINE
  5
85
330
7E
100
AcDbEntity
  8
중심선
100
AcDbLine
 10
15.74043728645272
 20
16.24717430164393
 30
0.0
 11
8.692000384563599
 21
7.84717430164391
 31
0.0
  0
LINE
  5
86
330
7E
100
AcDbEntity
  8
중심선
100
AcDbLine
 10
0.1404042013395286
 20
13.71084872107135
 30
0.0
 11
3.58671253028996
 21
13.71088815037384
 31
0.0
  0
LINE
  5
87
330
7E
100
AcDbEntity
  8
중심선
100
AcDbLine
 10
2.750260043222114
 20
10.84717430164391
 30
0.0
 11
6.196535287059397
 21
10.84717430164391
 31
0.0
  0
LINE
  5
88
330
7E
100
AcDbEntity
  8
중심선
100
AcDbLine
 10
12.29416204261559
 20
16.24717430164393
 30
0.0
 11
5.245725140726316
 21
7.84717430164391
 31
0.0
  0
LINE
  5
89
330
7E
100
AcDbEntity
  8
중심선
100
AcDbLine
 10
10.72767329541681
 20
16.24717430164393
 30
0.0
 11
6.196535287059397
 21
10.84717430164391
 31
0.0
  0
LINE
  5
8A
330
7E
100
AcDbEntity
  8
중심선
100
AcDbLine
 10
7.28139805157953
 20
16.24717430164393
 30
0.0
 11
2.750260043222114
 21
10.84717430164391
 31
0.0
  0
LINE
  5
8B
330
7E
100
AcDbEntity
  8
중심선
100
AcDbLine
 10
5.714909304380834
 20
16.24717430164393
 30
0.0
 11
3.58671253028996
 21
13.71088815037384
 31
0.0
  0
LINE
  5
8C
330
7E
100
AcDbEntity
  8
중심선
100
AcDbLine
 10
2.268634060543552
 20
16.24717430164393
 30
0.0
 11
0.1404042013395286
 21
13.71084872107135
 31
0.0
  0
LINE
  5
8D
330
7E
100
AcDbEntity
  8
중심선
100
AcDbLine
 10
7.28139805157953
 20
16.24717430164393
 30
0.0
 11
10.72767329541681
 21
16.24717430164393
 31
0.0
  0
LINE
  5
8E
330
7E
100
AcDbEntity
  8
중심선
100
AcDbLine
 10
12.29416204261559
 20
16.24717430164393
 30
0.0
 11
15.74043728645272
 21
16.24717430164393
 31
0.0
  0
LINE
  5
8F
330
7E
100
AcDbEntity
  8
중심선
100
AcDbLine
 10
19.22036997980202
 20
11.08717430171403
 30
0.0
 11
23.66174974927406
 21
11.08717430171406
 31
0.0
  0
LINE
  5
90
330
7E
100
AcDbEntity
  8
중심선
100
AcDbLine
 10
19.22039502424796
 20
13.00717430171391
 30
0.0
 11
19.22036997980202
 21
11.08717430171403
 31
0.0
  0
LINE
  5
91
330
7E
100
AcDbEntity
  8
중심선
100
AcDbLine
 10
19.22039502424796
 20
13.00717430171391
 30
0.0
 11
26.96566020931264
 21
13.00717430171391
 31
0.0
  0
LINE
  5
92
330
7E
100
AcDbEntity
  8
중심선
100
AcDbLine
 10
22.22332737316547
 20
13.45928029700563
 30
0.0
 11
24.52862924686651
 21
15.39360700705356
 31
0.0
  0
ATTDEF
  5
94
330
7E
100
AcDbEntity
  8
FORMAT
 62
     2
100
AcDbText
 10
-16.11926103943555
 20
2.075366912832191
 30
0.0
 40
4.233333333333333
  1
SEME7016050E [ 2 FLUTE ]
 41
0.75
  7
SLDTEXTSTYLE0
 11
-16.11926103943555
 21
-0.0412997538344756
 31
0.0
100
AcDbAttributeDefinition
  3

  2
AUTOATTR0
 70
     0
 74
     1
  0
ENDBLK
  5
80
330
7E
100
AcDbEntity
  8
0
100
AcDbBlockEnd
  0
BLOCK
  5
D7
330
D6
100
AcDbEntity
  8
0
100
AcDbBlockBegin
  2
_D
 70
     0
 10
0.0
 20
0.0
 30
0.0
  3
_D
  1

  0
LINE
  5
D9
330
D6
100
AcDbEntity
  8
치수문자_일반주서
 62
     0
370
    -2
100
AcDbLine
 10
62.06249999999999
 20
-7.999999999999804
 30
0.0
 11
78.666649220995
 21
-7.999999999999741
 31
0.0
  0
LINE
  5
DA
330
D6
100
AcDbEntity
  8
치수문자_일반주서
 62
     0
370
    -2
100
AcDbLine
 10
62.06249999999972
 20
8.000000000000185
 30
0.0
 11
78.66664922099494
 21
8.000000000000249
 31
0.0
  0
LINE
  5
DB
330
D6
100
AcDbEntity
  8
치수문자_일반주서
 62
     0
370
    -2
100
AcDbLine
 10
78.666649220995
 20
-7.999999999999741
 30
0.0
 11
78.66664922099488
 21
22.47900000000025
 31
0.0
  0
LINE
  5
DC
330
D6
100
AcDbEntity
  8
치수문자_일반주서
 62
     0
370
    -2
100
AcDbLine
 10
78.666649220995
 20
-7.999999999999741
 30
0.0
 11
78.66664922099494
 21
8.000000000000249
 31
0.0
  0
LINE
  5
DD
330
D6
100
AcDbEntity
  8
치수문자_일반주서
 62
     0
370
    -2
100
AcDbLine
 10
78.66664922099501
 20
-11.30199999999974
 30
0.0
 11
78.66664922099503
 21
-14.60399999999974
 31
0.0
  0
LINE
  5
DE
330
D6
100
AcDbEntity
  8
치수문자_일반주서
 62
     0
370
    -2
100
AcDbLine
 10
78.66664922099493
 20
11.30200000000025
 30
0.0
 11
78.66664922099491
 21
14.60400000000025
 31
0.0
  0
SOLID
  5
DF
330
D6
100
AcDbEntity
  8
치수문자_일반주서
 62
     0
100
AcDbTrace
 10
79.21698255432834
 20
-11.30199999999974
 30
0.0
 11
78.11631588766168
 21
-11.30199999999974
 31
0.0
 12
78.666649220995
 22
-7.999999999999741
 32
0.0
 13
78.666649220995
 23
-7.999999999999741
 33
0.0
  0
SOLID
  5
E0
330
D6
100
AcDbEntity
  8
치수문자_일반주서
 62
     0
100
AcDbTrace
 10
78.1163158876616
 20
11.30200000000025
 30
0.0
 11
79.21698255432825
 21
11.30200000000025
 31
0.0
 12
78.66664922099494
 22
8.000000000000249
 32
0.0
 13
78.66664922099494
 23
8.000000000000249
 33
0.0
  0
MTEXT
  5
E1
330
D6
100
AcDbEntity
  8
치수문자_일반주서
 62
     0
100
AcDbMText
 10
74.2916492209949
 20
18.54150000000023
 30
0.0
 40
3.5
 41
0.0
 71
     2
 72
     1
  1
\A1;%%c16
  7
SLDTEXTSTYLE0
 11
-3.552713678800504E-15
 21
1.0
 31
0.0
 73
     1
 44
1.0
  0
POINT
  5
139
330
D6
100
AcDbEntity
  8
Defpoints
 62
     0
100
AcDbPoint
 10
61.99999999999999
 20
-7.999999999999804
 30
0.0
  0
POINT
  5
13A
330
D6
100
AcDbEntity
  8
Defpoints
 62
     0
100
AcDbPoint
 10
61.99999999999972
 20
8.000000000000185
 30
0.0
  0
POINT
  5
13B
330
D6
100
AcDbEntity
  8
Defpoints
 62
     0
100
AcDbPoint
 10
78.66664922099494
 20
8.000000000000247
 30
0.0
  0
ENDBLK
  5
D8
330
D6
100
AcDbEntity
  8
0
100
AcDbBlockEnd
  0
BLOCK
  5
E5
330
E4
100
AcDbEntity
  8
0
100
AcDbBlockBegin
  2
_D_1
 70
     0
 10
0.0
 20
0.0
 30
0.0
  3
_D_1
  1

  0
LINE
  5
E7
330
E4
100
AcDbEntity
  8
치수문자_일반주서
 62
     0
370
    -2
100
AcDbLine
 10
-47.99999999999999
 20
7.062499999999999
 30
0.0
 11
-48.0
 21
28.7884104402427
 31
0.0
  0
LINE
  5
E8
330
E4
100
AcDbEntity
  8
치수문자_일반주서
 62
     0
370
    -2
100
AcDbLine
 10
61.99999999999972
 20
8.062500000000185
 30
0.0
 11
61.9999999999997
 21
28.7884104402427
 31
0.0
  0
LINE
  5
E9
330
E4
100
AcDbEntity
  8
치수문자_일반주서
 62
     0
370
    -2
100
AcDbLine
 10
-44.698
 20
28.7884104402427
 30
0.0
 11
58.6979999999997
 21
28.7884104402427
 31
0.0
  0
SOLID
  5
EA
330
E4
100
AcDbEntity
  8
치수문자_일반주서
 62
     0
100
AcDbTrace
 10
-44.698
 20
29.33874377357603
 30
0.0
 11
-44.698
 21
28.23807710690936
 31
0.0
 12
-48.0
 22
28.7884104402427
 32
0.0
 13
-48.0
 23
28.7884104402427
 33
0.0
  0
SOLID
  5
EB
330
E4
100
AcDbEntity
  8
치수문자_일반주서
 62
     0
100
AcDbTrace
 10
58.6979999999997
 20
28.23807710690936
 30
0.0
 11
58.6979999999997
 21
29.33874377357603
 31
0.0
 12
61.9999999999997
 22
28.7884104402427
 32
0.0
 13
61.9999999999997
 23
28.7884104402427
 33
0.0
  0
MTEXT
  5
EC
330
E4
100
AcDbEntity
  8
치수문자_일반주서
 62
     0
100
AcDbMText
 10
6.999999999999869
 20
33.1634104402427
 30
0.0
 40
3.5
 41
0.0
 71
     2
 72
     1
  1
\A1;110
  7
SLDTEXTSTYLE0
 73
     1
 44
1.0
  0
POINT
  5
130
330
E4
100
AcDbEntity
  8
Defpoints
 62
     0
100
AcDbPoint
 10
-47.99999999999999
 20
6.999999999999999
 30
0.0
  0
POINT
  5
131
330
E4
100
AcDbEntity
  8
Defpoints
 62
     0
100
AcDbPoint
 10
61.99999999999972
 20
8.000000000000185
 30
0.0
  0
POINT
  5
132
330
E4
100
AcDbEntity
  8
Defpoints
 62
     0
100
AcDbPoint
 10
61.99999999999972
 20
28.7884104402427
 30
0.0
  0
ENDBLK
  5
E6
330
E4
100
AcDbEntity
  8
0
100
AcDbBlockEnd
  0
BLOCK
  5
EF
330
EE
100
AcDbEntity
  8
0
100
AcDbBlockBegin
  2
_D_2
 70
     0
 10
0.0
 20
0.0
 30
0.0
  3
_D_2
  1

  0
LINE
  5
F1
330
EE
100
AcDbEntity
  8
치수문자_일반주서
 62
     0
370
    -2
100
AcDbLine
 10
12.0
 20
7.052253682382663
 30
0.0
 11
12.0
 21
18.62636267656356
 31
0.0
  0
LINE
  5
F2
330
EE
100
AcDbEntity
  8
치수문자_일반주서
 62
     0
370
    -2
100
AcDbLine
 10
61.99999999999972
 20
8.062500000000185
 30
0.0
 11
61.99999999999972
 21
18.62636267656356
 31
0.0
  0
LINE
  5
F3
330
EE
100
AcDbEntity
  8
치수문자_일반주서
 62
     0
370
    -2
100
AcDbLine
 10
15.302
 20
18.62636267656356
 30
0.0
 11
58.69799999999972
 21
18.62636267656356
 31
0.0
  0
SOLID
  5
F4
330
EE
100
AcDbEntity
  8
치수문자_일반주서
 62
     0
100
AcDbTrace
 10
15.302
 20
19.17669600989689
 30
0.0
 11
15.302
 21
18.07602934323022
 31
0.0
 12
12.0
 22
18.62636267656356
 32
0.0
 13
12.0
 23
18.62636267656356
 33
0.0
  0
SOLID
  5
F5
330
EE
100
AcDbEntity
  8
치수문자_일반주서
 62
     0
100
AcDbTrace
 10
58.69799999999972
 20
18.07602934323022
 30
0.0
 11
58.69799999999972
 21
19.17669600989689
 31
0.0
 12
61.99999999999972
 22
18.62636267656356
 32
0.0
 13
61.99999999999972
 23
18.62636267656356
 33
0.0
  0
MTEXT
  5
F6
330
EE
100
AcDbEntity
  8
치수문자_일반주서
 62
     0
100
AcDbMText
 10
37.00000000000003
 20
23.00136267656356
 30
0.0
 40
3.5
 41
0.0
 71
     2
 72
     1
  1
\A1;50
  7
SLDTEXTSTYLE0
 73
     1
 44
1.0
  0
POINT
  5
133
330
EE
100
AcDbEntity
  8
Defpoints
 62
     0
100
AcDbPoint
 10
12.0
 20
6.989753682382663
 30
0.0
  0
POINT
  5
134
330
EE
100
AcDbEntity
  8
Defpoints
 62
     0
100
AcDbPoint
 10
61.99999999999972
 20
8.000000000000185
 30
0.0
  0
POINT
  5
135
330
EE
100
AcDbEntity
  8
Defpoints
 62
     0
100
AcDbPoint
 10
61.99999999999972
 20
18.62636267656356
 30
0.0
  0
ENDBLK
  5
F0
330
EE
100
AcDbEntity
  8
0
100
AcDbBlockEnd
  0
BLOCK
  5
F9
330
F8
100
AcDbEntity
  8
0
100
AcDbBlockBegin
  2
_D_3
 70
     0
 10
0.0
 20
0.0
 30
0.0
  3
_D_3
  1

  0
LINE
  5
FB
330
F8
100
AcDbEntity
  8
치수문자_일반주서
 62
     0
370
    -2
100
AcDbLine
 10
-47.06249999999999
 20
8.0
 30
0.0
 11
-59.58239531346126
 21
7.999999999999954
 31
0.0
  0
LINE
  5
FC
330
F8
100
AcDbEntity
  8
치수문자_일반주서
 62
     0
370
    -2
100
AcDbLine
 10
-47.06249999999999
 20
-7.999999999999996
 30
0.0
 11
-59.5823953134612
 21
-8.000000000000043
 31
0.0
  0
LINE
  5
FD
330
F8
100
AcDbEntity
  8
치수문자_일반주서
 62
     0
370
    -2
100
AcDbLine
 10
-59.58239531346126
 20
7.999999999999954
 30
0.0
 11
-59.5823953134613
 21
22.47899999999995
 31
0.0
  0
LINE
  5
FE
330
F8
100
AcDbEntity
  8
치수문자_일반주서
 62
     0
370
    -2
100
AcDbLine
 10
-59.58239531346126
 20
7.999999999999954
 30
0.0
 11
-59.5823953134612
 21
-8.000000000000043
 31
0.0
  0
LINE
  5
FF
330
F8
100
AcDbEntity
  8
치수문자_일반주서
 62
     0
370
    -2
100
AcDbLine
 10
-59.58239531346127
 20
11.30199999999995
 30
0.0
 11
-59.58239531346128
 21
14.60399999999995
 31
0.0
  0
LINE
  5
100
330
F8
100
AcDbEntity
  8
치수문자_일반주서
 62
     0
370
    -2
100
AcDbLine
 10
-59.58239531346118
 20
-11.30200000000004
 30
0.0
 11
-59.58239531346117
 21
-14.60400000000004
 31
0.0
  0
SOLID
  5
101
330
F8
100
AcDbEntity
  8
치수문자_일반주서
 62
     0
100
AcDbTrace
 10
-60.1327286467946
 20
11.30199999999995
 30
0.0
 11
-59.03206198012793
 21
11.30199999999996
 31
0.0
 12
-59.58239531346126
 22
7.999999999999954
 32
0.0
 13
-59.58239531346126
 23
7.999999999999954
 33
0.0
  0
SOLID
  5
102
330
F8
100
AcDbEntity
  8
치수문자_일반주서
 62
     0
100
AcDbTrace
 10
-59.03206198012785
 20
-11.30200000000004
 30
0.0
 11
-60.13272864679452
 21
-11.30200000000004
 31
0.0
 12
-59.5823953134612
 22
-8.000000000000043
 32
0.0
 13
-59.5823953134612
 23
-8.000000000000043
 33
0.0
  0
MTEXT
  5
103
330
F8
100
AcDbEntity
  8
치수문자_일반주서
 62
     0
100
AcDbMText
 10
-63.95739531346129
 20
18.54149999999994
 30
0.0
 40
3.5
 41
0.0
 71
     2
 72
     1
  1
\A1;%%c16
  7
SLDTEXTSTYLE0
 11
-3.552713678800502E-15
 21
1.0
 31
0.0
 73
     1
 44
1.0
  0
POINT
  5
136
330
F8
100
AcDbEntity
  8
Defpoints
 62
     0
100
AcDbPoint
 10
-46.99999999999999
 20
8.0
 30
0.0
  0
POINT
  5
137
330
F8
100
AcDbEntity
  8
Defpoints
 62
     0
100
AcDbPoint
 10
-46.99999999999999
 20
-7.999999999999996
 30
0.0
  0
POINT
  5
138
330
F8
100
AcDbEntity
  8
Defpoints
 62
     0
100
AcDbPoint
 10
-59.58239531346119
 20
-8.000000000000043
 30
0.0
  0
ENDBLK
  5
FA
330
F8
100
AcDbEntity
  8
0
100
AcDbBlockEnd
  0
BLOCK
  5
105
330
104
100
AcDbEntity
  8
0
100
AcDbBlockBegin
  2
SW_DOWELSYMBOL_0
 70
     0
 10
0.0
 20
0.0
 30
0.0
  3
SW_DOWELSYMBOL_0
  1

  0
CIRCLE
  5
107
330
104
100
AcDbEntity
  8
외형선
 62
     0
100
AcDbCircle
 10
0.0
 20
0.0
 30
0.0
 40
3.000000000000004
  0
HATCH
  5
108
330
104
100
AcDbEntity
  8
0
  6
Continuous
 62
     0
370
    30
100
AcDbHatch
 10
0.0
 20
0.0
 30
0.0
210
0.0
220
0.0
230
1.0
  2
SOLID
 70
     1
 71
     0
 91
        1
 92
        0
 93
        3
 72
     2
 10
0.0000000000000104
 20
0.0
 40
3.000000000000004
 50
0.0
 51
90.0
 73
     1
 72
     1
 10
0.0000000000000104
 20
3.000000000000004
 11
0.0000000000000104
 21
0.0
 72
     1
 10
0.0000000000000104
 20
0.0
 11
3.000000000000015
 21
0.0
 97
        0
 75
     0
 76
     1
 98
        1
 10
0.0
 20
0.0
  0
HATCH
  5
109
330
104
100
AcDbEntity
  8
0
  6
Continuous
 62
     0
370
    30
100
AcDbHatch
 10
0.0
 20
0.0
 30
0.0
210
0.0
220
0.0
230
1.0
  2
SOLID
 70
     1
 71
     0
 91
        1
 92
        0
 93
        3
 72
     2
 10
0.0000000000000104
 20
0.0
 40
3.000000000000004
 50
180.0
 51
270.0000000000008
 73
     1
 72
     1
 10
0.0000000000000104
 20
-3.000000000000004
 11
0.0000000000000104
 21
0.0
 72
     1
 10
0.0000000000000104
 20
0.0
 11
-2.999999999999994
 21
0.0
 97
        0
 75
     0
 76
     1
 98
        1
 10
0.0
 20
0.0
  0
ENDBLK
  5
106
330
104
100
AcDbEntity
  8
0
100
AcDbBlockEnd
  0
ENDSEC
  0
SECTION
  2
ENTITIES
  0
SPLINE
  5
95
330
1F
100
AcDbEntity
  8
0
  6
Continuous
 62
     1
370
    15
100
AcDbSpline
210
0.0
220
0.0
230
1.0
 70
     8
 71
     3
 72
     9
 73
     5
 74
     0
 42
0.000000001
 43
0.00000001
 40
0.0
 40
0.0
 40
0.0
 40
0.0
 40
0.4383276365443824
 40
1.0
 40
1.0
 40
1.0
 40
1.0
 10
41.27320296940827
 20
2.050033269621444
 30
0.0
 10
40.94882852959049
 20
2.20439251821231
 30
0.0
 10
40.20880117841767
 20
2.556547471999344
 30
0.0
 10
39.46996805955849
 20
2.942986335845097
 30
0.0
 10
39.05498591548957
 20
3.160038365832444
 30
0.0
  0
LINE
  5
96
330
1F
100
AcDbEntity
  8
0
  6
Continuous
 62
     1
370
    15
100
AcDbLine
 10
22.91513149820942
 20
8.000000000000007
 30
0.0
 11
19.03925592823405
 21
8.000000000000007
 31
0.0
  0
LINE
  5
97
330
1F
100
AcDbEntity
  8
0
  6
Continuous
 62
   131
370
    15
100
AcDbLine
 10
36.86548509706267
 20
2.244177292864972
 30
0.0
 11
36.76425946229326
 21
2.299956506470234
 31
0.0
  0
SPLINE
  5
98
330
1F
100
AcDbEntity
  8
0
  6
Continuous
 62
     1
370
    15
100
AcDbSpline
210
0.0
220
0.0
230
1.0
 70
     8
 71
     3
 72
    20
 73
    16
 74
     0
 42
0.000000001
 43
0.00000001
 40
0.0
 40
0.0
 40
0.0
 40
0.0
 40
0.118697400292207
 40
0.2018099471895606
 40
0.2507852709970491
 40
0.2929515741201379
 40
0.3419496382380382
 40
0.4172610342563651
 40
0.500272386108893
 40
0.5739336054186929
 40
0.6566841054984432
 40
0.7249132186234741
 40
0.8019335996297533
 40
0.8932047473987221
 40
1.0
 40
1.0
 40
1.0
 40
1.0
 10
38.62899489075829
 20
6.357112524240288
 30
0.0
 10
38.37230748406061
 20
6.344102949248845
 30
0.0
 10
37.93588619882302
 20
6.321984001104078
 30
0.0
 10
37.39461108992841
 20
6.300427047270971
 30
0.0
 10
37.03419736063906
 20
6.286967635430773
 30
0.0
 10
36.73682983406839
 20
6.277005830209753
 30
0.0
 10
36.37093337899976
 20
6.267311972687875
 30
0.0
 10
35.91110782383476
 20
6.258509607036439
 30
0.0
 10
35.39577165281135
 20
6.25181462391586
 30
0.0
 10
34.86508815908491
 20
6.247527020032937
 30
0.0
 10
34.36767929834252
 20
6.246899832669866
 30
0.0
 10
33.87887671571052
 20
6.250074700265119
 30
0.0
 10
33.36752841251053
 20
6.256357547306997
 30
0.0
 10
32.76843590197321
 20
6.267444872423042
 30
0.0
 10
32.3363294568756
 20
6.280825255138383
 30
0.0
 10
32.10334235321452
 20
6.288039812222854
 30
0.0
  0
SPLINE
  5
99
330
1F
100
AcDbEntity
  8
0
  6
Continuous
 62
     1
370
    15
100
AcDbSpline
210
0.0
220
0.0
230
1.0
 70
     8
 71
     3
 72
    26
 73
    22
 74
     0
 42
0.000000001
 43
0.00000001
 40
0.0
 40
0.0
 40
0.0
 40
0.0
 40
0.0979600271011607
 40
0.1778249764618587
 40
0.2400121463553069
 40
0.2911695002155826
 40
0.3348950966763266
 40
0.3844168495900812
 40
0.4439830203875768
 40
0.5156774856623864
 40
0.5773288042019957
 40
0.6266192463322289
 40
0.6799178557876385
 40
0.7490609992243649
 40
0.7835904010628048
 40
0.8142601874527451
 40
0.840926417102672
 40
0.8638687161190434
 40
0.8904100802787135
 40
0.9355149282300591
 40
1.0
 40
1.0
 40
1.0
 40
1.0
 10
26.59730906678684
 20
-6.657098679579158
 30
0.0
 10
26.97985245446009
 20
-6.619802922942871
 30
0.0
 10
27.67427619975353
 20
-6.552100644347886
 30
0.0
 10
28.63514087680002
 20
-6.473352238252017
 30
0.0
 10
29.42658613976241
 20
-6.419255586719163
 30
0.0
 10
30.06800409741092
 20
-6.379554209446837
 30
0.0
 10
30.65864330847563
 20
-6.346790007133972
 30
0.0
 10
31.2615960474419
 20
-6.318546262592396
 30
0.0
 10
31.98498377396111
 20
-6.290000417300967
 30
0.0
 10
32.76174451931271
 20
-6.267445032719936
 30
0.0
 10
33.49666545051554
 20
-6.254119648681302
 30
0.0
 10
34.14399701850766
 20
-6.24757924410841
 30
0.0
 10
34.83996016971184
 20
-6.24668527968247
 30
0.0
 10
35.48340905615374
 20
-6.252606324129754
 30
0.0
 10
36.03355287114901
 20
-6.260724888717403
 30
0.0
 10
36.40871703763111
 20
-6.268329337197899
 30
0.0
 10
36.73415439587675
 20
-6.276923257518749
 30
0.0
 10
37.03228718828253
 20
-6.286896364758682
 30
0.0
 10
37.39295330849897
 20
-6.300365178739382
 30
0.0
 10
37.93480365100843
 20
-6.321931476747085
 30
0.0
 10
38.37183576908405
 20
-6.344079909083407
 30
0.0
 10
38.62899489075829
 20
-6.357112524240272
 30
0.0
  0
SPLINE
  5
9A
330
1F
100
AcDbEntity
  8
0
  6
Continuous
 62
     1
370
    15
100
AcDbSpline
210
0.0
220
0.0
230
1.0
 70
     8
 71
     3
 72
    17
 73
    13
 74
     0
 42
0.000000001
 43
0.00000001
 40
0.0
 40
0.0
 40
0.0
 40
0.0
 40
0.1646240929314797
 40
0.3100736817809411
 40
0.4296692118815759
 40
0.5202566734450277
 40
0.6244952506207695
 40
0.7059851689781522
 40
0.7957749527383561
 40
0.8889945166778901
 40
0.966809856064287
 40
1.0
 40
1.0
 40
1.0
 40
1.0
 10
45.05291791990074
 20
-6.017048291522519
 30
0.0
 10
45.36488764775599
 20
-5.968424407623699
 30
0.0
 10
45.95249059455269
 20
-5.876840080964587
 30
0.0
 10
46.831034723788
 20
-5.758780763149021
 30
0.0
 10
47.55898582064633
 20
-5.669151766713224
 30
0.0
 10
48.18409764100456
 20
-5.598297706952645
 30
0.0
 10
48.73367235202716
 20
-5.54114804700525
 30
0.0
 10
49.28457370575782
 20
-5.489314812821389
 30
0.0
 10
49.81262993061284
 20
-5.44428838424439
 30
0.0
 10
50.33330118362244
 20
-5.405062079267647
 30
0.0
 10
50.74090569530702
 20
-5.377436354050488
 30
0.0
 10
50.96254479784459
 20
-5.364506136747218
 30
0.0
 10
51.02881390000829
 20
-5.360640059499754
 30
0.0
  0
SPLINE
  5
9B
330
1F
100
AcDbEntity
  8
0
  6
Continuous
 62
     1
370
    15
100
AcDbSpline
210
0.0
220
0.0
230
1.0
 70
     8
 71
     3
 72
     9
 73
     5
 74
     0
 42
0.000000001
 43
0.00000001
 40
0.0
 40
0.0
 40
0.0
 40
0.0
 40
0.471930990167095
 40
1.0
 40
1.0
 40
1.0
 40
1.0
 10
15.49687587459429
 20
5.471635335204765
 30
0.0
 10
14.94790002662625
 20
5.428298566438188
 30
0.0
 10
13.78464552669678
 20
5.336469952362146
 30
0.0
 10
12.61673654142659
 20
5.299099204104199
 30
0.0
 10
12.00000000000001
 20
5.27936487007491
 30
0.0
  0
SPLINE
  5
9C
330
1F
100
AcDbEntity
  8
0
  6
Continuous
 62
     1
370
    15
100
AcDbSpline
210
0.0
220
0.0
230
1.0
 70
     8
 71
     3
 72
    29
 73
    25
 74
     0
 42
0.000000001
 43
0.00000001
 40
0.0
 40
0.0
 40
0.0
 40
0.0
 40
0.060503158434199
 40
0.1088515617145349
 40
0.1449973432523671
 40
0.1810741896702878
 40
0.2251799957895376
 40
0.2759671454968266
 40
0.3195859288738593
 40
0.3507198022753872
 40
0.3791923108027334
 40
0.4069762741893804
 40
0.4395555155781121
 40
0.4809885044926302
 40
0.5248060267583671
 40
0.5728848084477549
 40
0.6213954758982406
 40
0.6820721288014562
 40
0.7361755272237848
 40
0.7800052257458748
 40
0.8184103532116874
 40
0.86932541484495
 40
0.9306909748257747
 40
1.0
 40
1.0
 40
1.0
 40
1.0
 10
59.02790120828095
 20
5.471621598182857
 30
0.0
 10
58.74964556862001
 20
5.448791046348363
 30
0.0
 10
58.24903433249897
 20
5.407716476254768
 30
0.0
 10
57.57766355825321
 20
5.364136690296797
 30
0.0
 10
57.00936016478639
 20
5.333025248763812
 30
0.0
 10
56.4600476484301
 20
5.307977774441971
 30
0.0
 10
55.84673706897122
 20
5.286270762474325
 30
0.0
 10
55.20080536096082
 20
5.271332733239822
 30
0.0
 10
54.61569283552753
 20
5.264856388570462
 30
0.0
 10
54.13453156219358
 20
5.264149378583136
 30
0.0
 10
53.72726849162326
 20
5.266691137769297
 30
0.0
 10
53.31300050592895
 20
5.272284503973049
 30
0.0
 10
52.83817501194552
 20
5.282363737289372
 30
0.0
 10
52.28862753015331
 20
5.299218503202799
 30
0.0
 10
51.66687559951031
 20
5.325018012648932
 30
0.0
 10
51.01210130268163
 20
5.359952980259612
 30
0.0
 10
50.27885025733914
 20
5.407914835117163
 30
0.0
 10
49.5178876472301
 20
5.467769166639027
 30
0.0
 10
48.77670055027316
 20
5.536435344577977
 30
0.0
 10
48.14410205653162
 20
5.602672977231177
 30
0.0
 10
47.52444823564234
 20
5.673286701990988
 30
0.0
 10
46.80388563011744
 20
5.762276171533252
 30
0.0
 10
45.93770156167925
 20
5.879111791459043
 30
0.0
 10
45.35956050726477
 20
5.969243152193346
 30
0.0
 10
45.05291791990074
 20
6.017048291522534
 30
0.0
  0
LINE
  5
9D
330
1F
100
AcDbEntity
  8
0
  6
Continuous
 62
     1
370
    15
100
AcDbLine
 10
19.03925592823407
 20
-7.999999999999999
 30
0.0
 11
22.91513149820943
 21
-7.999999999999999
 31
0.0
  0
LINE
  5
9E
330
1F
100
AcDbEntity
  8
0
  6
Continuous
 62
   131
370
    15
100
AcDbLine
 10
8.95000081766857
 20
8.000000000000004
 30
0.0
 11
-46.99999999999999
 21
8.0
 31
0.0
  0
LINE
  5
9F
330
1F
100
AcDbEntity
  8
0
  6
Continuous
 62
   131
370
    15
100
AcDbLine
 10
-46.99999999999999
 20
-7.999999999999999
 30
0.0
 11
8.95000081766857
 21
-7.999999999999996
 31
0.0
  0
LINE
  5
A0
330
1F
100
AcDbEntity
  8
0
  6
Continuous
 62
   131
370
    15
100
AcDbLine
 10
-46.99999999999999
 20
8.0
 30
0.0
 11
-47.99999999999999
 21
6.999999999999998
 31
0.0
  0
LINE
  5
A1
330
1F
100
AcDbEntity
  8
0
  6
Continuous
 62
   131
370
    15
100
AcDbLine
 10
-47.99999999999999
 20
-6.999999999999996
 30
0.0
 11
-46.99999999999999
 21
-7.999999999999996
 31
0.0
  0
SPLINE
  5
A2
330
1F
100
AcDbEntity
  8
0
  6
Continuous
 62
   131
370
    15
100
AcDbSpline
210
0.0
220
0.0
230
1.0
 70
     8
 71
     3
 72
     9
 73
     5
 74
     0
 42
0.000000001
 43
0.00000001
 40
0.0
 40
0.0
 40
0.0
 40
0.0
 40
0.441343801495937
 40
1.0
 40
1.0
 40
1.0
 40
1.0
 10
12.00000000000001
 20
5.27936487007491
 30
0.0
 10
11.55603933652266
 20
5.271610607526882
 30
0.0
 10
10.55011003158499
 20
5.254040942966634
 30
0.0
 10
9.523514808703514
 20
5.279468008388504
 30
0.0
 10
8.950001024086117
 20
5.293672996096201
 30
0.0
  0
SPLINE
  5
A3
330
1F
100
AcDbEntity
  8
0
  6
Continuous
 62
     1
370
    15
100
AcDbSpline
210
0.0
220
0.0
230
1.0
 70
     8
 71
     3
 72
    23
 73
    19
 74
     0
 42
0.000000001
 43
0.00000001
 40
0.0
 40
0.0
 40
0.0
 40
0.0
 40
0.0668724605891631
 40
0.1337425231436989
 40
0.2006103907200431
 40
0.2674762670015111
 40
0.3343403562407627
 40
0.4012028632019132
 40
0.4642417585156886
 40
0.5272755942094455
 40
0.5903071934401048
 40
0.6533393830161625
 40
0.7163749887820591
 40
0.7794168310058921
 40
0.8424677197864543
 40
0.9055304504954632
 40
0.9685955211777473
 40
1.0
 40
1.0
 40
1.0
 40
1.0
 10
62.00000000000003
 20
-7.591526953855186
 30
0.0
 10
61.12872195838281
 20
-7.406799608872132
 30
0.0
 10
59.38619711902507
 20
-7.037351543195994
 30
0.0
 10
56.77247792136303
 20
-6.161413462687459
 30
0.0
 10
54.1588614157597
 20
-5.086282362583217
 30
0.0
 10
51.54533406834502
 20
-3.825584909291497
 30
0.0
 10
48.93190760992511
 20
-2.43060915799979
 30
0.0
 10
46.36829032279654
 20
-0.9772933699514225
 30
0.0
 10
43.85481042849489
 20
0.4790783591802416
 30
0.0
 10
41.39123446426102
 20
1.891539987325287
 30
0.0
 10
38.92777492795955
 20
3.244335748916256
 30
0.0
 10
36.46428453358218
 20
4.494761633443003
 30
0.0
 10
34.00063512142194
 20
5.603721364174766
 30
0.0
 10
31.53669192287887
 20
6.535041169946904
 30
0.0
 10
29.07232912841383
 20
7.263842815187862
 30
0.0
 10
26.60755466965873
 20
7.750253418929628
 30
0.0
 10
24.5550519671252
 20
7.992924943205863
 30
0.0
 10
23.32427743816885
 20
7.974515534424219
 30
0.0
 10
22.91513149820942
 20
7.968395701194932
 30
0.0
  0
SPLINE
  5
A4
330
1F
100
AcDbEntity
  8
0
  6
Continuous
 62
     1
370
    15
100
AcDbSpline
210
0.0
220
0.0
230
1.0
 70
     8
 71
     3
 72
    16
 73
    12
 74
     0
 42
0.000000001
 43
0.00000001
 40
0.0
 40
0.0
 40
0.0
 40
0.0
 40
0.1257646691286881
 40
0.2515246268851787
 40
0.3772802721576281
 40
0.5030320050799207
 40
0.6287802269173499
 40
0.7545253399515924
 40
0.873078018751874
 40
0.9916207564409791
 40
1.0
 40
1.0
 40
1.0
 40
1.0
 10
62.00000000000003
 20
-6.31177811494572
 30
0.0
 10
61.12872225490098
 20
-6.131038032888987
 30
0.0
 10
59.38619940434465
 20
-5.769564639626216
 30
0.0
 10
56.77247982862227
 20
-4.962706910336182
 30
0.0
 10
54.1588630030305
 20
-3.995958863761817
 30
0.0
 10
51.54533624929924
 20
-2.883015261607024
 30
0.0
 10
48.93190666807045
 20
-1.669631314288647
 30
0.0
 10
46.36830994057316
 20
-0.4186309606306059
 30
0.0
 10
43.85481410001568
 20
0.8126144214749705
 30
0.0
 10
42.15433838924465
 20
1.649163335769276
 30
0.0
 10
41.27512018475228
 20
2.047575177344344
 30
0.0
 10
41.21707520779463
 20
2.07387786994752
 30
0.0
  0
LINE
  5
A5
330
1F
100
AcDbEntity
  8
0
  6
Continuous
 62
     1
370
    15
100
AcDbLine
 10
61.99999999999966
 20
-7.591526953855179
 30
0.0
 11
62.00000000000001
 21
-6.311778114945719
 31
0.0
  0
SPLINE
  5
A6
330
1F
100
AcDbEntity
  8
0
  6
Continuous
 62
     1
370
    15
100
AcDbSpline
210
0.0
220
0.0
230
1.0
 70
     8
 71
     3
 72
    68
 73
    64
 74
     0
 42
0.000000001
 43
0.00000001
 40
0.0
 40
0.0
 40
0.0
 40
0.0
 40
0.0312499999999998
 40
0.0312499999999998
 40
0.0624999999999996
 40
0.0624999999999996
 40
0.0937499999999993
 40
0.0937499999999993
 40
0.1249999999999991
 40
0.1249999999999991
 40
0.1562499999999989
 40
0.1562499999999989
 40
0.1874999999999987
 40
0.1874999999999987
 40
0.2187499999999985
 40
0.2187499999999985
 40
0.2499999999999983
 40
0.2499999999999983
 40
0.2812499999999982
 40
0.2812499999999982
 40
0.312499999999998
 40
0.312499999999998
 40
0.3437499999999978
 40
0.3437499999999978
 40
0.3749999999999977
 40
0.3749999999999977
 40
0.4062499999999978
 40
0.4062499999999978
 40
0.4374999999999979
 40
0.4374999999999979
 40
0.468749999999998
 40
0.468749999999998
 40
0.4999999999999981
 40
0.4999999999999981
 40
0.5312499999999982
 40
0.5312499999999982
 40
0.5624999999999983
 40
0.5624999999999983
 40
0.5937499999999984
 40
0.5937499999999984
 40
0.6249999999999986
 40
0.6249999999999986
 40
0.6562499999999987
 40
0.6562499999999987
 40
0.6874999999999988
 40
0.6874999999999988
 40
0.7187499999999989
 40
0.7187499999999989
 40
0.749999999999999
 40
0.749999999999999
 40
0.7812499999999991
 40
0.7812499999999991
 40
0.8124999999999992
 40
0.8124999999999992
 40
0.8749999999999996
 40
0.8749999999999996
 40
0.9062499999999997
 40
0.9062499999999997
 40
0.9374999999999998
 40
0.9374999999999998
 40
0.9687499999999999
 40
0.9687499999999999
 40
1.0
 40
1.0
 40
1.0
 40
1.0
 10
61.99999999999999
 20
-7.999999999999804
 30
0.0
 10
61.48166680741308
 20
-7.980897649218742
 30
0.0
 10
60.95901403101246
 20
-7.951582739041093
 30
0.0
 10
59.91498459030458
 20
-7.859324250568587
 30
0.0
 10
59.3963542457286
 20
-7.796533401210977
 30
0.0
 10
58.35588427884559
 20
-7.638138528775138
 30
0.0
 10
57.83260442760538
 20
-7.54239209160302
 30
0.0
 10
56.78990972248766
 20
-7.319554536749656
 30
0.0
 10
56.27249475013013
 20
-7.192693718196849
 30
0.0
 10
55.22954080327399
 20
-6.908395051665884
 30
0.0
 10
54.70630662310172
 20
-6.751085173508292
 30
0.0
 10
53.66627570685578
 20
-6.409218055511909
 30
0.0
 10
53.1472638858089
 20
-6.224472064114603
 30
0.0
 10
52.10315611522448
 20
-5.828641541388478
 30
0.0
 10
51.58121328077597
 20
-5.617919432732925
 30
0.0
 10
50.54395390868116
 20
-5.174554195903849
 30
0.0
 10
50.02117665774288
 20
-4.940841562724546
 30
0.0
 10
48.97725013276634
 20
-4.453662190874344
 30
0.0
 10
48.45894955865241
 20
-4.200688118765594
 30
0.0
 10
47.41806484811488
 20
-3.67736052329847
 30
0.0
 10
46.89475171783685
 20
-3.406847004052239
 30
0.0
 10
45.85234073560407
 20
-2.853245932884322
 30
0.0
 10
45.33487396213018
 20
-2.570484995127775
 30
0.0
 10
44.29168527500647
 20
-1.993781498202854
 30
0.0
 10
43.76850915431583
 20
-1.700284332186182
 30
0.0
 10
42.72894156137209
 20
-1.108609468265926
 30
0.0
 10
42.20949658768416
 20
-0.8098632434071056
 30
0.0
 10
41.16533507922804
 20
-0.209192878547753
 30
0.0
 10
40.64405073961297
 20
0.0920699845502848
 30
0.0
 10
39.60622243703987
 20
0.6920221478039603
 30
0.0
 10
39.08333306381694
 20
0.9919309100132854
 30
0.0
 10
38.03953403234715
 20
1.585891343603225
 30
0.0
 10
37.52151149688686
 20
1.879404480524177
 30
0.0
 10
36.48023638211113
 20
2.458222286648831
 30
0.0
 10
35.95690236746091
 20
2.743518832457317
 30
0.0
 10
34.914799567023
 20
3.300449666868912
 30
0.0
 10
34.39722919537132
 20
3.571903571248285
 30
0.0
 10
33.35383028785974
 20
4.099963490837376
 30
0.0
 10
32.83072461046748
 20
4.356063687172401
 30
0.0
 10
31.79164457729574
 20
4.847607393517205
 30
0.0
 10
31.27171480866982
 20
5.083701893259072
 30
0.0
 10
30.22752415856626
 20
5.533971860223297
 30
0.0
 10
29.70684681523856
 20
5.747619437612068
 30
0.0
 10
28.66847368295751
 20
6.149341703337603
 30
0.0
 10
28.14548454857249
 20
6.338071709803594
 30
0.0
 10
27.10183757837727
 20
6.68754709269856
 30
0.0
 10
26.58404132800634
 20
6.84804153194926
 30
0.0
 10
25.54240017895356
 20
7.140007309900763
 30
0.0
 10
25.01905767625072
 20
7.271355227284097
 30
0.0
 10
23.97728749237242
 20
7.502277932330393
 30
0.0
 10
23.45956173359075
 20
7.601881881254236
 30
0.0
 10
22.41597714206121
 20
7.768974397925826
 30
0.0
 10
21.89295428620753
 20
7.836225905733612
 30
0.0
 10
20.33510187371137
 20
7.987415645027395
 30
0.0
 10
19.28904966637507
 20
8.021229931301152
 30
0.0
 10
17.73070893826356
 20
7.969939619845293
 30
0.0
 10
17.20763241173273
 20
7.935852242242283
 30
0.0
 10
16.16416205864584
 20
7.834197113443572
 30
0.0
 10
15.64654032209124
 20
7.766808673706966
 30
0.0
 10
14.60455753737342
 20
7.599168352930218
 30
0.0
 10
14.08121894360982
 20
7.498885166058099
 30
0.0
 10
13.03980578500612
 20
7.267318437220152
 30
0.0
 10
12.52187286230438
 20
7.136123696467904
 30
0.0
 10
12.00000000000001
 20
6.989753682382671
 30
0.0
  0
LINE
  5
A7
330
1F
100
AcDbEntity
  8
0
  6
Continuous
 62
     1
370
    15
100
AcDbLine
 10
61.99999999999999
 20
-7.999999999999804
 30
0.0
 11
61.99999999999966
 21
-7.591526953855179
 31
0.0
  0
SPLINE
  5
A8
330
1F
100
AcDbEntity
  8
0
  6
Continuous
 62
     1
370
    15
100
AcDbSpline
210
0.0
220
0.0
230
1.0
 70
     8
 71
     3
 72
    16
 73
    12
 74
     0
 42
0.000000001
 43
0.00000001
 40
0.0
 40
0.0
 40
0.0
 40
0.0
 40
0.0733786670239465
 40
0.1890535034737832
 40
0.3047601623955055
 40
0.4228511559346577
 40
0.5409490365109917
 40
0.6590337140304193
 40
0.7770851588736405
 40
0.8950956653862338
 40
1.0
 40
1.0
 40
1.0
 40
1.0
 10
42.11326225031835
 20
-0.7534382669223503
 30
0.0
 10
41.46217644288308
 20
-0.4926403851043731
 30
0.0
 10
39.78471270648782
 20
0.179281785955781
 30
0.0
 10
37.08055410211043
 20
1.275329508272579
 30
0.0
 10
33.9795726036195
 20
2.463480628541368
 30
0.0
 10
30.85695814268511
 20
3.537545449361107
 30
0.0
 10
27.7132382339252
 20
4.436699481912324
 30
0.0
 10
24.56990511894485
 20
5.110514764225583
 30
0.0
 10
21.42742497365057
 20
5.515494449341419
 30
0.0
 10
18.40209244478189
 20
5.658603335995383
 30
0.0
 10
16.42408638096486
 20
5.521681671884417
 30
0.0
 10
15.49323131120709
 20
5.457245961838407
 30
0.0
  0
SPLINE
  5
A9
330
1F
100
AcDbEntity
  8
0
  6
Continuous
 62
   131
370
    15
100
AcDbSpline
210
0.0
220
0.0
230
1.0
 70
    24
 71
     3
 72
    12
 73
     8
 74
     0
 42
0.000000001
 43
0.00000001
 40
0.0
 40
0.0
 40
0.0
 40
0.0
 40
0.1013901563531749
 40
0.3672227659911552
 40
0.6330553756291347
 40
0.9213594049223283
 40
1.0
 40
1.0
 40
1.0
 40
1.0
 10
12.00000000000001
 20
6.989753682382671
 30
0.0
 10
12.00000000000001
 20
6.923113666875205
 30
0.0
 10
12.00000000000002
 20
6.681751667835548
 30
0.0
 10
12.00000000000001
 20
6.279513913744295
 30
0.0
 10
12.00000000000002
 20
5.804395921919323
 30
0.0
 10
12.00000000000001
 20
5.463634595990023
 30
0.0
 10
12.00000000000001
 20
5.311886327852837
 30
0.0
 10
12.00000000000001
 20
5.279364870074911
 30
0.0
  0
SPLINE
  5
AA
330
1F
100
AcDbEntity
  8
0
  6
Continuous
 62
     1
370
    15
100
AcDbSpline
210
0.0
220
0.0
230
1.0
 70
     8
 71
     3
 72
     8
 73
     4
 74
     0
 42
0.000000001
 43
0.00000001
 40
0.0
 40
0.0
 40
0.0
 40
0.0
 40
1.0
 40
1.0
 40
1.0
 40
1.0
 10
57.05015961782929
 20
2.237560614295327
 30
0.0
 10
57.03334167603357
 20
2.257479982398849
 30
0.0
 10
57.01662136476348
 20
2.277367021158558
 30
0.0
 10
57.00000000000002
 20
2.297221294800901
 30
0.0
  0
LINE
  5
AB
330
1F
100
AcDbEntity
  8
0
  6
Continuous
 62
     1
370
    15
100
AcDbLine
 10
57.00000000000002
 20
2.937719435296597
 30
0.0
 11
62.00000000000001
 21
0.0000000000000111
 31
0.0
  0
LINE
  5
AC
330
1F
100
AcDbEntity
  8
0
  6
Continuous
 62
     1
370
    15
100
AcDbLine
 10
62.00000000000001
 20
0.0000000000000111
 30
0.0
 11
62.00000000000001
 21
-2.137943568237148
 31
0.0
  0
SPLINE
  5
AD
330
1F
100
AcDbEntity
  8
0
  6
Continuous
 62
     1
370
    15
100
AcDbSpline
210
0.0
220
0.0
230
1.0
 70
     8
 71
     3
 72
    12
 73
     8
 74
     0
 42
0.000000001
 43
0.00000001
 40
0.0
 40
0.0
 40
0.0
 40
0.0
 40
0.5
 40
0.5
 40
0.75
 40
0.75
 40
1.0
 40
1.0
 40
1.0
 40
1.0
 10
62.00000000000001
 20
-2.137943568237146
 30
0.0
 10
61.14316304501941
 20
-1.464327440546171
 30
0.0
 10
60.30064017802369
 20
-0.7630972272402763
 30
0.0
 10
59.05889110091625
 20
0.3312574405559956
 30
0.0
 10
58.64870036019437
 20
0.7032296227316361
 30
0.0
 10
57.83670336351732
 20
1.46334895264323
 30
0.0
 10
57.43709642869204
 20
1.849539909839676
 30
0.0
 10
57.05015961782927
 20
2.237560614295332
 30
0.0
  0
SPLINE
  5
AE
330
1F
100
AcDbEntity
  8
0
  6
Continuous
 62
     1
370
    15
100
AcDbSpline
210
0.0
220
0.0
230
1.0
 70
     8
 71
     3
 72
    14
 73
    10
 74
     0
 42
0.000000001
 43
0.00000001
 40
0.0
 40
0.0
 40
0.0
 40
0.0
 40
0.1533523946882155
 40
0.3067007780482741
 40
0.4600447211570944
 40
0.6133837963302528
 40
0.7667180986850266
 40
0.9173271671619835
 40
1.0
 40
1.0
 40
1.0
 40
1.0
 10
57.05015961782927
 20
2.237560614295331
 30
0.0
 10
56.10830019552925
 20
2.63613980484731
 30
0.0
 10
54.22460598769626
 20
3.433287760082579
 30
0.0
 10
51.39911639180083
 20
4.462120519376781
 30
0.0
 10
48.57371890547522
 20
5.31179576501219
 30
0.0
 10
45.74841964582819
 20
5.942925527812171
 30
0.0
 10
42.9399312081839
 20
6.313526253748901
 30
0.0
 10
40.56545476650836
 20
6.447722158239475
 30
0.0
 10
39.13270699062869
 20
6.357328592722435
 30
0.0
 10
38.62495513887055
 20
6.325293993855153
 30
0.0
  0
LINE
  5
AF
330
1F
100
AcDbEntity
  8
0
  6
Continuous
 62
     1
370
    15
100
AcDbLine
 10
62.00000000000001
 20
-6.311778114945717
 30
0.0
 11
62.00000000000001
 21
-2.137943568237146
 31
0.0
  0
SPLINE
  5
B0
330
1F
100
AcDbEntity
  8
0
  6
Continuous
 62
     1
370
    15
100
AcDbSpline
210
0.0
220
0.0
230
1.0
 70
     8
 71
     3
 72
    13
 73
     9
 74
     0
 42
0.000000001
 43
0.00000001
 40
0.0
 40
0.0
 40
0.0
 40
0.0
 40
0.1681572572760708
 40
0.3369782990075953
 40
0.5027571238782321
 40
0.6685118893065111
 40
0.8342552783917
 40
1.0
 40
1.0
 40
1.0
 40
1.0
 10
26.59738707947344
 20
-6.656649923781033
 30
0.0
 10
25.779112561636
 20
-6.718567627749088
 30
0.0
 10
24.13933346670569
 20
-6.842647449813245
 30
0.0
 10
21.69293995545462
 20
-6.757440824820485
 30
0.0
 10
19.2583312763444
 20
-6.479699622770104
 30
0.0
 10
16.83874581057871
 20
-5.999908031330878
 30
0.0
 10
14.4193541194415
 20
-5.348477457777635
 30
0.0
 10
12.80645353433811
 20
-4.781126225038674
 30
0.0
 10
12.00000000000001
 20
-4.497449468343788
 30
0.0
  0
SPLINE
  5
B1
330
1F
100
AcDbEntity
  8
0
  6
Continuous
 62
     1
370
    15
100
AcDbSpline
210
0.0
220
0.0
230
1.0
 70
     8
 71
     3
 72
    19
 73
    15
 74
     0
 42
0.000000001
 43
0.00000001
 40
0.0
 40
0.0
 40
0.0
 40
0.0
 40
0.0646650491813895
 40
0.1486013481916135
 40
0.232538434627289
 40
0.3164762752224721
 40
0.4004148366546326
 40
0.4860635621119339
 40
0.5717148619151764
 40
0.6573684516966095
 40
0.7430240463708704
 40
0.8286813602237606
 40
0.9143401070014429
 40
1.0
 40
1.0
 40
1.0
 40
1.0
 10
45.06106054058819
 20
-5.992331584034038
 30
0.0
 10
44.34843817452459
 20
-6.100218840405276
 30
0.0
 10
42.71082023888358
 20
-6.348145532682099
 30
0.0
 10
40.14820252371049
 20
-6.437792800538024
 30
0.0
 10
37.37318974716873
 20
-6.307364537277931
 30
0.0
 10
34.59814682824172
 20
-5.916775438278817
 30
0.0
 10
31.80424754286049
 20
-5.287556688582118
 30
0.0
 10
28.99142591293644
 20
-4.436837789722524
 30
0.0
 10
26.15970021512646
 20
-3.395875929439656
 30
0.0
 10
23.32788677175369
 20
-2.2136819895652
 30
0.0
 10
20.4959988121778
 20
-0.9387323720782974
 30
0.0
 10
17.66404626326535
 20
0.3729964987971523
 30
0.0
 10
14.83204036752918
 20
1.677816542236254
 30
0.0
 10
12.94401766649801
 20
2.479717957888121
 30
0.0
 10
12.00000000000001
 20
2.880671348306397
 30
0.0
  0
SPLINE
  5
B2
330
1F
100
AcDbEntity
  8
0
  6
Continuous
 62
   131
370
    15
100
AcDbSpline
210
0.0
220
0.0
230
1.0
 70
    24
 71
     3
 72
    14
 73
    10
 74
     0
 42
0.000000001
 43
0.00000001
 40
0.0
 40
0.0
 40
0.0
 40
0.0
 40
0.25
 40
0.25
 40
0.5
 40
0.5
 40
0.75
 40
0.75
 40
1.0
 40
1.0
 40
1.0
 40
1.0
 10
12.0
 20
2.880671348306403
 30
0.0
 10
12.0
 20
2.301324824806088
 30
0.0
 10
12.0
 20
1.685661264007666
 30
0.0
 10
12.0
 20
0.4191316373713966
 30
0.0
 10
12.0
 20
-0.2314309291978931
 30
0.0
 10
12.0
 20
-1.52094034421473
 30
0.0
 10
12.0
 20
-2.159514821487699
 30
0.0
 10
12.0
 20
-3.379780114242759
 30
0.0
 10
12.0
 20
-3.961203860925834
 30
0.0
 10
12.0
 20
-4.497449468343783
 30
0.0
  0
SPLINE
  5
B3
330
1F
100
AcDbEntity
  8
0
  6
Continuous
 62
   131
370
    15
100
AcDbSpline
210
0.0
220
0.0
230
1.0
 70
    24
 71
     3
 72
    12
 73
     8
 74
     0
 42
0.000000001
 43
0.00000001
 40
0.0
 40
0.0
 40
0.0
 40
0.0
 40
0.1131425567812615
 40
0.3328318602193076
 40
0.5588921683398672
 40
0.7763595029158887
 40
0.9999999999999999
 40
0.9999999999999999
 40
0.9999999999999999
 40
0.9999999999999999
 10
12.00000000000002
 20
5.247179701970434
 30
0.0
 10
12.00000000000002
 20
5.253538058240519
 30
0.0
 10
12.00000000000001
 20
5.272242457411916
 30
0.0
 10
12.00000000000002
 20
5.032234152694278
 30
0.0
 10
12.00000000000001
 20
4.55145070878034
 30
0.0
 10
12.00000000000001
 20
3.840347588323081
 30
0.0
 10
12.00000000000001
 20
3.203534095118532
 30
0.0
 10
12.00000000000002
 20
2.880671348306398
 30
0.0
  0
SPLINE
  5
B4
330
1F
100
AcDbEntity
  8
0
  6
Continuous
 62
     1
370
    15
100
AcDbSpline
210
0.0
220
0.0
230
1.0
 70
    24
 71
     3
 72
     8
 73
     4
 74
     0
 42
0.000000001
 43
0.00000001
 40
0.0
 40
0.0
 40
0.0
 40
0.0
 40
1.0
 40
1.0
 40
1.0
 40
1.0
 10
56.99999999999999
 20
2.297221294800897
 30
0.0
 10
56.99999999999999
 20
2.873887513832472
 30
0.0
 10
56.99999999999999
 20
3.404182854907322
 30
0.0
 10
56.99999999999999
 20
3.849725336690631
 30
0.0
  0
LINE
  5
B5
330
1F
100
AcDbEntity
  8
0
  6
Continuous
 62
     1
370
    15
100
AcDbLine
 10
62.00000000000001
 20
5.60000000000001
 30
0.0
 11
59.02621151022863
 21
5.464559112734213
 31
0.0
  0
SPLINE
  5
B6
330
1F
100
AcDbEntity
  8
0
  6
Continuous
 62
     1
370
    15
100
AcDbSpline
210
0.0
220
0.0
230
1.0
 70
     8
 71
     3
 72
    10
 73
     6
 74
     0
 42
0.000000001
 43
0.00000001
 40
0.0
 40
0.0
 40
0.0
 40
0.0
 40
0.5
 40
0.5
 40
1.0
 40
1.0
 40
1.0
 40
1.0
 10
62.00000000000001
 20
5.60000000000001
 30
0.0
 10
61.15451548105719
 20
5.370725705910423
 30
0.0
 10
60.31427087673433
 20
5.11246431196134
 30
0.0
 10
58.64521591934474
 20
4.532874482727861
 30
0.0
 10
57.81772385668928
 20
4.212516972543661
 30
0.0
 10
56.99999999999999
 20
3.849725336688063
 30
0.0
  0
SPLINE
  5
B7
330
1F
100
AcDbEntity
  8
0
  6
Continuous
 62
     1
370
    15
100
AcDbSpline
210
0.0
220
0.0
230
1.0
 70
     8
 71
     3
 72
    16
 73
    12
 74
     0
 42
0.000000001
 43
0.00000001
 40
0.0
 40
0.0
 40
0.0
 40
0.0
 40
0.0281583398329076
 40
0.1507419051307564
 40
0.2733484935110241
 40
0.3959596312683481
 40
0.518546998088197
 40
0.638926512302421
 40
0.759289304126005
 40
0.8796441889894929
 40
1.0
 40
1.0
 40
1.0
 40
1.0
 10
32.10285790912158
 20
-6.288222107620473
 30
0.0
 10
31.91417191154937
 20
-6.360490414471199
 30
0.0
 10
30.90406666691093
 20
-6.747369126777999
 30
0.0
 10
29.07232713387564
 20
-7.25154642111748
 30
0.0
 10
26.60755152086487
 20
-7.761232996926474
 30
0.0
 10
24.14271706730779
 20
-8.010059308673357
 30
0.0
 10
21.69292755370279
 20
-8.010307609285894
 30
0.0
 10
19.25832385141197
 20
-7.762903298998326
 30
0.0
 10
16.8387421283131
 20
-7.277827828178638
 30
0.0
 10
14.41935493325244
 20
-6.583600492776202
 30
0.0
 10
12.80645371298982
 20
-5.956634223226987
 30
0.0
 10
11.99999999999752
 20
-5.643149882309586
 30
0.0
  0
SPLINE
  5
B8
330
1F
100
AcDbEntity
  8
0
  6
Continuous
 62
   131
370
    15
100
AcDbSpline
210
0.0
220
0.0
230
1.0
 70
    24
 71
     3
 72
     8
 73
     4
 74
     0
 42
0.000000001
 43
0.00000001
 40
0.0
 40
0.0
 40
0.0
 40
0.0
 40
1.0
 40
1.0
 40
1.0
 40
1.0
 10
12.00000000000003
 20
-4.497449468343795
 30
0.0
 10
12.00000000000003
 20
-4.862114325556721
 30
0.0
 10
12.00000000000003
 20
-5.246392469002244
 30
0.0
 10
12.00000000000003
 20
-5.643149882295063
 30
0.0
  0
SPLINE
  5
B9
330
1F
100
AcDbEntity
  8
0
  6
Continuous
 62
     1
370
    15
100
AcDbSpline
210
0.0
220
0.0
230
1.0
 70
     8
 71
     3
 72
    10
 73
     6
 74
     0
 42
0.000000001
 43
0.00000001
 40
0.0
 40
0.0
 40
0.0
 40
0.0
 40
0.3712244869064075
 40
0.7424465693445158
 40
1.0
 40
1.0
 40
1.0
 40
1.0
 10
12.00000000000001
 20
-6.989753682382662
 30
0.0
 10
12.87104917589346
 20
-7.208396471928943
 30
0.0
 10
14.61314188578387
 20
-7.645680634844298
 30
0.0
 10
16.95955937967676
 20
-7.963699081949191
 30
0.0
 10
18.43492839884342
 20
-7.96803217919436
 30
0.0
 10
19.03925592823407
 20
-7.969807063930831
 30
0.0
  0
SPLINE
  5
BA
330
1F
100
AcDbEntity
  8
0
  6
Continuous
 62
     1
370
    15
100
AcDbSpline
210
0.0
220
0.0
230
1.0
 70
     8
 71
     3
 72
    12
 73
     8
 74
     0
 42
0.000000001
 43
0.00000001
 40
0.0
 40
0.0
 40
0.0
 40
0.0
 40
0.1176841797148062
 40
0.3382100568926172
 40
0.5587605924321207
 40
0.7793518994182559
 40
1.0
 40
1.0
 40
1.0
 40
1.0
 10
51.02832766918664
 20
5.360433400065574
 30
0.0
 10
51.45871263236013
 20
5.548035721337382
 30
0.0
 10
52.69558680893488
 20
6.087182035687253
 30
0.0
 10
54.73898629772172
 20
6.786365812840081
 30
0.0
 10
57.15880372233456
 20
7.434115111045648
 30
0.0
 10
59.57913896461248
 20
7.864894986270182
 30
0.0
 10
61.19297708046508
 20
7.950453672453968
 30
0.0
 10
61.99999999999972
 20
8.000000000000185
 30
0.0
  0
LINE
  5
BB
330
1F
100
AcDbEntity
  8
0
  6
Continuous
 62
   131
370
    15
100
AcDbLine
 10
12.00000000000001
 20
-6.98975368238266
 30
0.0
 11
12.00000000000001
 21
-5.64314988229708
 31
0.0
  0
LINE
  5
BC
330
1F
100
AcDbEntity
  8
0
  6
Continuous
 62
     1
370
    15
100
AcDbLine
 10
62.00000000000001
 20
0.0000000000000111
 30
0.0
 11
62.00000000000001
 21
5.600000000000011
 31
0.0
  0
LINE
  5
BD
330
1F
100
AcDbEntity
  8
0
  6
Continuous
 62
     1
370
    15
100
AcDbLine
 10
62.00000000000001
 20
5.600000000000011
 30
0.0
 11
61.99999999999972
 21
8.000000000000185
 31
0.0
  0
SPLINE
  5
BE
330
1F
100
AcDbEntity
  8
0
  6
Continuous
 62
   131
370
    15
100
AcDbSpline
210
0.0
220
0.0
230
1.0
 70
     8
 71
     3
 72
    10
 73
     6
 74
     0
 42
0.000000001
 43
0.00000001
 40
0.0
 40
0.0
 40
0.0
 40
0.0
 40
0.5
 40
0.5
 40
1.0
 40
1.0
 40
1.0
 40
1.0
 10
12.0
 20
6.989753682382663
 30
0.0
 10
11.49078432078891
 20
6.846933636501297
 30
0.0
 10
10.98056392931547
 20
6.689855974632847
 30
0.0
 10
9.967343685121085
 20
6.350169194623385
 30
0.0
 10
9.459436351050984
 20
6.167040183913312
 30
0.0
 10
8.95000081766857
 20
5.971634363391881
 30
0.0
  0
SPLINE
  5
BF
330
1F
100
AcDbEntity
  8
0
  6
Continuous
 62
   131
370
    15
100
AcDbSpline
210
0.0
220
0.0
230
1.0
 70
     8
 71
     3
 72
    10
 73
     6
 74
     0
 42
0.000000001
 43
0.00000001
 40
0.0
 40
0.0
 40
0.0
 40
0.0
 40
0.5
 40
0.5
 40
1.0
 40
1.0
 40
1.0
 40
1.0
 10
12.00000000000001
 20
-5.643149882310603
 30
0.0
 10
11.49078446355305
 20
-5.435035800267492
 30
0.0
 10
10.98056421540213
 20
-5.215350747999862
 30
0.0
 10
9.96734425123628
 20
-4.756926403354749
 30
0.0
 10
9.459437065167506
 20
-4.517469201841835
 30
0.0
 10
8.950001674623213
 20
-4.269125722333873
 30
0.0
  0
SPLINE
  5
C0
330
1F
100
AcDbEntity
  8
0
  6
Continuous
 62
   131
370
    15
100
AcDbSpline
210
0.0
220
0.0
230
1.0
 70
     8
 71
     3
 72
    10
 73
     6
 74
     0
 42
0.000000001
 43
0.00000001
 40
0.0
 40
0.0
 40
0.0
 40
0.0
 40
0.5
 40
0.5
 40
1.0
 40
1.0
 40
1.0
 40
1.0
 10
12.0
 20
-6.989753682382653
 30
0.0
 10
11.49078432078891
 20
-6.846933636501287
 30
0.0
 10
10.98056392931548
 20
-6.689855974632837
 30
0.0
 10
9.967343685121085
 20
-6.350169194623375
 30
0.0
 10
9.459436351050988
 20
-6.167040183913302
 30
0.0
 10
8.95000081766857
 20
-5.97163436339187
 30
0.0
  0
LINE
  5
C1
330
1F
100
AcDbEntity
  8
0
  6
Continuous
 62
   131
370
    15
100
AcDbLine
 10
8.95000081766857
 20
-7.999999999999996
 30
0.0
 11
8.95000081766857
 21
-5.971634937957316
 31
0.0
  0
LINE
  5
C2
330
1F
100
AcDbEntity
  8
0
  6
Continuous
 62
   131
370
    15
100
AcDbLine
 10
-46.99999999999999
 20
8.0
 30
0.0
 11
-46.99999999999999
 21
-7.999999999999999
 31
0.0
  0
LINE
  5
C3
330
1F
100
AcDbEntity
  8
0
  6
Continuous
 62
   131
370
    15
100
AcDbLine
 10
8.95000081766857
 20
-4.268835759958989
 30
0.0
 11
8.95000081766857
 21
8.000000000000004
 31
0.0
  0
LINE
  5
C4
330
1F
100
AcDbEntity
  8
0
  6
Continuous
 62
   131
370
    15
100
AcDbLine
 10
-47.99999999999999
 20
6.999999999999999
 30
0.0
 11
-47.99999999999999
 21
-6.999999999999993
 31
0.0
  0
SPLINE
  5
C5
330
1F
100
AcDbEntity
  8
0
  6
Continuous
 62
   131
370
    15
100
AcDbSpline
210
0.0
220
0.0
230
1.0
 70
    24
 71
     3
 72
     8
 73
     4
 74
     0
 42
0.000000001
 43
0.00000001
 40
0.0
 40
0.0
 40
0.0
 40
0.0
 40
1.0
 40
1.0
 40
1.0
 40
1.0
 10
12.00000000000003
 20
-4.497449468343795
 30
0.0
 10
12.00000000000003
 20
-4.862114325560865
 30
0.0
 10
12.00000000000003
 20
-5.246392469010983
 30
0.0
 10
12.00000000000003
 20
-5.64314988230859
 30
0.0
  0
SPLINE
  5
C6
330
1F
100
AcDbEntity
  8
0
  6
Continuous
 62
   131
370
    15
100
AcDbSpline
210
0.0
220
0.0
230
1.0
 70
     8
 71
     3
 72
    10
 73
     6
 74
     0
 42
0.000000001
 43
0.00000001
 40
0.0
 40
0.0
 40
0.0
 40
0.0
 40
0.5
 40
0.5
 40
1.0
 40
1.0
 40
1.0
 40
1.0
 10
12.00000000000001
 20
-4.497449468343788
 30
0.0
 10
11.49078446355305
 20
-4.310263647181583
 30
0.0
 10
10.98056421540213
 20
-4.113842232246748
 30
0.0
 10
9.96734425123628
 20
-3.706171728259607
 30
0.0
 10
9.459437065167506
 20
-3.494281973383833
 30
0.0
 10
8.950001674623213
 20
-3.275545665188379
 30
0.0
  0
SPLINE
  5
C7
330
1F
100
AcDbEntity
  8
0
  6
Continuous
 62
   131
370
    15
100
AcDbSpline
210
0.0
220
0.0
230
1.0
 70
    24
 71
     3
 72
    14
 73
    10
 74
     0
 42
0.000000001
 43
0.00000001
 40
0.0
 40
0.0
 40
0.0
 40
0.0
 40
0.25
 40
0.25
 40
0.5
 40
0.5
 40
0.75
 40
0.75
 40
1.0
 40
1.0
 40
1.0
 40
1.0
 10
12.0
 20
2.880671348306403
 30
0.0
 10
12.0
 20
2.301324824806088
 30
0.0
 10
12.0
 20
1.685661264007666
 30
0.0
 10
12.0
 20
0.4191316373713966
 30
0.0
 10
12.0
 20
-0.2314309291978931
 30
0.0
 10
12.0
 20
-1.52094034421473
 30
0.0
 10
12.0
 20
-2.159514821487699
 30
0.0
 10
12.0
 20
-3.379780114242759
 30
0.0
 10
12.0
 20
-3.961203860925834
 30
0.0
 10
12.0
 20
-4.497449468343783
 30
0.0
  0
SPLINE
  5
C8
330
1F
100
AcDbEntity
  8
0
  6
Continuous
 62
   131
370
    15
100
AcDbSpline
210
0.0
220
0.0
230
1.0
 70
     8
 71
     3
 72
    10
 73
     6
 74
     0
 42
0.000000001
 43
0.00000001
 40
0.0
 40
0.0
 40
0.0
 40
0.0
 40
0.5000000000000001
 40
0.5000000000000001
 40
1.0
 40
1.0
 40
1.0
 40
1.0
 10
12.00000000000001
 20
2.880671348306397
 30
0.0
 10
11.49078437291185
 20
3.090419357238188
 30
0.0
 10
10.98056403376521
 20
3.294465486342926
 30
0.0
 10
9.967343891808747
 20
3.687524993912472
 30
0.0
 10
9.45943661177368
 20
3.877187097145297
 30
0.0
 10
8.950001130541215
 20
4.058822008309224
 30
0.0
  0
SPLINE
  5
C9
330
1F
100
AcDbEntity
  8
0
  6
Continuous
 62
   131
370
    15
100
AcDbSpline
210
0.0
220
0.0
230
1.0
 70
    24
 71
     3
 72
    12
 73
     8
 74
     0
 42
0.000000001
 43
0.00000001
 40
0.0
 40
0.0
 40
0.0
 40
0.0
 40
0.1123998374808347
 40
0.3322731248128071
 40
0.5585227523726807
 40
0.7761722100033566
 40
1.0
 40
1.0
 40
1.0
 40
1.0
 10
12.00000000000002
 20
5.247182636872254
 30
0.0
 10
12.00000000000002
 20
5.253465207329376
 30
0.0
 10
12.00000000000002
 20
5.272037559073219
 30
0.0
 10
12.00000000000002
 20
5.032180298636947
 30
0.0
 10
12.00000000000002
 20
4.551464614486354
 30
0.0
 10
12.00000000000002
 20
3.840344054552606
 30
0.0
 10
12.00000000000002
 20
3.203532906256294
 30
0.0
 10
12.00000000000002
 20
2.880671348306398
 30
0.0
  0
SPLINE
  5
CA
330
1F
100
AcDbEntity
  8
0
  6
Continuous
 62
   131
370
    15
100
AcDbSpline
210
0.0
220
0.0
230
1.0
 70
    24
 71
     3
 72
    12
 73
     8
 74
     0
 42
0.000000001
 43
0.00000001
 40
0.0
 40
0.0
 40
0.0
 40
0.0
 40
0.1013901563531727
 40
0.3672227659911533
 40
0.6330553756291343
 40
0.9213594049223278
 40
1.0
 40
1.0
 40
1.0
 40
1.0
 10
12.0
 20
6.989753682382663
 30
0.0
 10
12.00000000000001
 20
6.923113666875198
 30
0.0
 10
12.00000000000003
 20
6.68175166783555
 30
0.0
 10
12.00000000000001
 20
6.279513913744293
 30
0.0
 10
12.00000000000002
 20
5.804395921919325
 30
0.0
 10
12.00000000000002
 20
5.463634595990023
 30
0.0
 10
12.00000000000002
 20
5.311886327852837
 30
0.0
 10
12.00000000000002
 20
5.279364870074911
 30
0.0
  0
LINE
  5
CB
330
1F
100
AcDbEntity
  8
중심선
100
AcDbLine
 10
-50.99999999999999
 20
-0.0000000000000004
 30
0.0
 11
69.00000000000003
 21
0.0000000000000118
 31
0.0
  0
CIRCLE
  5
CC
330
1F
100
AcDbEntity
  8
외형선
100
AcDbCircle
 10
0.0000000000000104
 20
0.0
 30
0.0
 40
3.000000000000005
  0
INSERT
  5
CD
330
1F
100
AcDbEntity
  8
0
  6
Continuous
 62
     7
100
AcDbBlockReference
 66
     1
  2
블럭10
 10
-22.93944368806589
 20
-52.04609937292004
 30
0.0
  0
ATTRIB
  5
CE
330
CD
100
AcDbEntity
  8
FORMAT
 62
     2
100
AcDbText
 10
-39.05870472750145
 20
-49.97073246008785
 30
0.0
 40
4.233333333333333
  1
SEME7016050E [ 2 FLUTE ]
 41
0.75
  7
SLDTEXTSTYLE0
 11
-39.05870472750145
 21
-52.08739912675452
 31
0.0
100
AcDbAttribute
  2
AUTOATTR0
 70
     0
 74
     1
  0
SEQEND
  5
CF
330
CD
100
AcDbEntity
  8
0
  6
Continuous
 62
     7
  0
HATCH
  5
D0
330
1F
100
AcDbEntity
  8
중심선
100
AcDbHatch
 10
0.0
 20
0.0
 30
0.0
210
0.0
220
0.0
230
1.0
  2
SOLID
 70
     1
 71
     0
 91
        1
 92
        0
 93
        4
 72
     1
 10
-17.22453438368504
 20
-35.7989250712761
 11
-20.67080962752232
 21
-35.7989250712761
 72
     1
 10
-20.67080962752232
 20
-35.7989250712761
 11
-22.79903948672635
 21
-38.3352506518487
 72
     1
 10
-22.79903948672635
 20
-38.3352506518487
 11
-19.35273115777591
 21
-38.33521122254621
 72
     1
 10
-19.35273115777591
 20
-38.33521122254621
 11
-17.22453438368504
 21
-35.7989250712761
 97
        0
 75
     0
 76
     1
 98
        1
 10
0.0
 20
0.0
  0
HATCH
  5
D1
330
1F
100
AcDbEntity
  8
중심선
100
AcDbHatch
 10
0.0
 20
0.0
 30
0.0
210
0.0
220
0.0
230
1.0
  2
SOLID
 70
     1
 71
     0
 91
        1
 92
        0
 93
        4
 72
     1
 10
-12.21177039264909
 20
-35.7989250712761
 11
-15.65804563648637
 21
-35.7989250712761
 72
     1
 10
-15.65804563648637
 20
-35.7989250712761
 11
-20.18918364484376
 21
-41.19892507127612
 72
     1
 10
-20.18918364484376
 20
-41.19892507127612
 11
-16.74290840100648
 21
-41.19892507127612
 72
     1
 10
-16.74290840100648
 20
-41.19892507127612
 11
-12.21177039264909
 21
-35.7989250712761
 97
        0
 75
     0
 76
     1
 98
        1
 10
0.0
 20
0.0
  0
HATCH
  5
D2
330
1F
100
AcDbEntity
  8
중심선
100
AcDbHatch
 10
0.0
 20
0.0
 30
0.0
210
0.0
220
0.0
230
1.0
  2
SOLID
 70
     1
 71
     0
 91
        1
 92
        0
 93
        4
 72
     1
 10
-7.199006401613195
 20
-35.79892507127613
 11
-10.64528164545031
 21
-35.7989250712761
 72
     1
 10
-10.64528164545031
 20
-35.7989250712761
 11
-17.69371854733956
 21
-44.19892507127612
 72
     1
 10
-17.69371854733956
 20
-44.19892507127612
 11
-14.24744330350228
 21
-44.19892507127612
 72
     1
 10
-14.24744330350228
 20
-44.19892507127612
 11
-7.199006401613195
 21
-35.79892507127613
 97
        0
 75
     0
 76
     1
 98
        1
 10
0.0
 20
0.0
  0
HATCH
  5
D3
330
1F
100
AcDbEntity
  8
중심선
100
AcDbHatch
 10
0.0
 20
0.0
 30
0.0
210
0.0
220
0.0
230
1.0
  2
SOLID
 70
     1
 71
     0
 91
        1
 92
        0
 93
        6
 72
     3
 10
-2.399115970600996
 20
-39.99892507132738
 11
3.960054785062284
 21
1.540850780301639E-10
 40
0.3939339440162633
 50
17.09539180608433
 51
320.0019657685079
 73
     0
 72
     1
 10
-0.7161163149004002
 20
-38.58681907591441
 11
1.589185558800638
 21
-36.65249236586649
 72
     3
 10
-2.399115970653842
 20
-39.99892507127625
 11
6.600054785286829
 21
-1.249000902703301E-13
 40
0.6363583540795982
 50
39.99873849337408
 51
368.4976242363725
 73
     1
 72
     1
 10
4.026216521246767
 20
-39.03892507120613
 11
-3.71904866381792
 21
-39.0389250712061
 72
     1
 10
-3.71904866381792
 20
-39.0389250712061
 11
-3.719073708263854
 21
-40.95892507120602
 72
     1
 10
-3.719073708263854
 20
-40.95892507120602
 11
0.7223060612081831
 21
-40.95892507120599
 97
        0
 75
     0
 76
     1
 98
        1
 10
0.0
 20
0.0
  0
DIMENSION
  5
D4
330
1F
100
AcDbEntity
  8
치수문자_일반주서
100
AcDbDimension
  2
_D
 10
78.66664922099494
 20
8.000000000000249
 30
0.0
 11
78.6666492209949
 21
18.54150000000025
 31
0.0
 70
   160
  1
%%c<>
 71
     2
 42
15.99999999999999
 52
-270.0
  3
SLDDIMSTYLE0
100
AcDbAlignedDimension
 13
61.99999999999999
 23
-7.999999999999804
 33
0.0
 14
61.99999999999972
 24
8.000000000000185
 34
0.0
 50
90.0000000000002
100
AcDbRotatedDimension
  0
DIMENSION
  5
E2
330
1F
100
AcDbEntity
  8
치수문자_일반주서
100
AcDbDimension
  2
_D_1
 10
61.9999999999997
 20
28.7884104402427
 30
0.0
 11
6.999999999999869
 21
28.7884104402427
 31
0.0
 70
   160
  1
<>
 71
     2
 42
109.9999999999997
  3
SLDDIMSTYLE1
100
AcDbAlignedDimension
 13
-47.99999999999999
 23
6.999999999999999
 33
0.0
 14
61.99999999999972
 24
8.000000000000185
 34
0.0
 50
-0.0000000000000037
100
AcDbRotatedDimension
  0
DIMENSION
  5
ED
330
1F
100
AcDbEntity
  8
치수문자_일반주서
100
AcDbDimension
  2
_D_2
 10
61.99999999999972
 20
18.62636267656356
 30
0.0
 11
37.00000000000003
 21
18.62636267656356
 31
0.0
 70
   160
  1
<>
 71
     2
 42
49.99999999999972
  3
SLDDIMSTYLE1
100
AcDbAlignedDimension
 13
12.0
 23
6.989753682382663
 33
0.0
 14
61.99999999999972
 24
8.000000000000185
 34
0.0
 50
-0.0000000000000489
100
AcDbRotatedDimension
  0
DIMENSION
  5
F7
330
1F
100
AcDbEntity
  8
치수문자_일반주서
100
AcDbDimension
  2
_D_3
 10
-59.5823953134612
 20
-8.000000000000043
 30
0.0
 11
-59.58239531346129
 21
18.54149999999995
 31
0.0
 70
   160
  1
%%c<>
 71
     2
 42
16.0
 52
-270.0
  3
SLDDIMSTYLE0
100
AcDbAlignedDimension
 13
-46.99999999999999
 23
8.0
 33
0.0
 14
-46.99999999999999
 24
-7.999999999999996
 34
0.0
 50
90.0000000000002
100
AcDbRotatedDimension
  0
INSERT
  5
10A
330
1F
100
AcDbEntity
  8
외형선
100
AcDbBlockReference
  2
SW_DOWELSYMBOL_0
 10
0.0000000000000104
 20
0.0
 30
0.0
  0
ENDSEC
  0
SECTION
  2
OBJECTS
  0
DICTIONARY
  5
C
330
0
100
AcDbDictionary
281
     1
  3
ACAD_GROUP
350
D
  3
ACAD_IMAGE_VARS
350
12E
  3
ACAD_LAYOUT
350
1A
  3
ACAD_MLINESTYLE
350
17
  3
ACAD_PLOTSETTINGS
350
19
  3
ACAD_PLOTSTYLENAME
350
E
  3
ACAD_SCALELIST
350
47
  3
APPDATA
350
12C
  3
DWGPROPS
350
13C
  0
DICTIONARY
  5
D
102
{ACAD_REACTORS
330
C
102
}
330
C
100
AcDbDictionary
281
     1
  0
RASTERVARIABLES
  5
12E
102
{ACAD_REACTORS
330
C
102
}
330
C
100
AcDbRasterVariables
 90
        0
 70
     1
 71
     1
 72
     1
  0
DICTIONARY
  5
1A
102
{ACAD_REACTORS
330
C
102
}
330
C
100
AcDbDictionary
281
     1
  3
Layout1
350
1E
  3
Layout2
350
26
  3
Model
350
22
  0
DICTIONARY
  5
17
102
{ACAD_REACTORS
330
C
102
}
330
C
100
AcDbDictionary
281
     1
  3
Standard
350
18
  0
DICTIONARY
  5
19
102
{ACAD_REACTORS
330
C
102
}
330
C
100
AcDbDictionary
281
     1
  0
ACDBDICTIONARYWDFLT
  5
E
102
{ACAD_REACTORS
330
C
102
}
330
C
100
AcDbDictionary
281
     1
  3
Normal
350
F
100
AcDbDictionaryWithDefault
340
F
  0
DICTIONARY
  5
47
102
{ACAD_REACTORS
330
C
102
}
330
C
100
AcDbDictionary
281
     1
  3
A0
350
48
  3
A1
350
49
  3
A2
350
4A
  3
A3
350
4B
  3
A4
350
4C
  3
A5
350
4D
  3
A6
350
4E
  3
A7
350
4F
  3
A8
350
50
  3
A9
350
51
  3
B0
350
52
  3
B1
350
53
  3
B2
350
54
  3
B3
350
55
  3
B4
350
56
  3
B5
350
57
  3
B6
350
58
  3
B7
350
59
  3
B8
350
5A
  3
B9
350
5B
  3
C0
350
5C
  3
C1
350
5D
  3
C2
350
5E
  3
C3
350
5F
  3
C4
350
60
  3
C5
350
61
  3
C6
350
62
  3
C7
350
63
  3
C8
350
64
  3
C9
350
65
  3
D0
350
66
  3
D1
350
67
  3
D2
350
68
  0
DICTIONARY
  5
12C
102
{ACAD_REACTORS
330
C
102
}
330
C
100
AcDbDictionary
281
     1
  0
XRECORD
  5
13C
102
{ACAD_REACTORS
330
C
102
}
330
C
100
AcDbXrecord
280
     1
  1
DWGPROPS COOKIE
  2

  3

  4

  6

  7

  8
12014102
  9

300
=
301
=
302
=
303
=
304
=
305
=
306
=
307
=
308
=
309
=
 40
0.0
 41
2458262.175740602
 42
2458266.178811007
  1

 90
        0
  0
LAYOUT
  5
1E
102
{ACAD_REACTORS
330
1A
102
}
330
1A
100
AcDbPlotSettings
  1

  2
none_device
  4

  6

 40
0.0
 41
0.0
 42
0.0
 43
0.0
 44
0.0
 45
0.0
 46
0.0
 47
0.0
 48
0.0
 49
0.0
140
0.0
141
0.0
142
1.0
143
1.0
 70
   688
 72
     1
 73
     0
 74
     5
  7

 75
    16
147
1.0
148
0.0
149
0.0
100
AcDbLayout
  1
Layout1
 70
     1
 71
     1
 10
0.0
 20
0.0
 11
420.0
 21
297.0
 12
0.0
 22
0.0
 32
0.0
 14
1.000000000000000E+20
 24
1.000000000000000E+20
 34
1.000000000000000E+20
 15
-1.000000000000000E+20
 25
-1.000000000000000E+20
 35
-1.000000000000000E+20
146
0.0
 13
0.0
 23
0.0
 33
0.0
 16
1.0
 26
0.0
 36
0.0
 17
0.0
 27
1.0
 37
0.0
 76
     0
330
1B
  0
LAYOUT
  5
26
102
{ACAD_REACTORS
330
1A
102
}
330
1A
100
AcDbPlotSettings
  1

  2
none_device
  4

  6

 40
0.0
 41
0.0
 42
0.0
 43
0.0
 44
0.0
 45
0.0
 46
0.0
 47
0.0
 48
0.0
 49
0.0
140
0.0
141
0.0
142
1.0
143
1.0
 70
   688
 72
     1
 73
     0
 74
     5
  7

 75
    16
147
1.0
148
0.0
149
0.0
100
AcDbLayout
  1
Layout2
 70
     1
 71
     2
 10
0.0
 20
0.0
 11
0.0
 21
0.0
 12
0.0
 22
0.0
 32
0.0
 14
0.0
 24
0.0
 34
0.0
 15
0.0
 25
0.0
 35
0.0
146
0.0
 13
0.0
 23
0.0
 33
0.0
 16
1.0
 26
0.0
 36
0.0
 17
0.0
 27
1.0
 37
0.0
 76
     0
330
23
  0
LAYOUT
  5
22
102
{ACAD_REACTORS
330
1A
102
}
330
1A
100
AcDbPlotSettings
  1

  2
none_device
  4
ANSI_A_(11.00_x_8.50_Inches)
  6

 40
6.35
 41
19.05
 42
6.35000508
 43
19.05000254
 44
279.4
 45
215.9
 46
129.0319724949912
 47
108.0044260409566
 48
0.0
 49
0.0
140
0.0
141
0.0
142
0.0863862919975999
143
1.0
 70
  1696
 72
     0
 73
     0
 74
     0
  7

 75
     0
147
0.0235690232323232
148
0.0
149
0.0
100
AcDbLayout
  1
Model
 70
     1
 71
     0
 10
0.0
 20
0.0
 11
420.0
 21
297.0
 12
0.0
 22
0.0
 32
0.0
 14
-63.95739531346129
 24
-49.97073246008785
 34
0.0
 15
79.21698255432833
 25
33.1634104402427
 35
0.0
146
0.0
 13
0.0
 23
0.0
 33
0.0
 16
1.0
 26
0.0
 36
0.0
 17
0.0
 27
1.0
 37
0.0
 76
     0
330
1F
331
29
  0
MLINESTYLE
  5
18
102
{ACAD_REACTORS
330
17
102
}
330
17
100
AcDbMlineStyle
  2
Standard
 70
     0
  3

 62
   256
 51
90.0
 52
90.0
 71
     2
 49
0.5
 62
   256
  6
BYLAYER
 49
-0.5
 62
   256
  6
BYLAYER
  0
ACDBPLACEHOLDER
  5
F
102
{ACAD_REACTORS
330
E
102
}
330
E
  0
SCALE
  5
48
102
{ACAD_REACTORS
330
47
102
}
330
47
100
AcDbScale
 70
     0
300
1:1
140
1.0
141
1.0
290
     1
  0
SCALE
  5
49
102
{ACAD_REACTORS
330
47
102
}
330
47
100
AcDbScale
 70
     0
300
1:2
140
1.0
141
2.0
290
     0
  0
SCALE
  5
4A
102
{ACAD_REACTORS
330
47
102
}
330
47
100
AcDbScale
 70
     0
300
1:4
140
1.0
141
4.0
290
     0
  0
SCALE
  5
4B
102
{ACAD_REACTORS
330
47
102
}
330
47
100
AcDbScale
 70
     0
300
1:5
140
1.0
141
5.0
290
     0
  0
SCALE
  5
4C
102
{ACAD_REACTORS
330
47
102
}
330
47
100
AcDbScale
 70
     0
300
1:8
140
1.0
141
8.0
290
     0
  0
SCALE
  5
4D
102
{ACAD_REACTORS
330
47
102
}
330
47
100
AcDbScale
 70
     0
300
1:10
140
1.0
141
10.0
290
     0
  0
SCALE
  5
4E
102
{ACAD_REACTORS
330
47
102
}
330
47
100
AcDbScale
 70
     0
300
1:16
140
1.0
141
16.0
290
     0
  0
SCALE
  5
4F
102
{ACAD_REACTORS
330
47
102
}
330
47
100
AcDbScale
 70
     0
300
1:20
140
1.0
141
20.0
290
     0
  0
SCALE
  5
50
102
{ACAD_REACTORS
330
47
102
}
330
47
100
AcDbScale
 70
     0
300
1:30
140
1.0
141
30.0
290
     0
  0
SCALE
  5
51
102
{ACAD_REACTORS
330
47
102
}
330
47
100
AcDbScale
 70
     0
300
1:40
140
1.0
141
40.0
290
     0
  0
SCALE
  5
52
102
{ACAD_REACTORS
330
47
102
}
330
47
100
AcDbScale
 70
     0
300
1:50
140
1.0
141
50.0
290
     0
  0
SCALE
  5
53
102
{ACAD_REACTORS
330
47
102
}
330
47
100
AcDbScale
 70
     0
300
1:100
140
1.0
141
100.0
290
     0
  0
SCALE
  5
54
102
{ACAD_REACTORS
330
47
102
}
330
47
100
AcDbScale
 70
     0
300
2:1
140
2.0
141
1.0
290
     0
  0
SCALE
  5
55
102
{ACAD_REACTORS
330
47
102
}
330
47
100
AcDbScale
 70
     0
300
4:1
140
4.0
141
1.0
290
     0
  0
SCALE
  5
56
102
{ACAD_REACTORS
330
47
102
}
330
47
100
AcDbScale
 70
     0
300
8:1
140
8.0
141
1.0
290
     0
  0
SCALE
  5
57
102
{ACAD_REACTORS
330
47
102
}
330
47
100
AcDbScale
 70
     0
300
10:1
140
10.0
141
1.0
290
     0
  0
SCALE
  5
58
102
{ACAD_REACTORS
330
47
102
}
330
47
100
AcDbScale
 70
     0
300
100:1
140
100.0
141
1.0
290
     0
  0
SCALE
  5
59
102
{ACAD_REACTORS
330
47
102
}
330
47
100
AcDbScale
 70
     0
300
1/128" = 1'-0"
140
0.0078125
141
12.0
290
     0
  0
SCALE
  5
5A
102
{ACAD_REACTORS
330
47
102
}
330
47
100
AcDbScale
 70
     0
300
1/64" = 1'-0"
140
0.015625
141
12.0
290
     0
  0
SCALE
  5
5B
102
{ACAD_REACTORS
330
47
102
}
330
47
100
AcDbScale
 70
     0
300
1/32" = 1'-0"
140
0.03125
141
12.0
290
     0
  0
SCALE
  5
5C
102
{ACAD_REACTORS
330
47
102
}
330
47
100
AcDbScale
 70
     0
300
1/16" = 1'-0"
140
0.0625
141
12.0
290
     0
  0
SCALE
  5
5D
102
{ACAD_REACTORS
330
47
102
}
330
47
100
AcDbScale
 70
     0
300
3/32" = 1'-0"
140
0.09375
141
12.0
290
     0
  0
SCALE
  5
5E
102
{ACAD_REACTORS
330
47
102
}
330
47
100
AcDbScale
 70
     0
300
1/8" = 1'-0"
140
0.125
141
12.0
290
     0
  0
SCALE
  5
5F
102
{ACAD_REACTORS
330
47
102
}
330
47
100
AcDbScale
 70
     0
300
3/16" = 1'-0"
140
0.1875
141
12.0
290
     0
  0
SCALE
  5
60
102
{ACAD_REACTORS
330
47
102
}
330
47
100
AcDbScale
 70
     0
300
1/4" = 1'-0"
140
0.25
141
12.0
290
     0
  0
SCALE
  5
61
102
{ACAD_REACTORS
330
47
102
}
330
47
100
AcDbScale
 70
     0
300
3/8" = 1'-0"
140
0.375
141
12.0
290
     0
  0
SCALE
  5
62
102
{ACAD_REACTORS
330
47
102
}
330
47
100
AcDbScale
 70
     0
300
1/2" = 1'-0"
140
0.5
141
12.0
290
     0
  0
SCALE
  5
63
102
{ACAD_REACTORS
330
47
102
}
330
47
100
AcDbScale
 70
     0
300
3/4" = 1'-0"
140
0.75
141
12.0
290
     0
  0
SCALE
  5
64
102
{ACAD_REACTORS
330
47
102
}
330
47
100
AcDbScale
 70
     0
300
1" = 1'-0"
140
1.0
141
12.0
290
     0
  0
SCALE
  5
65
102
{ACAD_REACTORS
330
47
102
}
330
47
100
AcDbScale
 70
     0
300
1-1/2" = 1'-0"
140
1.5
141
12.0
290
     0
  0
SCALE
  5
66
102
{ACAD_REACTORS
330
47
102
}
330
47
100
AcDbScale
 70
     0
300
3" = 1'-0"
140
3.0
141
12.0
290
     0
  0
SCALE
  5
67
102
{ACAD_REACTORS
330
47
102
}
330
47
100
AcDbScale
 70
     0
300
6" = 1'-0"
140
6.0
141
12.0
290
     0
  0
SCALE
  5
68
102
{ACAD_REACTORS
330
47
102
}
330
47
100
AcDbScale
 70
     0
300
1'-0" = 1'-0"
140
12.0
141
12.0
290
     0
  0
ENDSEC
  0
EOF
