  0
SECTION
  2
HEADER
  9
$ACADVER
  1
AC1015
  9
$ACADMAINTVER
 70
     6
  9
$DWGCODEPAGE
  3
ANSI_949
  9
$INSBASE
 10
0.0
 20
0.0
 30
0.0
  9
$EXTMIN
 10
-132.9462558901471
 20
-49.97073246008785
 30
0.0
  9
$EXTMAX
 10
151.2781379534666
 20
33.16341044024269
 30
0.0
  9
$LIMMIN
 10
0.0
 20
0.0
  9
$LIMMAX
 10
420.0
 20
297.0
  9
$ORTHOMODE
 70
     0
  9
$REGENMODE
 70
     1
  9
$FILLMODE
 70
     1
  9
$QTEXTMODE
 70
     0
  9
$MIRRTEXT
 70
     1
  9
$LTSCALE
 40
1.0
  9
$ATTMODE
 70
     1
  9
$TEXTSIZE
 40
3.5
  9
$TRACEWID
 40
1.0
  9
$TEXTSTYLE
  7
Standard
  9
$CLAYER
  8
0
  9
$CELTYPE
  6
ByLayer
  9
$CECOLOR
 62
   256
  9
$CELTSCALE
 40
1.0
  9
$DISPSILH
 70
     0
  9
$DIMSCALE
 40
1.0
  9
$DIMASZ
 40
3.302
  9
$DIMEXO
 40
1.0
  9
$DIMDLI
 40
3.75
  9
$DIMRND
 40
0.0
  9
$DIMDLE
 40
0.0
  9
$DIMEXE
 40
1.0
  9
$DIMTP
 40
0.0
  9
$DIMTM
 40
0.0
  9
$DIMTXT
 40
3.5
  9
$DIMCEN
 40
2.5
  9
$DIMTSZ
 40
0.0
  9
$DIMTOL
 70
     0
  9
$DIMLIM
 70
     0
  9
$DIMTIH
 70
     1
  9
$DIMTOH
 70
     1
  9
$DIMSE1
 70
     0
  9
$DIMSE2
 70
     0
  9
$DIMTAD
 70
     1
  9
$DIMZIN
 70
     0
  9
$DIMBLK
  1

  9
$DIMASO
 70
     1
  9
$DIMSHO
 70
     1
  9
$DIMPOST
  1

  9
$DIMAPOST
  1

  9
$DIMALT
 70
     0
  9
$DIMALTD
 70
     3
  9
$DIMALTF
 40
0.0393700787401575
  9
$DIMLFAC
 40
1.0
  9
$DIMTOFL
 70
     1
  9
$DIMTVP
 40
0.0
  9
$DIMTIX
 70
     0
  9
$DIMSOXD
 70
     0
  9
$DIMSAH
 70
     0
  9
$DIMBLK1
  1

  9
$DIMBLK2
  1

  9
$DIMSTYLE
  2
ISO-25
  9
$DIMCLRD
 70
     0
  9
$DIMCLRE
 70
     0
  9
$DIMCLRT
 70
     0
  9
$DIMTFAC
 40
1.0
  9
$DIMGAP
 40
1.524
  9
$DIMJUST
 70
     0
  9
$DIMSD1
 70
     0
  9
$DIMSD2
 70
     0
  9
$DIMTOLJ
 70
     0
  9
$DIMTZIN
 70
     0
  9
$DIMALTZ
 70
     0
  9
$DIMALTTZ
 70
     0
  9
$DIMUPT
 70
     0
  9
$DIMDEC
 70
     2
  9
$DIMTDEC
 70
     2
  9
$DIMALTU
 70
     2
  9
$DIMALTTD
 70
     3
  9
$DIMTXSTY
  7
Standard
  9
$DIMAUNIT
 70
     0
  9
$DIMADEC
 70
     2
  9
$DIMALTRND
 40
0.0
  9
$DIMAZIN
 70
     0
  9
$DIMDSEP
 70
    44
  9
$DIMATFIT
 70
     3
  9
$DIMFRAC
 70
     0
  9
$DIMLDRBLK
  1

  9
$DIMLUNIT
 70
     2
  9
$DIMLWD
 70
    -2
  9
$DIMLWE
 70
    -2
  9
$DIMTMOVE
 70
     0
  9
$LUNITS
 70
     2
  9
$LUPREC
 70
     2
  9
$SKETCHINC
 40
1.0
  9
$FILLETRAD
 40
10.0
  9
$AUNITS
 70
     0
  9
$AUPREC
 70
     2
  9
$MENU
  1
.
  9
$ELEVATION
 40
0.0
  9
$PELEVATION
 40
0.0
  9
$THICKNESS
 40
0.0
  9
$LIMCHECK
 70
     0
  9
$CHAMFERA
 40
0.0
  9
$CHAMFERB
 40
0.0
  9
$CHAMFERC
 40
0.0
  9
$CHAMFERD
 40
0.0
  9
$SKPOLY
 70
     0
  9
$TDCREATE
 40
2458262.550177407
  9
$TDUCREATE
 40
2458262.175177407
  9
$TDUPDATE
 40
2458266.622060197
  9
$TDUUPDATE
 40
2458266.247060197
  9
$TDINDWG
 40
0.0018229398
  9
$TDUSRTIMER
 40
2458266.245237326
  9
$USRTIMER
 70
     1
  9
$ANGBASE
 50
0.0
  9
$ANGDIR
 70
     0
  9
$PDMODE
 70
     0
  9
$PDSIZE
 40
-1.0
  9
$PLINEWID
 40
0.0
  9
$SPLFRAME
 70
     0
  9
$SPLINETYPE
 70
     6
  9
$SPLINESEGS
 70
     8
  9
$HANDSEED
  5
156
  9
$SURFTAB1
 70
     6
  9
$SURFTAB2
 70
     6
  9
$SURFTYPE
 70
     6
  9
$SURFU
 70
     6
  9
$SURFV
 70
     6
  9
$UCSBASE
  2

  9
$UCSNAME
  2

  9
$UCSORG
 10
0.0
 20
0.0
 30
0.0
  9
$UCSXDIR
 10
1.0
 20
0.0
 30
0.0
  9
$UCSYDIR
 10
0.0
 20
1.0
 30
0.0
  9
$UCSORTHOREF
  2

  9
$UCSORTHOVIEW
 70
     0
  9
$UCSORGTOP
 10
0.0
 20
0.0
 30
0.0
  9
$UCSORGBOTTOM
 10
0.0
 20
0.0
 30
0.0
  9
$UCSORGLEFT
 10
0.0
 20
0.0
 30
0.0
  9
$UCSORGRIGHT
 10
0.0
 20
0.0
 30
0.0
  9
$UCSORGFRONT
 10
0.0
 20
0.0
 30
0.0
  9
$UCSORGBACK
 10
0.0
 20
0.0
 30
0.0
  9
$PUCSBASE
  2

  9
$PUCSNAME
  2

  9
$PUCSORG
 10
0.0
 20
0.0
 30
0.0
  9
$PUCSXDIR
 10
1.0
 20
0.0
 30
0.0
  9
$PUCSYDIR
 10
0.0
 20
1.0
 30
0.0
  9
$PUCSORTHOREF
  2

  9
$PUCSORTHOVIEW
 70
     0
  9
$PUCSORGTOP
 10
0.0
 20
0.0
 30
0.0
  9
$PUCSORGBOTTOM
 10
0.0
 20
0.0
 30
0.0
  9
$PUCSORGLEFT
 10
0.0
 20
0.0
 30
0.0
  9
$PUCSORGRIGHT
 10
0.0
 20
0.0
 30
0.0
  9
$PUCSORGFRONT
 10
0.0
 20
0.0
 30
0.0
  9
$PUCSORGBACK
 10
0.0
 20
0.0
 30
0.0
  9
$USERI1
 70
     0
  9
$USERI2
 70
     0
  9
$USERI3
 70
     0
  9
$USERI4
 70
     0
  9
$USERI5
 70
     0
  9
$USERR1
 40
0.0
  9
$USERR2
 40
0.0
  9
$USERR3
 40
0.0
  9
$USERR4
 40
0.0
  9
$USERR5
 40
0.0
  9
$WORLDVIEW
 70
     1
  9
$SHADEDGE
 70
     3
  9
$SHADEDIF
 70
    70
  9
$TILEMODE
 70
     1
  9
$MAXACTVP
 70
    64
  9
$PINSBASE
 10
0.0
 20
0.0
 30
0.0
  9
$PLIMCHECK
 70
     0
  9
$PEXTMIN
 10
1.000000000000000E+20
 20
1.000000000000000E+20
 30
1.000000000000000E+20
  9
$PEXTMAX
 10
-1.000000000000000E+20
 20
-1.000000000000000E+20
 30
-1.000000000000000E+20
  9
$PLIMMIN
 10
0.0
 20
0.0
  9
$PLIMMAX
 10
0.0
 20
0.0
  9
$UNITMODE
 70
     0
  9
$VISRETAIN
 70
     1
  9
$PLINEGEN
 70
     0
  9
$PSLTSCALE
 70
     1
  9
$TREEDEPTH
 70
  3020
  9
$CMLSTYLE
  2
Standard
  9
$CMLJUST
 70
     0
  9
$CMLSCALE
 40
20.0
  9
$PROXYGRAPHICS
 70
     1
  9
$MEASUREMENT
 70
     1
  9
$CELWEIGHT
370
    -1
  9
$ENDCAPS
280
     0
  9
$JOINSTYLE
280
     0
  9
$LWDISPLAY
290
     1
  9
$INSUNITS
 70
     4
  9
$HYPERLINKBASE
  1

  9
$STYLESHEET
  1

  9
$XEDIT
290
     1
  9
$CEPSNTYPE
380
     0
  9
$PSTYLEMODE
290
     1
  9
$FINGERPRINTGUID
  2
{F65269EC-49C1-47BD-8BA1-2009401A7168}
  9
$VERSIONGUID
  2
{FAEB1C32-E019-11D5-929B-00C0DF256EC4}
  9
$EXTNAMES
290
     1
  9
$PSVPSCALE
 40
0.0
  9
$OLESTARTUP
290
     0
  0
ENDSEC
  0
SECTION
  2
CLASSES
  0
CLASS
  1
ACDBDICTIONARYWDFLT
  2
AcDbDictionaryWithDefault
  3
ObjectDBX Classes
 90
        0
280
     0
281
     0
  0
CLASS
  1
VISUALSTYLE
  2
AcDbVisualStyle
  3
ObjectDBX Classes
 90
     4095
280
     0
281
     0
  0
CLASS
  1
MATERIAL
  2
AcDbMaterial
  3
ObjectDBX Classes
 90
     1153
280
     0
281
     0
  0
CLASS
  1
SCALE
  2
AcDbScale
  3
ObjectDBX Classes
 90
     1153
280
     0
281
     0
  0
CLASS
  1
SUN
  2
AcDbSun
  3
SCENEOE
 90
     1153
280
     0
281
     0
  0
CLASS
  1
ACDBPLACEHOLDER
  2
AcDbPlaceHolder
  3
ObjectDBX Classes
 90
        0
280
     0
281
     0
  0
CLASS
  1
LAYOUT
  2
AcDbLayout
  3
ObjectDBX Classes
 90
        0
280
     0
281
     0
  0
CLASS
  1
TABLESTYLE
  2
AcDbTableStyle
  3
ObjectDBX Classes
 90
     4095
280
     0
281
     0
  0
CLASS
  1
MLEADERSTYLE
  2
AcDbMLeaderStyle
  3
ACDB_MLEADERSTYLE_CLASS
 90
     4095
280
     0
281
     0
  0
CLASS
  1
RASTERVARIABLES
  2
AcDbRasterVariables
  3
ISM
 90
        0
280
     0
281
     0
  0
ENDSEC
  0
SECTION
  2
TABLES
  0
TABLE
  2
VPORT
  5
8
330
0
100
AcDbSymbolTable
 70
     1
  0
VPORT
  5
29
330
8
100
AcDbSymbolTableRecord
100
AcDbViewportTableRecord
  2
*Active
 70
     0
 10
0.0
 20
0.0
 11
1.0
 21
1.0
 12
9.165941031659742
 22
-8.40366100992258
 13
0.0
 23
0.0
 14
10.0
 24
10.0
 15
10.0
 25
10.0
 16
0.0
 26
0.0
 36
1.0
 17
0.0
 27
0.0
 37
0.0
 40
251.5577067843678
 41
1.152454780361757
 42
50.0
 43
0.0
 44
0.0
 50
0.0
 51
0.0
 71
    16
 72
  2000
 73
     1
 74
     3
 75
     0
 76
     0
 77
     0
 78
     0
281
     0
 65
     1
110
0.0
120
0.0
130
0.0
111
1.0
121
0.0
131
0.0
112
0.0
122
1.0
132
0.0
 79
     0
146
0.0
  0
ENDTAB
  0
TABLE
  2
LTYPE
  5
5
330
0
100
AcDbSymbolTable
 70
     6
  0
LTYPE
  5
14
330
5
100
AcDbSymbolTableRecord
100
AcDbLinetypeTableRecord
  2
ByBlock
 70
     0
  3

 72
    65
 73
     0
 40
0.0
  0
LTYPE
  5
15
330
5
100
AcDbSymbolTableRecord
100
AcDbLinetypeTableRecord
  2
ByLayer
 70
     0
  3

 72
    65
 73
     0
 40
0.0
  0
LTYPE
  5
16
330
5
100
AcDbSymbolTableRecord
100
AcDbLinetypeTableRecord
  2
Continuous
 70
     0
  3
Solid line
 72
    65
 73
     0
 40
0.0
  0
LTYPE
  5
6A
330
5
100
AcDbSymbolTableRecord
100
AcDbLinetypeTableRecord
  2
HIDDEN
 70
     0
  3
Hidden __ __ __ __ __ __ __ __ __ __ __ __ __ __
 72
    65
 73
     2
 40
1.905
 49
1.27
 74
     0
 49
-0.635
 74
     0
  0
LTYPE
  5
6B
330
5
100
AcDbSymbolTableRecord
100
AcDbLinetypeTableRecord
  2
PHANTOM
 70
     0
  3
Phantom ______  __  __  ______  __  __  ______
 72
    65
 73
     6
 40
12.7
 49
6.35
 74
     0
 49
-1.27
 74
     0
 49
1.27
 74
     0
 49
-1.27
 74
     0
 49
1.27
 74
     0
 49
-1.27
 74
     0
  0
LTYPE
  5
6C
330
5
100
AcDbSymbolTableRecord
100
AcDbLinetypeTableRecord
  2
CENTER
 70
     0
  3
Center ____ _ ____ _ ____ _ ____ _ ____ _ ____
 72
    65
 73
     4
 40
10.16
 49
6.35
 74
     0
 49
-1.27
 74
     0
 49
1.27
 74
     0
 49
-1.27
 74
     0
  0
LTYPE
  5
6D
330
5
100
AcDbSymbolTableRecord
100
AcDbLinetypeTableRecord
  2
CENTERX2
 70
     0
  3
Center (2x) ________  __  ________  __  _____
 72
    65
 73
     4
 40
20.32
 49
12.7
 74
     0
 49
-2.54
 74
     0
 49
2.54
 74
     0
 49
-2.54
 74
     0
  0
LTYPE
  5
6E
330
5
100
AcDbSymbolTableRecord
100
AcDbLinetypeTableRecord
  2
DOT2
 70
     0
  3
Dot (.5x) ........................................
 72
    65
 73
     2
 40
0.635
 49
0.0
 74
     0
 49
-0.635
 74
     0
  0
ENDTAB
  0
TABLE
  2
LAYER
  5
2
330
0
100
AcDbSymbolTable
 70
    17
  0
LAYER
  5
10
330
2
100
AcDbSymbolTableRecord
100
AcDbLayerTableRecord
  2
0
 70
     0
 62
     7
  6
Continuous
370
    -3
390
F
  0
LAYER
  5
6F
330
2
100
AcDbSymbolTableRecord
100
AcDbLayerTableRecord
  2
FORMAT
 70
     0
 62
     2
  6
Continuous
370
    -3
390
F
  0
LAYER
  5
70
330
2
100
AcDbSymbolTableRecord
100
AcDbLayerTableRecord
  2
외형선
 70
     0
 62
   100
  6
Continuous
370
    30
390
F
  0
LAYER
  5
71
330
2
100
AcDbSymbolTableRecord
100
AcDbLayerTableRecord
  2
숨은선
 70
     0
 62
     2
  6
HIDDEN
370
    15
390
F
  0
LAYER
  5
72
330
2
100
AcDbSymbolTableRecord
100
AcDbLayerTableRecord
  2
중심선
 70
     0
 62
     1
  6
CENTERX2
370
    -3
390
F
  0
LAYER
  5
73
330
2
100
AcDbSymbolTableRecord
100
AcDbLayerTableRecord
  2
파단선
 70
     0
 62
     4
  6
Continuous
370
    -3
390
F
  0
LAYER
  5
74
330
2
100
AcDbSymbolTableRecord
100
AcDbLayerTableRecord
  2
해칭선
 70
     0
 62
     4
  6
Continuous
370
    -3
390
F
  0
LAYER
  5
75
330
2
100
AcDbSymbolTableRecord
100
AcDbLayerTableRecord
  2
가는실선
 70
     0
 62
     4
  6
Continuous
370
    -3
390
F
  0
LAYER
  5
76
330
2
100
AcDbSymbolTableRecord
100
AcDbLayerTableRecord
  2
치수_보조선
 70
     0
 62
     4
  6
Continuous
370
    -3
390
F
  0
LAYER
  5
77
330
2
100
AcDbSymbolTableRecord
100
AcDbLayerTableRecord
  2
치수문자_일반주서
 70
     0
 62
     7
  6
Continuous
370
    15
390
F
  0
LAYER
  5
78
330
2
100
AcDbSymbolTableRecord
100
AcDbLayerTableRecord
  2
개별주서
 70
     0
 62
   100
  6
Continuous
370
    30
390
F
  0
LAYER
  5
79
330
2
100
AcDbSymbolTableRecord
100
AcDbLayerTableRecord
  2
중간선
 70
     0
 62
     2
  6
Continuous
370
    15
390
F
  0
LAYER
  5
7A
330
2
100
AcDbSymbolTableRecord
100
AcDbLayerTableRecord
  2
윤곽선
 70
     0
 62
     3
  6
Continuous
370
    40
390
F
  0
LAYER
  5
7B
330
2
100
AcDbSymbolTableRecord
100
AcDbLayerTableRecord
  2
중심마크
 70
     0
 62
   100
  6
Continuous
370
    30
390
F
  0
LAYER
  5
7C
330
2
100
AcDbSymbolTableRecord
100
AcDbLayerTableRecord
  2
가상선
 70
     0
 62
     4
  6
PHANTOM
370
    -3
390
F
  0
LAYER
  5
7D
330
2
100
AcDbSymbolTableRecord
100
AcDbLayerTableRecord
  2
특수지정선
 70
     0
 62
     5
  6
CENTERX2
370
    60
390
F
  0
LAYER
  5
146
330
2
100
AcDbSymbolTableRecord
100
AcDbLayerTableRecord
  2
Defpoints
 70
     0
 62
     7
  6
Continuous
290
     0
370
    -3
390
F
  0
ENDTAB
  0
TABLE
  2
STYLE
  5
3
330
0
100
AcDbSymbolTable
 70
     2
  0
STYLE
  5
11
330
3
100
AcDbSymbolTableRecord
100
AcDbTextStyleTableRecord
  2
Standard
 70
     0
 40
0.0
 41
1.0
 50
0.0
 71
     0
 42
3.5
  3
txt
  4

  0
STYLE
  5
93
330
3
100
AcDbSymbolTableRecord
100
AcDbTextStyleTableRecord
  2
SLDTEXTSTYLE0
 70
     0
 40
0.0
 41
0.75
 50
0.0
 71
     0
 42
3.5
  3
TXT
  4

  0
ENDTAB
  0
TABLE
  2
VIEW
  5
6
330
0
100
AcDbSymbolTable
 70
     0
  0
ENDTAB
  0
TABLE
  2
UCS
  5
7
330
0
100
AcDbSymbolTable
 70
     0
  0
ENDTAB
  0
TABLE
  2
APPID
  5
9
330
0
100
AcDbSymbolTable
 70
     1
  0
APPID
  5
12
330
9
100
AcDbSymbolTableRecord
100
AcDbRegAppTableRecord
  2
ACAD
 70
     0
  0
ENDTAB
  0
TABLE
  2
DIMSTYLE
  5
A
330
0
100
AcDbSymbolTable
 70
     3
100
AcDbDimStyleTable
  0
DIMSTYLE
105
27
330
A
100
AcDbSymbolTableRecord
100
AcDbDimStyleTableRecord
  2
ISO-25
 70
     0
 41
2.5
 42
0.625
 43
3.75
 44
1.25
 73
     0
 74
     0
 77
     1
 78
     8
140
2.5
141
2.5
143
0.03937007874016
147
0.625
171
     3
172
     1
178
     0
271
     2
272
     2
274
     3
278
    44
283
     0
284
     8
340
11
  0
DIMSTYLE
105
EC
102
{ACAD_REACTORS
330
EB
330
10E
102
}
330
A
100
AcDbSymbolTableRecord
100
AcDbDimStyleTableRecord
  2
SLDDIMSTYLE0
 70
     0
 41
3.302
 44
0.0
 45
0.000000001
 73
     0
 74
     0
 77
     1
 78
    12
 79
     3
140
3.5
147
0.875
172
     1
173
     1
178
     0
271
     2
272
     2
276
     2
284
    12
289
     0
340
93
  0
DIMSTYLE
105
FA
102
{ACAD_REACTORS
330
F9
330
104
102
}
330
A
100
AcDbSymbolTableRecord
100
AcDbDimStyleTableRecord
  2
SLDDIMSTYLE1
 70
     0
 41
3.302
 44
0.0
 45
0.000000001
 73
     0
 74
     0
 77
     1
 78
    12
 79
     3
140
3.5
147
0.875
173
     1
178
     0
271
     2
272
     2
276
     2
284
    12
340
93
  0
ENDTAB
  0
TABLE
  2
BLOCK_RECORD
  5
1
330
0
100
AcDbSymbolTable
 70
     7
  0
BLOCK_RECORD
  5
1F
330
1
100
AcDbSymbolTableRecord
100
AcDbBlockTableRecord
  2
*Model_Space
340
22
  0
BLOCK_RECORD
  5
1B
330
1
100
AcDbSymbolTableRecord
100
AcDbBlockTableRecord
  2
*Paper_Space
340
1E
  0
BLOCK_RECORD
  5
23
330
1
100
AcDbSymbolTableRecord
100
AcDbBlockTableRecord
  2
*Paper_Space0
340
26
  0
BLOCK_RECORD
  5
7E
330
1
100
AcDbSymbolTableRecord
100
AcDbBlockTableRecord
  2
블럭10
340
0
102
{BLKREFS
331
E4
102
}
  0
BLOCK_RECORD
  5
ED
330
1
100
AcDbSymbolTableRecord
100
AcDbBlockTableRecord
  2
_D
340
0
  0
BLOCK_RECORD
  5
FB
330
1
100
AcDbSymbolTableRecord
100
AcDbBlockTableRecord
  2
_D_1
340
0
  0
BLOCK_RECORD
  5
105
330
1
100
AcDbSymbolTableRecord
100
AcDbBlockTableRecord
  2
_D_2
340
0
  0
BLOCK_RECORD
  5
10F
330
1
100
AcDbSymbolTableRecord
100
AcDbBlockTableRecord
  2
_D_3
340
0
  0
BLOCK_RECORD
  5
11B
330
1
100
AcDbSymbolTableRecord
100
AcDbBlockTableRecord
  2
SW_DOWELSYMBOL_0
340
0
102
{BLKREFS
331
121
102
}
  0
ENDTAB
  0
ENDSEC
  0
SECTION
  2
BLOCKS
  0
BLOCK
  5
20
330
1F
100
AcDbEntity
  8
0
100
AcDbBlockBegin
  2
*Model_Space
 70
     0
 10
0.0
 20
0.0
 30
0.0
  3
*Model_Space
  1

  0
ENDBLK
  5
21
330
1F
100
AcDbEntity
  8
0
100
AcDbBlockEnd
  0
BLOCK
  5
1C
330
1B
100
AcDbEntity
 67
     1
  8
0
100
AcDbBlockBegin
  2
*Paper_Space
 70
     0
 10
0.0
 20
0.0
 30
0.0
  3
*Paper_Space
  1

  0
ENDBLK
  5
1D
330
1B
100
AcDbEntity
 67
     1
  8
0
100
AcDbBlockEnd
  0
BLOCK
  5
24
330
23
100
AcDbEntity
  8
0
100
AcDbBlockBegin
  2
*Paper_Space0
 70
     0
 10
0.0
 20
0.0
 30
0.0
  3
*Paper_Space0
  1

  0
ENDBLK
  5
25
330
23
100
AcDbEntity
  8
0
100
AcDbBlockEnd
  0
BLOCK
  5
7F
330
7E
100
AcDbEntity
  8
0
100
AcDbBlockBegin
  2
블럭10
 70
     2
 10
0.0
 20
0.0
 30
0.0
  3
블럭10
  1

  0
ELLIPSE
  5
81
330
7E
100
AcDbEntity
  8
중심선
100
AcDbEllipse
 10
20.54032771741204
 20
12.0471743016438
 30
0.0
 11
6.600054785286829
 21
-1.261213355974178E-13
 31
0.0
210
0.0
220
0.0
230
1.0
 40
0.636358354079598
 41
0.9219305317359503
 42
6.513795318482858
  0
ELLIPSE
  5
82
330
7E
100
AcDbEntity
  8
중심선
100
AcDbEllipse
 10
20.54032771746488
 20
12.04717430159265
 30
0.0
 11
3.960054785062283
 21
1.540847449632565E-10
 31
0.0
210
0.0
220
0.0
230
1.0
 40
0.3939339440162632
 41
1.131841032648279
 42
5.62031148352944
  0
LINE
  5
83
330
7E
100
AcDbEntity
  8
중심선
100
AcDbLine
 10
2.268634060543552
 20
16.24717430164393
 30
0.0
 11
5.714909304380834
 21
16.24717430164393
 31
0.0
  0
LINE
  5
84
330
7E
100
AcDbEntity
  8
중심선
100
AcDbLine
 10
5.245725140726316
 20
7.84717430164391
 30
0.0
 11
8.692000384563599
 21
7.84717430164391
 31
0.0
  0
LINE
  5
85
330
7E
100
AcDbEntity
  8
중심선
100
AcDbLine
 10
15.74043728645272
 20
16.24717430164393
 30
0.0
 11
8.692000384563599
 21
7.84717430164391
 31
0.0
  0
LINE
  5
86
330
7E
100
AcDbEntity
  8
중심선
100
AcDbLine
 10
0.1404042013395286
 20
13.71084872107135
 30
0.0
 11
3.58671253028996
 21
13.71088815037384
 31
0.0
  0
LINE
  5
87
330
7E
100
AcDbEntity
  8
중심선
100
AcDbLine
 10
2.750260043222114
 20
10.84717430164391
 30
0.0
 11
6.196535287059397
 21
10.84717430164391
 31
0.0
  0
LINE
  5
88
330
7E
100
AcDbEntity
  8
중심선
100
AcDbLine
 10
12.29416204261559
 20
16.24717430164393
 30
0.0
 11
5.245725140726316
 21
7.84717430164391
 31
0.0
  0
LINE
  5
89
330
7E
100
AcDbEntity
  8
중심선
100
AcDbLine
 10
10.72767329541681
 20
16.24717430164393
 30
0.0
 11
6.196535287059397
 21
10.84717430164391
 31
0.0
  0
LINE
  5
8A
330
7E
100
AcDbEntity
  8
중심선
100
AcDbLine
 10
7.28139805157953
 20
16.24717430164393
 30
0.0
 11
2.750260043222114
 21
10.84717430164391
 31
0.0
  0
LINE
  5
8B
330
7E
100
AcDbEntity
  8
중심선
100
AcDbLine
 10
5.714909304380834
 20
16.24717430164393
 30
0.0
 11
3.58671253028996
 21
13.71088815037384
 31
0.0
  0
LINE
  5
8C
330
7E
100
AcDbEntity
  8
중심선
100
AcDbLine
 10
2.268634060543552
 20
16.24717430164393
 30
0.0
 11
0.1404042013395286
 21
13.71084872107135
 31
0.0
  0
LINE
  5
8D
330
7E
100
AcDbEntity
  8
중심선
100
AcDbLine
 10
7.28139805157953
 20
16.24717430164393
 30
0.0
 11
10.72767329541681
 21
16.24717430164393
 31
0.0
  0
LINE
  5
8E
330
7E
100
AcDbEntity
  8
중심선
100
AcDbLine
 10
12.29416204261559
 20
16.24717430164393
 30
0.0
 11
15.74043728645272
 21
16.24717430164393
 31
0.0
  0
LINE
  5
8F
330
7E
100
AcDbEntity
  8
중심선
100
AcDbLine
 10
19.22036997980202
 20
11.08717430171403
 30
0.0
 11
23.66174974927406
 21
11.08717430171406
 31
0.0
  0
LINE
  5
90
330
7E
100
AcDbEntity
  8
중심선
100
AcDbLine
 10
19.22039502424796
 20
13.00717430171391
 30
0.0
 11
19.22036997980202
 21
11.08717430171403
 31
0.0
  0
LINE
  5
91
330
7E
100
AcDbEntity
  8
중심선
100
AcDbLine
 10
19.22039502424796
 20
13.00717430171391
 30
0.0
 11
26.96566020931264
 21
13.00717430171391
 31
0.0
  0
LINE
  5
92
330
7E
100
AcDbEntity
  8
중심선
100
AcDbLine
 10
22.22332737316547
 20
13.45928029700563
 30
0.0
 11
24.52862924686651
 21
15.39360700705356
 31
0.0
  0
ATTDEF
  5
94
330
7E
100
AcDbEntity
  8
FORMAT
 62
     2
100
AcDbText
 10
-17.69892196172445
 20
2.075366912832191
 30
0.0
 40
4.233333333333333
  1
SEME70160120E [ 2 FLUTE ]
 41
0.75
  7
SLDTEXTSTYLE0
 11
-17.69892196172445
 21
-0.0412997538344756
 31
0.0
100
AcDbAttributeDefinition
  3

  2
AUTOATTR0
 70
     0
 74
     1
  0
ENDBLK
  5
80
330
7E
100
AcDbEntity
  8
0
100
AcDbBlockEnd
  0
BLOCK
  5
EE
330
ED
100
AcDbEntity
  8
0
100
AcDbBlockBegin
  2
_D
 70
     0
 10
0.0
 20
0.0
 30
0.0
  3
_D
  1

  0
LINE
  5
F0
330
ED
100
AcDbEntity
  8
치수문자_일반주서
 62
     0
370
    -2
100
AcDbLine
 10
132.0625
 20
-7.99999999999998
 30
0.0
 11
150.7278046201332
 21
-7.999999999999908
 31
0.0
  0
LINE
  5
F1
330
ED
100
AcDbEntity
  8
치수문자_일반주서
 62
     0
370
    -2
100
AcDbLine
 10
132.0624999999995
 20
8.000000000000021
 30
0.0
 11
150.7278046201332
 21
8.000000000000092
 31
0.0
  0
LINE
  5
F2
330
ED
100
AcDbEntity
  8
치수문자_일반주서
 62
     0
370
    -2
100
AcDbLine
 10
150.7278046201332
 20
-7.999999999999908
 30
0.0
 11
150.7278046201332
 21
22.47900000000009
 31
0.0
  0
LINE
  5
F3
330
ED
100
AcDbEntity
  8
치수문자_일반주서
 62
     0
370
    -2
100
AcDbLine
 10
150.7278046201332
 20
-7.999999999999908
 30
0.0
 11
150.7278046201332
 21
8.000000000000092
 31
0.0
  0
LINE
  5
F4
330
ED
100
AcDbEntity
  8
치수문자_일반주서
 62
     0
370
    -2
100
AcDbLine
 10
150.7278046201332
 20
-11.30199999999991
 30
0.0
 11
150.7278046201332
 21
-14.60399999999991
 31
0.0
  0
LINE
  5
F5
330
ED
100
AcDbEntity
  8
치수문자_일반주서
 62
     0
370
    -2
100
AcDbLine
 10
150.7278046201332
 20
11.30200000000009
 30
0.0
 11
150.7278046201332
 21
14.60400000000009
 31
0.0
  0
SOLID
  5
F6
330
ED
100
AcDbEntity
  8
치수문자_일반주서
 62
     0
100
AcDbTrace
 10
151.2781379534666
 20
-11.30199999999991
 30
0.0
 11
150.1774712867999
 21
-11.30199999999991
 31
0.0
 12
150.7278046201332
 22
-7.999999999999908
 32
0.0
 13
150.7278046201332
 23
-7.999999999999908
 33
0.0
  0
SOLID
  5
F7
330
ED
100
AcDbEntity
  8
치수문자_일반주서
 62
     0
100
AcDbTrace
 10
150.1774712867999
 20
11.30200000000009
 30
0.0
 11
151.2781379534665
 21
11.30200000000009
 31
0.0
 12
150.7278046201332
 22
8.000000000000092
 32
0.0
 13
150.7278046201332
 23
8.000000000000092
 33
0.0
  0
MTEXT
  5
F8
330
ED
100
AcDbEntity
  8
치수문자_일반주서
 62
     0
100
AcDbMText
 10
146.3528046201332
 20
18.54150000000007
 30
0.0
 40
3.5
 41
0.0
 71
     2
 72
     1
  1
\A1;%%c16
  7
SLDTEXTSTYLE0
 11
-3.552713678800501E-15
 21
1.0
 31
0.0
 73
     1
 44
1.0
  0
POINT
  5
14F
330
ED
100
AcDbEntity
  8
Defpoints
 62
     0
100
AcDbPoint
 10
132.0
 20
-7.99999999999998
 30
0.0
  0
POINT
  5
150
330
ED
100
AcDbEntity
  8
Defpoints
 62
     0
100
AcDbPoint
 10
131.9999999999995
 20
8.000000000000021
 30
0.0
  0
POINT
  5
151
330
ED
100
AcDbEntity
  8
Defpoints
 62
     0
100
AcDbPoint
 10
150.7278046201332
 20
8.00000000000009
 30
0.0
  0
ENDBLK
  5
EF
330
ED
100
AcDbEntity
  8
0
100
AcDbBlockEnd
  0
BLOCK
  5
FC
330
FB
100
AcDbEntity
  8
0
100
AcDbBlockBegin
  2
_D_1
 70
     0
 10
0.0
 20
0.0
 30
0.0
  3
_D_1
  1

  0
LINE
  5
FE
330
FB
100
AcDbEntity
  8
치수문자_일반주서
 62
     0
370
    -2
100
AcDbLine
 10
-118.0
 20
7.062499999999992
 30
0.0
 11
-118.0
 21
28.78841044024269
 31
0.0
  0
LINE
  5
FF
330
FB
100
AcDbEntity
  8
치수문자_일반주서
 62
     0
370
    -2
100
AcDbLine
 10
131.9999999999995
 20
8.062500000000021
 30
0.0
 11
131.9999999999995
 21
28.78841044024269
 31
0.0
  0
LINE
  5
100
330
FB
100
AcDbEntity
  8
치수문자_일반주서
 62
     0
370
    -2
100
AcDbLine
 10
-114.698
 20
28.78841044024269
 30
0.0
 11
128.6979999999995
 21
28.78841044024269
 31
0.0
  0
SOLID
  5
101
330
FB
100
AcDbEntity
  8
치수문자_일반주서
 62
     0
100
AcDbTrace
 10
-114.698
 20
29.33874377357602
 30
0.0
 11
-114.698
 21
28.23807710690935
 31
0.0
 12
-118.0
 22
28.78841044024269
 32
0.0
 13
-118.0
 23
28.78841044024269
 33
0.0
  0
SOLID
  5
102
330
FB
100
AcDbEntity
  8
치수문자_일반주서
 62
     0
100
AcDbTrace
 10
128.6979999999995
 20
28.23807710690935
 30
0.0
 11
128.6979999999995
 21
29.33874377357602
 31
0.0
 12
131.9999999999995
 22
28.78841044024269
 32
0.0
 13
131.9999999999995
 23
28.78841044024269
 33
0.0
  0
MTEXT
  5
103
330
FB
100
AcDbEntity
  8
치수문자_일반주서
 62
     0
100
AcDbMText
 10
6.999999999999723
 20
33.16341044024269
 30
0.0
 40
3.5
 41
0.0
 71
     2
 72
     1
  1
\A1;250
  7
SLDTEXTSTYLE0
 73
     1
 44
1.0
  0
POINT
  5
147
330
FB
100
AcDbEntity
  8
Defpoints
 62
     0
100
AcDbPoint
 10
-118.0
 20
6.999999999999992
 30
0.0
  0
POINT
  5
148
330
FB
100
AcDbEntity
  8
Defpoints
 62
     0
100
AcDbPoint
 10
131.9999999999995
 20
8.000000000000021
 30
0.0
  0
POINT
  5
149
330
FB
100
AcDbEntity
  8
Defpoints
 62
     0
100
AcDbPoint
 10
131.9999999999995
 20
28.78841044024269
 30
0.0
  0
ENDBLK
  5
FD
330
FB
100
AcDbEntity
  8
0
100
AcDbBlockEnd
  0
BLOCK
  5
106
330
105
100
AcDbEntity
  8
0
100
AcDbBlockBegin
  2
_D_2
 70
     0
 10
0.0
 20
0.0
 30
0.0
  3
_D_2
  1

  0
LINE
  5
108
330
105
100
AcDbEntity
  8
치수문자_일반주서
 62
     0
370
    -2
100
AcDbLine
 10
12.0
 20
7.288399940084591
 30
0.0
 11
12.0
 21
20.57289774625211
 31
0.0
  0
LINE
  5
109
330
105
100
AcDbEntity
  8
치수문자_일반주서
 62
     0
370
    -2
100
AcDbLine
 10
131.9999999999995
 20
8.062500000000021
 30
0.0
 11
131.9999999999995
 21
20.57289774625211
 31
0.0
  0
LINE
  5
10A
330
105
100
AcDbEntity
  8
치수문자_일반주서
 62
     0
370
    -2
100
AcDbLine
 10
15.302
 20
20.57289774625211
 30
0.0
 11
128.6979999999995
 21
20.57289774625211
 31
0.0
  0
SOLID
  5
10B
330
105
100
AcDbEntity
  8
치수문자_일반주서
 62
     0
100
AcDbTrace
 10
15.302
 20
21.12323107958545
 30
0.0
 11
15.302
 21
20.02256441291878
 31
0.0
 12
12.0
 22
20.57289774625211
 32
0.0
 13
12.0
 23
20.57289774625211
 33
0.0
  0
SOLID
  5
10C
330
105
100
AcDbEntity
  8
치수문자_일반주서
 62
     0
100
AcDbTrace
 10
128.6979999999995
 20
20.02256441291878
 30
0.0
 11
128.6979999999995
 21
21.12323107958545
 31
0.0
 12
131.9999999999995
 22
20.57289774625211
 32
0.0
 13
131.9999999999995
 23
20.57289774625211
 33
0.0
  0
MTEXT
  5
10D
330
105
100
AcDbEntity
  8
치수문자_일반주서
 62
     0
100
AcDbMText
 10
72.0
 20
24.94789774625211
 30
0.0
 40
3.5
 41
0.0
 71
     2
 72
     1
  1
\A1;120
  7
SLDTEXTSTYLE0
 73
     1
 44
1.0
  0
POINT
  5
14A
330
105
100
AcDbEntity
  8
Defpoints
 62
     0
100
AcDbPoint
 10
12.0
 20
7.225899940084591
 30
0.0
  0
POINT
  5
14B
330
105
100
AcDbEntity
  8
Defpoints
 62
     0
100
AcDbPoint
 10
131.9999999999995
 20
8.000000000000021
 30
0.0
  0
POINT
  5
14C
330
105
100
AcDbEntity
  8
Defpoints
 62
     0
100
AcDbPoint
 10
131.9999999999995
 20
20.57289774625211
 30
0.0
  0
ENDBLK
  5
107
330
105
100
AcDbEntity
  8
0
100
AcDbBlockEnd
  0
BLOCK
  5
110
330
10F
100
AcDbEntity
  8
0
100
AcDbBlockBegin
  2
_D_3
 70
     0
 10
0.0
 20
0.0
 30
0.0
  3
_D_3
  1

  0
LINE
  5
112
330
10F
100
AcDbEntity
  8
치수문자_일반주서
 62
     0
370
    -2
100
AcDbLine
 10
-117.0625
 20
7.99999999999999
 30
0.0
 11
-128.571255890147
 21
7.999999999999945
 31
0.0
  0
LINE
  5
113
330
10F
100
AcDbEntity
  8
치수문자_일반주서
 62
     0
370
    -2
100
AcDbLine
 10
-117.0625
 20
-7.999999999999999
 30
0.0
 11
-128.5712558901469
 21
-8.000000000000043
 31
0.0
  0
LINE
  5
114
330
10F
100
AcDbEntity
  8
치수문자_일반주서
 62
     0
370
    -2
100
AcDbLine
 10
-128.571255890147
 20
7.999999999999945
 30
0.0
 11
-128.5712558901471
 21
25.53208796575164
 31
0.0
  0
LINE
  5
115
330
10F
100
AcDbEntity
  8
치수문자_일반주서
 62
     0
370
    -2
100
AcDbLine
 10
-128.571255890147
 20
7.999999999999945
 30
0.0
 11
-128.5712558901469
 21
-8.000000000000043
 31
0.0
  0
LINE
  5
116
330
10F
100
AcDbEntity
  8
치수문자_일반주서
 62
     0
370
    -2
100
AcDbLine
 10
-128.571255890147
 20
11.30199999999994
 30
0.0
 11
-128.571255890147
 21
14.60399999999994
 31
0.0
  0
LINE
  5
117
330
10F
100
AcDbEntity
  8
치수문자_일반주서
 62
     0
370
    -2
100
AcDbLine
 10
-128.5712558901469
 20
-11.30200000000004
 30
0.0
 11
-128.5712558901469
 21
-14.60400000000004
 31
0.0
  0
SOLID
  5
118
330
10F
100
AcDbEntity
  8
치수문자_일반주서
 62
     0
100
AcDbTrace
 10
-129.1215892234803
 20
11.30199999999994
 30
0.0
 11
-128.0209225568137
 21
11.30199999999995
 31
0.0
 12
-128.571255890147
 22
7.999999999999945
 32
0.0
 13
-128.571255890147
 23
7.999999999999945
 33
0.0
  0
SOLID
  5
119
330
10F
100
AcDbEntity
  8
치수문자_일반주서
 62
     0
100
AcDbTrace
 10
-128.0209225568136
 20
-11.30200000000004
 30
0.0
 11
-129.1215892234803
 21
-11.30200000000004
 31
0.0
 12
-128.5712558901469
 22
-8.000000000000043
 32
0.0
 13
-128.5712558901469
 23
-8.000000000000043
 33
0.0
  0
MTEXT
  5
11A
330
10F
100
AcDbEntity
  8
치수문자_일반주서
 62
     0
100
AcDbMText
 10
-132.9462558901471
 20
21.59458796575162
 30
0.0
 40
3.5
 41
0.0
 71
     2
 72
     1
  1
\A1;%%c16
  7
SLDTEXTSTYLE0
 11
-3.552713678800503E-15
 21
1.0
 31
0.0
 73
     1
 44
1.0
  0
POINT
  5
152
330
10F
100
AcDbEntity
  8
Defpoints
 62
     0
100
AcDbPoint
 10
-117.0
 20
7.99999999999999
 30
0.0
  0
POINT
  5
153
330
10F
100
AcDbEntity
  8
Defpoints
 62
     0
100
AcDbPoint
 10
-117.0
 20
-7.999999999999999
 30
0.0
  0
POINT
  5
154
330
10F
100
AcDbEntity
  8
Defpoints
 62
     0
100
AcDbPoint
 10
-128.5712558901469
 20
-8.000000000000043
 30
0.0
  0
ENDBLK
  5
111
330
10F
100
AcDbEntity
  8
0
100
AcDbBlockEnd
  0
BLOCK
  5
11C
330
11B
100
AcDbEntity
  8
0
100
AcDbBlockBegin
  2
SW_DOWELSYMBOL_0
 70
     0
 10
0.0
 20
0.0
 30
0.0
  3
SW_DOWELSYMBOL_0
  1

  0
CIRCLE
  5
11E
330
11B
100
AcDbEntity
  8
외형선
 62
     0
100
AcDbCircle
 10
0.0
 20
0.0
 30
0.0
 40
3.000000000000004
  0
HATCH
  5
11F
330
11B
100
AcDbEntity
  8
0
  6
Continuous
 62
     0
370
    30
100
AcDbHatch
 10
0.0
 20
0.0
 30
0.0
210
0.0
220
0.0
230
1.0
  2
SOLID
 70
     1
 71
     0
 91
        1
 92
        0
 93
        3
 72
     2
 10
0.0000000000000104
 20
0.0
 40
3.000000000000004
 50
0.0
 51
90.0
 73
     1
 72
     1
 10
0.0000000000000104
 20
3.000000000000004
 11
0.0000000000000104
 21
0.0
 72
     1
 10
0.0000000000000104
 20
0.0
 11
3.000000000000015
 21
0.0
 97
        0
 75
     0
 76
     1
 98
        1
 10
0.0
 20
0.0
  0
HATCH
  5
120
330
11B
100
AcDbEntity
  8
0
  6
Continuous
 62
     0
370
    30
100
AcDbHatch
 10
0.0
 20
0.0
 30
0.0
210
0.0
220
0.0
230
1.0
  2
SOLID
 70
     1
 71
     0
 91
        1
 92
        0
 93
        3
 72
     2
 10
0.0000000000000104
 20
0.0
 40
3.000000000000004
 50
180.0
 51
270.0000000000008
 73
     1
 72
     1
 10
0.0000000000000104
 20
-3.000000000000004
 11
0.0000000000000104
 21
0.0
 72
     1
 10
0.0000000000000104
 20
0.0
 11
-2.999999999999994
 21
0.0
 97
        0
 75
     0
 76
     1
 98
        1
 10
0.0
 20
0.0
  0
ENDBLK
  5
11D
330
11B
100
AcDbEntity
  8
0
100
AcDbBlockEnd
  0
ENDSEC
  0
SECTION
  2
ENTITIES
  0
LINE
  5
95
330
1F
100
AcDbEntity
  8
0
  6
Continuous
 62
     1
370
    15
100
AcDbLine
 10
65.61499298146924
 20
3.113084939096757
 30
0.0
 11
65.52392664014562
 21
3.159971919638255
 31
0.0
  0
SPLINE
  5
96
330
1F
100
AcDbEntity
  8
0
  6
Continuous
 62
     1
370
    15
100
AcDbSpline
210
0.0
220
0.0
230
1.0
 70
     8
 71
     3
 72
     9
 73
     5
 74
     0
 42
0.000000001
 43
0.00000001
 40
0.0
 40
0.0
 40
0.0
 40
0.0
 40
0.476405068613918
 40
1.0
 40
1.0
 40
1.0
 40
1.0
 10
67.740745060656
 20
2.050628199019435
 30
0.0
 10
67.39923345452344
 20
2.213244760119732
 30
0.0
 10
66.68238212645893
 20
2.55458571514656
 30
0.0
 10
65.98180934100169
 20
2.921152453093179
 30
0.0
 10
65.61499298146924
 20
3.113084939096757
 30
0.0
  0
SPLINE
  5
97
330
1F
100
AcDbEntity
  8
0
  6
Continuous
 62
     1
370
    15
100
AcDbSpline
210
0.0
220
0.0
230
1.0
 70
     8
 71
     3
 72
     9
 73
     5
 74
     0
 42
0.000000001
 43
0.00000001
 40
0.0
 40
0.0
 40
0.0
 40
0.0
 40
0.4384144488074289
 40
0.9999999999999999
 40
0.9999999999999999
 40
0.9999999999999999
 40
0.9999999999999999
 10
111.2730316896212
 20
2.050113306691023
 30
0.0
 10
110.9487745422745
 20
2.204414309982836
 30
0.0
 10
110.209161264864
 20
2.556366677683174
 30
0.0
 10
109.4696094366422
 20
2.943179550279987
 30
0.0
 10
109.0542878155548
 20
3.16040807054565
 30
0.0
  0
SPLINE
  5
98
330
1F
100
AcDbEntity
  8
0
  6
Continuous
 62
     1
370
    15
100
AcDbSpline
210
0.0
220
0.0
230
1.0
 70
     8
 71
     3
 72
     9
 73
     5
 74
     0
 42
0.000000001
 43
0.00000001
 40
0.0
 40
0.0
 40
0.0
 40
0.0
 40
0.4370437231384098
 40
1.0
 40
1.0
 40
1.0
 40
1.0
 10
24.21017602646881
 20
2.050340491379809
 30
0.0
 10
23.88728733692648
 20
2.203982539260522
 30
0.0
 10
23.14848553644834
 20
2.555530999394923
 30
0.0
 10
22.40973814712181
 20
2.941882858499893
 30
0.0
 10
21.99385566728534
 20
3.159382062660181
 30
0.0
  0
LINE
  5
99
330
1F
100
AcDbEntity
  8
0
  6
Continuous
 62
     1
370
    15
100
AcDbLine
 10
45.5077436856721
 20
-8.000000000000007
 30
0.0
 11
49.38476670851038
 21
-8.000000000000007
 31
0.0
  0
LINE
  5
9A
330
1F
100
AcDbEntity
  8
0
  6
Continuous
 62
     1
370
    15
100
AcDbLine
 10
92.91868805373745
 20
8.000000000000014
 30
0.0
 11
89.04063847013687
 21
8.000000000000014
 31
0.0
  0
LINE
  5
9B
330
1F
100
AcDbEntity
  8
0
  6
Continuous
 62
     1
370
    15
100
AcDbLine
 10
89.04063847013681
 20
-8.000000000000007
 30
0.0
 11
92.91868805373744
 21
-8.000000000000007
 31
0.0
  0
LINE
  5
9C
330
1F
100
AcDbEntity
  8
0
  6
Continuous
 62
     1
370
    15
100
AcDbLine
 10
49.38476670851038
 20
8.000000000000014
 30
0.0
 11
45.507743685672
 21
8.000000000000014
 31
0.0
  0
LINE
  5
9D
330
1F
100
AcDbEntity
  8
0
  6
Continuous
 62
   131
370
    15
100
AcDbLine
 10
64.15454550086268
 20
1.794769288737386
 30
0.0
 11
63.23311979623484
 21
2.299931596636259
 31
0.0
  0
LINE
  5
9E
330
1F
100
AcDbEntity
  8
0
  6
Continuous
 62
     1
370
    15
100
AcDbLine
 10
20.56521801072184
 20
1.826835757246675
 30
0.0
 11
19.70226303318086
 21
2.299750346997083
 31
0.0
  0
LINE
  5
9F
330
1F
100
AcDbEntity
  8
0
  6
Continuous
 62
   131
370
    15
100
AcDbLine
 10
107.0133808036458
 20
2.163461008514161
 30
0.0
 11
106.7642644088662
 21
2.2999537728771
 31
0.0
  0
SPLINE
  5
A0
330
1F
100
AcDbEntity
  8
0
  6
Continuous
 62
     1
370
    15
100
AcDbSpline
210
0.0
220
0.0
230
1.0
 70
     8
 71
     3
 72
    16
 73
    12
 74
     0
 42
0.000000001
 43
0.00000001
 40
0.0
 40
0.0
 40
0.0
 40
0.0
 40
0.1468082099844426
 40
0.255748676681529
 40
0.3270250179282134
 40
0.381171257441253
 40
0.4389657203652446
 40
0.5173899368000147
 40
0.6310538630292817
 40
0.7919376808116296
 40
0.9999999999999999
 40
0.9999999999999999
 40
0.9999999999999999
 40
0.9999999999999999
 10
53.06614849500449
 20
-6.657096253446658
 30
0.0
 10
53.65585104348828
 20
-6.60140417189524
 30
0.0
 10
54.68314813011872
 20
-6.50438523705553
 30
0.0
 10
55.99368389351763
 20
-6.411561270026222
 30
0.0
 10
56.93297612956547
 20
-6.356759712619466
 30
0.0
 10
57.66788353011199
 20
-6.321162846713221
 30
0.0
 10
58.43092402767623
 20
-6.290704290971728
 30
0.0
 10
59.43246245959668
 20
-6.261331514814979
 30
0.0
 10
60.84651183434976
 20
-6.242172290158124
 30
0.0
 10
62.77943565893219
 20
-6.254328983409645
 30
0.0
 10
64.26202263169239
 20
-6.320060166268828
 30
0.0
 10
65.09810804644614
 20
-6.35712840192232
 30
0.0
  0
SPLINE
  5
A1
330
1F
100
AcDbEntity
  8
0
  6
Continuous
 62
     1
370
    15
100
AcDbSpline
210
0.0
220
0.0
230
1.0
 70
     8
 71
     3
 72
    11
 73
     7
 74
     0
 42
0.000000001
 43
0.00000001
 40
0.0
 40
0.0
 40
0.0
 40
0.0
 40
0.3388313774298753
 40
0.6102553881292523
 40
0.9124756716264124
 40
1.0
 40
1.0
 40
1.0
 40
1.0
 10
108.6284857789907
 20
6.357085382205002
 30
0.0
 10
107.9011318775992
 20
6.322610971535423
 30
0.0
 10
106.5911244019992
 20
6.260520515145959
 30
0.0
 10
104.5432947274561
 20
6.241779691401265
 30
0.0
 10
103.0819180543594
 20
6.253693942598442
 30
0.0
 10
102.2226390230558
 20
6.285902048253092
 30
0.0
 10
102.0296720959715
 20
6.293134971376976
 30
0.0
  0
SPLINE
  5
A2
330
1F
100
AcDbEntity
  8
0
  6
Continuous
 62
     1
370
    15
100
AcDbSpline
210
0.0
220
0.0
230
1.0
 70
     8
 71
     3
 72
    13
 73
     9
 74
     0
 42
0.000000001
 43
0.00000001
 40
0.0
 40
0.0
 40
0.0
 40
0.0
 40
0.2432962782623712
 40
0.4282152569654739
 40
0.5536640169510233
 40
0.6401666305251299
 40
0.8255554370557107
 40
1.0
 40
1.0
 40
1.0
 40
1.0
 10
21.5668822214889
 20
6.35712621238877
 30
0.0
 10
21.04017765272695
 20
6.331973594558003
 30
0.0
 10
20.11314772087545
 20
6.287703559748259
 30
0.0
 10
18.91742757274913
 20
6.25901741690347
 30
0.0
 10
18.06176577122372
 20
6.248593172229341
 30
0.0
 10
17.20624684924067
 20
6.24659198004105
 30
0.0
 10
16.23819041054187
 20
6.252726253514017
 30
0.0
 10
15.45754544930623
 20
6.278611807162977
 30
0.0
 10
15.07909453110443
 20
6.29116093260805
 30
0.0
  0
SPLINE
  5
A3
330
1F
100
AcDbEntity
  8
0
  6
Continuous
 62
     1
370
    15
100
AcDbSpline
210
0.0
220
0.0
230
1.0
 70
     8
 71
     3
 72
    10
 73
     6
 74
     0
 42
0.000000001
 43
0.00000001
 40
0.0
 40
0.0
 40
0.0
 40
0.0
 40
0.422678547922242
 40
0.638569139468547
 40
1.0
 40
1.0
 40
1.0
 40
1.0
 10
11.99999999999998
 20
-6.444768475164876
 30
0.0
 10
13.35441827669515
 20
-6.368342477122273
 30
0.0
 10
15.40062979530957
 20
-6.252880540284005
 30
0.0
 10
18.57386117851569
 20
-6.235846863460263
 30
0.0
 10
20.41453334668951
 20
-6.310432213493473
 30
0.0
 10
21.5668822214889
 20
-6.357126212388759
 30
0.0
  0
SPLINE
  5
A4
330
1F
100
AcDbEntity
  8
0
  6
Continuous
 62
     1
370
    15
100
AcDbSpline
210
0.0
220
0.0
230
1.0
 70
     8
 71
     3
 72
    15
 73
    11
 74
     0
 42
0.000000001
 43
0.00000001
 40
0.0
 40
0.0
 40
0.0
 40
0.0
 40
0.1220304420613398
 40
0.2184030511749122
 40
0.2887566148339671
 40
0.3793230830690993
 40
0.4992155306310996
 40
0.6650799246196846
 40
0.8140427226412387
 40
1.0
 40
1.0
 40
1.0
 40
1.0
 10
96.59706921005969
 20
-6.657122754914299
 30
0.0
 10
97.08510371538345
 20
-6.610525515459977
 30
0.0
 10
97.958559741936
 20
-6.527128462222753
 30
0.0
 10
99.11372705362854
 20
-6.439846525814652
 30
0.0
 10
100.1478079356491
 20
-6.373359209050632
 30
0.0
 10
101.2835303213808
 20
-6.315076892239803
 30
0.0
 10
102.7918828523396
 20
-6.261415286447229
 30
0.0
 10
104.5434649183676
 20
-6.240353118473347
 30
0.0
 10
106.5910717654967
 20
-6.260961724425809
 30
0.0
 10
107.9011130859573
 20
-6.322768486689397
 30
0.0
 10
108.6284857789907
 20
-6.357085382204979
 30
0.0
  0
SPLINE
  5
A5
330
1F
100
AcDbEntity
  8
0
  6
Continuous
 62
     1
370
    15
100
AcDbSpline
210
0.0
220
0.0
230
1.0
 70
     8
 71
     3
 72
    10
 73
     6
 74
     0
 42
0.000000001
 43
0.00000001
 40
0.0
 40
0.0
 40
0.0
 40
0.0
 40
0.6024576751174512
 40
0.8548443889194638
 40
1.0
 40
1.0
 40
1.0
 40
1.0
 10
65.09810804644614
 20
6.357128401922337
 30
0.0
 10
63.77149207830426
 20
6.306189658731167
 30
0.0
 10
61.88911882047176
 20
6.233911222263258
 30
0.0
 10
59.71692733933126
 20
6.251098637953742
 30
0.0
 10
58.84668291493863
 20
6.283811195942512
 30
0.0
 10
58.52892841861056
 20
6.295755613046453
 30
0.0
  0
SPLINE
  5
A6
330
1F
100
AcDbEntity
  8
0
  6
Continuous
 62
     1
370
    15
100
AcDbSpline
210
0.0
220
0.0
230
1.0
 70
     8
 71
     3
 72
     9
 73
     5
 74
     0
 42
0.000000001
 43
0.00000001
 40
0.0
 40
0.0
 40
0.0
 40
0.0
 40
0.69703863607681
 40
1.0
 40
1.0
 40
1.0
 40
1.0
 10
71.52164790182884
 20
-6.017061709036049
 30
0.0
 10
72.91847346812305
 20
-5.813841662381256
 30
0.0
 10
74.92241628276541
 20
-5.522293911458023
 30
0.0
 10
76.93064321945802
 20
-5.408133594230029
 30
0.0
 10
77.53905839126571
 20
-5.373547428816733
 30
0.0
  0
SPLINE
  5
A7
330
1F
100
AcDbEntity
  8
0
  6
Continuous
 62
     1
370
    15
100
AcDbSpline
210
0.0
220
0.0
230
1.0
 70
     8
 71
     3
 72
    20
 73
    16
 74
     0
 42
0.000000001
 43
0.00000001
 40
0.0
 40
0.0
 40
0.0
 40
0.0
 40
0.1181622709364383
 40
0.2120301276051463
 40
0.2819288545256833
 40
0.3275128806820543
 40
0.3661484713799639
 40
0.4114117154642936
 40
0.4635165587682309
 40
0.5218207063034511
 40
0.6091047769134424
 40
0.6838903859857189
 40
0.7556022739695525
 40
0.8600472381268796
 40
0.9999999999999999
 40
0.9999999999999999
 40
0.9999999999999999
 40
0.9999999999999999
 10
129.028354793364
 20
5.471660684126116
 30
0.0
 10
128.4753117832926
 20
5.428630483226107
 30
0.0
 10
127.4829325824927
 20
5.351417182268039
 30
0.0
 10
126.1694159349127
 20
5.294171545723487
 30
0.0
 10
125.1950966139986
 20
5.270474242098967
 30
0.0
 10
124.4790553402508
 20
5.263909372044612
 30
0.0
 10
123.8777050117377
 20
5.26482586681947
 30
0.0
 10
123.2456140436514
 20
5.272638678296912
 30
0.0
 10
122.5213478498117
 20
5.290580183306517
 30
0.0
 10
121.6013799363272
 20
5.326221810103288
 30
0.0
 10
120.5739806241243
 20
5.385313065686172
 30
0.0
 10
119.477049630328
 20
5.469913983750316
 30
0.0
 10
118.2961627463754
 20
5.582606127661198
 30
0.0
 10
116.8324200729846
 20
5.750974753015229
 30
0.0
 10
115.700743416267
 20
5.920185660475062
 30
0.0
 10
115.0526961687437
 20
6.017083181670127
 30
0.0
  0
SPLINE
  5
A8
330
1F
100
AcDbEntity
  8
0
  6
Continuous
 62
     1
370
    15
100
AcDbSpline
210
0.0
220
0.0
230
1.0
 70
     8
 71
     3
 72
    18
 73
    14
 74
     0
 42
0.000000001
 43
0.00000001
 40
0.0
 40
0.0
 40
0.0
 40
0.0
 40
0.1362690686539896
 40
0.2397234670350592
 40
0.3134831990347977
 40
0.3886351397220105
 40
0.4744538236429526
 40
0.5814753449413494
 40
0.664801510841523
 40
0.7108986097634514
 40
0.7820143539633709
 40
0.8785944473194074
 40
1.0
 40
1.0
 40
1.0
 40
1.0
 10
41.96549938340863
 20
5.471618811047048
 30
0.0
 10
41.33658628833074
 20
5.423324467693127
 30
0.0
 10
40.23020734918468
 20
5.338365441104489
 30
0.0
 10
38.78077801257528
 20
5.282340886302703
 30
0.0
 10
37.58951419269199
 20
5.262409034895594
 30
0.0
 10
36.485957501446
 20
5.265333750029798
 30
0.0
 10
35.23266069840287
 20
5.294451190538019
 30
0.0
 10
33.94526655863838
 20
5.356300755460842
 30
0.0
 10
32.84984181544262
 20
5.434930267737884
 30
0.0
 10
31.92196170973707
 20
5.515660636652729
 30
0.0
 10
30.92763018800346
 20
5.617019337623711
 30
0.0
 10
29.57942318256649
 20
5.777820378798537
 30
0.0
 10
28.55921613657301
 20
5.931425150657647
 30
0.0
 10
27.99101909002682
 20
6.016974234099584
 30
0.0
  0
SPLINE
  5
A9
330
1F
100
AcDbEntity
  8
0
  6
Continuous
 62
     1
370
    15
100
AcDbSpline
210
0.0
220
0.0
230
1.0
 70
     8
 71
     3
 72
    14
 73
    10
 74
     0
 42
0.000000001
 43
0.00000001
 40
0.0
 40
0.0
 40
0.0
 40
0.0
 40
0.2807669894720707
 40
0.5041216998274262
 40
0.6685866107167084
 40
0.7751924734794837
 40
0.8646390004808076
 40
0.9678997845475873
 40
1.0
 40
1.0
 40
1.0
 40
1.0
 10
27.99101909002682
 20
-6.016974234099571
 30
0.0
 10
28.55921128827705
 20
-5.931428081458142
 30
0.0
 10
29.57940962907622
 20
-5.777828571899049
 30
0.0
 10
30.92766727801419
 20
-5.616996916669345
 30
0.0
 10
31.92187654580073
 20
-5.515712118350612
 30
0.0
 10
32.64343961359541
 20
-5.452792551470625
 30
0.0
 10
33.24198861927351
 20
-5.407108295471798
 30
0.0
 10
33.693304379641
 20
-5.375606972149899
 30
0.0
 10
33.96569254419041
 20
-5.360945880240066
 30
0.0
 10
34.03028809829966
 20
-5.357469072217482
 30
0.0
  0
SPLINE
  5
AA
330
1F
100
AcDbEntity
  8
0
  6
Continuous
 62
     1
370
    15
100
AcDbSpline
210
0.0
220
0.0
230
1.0
 70
     8
 71
     3
 72
    12
 73
     8
 74
     0
 42
0.000000001
 43
0.00000001
 40
0.0
 40
0.0
 40
0.0
 40
0.0
 40
0.3260761489366013
 40
0.5694226269369229
 40
0.7365042618670026
 40
0.9107473641522863
 40
1.0
 40
1.0
 40
1.0
 40
1.0
 10
115.0526961687437
 20
-6.017083181670104
 30
0.0
 10
115.700734177404
 20
-5.9202290294636
 30
0.0
 10
116.8323947004129
 20
-5.751093856716268
 30
0.0
 10
118.296225829135
 20
-5.582310005130213
 30
0.0
 10
119.4768901875623
 20
-5.470662438566706
 30
0.0
 10
120.3446783076008
 20
-5.400681531811502
 30
0.0
 10
120.8719123243921
 20
-5.372040614268673
 30
0.0
 10
121.0504997506656
 20
-5.362339214914335
 30
0.0
  0
SPLINE
  5
AB
330
1F
100
AcDbEntity
  8
0
  6
Continuous
 62
     1
370
    15
100
AcDbSpline
210
0.0
220
0.0
230
1.0
 70
     8
 71
     3
 72
    11
 73
     7
 74
     0
 42
0.000000001
 43
0.00000001
 40
0.0
 40
0.0
 40
0.0
 40
0.0
 40
0.2966704580823977
 40
0.5003039772195921
 40
0.6998440486582532
 40
0.9999999999999999
 40
0.9999999999999999
 40
0.9999999999999999
 40
0.9999999999999999
 10
85.49685362543815
 20
5.471633417920574
 30
0.0
 10
84.11810678959756
 20
5.380690563274457
 30
0.0
 10
81.79299316012256
 20
5.227324865276585
 30
0.0
 10
78.5234523176895
 20
5.288545988065838
 30
0.0
 10
75.24453679882025
 20
5.494229764527256
 30
0.0
 10
72.91871547779185
 20
5.820861506032092
 30
0.0
 10
71.52164790182883
 20
6.017061709036068
 30
0.0
  0
LINE
  5
AC
330
1F
100
AcDbEntity
  8
0
  6
Continuous
 62
   131
370
    15
100
AcDbLine
 10
8.95011763573682
 20
8.000000000000004
 30
0.0
 11
-117.0
 21
7.999999999999997
 31
0.0
  0
LINE
  5
AD
330
1F
100
AcDbEntity
  8
0
  6
Continuous
 62
   131
370
    15
100
AcDbLine
 10
-117.0
 20
-8.000000000000004
 30
0.0
 11
8.95011763573682
 21
-7.999999999999996
 31
0.0
  0
LINE
  5
AE
330
1F
100
AcDbEntity
  8
0
  6
Continuous
 62
   131
370
    15
100
AcDbLine
 10
-117.0
 20
7.99999999999999
 30
0.0
 11
-118.0
 21
6.999999999999991
 31
0.0
  0
LINE
  5
AF
330
1F
100
AcDbEntity
  8
0
  6
Continuous
 62
   131
370
    15
100
AcDbLine
 10
-118.0
 20
-6.999999999999998
 30
0.0
 11
-117.0
 21
-7.999999999999999
 31
0.0
  0
SPLINE
  5
B0
330
1F
100
AcDbEntity
  8
0
  6
Continuous
 62
   131
370
    15
100
AcDbSpline
210
0.0
220
0.0
230
1.0
 70
     8
 71
     3
 72
     9
 73
     5
 74
     0
 42
0.000000001
 43
0.00000001
 40
0.0
 40
0.0
 40
0.0
 40
0.0
 40
0.498971742810063
 40
1.0
 40
1.0
 40
1.0
 40
1.0
 10
9.603613499820712
 20
-6.650122290454279
 30
0.0
 10
10.00306327863071
 20
-6.611857825633151
 30
0.0
 10
10.80360917038887
 20
-6.535171188819548
 30
0.0
 10
11.60065667691009
 20
-6.474943999077022
 30
0.0
 10
12.0
 20
-6.444768475164875
 30
0.0
  0
SPLINE
  5
B1
330
1F
100
AcDbEntity
  8
0
  6
Continuous
 62
     1
370
    15
100
AcDbSpline
210
0.0
220
0.0
230
1.0
 70
     8
 71
     3
 72
    22
 73
    18
 74
     0
 42
0.000000001
 43
0.00000001
 40
0.0
 40
0.0
 40
0.0
 40
0.0
 40
0.0150331775812735
 40
0.0881119194862213
 40
0.1611190697668219
 40
0.234184753484031
 40
0.3072303934338653
 40
0.380254057101195
 40
0.4533295541378038
 40
0.5263328319434325
 40
0.599407221992239
 40
0.6724340210183112
 40
0.7454763463189011
 40
0.8185439899833533
 40
0.8915499300033265
 40
0.9646284188201188
 40
1.0
 40
1.0
 40
1.0
 40
1.0
 10
102.0296720959715
 20
-6.293134971376955
 30
0.0
 10
101.7658958582072
 20
-6.39798982417219
 30
0.0
 10
100.2198600651341
 20
-7.012561314283629
 30
0.0
 10
97.39162491539028
 20
-7.658685803184213
 30
0.0
 10
93.54691307245697
 20
-8.101796217365843
 30
0.0
 10
89.70116235395925
 20
-7.884437218021886
 30
0.0
 10
85.85570136197273
 20
-7.074795317540286
 30
0.0
 10
82.0106338629909
 20
-5.71989176186983
 30
0.0
 10
78.16485333902092
 20
-3.930359703524582
 30
0.0
 10
74.32017389208657
 20
-1.836461627713585
 30
0.0
 10
70.47439527276569
 20
0.3941898296966638
 30
0.0
 10
66.62927015905066
 20
2.597923506173654
 30
0.0
 10
62.78386341197902
 20
4.599628951729042
 30
0.0
 10
58.93810494318534
 20
6.257327617963655
 30
0.0
 10
55.09338635516205
 20
7.40517314846769
 30
0.0
 10
51.90826320654853
 20
7.986411027682037
 30
0.0
 10
50.00539691618285
 20
7.938753671718795
 30
0.0
 10
49.38476670851039
 20
7.923209965427746
 30
0.0
  0
LINE
  5
B2
330
1F
100
AcDbEntity
  8
0
  6
Continuous
 62
     1
370
    15
100
AcDbLine
 10
15.02378673550051
 20
-6.307951048483425
 30
0.0
 11
11.99999999999618
 21
-7.225899940085532
 31
0.0
  0
SPLINE
  5
B3
330
1F
100
AcDbEntity
  8
0
  6
Continuous
 62
   131
370
    15
100
AcDbSpline
210
0.0
220
0.0
230
1.0
 70
    24
 71
     3
 72
    10
 73
     6
 74
     0
 42
0.000000001
 43
0.00000001
 40
0.0
 40
0.0
 40
0.0
 40
0.0
 40
0.3298019621010764
 40
0.8275472563009334
 40
1.0
 40
1.0
 40
1.0
 40
1.0
 10
11.99999999999999
 20
-6.444768475164876
 30
0.0
 10
11.99999999999999
 20
-6.536058459120871
 30
0.0
 10
11.99999999999999
 20
-6.765125549168648
 30
0.0
 10
11.99999999999999
 20
-7.02064118911639
 30
0.0
 10
11.99999999999999
 20
-7.183892698707511
 30
0.0
 10
11.99999999999999
 20
-7.225899940074948
 30
0.0
  0
SPLINE
  5
B4
330
1F
100
AcDbEntity
  8
0
  6
Continuous
 62
     1
370
    15
100
AcDbSpline
210
0.0
220
0.0
230
1.0
 70
     8
 71
     3
 72
    15
 73
    11
 74
     0
 42
0.000000001
 43
0.00000001
 40
0.0
 40
0.0
 40
0.0
 40
0.0
 40
0.1058770059096225
 40
0.238932634853917
 40
0.371950132017773
 40
0.5049258210806807
 40
0.6380001192213992
 40
0.7709370253114218
 40
0.9040092174776944
 40
1.0
 40
1.0
 40
1.0
 40
1.0
 10
96.60829367594859
 20
-6.614059573986015
 30
0.0
 10
95.58811740146034
 20
-6.702005442887594
 30
0.0
 10
93.28588564504862
 20
-6.900472881597638
 30
0.0
 10
89.70121586366852
 20
-6.585996952908723
 30
0.0
 10
85.85573531916349
 20
-5.802310107677589
 30
0.0
 10
82.01054027824165
 20
-4.558625657759142
 30
0.0
 10
78.1649829933626
 20
-2.971028134993936
 30
0.0
 10
74.32004903021648
 20
-1.156968582024124
 30
0.0
 10
70.8309964984242
 20
0.5833868886895452
 30
0.0
 10
68.62378093972247
 20
1.621519605531609
 30
0.0
 10
67.69882853760144
 20
2.056557926269202
 30
0.0
  0
SPLINE
  5
B5
330
1F
100
AcDbEntity
  8
0
  6
Continuous
 62
     1
370
    15
100
AcDbSpline
210
0.0
220
0.0
230
1.0
 70
     8
 71
     3
 72
    18
 73
    14
 74
     0
 42
0.000000001
 43
0.00000001
 40
0.0
 40
0.0
 40
0.0
 40
0.0
 40
0.0983812902129066
 40
0.1968123098283622
 40
0.2951526292110735
 40
0.3935916994748556
 40
0.4919501875141507
 40
0.5903555837536645
 40
0.6887723495116879
 40
0.7871214706215852
 40
0.8855623814871468
 40
0.9839068546674478
 40
0.9999999999999999
 40
0.9999999999999999
 40
0.9999999999999999
 40
0.9999999999999999
 10
132.0
 20
-7.591526953855189
 30
0.0
 10
130.7184602254975
 20
-7.301403964439166
 30
0.0
 10
128.1547328886134
 20
-6.721011335335527
 30
0.0
 10
124.3089600804074
 20
-5.181940597560152
 30
0.0
 10
120.4642642909799
 20
-3.285306270733558
 30
0.0
 10
116.6184804939075
 20
-1.129538329339193
 30
0.0
 10
112.7735272652509
 20
1.112528748852922
 30
0.0
 10
108.9279566711685
 20
3.269634053848491
 30
0.0
 10
105.0822653681553
 20
5.172103060346941
 30
0.0
 10
101.2374580254312
 20
6.695560851734985
 30
0.0
 10
97.39161575298918
 20
7.648261353475527
 30
0.0
 10
94.61926750397528
 20
8.066181135316496
 30
0.0
 10
93.1283525913222
 20
7.971350197459645
 30
0.0
 10
92.91868805373745
 20
7.958014302456019
 30
0.0
  0
SPLINE
  5
B6
330
1F
100
AcDbEntity
  8
0
  6
Continuous
 62
     1
370
    15
100
AcDbSpline
210
0.0
220
0.0
230
1.0
 70
     8
 71
     3
 72
    20
 73
    16
 74
     0
 42
0.000000001
 43
0.00000001
 40
0.0
 40
0.0
 40
0.0
 40
0.0
 40
0.0742561763818588
 40
0.1568943296666612
 40
0.239457893337862
 40
0.3220732765706096
 40
0.4046850814903421
 40
0.4872515932003834
 40
0.5698891671950943
 40
0.6524439739914227
 40
0.7350722864676625
 40
0.8013223930630234
 40
0.8675621245111269
 40
0.9337848597235896
 40
1.0
 40
1.0
 40
1.0
 40
1.0
 10
58.55093886813969
 20
-6.289124122059211
 30
0.0
 10
57.39880448679347
 20
-6.669360575152826
 30
0.0
 10
54.96448373052856
 20
-7.472754263459218
 30
0.0
 10
51.24760518563352
 20
-8.022559726455908
 30
0.0
 10
47.40272618719657
 20
-8.022557321393183
 30
0.0
 10
43.55707580917066
 20
-7.396603479113964
 30
0.0
 10
39.71145926278186
 20
-6.208337843248191
 30
0.0
 10
35.86655983040437
 20
-4.542499959319347
 30
0.0
 10
32.02074544650617
 20
-2.532290416538953
 30
0.0
 10
28.17614529360194
 20
-0.324475940610511
 30
0.0
 10
24.58364711881291
 20
1.757526689935595
 30
0.0
 10
21.24662471305449
 20
3.580967097730682
 30
0.0
 10
18.16370007635129
 20
5.082204751564313
 30
0.0
 10
15.08164753203268
 20
6.35850554214088
 30
0.0
 10
13.02717657131662
 20
6.936779528227613
 30
0.0
 10
11.99999999999617
 20
7.225899940085542
 30
0.0
  0
SPLINE
  5
B7
330
1F
100
AcDbEntity
  8
0
  6
Continuous
 62
     1
370
    15
100
AcDbSpline
210
0.0
220
0.0
230
1.0
 70
     8
 71
     3
 72
    13
 73
     9
 74
     0
 42
0.000000001
 43
0.00000001
 40
0.0
 40
0.0
 40
0.0
 40
0.0
 40
0.1851766546036221
 40
0.3704510965905746
 40
0.5555471860769987
 40
0.7408374588783377
 40
0.925969275479778
 40
0.9999999999999999
 40
0.9999999999999999
 40
0.9999999999999999
 40
0.9999999999999999
 10
132.0
 20
-6.311778114945711
 30
0.0
 10
130.7184474070662
 20
-6.030564732119682
 30
0.0
 10
128.1546654637805
 20
-5.467989464374188
 30
0.0
 10
124.3090798882121
 20
-4.078408745120655
 30
0.0
 10
120.4641357959851
 20
-2.406058885779302
 30
0.0
 10
116.6185717992734
 20
-0.5538573171085909
 30
0.0
 10
113.5429852674559
 20
0.9925947376579716
 30
0.0
 10
111.7492328045515
 20
1.812912691884391
 30
0.0
 10
111.2368408752857
 20
2.047239505572404
 30
0.0
  0
SPLINE
  5
B8
330
1F
100
AcDbEntity
  8
0
  6
Continuous
 62
     1
370
    15
100
AcDbSpline
210
0.0
220
0.0
230
1.0
 70
     8
 71
     3
 72
    16
 73
    12
 74
     0
 42
0.000000001
 43
0.00000001
 40
0.0
 40
0.0
 40
0.0
 40
0.0
 40
0.0634676528551303
 40
0.1962508850995657
 40
0.3291211837071459
 40
0.4619854700881156
 40
0.594773655628076
 40
0.7276812389417856
 40
0.8604497578239801
 40
0.9933417799960077
 40
1.0
 40
1.0
 40
1.0
 40
1.0
 10
53.08406560612762
 20
-6.591484092123373
 30
0.0
 10
52.47160575798126
 20
-6.666358004580695
 30
0.0
 10
50.57779399908373
 20
-6.897878644301796
 30
0.0
 10
47.40264835564246
 20
-6.728466917827341
 30
0.0
 10
43.55708052783543
 20
-6.111371965404665
 30
0.0
 10
39.71153106635091
 20
-4.999066143666877
 30
0.0
 10
35.86644104550778
 20
-3.511658071634631
 30
0.0
 10
32.02089254100825
 20
-1.750358330262322
 30
0.0
 10
28.1759774079478
 20
0.1254196686121828
 30
0.0
 10
25.54789021224926
 20
1.455761723690607
 30
0.0
 10
24.20139574604976
 20
2.05136292833546
 30
0.0
 10
24.13715181318143
 20
2.079780248100239
 30
0.0
  0
LINE
  5
B9
330
1F
100
AcDbEntity
  8
0
  6
Continuous
 62
     1
370
    15
100
AcDbLine
 10
131.9999999999994
 20
-7.5915269538552
 30
0.0
 11
132.0
 21
-6.311778114945711
 31
0.0
  0
SPLINE
  5
BA
330
1F
100
AcDbEntity
  8
0
  6
Continuous
 62
     1
370
    15
100
AcDbSpline
210
0.0
220
0.0
230
1.0
 70
     8
 71
     3
 72
    17
 73
    13
 74
     0
 42
0.000000001
 43
0.00000001
 40
0.0
 40
0.0
 40
0.0
 40
0.0
 40
0.0919868532517933
 40
0.1839842533765265
 40
0.2760052629291429
 40
0.3680406857992646
 40
0.4828300333917947
 40
0.5975172527677101
 40
0.7123194559864146
 40
0.8270229501637106
 40
0.9417893451077989
 40
1.0
 40
1.0
 40
1.0
 40
1.0
 10
11.99999999999868
 20
5.996689628497315
 30
0.0
 10
13.02716763072897
 20
5.5753723970253
 30
0.0
 10
15.08162066343736
 20
4.732689627403189
 30
0.0
 10
18.16364621950813
 20
3.156139676495686
 30
0.0
 10
21.24654382308351
 20
1.445226621885446
 30
0.0
 10
24.58354939705183
 20
-0.4898747116398726
 30
0.0
 10
28.17604172181574
 20
-2.548419456800724
 30
0.0
 10
32.02064405092828
 20
-4.558215508392543
 30
0.0
 10
35.8664683679556
 20
-6.224412955184072
 30
0.0
 10
39.71134905677752
 20
-7.385246129044751
 30
0.0
 10
42.92518367537578
 20
-7.980192718930627
 30
0.0
 10
44.85748198739405
 20
-7.937484820876254
 30
0.0
 10
45.5077436856721
 20
-7.923112655799049
 30
0.0
  0
SPLINE
  5
BB
330
1F
100
AcDbEntity
  8
0
  6
Continuous
 62
     1
370
    15
100
AcDbSpline
210
0.0
220
0.0
230
1.0
 70
     8
 71
     3
 72
    22
 73
    18
 74
     0
 42
0.000000001
 43
0.00000001
 40
0.0
 40
0.0
 40
0.0
 40
0.0
 40
0.0114738287511264
 40
0.0821126614298126
 40
0.1527013947429961
 40
0.2233113632557431
 40
0.2939407137098201
 40
0.3645134787577831
 40
0.4351554494836856
 40
0.505731552802469
 40
0.5763561952180476
 40
0.646972682227085
 40
0.717555504542942
 40
0.7881961548617382
 40
0.8587659406767122
 40
0.9294008132560381
 40
1.0
 40
1.0
 40
1.0
 40
1.0
 10
77.53905839126571
 20
5.37354742881675
 30
0.0
 10
77.74732302755207
 20
5.470588036194722
 30
0.0
 10
79.23777263579704
 20
6.165060884919137
 30
0.0
 10
82.01061396192857
 20
7.060218678261342
 30
0.0
 10
85.85564652774265
 20
7.896703115670108
 30
0.0
 10
89.7011246993417
 20
8.092369361572034
 30
0.0
 10
93.54686454307992
 20
7.679023657549856
 30
0.0
 10
97.39162576188467
 20
6.674187602169988
 30
0.0
 10
101.2374152588718
 20
5.161586858214087
 30
0.0
 10
105.082241646671
 20
3.25112656011066
 30
0.0
 10
108.9279327113042
 20
1.094040488456083
 30
0.0
 10
112.7735082702505
 20
-1.147373191214022
 30
0.0
 10
116.6184650323008
 20
-3.301703254846571
 30
0.0
 10
120.4642527560978
 20
-5.203723995531833
 30
0.0
 10
124.3089523781435
 20
-6.698719495436966
 30
0.0
 10
128.154729037805
 20
-7.72292989967467
 30
0.0
 10
130.7184589398448
 20
-7.903150826686157
 30
0.0
 10
132.0
 20
-7.99999999999998
 30
0.0
  0
LINE
  5
BC
330
1F
100
AcDbEntity
  8
0
  6
Continuous
 62
   131
370
    15
100
AcDbLine
 10
11.99999999999999
 20
5.996689628496805
 30
0.0
 11
11.99999999999999
 21
7.225899940074958
 31
0.0
  0
LINE
  5
BD
330
1F
100
AcDbEntity
  8
0
  6
Continuous
 62
     1
370
    15
100
AcDbLine
 10
132.0
 20
-7.99999999999998
 30
0.0
 11
131.9999999999993
 21
-7.591526953855175
 31
0.0
  0
SPLINE
  5
BE
330
1F
100
AcDbEntity
  8
0
  6
Continuous
 62
     1
370
    15
100
AcDbSpline
210
0.0
220
0.0
230
1.0
 70
     8
 71
     3
 72
    22
 73
    18
 74
     0
 42
0.000000001
 43
0.00000001
 40
0.0
 40
0.0
 40
0.0
 40
0.0
 40
0.0333382477970905
 40
0.1032173397423883
 40
0.1731347517798299
 40
0.2430552055647909
 40
0.3129317915064391
 40
0.3828715109591382
 40
0.4527417992240182
 40
0.5226711347553612
 40
0.5925762496053906
 40
0.6624664926983319
 40
0.732402290684372
 40
0.8022700285673703
 40
0.8722068824696984
 40
0.9420941348727817
 40
1.0
 40
1.0
 40
1.0
 40
1.0
 10
34.03324050684508
 20
5.358727615582853
 30
0.0
 10
34.64460380568606
 20
5.629305410450105
 30
0.0
 10
36.53742353954152
 20
6.467031506600748
 30
0.0
 10
39.71137210621415
 20
7.390970209562193
 30
0.0
 10
43.55698482747546
 20
8.02690785449061
 30
0.0
 10
47.40264615179542
 20
8.02683027837317
 30
0.0
 10
51.24750843024624
 20
7.417722556563124
 30
0.0
 10
55.09329783550753
 20
6.241048753388494
 30
0.0
 10
58.93803491719304
 20
4.584831910148518
 30
0.0
 10
62.78379327547719
 20
2.579965008797623
 30
0.0
 10
66.62920510281944
 20
0.3766757064883191
 30
0.0
 10
70.47433342219308
 20
-1.856532512202704
 30
0.0
 10
74.32011689656109
 20
-3.944020970833925
 30
0.0
 10
78.16479670581379
 20
-5.737473035478327
 30
0.0
 10
82.01059401333782
 20
-7.07184585170222
 30
0.0
 10
85.63557701492644
 20
-7.882110798969176
 30
0.0
 10
87.97885005022422
 20
-7.933200357699673
 30
0.0
 10
89.04063847013683
 20
-7.956350157582722
 30
0.0
  0
SPLINE
  5
BF
330
1F
100
AcDbEntity
  8
0
  6
Continuous
 62
     1
370
    15
100
AcDbSpline
210
0.0
220
0.0
230
1.0
 70
     8
 71
     3
 72
    10
 73
     6
 74
     0
 42
0.000000001
 43
0.00000001
 40
0.0
 40
0.0
 40
0.0
 40
0.0
 40
0.2975370421098432
 40
0.6488572672737329
 40
1.0
 40
1.0
 40
1.0
 40
1.0
 10
121.0504997506656
 20
5.362339214914358
 30
0.0
 10
122.1363025319857
 20
5.806669460226216
 30
0.0
 10
124.5041792188337
 20
6.775647664404516
 30
0.0
 10
128.154711196289
 20
7.716270523323943
 30
0.0
 10
130.7184529936747
 20
7.900931408519709
 30
0.0
 10
131.9999999999995
 20
8.000000000000021
 30
0.0
  0
SPLINE
  5
C0
330
1F
100
AcDbEntity
  8
0
  6
Continuous
 62
     1
370
    15
100
AcDbSpline
210
0.0
220
0.0
230
1.0
 70
    24
 71
     3
 72
    10
 73
     6
 74
     0
 42
0.000000001
 43
0.00000001
 40
0.0
 40
0.0
 40
0.0
 40
0.0
 40
0.5
 40
0.5
 40
1.0
 40
1.0
 40
1.0
 40
1.0
 10
132.0
 20
5.600000000000019
 30
0.0
 10
132.0
 20
5.939458054458532
 30
0.0
 10
132.0
 20
6.33393975093696
 30
0.0
 10
132.0
 20
7.161561287686872
 30
0.0
 10
132.0
 20
7.592587486411817
 30
0.0
 10
131.9999999999995
 20
8.000000000000021
 30
0.0
  0
LINE
  5
C1
330
1F
100
AcDbEntity
  8
0
  6
Continuous
 62
     1
370
    15
100
AcDbLine
 10
132.0
 20
5.600000000000019
 30
0.0
 11
129.017720170978
 21
5.433822280759546
 31
0.0
  0
SPLINE
  5
C2
330
1F
100
AcDbEntity
  8
0
  6
Continuous
 62
     1
370
    15
100
AcDbSpline
210
0.0
220
0.0
230
1.0
 70
     8
 71
     3
 72
    15
 73
    11
 74
     0
 42
0.000000001
 43
0.00000001
 40
0.0
 40
0.0
 40
0.0
 40
0.0
 40
0.073772641422929
 40
0.2180993544534881
 40
0.3624804600555634
 40
0.5067289724119814
 40
0.6511333926353605
 40
0.7953960505520781
 40
0.9397572068622446
 40
1.0
 40
1.0
 40
1.0
 40
1.0
 10
68.59490129729029
 20
-0.7549844827839323
 30
0.0
 10
67.93974349675098
 20
-0.4939166051490641
 30
0.0
 10
66.00285347076394
 20
0.2778970981760561
 30
0.0
 10
62.78372764151789
 20
1.585250956175948
 30
0.0
 10
58.93826596297439
 20
3.014123638280967
 30
0.0
 10
55.09305858438633
 20
4.21544324442667
 30
0.0
 10
51.24776123939128
 20
5.098094547655156
 30
0.0
 10
47.40251891071872
 20
5.567219422084297
 30
0.0
 10
44.30402215760413
 20
5.676679333218341
 30
0.0
 10
42.48691121623686
 20
5.478035534035869
 30
0.0
 10
41.95188811993537
 20
5.41954762442055
 30
0.0
  0
SPLINE
  5
C3
330
1F
100
AcDbEntity
  8
0
  6
Continuous
 62
     1
370
    15
100
AcDbSpline
210
0.0
220
0.0
230
1.0
 70
     8
 71
     3
 72
    15
 73
    11
 74
     0
 42
0.000000001
 43
0.00000001
 40
0.0
 40
0.0
 40
0.0
 40
0.0
 40
0.11994803508489
 40
0.2643851694313565
 40
0.4087143386565719
 40
0.5531900149939997
 40
0.6975117603967669
 40
0.8419593644656795
 40
0.9863638616738375
 40
1.0
 40
1.0
 40
1.0
 40
1.0
 10
112.122302727541
 20
-0.7581901121243891
 30
0.0
 10
111.0575621258775
 20
-0.3288605904781343
 30
0.0
 10
108.710698968244
 20
0.6174521877344967
 30
0.0
 10
105.0824150605744
 20
2.060939958763469
 30
0.0
 10
101.2371807114126
 20
3.430655602904973
 30
0.0
 10
97.39188905587335
 20
4.53389748490964
 30
0.0
 10
93.54667171668991
 20
5.303204203515254
 30
0.0
 10
89.70119925193247
 20
5.622871904990681
 30
0.0
 10
87.01612432944539
 20
5.657516373289154
 30
0.0
 10
85.61329572574027
 20
5.469862152650072
 30
0.0
 10
85.49225619167775
 20
5.453670880693518
 30
0.0
  0
SPLINE
  5
C4
330
1F
100
AcDbEntity
  8
0
  6
Continuous
 62
     1
370
    15
100
AcDbSpline
210
0.0
220
0.0
230
1.0
 70
     8
 71
     3
 72
    11
 73
     7
 74
     0
 42
0.000000001
 43
0.00000001
 40
0.0
 40
0.0
 40
0.0
 40
0.0
 40
0.0565454629896138
 40
0.3507817049771196
 40
0.6449860972684615
 40
1.0
 40
1.0
 40
1.0
 40
1.0
 10
25.0687640147861
 20
-0.7577654856844458
 30
0.0
 10
24.82244270045884
 20
-0.6612664362976535
 30
0.0
 10
23.29438004001526
 20
-0.0626312977227373
 30
0.0
 10
20.48486933489896
 20
1.093256327381384
 30
0.0
 10
16.37554530624723
 20
2.693578928026779
 30
0.0
 10
13.54683291296877
 20
3.565160786342797
 30
0.0
 10
12.00000000000001
 20
4.041770394301968
 30
0.0
  0
SPLINE
  5
C5
330
1F
100
AcDbEntity
  8
0
  6
Continuous
 62
   131
370
    15
100
AcDbSpline
210
0.0
220
0.0
230
1.0
 70
    24
 71
     3
 72
    10
 73
     6
 74
     0
 42
0.000000001
 43
0.00000001
 40
0.0
 40
0.0
 40
0.0
 40
0.0
 40
0.5
 40
0.5
 40
1.0
 40
1.0
 40
1.0
 40
1.0
 10
12.0
 20
5.996689628496805
 30
0.0
 10
12.0
 20
5.778479149349103
 30
0.0
 10
12.0
 20
5.48421923417613
 30
0.0
 10
12.0
 20
4.805107769549774
 30
0.0
 10
12.0
 20
4.422426131111352
 30
0.0
 10
12.0
 20
4.041770394301973
 30
0.0
  0
SPLINE
  5
C6
330
1F
100
AcDbEntity
  8
0
  6
Continuous
 62
     1
370
    15
100
AcDbSpline
210
0.0
220
0.0
230
1.0
 70
     8
 71
     3
 72
     8
 73
     4
 74
     0
 42
0.000000001
 43
0.00000001
 40
0.0
 40
0.0
 40
0.0
 40
0.0
 40
1.0
 40
1.0
 40
1.0
 40
1.0
 10
127.0501596178293
 20
2.237560614295344
 30
0.0
 10
127.0333416760361
 20
2.25747998239585
 30
0.0
 10
127.0166213647686
 20
2.277367021152569
 30
0.0
 10
127.0000000000076
 20
2.297221294791916
 30
0.0
  0
LINE
  5
C7
330
1F
100
AcDbEntity
  8
0
  6
Continuous
 62
     1
370
    15
100
AcDbLine
 10
127.0
 20
2.93771943529661
 30
0.0
 11
132.0
 21
0.0000000000000196
 31
0.0
  0
LINE
  5
C8
330
1F
100
AcDbEntity
  8
0
  6
Continuous
 62
     1
370
    15
100
AcDbLine
 10
132.0
 20
0.0000000000000196
 30
0.0
 11
132.0
 21
-2.137943568237139
 31
0.0
  0
SPLINE
  5
C9
330
1F
100
AcDbEntity
  8
0
  6
Continuous
 62
     1
370
    15
100
AcDbSpline
210
0.0
220
0.0
230
1.0
 70
     8
 71
     3
 72
    12
 73
     8
 74
     0
 42
0.000000001
 43
0.00000001
 40
0.0
 40
0.0
 40
0.0
 40
0.0
 40
0.4999999999999977
 40
0.4999999999999977
 40
0.7499999999999988
 40
0.7499999999999988
 40
1.0
 40
1.0
 40
1.0
 40
1.0
 10
132.0
 20
-2.137943568237139
 30
0.0
 10
131.1431630450194
 20
-1.464327440546165
 30
0.0
 10
130.3006401780237
 20
-0.7630972272402644
 30
0.0
 10
129.0588911009162
 20
0.3312574405560066
 30
0.0
 10
128.6487003601944
 20
0.7032296227316502
 30
0.0
 10
127.8367033635173
 20
1.463348952643244
 30
0.0
 10
127.437096428692
 20
1.849539909839681
 30
0.0
 10
127.0501596178293
 20
2.237560614295339
 30
0.0
  0
SPLINE
  5
CA
330
1F
100
AcDbEntity
  8
0
  6
Continuous
 62
     1
370
    15
100
AcDbSpline
210
0.0
220
0.0
230
1.0
 70
     8
 71
     3
 72
    13
 73
     9
 74
     0
 42
0.000000001
 43
0.00000001
 40
0.0
 40
0.0
 40
0.0
 40
0.0
 40
0.1488699693879474
 40
0.3574608660542347
 40
0.5662736542823675
 40
0.7749053731867399
 40
0.9836424993376292
 40
1.0
 40
1.0
 40
1.0
 40
1.0
 10
127.0501596178293
 20
2.237560614295354
 30
0.0
 10
126.1361645123228
 20
2.624496752877055
 30
0.0
 10
123.9415144876945
 20
3.553592982114905
 30
0.0
 10
120.4639731325183
 20
4.79143274191892
 30
0.0
 10
116.6186410817665
 20
5.815469805854362
 30
0.0
 10
112.7734406036047
 20
6.341730235518885
 30
0.0
 10
110.1095822935504
 20
6.503328980738525
 30
0.0
 10
108.7271246441136
 20
6.350630709813436
 30
0.0
 10
108.6266622197701
 20
6.33953421185095
 30
0.0
  0
SPLINE
  5
CB
330
1F
100
AcDbEntity
  8
0
  6
Continuous
 62
     1
370
    15
100
AcDbSpline
210
0.0
220
0.0
230
1.0
 70
     8
 71
     3
 72
    21
 73
    17
 74
     0
 42
0.000000001
 43
0.00000001
 40
0.0
 40
0.0
 40
0.0
 40
0.0
 40
0.0213509751847193
 40
0.0982679899047216
 40
0.175202337092318
 40
0.2521649256309123
 40
0.3290586728141209
 40
0.4060333652873529
 40
0.4829344576172301
 40
0.5598866873173131
 40
0.6368353765382718
 40
0.7137393857894478
 40
0.7907135050554979
 40
0.8676059587993843
 40
0.9445709446933999
 40
0.9999999999999999
 40
0.9999999999999999
 40
0.9999999999999999
 40
0.9999999999999999
 10
71.54096257837111
 20
-5.968245951199833
 30
0.0
 10
71.18521907362036
 20
-6.037773470121089
 30
0.0
 10
69.54790748334997
 20
-6.357774288273143
 30
0.0
 10
66.62919260690526
 20
-6.460900555671809
 30
0.0
 10
62.78375704566582
 20
-6.230729698499493
 30
0.0
 10
58.93820778998631
 20
-5.490063944022982
 30
0.0
 10
55.09315047106038
 20
-4.336834329910306
 30
0.0
 10
51.2476980851502
 20
-2.851822854596922
 30
0.0
 10
47.40256938451583
 20
-1.146534995107845
 30
0.0
 10
43.55702577235286
 20
0.6447469902633353
 30
0.0
 10
39.71149614637383
 20
2.387177677947038
 30
0.0
 10
35.86634029475795
 20
3.947117390081373
 30
0.0
 10
32.02088024175185
 20
5.207391271443697
 30
0.0
 10
28.17584461586306
 20
6.054176673563034
 30
0.0
 10
24.68853577737467
 20
6.45851022670313
 30
0.0
 10
22.48285825057896
 20
6.351935884228897
 30
0.0
 10
21.5594132034108
 20
6.30731669238538
 30
0.0
  0
SPLINE
  5
CC
330
1F
100
AcDbEntity
  8
0
  6
Continuous
 62
     1
370
    15
100
AcDbSpline
210
0.0
220
0.0
230
1.0
 70
    24
 71
     3
 72
    10
 73
     6
 74
     0
 42
0.000000001
 43
0.00000001
 40
0.0
 40
0.0
 40
0.0
 40
0.0
 40
0.5
 40
0.5
 40
1.0
 40
1.0
 40
1.0
 40
1.0
 10
132.0
 20
-6.311778114945708
 30
0.0
 10
132.0
 20
-5.82793111203042
 30
0.0
 10
132.0
 20
-5.216571871251729
 30
0.0
 10
131.9999999999999
 20
-3.795220473205422
 30
0.0
 10
132.0
 20
-2.98645954441046
 30
0.0
 10
132.0
 20
-2.137943568237395
 30
0.0
  0
SPLINE
  5
CD
330
1F
100
AcDbEntity
  8
0
  6
Continuous
 62
   131
370
    15
100
AcDbSpline
210
0.0
220
0.0
230
1.0
 70
    24
 71
     3
 72
    12
 73
     8
 74
     0
 42
0.000000001
 43
0.00000001
 40
0.0
 40
0.0
 40
0.0
 40
0.0
 40
0.1668057921902803
 40
0.3357834999670195
 40
0.5813249223080882
 40
0.8339870625312064
 40
0.9999999999999999
 40
0.9999999999999999
 40
0.9999999999999999
 40
0.9999999999999999
 10
12.0
 20
-4.429819854225476
 30
0.0
 10
11.99999999999999
 20
-4.632307443469029
 30
0.0
 10
11.99999999999999
 20
-5.039919136823919
 30
0.0
 10
11.99999999999999
 20
-5.610195909283778
 30
0.0
 10
11.99999999999999
 20
-6.100135965137418
 30
0.0
 10
11.99999999999999
 20
-6.398191948216516
 30
0.0
 10
11.99999999999999
 20
-6.418203873697233
 30
0.0
 10
11.99999999999999
 20
-6.426138997401695
 30
0.0
  0
SPLINE
  5
CE
330
1F
100
AcDbEntity
  8
0
  6
Continuous
 62
     1
370
    15
100
AcDbSpline
210
0.0
220
0.0
230
1.0
 70
     8
 71
     3
 72
    21
 73
    17
 74
     0
 42
0.000000001
 43
0.00000001
 40
0.0
 40
0.0
 40
0.0
 40
0.0
 40
0.0460836278545554
 40
0.1230236108336918
 40
0.1999730078544943
 40
0.2768663819644276
 40
0.353835777939048
 40
0.4307253003188054
 40
0.507680129427242
 40
0.5846125915650445
 40
0.6615205416497478
 40
0.7384863163893862
 40
0.8153715191723621
 40
0.8923360614809388
 40
0.9692475021874908
 40
0.9999999999999999
 40
0.9999999999999999
 40
0.9999999999999999
 40
0.9999999999999999
 10
115.0773588064075
 20
-5.957171650116762
 30
0.0
 10
114.3095723524049
 20
-6.084478787625391
 30
0.0
 10
112.2599103288615
 20
-6.424334490623495
 30
0.0
 10
108.9279307865565
 20
-6.441078400511865
 30
0.0
 10
105.0823667200097
 20
-6.043424720957136
 30
0.0
 10
101.2372620520891
 20
-5.161968013702658
 30
0.0
 10
97.39181138194948
 20
-3.892994224791059
 30
0.0
 10
93.54674091807688
 20
-2.32207310508119
 30
0.0
 10
89.70118682101867
 20
-0.5760487383141666
 30
0.0
 10
85.85572239481725
 20
1.214907315481273
 30
0.0
 10
82.0104764708201
 20
2.914239779658152
 30
0.0
 10
78.16499176306941
 20
4.386392216828278
 30
0.0
 10
74.31997048643944
 20
5.53327815727283
 30
0.0
 10
70.4744571184147
 20
6.224921248100975
 30
0.0
 10
67.3985452163816
 20
6.487517419955761
 30
0.0
 10
65.60466272087206
 20
6.340324428229799
 30
0.0
 10
65.09226861493576
 20
6.29828108281319
 30
0.0
  0
SPLINE
  5
CF
330
1F
100
AcDbEntity
  8
0
  6
Continuous
 62
     1
370
    15
100
AcDbSpline
210
0.0
220
0.0
230
1.0
 70
     8
 71
     3
 72
    12
 73
     8
 74
     0
 42
0.000000001
 43
0.00000001
 40
0.0
 40
0.0
 40
0.0
 40
0.0
 40
0.2291720152873868
 40
0.4695196585434869
 40
0.709841952069755
 40
0.8548977822573011
 40
1.0
 40
1.0
 40
1.0
 40
1.0
 10
27.99627912961129
 20
-6.005509297693824
 30
0.0
 10
26.77409566550494
 20
-6.161538959886498
 30
0.0
 10
24.27012866925067
 20
-6.481207107952007
 30
0.0
 10
20.48506502653686
 20
-6.355682538314791
 30
0.0
 10
17.14780301661849
 20
-5.851171122881384
 30
0.0
 10
14.32035645849663
 20
-5.166990723972248
 30
0.0
 10
12.77353458294868
 20
-4.67556966529586
 30
0.0
 10
12.0
 20
-4.429819854225475
 30
0.0
  0
SPLINE
  5
D0
330
1F
100
AcDbEntity
  8
0
  6
Continuous
 62
     1
370
    15
100
AcDbSpline
210
0.0
220
0.0
230
1.0
 70
    24
 71
     3
 72
     8
 73
     4
 74
     0
 42
0.000000001
 43
0.00000001
 40
0.0
 40
0.0
 40
0.0
 40
0.0
 40
1.0
 40
1.0
 40
1.0
 40
1.0
 10
127.0
 20
2.297221294800909
 30
0.0
 10
127.0
 20
2.87388751383248
 30
0.0
 10
127.0
 20
3.404182854907326
 30
0.0
 10
127.0
 20
3.849725336690633
 30
0.0
  0
SPLINE
  5
D1
330
1F
100
AcDbEntity
  8
0
  6
Continuous
 62
     1
370
    15
100
AcDbSpline
210
0.0
220
0.0
230
1.0
 70
     8
 71
     3
 72
    10
 73
     6
 74
     0
 42
0.000000001
 43
0.00000001
 40
0.0
 40
0.0
 40
0.0
 40
0.0
 40
0.5
 40
0.5
 40
1.0
 40
1.0
 40
1.0
 40
1.0
 10
132.0
 20
5.600000000000019
 30
0.0
 10
131.1545154810572
 20
5.370725705910433
 30
0.0
 10
130.3142708767344
 20
5.112464311961348
 30
0.0
 10
128.6452159193447
 20
4.532874482727863
 30
0.0
 10
127.8177238566893
 20
4.212516972543673
 30
0.0
 10
127.0
 20
3.849725336688074
 30
0.0
  0
SPLINE
  5
D2
330
1F
100
AcDbEntity
  8
0
  6
Continuous
 62
   131
370
    15
100
AcDbSpline
210
0.0
220
0.0
230
1.0
 70
    24
 71
     3
 72
    14
 73
    10
 74
     0
 42
0.000000001
 43
0.00000001
 40
0.0
 40
0.0
 40
0.0
 40
0.0
 40
0.25
 40
0.25
 40
0.4999999999999999
 40
0.4999999999999999
 40
0.75
 40
0.75
 40
1.0
 40
1.0
 40
1.0
 40
1.0
 10
12.0
 20
4.041770394301974
 30
0.0
 10
12.0
 20
3.453606117052255
 30
0.0
 10
12.0
 20
2.798096995001949
 30
0.0
 10
12.0
 20
1.398298542786053
 30
0.0
 10
12.0
 20
0.654517070854168
 30
0.0
 10
12.0
 20
-0.8511287616602151
 30
0.0
 10
12.0
 20
-1.612190851194779
 30
0.0
 10
12.0
 20
-3.077834039956103
 30
0.0
 10
12.0
 20
-3.781814798463859
 30
0.0
 10
12.0
 20
-4.42981985422547
 30
0.0
  0
LINE
  5
D3
330
1F
100
AcDbEntity
  8
0
  6
Continuous
 62
     1
370
    15
100
AcDbLine
 10
132.0
 20
0.0000000000000196
 30
0.0
 11
132.0
 21
5.60000000000002
 31
0.0
  0
SPLINE
  5
D4
330
1F
100
AcDbEntity
  8
0
  6
Continuous
 62
   131
370
    15
100
AcDbSpline
210
0.0
220
0.0
230
1.0
 70
     8
 71
     3
 72
    10
 73
     6
 74
     0
 42
0.000000001
 43
0.00000001
 40
0.0
 40
0.0
 40
0.0
 40
0.0
 40
0.5
 40
0.5
 40
1.0
 40
1.0
 40
1.0
 40
1.0
 10
11.99999999999868
 20
7.225899940084917
 30
0.0
 10
11.49271176192936
 20
7.351761638381475
 30
0.0
 10
10.98217900724141
 20
7.463279055343215
 30
0.0
 10
9.963872378057243
 20
7.65549498662214
 30
0.0
 10
9.458713721646971
 20
7.736107543147031
 30
0.0
 10
8.95024082099014
 20
7.801143705714208
 30
0.0
  0
SPLINE
  5
D5
330
1F
100
AcDbEntity
  8
0
  6
Continuous
 62
   131
370
    15
100
AcDbSpline
210
0.0
220
0.0
230
1.0
 70
     8
 71
     3
 72
    10
 73
     6
 74
     0
 42
0.000000001
 43
0.00000001
 40
0.0
 40
0.0
 40
0.0
 40
0.0
 40
0.5
 40
0.5
 40
1.0
 40
1.0
 40
1.0
 40
1.0
 10
11.99999999999868
 20
5.996689628497303
 30
0.0
 10
11.49269127889485
 20
6.190826431097231
 30
0.0
 10
10.98213777896422
 20
6.373248802505317
 30
0.0
 10
9.963790256298065
 20
6.711265658738656
 30
0.0
 10
9.458611430150711
 20
6.866637972645979
 30
0.0
 10
8.950117635736813
 20
7.00819639306902
 30
0.0
  0
SPLINE
  5
D6
330
1F
100
AcDbEntity
  8
0
  6
Continuous
 62
   131
370
    15
100
AcDbSpline
210
0.0
220
0.0
230
1.0
 70
     8
 71
     3
 72
    10
 73
     6
 74
     0
 42
0.000000001
 43
0.00000001
 40
0.0
 40
0.0
 40
0.0
 40
0.0
 40
0.5
 40
0.5
 40
1.0
 40
1.0
 40
1.0
 40
1.0
 10
11.99999999999868
 20
-7.225899940084907
 30
0.0
 10
11.49271176192936
 20
-7.351761638381464
 30
0.0
 10
10.98217900724142
 20
-7.463279055343206
 30
0.0
 10
9.963872378057243
 20
-7.655494986622129
 30
0.0
 10
9.458713721646971
 20
-7.73610754314702
 30
0.0
 10
8.95024082099014
 20
-7.801143705714197
 30
0.0
  0
LINE
  5
D7
330
1F
100
AcDbEntity
  8
0
  6
Continuous
 62
   131
370
    15
100
AcDbLine
 10
8.950117635736817
 20
7.801219667756805
 30
0.0
 11
8.95011763573682
 21
8.000000000000004
 31
0.0
  0
LINE
  5
D8
330
1F
100
AcDbEntity
  8
0
  6
Continuous
 62
   131
370
    15
100
AcDbLine
 10
-117.0
 20
7.99999999999999
 30
0.0
 11
-117.0
 21
-8.000000000000004
 31
0.0
  0
LINE
  5
D9
330
1F
100
AcDbEntity
  8
0
  6
Continuous
 62
   131
370
    15
100
AcDbLine
 10
8.95011763573682
 20
-7.999999999999996
 30
0.0
 11
8.950117635736813
 21
7.008195976660207
 31
0.0
  0
LINE
  5
DA
330
1F
100
AcDbEntity
  8
0
  6
Continuous
 62
   131
370
    15
100
AcDbLine
 10
-118.0
 20
6.999999999999992
 30
0.0
 11
-118.0
 21
-6.999999999999998
 31
0.0
  0
SPLINE
  5
DB
330
1F
100
AcDbEntity
  8
0
  6
Continuous
 62
   131
370
    15
100
AcDbSpline
210
0.0
220
0.0
230
1.0
 70
    24
 71
     3
 72
    14
 73
    10
 74
     0
 42
0.000000001
 43
0.00000001
 40
0.0
 40
0.0
 40
0.0
 40
0.0
 40
0.25
 40
0.25
 40
0.4999999999999999
 40
0.4999999999999999
 40
0.75
 40
0.75
 40
1.0
 40
1.0
 40
1.0
 40
1.0
 10
12.0
 20
4.041770394301974
 30
0.0
 10
12.0
 20
3.453606117052255
 30
0.0
 10
12.0
 20
2.798096995001949
 30
0.0
 10
12.0
 20
1.398298542786053
 30
0.0
 10
12.0
 20
0.654517070854168
 30
0.0
 10
12.0
 20
-0.8511287616602151
 30
0.0
 10
12.0
 20
-1.612190851194779
 30
0.0
 10
12.0
 20
-3.077834039956103
 30
0.0
 10
12.0
 20
-3.781814798463859
 30
0.0
 10
12.0
 20
-4.42981985422547
 30
0.0
  0
SPLINE
  5
DC
330
1F
100
AcDbEntity
  8
0
  6
Continuous
 62
   131
370
    15
100
AcDbSpline
210
0.0
220
0.0
230
1.0
 70
     8
 71
     3
 72
    10
 73
     6
 74
     0
 42
0.000000001
 43
0.00000001
 40
0.0
 40
0.0
 40
0.0
 40
0.0
 40
0.5
 40
0.5
 40
1.0
 40
1.0
 40
1.0
 40
1.0
 10
11.99999999999693
 20
-4.429819854224451
 30
0.0
 10
11.49269875918545
 20
-4.260472557551551
 30
0.0
 10
10.98215283530538
 20
-4.081806954974862
 30
0.0
 10
9.963820246709966
 20
-3.709015745795439
 30
0.0
 10
9.458648786458586
 20
-3.515252100468162
 30
0.0
 10
8.95016262232711
 20
-3.314374647017682
 30
0.0
  0
SPLINE
  5
DD
330
1F
100
AcDbEntity
  8
0
  6
Continuous
 62
   131
370
    15
100
AcDbSpline
210
0.0
220
0.0
230
1.0
 70
     8
 71
     3
 72
    10
 73
     6
 74
     0
 42
0.000000001
 43
0.00000001
 40
0.0
 40
0.0
 40
0.0
 40
0.0
 40
0.5
 40
0.5
 40
1.0
 40
1.0
 40
1.0
 40
1.0
 10
11.99999999999561
 20
4.0417703943032
 30
0.0
 10
11.49269621427815
 20
4.183875924693305
 30
0.0
 10
10.98214771291389
 20
4.318110017606257
 30
0.0
 10
9.963810043526244
 20
4.568339713010803
 30
0.0
 10
9.458636077290581
 20
4.684166631789219
 30
0.0
 10
8.950147317223825
 20
4.790571922642445
 30
0.0
  0
LINE
  5
DE
330
1F
100
AcDbEntity
  8
0
  6
Continuous
 62
   131
370
    15
100
AcDbLine
 10
9.611102425609307
 20
-6.622403106173349
 30
0.0
 11
8.950240820990144
 21
-6.70973000577929
 31
0.0
  0
SPLINE
  5
DF
330
1F
100
AcDbEntity
  8
0
  6
Continuous
 62
   131
370
    15
100
AcDbSpline
210
0.0
220
0.0
230
1.0
 70
    24
 71
     3
 72
    12
 73
     8
 74
     0
 42
0.000000001
 43
0.00000001
 40
0.0
 40
0.0
 40
0.0
 40
0.0
 40
0.1664989370924376
 40
0.3351657943263258
 40
0.580255519899629
 40
0.8324528641181163
 40
1.0
 40
1.0
 40
1.0
 40
1.0
 10
12.0
 20
-4.429819854225475
 30
0.0
 10
11.99999999999999
 20
-4.632308358984424
 30
0.0
 10
11.99999999999999
 20
-5.039921895290688
 30
0.0
 10
11.99999999999999
 20
-5.610182590078776
 30
0.0
 10
11.99999999999999
 20
-6.100212689557009
 30
0.0
 10
11.99999999999999
 20
-6.398768579576203
 30
0.0
 10
11.99999999999999
 20
-6.418728838336053
 30
0.0
 10
11.99999999999999
 20
-6.426696266962808
 30
0.0
  0
SPLINE
  5
E0
330
1F
100
AcDbEntity
  8
0
  6
Continuous
 62
   131
370
    15
100
AcDbSpline
210
0.0
220
0.0
230
1.0
 70
    24
 71
     3
 72
    10
 73
     6
 74
     0
 42
0.000000001
 43
0.00000001
 40
0.0
 40
0.0
 40
0.0
 40
0.0
 40
0.5
 40
0.5
 40
1.0
 40
1.0
 40
1.0
 40
1.0
 10
12.0
 20
5.996689628496805
 30
0.0
 10
12.0
 20
5.778479149349099
 30
0.0
 10
12.0
 20
5.48421923417613
 30
0.0
 10
12.0
 20
4.805107769549774
 30
0.0
 10
12.0
 20
4.422426131111353
 30
0.0
 10
12.0
 20
4.041770394301973
 30
0.0
  0
SPLINE
  5
E1
330
1F
100
AcDbEntity
  8
0
  6
Continuous
 62
   131
370
    15
100
AcDbSpline
210
0.0
220
0.0
230
1.0
 70
    24
 71
     3
 72
    10
 73
     6
 74
     0
 42
0.000000001
 43
0.00000001
 40
0.0
 40
0.0
 40
0.0
 40
0.0
 40
0.3298019621010768
 40
0.8275472563009365
 40
1.0
 40
1.0
 40
1.0
 40
1.0
 10
11.99999999999999
 20
-6.444768475164876
 30
0.0
 10
11.99999999999999
 20
-6.536058459120873
 30
0.0
 10
11.99999999999999
 20
-6.765125549168648
 30
0.0
 10
11.99999999999999
 20
-7.020641189116388
 30
0.0
 10
11.99999999999999
 20
-7.183892698707511
 30
0.0
 10
11.99999999999999
 20
-7.225899940074949
 30
0.0
  0
LINE
  5
E2
330
1F
100
AcDbEntity
  8
중심선
100
AcDbLine
 10
-121.0
 20
-0.0000000000000004
 30
0.0
 11
139.0
 21
0.0000000000000202
 31
0.0
  0
CIRCLE
  5
E3
330
1F
100
AcDbEntity
  8
외형선
100
AcDbCircle
 10
0.0000000000000104
 20
0.0
 30
0.0
 40
3.000000000000005
  0
INSERT
  5
E4
330
1F
100
AcDbEntity
  8
0
  6
Continuous
 62
     7
100
AcDbBlockReference
 66
     1
  2
블럭10
 10
-22.93944368806589
 20
-52.04609937292004
 30
0.0
  0
ATTRIB
  5
E5
330
E4
100
AcDbEntity
  8
FORMAT
 62
     2
100
AcDbText
 10
-40.63836564979034
 20
-49.97073246008785
 30
0.0
 40
4.233333333333333
  1
SEME70160120E [ 2 FLUTE ]
 41
0.75
  7
SLDTEXTSTYLE0
 11
-40.63836564979034
 21
-52.08739912675452
 31
0.0
100
AcDbAttribute
  2
AUTOATTR0
 70
     0
 74
     1
  0
SEQEND
  5
E6
330
E4
100
AcDbEntity
  8
0
  6
Continuous
 62
     7
  0
HATCH
  5
E7
330
1F
100
AcDbEntity
  8
중심선
100
AcDbHatch
 10
0.0
 20
0.0
 30
0.0
210
0.0
220
0.0
230
1.0
  2
SOLID
 70
     1
 71
     0
 91
        1
 92
        0
 93
        4
 72
     1
 10
-17.22453438368504
 20
-35.7989250712761
 11
-20.67080962752232
 21
-35.7989250712761
 72
     1
 10
-20.67080962752232
 20
-35.7989250712761
 11
-22.79903948672635
 21
-38.3352506518487
 72
     1
 10
-22.79903948672635
 20
-38.3352506518487
 11
-19.35273115777591
 21
-38.33521122254621
 72
     1
 10
-19.35273115777591
 20
-38.33521122254621
 11
-17.22453438368504
 21
-35.7989250712761
 97
        0
 75
     0
 76
     1
 98
        1
 10
0.0
 20
0.0
  0
HATCH
  5
E8
330
1F
100
AcDbEntity
  8
중심선
100
AcDbHatch
 10
0.0
 20
0.0
 30
0.0
210
0.0
220
0.0
230
1.0
  2
SOLID
 70
     1
 71
     0
 91
        1
 92
        0
 93
        4
 72
     1
 10
-12.21177039264909
 20
-35.7989250712761
 11
-15.65804563648637
 21
-35.7989250712761
 72
     1
 10
-15.65804563648637
 20
-35.7989250712761
 11
-20.18918364484376
 21
-41.19892507127612
 72
     1
 10
-20.18918364484376
 20
-41.19892507127612
 11
-16.74290840100648
 21
-41.19892507127612
 72
     1
 10
-16.74290840100648
 20
-41.19892507127612
 11
-12.21177039264909
 21
-35.7989250712761
 97
        0
 75
     0
 76
     1
 98
        1
 10
0.0
 20
0.0
  0
HATCH
  5
E9
330
1F
100
AcDbEntity
  8
중심선
100
AcDbHatch
 10
0.0
 20
0.0
 30
0.0
210
0.0
220
0.0
230
1.0
  2
SOLID
 70
     1
 71
     0
 91
        1
 92
        0
 93
        4
 72
     1
 10
-7.199006401613195
 20
-35.79892507127613
 11
-10.64528164545031
 21
-35.7989250712761
 72
     1
 10
-10.64528164545031
 20
-35.7989250712761
 11
-17.69371854733956
 21
-44.19892507127612
 72
     1
 10
-17.69371854733956
 20
-44.19892507127612
 11
-14.24744330350228
 21
-44.19892507127612
 72
     1
 10
-14.24744330350228
 20
-44.19892507127612
 11
-7.199006401613195
 21
-35.79892507127613
 97
        0
 75
     0
 76
     1
 98
        1
 10
0.0
 20
0.0
  0
HATCH
  5
EA
330
1F
100
AcDbEntity
  8
중심선
100
AcDbHatch
 10
0.0
 20
0.0
 30
0.0
210
0.0
220
0.0
230
1.0
  2
SOLID
 70
     1
 71
     0
 91
        1
 92
        0
 93
        6
 72
     3
 10
-2.399115970600996
 20
-39.99892507132738
 11
3.960054785062284
 21
1.540850780301639E-10
 40
0.3939339440162633
 50
17.09539180608433
 51
320.0019657685079
 73
     0
 72
     1
 10
-0.7161163149004002
 20
-38.58681907591441
 11
1.589185558800638
 21
-36.65249236586649
 72
     3
 10
-2.399115970653842
 20
-39.99892507127625
 11
6.600054785286829
 21
-1.249000902703301E-13
 40
0.6363583540795982
 50
39.99873849337408
 51
368.4976242363725
 73
     1
 72
     1
 10
4.026216521246767
 20
-39.03892507120613
 11
-3.71904866381792
 21
-39.0389250712061
 72
     1
 10
-3.71904866381792
 20
-39.0389250712061
 11
-3.719073708263854
 21
-40.95892507120602
 72
     1
 10
-3.719073708263854
 20
-40.95892507120602
 11
0.7223060612081831
 21
-40.95892507120599
 97
        0
 75
     0
 76
     1
 98
        1
 10
0.0
 20
0.0
  0
DIMENSION
  5
EB
330
1F
100
AcDbEntity
  8
치수문자_일반주서
100
AcDbDimension
  2
_D
 10
150.7278046201332
 20
8.000000000000092
 30
0.0
 11
150.7278046201332
 21
18.54150000000009
 31
0.0
 70
   160
  1
%%c<>
 71
     2
 42
16.0
 52
-270.0
  3
SLDDIMSTYLE0
100
AcDbAlignedDimension
 13
132.0
 23
-7.99999999999998
 33
0.0
 14
131.9999999999995
 24
8.000000000000021
 34
0.0
 50
90.0000000000002
100
AcDbRotatedDimension
  0
DIMENSION
  5
F9
330
1F
100
AcDbEntity
  8
치수문자_일반주서
100
AcDbDimension
  2
_D_1
 10
131.9999999999995
 20
28.78841044024269
 30
0.0
 11
6.999999999999723
 21
28.78841044024269
 31
0.0
 70
   160
  1
<>
 71
     2
 42
249.9999999999995
  3
SLDDIMSTYLE1
100
AcDbAlignedDimension
 13
-118.0
 23
6.999999999999992
 33
0.0
 14
131.9999999999995
 24
8.000000000000021
 34
0.0
 50
-0.0000000000000033
100
AcDbRotatedDimension
  0
DIMENSION
  5
104
330
1F
100
AcDbEntity
  8
치수문자_일반주서
100
AcDbDimension
  2
_D_2
 10
131.9999999999995
 20
20.57289774625211
 30
0.0
 11
72.0
 21
20.57289774625211
 31
0.0
 70
   160
  1
<>
 71
     2
 42
119.9999999999995
  3
SLDDIMSTYLE1
100
AcDbAlignedDimension
 13
12.0
 23
7.225899940084591
 33
0.0
 14
131.9999999999995
 24
8.000000000000021
 34
0.0
 50
-0.0000000000000034
100
AcDbRotatedDimension
  0
DIMENSION
  5
10E
330
1F
100
AcDbEntity
  8
치수문자_일반주서
100
AcDbDimension
  2
_D_3
 10
-128.5712558901469
 20
-8.000000000000043
 30
0.0
 11
-128.5712558901471
 21
21.59458796575164
 31
0.0
 70
   160
  1
%%c<>
 71
     2
 42
15.99999999999999
 52
-270.0
  3
SLDDIMSTYLE0
100
AcDbAlignedDimension
 13
-117.0
 23
7.99999999999999
 33
0.0
 14
-117.0
 24
-7.999999999999999
 34
0.0
 50
90.0000000000002
100
AcDbRotatedDimension
  0
INSERT
  5
121
330
1F
100
AcDbEntity
  8
외형선
100
AcDbBlockReference
  2
SW_DOWELSYMBOL_0
 10
0.0000000000000104
 20
0.0
 30
0.0
  0
ENDSEC
  0
SECTION
  2
OBJECTS
  0
DICTIONARY
  5
C
330
0
100
AcDbDictionary
281
     1
  3
ACAD_GROUP
350
D
  3
ACAD_IMAGE_VARS
350
145
  3
ACAD_LAYOUT
350
1A
  3
ACAD_MLINESTYLE
350
17
  3
ACAD_PLOTSETTINGS
350
19
  3
ACAD_PLOTSTYLENAME
350
E
  3
ACAD_SCALELIST
350
47
  3
APPDATA
350
143
  3
DWGPROPS
350
155
  0
DICTIONARY
  5
D
102
{ACAD_REACTORS
330
C
102
}
330
C
100
AcDbDictionary
281
     1
  0
RASTERVARIABLES
  5
145
102
{ACAD_REACTORS
330
C
102
}
330
C
100
AcDbRasterVariables
 90
        0
 70
     1
 71
     1
 72
     1
  0
DICTIONARY
  5
1A
102
{ACAD_REACTORS
330
C
102
}
330
C
100
AcDbDictionary
281
     1
  3
Layout1
350
1E
  3
Layout2
350
26
  3
Model
350
22
  0
DICTIONARY
  5
17
102
{ACAD_REACTORS
330
C
102
}
330
C
100
AcDbDictionary
281
     1
  3
Standard
350
18
  0
DICTIONARY
  5
19
102
{ACAD_REACTORS
330
C
102
}
330
C
100
AcDbDictionary
281
     1
  0
ACDBDICTIONARYWDFLT
  5
E
102
{ACAD_REACTORS
330
C
102
}
330
C
100
AcDbDictionary
281
     1
  3
Normal
350
F
100
AcDbDictionaryWithDefault
340
F
  0
DICTIONARY
  5
47
102
{ACAD_REACTORS
330
C
102
}
330
C
100
AcDbDictionary
281
     1
  3
A0
350
48
  3
A1
350
49
  3
A2
350
4A
  3
A3
350
4B
  3
A4
350
4C
  3
A5
350
4D
  3
A6
350
4E
  3
A7
350
4F
  3
A8
350
50
  3
A9
350
51
  3
B0
350
52
  3
B1
350
53
  3
B2
350
54
  3
B3
350
55
  3
B4
350
56
  3
B5
350
57
  3
B6
350
58
  3
B7
350
59
  3
B8
350
5A
  3
B9
350
5B
  3
C0
350
5C
  3
C1
350
5D
  3
C2
350
5E
  3
C3
350
5F
  3
C4
350
60
  3
C5
350
61
  3
C6
350
62
  3
C7
350
63
  3
C8
350
64
  3
C9
350
65
  3
D0
350
66
  3
D1
350
67
  3
D2
350
68
  0
DICTIONARY
  5
143
102
{ACAD_REACTORS
330
C
102
}
330
C
100
AcDbDictionary
281
     1
  0
XRECORD
  5
155
102
{ACAD_REACTORS
330
C
102
}
330
C
100
AcDbXrecord
280
     1
  1
DWGPROPS COOKIE
  2

  3

  4

  6

  7

  8
12014102
  9

300
=
301
=
302
=
303
=
304
=
305
=
306
=
307
=
308
=
309
=
 40
0.0
 41
2458262.175177407
 42
2458266.247060197
  1

 90
        0
  0
LAYOUT
  5
1E
102
{ACAD_REACTORS
330
1A
102
}
330
1A
100
AcDbPlotSettings
  1

  2
none_device
  4

  6

 40
0.0
 41
0.0
 42
0.0
 43
0.0
 44
0.0
 45
0.0
 46
0.0
 47
0.0
 48
0.0
 49
0.0
140
0.0
141
0.0
142
1.0
143
1.0
 70
   688
 72
     1
 73
     0
 74
     5
  7

 75
    16
147
1.0
148
0.0
149
0.0
100
AcDbLayout
  1
Layout1
 70
     1
 71
     1
 10
0.0
 20
0.0
 11
420.0
 21
297.0
 12
0.0
 22
0.0
 32
0.0
 14
1.000000000000000E+20
 24
1.000000000000000E+20
 34
1.000000000000000E+20
 15
-1.000000000000000E+20
 25
-1.000000000000000E+20
 35
-1.000000000000000E+20
146
0.0
 13
0.0
 23
0.0
 33
0.0
 16
1.0
 26
0.0
 36
0.0
 17
0.0
 27
1.0
 37
0.0
 76
     0
330
1B
  0
LAYOUT
  5
26
102
{ACAD_REACTORS
330
1A
102
}
330
1A
100
AcDbPlotSettings
  1

  2
none_device
  4

  6

 40
0.0
 41
0.0
 42
0.0
 43
0.0
 44
0.0
 45
0.0
 46
0.0
 47
0.0
 48
0.0
 49
0.0
140
0.0
141
0.0
142
1.0
143
1.0
 70
   688
 72
     1
 73
     0
 74
     5
  7

 75
    16
147
1.0
148
0.0
149
0.0
100
AcDbLayout
  1
Layout2
 70
     1
 71
     2
 10
0.0
 20
0.0
 11
0.0
 21
0.0
 12
0.0
 22
0.0
 32
0.0
 14
0.0
 24
0.0
 34
0.0
 15
0.0
 25
0.0
 35
0.0
146
0.0
 13
0.0
 23
0.0
 33
0.0
 16
1.0
 26
0.0
 36
0.0
 17
0.0
 27
1.0
 37
0.0
 76
     0
330
23
  0
LAYOUT
  5
22
102
{ACAD_REACTORS
330
1A
102
}
330
1A
100
AcDbPlotSettings
  1

  2
none_device
  4
ANSI_A_(11.00_x_8.50_Inches)
  6

 40
6.35
 41
19.05
 42
6.35000508
 43
19.05000254
 44
279.4
 45
215.9
 46
131.3040904639734
 47
97.95179481902241
 48
0.0
 49
0.0
140
0.0
141
0.0
142
0.0409303606604614
143
1.0
 70
  1696
 72
     0
 73
     0
 74
     0
  7

 75
     0
147
0.0235690232323232
148
0.0
149
0.0
100
AcDbLayout
  1
Model
 70
     1
 71
     0
 10
0.0
 20
0.0
 11
420.0
 21
297.0
 12
0.0
 22
0.0
 32
0.0
 14
-132.9462558901471
 24
-49.97073246008785
 34
0.0
 15
151.2781379534666
 25
33.16341044024269
 35
0.0
146
0.0
 13
0.0
 23
0.0
 33
0.0
 16
1.0
 26
0.0
 36
0.0
 17
0.0
 27
1.0
 37
0.0
 76
     0
330
1F
331
29
  0
MLINESTYLE
  5
18
102
{ACAD_REACTORS
330
17
102
}
330
17
100
AcDbMlineStyle
  2
Standard
 70
     0
  3

 62
   256
 51
90.0
 52
90.0
 71
     2
 49
0.5
 62
   256
  6
BYLAYER
 49
-0.5
 62
   256
  6
BYLAYER
  0
ACDBPLACEHOLDER
  5
F
102
{ACAD_REACTORS
330
E
102
}
330
E
  0
SCALE
  5
48
102
{ACAD_REACTORS
330
47
102
}
330
47
100
AcDbScale
 70
     0
300
1:1
140
1.0
141
1.0
290
     1
  0
SCALE
  5
49
102
{ACAD_REACTORS
330
47
102
}
330
47
100
AcDbScale
 70
     0
300
1:2
140
1.0
141
2.0
290
     0
  0
SCALE
  5
4A
102
{ACAD_REACTORS
330
47
102
}
330
47
100
AcDbScale
 70
     0
300
1:4
140
1.0
141
4.0
290
     0
  0
SCALE
  5
4B
102
{ACAD_REACTORS
330
47
102
}
330
47
100
AcDbScale
 70
     0
300
1:5
140
1.0
141
5.0
290
     0
  0
SCALE
  5
4C
102
{ACAD_REACTORS
330
47
102
}
330
47
100
AcDbScale
 70
     0
300
1:8
140
1.0
141
8.0
290
     0
  0
SCALE
  5
4D
102
{ACAD_REACTORS
330
47
102
}
330
47
100
AcDbScale
 70
     0
300
1:10
140
1.0
141
10.0
290
     0
  0
SCALE
  5
4E
102
{ACAD_REACTORS
330
47
102
}
330
47
100
AcDbScale
 70
     0
300
1:16
140
1.0
141
16.0
290
     0
  0
SCALE
  5
4F
102
{ACAD_REACTORS
330
47
102
}
330
47
100
AcDbScale
 70
     0
300
1:20
140
1.0
141
20.0
290
     0
  0
SCALE
  5
50
102
{ACAD_REACTORS
330
47
102
}
330
47
100
AcDbScale
 70
     0
300
1:30
140
1.0
141
30.0
290
     0
  0
SCALE
  5
51
102
{ACAD_REACTORS
330
47
102
}
330
47
100
AcDbScale
 70
     0
300
1:40
140
1.0
141
40.0
290
     0
  0
SCALE
  5
52
102
{ACAD_REACTORS
330
47
102
}
330
47
100
AcDbScale
 70
     0
300
1:50
140
1.0
141
50.0
290
     0
  0
SCALE
  5
53
102
{ACAD_REACTORS
330
47
102
}
330
47
100
AcDbScale
 70
     0
300
1:100
140
1.0
141
100.0
290
     0
  0
SCALE
  5
54
102
{ACAD_REACTORS
330
47
102
}
330
47
100
AcDbScale
 70
     0
300
2:1
140
2.0
141
1.0
290
     0
  0
SCALE
  5
55
102
{ACAD_REACTORS
330
47
102
}
330
47
100
AcDbScale
 70
     0
300
4:1
140
4.0
141
1.0
290
     0
  0
SCALE
  5
56
102
{ACAD_REACTORS
330
47
102
}
330
47
100
AcDbScale
 70
     0
300
8:1
140
8.0
141
1.0
290
     0
  0
SCALE
  5
57
102
{ACAD_REACTORS
330
47
102
}
330
47
100
AcDbScale
 70
     0
300
10:1
140
10.0
141
1.0
290
     0
  0
SCALE
  5
58
102
{ACAD_REACTORS
330
47
102
}
330
47
100
AcDbScale
 70
     0
300
100:1
140
100.0
141
1.0
290
     0
  0
SCALE
  5
59
102
{ACAD_REACTORS
330
47
102
}
330
47
100
AcDbScale
 70
     0
300
1/128" = 1'-0"
140
0.0078125
141
12.0
290
     0
  0
SCALE
  5
5A
102
{ACAD_REACTORS
330
47
102
}
330
47
100
AcDbScale
 70
     0
300
1/64" = 1'-0"
140
0.015625
141
12.0
290
     0
  0
SCALE
  5
5B
102
{ACAD_REACTORS
330
47
102
}
330
47
100
AcDbScale
 70
     0
300
1/32" = 1'-0"
140
0.03125
141
12.0
290
     0
  0
SCALE
  5
5C
102
{ACAD_REACTORS
330
47
102
}
330
47
100
AcDbScale
 70
     0
300
1/16" = 1'-0"
140
0.0625
141
12.0
290
     0
  0
SCALE
  5
5D
102
{ACAD_REACTORS
330
47
102
}
330
47
100
AcDbScale
 70
     0
300
3/32" = 1'-0"
140
0.09375
141
12.0
290
     0
  0
SCALE
  5
5E
102
{ACAD_REACTORS
330
47
102
}
330
47
100
AcDbScale
 70
     0
300
1/8" = 1'-0"
140
0.125
141
12.0
290
     0
  0
SCALE
  5
5F
102
{ACAD_REACTORS
330
47
102
}
330
47
100
AcDbScale
 70
     0
300
3/16" = 1'-0"
140
0.1875
141
12.0
290
     0
  0
SCALE
  5
60
102
{ACAD_REACTORS
330
47
102
}
330
47
100
AcDbScale
 70
     0
300
1/4" = 1'-0"
140
0.25
141
12.0
290
     0
  0
SCALE
  5
61
102
{ACAD_REACTORS
330
47
102
}
330
47
100
AcDbScale
 70
     0
300
3/8" = 1'-0"
140
0.375
141
12.0
290
     0
  0
SCALE
  5
62
102
{ACAD_REACTORS
330
47
102
}
330
47
100
AcDbScale
 70
     0
300
1/2" = 1'-0"
140
0.5
141
12.0
290
     0
  0
SCALE
  5
63
102
{ACAD_REACTORS
330
47
102
}
330
47
100
AcDbScale
 70
     0
300
3/4" = 1'-0"
140
0.75
141
12.0
290
     0
  0
SCALE
  5
64
102
{ACAD_REACTORS
330
47
102
}
330
47
100
AcDbScale
 70
     0
300
1" = 1'-0"
140
1.0
141
12.0
290
     0
  0
SCALE
  5
65
102
{ACAD_REACTORS
330
47
102
}
330
47
100
AcDbScale
 70
     0
300
1-1/2" = 1'-0"
140
1.5
141
12.0
290
     0
  0
SCALE
  5
66
102
{ACAD_REACTORS
330
47
102
}
330
47
100
AcDbScale
 70
     0
300
3" = 1'-0"
140
3.0
141
12.0
290
     0
  0
SCALE
  5
67
102
{ACAD_REACTORS
330
47
102
}
330
47
100
AcDbScale
 70
     0
300
6" = 1'-0"
140
6.0
141
12.0
290
     0
  0
SCALE
  5
68
102
{ACAD_REACTORS
330
47
102
}
330
47
100
AcDbScale
 70
     0
300
1'-0" = 1'-0"
140
12.0
141
12.0
290
     0
  0
ENDSEC
  0
EOF
