  0
SECTION
  2
HEADER
  9
$ACADVER
  1
AC1015
  9
$ACADMAINTVER
 70
     6
  9
$DWGCODEPAGE
  3
ANSI_949
  9
$INSBASE
 10
0.0
 20
0.0
 30
0.0
  9
$EXTMIN
 10
-93.34102078586098
 20
-49.97073246008785
 30
0.0
  9
$EXTMAX
 10
137.8943003939097
 20
33.16341044024269
 30
0.0
  9
$LIMMIN
 10
0.0
 20
0.0
  9
$LIMMAX
 10
420.0
 20
297.0
  9
$ORTHOMODE
 70
     0
  9
$REGENMODE
 70
     1
  9
$FILLMODE
 70
     1
  9
$QTEXTMODE
 70
     0
  9
$MIRRTEXT
 70
     1
  9
$LTSCALE
 40
1.0
  9
$ATTMODE
 70
     1
  9
$TEXTSIZE
 40
3.5
  9
$TRACEWID
 40
1.0
  9
$TEXTSTYLE
  7
Standard
  9
$CLAYER
  8
0
  9
$CELTYPE
  6
ByLayer
  9
$CECOLOR
 62
   256
  9
$CELTSCALE
 40
1.0
  9
$DISPSILH
 70
     0
  9
$DIMSCALE
 40
1.0
  9
$DIMASZ
 40
3.302
  9
$DIMEXO
 40
1.0
  9
$DIMDLI
 40
3.75
  9
$DIMRND
 40
0.0
  9
$DIMDLE
 40
0.0
  9
$DIMEXE
 40
1.0
  9
$DIMTP
 40
0.0
  9
$DIMTM
 40
0.0
  9
$DIMTXT
 40
3.5
  9
$DIMCEN
 40
2.5
  9
$DIMTSZ
 40
0.0
  9
$DIMTOL
 70
     0
  9
$DIMLIM
 70
     0
  9
$DIMTIH
 70
     1
  9
$DIMTOH
 70
     1
  9
$DIMSE1
 70
     0
  9
$DIMSE2
 70
     0
  9
$DIMTAD
 70
     1
  9
$DIMZIN
 70
     0
  9
$DIMBLK
  1

  9
$DIMASO
 70
     1
  9
$DIMSHO
 70
     1
  9
$DIMPOST
  1

  9
$DIMAPOST
  1

  9
$DIMALT
 70
     0
  9
$DIMALTD
 70
     3
  9
$DIMALTF
 40
0.0393700787401575
  9
$DIMLFAC
 40
1.0
  9
$DIMTOFL
 70
     1
  9
$DIMTVP
 40
0.0
  9
$DIMTIX
 70
     0
  9
$DIMSOXD
 70
     0
  9
$DIMSAH
 70
     0
  9
$DIMBLK1
  1

  9
$DIMBLK2
  1

  9
$DIMSTYLE
  2
ISO-25
  9
$DIMCLRD
 70
     0
  9
$DIMCLRE
 70
     0
  9
$DIMCLRT
 70
     0
  9
$DIMTFAC
 40
1.0
  9
$DIMGAP
 40
1.524
  9
$DIMJUST
 70
     0
  9
$DIMSD1
 70
     0
  9
$DIMSD2
 70
     0
  9
$DIMTOLJ
 70
     0
  9
$DIMTZIN
 70
     0
  9
$DIMALTZ
 70
     0
  9
$DIMALTTZ
 70
     0
  9
$DIMUPT
 70
     0
  9
$DIMDEC
 70
     2
  9
$DIMTDEC
 70
     2
  9
$DIMALTU
 70
     2
  9
$DIMALTTD
 70
     3
  9
$DIMTXSTY
  7
Standard
  9
$DIMAUNIT
 70
     0
  9
$DIMADEC
 70
     2
  9
$DIMALTRND
 40
0.0
  9
$DIMAZIN
 70
     0
  9
$DIMDSEP
 70
    44
  9
$DIMATFIT
 70
     3
  9
$DIMFRAC
 70
     0
  9
$DIMLDRBLK
  1

  9
$DIMLUNIT
 70
     2
  9
$DIMLWD
 70
    -2
  9
$DIMLWE
 70
    -2
  9
$DIMTMOVE
 70
     0
  9
$LUNITS
 70
     2
  9
$LUPREC
 70
     2
  9
$SKETCHINC
 40
1.0
  9
$FILLETRAD
 40
10.0
  9
$AUNITS
 70
     0
  9
$AUPREC
 70
     2
  9
$MENU
  1
.
  9
$ELEVATION
 40
0.0
  9
$PELEVATION
 40
0.0
  9
$THICKNESS
 40
0.0
  9
$LIMCHECK
 70
     0
  9
$CHAMFERA
 40
0.0
  9
$CHAMFERB
 40
0.0
  9
$CHAMFERC
 40
0.0
  9
$CHAMFERD
 40
0.0
  9
$SKPOLY
 70
     0
  9
$TDCREATE
 40
2458262.549989849
  9
$TDUCREATE
 40
2458262.174989849
  9
$TDUPDATE
 40
2458266.620125266
  9
$TDUUPDATE
 40
2458266.245125266
  9
$TDINDWG
 40
0.002192037
  9
$TDUSRTIMER
 40
2458266.242933264
  9
$USRTIMER
 70
     1
  9
$ANGBASE
 50
0.0
  9
$ANGDIR
 70
     0
  9
$PDMODE
 70
     0
  9
$PDSIZE
 40
-1.0
  9
$PLINEWID
 40
0.0
  9
$SPLFRAME
 70
     0
  9
$SPLINETYPE
 70
     6
  9
$SPLINESEGS
 70
     8
  9
$HANDSEED
  5
151
  9
$SURFTAB1
 70
     6
  9
$SURFTAB2
 70
     6
  9
$SURFTYPE
 70
     6
  9
$SURFU
 70
     6
  9
$SURFV
 70
     6
  9
$UCSBASE
  2

  9
$UCSNAME
  2

  9
$UCSORG
 10
0.0
 20
0.0
 30
0.0
  9
$UCSXDIR
 10
1.0
 20
0.0
 30
0.0
  9
$UCSYDIR
 10
0.0
 20
1.0
 30
0.0
  9
$UCSORTHOREF
  2

  9
$UCSORTHOVIEW
 70
     0
  9
$UCSORGTOP
 10
0.0
 20
0.0
 30
0.0
  9
$UCSORGBOTTOM
 10
0.0
 20
0.0
 30
0.0
  9
$UCSORGLEFT
 10
0.0
 20
0.0
 30
0.0
  9
$UCSORGRIGHT
 10
0.0
 20
0.0
 30
0.0
  9
$UCSORGFRONT
 10
0.0
 20
0.0
 30
0.0
  9
$UCSORGBACK
 10
0.0
 20
0.0
 30
0.0
  9
$PUCSBASE
  2

  9
$PUCSNAME
  2

  9
$PUCSORG
 10
0.0
 20
0.0
 30
0.0
  9
$PUCSXDIR
 10
1.0
 20
0.0
 30
0.0
  9
$PUCSYDIR
 10
0.0
 20
1.0
 30
0.0
  9
$PUCSORTHOREF
  2

  9
$PUCSORTHOVIEW
 70
     0
  9
$PUCSORGTOP
 10
0.0
 20
0.0
 30
0.0
  9
$PUCSORGBOTTOM
 10
0.0
 20
0.0
 30
0.0
  9
$PUCSORGLEFT
 10
0.0
 20
0.0
 30
0.0
  9
$PUCSORGRIGHT
 10
0.0
 20
0.0
 30
0.0
  9
$PUCSORGFRONT
 10
0.0
 20
0.0
 30
0.0
  9
$PUCSORGBACK
 10
0.0
 20
0.0
 30
0.0
  9
$USERI1
 70
     0
  9
$USERI2
 70
     0
  9
$USERI3
 70
     0
  9
$USERI4
 70
     0
  9
$USERI5
 70
     0
  9
$USERR1
 40
0.0
  9
$USERR2
 40
0.0
  9
$USERR3
 40
0.0
  9
$USERR4
 40
0.0
  9
$USERR5
 40
0.0
  9
$WORLDVIEW
 70
     1
  9
$SHADEDGE
 70
     3
  9
$SHADEDIF
 70
    70
  9
$TILEMODE
 70
     1
  9
$MAXACTVP
 70
    64
  9
$PINSBASE
 10
0.0
 20
0.0
 30
0.0
  9
$PLIMCHECK
 70
     0
  9
$PEXTMIN
 10
1.000000000000000E+20
 20
1.000000000000000E+20
 30
1.000000000000000E+20
  9
$PEXTMAX
 10
-1.000000000000000E+20
 20
-1.000000000000000E+20
 30
-1.000000000000000E+20
  9
$PLIMMIN
 10
0.0
 20
0.0
  9
$PLIMMAX
 10
0.0
 20
0.0
  9
$UNITMODE
 70
     0
  9
$VISRETAIN
 70
     1
  9
$PLINEGEN
 70
     0
  9
$PSLTSCALE
 70
     1
  9
$TREEDEPTH
 70
  3020
  9
$CMLSTYLE
  2
Standard
  9
$CMLJUST
 70
     0
  9
$CMLSCALE
 40
20.0
  9
$PROXYGRAPHICS
 70
     1
  9
$MEASUREMENT
 70
     1
  9
$CELWEIGHT
370
    -1
  9
$ENDCAPS
280
     0
  9
$JOINSTYLE
280
     0
  9
$LWDISPLAY
290
     1
  9
$INSUNITS
 70
     4
  9
$HYPERLINKBASE
  1

  9
$STYLESHEET
  1

  9
$XEDIT
290
     1
  9
$CEPSNTYPE
380
     0
  9
$PSTYLEMODE
290
     1
  9
$FINGERPRINTGUID
  2
{09B71085-03D1-496D-A1F0-8E886ACA06D1}
  9
$VERSIONGUID
  2
{FAEB1C32-E019-11D5-929B-00C0DF256EC4}
  9
$EXTNAMES
290
     1
  9
$PSVPSCALE
 40
0.0
  9
$OLESTARTUP
290
     0
  0
ENDSEC
  0
SECTION
  2
CLASSES
  0
CLASS
  1
ACDBDICTIONARYWDFLT
  2
AcDbDictionaryWithDefault
  3
ObjectDBX Classes
 90
        0
280
     0
281
     0
  0
CLASS
  1
VISUALSTYLE
  2
AcDbVisualStyle
  3
ObjectDBX Classes
 90
     4095
280
     0
281
     0
  0
CLASS
  1
MATERIAL
  2
AcDbMaterial
  3
ObjectDBX Classes
 90
     1153
280
     0
281
     0
  0
CLASS
  1
SCALE
  2
AcDbScale
  3
ObjectDBX Classes
 90
     1153
280
     0
281
     0
  0
CLASS
  1
SUN
  2
AcDbSun
  3
SCENEOE
 90
     1153
280
     0
281
     0
  0
CLASS
  1
ACDBPLACEHOLDER
  2
AcDbPlaceHolder
  3
ObjectDBX Classes
 90
        0
280
     0
281
     0
  0
CLASS
  1
LAYOUT
  2
AcDbLayout
  3
ObjectDBX Classes
 90
        0
280
     0
281
     0
  0
CLASS
  1
TABLESTYLE
  2
AcDbTableStyle
  3
ObjectDBX Classes
 90
     4095
280
     0
281
     0
  0
CLASS
  1
MLEADERSTYLE
  2
AcDbMLeaderStyle
  3
ACDB_MLEADERSTYLE_CLASS
 90
     4095
280
     0
281
     0
  0
CLASS
  1
RASTERVARIABLES
  2
AcDbRasterVariables
  3
ISM
 90
        0
280
     0
281
     0
  0
ENDSEC
  0
SECTION
  2
TABLES
  0
TABLE
  2
VPORT
  5
8
330
0
100
AcDbSymbolTable
 70
     1
  0
VPORT
  5
29
330
8
100
AcDbSymbolTableRecord
100
AcDbViewportTableRecord
  2
*Active
 70
     0
 10
0.0
 20
0.0
 11
1.0
 21
1.0
 12
22.27663980402434
 22
-8.40366100992258
 13
0.0
 23
0.0
 14
10.0
 24
10.0
 15
10.0
 25
10.0
 16
0.0
 26
0.0
 36
1.0
 17
0.0
 27
0.0
 37
0.0
 40
204.6588131894679
 41
1.152454780361757
 42
50.0
 43
0.0
 44
0.0
 50
0.0
 51
0.0
 71
    16
 72
  2000
 73
     1
 74
     3
 75
     0
 76
     0
 77
     0
 78
     0
281
     0
 65
     1
110
0.0
120
0.0
130
0.0
111
1.0
121
0.0
131
0.0
112
0.0
122
1.0
132
0.0
 79
     0
146
0.0
  0
ENDTAB
  0
TABLE
  2
LTYPE
  5
5
330
0
100
AcDbSymbolTable
 70
     6
  0
LTYPE
  5
14
330
5
100
AcDbSymbolTableRecord
100
AcDbLinetypeTableRecord
  2
ByBlock
 70
     0
  3

 72
    65
 73
     0
 40
0.0
  0
LTYPE
  5
15
330
5
100
AcDbSymbolTableRecord
100
AcDbLinetypeTableRecord
  2
ByLayer
 70
     0
  3

 72
    65
 73
     0
 40
0.0
  0
LTYPE
  5
16
330
5
100
AcDbSymbolTableRecord
100
AcDbLinetypeTableRecord
  2
Continuous
 70
     0
  3
Solid line
 72
    65
 73
     0
 40
0.0
  0
LTYPE
  5
6A
330
5
100
AcDbSymbolTableRecord
100
AcDbLinetypeTableRecord
  2
HIDDEN
 70
     0
  3
Hidden __ __ __ __ __ __ __ __ __ __ __ __ __ __
 72
    65
 73
     2
 40
1.905
 49
1.27
 74
     0
 49
-0.635
 74
     0
  0
LTYPE
  5
6B
330
5
100
AcDbSymbolTableRecord
100
AcDbLinetypeTableRecord
  2
PHANTOM
 70
     0
  3
Phantom ______  __  __  ______  __  __  ______
 72
    65
 73
     6
 40
12.7
 49
6.35
 74
     0
 49
-1.27
 74
     0
 49
1.27
 74
     0
 49
-1.27
 74
     0
 49
1.27
 74
     0
 49
-1.27
 74
     0
  0
LTYPE
  5
6C
330
5
100
AcDbSymbolTableRecord
100
AcDbLinetypeTableRecord
  2
CENTER
 70
     0
  3
Center ____ _ ____ _ ____ _ ____ _ ____ _ ____
 72
    65
 73
     4
 40
10.16
 49
6.35
 74
     0
 49
-1.27
 74
     0
 49
1.27
 74
     0
 49
-1.27
 74
     0
  0
LTYPE
  5
6D
330
5
100
AcDbSymbolTableRecord
100
AcDbLinetypeTableRecord
  2
CENTERX2
 70
     0
  3
Center (2x) ________  __  ________  __  _____
 72
    65
 73
     4
 40
20.32
 49
12.7
 74
     0
 49
-2.54
 74
     0
 49
2.54
 74
     0
 49
-2.54
 74
     0
  0
LTYPE
  5
6E
330
5
100
AcDbSymbolTableRecord
100
AcDbLinetypeTableRecord
  2
DOT2
 70
     0
  3
Dot (.5x) ........................................
 72
    65
 73
     2
 40
0.635
 49
0.0
 74
     0
 49
-0.635
 74
     0
  0
ENDTAB
  0
TABLE
  2
LAYER
  5
2
330
0
100
AcDbSymbolTable
 70
    17
  0
LAYER
  5
10
330
2
100
AcDbSymbolTableRecord
100
AcDbLayerTableRecord
  2
0
 70
     0
 62
     7
  6
Continuous
370
    -3
390
F
  0
LAYER
  5
6F
330
2
100
AcDbSymbolTableRecord
100
AcDbLayerTableRecord
  2
FORMAT
 70
     0
 62
     2
  6
Continuous
370
    -3
390
F
  0
LAYER
  5
70
330
2
100
AcDbSymbolTableRecord
100
AcDbLayerTableRecord
  2
외형선
 70
     0
 62
   100
  6
Continuous
370
    30
390
F
  0
LAYER
  5
71
330
2
100
AcDbSymbolTableRecord
100
AcDbLayerTableRecord
  2
숨은선
 70
     0
 62
     2
  6
HIDDEN
370
    15
390
F
  0
LAYER
  5
72
330
2
100
AcDbSymbolTableRecord
100
AcDbLayerTableRecord
  2
중심선
 70
     0
 62
     1
  6
CENTERX2
370
    -3
390
F
  0
LAYER
  5
73
330
2
100
AcDbSymbolTableRecord
100
AcDbLayerTableRecord
  2
파단선
 70
     0
 62
     4
  6
Continuous
370
    -3
390
F
  0
LAYER
  5
74
330
2
100
AcDbSymbolTableRecord
100
AcDbLayerTableRecord
  2
해칭선
 70
     0
 62
     4
  6
Continuous
370
    -3
390
F
  0
LAYER
  5
75
330
2
100
AcDbSymbolTableRecord
100
AcDbLayerTableRecord
  2
가는실선
 70
     0
 62
     4
  6
Continuous
370
    -3
390
F
  0
LAYER
  5
76
330
2
100
AcDbSymbolTableRecord
100
AcDbLayerTableRecord
  2
치수_보조선
 70
     0
 62
     4
  6
Continuous
370
    -3
390
F
  0
LAYER
  5
77
330
2
100
AcDbSymbolTableRecord
100
AcDbLayerTableRecord
  2
치수문자_일반주서
 70
     0
 62
     7
  6
Continuous
370
    15
390
F
  0
LAYER
  5
78
330
2
100
AcDbSymbolTableRecord
100
AcDbLayerTableRecord
  2
개별주서
 70
     0
 62
   100
  6
Continuous
370
    30
390
F
  0
LAYER
  5
79
330
2
100
AcDbSymbolTableRecord
100
AcDbLayerTableRecord
  2
중간선
 70
     0
 62
     2
  6
Continuous
370
    15
390
F
  0
LAYER
  5
7A
330
2
100
AcDbSymbolTableRecord
100
AcDbLayerTableRecord
  2
윤곽선
 70
     0
 62
     3
  6
Continuous
370
    40
390
F
  0
LAYER
  5
7B
330
2
100
AcDbSymbolTableRecord
100
AcDbLayerTableRecord
  2
중심마크
 70
     0
 62
   100
  6
Continuous
370
    30
390
F
  0
LAYER
  5
7C
330
2
100
AcDbSymbolTableRecord
100
AcDbLayerTableRecord
  2
가상선
 70
     0
 62
     4
  6
PHANTOM
370
    -3
390
F
  0
LAYER
  5
7D
330
2
100
AcDbSymbolTableRecord
100
AcDbLayerTableRecord
  2
특수지정선
 70
     0
 62
     5
  6
CENTERX2
370
    60
390
F
  0
LAYER
  5
140
330
2
100
AcDbSymbolTableRecord
100
AcDbLayerTableRecord
  2
Defpoints
 70
     0
 62
     7
  6
Continuous
290
     0
370
    -3
390
F
  0
ENDTAB
  0
TABLE
  2
STYLE
  5
3
330
0
100
AcDbSymbolTable
 70
     2
  0
STYLE
  5
11
330
3
100
AcDbSymbolTableRecord
100
AcDbTextStyleTableRecord
  2
Standard
 70
     0
 40
0.0
 41
1.0
 50
0.0
 71
     0
 42
3.5
  3
txt
  4

  0
STYLE
  5
93
330
3
100
AcDbSymbolTableRecord
100
AcDbTextStyleTableRecord
  2
SLDTEXTSTYLE0
 70
     0
 40
0.0
 41
0.75
 50
0.0
 71
     0
 42
3.5
  3
TXT
  4

  0
ENDTAB
  0
TABLE
  2
VIEW
  5
6
330
0
100
AcDbSymbolTable
 70
     0
  0
ENDTAB
  0
TABLE
  2
UCS
  5
7
330
0
100
AcDbSymbolTable
 70
     0
  0
ENDTAB
  0
TABLE
  2
APPID
  5
9
330
0
100
AcDbSymbolTable
 70
     1
  0
APPID
  5
12
330
9
100
AcDbSymbolTableRecord
100
AcDbRegAppTableRecord
  2
ACAD
 70
     0
  0
ENDTAB
  0
TABLE
  2
DIMSTYLE
  5
A
330
0
100
AcDbSymbolTable
 70
     3
100
AcDbDimStyleTable
  0
DIMSTYLE
105
27
330
A
100
AcDbSymbolTableRecord
100
AcDbDimStyleTableRecord
  2
ISO-25
 70
     0
 41
2.5
 42
0.625
 43
3.75
 44
1.25
 73
     0
 74
     0
 77
     1
 78
     8
140
2.5
141
2.5
143
0.03937007874016
147
0.625
171
     3
172
     1
178
     0
271
     2
272
     2
274
     3
278
    44
283
     0
284
     8
340
11
  0
DIMSTYLE
105
E6
102
{ACAD_REACTORS
330
E5
330
108
102
}
330
A
100
AcDbSymbolTableRecord
100
AcDbDimStyleTableRecord
  2
SLDDIMSTYLE0
 70
     0
 41
3.302
 44
0.0
 45
0.000000001
 73
     0
 74
     0
 77
     1
 78
    12
 79
     3
140
3.5
147
0.875
172
     1
173
     1
178
     0
271
     2
272
     2
276
     2
284
    12
289
     0
340
93
  0
DIMSTYLE
105
F4
102
{ACAD_REACTORS
330
F3
330
FE
102
}
330
A
100
AcDbSymbolTableRecord
100
AcDbDimStyleTableRecord
  2
SLDDIMSTYLE1
 70
     0
 41
3.302
 44
0.0
 45
0.000000001
 73
     0
 74
     0
 77
     1
 78
    12
 79
     3
140
3.5
147
0.875
173
     1
178
     0
271
     2
272
     2
276
     2
284
    12
340
93
  0
ENDTAB
  0
TABLE
  2
BLOCK_RECORD
  5
1
330
0
100
AcDbSymbolTable
 70
     7
  0
BLOCK_RECORD
  5
1F
330
1
100
AcDbSymbolTableRecord
100
AcDbBlockTableRecord
  2
*Model_Space
340
22
  0
BLOCK_RECORD
  5
1B
330
1
100
AcDbSymbolTableRecord
100
AcDbBlockTableRecord
  2
*Paper_Space
340
1E
  0
BLOCK_RECORD
  5
23
330
1
100
AcDbSymbolTableRecord
100
AcDbBlockTableRecord
  2
*Paper_Space0
340
26
  0
BLOCK_RECORD
  5
7E
330
1
100
AcDbSymbolTableRecord
100
AcDbBlockTableRecord
  2
블럭10
340
0
102
{BLKREFS
331
DE
102
}
  0
BLOCK_RECORD
  5
E7
330
1
100
AcDbSymbolTableRecord
100
AcDbBlockTableRecord
  2
_D
340
0
  0
BLOCK_RECORD
  5
F5
330
1
100
AcDbSymbolTableRecord
100
AcDbBlockTableRecord
  2
_D_1
340
0
  0
BLOCK_RECORD
  5
FF
330
1
100
AcDbSymbolTableRecord
100
AcDbBlockTableRecord
  2
_D_2
340
0
  0
BLOCK_RECORD
  5
109
330
1
100
AcDbSymbolTableRecord
100
AcDbBlockTableRecord
  2
_D_3
340
0
  0
BLOCK_RECORD
  5
115
330
1
100
AcDbSymbolTableRecord
100
AcDbBlockTableRecord
  2
SW_DOWELSYMBOL_0
340
0
102
{BLKREFS
331
11B
102
}
  0
ENDTAB
  0
ENDSEC
  0
SECTION
  2
BLOCKS
  0
BLOCK
  5
20
330
1F
100
AcDbEntity
  8
0
100
AcDbBlockBegin
  2
*Model_Space
 70
     0
 10
0.0
 20
0.0
 30
0.0
  3
*Model_Space
  1

  0
ENDBLK
  5
21
330
1F
100
AcDbEntity
  8
0
100
AcDbBlockEnd
  0
BLOCK
  5
1C
330
1B
100
AcDbEntity
 67
     1
  8
0
100
AcDbBlockBegin
  2
*Paper_Space
 70
     0
 10
0.0
 20
0.0
 30
0.0
  3
*Paper_Space
  1

  0
ENDBLK
  5
1D
330
1B
100
AcDbEntity
 67
     1
  8
0
100
AcDbBlockEnd
  0
BLOCK
  5
24
330
23
100
AcDbEntity
  8
0
100
AcDbBlockBegin
  2
*Paper_Space0
 70
     0
 10
0.0
 20
0.0
 30
0.0
  3
*Paper_Space0
  1

  0
ENDBLK
  5
25
330
23
100
AcDbEntity
  8
0
100
AcDbBlockEnd
  0
BLOCK
  5
7F
330
7E
100
AcDbEntity
  8
0
100
AcDbBlockBegin
  2
블럭10
 70
     2
 10
0.0
 20
0.0
 30
0.0
  3
블럭10
  1

  0
ELLIPSE
  5
81
330
7E
100
AcDbEntity
  8
중심선
100
AcDbEllipse
 10
20.54032771741204
 20
12.0471743016438
 30
0.0
 11
6.600054785286829
 21
-1.261213355974178E-13
 31
0.0
210
0.0
220
0.0
230
1.0
 40
0.636358354079598
 41
0.9219305317359503
 42
6.513795318482858
  0
ELLIPSE
  5
82
330
7E
100
AcDbEntity
  8
중심선
100
AcDbEllipse
 10
20.54032771746488
 20
12.04717430159265
 30
0.0
 11
3.960054785062283
 21
1.540847449632565E-10
 31
0.0
210
0.0
220
0.0
230
1.0
 40
0.3939339440162632
 41
1.131841032648279
 42
5.62031148352944
  0
LINE
  5
83
330
7E
100
AcDbEntity
  8
중심선
100
AcDbLine
 10
2.268634060543552
 20
16.24717430164393
 30
0.0
 11
5.714909304380834
 21
16.24717430164393
 31
0.0
  0
LINE
  5
84
330
7E
100
AcDbEntity
  8
중심선
100
AcDbLine
 10
5.245725140726316
 20
7.84717430164391
 30
0.0
 11
8.692000384563599
 21
7.84717430164391
 31
0.0
  0
LINE
  5
85
330
7E
100
AcDbEntity
  8
중심선
100
AcDbLine
 10
15.74043728645272
 20
16.24717430164393
 30
0.0
 11
8.692000384563599
 21
7.84717430164391
 31
0.0
  0
LINE
  5
86
330
7E
100
AcDbEntity
  8
중심선
100
AcDbLine
 10
0.1404042013395286
 20
13.71084872107135
 30
0.0
 11
3.58671253028996
 21
13.71088815037384
 31
0.0
  0
LINE
  5
87
330
7E
100
AcDbEntity
  8
중심선
100
AcDbLine
 10
2.750260043222114
 20
10.84717430164391
 30
0.0
 11
6.196535287059397
 21
10.84717430164391
 31
0.0
  0
LINE
  5
88
330
7E
100
AcDbEntity
  8
중심선
100
AcDbLine
 10
12.29416204261559
 20
16.24717430164393
 30
0.0
 11
5.245725140726316
 21
7.84717430164391
 31
0.0
  0
LINE
  5
89
330
7E
100
AcDbEntity
  8
중심선
100
AcDbLine
 10
10.72767329541681
 20
16.24717430164393
 30
0.0
 11
6.196535287059397
 21
10.84717430164391
 31
0.0
  0
LINE
  5
8A
330
7E
100
AcDbEntity
  8
중심선
100
AcDbLine
 10
7.28139805157953
 20
16.24717430164393
 30
0.0
 11
2.750260043222114
 21
10.84717430164391
 31
0.0
  0
LINE
  5
8B
330
7E
100
AcDbEntity
  8
중심선
100
AcDbLine
 10
5.714909304380834
 20
16.24717430164393
 30
0.0
 11
3.58671253028996
 21
13.71088815037384
 31
0.0
  0
LINE
  5
8C
330
7E
100
AcDbEntity
  8
중심선
100
AcDbLine
 10
2.268634060543552
 20
16.24717430164393
 30
0.0
 11
0.1404042013395286
 21
13.71084872107135
 31
0.0
  0
LINE
  5
8D
330
7E
100
AcDbEntity
  8
중심선
100
AcDbLine
 10
7.28139805157953
 20
16.24717430164393
 30
0.0
 11
10.72767329541681
 21
16.24717430164393
 31
0.0
  0
LINE
  5
8E
330
7E
100
AcDbEntity
  8
중심선
100
AcDbLine
 10
12.29416204261559
 20
16.24717430164393
 30
0.0
 11
15.74043728645272
 21
16.24717430164393
 31
0.0
  0
LINE
  5
8F
330
7E
100
AcDbEntity
  8
중심선
100
AcDbLine
 10
19.22036997980202
 20
11.08717430171403
 30
0.0
 11
23.66174974927406
 21
11.08717430171406
 31
0.0
  0
LINE
  5
90
330
7E
100
AcDbEntity
  8
중심선
100
AcDbLine
 10
19.22039502424796
 20
13.00717430171391
 30
0.0
 11
19.22036997980202
 21
11.08717430171403
 31
0.0
  0
LINE
  5
91
330
7E
100
AcDbEntity
  8
중심선
100
AcDbLine
 10
19.22039502424796
 20
13.00717430171391
 30
0.0
 11
26.96566020931264
 21
13.00717430171391
 31
0.0
  0
LINE
  5
92
330
7E
100
AcDbEntity
  8
중심선
100
AcDbLine
 10
22.22332737316547
 20
13.45928029700563
 30
0.0
 11
24.52862924686651
 21
15.39360700705356
 31
0.0
  0
ATTDEF
  5
94
330
7E
100
AcDbEntity
  8
FORMAT
 62
     2
100
AcDbText
 10
-17.69892196172445
 20
2.075366912832191
 30
0.0
 40
4.233333333333333
  1
SEME70160110E [ 2 FLUTE ]
 41
0.75
  7
SLDTEXTSTYLE0
 11
-17.69892196172445
 21
-0.0412997538344756
 31
0.0
100
AcDbAttributeDefinition
  3

  2
AUTOATTR0
 70
     0
 74
     1
  0
ENDBLK
  5
80
330
7E
100
AcDbEntity
  8
0
100
AcDbBlockEnd
  0
BLOCK
  5
E8
330
E7
100
AcDbEntity
  8
0
100
AcDbBlockBegin
  2
_D
 70
     0
 10
0.0
 20
0.0
 30
0.0
  3
_D
  1

  0
LINE
  5
EA
330
E7
100
AcDbEntity
  8
치수문자_일반주서
 62
     0
370
    -2
100
AcDbLine
 10
122.0624999999995
 20
-7.999999999999981
 30
0.0
 11
137.3439670605763
 21
-7.999999999999925
 31
0.0
  0
LINE
  5
EB
330
E7
100
AcDbEntity
  8
치수문자_일반주서
 62
     0
370
    -2
100
AcDbLine
 10
122.0624999999994
 20
8.000000000000018
 30
0.0
 11
137.3439670605763
 21
8.000000000000073
 31
0.0
  0
LINE
  5
EC
330
E7
100
AcDbEntity
  8
치수문자_일반주서
 62
     0
370
    -2
100
AcDbLine
 10
137.3439670605763
 20
-7.999999999999925
 30
0.0
 11
137.3439670605763
 21
22.47900000000007
 31
0.0
  0
LINE
  5
ED
330
E7
100
AcDbEntity
  8
치수문자_일반주서
 62
     0
370
    -2
100
AcDbLine
 10
137.3439670605763
 20
-7.999999999999925
 30
0.0
 11
137.3439670605763
 21
8.000000000000073
 31
0.0
  0
LINE
  5
EE
330
E7
100
AcDbEntity
  8
치수문자_일반주서
 62
     0
370
    -2
100
AcDbLine
 10
137.3439670605763
 20
-11.30199999999992
 30
0.0
 11
137.3439670605763
 21
-14.60399999999992
 31
0.0
  0
LINE
  5
EF
330
E7
100
AcDbEntity
  8
치수문자_일반주서
 62
     0
370
    -2
100
AcDbLine
 10
137.3439670605763
 20
11.30200000000007
 30
0.0
 11
137.3439670605763
 21
14.60400000000007
 31
0.0
  0
SOLID
  5
F0
330
E7
100
AcDbEntity
  8
치수문자_일반주서
 62
     0
100
AcDbTrace
 10
137.8943003939097
 20
-11.30199999999992
 30
0.0
 11
136.793633727243
 21
-11.30199999999993
 31
0.0
 12
137.3439670605763
 22
-7.999999999999925
 32
0.0
 13
137.3439670605763
 23
-7.999999999999925
 33
0.0
  0
SOLID
  5
F1
330
E7
100
AcDbEntity
  8
치수문자_일반주서
 62
     0
100
AcDbTrace
 10
136.793633727243
 20
11.30200000000007
 30
0.0
 11
137.8943003939096
 21
11.30200000000007
 31
0.0
 12
137.3439670605763
 22
8.000000000000073
 32
0.0
 13
137.3439670605763
 23
8.000000000000073
 33
0.0
  0
MTEXT
  5
F2
330
E7
100
AcDbEntity
  8
치수문자_일반주서
 62
     0
100
AcDbMText
 10
132.9689670605763
 20
18.54150000000006
 30
0.0
 40
3.5
 41
0.0
 71
     2
 72
     1
  1
\A1;%%c16
  7
SLDTEXTSTYLE0
 11
-3.552713678800501E-15
 21
1.0
 31
0.0
 73
     1
 44
1.0
  0
POINT
  5
14A
330
E7
100
AcDbEntity
  8
Defpoints
 62
     0
100
AcDbPoint
 10
121.9999999999995
 20
-7.999999999999981
 30
0.0
  0
POINT
  5
14B
330
E7
100
AcDbEntity
  8
Defpoints
 62
     0
100
AcDbPoint
 10
121.9999999999994
 20
8.000000000000018
 30
0.0
  0
POINT
  5
14C
330
E7
100
AcDbEntity
  8
Defpoints
 62
     0
100
AcDbPoint
 10
137.3439670605763
 20
8.000000000000075
 30
0.0
  0
ENDBLK
  5
E9
330
E7
100
AcDbEntity
  8
0
100
AcDbBlockEnd
  0
BLOCK
  5
F6
330
F5
100
AcDbEntity
  8
0
100
AcDbBlockBegin
  2
_D_1
 70
     0
 10
0.0
 20
0.0
 30
0.0
  3
_D_1
  1

  0
LINE
  5
F8
330
F5
100
AcDbEntity
  8
치수문자_일반주서
 62
     0
370
    -2
100
AcDbLine
 10
-78.0
 20
7.062499999999994
 30
0.0
 11
-78.0
 21
28.78841044024269
 31
0.0
  0
LINE
  5
F9
330
F5
100
AcDbEntity
  8
치수문자_일반주서
 62
     0
370
    -2
100
AcDbLine
 10
121.9999999999994
 20
8.062500000000018
 30
0.0
 11
121.9999999999994
 21
28.78841044024269
 31
0.0
  0
LINE
  5
FA
330
F5
100
AcDbEntity
  8
치수문자_일반주서
 62
     0
370
    -2
100
AcDbLine
 10
-74.69800000000001
 20
28.78841044024269
 30
0.0
 11
118.6979999999994
 21
28.78841044024269
 31
0.0
  0
SOLID
  5
FB
330
F5
100
AcDbEntity
  8
치수문자_일반주서
 62
     0
100
AcDbTrace
 10
-74.69800000000001
 20
29.33874377357603
 30
0.0
 11
-74.69800000000001
 21
28.23807710690936
 31
0.0
 12
-78.0
 22
28.78841044024269
 32
0.0
 13
-78.0
 23
28.78841044024269
 33
0.0
  0
SOLID
  5
FC
330
F5
100
AcDbEntity
  8
치수문자_일반주서
 62
     0
100
AcDbTrace
 10
118.6979999999994
 20
28.23807710690936
 30
0.0
 11
118.6979999999994
 21
29.33874377357603
 31
0.0
 12
121.9999999999994
 22
28.78841044024269
 32
0.0
 13
121.9999999999994
 23
28.78841044024269
 33
0.0
  0
MTEXT
  5
FD
330
F5
100
AcDbEntity
  8
치수문자_일반주서
 62
     0
100
AcDbMText
 10
21.99999999999972
 20
33.16341044024269
 30
0.0
 40
3.5
 41
0.0
 71
     2
 72
     1
  1
\A1;200
  7
SLDTEXTSTYLE0
 73
     1
 44
1.0
  0
POINT
  5
141
330
F5
100
AcDbEntity
  8
Defpoints
 62
     0
100
AcDbPoint
 10
-78.0
 20
6.999999999999994
 30
0.0
  0
POINT
  5
142
330
F5
100
AcDbEntity
  8
Defpoints
 62
     0
100
AcDbPoint
 10
121.9999999999994
 20
8.000000000000018
 30
0.0
  0
POINT
  5
143
330
F5
100
AcDbEntity
  8
Defpoints
 62
     0
100
AcDbPoint
 10
121.9999999999994
 20
28.78841044024269
 30
0.0
  0
ENDBLK
  5
F7
330
F5
100
AcDbEntity
  8
0
100
AcDbBlockEnd
  0
BLOCK
  5
100
330
FF
100
AcDbEntity
  8
0
100
AcDbBlockBegin
  2
_D_2
 70
     0
 10
0.0
 20
0.0
 30
0.0
  3
_D_2
  1

  0
LINE
  5
102
330
FF
100
AcDbEntity
  8
치수문자_일반주서
 62
     0
370
    -2
100
AcDbLine
 10
11.99999999999999
 20
6.439607515232345
 30
0.0
 11
12.0
 21
19.72410532139988
 31
0.0
  0
LINE
  5
103
330
FF
100
AcDbEntity
  8
치수문자_일반주서
 62
     0
370
    -2
100
AcDbLine
 10
121.9999999999994
 20
8.062500000000018
 30
0.0
 11
121.9999999999994
 21
19.72410532139988
 31
0.0
  0
LINE
  5
104
330
FF
100
AcDbEntity
  8
치수문자_일반주서
 62
     0
370
    -2
100
AcDbLine
 10
15.302
 20
19.72410532139988
 30
0.0
 11
118.6979999999994
 21
19.72410532139988
 31
0.0
  0
SOLID
  5
105
330
FF
100
AcDbEntity
  8
치수문자_일반주서
 62
     0
100
AcDbTrace
 10
15.302
 20
20.27443865473322
 30
0.0
 11
15.302
 21
19.17377198806655
 31
0.0
 12
12.0
 22
19.72410532139988
 32
0.0
 13
12.0
 23
19.72410532139988
 33
0.0
  0
SOLID
  5
106
330
FF
100
AcDbEntity
  8
치수문자_일반주서
 62
     0
100
AcDbTrace
 10
118.6979999999994
 20
19.17377198806655
 30
0.0
 11
118.6979999999994
 21
20.27443865473322
 31
0.0
 12
121.9999999999994
 22
19.72410532139988
 32
0.0
 13
121.9999999999994
 23
19.72410532139988
 33
0.0
  0
MTEXT
  5
107
330
FF
100
AcDbEntity
  8
치수문자_일반주서
 62
     0
100
AcDbMText
 10
67.0
 20
24.09910532139988
 30
0.0
 40
3.5
 41
0.0
 71
     2
 72
     1
  1
\A1;110
  7
SLDTEXTSTYLE0
 73
     1
 44
1.0
  0
POINT
  5
144
330
FF
100
AcDbEntity
  8
Defpoints
 62
     0
100
AcDbPoint
 10
11.99999999999999
 20
6.377107515232345
 30
0.0
  0
POINT
  5
145
330
FF
100
AcDbEntity
  8
Defpoints
 62
     0
100
AcDbPoint
 10
121.9999999999994
 20
8.000000000000018
 30
0.0
  0
POINT
  5
146
330
FF
100
AcDbEntity
  8
Defpoints
 62
     0
100
AcDbPoint
 10
121.9999999999994
 20
19.72410532139988
 30
0.0
  0
ENDBLK
  5
101
330
FF
100
AcDbEntity
  8
0
100
AcDbBlockEnd
  0
BLOCK
  5
10A
330
109
100
AcDbEntity
  8
0
100
AcDbBlockBegin
  2
_D_3
 70
     0
 10
0.0
 20
0.0
 30
0.0
  3
_D_3
  1

  0
LINE
  5
10C
330
109
100
AcDbEntity
  8
치수문자_일반주서
 62
     0
370
    -2
100
AcDbLine
 10
-77.0625
 20
7.999999999999997
 30
0.0
 11
-88.96602078586092
 21
7.999999999999952
 31
0.0
  0
LINE
  5
10D
330
109
100
AcDbEntity
  8
치수문자_일반주서
 62
     0
370
    -2
100
AcDbLine
 10
-77.0625
 20
-7.999999999999996
 30
0.0
 11
-88.96602078586086
 21
-8.000000000000039
 31
0.0
  0
LINE
  5
10E
330
109
100
AcDbEntity
  8
치수문자_일반주서
 62
     0
370
    -2
100
AcDbLine
 10
-88.96602078586092
 20
7.999999999999952
 30
0.0
 11
-88.96602078586098
 21
22.9909059449248
 31
0.0
  0
LINE
  5
10F
330
109
100
AcDbEntity
  8
치수문자_일반주서
 62
     0
370
    -2
100
AcDbLine
 10
-88.96602078586092
 20
7.999999999999952
 30
0.0
 11
-88.96602078586086
 21
-8.000000000000039
 31
0.0
  0
LINE
  5
110
330
109
100
AcDbEntity
  8
치수문자_일반주서
 62
     0
370
    -2
100
AcDbLine
 10
-88.96602078586093
 20
11.30199999999995
 30
0.0
 11
-88.96602078586095
 21
14.60399999999995
 31
0.0
  0
LINE
  5
111
330
109
100
AcDbEntity
  8
치수문자_일반주서
 62
     0
370
    -2
100
AcDbLine
 10
-88.96602078586085
 20
-11.30200000000004
 30
0.0
 11
-88.96602078586083
 21
-14.60400000000004
 31
0.0
  0
SOLID
  5
112
330
109
100
AcDbEntity
  8
치수문자_일반주서
 62
     0
100
AcDbTrace
 10
-89.51635411919426
 20
11.30199999999995
 30
0.0
 11
-88.4156874525276
 21
11.30199999999995
 31
0.0
 12
-88.96602078586092
 22
7.999999999999952
 32
0.0
 13
-88.96602078586092
 23
7.999999999999952
 33
0.0
  0
SOLID
  5
113
330
109
100
AcDbEntity
  8
치수문자_일반주서
 62
     0
100
AcDbTrace
 10
-88.41568745252752
 20
-11.30200000000004
 30
0.0
 11
-89.51635411919418
 21
-11.30200000000004
 31
0.0
 12
-88.96602078586086
 22
-8.000000000000039
 32
0.0
 13
-88.96602078586086
 23
-8.000000000000039
 33
0.0
  0
MTEXT
  5
114
330
109
100
AcDbEntity
  8
치수문자_일반주서
 62
     0
100
AcDbMText
 10
-93.34102078586096
 20
19.05340594492479
 30
0.0
 40
3.5
 41
0.0
 71
     2
 72
     1
  1
\A1;%%c16
  7
SLDTEXTSTYLE0
 11
-3.552713678800503E-15
 21
1.0
 31
0.0
 73
     1
 44
1.0
  0
POINT
  5
147
330
109
100
AcDbEntity
  8
Defpoints
 62
     0
100
AcDbPoint
 10
-77.0
 20
7.999999999999997
 30
0.0
  0
POINT
  5
148
330
109
100
AcDbEntity
  8
Defpoints
 62
     0
100
AcDbPoint
 10
-77.0
 20
-7.999999999999996
 30
0.0
  0
POINT
  5
149
330
109
100
AcDbEntity
  8
Defpoints
 62
     0
100
AcDbPoint
 10
-88.96602078586086
 20
-8.00000000000004
 30
0.0
  0
ENDBLK
  5
10B
330
109
100
AcDbEntity
  8
0
100
AcDbBlockEnd
  0
BLOCK
  5
116
330
115
100
AcDbEntity
  8
0
100
AcDbBlockBegin
  2
SW_DOWELSYMBOL_0
 70
     0
 10
0.0
 20
0.0
 30
0.0
  3
SW_DOWELSYMBOL_0
  1

  0
CIRCLE
  5
118
330
115
100
AcDbEntity
  8
외형선
 62
     0
100
AcDbCircle
 10
0.0
 20
0.0
 30
0.0
 40
3.000000000000004
  0
HATCH
  5
119
330
115
100
AcDbEntity
  8
0
  6
Continuous
 62
     0
370
    30
100
AcDbHatch
 10
0.0
 20
0.0
 30
0.0
210
0.0
220
0.0
230
1.0
  2
SOLID
 70
     1
 71
     0
 91
        1
 92
        0
 93
        3
 72
     2
 10
0.0000000000000104
 20
0.0
 40
3.000000000000004
 50
0.0
 51
90.0
 73
     1
 72
     1
 10
0.0000000000000104
 20
3.000000000000004
 11
0.0000000000000104
 21
0.0
 72
     1
 10
0.0000000000000104
 20
0.0
 11
3.000000000000015
 21
0.0
 97
        0
 75
     0
 76
     1
 98
        1
 10
0.0
 20
0.0
  0
HATCH
  5
11A
330
115
100
AcDbEntity
  8
0
  6
Continuous
 62
     0
370
    30
100
AcDbHatch
 10
0.0
 20
0.0
 30
0.0
210
0.0
220
0.0
230
1.0
  2
SOLID
 70
     1
 71
     0
 91
        1
 92
        0
 93
        3
 72
     2
 10
0.0000000000000104
 20
0.0
 40
3.000000000000004
 50
180.0
 51
270.0000000000008
 73
     1
 72
     1
 10
0.0000000000000104
 20
-3.000000000000004
 11
0.0000000000000104
 21
0.0
 72
     1
 10
0.0000000000000104
 20
0.0
 11
-2.999999999999994
 21
0.0
 97
        0
 75
     0
 76
     1
 98
        1
 10
0.0
 20
0.0
  0
ENDBLK
  5
117
330
115
100
AcDbEntity
  8
0
100
AcDbBlockEnd
  0
ENDSEC
  0
SECTION
  2
ENTITIES
  0
SPLINE
  5
95
330
1F
100
AcDbEntity
  8
0
  6
Continuous
 62
     1
370
    15
100
AcDbSpline
210
0.0
220
0.0
230
1.0
 70
     8
 71
     3
 72
    10
 73
     6
 74
     0
 42
0.000000001
 43
0.00000001
 40
0.0
 40
0.0
 40
0.0
 40
0.0
 40
0.4991063335687725
 40
0.6867357045800977
 40
1.0
 40
1.0
 40
1.0
 40
1.0
 10
101.2730123843538
 20
2.050122327801686
 30
0.0
 10
100.9040728685193
 20
2.226288686943252
 30
0.0
 10
100.3964376787544
 20
2.468681380907582
 30
0.0
 10
99.65757429405353
 20
2.84401235734351
 30
0.0
 10
99.28700977049367
 20
3.038353168478158
 30
0.0
 10
99.0552547251411
 20
3.159896005514183
 30
0.0
  0
SPLINE
  5
96
330
1F
100
AcDbEntity
  8
0
  6
Continuous
 62
     1
370
    15
100
AcDbSpline
210
0.0
220
0.0
230
1.0
 70
     8
 71
     3
 72
     9
 73
     5
 74
     0
 42
0.000000001
 43
0.00000001
 40
0.0
 40
0.0
 40
0.0
 40
0.0
 40
0.4488923955745813
 40
1.0
 40
1.0
 40
1.0
 40
1.0
 10
14.21071643449139
 20
2.050087966550539
 30
0.0
 10
13.88875565495929
 20
2.203239408089222
 30
0.0
 10
13.17152189759082
 20
2.54441569676894
 30
0.0
 10
12.44209089279896
 20
2.924526259922409
 30
0.0
 10
12.04009591915448
 20
3.134008081798713
 30
0.0
  0
SPLINE
  5
97
330
1F
100
AcDbEntity
  8
0
  6
Continuous
 62
     1
370
    15
100
AcDbSpline
210
0.0
220
0.0
230
1.0
 70
     8
 71
     3
 72
     9
 73
     5
 74
     0
 42
0.000000001
 43
0.00000001
 40
0.0
 40
0.0
 40
0.0
 40
0.0
 40
0.4370852515665525
 40
1.0
 40
1.0
 40
1.0
 40
1.0
 10
57.74220102806977
 20
2.04994784883775
 30
0.0
 10
57.41895998872427
 20
2.203752209809756
 30
0.0
 10
56.6794222482332
 20
2.555638621947336
 30
0.0
 10
55.93999559970806
 20
2.942365275146388
 30
0.0
 10
55.52376143386854
 20
3.160059411844441
 30
0.0
  0
LINE
  5
98
330
1F
100
AcDbEntity
  8
0
  6
Continuous
 62
     1
370
    15
100
AcDbLine
 10
35.5065233029729
 20
-8.000000000000007
 30
0.0
 11
39.38609209337449
 21
-8.000000000000007
 31
0.0
  0
LINE
  5
99
330
1F
100
AcDbEntity
  8
0
  6
Continuous
 62
     1
370
    15
100
AcDbLine
 10
82.91608968861972
 20
8.000000000000014
 30
0.0
 11
79.03841971588231
 21
8.000000000000014
 31
0.0
  0
LINE
  5
9A
330
1F
100
AcDbEntity
  8
0
  6
Continuous
 62
     1
370
    15
100
AcDbLine
 10
79.0384197158823
 20
-8.000000000000007
 30
0.0
 11
82.91608968861968
 21
-8.000000000000007
 31
0.0
  0
LINE
  5
9B
330
1F
100
AcDbEntity
  8
0
  6
Continuous
 62
     1
370
    15
100
AcDbLine
 10
39.38609209337447
 20
8.000000000000014
 30
0.0
 11
35.50652330297289
 21
8.000000000000014
 31
0.0
  0
SPLINE
  5
9C
330
1F
100
AcDbEntity
  8
0
  6
Continuous
 62
     1
370
    15
100
AcDbSpline
210
0.0
220
0.0
230
1.0
 70
     8
 71
     3
 72
    23
 73
    19
 74
     0
 42
0.000000001
 43
0.00000001
 40
0.0
 40
0.0
 40
0.0
 40
0.0
 40
0.0991549829594828
 40
0.1646014414056422
 40
0.2378859328657156
 40
0.313827126816774
 40
0.3673282656329911
 40
0.416379337141015
 40
0.4722228334885171
 40
0.5934662534995773
 40
0.6996725479038005
 40
0.7278039976549087
 40
0.7549248641354431
 40
0.782749028518153
 40
0.8160933175818845
 40
0.8634712757630851
 40
0.924661010569362
 40
1.0
 40
1.0
 40
1.0
 40
1.0
 10
43.06597765910616
 20
-6.657113401254442
 30
0.0
 10
43.45941691190797
 20
-6.619062609175229
 30
0.0
 10
44.11254261657577
 20
-6.555896694201253
 30
0.0
 10
45.07501505798212
 20
-6.478055818683656
 30
0.0
 10
45.93907169562311
 20
-6.415780098363622
 30
0.0
 10
46.75120622902696
 20
-6.366649567213662
 30
0.0
 10
47.46708773189761
 20
-6.330431433443139
 30
0.0
 10
48.10245927718712
 20
-6.303293986758455
 30
0.0
 10
49.00929960765948
 20
-6.271862272165304
 30
0.0
 10
50.14561624994606
 20
-6.248587882366668
 30
0.0
 10
51.17065624094131
 20
-6.246107808029336
 30
0.0
 10
51.81831329414634
 20
-6.251537588313832
 30
0.0
 10
52.15149837923732
 20
-6.255793194378315
 30
0.0
 10
52.50549787998572
 20
-6.261860750391147
 30
0.0
 10
52.94047596972441
 20
-6.271406498925357
 30
0.0
 10
53.50938369387094
 20
-6.287611777307894
 30
0.0
 10
54.2467656348103
 20
-6.314504543299096
 30
0.0
 10
54.79520099812969
 20
-6.341962298519186
 30
0.0
 10
55.09783743065658
 20
-6.357113978444984
 30
0.0
  0
SPLINE
  5
9D
330
1F
100
AcDbEntity
  8
0
  6
Continuous
 62
     1
370
    15
100
AcDbSpline
210
0.0
220
0.0
230
1.0
 70
     8
 71
     3
 72
    15
 73
    11
 74
     0
 42
0.000000001
 43
0.00000001
 40
0.0
 40
0.0
 40
0.0
 40
0.0
 40
0.1757377662978997
 40
0.2915983664098738
 40
0.4155767023028856
 40
0.5503779677405122
 40
0.6537140598357747
 40
0.7481919459560512
 40
0.8552451042734079
 40
0.9999999999999999
 40
0.9999999999999999
 40
0.9999999999999999
 40
0.9999999999999999
 10
98.6288914493806
 20
6.357107010213074
 30
0.0
 10
98.24724410833643
 20
6.338164576621312
 30
0.0
 10
97.61398386190479
 20
6.306733753255651
 30
0.0
 10
96.6891303217783
 20
6.27646317148869
 30
0.0
 10
95.85923139693666
 20
6.257236118462916
 30
0.0
 10
95.06276379232035
 20
6.247943180047881
 30
0.0
 10
94.329902140648
 20
6.246916199706605
 30
0.0
 10
93.66006692186511
 20
6.252145053606436
 30
0.0
 10
92.8987204832863
 20
6.263214959844537
 30
0.0
 10
92.34129012104894
 20
6.282378021778579
 30
0.0
 10
92.02084455680014
 20
6.293394138965921
 30
0.0
  0
SPLINE
  5
9E
330
1F
100
AcDbEntity
  8
0
  6
Continuous
 62
     1
370
    15
100
AcDbSpline
210
0.0
220
0.0
230
1.0
 70
     8
 71
     3
 72
    25
 73
    21
 74
     0
 42
0.000000001
 43
0.00000001
 40
0.0
 40
0.0
 40
0.0
 40
0.0
 40
0.0787161403412315
 40
0.1337997183595374
 40
0.1665441862596692
 40
0.1983780819550785
 40
0.2359063309673728
 40
0.277199926208107
 40
0.3163971381553407
 40
0.4105740909539413
 40
0.4892724171269305
 40
0.5591155247413431
 40
0.6509378207508716
 40
0.726114111153637
 40
0.7544769233667492
 40
0.7808537219945295
 40
0.8075531420153491
 40
0.8513568983208157
 40
0.9154134515904261
 40
1.0
 40
1.0
 40
1.0
 40
1.0
 10
86.59731775894456
 20
-6.657097807075679
 30
0.0
 10
86.91309783416915
 20
-6.626391873938196
 30
0.0
 10
87.44985287507242
 20
-6.574198699984898
 30
0.0
 10
88.11729833978788
 20
-6.517664398816221
 30
0.0
 10
88.59657352729121
 20
-6.479728616445183
 30
0.0
 10
89.00616267453458
 20
-6.449252327336449
 30
0.0
 10
89.45029645337355
 20
-6.41836061700092
 30
0.0
 10
89.9242445748559
 20
-6.388261847824732
 30
0.0
 10
90.62531742104233
 20
-6.348104015517837
 30
0.0
 10
91.47572441869706
 20
-6.308088830369554
 30
0.0
 10
92.44908637910599
 20
-6.275210956571938
 30
0.0
 10
93.41313932462958
 20
-6.254159757406311
 30
0.0
 10
94.36288505107348
 20
-6.245576607686378
 30
0.0
 10
95.14672828788734
 20
-6.248996923841212
 30
0.0
 10
95.66734869333762
 20
-6.255567757610909
 30
0.0
 10
95.99188806901981
 20
-6.261069668314907
 30
0.0
 10
96.37526216257189
 20
-6.269073329882551
 30
0.0
 10
96.91525413976456
 20
-6.283506511160287
 30
0.0
 10
97.68837174980793
 20
-6.310339616106574
 30
0.0
 10
98.28778852757036
 20
-6.340145648550537
 30
0.0
 10
98.6288914493806
 20
-6.357107010213053
 30
0.0
  0
SPLINE
  5
9F
330
1F
100
AcDbEntity
  8
0
  6
Continuous
 62
     1
370
    15
100
AcDbSpline
210
0.0
220
0.0
230
1.0
 70
     8
 71
     3
 72
    23
 73
    19
 74
     0
 42
0.000000001
 43
0.00000001
 40
0.0
 40
0.0
 40
0.0
 40
0.0
 40
0.0872981974082252
 40
0.1433104509780563
 40
0.178167326965123
 40
0.2199475741567243
 40
0.2689478860954963
 40
0.3152000522062376
 40
0.407266626227902
 40
0.4857725163838132
 40
0.5535586793657152
 40
0.6397139271847584
 40
0.7175500732414932
 40
0.7530360713080049
 40
0.7854110909925742
 40
0.8275650290471356
 40
0.8991126357572133
 40
1.0
 40
1.0
 40
1.0
 40
1.0
 10
55.09783743065659
 20
6.357113978445
 30
0.0
 10
54.747792598152
 20
6.339740186163857
 30
0.0
 10
54.17315206377544
 20
6.311219024433941
 30
0.0
 10
53.45949635558157
 20
6.286242422501863
 30
0.0
 10
52.92579378426455
 20
6.271087164526925
 30
0.0
 10
52.42129914764455
 20
6.259897538959007
 30
0.0
 10
51.87153886176201
 20
6.251637282793538
 30
0.0
 10
51.12043970969558
 20
6.246044896080249
 30
0.0
 10
50.25092285901348
 20
6.249239511983978
 30
0.0
 10
49.29441850815047
 20
6.265699834022763
 30
0.0
 10
48.36228990497116
 20
6.292674655294523
 30
0.0
 10
47.43262599693937
 20
6.330802824697204
 30
0.0
 10
46.63246045812928
 20
6.373618050783611
 30
0.0
 10
46.04729165511632
 20
6.410078203702795
 30
0.0
 10
45.613512140852
 20
6.439299444783738
 30
0.0
 10
45.03348770886214
 20
6.481350449560691
 30
0.0
 10
44.1687416170808
 20
6.55078322449508
 30
0.0
 10
43.47302433907238
 20
6.617865341760729
 30
0.0
 10
43.06597765910616
 20
6.657113401254453
 30
0.0
  0
SPLINE
  5
A0
330
1F
100
AcDbEntity
  8
0
  6
Continuous
 62
     1
370
    15
100
AcDbSpline
210
0.0
220
0.0
230
1.0
 70
     8
 71
     3
 72
    16
 73
    12
 74
     0
 42
0.000000001
 43
0.00000001
 40
0.0
 40
0.0
 40
0.0
 40
0.0
 40
0.1806544850985542
 40
0.3056067111108272
 40
0.3803994942887564
 40
0.4614799206712271
 40
0.5621301651367825
 40
0.6651686686058041
 40
0.7470492027032963
 40
0.8668898596189422
 40
0.9999999999999999
 40
0.9999999999999999
 40
0.9999999999999999
 40
0.9999999999999999
 10
61.52166126821562
 20
-6.017059605965792
 30
0.0
 10
61.87959968074166
 20
-5.962186143518219
 30
0.0
 10
62.48511125147647
 20
-5.869358675787661
 30
0.0
 10
63.23789948332316
 20
-5.767921507954397
 30
0.0
 10
63.79702726027554
 20
-5.697398459219703
 30
0.0
 10
64.30763171372394
 20
-5.636877251773211
 30
0.0
 10
64.87329864830168
 20
-5.57464039454543
 30
0.0
 10
65.43996047261474
 20
-5.518078825625396
 30
0.0
 10
66.0438379074419
 20
-5.463814539581847
 30
0.0
 10
66.70577143882113
 20
-5.410531879858647
 30
0.0
 10
67.20785983525863
 20
-5.378717622456402
 30
0.0
 10
67.4720734991322
 20
-5.361976025615479
 30
0.0
  0
SPLINE
  5
A1
330
1F
100
AcDbEntity
  8
0
  6
Continuous
 62
     1
370
    15
100
AcDbSpline
210
0.0
220
0.0
230
1.0
 70
     8
 71
     3
 72
    21
 73
    17
 74
     0
 42
0.000000001
 43
0.00000001
 40
0.0
 40
0.0
 40
0.0
 40
0.0
 40
0.0991844613999422
 40
0.1835772927671852
 40
0.2407808225926886
 40
0.2898931271642437
 40
0.3565328623178258
 40
0.4318816066233169
 40
0.4844416203657118
 40
0.5388084274516667
 40
0.6158204056187196
 40
0.694961607421207
 40
0.7504770176620724
 40
0.8142331527262768
 40
0.8947940847212065
 40
1.0
 40
1.0
 40
1.0
 40
1.0
 10
119.028109324599
 20
5.471639532520538
 30
0.0
 10
118.5848519830209
 20
5.435657473419228
 30
0.0
 10
117.7644413902974
 20
5.369059450858297
 30
0.0
 10
116.5966259672406
 20
5.311902133984987
 30
0.0
 10
115.7073593151404
 20
5.282001269740599
 30
0.0
 10
114.9003916070122
 20
5.266307896544625
 30
0.0
 10
114.008291589661
 20
5.262065803458548
 30
0.0
 10
113.1010025382015
 20
5.27448842940925
 30
0.0
 10
112.2516595027849
 20
5.299949841592906
 30
0.0
 10
111.3942093867926
 20
5.33730736212891
 30
0.0
 10
110.4115743142685
 20
5.396699832452655
 30
0.0
 10
109.4221057594116
 20
5.475321784056723
 30
0.0
 10
108.4998820147497
 20
5.56369362609315
 30
0.0
 10
107.5684687936296
 20
5.666683154148514
 30
0.0
 10
106.3708788466224
 20
5.815470503247649
 30
0.0
 10
105.5295026918722
 20
5.944155978063928
 30
0.0
 10
105.0530035223308
 20
6.017034822485417
 30
0.0
  0
SPLINE
  5
A2
330
1F
100
AcDbEntity
  8
0
  6
Continuous
 62
     1
370
    15
100
AcDbSpline
210
0.0
220
0.0
230
1.0
 70
     8
 71
     3
 72
    26
 73
    22
 74
     0
 42
0.000000001
 43
0.00000001
 40
0.0
 40
0.0
 40
0.0
 40
0.0
 40
0.0725757423523953
 40
0.1250214356161877
 40
0.1592177579737761
 40
0.1944488005052094
 40
0.2355236044450114
 40
0.2765977664324146
 40
0.3099378865571841
 40
0.3619857413367783
 40
0.4248141789107973
 40
0.4974958497888617
 40
0.5574569780921215
 40
0.6081101050297505
 40
0.6723330217089807
 40
0.7391937742770586
 40
0.7769150461244296
 40
0.8066752670287263
 40
0.8430195511261492
 40
0.9075279796027794
 40
1.0
 40
1.0
 40
1.0
 40
1.0
 10
31.96554783572142
 20
5.47162298655774
 30
0.0
 10
31.62923073095583
 20
5.444341628247432
 30
0.0
 10
31.04987947808247
 20
5.397345835011818
 30
0.0
 10
30.31126330721954
 20
5.352296210282273
 30
0.0
 10
29.73818009477295
 20
5.323032804647285
 30
0.0
 10
29.2204202647426
 20
5.301192393092762
 30
0.0
 10
28.67291166466545
 20
5.283495784134743
 30
0.0
 10
28.13527264371299
 20
5.271781594835664
 30
0.0
 10
27.54630078411882
 20
5.264549310137054
 30
0.0
 10
26.85569473658596
 20
5.26362632226422
 30
0.0
 10
25.98213033296333
 20
5.275450932669025
 30
0.0
 10
25.07133994039727
 20
5.303490589490313
 30
0.0
 10
24.21744453102502
 20
5.344220784774364
 30
0.0
 10
23.40305119296228
 20
5.394556781742951
 30
0.0
 10
22.55674588161555
 20
5.458650905222092
 30
0.0
 10
21.76999794722657
 20
5.530732798021288
 30
0.0
 10
21.14439115484861
 20
5.59617558496569
 30
0.0
 10
20.66678104239027
 20
5.649653421547671
 30
0.0
 10
20.0634449463055
 20
5.721650272592632
 30
0.0
 10
19.15931546933015
 20
5.8388966012505
 30
0.0
 10
18.42369897119639
 20
5.951024988078737
 30
0.0
 10
17.9903714816399
 20
6.017076133608462
 30
0.0
  0
SPLINE
  5
A3
330
1F
100
AcDbEntity
  8
0
  6
Continuous
 62
     1
370
    15
100
AcDbSpline
210
0.0
220
0.0
230
1.0
 70
     8
 71
     3
 72
    16
 73
    12
 74
     0
 42
0.000000001
 43
0.00000001
 40
0.0
 40
0.0
 40
0.0
 40
0.0
 40
0.1778227030010679
 40
0.3082176380486917
 40
0.4069665592480218
 40
0.509702099111956
 40
0.6128954289251678
 40
0.7001149910900226
 40
0.8276819230050152
 40
0.9921327560231277
 40
1.0
 40
1.0
 40
1.0
 40
1.0
 10
17.99037148163986
 20
-6.017076133608455
 30
0.0
 10
18.3376086323296
 20
-5.963736470911517
 30
0.0
 10
18.93946999548584
 20
-5.871283569379224
 30
0.0
 10
19.74374920583012
 20
-5.76259303696356
 30
0.0
 10
20.41063522625961
 20
-5.679495440156102
 30
0.0
 10
21.01646835168991
 20
-5.609721659083283
 30
0.0
 10
21.5954977894923
 20
-5.54873784801759
 30
0.0
 10
22.22440433874867
 20
-5.488537180614399
 30
0.0
 10
22.97519533277108
 20
-5.426295306379811
 30
0.0
 10
23.56860319925258
 20
-5.381589666117163
 30
0.0
 10
23.90939851054627
 20
-5.363977148781406
 30
0.0
 10
23.92495764344096
 20
-5.363173042947917
 30
0.0
  0
SPLINE
  5
A4
330
1F
100
AcDbEntity
  8
0
  6
Continuous
 62
     1
370
    15
100
AcDbSpline
210
0.0
220
0.0
230
1.0
 70
     8
 71
     3
 72
    13
 73
     9
 74
     0
 42
0.000000001
 43
0.00000001
 40
0.0
 40
0.0
 40
0.0
 40
0.0
 40
0.1667698773051195
 40
0.2893776829017554
 40
0.3922044988858525
 40
0.5287128904449204
 40
0.7789188176315992
 40
1.0
 40
1.0
 40
1.0
 40
1.0
 10
27.59189571036732
 20
-5.267473293075723
 30
0.0
 10
27.8046842228368
 20
-5.269057726323936
 30
0.0
 10
28.17391305289627
 20
-5.271807021517346
 30
0.0
 10
28.67400555483526
 20
-5.284089951905594
 30
0.0
 10
29.12911261794963
 20
-5.298019010450248
 30
0.0
 10
29.74776810679938
 20
-5.3226974633505
 30
0.0
 10
30.5254172399874
 20
-5.361467177500121
 30
0.0
 10
31.13052571292653
 20
-5.408774715910068
 30
0.0
 10
31.41438261023232
 20
-5.430966722257288
 30
0.0
  0
SPLINE
  5
A5
330
1F
100
AcDbEntity
  8
0
  6
Continuous
 62
     1
370
    15
100
AcDbSpline
210
0.0
220
0.0
230
1.0
 70
     8
 71
     3
 72
    13
 73
     9
 74
     0
 42
0.000000001
 43
0.00000001
 40
0.0
 40
0.0
 40
0.0
 40
0.0
 40
0.246456459266768
 40
0.4351793271976064
 40
0.5845351049864969
 40
0.7145860760412073
 40
0.8999830694200532
 40
1.0
 40
1.0
 40
1.0
 40
1.0
 10
105.0530035223308
 20
-6.017034822485396
 30
0.0
 10
105.529503127821
 20
-5.944150328880629
 30
0.0
 10
106.3708800523458
 20
-5.815454879045699
 30
0.0
 10
107.568465556161
 20
-5.666725106444349
 30
0.0
 10
108.4998909346221
 20
-5.563578039139111
 30
0.0
 10
109.422071901147
 20
-5.475760531775952
 30
0.0
 10
110.2513049202121
 20
-5.407492565387453
 30
0.0
 10
110.8198586500978
 20
-5.374881098395908
 30
0.0
 10
111.0190955974206
 20
-5.363453138663031
 30
0.0
  0
SPLINE
  5
A6
330
1F
100
AcDbEntity
  8
0
  6
Continuous
 62
     1
370
    15
100
AcDbSpline
210
0.0
220
0.0
230
1.0
 70
     8
 71
     3
 72
    25
 73
    21
 74
     0
 42
0.000000001
 43
0.00000001
 40
0.0
 40
0.0
 40
0.0
 40
0.0
 40
0.0923326246733133
 40
0.1573192596820565
 40
0.2142376994701918
 40
0.2672034582415861
 40
0.3119181465621915
 40
0.3659305565162099
 40
0.4296047828681111
 40
0.4844590305449682
 40
0.5319713076685433
 40
0.5786734145893406
 40
0.6426623430126759
 40
0.7043008530114006
 40
0.7509352672479983
 40
0.7902223332328123
 40
0.8178832944653606
 40
0.8621011122081452
 40
0.9228739949229787
 40
1.0
 40
1.0
 40
1.0
 40
1.0
 10
75.49676197695733
 20
5.47162552011787
 30
0.0
 10
75.08226393332697
 20
5.437900418027362
 30
0.0
 10
74.37602899638776
 20
5.380438517508964
 30
0.0
 10
73.35039158458535
 20
5.325448837993379
 30
0.0
 10
72.52145942203428
 20
5.292117057197149
 30
0.0
 10
71.80129642474823
 20
5.2737551924554
 30
0.0
 10
71.10775985318422
 20
5.264300256702855
 30
0.0
 10
70.3476659144532
 20
5.263624413307323
 30
0.0
 10
69.53407733331863
 20
5.275613867259631
 30
0.0
 10
68.75456196304384
 20
5.298804566180139
 30
0.0
 10
68.06990953547619
 20
5.328332903138113
 30
0.0
 10
67.36583314457111
 20
5.36533326143324
 30
0.0
 10
66.53906141634165
 20
5.422595080359562
 30
0.0
 10
65.72564013690362
 20
5.490822710694624
 30
0.0
 10
65.0309618419265
 20
5.558401066955338
 30
0.0
 10
64.523791909513
 20
5.61260266464665
 30
0.0
 10
64.01431200329642
 20
5.670394362930888
 30
0.0
 10
63.39253209481615
 20
5.746784499881239
 30
0.0
 10
62.53658752820071
 20
5.861385712171204
 30
0.0
 10
61.88569915627609
 20
5.961221859168355
 30
0.0
 10
61.52166126821564
 20
6.017059605965811
 30
0.0
  0
LINE
  5
A7
330
1F
100
AcDbEntity
  8
0
  6
Continuous
 62
   131
370
    15
100
AcDbLine
 10
8.94996859193837
 20
8.000000000000004
 30
0.0
 11
-77.0
 21
8.0
 31
0.0
  0
LINE
  5
A8
330
1F
100
AcDbEntity
  8
0
  6
Continuous
 62
   131
370
    15
100
AcDbLine
 10
-77.0
 20
-7.999999999999999
 30
0.0
 11
8.949968591938374
 21
-7.999999999999996
 31
0.0
  0
LINE
  5
A9
330
1F
100
AcDbEntity
  8
0
  6
Continuous
 62
   131
370
    15
100
AcDbLine
 10
-77.0
 20
7.999999999999997
 30
0.0
 11
-78.0
 21
6.999999999999994
 31
0.0
  0
LINE
  5
AA
330
1F
100
AcDbEntity
  8
0
  6
Continuous
 62
   131
370
    15
100
AcDbLine
 10
-78.0
 20
-6.999999999999994
 30
0.0
 11
-77.0
 21
-7.999999999999996
 31
0.0
  0
LINE
  5
AB
330
1F
100
AcDbEntity
  8
0
  6
Continuous
 62
   131
370
    15
100
AcDbLine
 10
9.84858990132397
 20
2.21920885018128
 30
0.0
 11
9.701230554414174
 21
2.300320917107637
 31
0.0
  0
SPLINE
  5
AC
330
1F
100
AcDbEntity
  8
0
  6
Continuous
 62
   131
370
    15
100
AcDbSpline
210
0.0
220
0.0
230
1.0
 70
     8
 71
     3
 72
     9
 73
     5
 74
     0
 42
0.000000001
 43
0.00000001
 40
0.0
 40
0.0
 40
0.0
 40
0.0
 40
0.4127295619496469
 40
1.0
 40
1.0
 40
1.0
 40
1.0
 10
11.94287278473833
 20
3.184759750472682
 30
0.0
 10
11.89774409173675
 20
3.208568185778767
 30
0.0
 10
11.78840204996874
 20
3.266253502027061
 30
0.0
 10
11.67916265672963
 20
3.324566006457993
 30
0.0
 10
11.61500959040975
 20
3.35881121647896
 30
0.0
  0
SPLINE
  5
AD
330
1F
100
AcDbEntity
  8
0
  6
Continuous
 62
   131
370
    15
100
AcDbSpline
210
0.0
220
0.0
230
1.0
 70
     8
 71
     3
 72
     9
 73
     5
 74
     0
 42
0.000000001
 43
0.00000001
 40
0.0
 40
0.0
 40
0.0
 40
0.0
 40
0.5199040428166319
 40
0.9999999999999999
 40
0.9999999999999999
 40
0.9999999999999999
 40
0.9999999999999999
 10
11.42305055968028
 20
6.349118353456348
 30
0.0
 10
10.99304577026663
 20
6.328848620134258
 30
0.0
 10
10.16596085843548
 20
6.2898611692726
 30
0.0
 10
9.331985457478215
 20
6.270588416927116
 30
0.0
 10
8.931597239088255
 20
6.261335646442252
 30
0.0
  0
SPLINE
  5
AE
330
1F
100
AcDbEntity
  8
0
  6
Continuous
 62
   131
370
    15
100
AcDbSpline
210
0.0
220
0.0
230
1.0
 70
     8
 71
     3
 72
     9
 73
     5
 74
     0
 42
0.000000001
 43
0.00000001
 40
0.0
 40
0.0
 40
0.0
 40
0.0
 40
0.4800959571833679
 40
0.9999999999999999
 40
0.9999999999999999
 40
0.9999999999999999
 40
0.9999999999999999
 10
8.931597239088259
 20
-6.261335646442243
 30
0.0
 10
9.331985457478215
 20
-6.270588416927106
 30
0.0
 10
10.16596085843548
 20
-6.289861169272589
 30
0.0
 10
10.99304577026663
 20
-6.328848620134248
 30
0.0
 10
11.42305055968028
 20
-6.349118353456338
 30
0.0
  0
SPLINE
  5
AF
330
1F
100
AcDbEntity
  8
0
  6
Continuous
 62
     1
370
    15
100
AcDbSpline
210
0.0
220
0.0
230
1.0
 70
     8
 71
     3
 72
    20
 73
    16
 74
     0
 42
0.000000001
 43
0.00000001
 40
0.0
 40
0.0
 40
0.0
 40
0.0
 40
0.0809635561920276
 40
0.1619572791101415
 40
0.2429665585986178
 40
0.3239767066167841
 40
0.4049730307708875
 40
0.4845010019667741
 40
0.5640152397319188
 40
0.6435538991088307
 40
0.7231099846078088
 40
0.8041213085817938
 40
0.8851280112943851
 40
0.9661154176168008
 40
1.0
 40
1.0
 40
1.0
 40
1.0
 10
122.0
 20
-7.59152695385519
 30
0.0
 10
120.9452899062899
 20
-7.361087644828176
 30
0.0
 10
118.835476737731
 20
-6.900123165927093
 30
0.0
 10
115.6700290226053
 20
-5.744616963112665
 30
0.0
 10
112.5038760564958
 20
-4.318849021489443
 30
0.0
 10
109.3376821347009
 20
-2.661066672077648
 30
0.0
 10
106.1908731039531
 20
-0.8777877543709905
 30
0.0
 10
103.0638584074811
 20
0.9394215910884859
 30
0.0
 10
99.95599565058033
 20
2.698564441465547
 30
0.0
 10
96.84745862612722
 20
4.322644886137155
 30
0.0
 10
93.7193426504066
 20
5.736992377589834
 30
0.0
 10
90.5718873652267
 20
6.873217559647806
 30
0.0
 10
87.40587088531775
 20
7.63407066345282
 30
0.0
 10
84.85391652330955
 20
8.002801077172009
 30
0.0
 10
83.35749844484349
 20
7.961467266482822
 30
0.0
 10
82.91608968861972
 20
7.949274747407531
 30
0.0
  0
SPLINE
  5
B0
330
1F
100
AcDbEntity
  8
0
  6
Continuous
 62
     1
370
    15
100
AcDbSpline
210
0.0
220
0.0
230
1.0
 70
     8
 71
     3
 72
    16
 73
    12
 74
     0
 42
0.000000001
 43
0.00000001
 40
0.0
 40
0.0
 40
0.0
 40
0.0
 40
0.079322049058397
 40
0.1944096276051017
 40
0.309518622871138
 40
0.4246299593947405
 40
0.5397245506971414
 40
0.6547833890414335
 40
0.769818709881805
 40
0.8848956662878416
 40
1.0
 40
1.0
 40
1.0
 40
1.0
 10
39.38609209337448
 20
-7.95770240940375
 30
0.0
 10
38.66204260018343
 20
-7.95549710593819
 30
0.0
 10
36.8874768393405
 20
-7.950092149427548
 30
0.0
 10
34.0618958418767
 20
-7.471669475863738
 30
0.0
 10
30.90952663463317
 20
-6.608882115063031
 30
0.0
 10
27.75706898965691
 20
-5.390623638310521
 30
0.0
 10
24.60515950619158
 20
-3.898998393294408
 30
0.0
 10
21.45415696861419
 20
-2.20467100923357
 30
0.0
 10
18.30354672824031
 20
-0.399894180331863
 30
0.0
 10
15.15215491885412
 20
1.43684379348402
 30
0.0
 10
13.05080161654716
 20
2.5829875706479
 30
0.0
 10
11.99999999999662
 20
3.156127619263679
 30
0.0
  0
SPLINE
  5
B1
330
1F
100
AcDbEntity
  8
0
  6
Continuous
 62
     1
370
    15
100
AcDbSpline
210
0.0
220
0.0
230
1.0
 70
     8
 71
     3
 72
    13
 73
     9
 74
     0
 42
0.000000001
 43
0.00000001
 40
0.0
 40
0.0
 40
0.0
 40
0.0
 40
0.1698986987517628
 40
0.3399158787978445
 40
0.5098759794543675
 40
0.6797278241727122
 40
0.8497234490202397
 40
0.9999999999999999
 40
0.9999999999999999
 40
0.9999999999999999
 40
0.9999999999999999
 10
122.0
 20
-6.311778114945712
 30
0.0
 10
120.8228018639773
 20
-6.057032563343097
 30
0.0
 10
118.467584655928
 20
-5.547363809673811
 30
0.0
 10
114.9341327041609
 20
-4.315745056819759
 30
0.0
 10
111.4012575171785
 20
-2.833500507218238
 30
0.0
 10
107.8691904168333
 20
-1.162151826436589
 30
0.0
 10
104.4726465626734
 20
0.52466984728609
 30
0.0
 10
102.2532964405601
 20
1.578559318597842
 30
0.0
 10
101.2119437819777
 20
2.073060205081403
 30
0.0
  0
SPLINE
  5
B2
330
1F
100
AcDbEntity
  8
0
  6
Continuous
 62
     1
370
    15
100
AcDbSpline
210
0.0
220
0.0
230
1.0
 70
     8
 71
     3
 72
    16
 73
    12
 74
     0
 42
0.000000001
 43
0.00000001
 40
0.0
 40
0.0
 40
0.0
 40
0.0
 40
0.0806004443183197
 40
0.2025190897386487
 40
0.3245365688631667
 40
0.4465699866590476
 40
0.5685017152593422
 40
0.6904838346626854
 40
0.8125260272446939
 40
0.9345022413809306
 40
1.0
 40
1.0
 40
1.0
 40
1.0
 10
43.07864848726224
 20
-6.607089474937627
 30
0.0
 10
42.30053931202423
 20
-6.686318509942454
 30
0.0
 10
40.34543890011903
 20
-6.885391755577185
 30
0.0
 10
37.21310043610888
 20
-6.7020546723456
 30
0.0
 10
33.68000653745448
 20
-6.125208901581495
 30
0.0
 10
30.14669974772741
 20
-5.135827079918799
 30
0.0
 10
26.6145255639364
 20
-3.818090291425241
 30
0.0
 10
23.08181002780596
 20
-2.252179418532042
 30
0.0
 10
19.54840098733921
 20
-0.5439493014570352
 30
0.0
 10
16.56026822616722
 20
0.9385901378539201
 30
0.0
 10
14.75118503348467
 20
1.793207861511218
 30
0.0
 10
14.11914586274178
 20
2.091785549672466
 30
0.0
  0
LINE
  5
B3
330
1F
100
AcDbEntity
  8
0
  6
Continuous
 62
     1
370
    15
100
AcDbLine
 10
121.9999999999994
 20
-7.591526953855199
 30
0.0
 11
122.0
 21
-6.311778114945712
 31
0.0
  0
SPLINE
  5
B4
330
1F
100
AcDbEntity
  8
0
  6
Continuous
 62
     1
370
    15
100
AcDbSpline
210
0.0
220
0.0
230
1.0
 70
     8
 71
     3
 72
    25
 73
    21
 74
     0
 42
0.000000001
 43
0.00000001
 40
0.0
 40
0.0
 40
0.0
 40
0.0
 40
0.0276287322093583
 40
0.0877736529741982
 40
0.1479042467781904
 40
0.2080118494020629
 40
0.2681314785313919
 40
0.327196455910926
 40
0.3862691713967362
 40
0.4453423695536168
 40
0.5044087931051934
 40
0.5645312558631872
 40
0.6246376540748882
 40
0.6847658823715129
 40
0.7449096984763113
 40
0.8050582121030246
 40
0.8641272712136765
 40
0.9231843518872223
 40
0.9822228116193303
 40
1.0
 40
1.0
 40
1.0
 40
1.0
 10
92.02631729959218
 20
-6.291444683697534
 30
0.0
 10
91.5414917112212
 20
-6.471353808739012
 30
0.0
 10
90.00125046438349
 20
-7.042906675827626
 30
0.0
 10
87.40586520130871
 20
-7.638219149969909
 30
0.0
 10
84.24066691988271
 20
-8.036053509898732
 30
0.0
 10
81.07631145134815
 20
-7.998014952141983
 30
0.0
 10
77.93039053615844
 20
-7.551977615141017
 30
0.0
 10
74.80252481904638
 20
-6.723276429102007
 30
0.0
 10
71.69292584837295
 20
-5.562798088866668
 30
0.0
 10
68.58329440909962
 20
-4.123340260877013
 30
0.0
 10
65.45533588338924
 20
-2.467355669525232
 30
0.0
 10
62.30931266821109
 20
-0.6746343030092465
 30
0.0
 10
59.14499481045475
 20
1.164305999903925
 30
0.0
 10
55.97990441827666
 20
2.942157422603197
 30
0.0
 10
52.81395249813367
 20
4.567912591017788
 30
0.0
 10
49.66649146183374
 20
5.945926169767752
 30
0.0
 10
46.53830471832325
 20
7.020628229526335
 30
0.0
 10
43.4296472512584
 20
7.707495369176196
 30
0.0
 10
41.04579522193134
 20
8.022165483224365
 30
0.0
 10
39.69800635946572
 20
7.969817197895018
 30
0.0
 10
39.38609209337447
 20
7.957702409403762
 30
0.0
  0
SPLINE
  5
B5
330
1F
100
AcDbEntity
  8
0
  6
Continuous
 62
     1
370
    15
100
AcDbSpline
210
0.0
220
0.0
230
1.0
 70
     8
 71
     3
 72
    16
 73
    12
 74
     0
 42
0.000000001
 43
0.00000001
 40
0.0
 40
0.0
 40
0.0
 40
0.0
 40
0.1196684031665927
 40
0.241962691808031
 40
0.3642223067217837
 40
0.4863970830870581
 40
0.6086736307434705
 40
0.7309597618831944
 40
0.8531424047902332
 40
0.9753857460678147
 40
1.0
 40
1.0
 40
1.0
 40
1.0
 10
86.59851874884069
 20
-6.652510572792328
 30
0.0
 10
85.4458170551143
 20
-6.729635334369274
 30
0.0
 10
83.11511991798086
 20
-6.885577207264763
 30
0.0
 10
79.60612763254312
 20
-6.563286318296417
 30
0.0
 10
76.07319833182906
 20
-5.847289127172904
 30
0.0
 10
72.54113675660138
 20
-4.743371026934052
 30
0.0
 10
69.00800571811433
 20
-3.33703278642646
 30
0.0
 10
65.47473941030822
 20
-1.711034500593742
 30
0.0
 10
61.94259850403829
 20
0.0135809307736396
 30
0.0
 10
59.35085836503667
 20
1.313891709092204
 30
0.0
 10
57.93604940266257
 20
1.951222478534484
 30
0.0
 10
57.69891854800253
 20
2.058043112329011
 30
0.0
  0
SPLINE
  5
B6
330
1F
100
AcDbEntity
  8
0
  6
Continuous
 62
     1
370
    15
100
AcDbSpline
210
0.0
220
0.0
230
1.0
 70
     8
 71
     3
 72
    17
 73
    13
 74
     0
 42
0.000000001
 43
0.00000001
 40
0.0
 40
0.0
 40
0.0
 40
0.0
 40
0.1065573249113478
 40
0.213991022882002
 40
0.3119709442683619
 40
0.4106312155739228
 40
0.5085220430194797
 40
0.6070922019598136
 40
0.704983014209706
 40
0.8035534513488375
 40
0.9014441656415974
 40
0.9999999999999999
 40
0.9999999999999999
 40
0.9999999999999999
 40
0.9999999999999999
 10
11.99999999999999
 20
1.003136253102266
 30
0.0
 10
12.83493786720868
 20
0.5216565975056996
 30
0.0
 10
14.51168048809888
 20
-0.4452626085057384
 30
0.0
 10
16.95628607180706
 20
-1.849351567716216
 30
0.0
 10
19.33864119852889
 20
-3.159198743390565
 30
0.0
 10
21.64646467021267
 20
-4.34075975377667
 30
0.0
 10
23.95920909089845
 20
-5.403590422935213
 30
0.0
 10
26.26575641179437
 20
-6.314296971403778
 30
0.0
 10
28.57739178993143
 20
-7.053264556349977
 30
0.0
 10
30.8836532030285
 20
-7.59112439643854
 30
0.0
 10
33.19506420884781
 20
-7.935469594724766
 30
0.0
 10
34.73429977961435
 20
-7.978431190366122
 30
0.0
 10
35.50652330297289
 20
-7.999984716925249
 30
0.0
  0
SPLINE
  5
B7
330
1F
100
AcDbEntity
  8
0
  6
Continuous
 62
     1
370
    15
100
AcDbSpline
210
0.0
220
0.0
230
1.0
 70
     8
 71
     3
 72
    32
 73
    28
 74
     0
 42
0.000000001
 43
0.00000001
 40
0.0
 40
0.0
 40
0.0
 40
0.0
 40
0.0064958573023709
 40
0.048675856160621
 40
0.0911484319274001
 40
0.133328393723686
 40
0.1758008797342534
 40
0.2179808071790245
 40
0.2604528609664787
 40
0.3026328104799303
 40
0.3451050093525834
 40
0.3872850059647187
 40
0.4297577139970634
 40
0.4719376462416662
 40
0.5144097845051524
 40
0.5565897147409806
 40
0.5990617278405752
 40
0.6412417877581914
 40
0.683714777124807
 40
0.7258947168570662
 40
0.7683669748078849
 40
0.8105468996409015
 40
0.8530188955172006
 40
0.8893835571306848
 40
0.9257484016647609
 40
0.962874326443474
 40
1.0
 40
1.0
 40
1.0
 40
1.0
 10
67.47072167372593
 20
5.361368942565397
 30
0.0
 10
67.58879659494362
 20
5.414845062267529
 30
0.0
 10
68.4735755569555
 20
5.815561363362844
 30
0.0
 10
70.13064730996783
 20
6.42392155294655
 30
0.0
 10
72.43608863537084
 20
7.143851248159017
 30
0.0
 10
74.7466821809536
 20
7.653916096534647
 30
0.0
 10
77.05190674996327
 20
7.95480386190128
 30
0.0
 10
79.36241573598221
 20
8.034843085033609
 30
0.0
 10
81.66773458626794
 20
7.892728527527416
 30
0.0
 10
83.97858002945436
 20
7.531614264873888
 30
0.0
 10
86.28426536600499
 20
6.963313979436014
 30
0.0
 10
88.59492132561299
 20
6.200572039237256
 30
0.0
 10
90.90019326225958
 20
5.267920258011757
 30
0.0
 10
93.21068252790386
 20
4.187060040568185
 30
0.0
 10
95.51594993867933
 20
2.99289343776167
 30
0.0
 10
97.82660625659383
 20
1.713287535942153
 30
0.0
 10
100.1323124419085
 20
0.3897402417599174
 30
0.0
 10
102.4431391442342
 20
-0.9478679657861226
 30
0.0
 10
104.7484723204735
 20
-2.256669262256963
 30
0.0
 10
107.0589791280717
 20
-3.506003909924845
 30
0.0
 10
109.364238135137
 20
-4.655513707871923
 30
0.0
 10
111.6746935255505
 20
-5.67856803465948
 30
0.0
 10
113.8749122133085
 20
-6.501983399104611
 30
0.0
 10
115.9677253010521
 20
-7.13439696465511
 30
0.0
 10
117.9651735480551
 20
-7.58676836294095
 30
0.0
 10
119.9765916816345
 20
-7.895300575859443
 30
0.0
 10
121.3255320818754
 20
-7.960592613480737
 30
0.0
 10
121.9999999999995
 20
-7.999999999999981
 30
0.0
  0
LINE
  5
B8
330
1F
100
AcDbEntity
  8
0
  6
Continuous
 62
   131
370
    15
100
AcDbLine
 10
11.99999999999999
 20
1.003136253102268
 30
0.0
 11
11.99999999999999
 21
3.156127619261903
 31
0.0
  0
LINE
  5
B9
330
1F
100
AcDbEntity
  8
0
  6
Continuous
 62
     1
370
    15
100
AcDbLine
 10
121.9999999999995
 20
-7.999999999999981
 30
0.0
 11
121.9999999999988
 21
-7.591526953855174
 31
0.0
  0
SPLINE
  5
BA
330
1F
100
AcDbEntity
  8
0
  6
Continuous
 62
     1
370
    15
100
AcDbSpline
210
0.0
220
0.0
230
1.0
 70
     8
 71
     3
 72
    32
 73
    28
 74
     0
 42
0.000000001
 43
0.00000001
 40
0.0
 40
0.0
 40
0.0
 40
0.0
 40
0.0005025416829391
 40
0.0425446083312494
 40
0.0842969205635793
 40
0.1263391058690218
 40
0.1680913763207526
 40
0.2101330911749619
 40
0.2518837386313695
 40
0.2939238175648444
 40
0.3356742404847119
 40
0.3777146969780784
 40
0.4194650398690075
 40
0.4615048789863135
 40
0.5032393481758015
 40
0.5452628081066262
 40
0.586996859980685
 40
0.6290208318316806
 40
0.6707547353979825
 40
0.7127779155300945
 40
0.7545118002448672
 40
0.7965346760937698
 40
0.838268634069448
 40
0.8802920750402835
 40
0.922025996345917
 40
0.9640493485096857
 40
1.0
 40
1.0
 40
1.0
 40
1.0
 10
23.92615853453
 20
5.363722460172655
 30
0.0
 10
23.93539160715578
 20
5.367949736748015
 30
0.0
 10
24.717053053148
 20
5.725826172300072
 30
0.0
 10
26.26575538497265
 20
6.303993267214541
 30
0.0
 10
28.57739251494835
 20
7.055377467816347
 30
0.0
 10
30.88365132489995
 20
7.593047025173551
 30
0.0
 10
33.19517673011394
 20
7.925750349834078
 30
0.0
 10
35.50146830100604
 20
8.037057666316075
 30
0.0
 10
37.81319811980817
 20
7.92601863279649
 30
0.0
 10
40.11985252143975
 20
7.596044968668358
 30
0.0
 10
42.43147940744668
 20
7.054629937923832
 30
0.0
 10
44.73768586921998
 20
6.319051094360624
 30
0.0
 10
47.04909963360154
 20
5.406425428824759
 30
0.0
 10
49.35497129188195
 20
4.346361398319116
 30
0.0
 10
51.66592213933905
 20
3.163688751047934
 30
0.0
 10
53.97157249770375
 20
1.89681352254607
 30
0.0
 10
56.2825101076165
 20
0.5745826621474257
 30
0.0
 10
58.58786427594244
 20
-0.7610952162902875
 30
0.0
 10
60.89840091953051
 20
-2.078828393226462
 30
0.0
 10
63.20361845970395
 20
-3.336152561228256
 30
0.0
 10
65.51417840004113
 20
-4.503667216276604
 30
0.0
 10
67.81958867278809
 20
-5.543942592555617
 30
0.0
 10
70.13063211358461
 20
-6.432161123130764
 30
0.0
 10
72.43609230018215
 20
-7.142567396453846
 30
0.0
 10
74.74668262808214
 20
-7.650876873879608
 30
0.0
 10
76.94566569063834
 20
-7.953700041477068
 30
0.0
 10
78.3780194669534
 20
-7.976394521451199
 30
0.0
 10
79.0384197158823
 20
-7.986858025979238
 30
0.0
  0
SPLINE
  5
BB
330
1F
100
AcDbEntity
  8
0
  6
Continuous
 62
     1
370
    15
100
AcDbSpline
210
0.0
220
0.0
230
1.0
 70
     8
 71
     3
 72
    13
 73
     9
 74
     0
 42
0.000000001
 43
0.00000001
 40
0.0
 40
0.0
 40
0.0
 40
0.0
 40
0.0592319985553828
 40
0.2701349118116301
 40
0.4502500805052283
 40
0.6312883528045431
 40
0.8151545678948916
 40
1.0
 40
1.0
 40
1.0
 40
1.0
 10
111.0190955974206
 20
5.363453138663054
 30
0.0
 10
111.235901805847
 20
5.460375284416402
 30
0.0
 10
112.2246735410897
 20
5.902400810048365
 30
0.0
 10
113.8728671733812
 20
6.495717593058596
 30
0.0
 10
115.9671848197209
 20
7.134749212660487
 30
0.0
 10
117.9616977190093
 20
7.585712919927479
 30
0.0
 10
119.9735700972635
 20
7.895853788733268
 30
0.0
 10
121.3233284786538
 20
7.960719521097844
 30
0.0
 10
121.9999999999994
 20
8.000000000000018
 30
0.0
  0
SPLINE
  5
BC
330
1F
100
AcDbEntity
  8
0
  6
Continuous
 62
     1
370
    15
100
AcDbSpline
210
0.0
220
0.0
230
1.0
 70
    24
 71
     3
 72
    10
 73
     6
 74
     0
 42
0.000000001
 43
0.00000001
 40
0.0
 40
0.0
 40
0.0
 40
0.0
 40
0.5
 40
0.5
 40
1.0
 40
1.0
 40
1.0
 40
1.0
 10
122.0
 20
5.600000000000018
 30
0.0
 10
122.0
 20
5.939458054458528
 30
0.0
 10
122.0
 20
6.333939750936961
 30
0.0
 10
122.0
 20
7.161561287686871
 30
0.0
 10
122.0
 20
7.592587486411811
 30
0.0
 10
121.9999999999994
 20
8.000000000000018
 30
0.0
  0
LINE
  5
BD
330
1F
100
AcDbEntity
  8
0
  6
Continuous
 62
     1
370
    15
100
AcDbLine
 10
122.0
 20
5.600000000000018
 30
0.0
 11
119.0227495660805
 21
5.447424876151218
 31
0.0
  0
SPLINE
  5
BE
330
1F
100
AcDbEntity
  8
0
  6
Continuous
 62
     1
370
    15
100
AcDbSpline
210
0.0
220
0.0
230
1.0
 70
     8
 71
     3
 72
    16
 73
    12
 74
     0
 42
0.000000001
 43
0.00000001
 40
0.0
 40
0.0
 40
0.0
 40
0.0
 40
0.0066031500749651
 40
0.1393088333556934
 40
0.2719326310990474
 40
0.4045250364678514
 40
0.5372256608478462
 40
0.6698943323166028
 40
0.8024605090114872
 40
0.9351385656064523
 40
0.9999999999999999
 40
0.9999999999999999
 40
0.9999999999999999
 40
0.9999999999999999
 10
58.58618732270632
 20
-0.7566312299381468
 30
0.0
 10
58.52756587047072
 20
-0.7337644699852726
 30
0.0
 10
57.29080977257154
 20
-0.2513368989783472
 30
0.0
 10
54.87639310947165
 20
0.7490820576683623
 30
0.0
 10
51.34383078369696
 20
2.13373849946425
 30
0.0
 10
47.81145049977982
 20
3.389548573140464
 30
0.0
 10
44.27816143433363
 20
4.421688207024412
 30
0.0
 10
40.74522735688041
 20
5.173997598316519
 30
0.0
 10
37.21304154467271
 20
5.573142929190238
 30
0.0
 10
34.28224699804644
 20
5.66326599494199
 30
0.0
 10
32.52846249532968
 20
5.484817727423156
 30
0.0
 10
31.95261319099995
 20
5.42622483271438
 30
0.0
  0
SPLINE
  5
BF
330
1F
100
AcDbEntity
  8
0
  6
Continuous
 62
     1
370
    15
100
AcDbSpline
210
0.0
220
0.0
230
1.0
 70
     8
 71
     3
 72
    16
 73
    12
 74
     0
 42
0.000000001
 43
0.00000001
 40
0.0
 40
0.0
 40
0.0
 40
0.0
 40
0.0486595942230038
 40
0.1813661551910548
 40
0.3141516705150189
 40
0.4469908327312508
 40
0.5797408224979244
 40
0.7124744918937495
 40
0.8453111220465889
 40
0.9781085446086921
 40
0.9999999999999999
 40
0.9999999999999999
 40
0.9999999999999999
 40
0.9999999999999999
 10
102.0966269475346
 20
-0.7439474598927566
 30
0.0
 10
101.6650506767845
 20
-0.5730188971388731
 30
0.0
 10
100.0564608365382
 20
0.0640734735235445
 30
0.0
 10
97.27063708549638
 20
1.204408234728269
 30
0.0
 10
93.7378295381334
 20
2.557509598202633
 30
0.0
 10
90.20444266389771
 20
3.749326310013318
 30
0.0
 10
86.67190890011726
 20
4.696096175227418
 30
0.0
 10
83.13948554969288
 20
5.348048815666055
 30
0.0
 10
79.60616498126014
 20
5.621619832228079
 30
0.0
 10
77.05604857588472
 20
5.643767230467402
 30
0.0
 10
75.68422582923375
 20
5.471426656757256
 30
0.0
 10
75.4900864905792
 20
5.44703714646147
 30
0.0
  0
LINE
  5
C0
330
1F
100
AcDbEntity
  8
0
  6
Continuous
 62
     1
370
    15
100
AcDbLine
 10
15.06716616528787
 20
-0.7611494499085341
 30
0.0
 11
11.99999999999999
 21
0.4732283939071254
 31
0.0
  0
SPLINE
  5
C1
330
1F
100
AcDbEntity
  8
0
  6
Continuous
 62
   131
370
    15
100
AcDbSpline
210
0.0
220
0.0
230
1.0
 70
    24
 71
     3
 72
     9
 73
     5
 74
     0
 42
0.000000001
 43
0.00000001
 40
0.0
 40
0.0
 40
0.0
 40
0.0
 40
0.520701525476807
 40
1.0
 40
1.0
 40
1.0
 40
1.0
 10
11.99999999999999
 20
0.8657539709866386
 30
0.0
 10
11.99999999999999
 20
0.8262477965739561
 30
0.0
 10
11.99999999999999
 20
0.7503767409312695
 30
0.0
 10
11.99999999999999
 20
0.5630255391303788
 30
0.0
 10
11.99999999999999
 20
0.4732283939071247
 30
0.0
  0
SPLINE
  5
C2
330
1F
100
AcDbEntity
  8
0
  6
Continuous
 62
     1
370
    15
100
AcDbSpline
210
0.0
220
0.0
230
1.0
 70
     8
 71
     3
 72
     8
 73
     4
 74
     0
 42
0.000000001
 43
0.00000001
 40
0.0
 40
0.0
 40
0.0
 40
0.0
 40
1.0
 40
1.0
 40
1.0
 40
1.0
 10
117.0501596178293
 20
2.23756061429533
 30
0.0
 10
117.0333416760366
 20
2.257479982395207
 30
0.0
 10
117.0166213647696
 20
2.277367021151286
 30
0.0
 10
117.0000000000091
 20
2.297221294790008
 30
0.0
  0
LINE
  5
C3
330
1F
100
AcDbEntity
  8
0
  6
Continuous
 62
     1
370
    15
100
AcDbLine
 10
117.0
 20
2.937719435296609
 30
0.0
 11
122.0
 21
0.0000000000000184
 31
0.0
  0
LINE
  5
C4
330
1F
100
AcDbEntity
  8
0
  6
Continuous
 62
     1
370
    15
100
AcDbLine
 10
122.0
 20
0.0000000000000184
 30
0.0
 11
122.0
 21
-2.13794356823714
 31
0.0
  0
SPLINE
  5
C5
330
1F
100
AcDbEntity
  8
0
  6
Continuous
 62
     1
370
    15
100
AcDbSpline
210
0.0
220
0.0
230
1.0
 70
     8
 71
     3
 72
    12
 73
     8
 74
     0
 42
0.000000001
 43
0.00000001
 40
0.0
 40
0.0
 40
0.0
 40
0.0
 40
0.5
 40
0.5
 40
0.75
 40
0.75
 40
1.0
 40
1.0
 40
1.0
 40
1.0
 10
122.0
 20
-2.13794356823714
 30
0.0
 10
121.1431630450205
 20
-1.464327440547028
 30
0.0
 10
120.3006401780259
 20
-0.7630972272420606
 30
0.0
 10
119.0588911009199
 20
0.3312574405526981
 30
0.0
 10
118.6487003601985
 20
0.7032296227278083
 30
0.0
 10
117.8367033635225
 20
1.463348952638304
 30
0.0
 10
117.4370964286976
 20
1.849539909834243
 30
0.0
 10
117.0501596178352
 20
2.237560614289384
 30
0.0
  0
SPLINE
  5
C6
330
1F
100
AcDbEntity
  8
0
  6
Continuous
 62
     1
370
    15
100
AcDbSpline
210
0.0
220
0.0
230
1.0
 70
     8
 71
     3
 72
    12
 73
     8
 74
     0
 42
0.000000001
 43
0.00000001
 40
0.0
 40
0.0
 40
0.0
 40
0.0
 40
0.2107354293986429
 40
0.4216970308541276
 40
0.6324565551617773
 40
0.8433667279978533
 40
1.0
 40
1.0
 40
1.0
 40
1.0
 10
117.0501596178375
 20
2.237560614291778
 30
0.0
 10
115.7558359863736
 20
2.780721477852858
 30
0.0
 10
113.1657995890281
 20
3.867626153034858
 30
0.0
 10
109.2801448850759
 20
5.151220331446106
 30
0.0
 10
105.3946901953809
 20
6.030307773595935
 30
0.0
 10
101.8420037182072
 20
6.456090053975136
 30
0.0
 10
99.58431174918167
 20
6.352862631749249
 30
0.0
 10
98.62216785776474
 20
6.308870964558164
 30
0.0
  0
SPLINE
  5
C7
330
1F
100
AcDbEntity
  8
0
  6
Continuous
 62
     1
370
    15
100
AcDbSpline
210
0.0
220
0.0
230
1.0
 70
     8
 71
     3
 72
    21
 73
    17
 74
     0
 42
0.000000001
 43
0.00000001
 40
0.0
 40
0.0
 40
0.0
 40
0.0
 40
0.063013466531756
 40
0.1343702876628073
 40
0.2056842237038575
 40
0.2769817193997425
 40
0.3483358911957224
 40
0.419673328483144
 40
0.4909570875708206
 40
0.563695653340857
 40
0.6364378564515674
 40
0.7091140794139411
 40
0.7818477806398206
 40
0.8545934814271152
 40
0.9272718932840361
 40
1.0
 40
1.0
 40
1.0
 40
1.0
 10
61.53143425228217
 20
-5.994940684648987
 30
0.0
 10
60.4910830012786
 20
-6.137813563379432
 30
0.0
 10
58.27263185802554
 20
-6.442476532596469
 30
0.0
 10
54.87637036895671
 20
-6.407414811689175
 30
0.0
 10
51.34381025113729
 20
-5.993546650614823
 30
0.0
 10
47.81149539832798
 20
-5.181898678325296
 30
0.0
 10
44.27814672253599
 20
-4.038580205634785
 30
0.0
 10
40.74517411975592
 20
-2.633482173287899
 30
0.0
 10
37.19005584955151
 20
-1.046698053369705
 30
0.0
 10
33.61086314786897
 20
0.6188182603003118
 30
0.0
 10
30.00865735432298
 20
2.253524454690444
 30
0.0
 10
26.40737130043463
 20
3.737820012213748
 30
0.0
 10
22.80528986595676
 20
4.971740821795107
 30
0.0
 10
19.20301901353629
 20
5.863533829945242
 30
0.0
 10
15.60171874507667
 20
6.392689803012212
 30
0.0
 10
13.20084642640277
 20
6.382302794464299
 30
0.0
 10
11.99999999999999
 20
6.377107515232345
 30
0.0
  0
SPLINE
  5
C8
330
1F
100
AcDbEntity
  8
0
  6
Continuous
 62
     1
370
    15
100
AcDbSpline
210
0.0
220
0.0
230
1.0
 70
    24
 71
     3
 72
    10
 73
     6
 74
     0
 42
0.000000001
 43
0.00000001
 40
0.0
 40
0.0
 40
0.0
 40
0.0
 40
0.5000000000000001
 40
0.5000000000000001
 40
1.0
 40
1.0
 40
1.0
 40
1.0
 10
122.0
 20
-6.311778114945709
 30
0.0
 10
122.0
 20
-5.827931112030421
 30
0.0
 10
122.0
 20
-5.216571871251731
 30
0.0
 10
122.0
 20
-3.795220473205423
 30
0.0
 10
122.0
 20
-2.986459544410461
 30
0.0
 10
122.0
 20
-2.137943568237397
 30
0.0
  0
SPLINE
  5
C9
330
1F
100
AcDbEntity
  8
0
  6
Continuous
 62
   131
370
    15
100
AcDbSpline
210
0.0
220
0.0
230
1.0
 70
    24
 71
     3
 72
    14
 73
    10
 74
     0
 42
0.000000001
 43
0.00000001
 40
0.0
 40
0.0
 40
0.0
 40
0.0
 40
0.25
 40
0.25
 40
0.5
 40
0.5
 40
0.75
 40
0.75
 40
1.0
 40
1.0
 40
1.0
 40
1.0
 10
11.99999999999999
 20
6.377107515232345
 30
0.0
 10
11.99999999999999
 20
6.357843146281922
 30
0.0
 10
11.99999999999999
 20
6.272545226161113
 30
0.0
 10
11.99999999999999
 20
5.961549385166152
 30
0.0
 10
11.99999999999999
 20
5.735783900238369
 30
0.0
 10
11.99999999999999
 20
5.155064949163374
 30
0.0
 10
11.99999999999999
 20
4.800279177020869
 30
0.0
 10
11.99999999999999
 20
3.991369323408161
 30
0.0
 10
11.99999999999999
 20
3.537569756181998
 30
0.0
 10
11.99999999999999
 20
3.054437256563677
 30
0.0
  0
SPLINE
  5
CA
330
1F
100
AcDbEntity
  8
0
  6
Continuous
 62
     1
370
    15
100
AcDbSpline
210
0.0
220
0.0
230
1.0
 70
     8
 71
     3
 72
    21
 73
    17
 74
     0
 42
0.000000001
 43
0.00000001
 40
0.0
 40
0.0
 40
0.0
 40
0.0
 40
0.0710824365149289
 40
0.1488486218314899
 40
0.2265896547662488
 40
0.2973281402170205
 40
0.3680203756005214
 40
0.4387041465074592
 40
0.5094413187340456
 40
0.5801581555635582
 40
0.6508252339901663
 40
0.7215520007876138
 40
0.7922843891835403
 40
0.862956082097236
 40
0.9336633729274807
 40
1.0
 40
1.0
 40
1.0
 40
1.0
 10
105.0606567156987
 20
-5.996737267113933
 30
0.0
 10
103.8766474337811
 20
-6.15283184871917
 30
0.0
 10
101.3972986875952
 20
-6.479698294024862
 30
0.0
 10
97.62312007753569
 20
-6.362707853515884
 30
0.0
 10
93.85492884509219
 20
-5.803684821476762
 30
0.0
 10
90.20440930260997
 20
-4.847414629178908
 30
0.0
 10
86.67189838504646
 20
-3.610498682792801
 30
0.0
 10
83.13953014294076
 20
-2.139124671371798
 30
0.0
 10
79.60614225702393
 20
-0.5306820086153651
 30
0.0
 10
76.07322950204461
 20
1.112346969284551
 30
0.0
 10
72.5411191947528
 20
2.684822026161874
 30
0.0
 10
69.00801373615413
 20
4.081663538636543
 30
0.0
 10
65.47477478001488
 20
5.217261923988046
 30
0.0
 10
61.94259962883551
 20
6.007117161566138
 30
0.0
 10
58.48314560870758
 20
6.433241690933675
 30
0.0
 10
56.20058832545276
 20
6.373713703679264
 30
0.0
 10
55.09570783467186
 20
6.344898956178572
 30
0.0
  0
SPLINE
  5
CB
330
1F
100
AcDbEntity
  8
0
  6
Continuous
 62
     1
370
    15
100
AcDbSpline
210
0.0
220
0.0
230
1.0
 70
     8
 71
     3
 72
     9
 73
     5
 74
     0
 42
0.000000001
 43
0.00000001
 40
0.0
 40
0.0
 40
0.0
 40
0.0
 40
0.4006205648172858
 40
1.0
 40
1.0
 40
1.0
 40
1.0
 10
18.01003318338957
 20
-5.96841271420483
 30
0.0
 10
17.20751037512752
 20
-6.098467497101534
 30
0.0
 10
15.20431114188778
 20
-6.423100814305354
 30
0.0
 10
13.20083962574832
 20
-6.394343848909108
 30
0.0
 10
11.99999999999999
 20
-6.377107515232336
 30
0.0
  0
SPLINE
  5
CC
330
1F
100
AcDbEntity
  8
0
  6
Continuous
 62
     1
370
    15
100
AcDbSpline
210
0.0
220
0.0
230
1.0
 70
    24
 71
     3
 72
     8
 73
     4
 74
     0
 42
0.000000001
 43
0.00000001
 40
0.0
 40
0.0
 40
0.0
 40
0.0
 40
1.0
 40
1.0
 40
1.0
 40
1.0
 10
117.0
 20
2.297221294783946
 30
0.0
 10
117.0
 20
2.873887513822072
 30
0.0
 10
117.0
 20
3.40418285490296
 30
0.0
 10
117.0
 20
3.849725336690635
 30
0.0
  0
SPLINE
  5
CD
330
1F
100
AcDbEntity
  8
0
  6
Continuous
 62
     1
370
    15
100
AcDbSpline
210
0.0
220
0.0
230
1.0
 70
     8
 71
     3
 72
    10
 73
     6
 74
     0
 42
0.000000001
 43
0.00000001
 40
0.0
 40
0.0
 40
0.0
 40
0.0
 40
0.5
 40
0.5
 40
1.0
 40
1.0
 40
1.0
 40
1.0
 10
122.0
 20
5.600000000000018
 30
0.0
 10
121.1545154810572
 20
5.370725705910431
 30
0.0
 10
120.3142708767344
 20
5.112464311961347
 30
0.0
 10
118.6452159193448
 20
4.532874482727863
 30
0.0
 10
117.8177238566893
 20
4.21251697254367
 30
0.0
 10
117.0
 20
3.849725336688074
 30
0.0
  0
SPLINE
  5
CE
330
1F
100
AcDbEntity
  8
0
  6
Continuous
 62
   131
370
    15
100
AcDbSpline
210
0.0
220
0.0
230
1.0
 70
    24
 71
     3
 72
    14
 73
    10
 74
     0
 42
0.000000001
 43
0.00000001
 40
0.0
 40
0.0
 40
0.0
 40
0.0
 40
0.2500000000000001
 40
0.2500000000000001
 40
0.5000000000000002
 40
0.5000000000000002
 40
0.7500000000000001
 40
0.7500000000000001
 40
1.0
 40
1.0
 40
1.0
 40
1.0
 10
11.99999999999999
 20
0.4732283939071255
 30
0.0
 10
11.99999999999999
 20
-0.2294744284984212
 30
0.0
 10
11.99999999999999
 20
-0.9434874840089335
 30
0.0
 10
11.99999999999999
 20
-2.32528295206851
 30
0.0
 10
11.99999999999999
 20
-2.992303722325805
 30
0.0
 10
11.99999999999999
 20
-4.209805916168607
 30
0.0
 10
11.99999999999999
 20
-4.759638603683631
 30
0.0
 10
11.99999999999999
 20
-5.694909612268362
 30
0.0
 10
11.99999999999999
 20
-6.080213458742977
 30
0.0
 10
11.99999999999999
 20
-6.37710751523233
 30
0.0
  0
LINE
  5
CF
330
1F
100
AcDbEntity
  8
0
  6
Continuous
 62
     1
370
    15
100
AcDbLine
 10
122.0
 20
0.0000000000000184
 30
0.0
 11
122.0
 21
5.600000000000019
 31
0.0
  0
SPLINE
  5
D0
330
1F
100
AcDbEntity
  8
0
  6
Continuous
 62
   131
370
    15
100
AcDbSpline
210
0.0
220
0.0
230
1.0
 70
     8
 71
     3
 72
    10
 73
     6
 74
     0
 42
0.000000001
 43
0.00000001
 40
0.0
 40
0.0
 40
0.0
 40
0.0
 40
0.5
 40
0.5
 40
1.0
 40
1.0
 40
1.0
 40
1.0
 10
11.99999999999999
 20
3.156127619261893
 30
0.0
 10
11.490629859389
 20
3.425950059531332
 30
0.0
 10
10.9806953460196
 20
3.689471884451557
 30
0.0
 10
9.96891037964365
 20
4.199243022615832
 30
0.0
 10
9.459336692384706
 20
4.44678948218593
 30
0.0
 10
8.949935676095874
 20
4.684818305887711
 30
0.0
  0
SPLINE
  5
D1
330
1F
100
AcDbEntity
  8
0
  6
Continuous
 62
   131
370
    15
100
AcDbSpline
210
0.0
220
0.0
230
1.0
 70
     8
 71
     3
 72
    10
 73
     6
 74
     0
 42
0.000000001
 43
0.00000001
 40
0.0
 40
0.0
 40
0.0
 40
0.0
 40
0.5
 40
0.5
 40
1.0
 40
1.0
 40
1.0
 40
1.0
 10
8.949968591938385
 20
2.711613938181827
 30
0.0
 10
9.459364140671035
 20
2.435353868481057
 30
0.0
 10
9.9689320855788
 20
2.153570895272125
 30
0.0
 10
10.98070632921912
 20
1.583845595124133
 30
0.0
 10
11.49063534503014
 20
1.294455330102214
 30
0.0
 10
11.99999999999999
 20
1.003136253102269
 30
0.0
  0
LINE
  5
D2
330
1F
100
AcDbEntity
  8
0
  6
Continuous
 62
   131
370
    15
100
AcDbLine
 10
8.949968591938381
 20
4.685096221362887
 30
0.0
 11
8.94996859193837
 21
8.000000000000004
 31
0.0
  0
LINE
  5
D3
330
1F
100
AcDbEntity
  8
0
  6
Continuous
 62
   131
370
    15
100
AcDbLine
 10
-77.0
 20
7.999999999999997
 30
0.0
 11
-77.0
 21
-7.999999999999999
 31
0.0
  0
LINE
  5
D4
330
1F
100
AcDbEntity
  8
0
  6
Continuous
 62
   131
370
    15
100
AcDbLine
 10
8.949968591938374
 20
-7.999999999999996
 30
0.0
 11
8.949968591938385
 21
2.711613125853085
 31
0.0
  0
LINE
  5
D5
330
1F
100
AcDbEntity
  8
0
  6
Continuous
 62
   131
370
    15
100
AcDbLine
 10
-78.0
 20
6.999999999999994
 30
0.0
 11
-78.0
 21
-6.999999999999997
 31
0.0
  0
SPLINE
  5
D6
330
1F
100
AcDbEntity
  8
0
  6
Continuous
 62
   131
370
    15
100
AcDbSpline
210
0.0
220
0.0
230
1.0
 70
    24
 71
     3
 72
     9
 73
     5
 74
     0
 42
0.000000001
 43
0.00000001
 40
0.0
 40
0.0
 40
0.0
 40
0.0
 40
0.5207015254768148
 40
1.0
 40
1.0
 40
1.0
 40
1.0
 10
11.99999999999999
 20
0.8657539709866385
 30
0.0
 10
11.99999999999999
 20
0.8262477965739551
 30
0.0
 10
11.99999999999999
 20
0.7503767409312683
 30
0.0
 10
11.99999999999999
 20
0.5630255391303771
 30
0.0
 10
11.99999999999999
 20
0.4732283939071247
 30
0.0
  0
SPLINE
  5
D7
330
1F
100
AcDbEntity
  8
0
  6
Continuous
 62
   131
370
    15
100
AcDbSpline
210
0.0
220
0.0
230
1.0
 70
     8
 71
     3
 72
    10
 73
     6
 74
     0
 42
0.000000001
 43
0.00000001
 40
0.0
 40
0.0
 40
0.0
 40
0.0
 40
0.5000000000000001
 40
0.5000000000000001
 40
1.0
 40
1.0
 40
1.0
 40
1.0
 10
11.99999999999999
 20
0.4732283939071255
 30
0.0
 10
11.49063402363701
 20
0.6780393685317806
 30
0.0
 10
10.98070368356223
 20
0.8819645876926218
 30
0.0
 10
9.968926857005572
 20
1.284374448996231
 30
0.0
 10
9.45935752886864
 20
1.483881659077465
 30
0.0
 10
8.94996066309878
 20
1.679964611982487
 30
0.0
  0
LINE
  5
D8
330
1F
100
AcDbEntity
  8
0
  6
Continuous
 62
   131
370
    15
100
AcDbLine
 10
11.99999999999999
 20
6.377107515232345
 30
0.0
 11
11.42040941510544
 21
6.325442125992369
 31
0.0
  0
SPLINE
  5
D9
330
1F
100
AcDbEntity
  8
0
  6
Continuous
 62
   131
370
    15
100
AcDbSpline
210
0.0
220
0.0
230
1.0
 70
    24
 71
     3
 72
    14
 73
    10
 74
     0
 42
0.000000001
 43
0.00000001
 40
0.0
 40
0.0
 40
0.0
 40
0.0
 40
0.25
 40
0.25
 40
0.5
 40
0.5
 40
0.75
 40
0.75
 40
1.0
 40
1.0
 40
1.0
 40
1.0
 10
11.99999999999999
 20
6.377107515232345
 30
0.0
 10
11.99999999999999
 20
6.357843146281922
 30
0.0
 10
11.99999999999999
 20
6.272545226161113
 30
0.0
 10
11.99999999999999
 20
5.961549385166152
 30
0.0
 10
11.99999999999999
 20
5.735783900238369
 30
0.0
 10
11.99999999999999
 20
5.155064949163374
 30
0.0
 10
11.99999999999999
 20
4.800279177020869
 30
0.0
 10
11.99999999999999
 20
3.991369323408161
 30
0.0
 10
11.99999999999999
 20
3.537569756181998
 30
0.0
 10
11.99999999999999
 20
3.054437256563677
 30
0.0
  0
SPLINE
  5
DA
330
1F
100
AcDbEntity
  8
0
  6
Continuous
 62
   131
370
    15
100
AcDbSpline
210
0.0
220
0.0
230
1.0
 70
     8
 71
     3
 72
    10
 73
     6
 74
     0
 42
0.000000001
 43
0.00000001
 40
0.0
 40
0.0
 40
0.0
 40
0.0
 40
0.5
 40
0.5
 40
1.0
 40
1.0
 40
1.0
 40
1.0
 10
11.99999999999999
 20
-6.377107515232336
 30
0.0
 10
11.49063334222422
 20
-6.357256407115616
 30
0.0
 10
10.98070231925632
 20
-6.324472144702884
 30
0.0
 10
9.968924160747786
 20
-6.233805037588824
 30
0.0
 10
9.459354119310408
 20
-6.175696126315257
 30
0.0
 10
8.949956574374104
 20
-6.105223042139206
 30
0.0
  0
SPLINE
  5
DB
330
1F
100
AcDbEntity
  8
0
  6
Continuous
 62
   131
370
    15
100
AcDbSpline
210
0.0
220
0.0
230
1.0
 70
    24
 71
     3
 72
    14
 73
    10
 74
     0
 42
0.000000001
 43
0.00000001
 40
0.0
 40
0.0
 40
0.0
 40
0.0
 40
0.2500000000000001
 40
0.2500000000000001
 40
0.5000000000000002
 40
0.5000000000000002
 40
0.7500000000000001
 40
0.7500000000000001
 40
1.0
 40
1.0
 40
1.0
 40
1.0
 10
11.99999999999999
 20
0.4732283939071255
 30
0.0
 10
11.99999999999999
 20
-0.2294744284984212
 30
0.0
 10
11.99999999999999
 20
-0.9434874840089335
 30
0.0
 10
11.99999999999999
 20
-2.32528295206851
 30
0.0
 10
11.99999999999999
 20
-2.992303722325805
 30
0.0
 10
11.99999999999999
 20
-4.209805916168607
 30
0.0
 10
11.99999999999999
 20
-4.759638603683631
 30
0.0
 10
11.99999999999999
 20
-5.694909612268362
 30
0.0
 10
11.99999999999999
 20
-6.080213458742977
 30
0.0
 10
11.99999999999999
 20
-6.37710751523233
 30
0.0
  0
LINE
  5
DC
330
1F
100
AcDbEntity
  8
중심선
100
AcDbLine
 10
-81.0
 20
-0.0000000000000004
 30
0.0
 11
129.0
 21
0.0000000000000191
 31
0.0
  0
CIRCLE
  5
DD
330
1F
100
AcDbEntity
  8
외형선
100
AcDbCircle
 10
0.0000000000000104
 20
0.0
 30
0.0
 40
3.000000000000005
  0
INSERT
  5
DE
330
1F
100
AcDbEntity
  8
0
  6
Continuous
 62
     7
100
AcDbBlockReference
 66
     1
  2
블럭10
 10
-22.93944368806589
 20
-52.04609937292004
 30
0.0
  0
ATTRIB
  5
DF
330
DE
100
AcDbEntity
  8
FORMAT
 62
     2
100
AcDbText
 10
-40.63836564979034
 20
-49.97073246008785
 30
0.0
 40
4.233333333333333
  1
SEME70160110E [ 2 FLUTE ]
 41
0.75
  7
SLDTEXTSTYLE0
 11
-40.63836564979034
 21
-52.08739912675452
 31
0.0
100
AcDbAttribute
  2
AUTOATTR0
 70
     0
 74
     1
  0
SEQEND
  5
E0
330
DE
100
AcDbEntity
  8
0
  6
Continuous
 62
     7
  0
HATCH
  5
E1
330
1F
100
AcDbEntity
  8
중심선
100
AcDbHatch
 10
0.0
 20
0.0
 30
0.0
210
0.0
220
0.0
230
1.0
  2
SOLID
 70
     1
 71
     0
 91
        1
 92
        0
 93
        4
 72
     1
 10
-17.22453438368504
 20
-35.7989250712761
 11
-20.67080962752232
 21
-35.7989250712761
 72
     1
 10
-20.67080962752232
 20
-35.7989250712761
 11
-22.79903948672635
 21
-38.3352506518487
 72
     1
 10
-22.79903948672635
 20
-38.3352506518487
 11
-19.35273115777591
 21
-38.33521122254621
 72
     1
 10
-19.35273115777591
 20
-38.33521122254621
 11
-17.22453438368504
 21
-35.7989250712761
 97
        0
 75
     0
 76
     1
 98
        1
 10
0.0
 20
0.0
  0
HATCH
  5
E2
330
1F
100
AcDbEntity
  8
중심선
100
AcDbHatch
 10
0.0
 20
0.0
 30
0.0
210
0.0
220
0.0
230
1.0
  2
SOLID
 70
     1
 71
     0
 91
        1
 92
        0
 93
        4
 72
     1
 10
-12.21177039264909
 20
-35.7989250712761
 11
-15.65804563648637
 21
-35.7989250712761
 72
     1
 10
-15.65804563648637
 20
-35.7989250712761
 11
-20.18918364484376
 21
-41.19892507127612
 72
     1
 10
-20.18918364484376
 20
-41.19892507127612
 11
-16.74290840100648
 21
-41.19892507127612
 72
     1
 10
-16.74290840100648
 20
-41.19892507127612
 11
-12.21177039264909
 21
-35.7989250712761
 97
        0
 75
     0
 76
     1
 98
        1
 10
0.0
 20
0.0
  0
HATCH
  5
E3
330
1F
100
AcDbEntity
  8
중심선
100
AcDbHatch
 10
0.0
 20
0.0
 30
0.0
210
0.0
220
0.0
230
1.0
  2
SOLID
 70
     1
 71
     0
 91
        1
 92
        0
 93
        4
 72
     1
 10
-7.199006401613195
 20
-35.79892507127613
 11
-10.64528164545031
 21
-35.7989250712761
 72
     1
 10
-10.64528164545031
 20
-35.7989250712761
 11
-17.69371854733956
 21
-44.19892507127612
 72
     1
 10
-17.69371854733956
 20
-44.19892507127612
 11
-14.24744330350228
 21
-44.19892507127612
 72
     1
 10
-14.24744330350228
 20
-44.19892507127612
 11
-7.199006401613195
 21
-35.79892507127613
 97
        0
 75
     0
 76
     1
 98
        1
 10
0.0
 20
0.0
  0
HATCH
  5
E4
330
1F
100
AcDbEntity
  8
중심선
100
AcDbHatch
 10
0.0
 20
0.0
 30
0.0
210
0.0
220
0.0
230
1.0
  2
SOLID
 70
     1
 71
     0
 91
        1
 92
        0
 93
        6
 72
     3
 10
-2.399115970600996
 20
-39.99892507132738
 11
3.960054785062284
 21
1.540850780301639E-10
 40
0.3939339440162633
 50
17.09539180608433
 51
320.0019657685079
 73
     0
 72
     1
 10
-0.7161163149004002
 20
-38.58681907591441
 11
1.589185558800638
 21
-36.65249236586649
 72
     3
 10
-2.399115970653842
 20
-39.99892507127625
 11
6.600054785286829
 21
-1.249000902703301E-13
 40
0.6363583540795982
 50
39.99873849337408
 51
368.4976242363725
 73
     1
 72
     1
 10
4.026216521246767
 20
-39.03892507120613
 11
-3.71904866381792
 21
-39.0389250712061
 72
     1
 10
-3.71904866381792
 20
-39.0389250712061
 11
-3.719073708263854
 21
-40.95892507120602
 72
     1
 10
-3.719073708263854
 20
-40.95892507120602
 11
0.7223060612081831
 21
-40.95892507120599
 97
        0
 75
     0
 76
     1
 98
        1
 10
0.0
 20
0.0
  0
DIMENSION
  5
E5
330
1F
100
AcDbEntity
  8
치수문자_일반주서
100
AcDbDimension
  2
_D
 10
137.3439670605763
 20
8.000000000000073
 30
0.0
 11
137.3439670605763
 21
18.54150000000007
 31
0.0
 70
   160
  1
%%c<>
 71
     2
 42
16.0
 52
-270.0
  3
SLDDIMSTYLE0
100
AcDbAlignedDimension
 13
121.9999999999995
 23
-7.999999999999981
 33
0.0
 14
121.9999999999994
 24
8.000000000000018
 34
0.0
 50
90.0000000000002
100
AcDbRotatedDimension
  0
DIMENSION
  5
F3
330
1F
100
AcDbEntity
  8
치수문자_일반주서
100
AcDbDimension
  2
_D_1
 10
121.9999999999994
 20
28.78841044024269
 30
0.0
 11
21.99999999999972
 21
28.78841044024269
 31
0.0
 70
   160
  1
<>
 71
     2
 42
199.9999999999994
  3
SLDDIMSTYLE1
100
AcDbAlignedDimension
 13
-78.0
 23
6.999999999999994
 33
0.0
 14
121.9999999999994
 24
8.000000000000018
 34
0.0
 50
-0.0000000000000041
100
AcDbRotatedDimension
  0
DIMENSION
  5
FE
330
1F
100
AcDbEntity
  8
치수문자_일반주서
100
AcDbDimension
  2
_D_2
 10
121.9999999999994
 20
19.72410532139988
 30
0.0
 11
67.0
 21
19.72410532139988
 31
0.0
 70
   160
  1
<>
 71
     2
 42
109.9999999999994
  3
SLDDIMSTYLE1
100
AcDbAlignedDimension
 13
11.99999999999999
 23
6.377107515232345
 33
0.0
 14
121.9999999999994
 24
8.000000000000018
 34
0.0
 50
0.000000000000013
100
AcDbRotatedDimension
  0
DIMENSION
  5
108
330
1F
100
AcDbEntity
  8
치수문자_일반주서
100
AcDbDimension
  2
_D_3
 10
-88.96602078586086
 20
-8.000000000000039
 30
0.0
 11
-88.96602078586096
 21
19.0534059449248
 31
0.0
 70
   160
  1
%%c<>
 71
     2
 42
15.99999999999999
 52
-270.0
  3
SLDDIMSTYLE0
100
AcDbAlignedDimension
 13
-77.0
 23
7.999999999999997
 33
0.0
 14
-77.0
 24
-7.999999999999996
 34
0.0
 50
90.0000000000002
100
AcDbRotatedDimension
  0
INSERT
  5
11B
330
1F
100
AcDbEntity
  8
외형선
100
AcDbBlockReference
  2
SW_DOWELSYMBOL_0
 10
0.0000000000000104
 20
0.0
 30
0.0
  0
ENDSEC
  0
SECTION
  2
OBJECTS
  0
DICTIONARY
  5
C
330
0
100
AcDbDictionary
281
     1
  3
ACAD_GROUP
350
D
  3
ACAD_IMAGE_VARS
350
13F
  3
ACAD_LAYOUT
350
1A
  3
ACAD_MLINESTYLE
350
17
  3
ACAD_PLOTSETTINGS
350
19
  3
ACAD_PLOTSTYLENAME
350
E
  3
ACAD_SCALELIST
350
47
  3
APPDATA
350
13D
  3
DWGPROPS
350
150
  0
DICTIONARY
  5
D
102
{ACAD_REACTORS
330
C
102
}
330
C
100
AcDbDictionary
281
     1
  0
RASTERVARIABLES
  5
13F
102
{ACAD_REACTORS
330
C
102
}
330
C
100
AcDbRasterVariables
 90
        0
 70
     1
 71
     1
 72
     1
  0
DICTIONARY
  5
1A
102
{ACAD_REACTORS
330
C
102
}
330
C
100
AcDbDictionary
281
     1
  3
Layout1
350
1E
  3
Layout2
350
26
  3
Model
350
22
  0
DICTIONARY
  5
17
102
{ACAD_REACTORS
330
C
102
}
330
C
100
AcDbDictionary
281
     1
  3
Standard
350
18
  0
DICTIONARY
  5
19
102
{ACAD_REACTORS
330
C
102
}
330
C
100
AcDbDictionary
281
     1
  0
ACDBDICTIONARYWDFLT
  5
E
102
{ACAD_REACTORS
330
C
102
}
330
C
100
AcDbDictionary
281
     1
  3
Normal
350
F
100
AcDbDictionaryWithDefault
340
F
  0
DICTIONARY
  5
47
102
{ACAD_REACTORS
330
C
102
}
330
C
100
AcDbDictionary
281
     1
  3
A0
350
48
  3
A1
350
49
  3
A2
350
4A
  3
A3
350
4B
  3
A4
350
4C
  3
A5
350
4D
  3
A6
350
4E
  3
A7
350
4F
  3
A8
350
50
  3
A9
350
51
  3
B0
350
52
  3
B1
350
53
  3
B2
350
54
  3
B3
350
55
  3
B4
350
56
  3
B5
350
57
  3
B6
350
58
  3
B7
350
59
  3
B8
350
5A
  3
B9
350
5B
  3
C0
350
5C
  3
C1
350
5D
  3
C2
350
5E
  3
C3
350
5F
  3
C4
350
60
  3
C5
350
61
  3
C6
350
62
  3
C7
350
63
  3
C8
350
64
  3
C9
350
65
  3
D0
350
66
  3
D1
350
67
  3
D2
350
68
  0
DICTIONARY
  5
13D
102
{ACAD_REACTORS
330
C
102
}
330
C
100
AcDbDictionary
281
     1
  0
XRECORD
  5
150
102
{ACAD_REACTORS
330
C
102
}
330
C
100
AcDbXrecord
280
     1
  1
DWGPROPS COOKIE
  2

  3

  4

  6

  7

  8
12014102
  9

300
=
301
=
302
=
303
=
304
=
305
=
306
=
307
=
308
=
309
=
 40
0.0
 41
2458262.174989849
 42
2458266.245125266
  1

 90
        0
  0
LAYOUT
  5
1E
102
{ACAD_REACTORS
330
1A
102
}
330
1A
100
AcDbPlotSettings
  1

  2
none_device
  4

  6

 40
0.0
 41
0.0
 42
0.0
 43
0.0
 44
0.0
 45
0.0
 46
0.0
 47
0.0
 48
0.0
 49
0.0
140
0.0
141
0.0
142
1.0
143
1.0
 70
   688
 72
     1
 73
     0
 74
     5
  7

 75
    16
147
1.0
148
0.0
149
0.0
100
AcDbLayout
  1
Layout1
 70
     1
 71
     1
 10
0.0
 20
0.0
 11
420.0
 21
297.0
 12
0.0
 22
0.0
 32
0.0
 14
1.000000000000000E+20
 24
1.000000000000000E+20
 34
1.000000000000000E+20
 15
-1.000000000000000E+20
 25
-1.000000000000000E+20
 35
-1.000000000000000E+20
146
0.0
 13
0.0
 23
0.0
 33
0.0
 16
1.0
 26
0.0
 36
0.0
 17
0.0
 27
1.0
 37
0.0
 76
     0
330
1B
  0
LAYOUT
  5
26
102
{ACAD_REACTORS
330
1A
102
}
330
1A
100
AcDbPlotSettings
  1

  2
none_device
  4

  6

 40
0.0
 41
0.0
 42
0.0
 43
0.0
 44
0.0
 45
0.0
 46
0.0
 47
0.0
 48
0.0
 49
0.0
140
0.0
141
0.0
142
1.0
143
1.0
 70
   688
 72
     1
 73
     0
 74
     5
  7

 75
    16
147
1.0
148
0.0
149
0.0
100
AcDbLayout
  1
Layout2
 70
     1
 71
     2
 10
0.0
 20
0.0
 11
0.0
 21
0.0
 12
0.0
 22
0.0
 32
0.0
 14
0.0
 24
0.0
 34
0.0
 15
0.0
 25
0.0
 35
0.0
146
0.0
 13
0.0
 23
0.0
 33
0.0
 16
1.0
 26
0.0
 36
0.0
 17
0.0
 27
1.0
 37
0.0
 76
     0
330
23
  0
LAYOUT
  5
22
102
{ACAD_REACTORS
330
1A
102
}
330
1A
100
AcDbPlotSettings
  1

  2
none_device
  4
ANSI_A_(11.00_x_8.50_Inches)
  6

 40
6.35
 41
19.05
 42
6.35000508
 43
19.05000254
 44
279.4
 45
215.9
 46
111.6273685207664
 47
100.0465199506624
 48
0.0
 49
0.0
140
0.0
141
0.0
142
0.0504022769828517
143
1.0
 70
  1696
 72
     0
 73
     0
 74
     0
  7

 75
     0
147
0.0235690232323232
148
0.0
149
0.0
100
AcDbLayout
  1
Model
 70
     1
 71
     0
 10
0.0
 20
0.0
 11
420.0
 21
297.0
 12
0.0
 22
0.0
 32
0.0
 14
-93.34102078586098
 24
-49.97073246008785
 34
0.0
 15
137.8943003939097
 25
33.16341044024269
 35
0.0
146
0.0
 13
0.0
 23
0.0
 33
0.0
 16
1.0
 26
0.0
 36
0.0
 17
0.0
 27
1.0
 37
0.0
 76
     0
330
1F
331
29
  0
MLINESTYLE
  5
18
102
{ACAD_REACTORS
330
17
102
}
330
17
100
AcDbMlineStyle
  2
Standard
 70
     0
  3

 62
   256
 51
90.0
 52
90.0
 71
     2
 49
0.5
 62
   256
  6
BYLAYER
 49
-0.5
 62
   256
  6
BYLAYER
  0
ACDBPLACEHOLDER
  5
F
102
{ACAD_REACTORS
330
E
102
}
330
E
  0
SCALE
  5
48
102
{ACAD_REACTORS
330
47
102
}
330
47
100
AcDbScale
 70
     0
300
1:1
140
1.0
141
1.0
290
     1
  0
SCALE
  5
49
102
{ACAD_REACTORS
330
47
102
}
330
47
100
AcDbScale
 70
     0
300
1:2
140
1.0
141
2.0
290
     0
  0
SCALE
  5
4A
102
{ACAD_REACTORS
330
47
102
}
330
47
100
AcDbScale
 70
     0
300
1:4
140
1.0
141
4.0
290
     0
  0
SCALE
  5
4B
102
{ACAD_REACTORS
330
47
102
}
330
47
100
AcDbScale
 70
     0
300
1:5
140
1.0
141
5.0
290
     0
  0
SCALE
  5
4C
102
{ACAD_REACTORS
330
47
102
}
330
47
100
AcDbScale
 70
     0
300
1:8
140
1.0
141
8.0
290
     0
  0
SCALE
  5
4D
102
{ACAD_REACTORS
330
47
102
}
330
47
100
AcDbScale
 70
     0
300
1:10
140
1.0
141
10.0
290
     0
  0
SCALE
  5
4E
102
{ACAD_REACTORS
330
47
102
}
330
47
100
AcDbScale
 70
     0
300
1:16
140
1.0
141
16.0
290
     0
  0
SCALE
  5
4F
102
{ACAD_REACTORS
330
47
102
}
330
47
100
AcDbScale
 70
     0
300
1:20
140
1.0
141
20.0
290
     0
  0
SCALE
  5
50
102
{ACAD_REACTORS
330
47
102
}
330
47
100
AcDbScale
 70
     0
300
1:30
140
1.0
141
30.0
290
     0
  0
SCALE
  5
51
102
{ACAD_REACTORS
330
47
102
}
330
47
100
AcDbScale
 70
     0
300
1:40
140
1.0
141
40.0
290
     0
  0
SCALE
  5
52
102
{ACAD_REACTORS
330
47
102
}
330
47
100
AcDbScale
 70
     0
300
1:50
140
1.0
141
50.0
290
     0
  0
SCALE
  5
53
102
{ACAD_REACTORS
330
47
102
}
330
47
100
AcDbScale
 70
     0
300
1:100
140
1.0
141
100.0
290
     0
  0
SCALE
  5
54
102
{ACAD_REACTORS
330
47
102
}
330
47
100
AcDbScale
 70
     0
300
2:1
140
2.0
141
1.0
290
     0
  0
SCALE
  5
55
102
{ACAD_REACTORS
330
47
102
}
330
47
100
AcDbScale
 70
     0
300
4:1
140
4.0
141
1.0
290
     0
  0
SCALE
  5
56
102
{ACAD_REACTORS
330
47
102
}
330
47
100
AcDbScale
 70
     0
300
8:1
140
8.0
141
1.0
290
     0
  0
SCALE
  5
57
102
{ACAD_REACTORS
330
47
102
}
330
47
100
AcDbScale
 70
     0
300
10:1
140
10.0
141
1.0
290
     0
  0
SCALE
  5
58
102
{ACAD_REACTORS
330
47
102
}
330
47
100
AcDbScale
 70
     0
300
100:1
140
100.0
141
1.0
290
     0
  0
SCALE
  5
59
102
{ACAD_REACTORS
330
47
102
}
330
47
100
AcDbScale
 70
     0
300
1/128" = 1'-0"
140
0.0078125
141
12.0
290
     0
  0
SCALE
  5
5A
102
{ACAD_REACTORS
330
47
102
}
330
47
100
AcDbScale
 70
     0
300
1/64" = 1'-0"
140
0.015625
141
12.0
290
     0
  0
SCALE
  5
5B
102
{ACAD_REACTORS
330
47
102
}
330
47
100
AcDbScale
 70
     0
300
1/32" = 1'-0"
140
0.03125
141
12.0
290
     0
  0
SCALE
  5
5C
102
{ACAD_REACTORS
330
47
102
}
330
47
100
AcDbScale
 70
     0
300
1/16" = 1'-0"
140
0.0625
141
12.0
290
     0
  0
SCALE
  5
5D
102
{ACAD_REACTORS
330
47
102
}
330
47
100
AcDbScale
 70
     0
300
3/32" = 1'-0"
140
0.09375
141
12.0
290
     0
  0
SCALE
  5
5E
102
{ACAD_REACTORS
330
47
102
}
330
47
100
AcDbScale
 70
     0
300
1/8" = 1'-0"
140
0.125
141
12.0
290
     0
  0
SCALE
  5
5F
102
{ACAD_REACTORS
330
47
102
}
330
47
100
AcDbScale
 70
     0
300
3/16" = 1'-0"
140
0.1875
141
12.0
290
     0
  0
SCALE
  5
60
102
{ACAD_REACTORS
330
47
102
}
330
47
100
AcDbScale
 70
     0
300
1/4" = 1'-0"
140
0.25
141
12.0
290
     0
  0
SCALE
  5
61
102
{ACAD_REACTORS
330
47
102
}
330
47
100
AcDbScale
 70
     0
300
3/8" = 1'-0"
140
0.375
141
12.0
290
     0
  0
SCALE
  5
62
102
{ACAD_REACTORS
330
47
102
}
330
47
100
AcDbScale
 70
     0
300
1/2" = 1'-0"
140
0.5
141
12.0
290
     0
  0
SCALE
  5
63
102
{ACAD_REACTORS
330
47
102
}
330
47
100
AcDbScale
 70
     0
300
3/4" = 1'-0"
140
0.75
141
12.0
290
     0
  0
SCALE
  5
64
102
{ACAD_REACTORS
330
47
102
}
330
47
100
AcDbScale
 70
     0
300
1" = 1'-0"
140
1.0
141
12.0
290
     0
  0
SCALE
  5
65
102
{ACAD_REACTORS
330
47
102
}
330
47
100
AcDbScale
 70
     0
300
1-1/2" = 1'-0"
140
1.5
141
12.0
290
     0
  0
SCALE
  5
66
102
{ACAD_REACTORS
330
47
102
}
330
47
100
AcDbScale
 70
     0
300
3" = 1'-0"
140
3.0
141
12.0
290
     0
  0
SCALE
  5
67
102
{ACAD_REACTORS
330
47
102
}
330
47
100
AcDbScale
 70
     0
300
6" = 1'-0"
140
6.0
141
12.0
290
     0
  0
SCALE
  5
68
102
{ACAD_REACTORS
330
47
102
}
330
47
100
AcDbScale
 70
     0
300
1'-0" = 1'-0"
140
12.0
141
12.0
290
     0
  0
ENDSEC
  0
EOF
