  0
SECTION
  2
HEADER
  9
$ACADVER
  1
AC1015
  9
$ACADMAINTVER
 70
     6
  9
$DWGCODEPAGE
  3
ANSI_949
  9
$INSBASE
 10
0.0
 20
0.0
 30
0.0
  9
$EXTMIN
 10
-133.855176848962
 20
-49.97073246008785
 30
0.0
  9
$EXTMAX
 10
97.2890391152782
 20
31.16341044024268
 30
0.0
  9
$LIMMIN
 10
0.0
 20
0.0
  9
$LIMMAX
 10
420.0
 20
297.0
  9
$ORTHOMODE
 70
     0
  9
$REGENMODE
 70
     1
  9
$FILLMODE
 70
     1
  9
$QTEXTMODE
 70
     0
  9
$MIRRTEXT
 70
     1
  9
$LTSCALE
 40
1.0
  9
$ATTMODE
 70
     1
  9
$TEXTSIZE
 40
3.5
  9
$TRACEWID
 40
1.0
  9
$TEXTSTYLE
  7
Standard
  9
$CLAYER
  8
0
  9
$CELTYPE
  6
ByLayer
  9
$CECOLOR
 62
   256
  9
$CELTSCALE
 40
1.0
  9
$DISPSILH
 70
     0
  9
$DIMSCALE
 40
1.0
  9
$DIMASZ
 40
3.302
  9
$DIMEXO
 40
1.0
  9
$DIMDLI
 40
3.75
  9
$DIMRND
 40
0.0
  9
$DIMDLE
 40
0.0
  9
$DIMEXE
 40
1.0
  9
$DIMTP
 40
0.0
  9
$DIMTM
 40
0.0
  9
$DIMTXT
 40
3.5
  9
$DIMCEN
 40
2.5
  9
$DIMTSZ
 40
0.0
  9
$DIMTOL
 70
     0
  9
$DIMLIM
 70
     0
  9
$DIMTIH
 70
     1
  9
$DIMTOH
 70
     1
  9
$DIMSE1
 70
     0
  9
$DIMSE2
 70
     0
  9
$DIMTAD
 70
     1
  9
$DIMZIN
 70
     0
  9
$DIMBLK
  1

  9
$DIMASO
 70
     1
  9
$DIMSHO
 70
     1
  9
$DIMPOST
  1

  9
$DIMAPOST
  1

  9
$DIMALT
 70
     0
  9
$DIMALTD
 70
     3
  9
$DIMALTF
 40
0.0393700787401575
  9
$DIMLFAC
 40
1.0
  9
$DIMTOFL
 70
     1
  9
$DIMTVP
 40
0.0
  9
$DIMTIX
 70
     0
  9
$DIMSOXD
 70
     0
  9
$DIMSAH
 70
     0
  9
$DIMBLK1
  1

  9
$DIMBLK2
  1

  9
$DIMSTYLE
  2
ISO-25
  9
$DIMCLRD
 70
     0
  9
$DIMCLRE
 70
     0
  9
$DIMCLRT
 70
     0
  9
$DIMTFAC
 40
1.0
  9
$DIMGAP
 40
1.524
  9
$DIMJUST
 70
     0
  9
$DIMSD1
 70
     0
  9
$DIMSD2
 70
     0
  9
$DIMTOLJ
 70
     0
  9
$DIMTZIN
 70
     0
  9
$DIMALTZ
 70
     0
  9
$DIMALTTZ
 70
     0
  9
$DIMUPT
 70
     0
  9
$DIMDEC
 70
     2
  9
$DIMTDEC
 70
     2
  9
$DIMALTU
 70
     2
  9
$DIMALTTD
 70
     3
  9
$DIMTXSTY
  7
Standard
  9
$DIMAUNIT
 70
     0
  9
$DIMADEC
 70
     2
  9
$DIMALTRND
 40
0.0
  9
$DIMAZIN
 70
     0
  9
$DIMDSEP
 70
    44
  9
$DIMATFIT
 70
     3
  9
$DIMFRAC
 70
     0
  9
$DIMLDRBLK
  1

  9
$DIMLUNIT
 70
     2
  9
$DIMLWD
 70
    -2
  9
$DIMLWE
 70
    -2
  9
$DIMTMOVE
 70
     0
  9
$LUNITS
 70
     2
  9
$LUPREC
 70
     2
  9
$SKETCHINC
 40
1.0
  9
$FILLETRAD
 40
10.0
  9
$AUNITS
 70
     0
  9
$AUPREC
 70
     2
  9
$MENU
  1
.
  9
$ELEVATION
 40
0.0
  9
$PELEVATION
 40
0.0
  9
$THICKNESS
 40
0.0
  9
$LIMCHECK
 70
     0
  9
$CHAMFERA
 40
0.0
  9
$CHAMFERB
 40
0.0
  9
$CHAMFERC
 40
0.0
  9
$CHAMFERD
 40
0.0
  9
$SKPOLY
 70
     0
  9
$TDCREATE
 40
2458262.549239097
  9
$TDUCREATE
 40
2458262.174239097
  9
$TDUPDATE
 40
2458266.687647153
  9
$TDUUPDATE
 40
2458266.312647153
  9
$TDINDWG
 40
0.0009304745
  9
$TDUSRTIMER
 40
2458266.311716713
  9
$USRTIMER
 70
     1
  9
$ANGBASE
 50
0.0
  9
$ANGDIR
 70
     0
  9
$PDMODE
 70
     0
  9
$PDSIZE
 40
-1.0
  9
$PLINEWID
 40
0.0
  9
$SPLFRAME
 70
     0
  9
$SPLINETYPE
 70
     6
  9
$SPLINESEGS
 70
     8
  9
$HANDSEED
  5
14C
  9
$SURFTAB1
 70
     6
  9
$SURFTAB2
 70
     6
  9
$SURFTYPE
 70
     6
  9
$SURFU
 70
     6
  9
$SURFV
 70
     6
  9
$UCSBASE
  2

  9
$UCSNAME
  2

  9
$UCSORG
 10
0.0
 20
0.0
 30
0.0
  9
$UCSXDIR
 10
1.0
 20
0.0
 30
0.0
  9
$UCSYDIR
 10
0.0
 20
1.0
 30
0.0
  9
$UCSORTHOREF
  2

  9
$UCSORTHOVIEW
 70
     0
  9
$UCSORGTOP
 10
0.0
 20
0.0
 30
0.0
  9
$UCSORGBOTTOM
 10
0.0
 20
0.0
 30
0.0
  9
$UCSORGLEFT
 10
0.0
 20
0.0
 30
0.0
  9
$UCSORGRIGHT
 10
0.0
 20
0.0
 30
0.0
  9
$UCSORGFRONT
 10
0.0
 20
0.0
 30
0.0
  9
$UCSORGBACK
 10
0.0
 20
0.0
 30
0.0
  9
$PUCSBASE
  2

  9
$PUCSNAME
  2

  9
$PUCSORG
 10
0.0
 20
0.0
 30
0.0
  9
$PUCSXDIR
 10
1.0
 20
0.0
 30
0.0
  9
$PUCSYDIR
 10
0.0
 20
1.0
 30
0.0
  9
$PUCSORTHOREF
  2

  9
$PUCSORTHOVIEW
 70
     0
  9
$PUCSORGTOP
 10
0.0
 20
0.0
 30
0.0
  9
$PUCSORGBOTTOM
 10
0.0
 20
0.0
 30
0.0
  9
$PUCSORGLEFT
 10
0.0
 20
0.0
 30
0.0
  9
$PUCSORGRIGHT
 10
0.0
 20
0.0
 30
0.0
  9
$PUCSORGFRONT
 10
0.0
 20
0.0
 30
0.0
  9
$PUCSORGBACK
 10
0.0
 20
0.0
 30
0.0
  9
$USERI1
 70
     0
  9
$USERI2
 70
     0
  9
$USERI3
 70
     0
  9
$USERI4
 70
     0
  9
$USERI5
 70
     0
  9
$USERR1
 40
0.0
  9
$USERR2
 40
0.0
  9
$USERR3
 40
0.0
  9
$USERR4
 40
0.0
  9
$USERR5
 40
0.0
  9
$WORLDVIEW
 70
     1
  9
$SHADEDGE
 70
     3
  9
$SHADEDIF
 70
    70
  9
$TILEMODE
 70
     1
  9
$MAXACTVP
 70
    64
  9
$PINSBASE
 10
0.0
 20
0.0
 30
0.0
  9
$PLIMCHECK
 70
     0
  9
$PEXTMIN
 10
1.000000000000000E+20
 20
1.000000000000000E+20
 30
1.000000000000000E+20
  9
$PEXTMAX
 10
-1.000000000000000E+20
 20
-1.000000000000000E+20
 30
-1.000000000000000E+20
  9
$PLIMMIN
 10
0.0
 20
0.0
  9
$PLIMMAX
 10
0.0
 20
0.0
  9
$UNITMODE
 70
     0
  9
$VISRETAIN
 70
     1
  9
$PLINEGEN
 70
     0
  9
$PSLTSCALE
 70
     1
  9
$TREEDEPTH
 70
  3020
  9
$CMLSTYLE
  2
Standard
  9
$CMLJUST
 70
     0
  9
$CMLSCALE
 40
20.0
  9
$PROXYGRAPHICS
 70
     1
  9
$MEASUREMENT
 70
     1
  9
$CELWEIGHT
370
    -1
  9
$ENDCAPS
280
     0
  9
$JOINSTYLE
280
     0
  9
$LWDISPLAY
290
     1
  9
$INSUNITS
 70
     4
  9
$HYPERLINKBASE
  1

  9
$STYLESHEET
  1

  9
$XEDIT
290
     1
  9
$CEPSNTYPE
380
     0
  9
$PSTYLEMODE
290
     1
  9
$FINGERPRINTGUID
  2
{DBC5A522-EB27-4500-8A64-5A655BEAF94C}
  9
$VERSIONGUID
  2
{FAEB1C32-E019-11D5-929B-00C0DF256EC4}
  9
$EXTNAMES
290
     1
  9
$PSVPSCALE
 40
0.0
  9
$OLESTARTUP
290
     0
  0
ENDSEC
  0
SECTION
  2
CLASSES
  0
CLASS
  1
ACDBDICTIONARYWDFLT
  2
AcDbDictionaryWithDefault
  3
ObjectDBX Classes
 90
        0
280
     0
281
     0
  0
CLASS
  1
VISUALSTYLE
  2
AcDbVisualStyle
  3
ObjectDBX Classes
 90
     4095
280
     0
281
     0
  0
CLASS
  1
MATERIAL
  2
AcDbMaterial
  3
ObjectDBX Classes
 90
     1153
280
     0
281
     0
  0
CLASS
  1
SCALE
  2
AcDbScale
  3
ObjectDBX Classes
 90
     1153
280
     0
281
     0
  0
CLASS
  1
SUN
  2
AcDbSun
  3
SCENEOE
 90
     1153
280
     0
281
     0
  0
CLASS
  1
ACDBPLACEHOLDER
  2
AcDbPlaceHolder
  3
ObjectDBX Classes
 90
        0
280
     0
281
     0
  0
CLASS
  1
LAYOUT
  2
AcDbLayout
  3
ObjectDBX Classes
 90
        0
280
     0
281
     0
  0
CLASS
  1
TABLESTYLE
  2
AcDbTableStyle
  3
ObjectDBX Classes
 90
     4095
280
     0
281
     0
  0
CLASS
  1
MLEADERSTYLE
  2
AcDbMLeaderStyle
  3
ACDB_MLEADERSTYLE_CLASS
 90
     4095
280
     0
281
     0
  0
CLASS
  1
RASTERVARIABLES
  2
AcDbRasterVariables
  3
ISM
 90
        0
280
     0
281
     0
  0
ENDSEC
  0
SECTION
  2
TABLES
  0
TABLE
  2
VPORT
  5
8
330
0
100
AcDbSymbolTable
 70
     1
  0
VPORT
  5
29
330
8
100
AcDbSymbolTableRecord
100
AcDbViewportTableRecord
  2
*Active
 70
     0
 10
0.0
 20
0.0
 11
1.0
 21
1.0
 12
-18.2830688668419
 22
-9.403661009922587
 13
0.0
 23
0.0
 14
10.0
 24
10.0
 15
10.0
 25
10.0
 16
0.0
 26
0.0
 36
1.0
 17
0.0
 27
0.0
 37
0.0
 40
204.5781789455699
 41
1.152454780361757
 42
50.0
 43
0.0
 44
0.0
 50
0.0
 51
0.0
 71
    16
 72
  2000
 73
     1
 74
     3
 75
     0
 76
     0
 77
     0
 78
     0
281
     0
 65
     1
110
0.0
120
0.0
130
0.0
111
1.0
121
0.0
131
0.0
112
0.0
122
1.0
132
0.0
 79
     0
146
0.0
  0
ENDTAB
  0
TABLE
  2
LTYPE
  5
5
330
0
100
AcDbSymbolTable
 70
     6
  0
LTYPE
  5
14
330
5
100
AcDbSymbolTableRecord
100
AcDbLinetypeTableRecord
  2
ByBlock
 70
     0
  3

 72
    65
 73
     0
 40
0.0
  0
LTYPE
  5
15
330
5
100
AcDbSymbolTableRecord
100
AcDbLinetypeTableRecord
  2
ByLayer
 70
     0
  3

 72
    65
 73
     0
 40
0.0
  0
LTYPE
  5
16
330
5
100
AcDbSymbolTableRecord
100
AcDbLinetypeTableRecord
  2
Continuous
 70
     0
  3
Solid line
 72
    65
 73
     0
 40
0.0
  0
LTYPE
  5
6A
330
5
100
AcDbSymbolTableRecord
100
AcDbLinetypeTableRecord
  2
HIDDEN
 70
     0
  3
Hidden __ __ __ __ __ __ __ __ __ __ __ __ __ __
 72
    65
 73
     2
 40
1.905
 49
1.27
 74
     0
 49
-0.635
 74
     0
  0
LTYPE
  5
6B
330
5
100
AcDbSymbolTableRecord
100
AcDbLinetypeTableRecord
  2
PHANTOM
 70
     0
  3
Phantom ______  __  __  ______  __  __  ______
 72
    65
 73
     6
 40
12.7
 49
6.35
 74
     0
 49
-1.27
 74
     0
 49
1.27
 74
     0
 49
-1.27
 74
     0
 49
1.27
 74
     0
 49
-1.27
 74
     0
  0
LTYPE
  5
6C
330
5
100
AcDbSymbolTableRecord
100
AcDbLinetypeTableRecord
  2
CENTER
 70
     0
  3
Center ____ _ ____ _ ____ _ ____ _ ____ _ ____
 72
    65
 73
     4
 40
10.16
 49
6.35
 74
     0
 49
-1.27
 74
     0
 49
1.27
 74
     0
 49
-1.27
 74
     0
  0
LTYPE
  5
6D
330
5
100
AcDbSymbolTableRecord
100
AcDbLinetypeTableRecord
  2
CENTERX2
 70
     0
  3
Center (2x) ________  __  ________  __  _____
 72
    65
 73
     4
 40
20.32
 49
12.7
 74
     0
 49
-2.54
 74
     0
 49
2.54
 74
     0
 49
-2.54
 74
     0
  0
LTYPE
  5
6E
330
5
100
AcDbSymbolTableRecord
100
AcDbLinetypeTableRecord
  2
DOT2
 70
     0
  3
Dot (.5x) ........................................
 72
    65
 73
     2
 40
0.635
 49
0.0
 74
     0
 49
-0.635
 74
     0
  0
ENDTAB
  0
TABLE
  2
LAYER
  5
2
330
0
100
AcDbSymbolTable
 70
    17
  0
LAYER
  5
10
330
2
100
AcDbSymbolTableRecord
100
AcDbLayerTableRecord
  2
0
 70
     0
 62
     7
  6
Continuous
370
    -3
390
F
  0
LAYER
  5
6F
330
2
100
AcDbSymbolTableRecord
100
AcDbLayerTableRecord
  2
FORMAT
 70
     0
 62
     2
  6
Continuous
370
    -3
390
F
  0
LAYER
  5
70
330
2
100
AcDbSymbolTableRecord
100
AcDbLayerTableRecord
  2
외형선
 70
     0
 62
   100
  6
Continuous
370
    30
390
F
  0
LAYER
  5
71
330
2
100
AcDbSymbolTableRecord
100
AcDbLayerTableRecord
  2
숨은선
 70
     0
 62
     2
  6
HIDDEN
370
    15
390
F
  0
LAYER
  5
72
330
2
100
AcDbSymbolTableRecord
100
AcDbLayerTableRecord
  2
중심선
 70
     0
 62
     1
  6
CENTERX2
370
    -3
390
F
  0
LAYER
  5
73
330
2
100
AcDbSymbolTableRecord
100
AcDbLayerTableRecord
  2
파단선
 70
     0
 62
     4
  6
Continuous
370
    -3
390
F
  0
LAYER
  5
74
330
2
100
AcDbSymbolTableRecord
100
AcDbLayerTableRecord
  2
해칭선
 70
     0
 62
     4
  6
Continuous
370
    -3
390
F
  0
LAYER
  5
75
330
2
100
AcDbSymbolTableRecord
100
AcDbLayerTableRecord
  2
가는실선
 70
     0
 62
     4
  6
Continuous
370
    -3
390
F
  0
LAYER
  5
76
330
2
100
AcDbSymbolTableRecord
100
AcDbLayerTableRecord
  2
치수_보조선
 70
     0
 62
     4
  6
Continuous
370
    -3
390
F
  0
LAYER
  5
77
330
2
100
AcDbSymbolTableRecord
100
AcDbLayerTableRecord
  2
치수문자_일반주서
 70
     0
 62
     7
  6
Continuous
370
    15
390
F
  0
LAYER
  5
78
330
2
100
AcDbSymbolTableRecord
100
AcDbLayerTableRecord
  2
개별주서
 70
     0
 62
   100
  6
Continuous
370
    30
390
F
  0
LAYER
  5
79
330
2
100
AcDbSymbolTableRecord
100
AcDbLayerTableRecord
  2
중간선
 70
     0
 62
     2
  6
Continuous
370
    15
390
F
  0
LAYER
  5
7A
330
2
100
AcDbSymbolTableRecord
100
AcDbLayerTableRecord
  2
윤곽선
 70
     0
 62
     3
  6
Continuous
370
    40
390
F
  0
LAYER
  5
7B
330
2
100
AcDbSymbolTableRecord
100
AcDbLayerTableRecord
  2
중심마크
 70
     0
 62
   100
  6
Continuous
370
    30
390
F
  0
LAYER
  5
7C
330
2
100
AcDbSymbolTableRecord
100
AcDbLayerTableRecord
  2
가상선
 70
     0
 62
     4
  6
PHANTOM
370
    -3
390
F
  0
LAYER
  5
7D
330
2
100
AcDbSymbolTableRecord
100
AcDbLayerTableRecord
  2
특수지정선
 70
     0
 62
     5
  6
CENTERX2
370
    60
390
F
  0
LAYER
  5
13D
330
2
100
AcDbSymbolTableRecord
100
AcDbLayerTableRecord
  2
Defpoints
 70
     0
 62
     7
  6
Continuous
290
     0
370
    -3
390
F
  0
ENDTAB
  0
TABLE
  2
STYLE
  5
3
330
0
100
AcDbSymbolTable
 70
     2
  0
STYLE
  5
11
330
3
100
AcDbSymbolTableRecord
100
AcDbTextStyleTableRecord
  2
Standard
 70
     0
 40
0.0
 41
1.0
 50
0.0
 71
     0
 42
3.5
  3
txt
  4

  0
STYLE
  5
93
330
3
100
AcDbSymbolTableRecord
100
AcDbTextStyleTableRecord
  2
SLDTEXTSTYLE0
 70
     0
 40
0.0
 41
0.75
 50
0.0
 71
     0
 42
3.5
  3
TXT
  4

  0
ENDTAB
  0
TABLE
  2
VIEW
  5
6
330
0
100
AcDbSymbolTable
 70
     0
  0
ENDTAB
  0
TABLE
  2
UCS
  5
7
330
0
100
AcDbSymbolTable
 70
     0
  0
ENDTAB
  0
TABLE
  2
APPID
  5
9
330
0
100
AcDbSymbolTable
 70
     1
  0
APPID
  5
12
330
9
100
AcDbSymbolTableRecord
100
AcDbRegAppTableRecord
  2
ACAD
 70
     0
  0
ENDTAB
  0
TABLE
  2
DIMSTYLE
  5
A
330
0
100
AcDbSymbolTable
 70
     3
100
AcDbDimStyleTable
  0
DIMSTYLE
105
27
330
A
100
AcDbSymbolTableRecord
100
AcDbDimStyleTableRecord
  2
ISO-25
 70
     0
 41
2.5
 42
0.625
 43
3.75
 44
1.25
 73
     0
 74
     0
 77
     1
 78
     8
140
2.5
141
2.5
143
0.03937007874016
147
0.625
171
     3
172
     1
178
     0
271
     2
272
     2
274
     3
278
    44
283
     0
284
     8
340
11
  0
DIMSTYLE
105
E3
102
{ACAD_REACTORS
330
E2
330
105
102
}
330
A
100
AcDbSymbolTableRecord
100
AcDbDimStyleTableRecord
  2
SLDDIMSTYLE0
 70
     0
 41
3.302
 44
0.0
 45
0.000000001
 73
     0
 74
     0
 77
     1
 78
    12
 79
     3
140
3.5
147
0.875
172
     1
173
     1
178
     0
271
     2
272
     2
276
     2
284
    12
289
     0
340
93
  0
DIMSTYLE
105
F1
102
{ACAD_REACTORS
330
F0
330
FB
102
}
330
A
100
AcDbSymbolTableRecord
100
AcDbDimStyleTableRecord
  2
SLDDIMSTYLE1
 70
     0
 41
3.302
 44
0.0
 45
0.000000001
 73
     0
 74
     0
 77
     1
 78
    12
 79
     3
140
3.5
147
0.875
173
     1
178
     0
271
     2
272
     2
276
     2
284
    12
340
93
  0
ENDTAB
  0
TABLE
  2
BLOCK_RECORD
  5
1
330
0
100
AcDbSymbolTable
 70
     7
  0
BLOCK_RECORD
  5
1F
330
1
100
AcDbSymbolTableRecord
100
AcDbBlockTableRecord
  2
*Model_Space
340
22
  0
BLOCK_RECORD
  5
1B
330
1
100
AcDbSymbolTableRecord
100
AcDbBlockTableRecord
  2
*Paper_Space
340
1E
  0
BLOCK_RECORD
  5
23
330
1
100
AcDbSymbolTableRecord
100
AcDbBlockTableRecord
  2
*Paper_Space0
340
26
  0
BLOCK_RECORD
  5
7E
330
1
100
AcDbSymbolTableRecord
100
AcDbBlockTableRecord
  2
블럭10
340
0
102
{BLKREFS
331
DB
102
}
  0
BLOCK_RECORD
  5
E4
330
1
100
AcDbSymbolTableRecord
100
AcDbBlockTableRecord
  2
_D
340
0
  0
BLOCK_RECORD
  5
F2
330
1
100
AcDbSymbolTableRecord
100
AcDbBlockTableRecord
  2
_D_1
340
0
  0
BLOCK_RECORD
  5
FC
330
1
100
AcDbSymbolTableRecord
100
AcDbBlockTableRecord
  2
_D_2
340
0
  0
BLOCK_RECORD
  5
106
330
1
100
AcDbSymbolTableRecord
100
AcDbBlockTableRecord
  2
_D_3
340
0
  0
BLOCK_RECORD
  5
112
330
1
100
AcDbSymbolTableRecord
100
AcDbBlockTableRecord
  2
SW_DOWELSYMBOL_0
340
0
102
{BLKREFS
331
118
102
}
  0
ENDTAB
  0
ENDSEC
  0
SECTION
  2
BLOCKS
  0
BLOCK
  5
20
330
1F
100
AcDbEntity
  8
0
100
AcDbBlockBegin
  2
*Model_Space
 70
     0
 10
0.0
 20
0.0
 30
0.0
  3
*Model_Space
  1

  0
ENDBLK
  5
21
330
1F
100
AcDbEntity
  8
0
100
AcDbBlockEnd
  0
BLOCK
  5
1C
330
1B
100
AcDbEntity
 67
     1
  8
0
100
AcDbBlockBegin
  2
*Paper_Space
 70
     0
 10
0.0
 20
0.0
 30
0.0
  3
*Paper_Space
  1

  0
ENDBLK
  5
1D
330
1B
100
AcDbEntity
 67
     1
  8
0
100
AcDbBlockEnd
  0
BLOCK
  5
24
330
23
100
AcDbEntity
  8
0
100
AcDbBlockBegin
  2
*Paper_Space0
 70
     0
 10
0.0
 20
0.0
 30
0.0
  3
*Paper_Space0
  1

  0
ENDBLK
  5
25
330
23
100
AcDbEntity
  8
0
100
AcDbBlockEnd
  0
BLOCK
  5
7F
330
7E
100
AcDbEntity
  8
0
100
AcDbBlockBegin
  2
블럭10
 70
     2
 10
0.0
 20
0.0
 30
0.0
  3
블럭10
  1

  0
ELLIPSE
  5
81
330
7E
100
AcDbEntity
  8
중심선
100
AcDbEllipse
 10
20.54032771741204
 20
12.0471743016438
 30
0.0
 11
6.600054785286829
 21
-1.261213355974178E-13
 31
0.0
210
0.0
220
0.0
230
1.0
 40
0.636358354079598
 41
0.9219305317359503
 42
6.513795318482858
  0
ELLIPSE
  5
82
330
7E
100
AcDbEntity
  8
중심선
100
AcDbEllipse
 10
20.54032771746488
 20
12.04717430159265
 30
0.0
 11
3.960054785062283
 21
1.540847449632565E-10
 31
0.0
210
0.0
220
0.0
230
1.0
 40
0.3939339440162632
 41
1.131841032648279
 42
5.62031148352944
  0
LINE
  5
83
330
7E
100
AcDbEntity
  8
중심선
100
AcDbLine
 10
2.268634060543552
 20
16.24717430164393
 30
0.0
 11
5.714909304380834
 21
16.24717430164393
 31
0.0
  0
LINE
  5
84
330
7E
100
AcDbEntity
  8
중심선
100
AcDbLine
 10
5.245725140726316
 20
7.84717430164391
 30
0.0
 11
8.692000384563599
 21
7.84717430164391
 31
0.0
  0
LINE
  5
85
330
7E
100
AcDbEntity
  8
중심선
100
AcDbLine
 10
15.74043728645272
 20
16.24717430164393
 30
0.0
 11
8.692000384563599
 21
7.84717430164391
 31
0.0
  0
LINE
  5
86
330
7E
100
AcDbEntity
  8
중심선
100
AcDbLine
 10
0.1404042013395286
 20
13.71084872107135
 30
0.0
 11
3.58671253028996
 21
13.71088815037384
 31
0.0
  0
LINE
  5
87
330
7E
100
AcDbEntity
  8
중심선
100
AcDbLine
 10
2.750260043222114
 20
10.84717430164391
 30
0.0
 11
6.196535287059397
 21
10.84717430164391
 31
0.0
  0
LINE
  5
88
330
7E
100
AcDbEntity
  8
중심선
100
AcDbLine
 10
12.29416204261559
 20
16.24717430164393
 30
0.0
 11
5.245725140726316
 21
7.84717430164391
 31
0.0
  0
LINE
  5
89
330
7E
100
AcDbEntity
  8
중심선
100
AcDbLine
 10
10.72767329541681
 20
16.24717430164393
 30
0.0
 11
6.196535287059397
 21
10.84717430164391
 31
0.0
  0
LINE
  5
8A
330
7E
100
AcDbEntity
  8
중심선
100
AcDbLine
 10
7.28139805157953
 20
16.24717430164393
 30
0.0
 11
2.750260043222114
 21
10.84717430164391
 31
0.0
  0
LINE
  5
8B
330
7E
100
AcDbEntity
  8
중심선
100
AcDbLine
 10
5.714909304380834
 20
16.24717430164393
 30
0.0
 11
3.58671253028996
 21
13.71088815037384
 31
0.0
  0
LINE
  5
8C
330
7E
100
AcDbEntity
  8
중심선
100
AcDbLine
 10
2.268634060543552
 20
16.24717430164393
 30
0.0
 11
0.1404042013395286
 21
13.71084872107135
 31
0.0
  0
LINE
  5
8D
330
7E
100
AcDbEntity
  8
중심선
100
AcDbLine
 10
7.28139805157953
 20
16.24717430164393
 30
0.0
 11
10.72767329541681
 21
16.24717430164393
 31
0.0
  0
LINE
  5
8E
330
7E
100
AcDbEntity
  8
중심선
100
AcDbLine
 10
12.29416204261559
 20
16.24717430164393
 30
0.0
 11
15.74043728645272
 21
16.24717430164393
 31
0.0
  0
LINE
  5
8F
330
7E
100
AcDbEntity
  8
중심선
100
AcDbLine
 10
19.22036997980202
 20
11.08717430171403
 30
0.0
 11
23.66174974927406
 21
11.08717430171406
 31
0.0
  0
LINE
  5
90
330
7E
100
AcDbEntity
  8
중심선
100
AcDbLine
 10
19.22039502424796
 20
13.00717430171391
 30
0.0
 11
19.22036997980202
 21
11.08717430171403
 31
0.0
  0
LINE
  5
91
330
7E
100
AcDbEntity
  8
중심선
100
AcDbLine
 10
19.22039502424796
 20
13.00717430171391
 30
0.0
 11
26.96566020931264
 21
13.00717430171391
 31
0.0
  0
LINE
  5
92
330
7E
100
AcDbEntity
  8
중심선
100
AcDbLine
 10
22.22332737316547
 20
13.45928029700563
 30
0.0
 11
24.52862924686651
 21
15.39360700705356
 31
0.0
  0
ATTDEF
  5
94
330
7E
100
AcDbEntity
  8
FORMAT
 62
     2
100
AcDbText
 10
-20.85824753159254
 20
2.075366912832191
 30
0.0
 40
4.233333333333333
  1
SEME7012070200E [ 2 FLUTE ]
 41
0.75
  7
SLDTEXTSTYLE0
 11
-20.85824753159254
 21
-0.0412997538344756
 31
0.0
100
AcDbAttributeDefinition
  3

  2
AUTOATTR0
 70
     0
 74
     1
  0
ENDBLK
  5
80
330
7E
100
AcDbEntity
  8
0
100
AcDbBlockEnd
  0
BLOCK
  5
E5
330
E4
100
AcDbEntity
  8
0
100
AcDbBlockBegin
  2
_D
 70
     0
 10
0.0
 20
0.0
 30
0.0
  3
_D
  1

  0
LINE
  5
E7
330
E4
100
AcDbEntity
  8
치수문자_일반주서
 62
     0
370
    -2
100
AcDbLine
 10
80.06249999999997
 20
-5.999999999999735
 30
0.0
 11
96.73870578194486
 21
-5.999999999999677
 31
0.0
  0
LINE
  5
E8
330
E4
100
AcDbEntity
  8
치수문자_일반주서
 62
     0
370
    -2
100
AcDbLine
 10
80.06249999999997
 20
6.000000000000261
 30
0.0
 11
96.73870578194482
 21
6.000000000000323
 31
0.0
  0
LINE
  5
E9
330
E4
100
AcDbEntity
  8
치수문자_일반주서
 62
     0
370
    -2
100
AcDbLine
 10
96.73870578194486
 20
-5.999999999999677
 30
0.0
 11
96.73870578194476
 21
20.47900000000033
 31
0.0
  0
LINE
  5
EA
330
E4
100
AcDbEntity
  8
치수문자_일반주서
 62
     0
370
    -2
100
AcDbLine
 10
96.73870578194486
 20
-5.999999999999677
 30
0.0
 11
96.73870578194482
 21
6.000000000000323
 31
0.0
  0
LINE
  5
EB
330
E4
100
AcDbEntity
  8
치수문자_일반주서
 62
     0
370
    -2
100
AcDbLine
 10
96.73870578194487
 20
-9.301999999999676
 30
0.0
 11
96.73870578194489
 21
-12.60399999999968
 31
0.0
  0
LINE
  5
EC
330
E4
100
AcDbEntity
  8
치수문자_일반주서
 62
     0
370
    -2
100
AcDbLine
 10
96.7387057819448
 20
9.302000000000323
 30
0.0
 11
96.73870578194479
 21
12.60400000000032
 31
0.0
  0
SOLID
  5
ED
330
E4
100
AcDbEntity
  8
치수문자_일반주서
 62
     0
100
AcDbTrace
 10
97.2890391152782
 20
-9.301999999999675
 30
0.0
 11
96.18837244861155
 21
-9.301999999999678
 31
0.0
 12
96.73870578194486
 22
-5.999999999999677
 32
0.0
 13
96.73870578194486
 23
-5.999999999999677
 33
0.0
  0
SOLID
  5
EE
330
E4
100
AcDbEntity
  8
치수문자_일반주서
 62
     0
100
AcDbTrace
 10
96.18837244861147
 20
9.302000000000321
 30
0.0
 11
97.28903911527813
 21
9.302000000000325
 31
0.0
 12
96.73870578194482
 22
6.000000000000323
 32
0.0
 13
96.73870578194482
 23
6.000000000000323
 33
0.0
  0
MTEXT
  5
EF
330
E4
100
AcDbEntity
  8
치수문자_일반주서
 62
     0
100
AcDbMText
 10
92.36370578194477
 20
16.54150000000031
 30
0.0
 40
3.5
 41
0.0
 71
     2
 72
     1
  1
\A1;%%c12
  7
SLDTEXTSTYLE0
 11
-3.552713678800502E-15
 21
1.0
 31
0.0
 73
     1
 44
1.0
  0
POINT
  5
147
330
E4
100
AcDbEntity
  8
Defpoints
 62
     0
100
AcDbPoint
 10
79.99999999999997
 20
-5.999999999999735
 30
0.0
  0
POINT
  5
148
330
E4
100
AcDbEntity
  8
Defpoints
 62
     0
100
AcDbPoint
 10
79.99999999999997
 20
6.000000000000261
 30
0.0
  0
POINT
  5
149
330
E4
100
AcDbEntity
  8
Defpoints
 62
     0
100
AcDbPoint
 10
96.73870578194482
 20
6.000000000000323
 30
0.0
  0
ENDBLK
  5
E6
330
E4
100
AcDbEntity
  8
0
100
AcDbBlockEnd
  0
BLOCK
  5
F3
330
F2
100
AcDbEntity
  8
0
100
AcDbBlockBegin
  2
_D_1
 70
     0
 10
0.0
 20
0.0
 30
0.0
  3
_D_1
  1

  0
LINE
  5
F5
330
F2
100
AcDbEntity
  8
치수문자_일반주서
 62
     0
370
    -2
100
AcDbLine
 10
-120.0
 20
5.062499999999988
 30
0.0
 11
-120.0
 21
26.78841044024269
 31
0.0
  0
LINE
  5
F6
330
F2
100
AcDbEntity
  8
치수문자_일반주서
 62
     0
370
    -2
100
AcDbLine
 10
80.0
 20
6.062500000000264
 30
0.0
 11
80.0
 21
26.78841044024269
 31
0.0
  0
LINE
  5
F7
330
F2
100
AcDbEntity
  8
치수문자_일반주서
 62
     0
370
    -2
100
AcDbLine
 10
-116.698
 20
26.78841044024269
 30
0.0
 11
76.69800000000001
 21
26.78841044024269
 31
0.0
  0
SOLID
  5
F8
330
F2
100
AcDbEntity
  8
치수문자_일반주서
 62
     0
100
AcDbTrace
 10
-116.698
 20
27.33874377357602
 30
0.0
 11
-116.698
 21
26.23807710690935
 31
0.0
 12
-120.0
 22
26.78841044024269
 32
0.0
 13
-120.0
 23
26.78841044024269
 33
0.0
  0
SOLID
  5
F9
330
F2
100
AcDbEntity
  8
치수문자_일반주서
 62
     0
100
AcDbTrace
 10
76.69800000000001
 20
26.23807710690935
 30
0.0
 11
76.69800000000001
 21
27.33874377357602
 31
0.0
 12
80.0
 22
26.78841044024269
 32
0.0
 13
80.0
 23
26.78841044024269
 33
0.0
  0
MTEXT
  5
FA
330
F2
100
AcDbEntity
  8
치수문자_일반주서
 62
     0
100
AcDbMText
 10
-20.0
 20
31.16341044024269
 30
0.0
 40
3.5
 41
0.0
 71
     2
 72
     1
  1
\A1;200
  7
SLDTEXTSTYLE0
 73
     1
 44
1.0
  0
POINT
  5
13E
330
F2
100
AcDbEntity
  8
Defpoints
 62
     0
100
AcDbPoint
 10
-120.0
 20
4.999999999999988
 30
0.0
  0
POINT
  5
13F
330
F2
100
AcDbEntity
  8
Defpoints
 62
     0
100
AcDbPoint
 10
80.0
 20
6.000000000000264
 30
0.0
  0
POINT
  5
140
330
F2
100
AcDbEntity
  8
Defpoints
 62
     0
100
AcDbPoint
 10
80.0
 20
26.78841044024269
 30
0.0
  0
ENDBLK
  5
F4
330
F2
100
AcDbEntity
  8
0
100
AcDbBlockEnd
  0
BLOCK
  5
FD
330
FC
100
AcDbEntity
  8
0
100
AcDbBlockBegin
  2
_D_2
 70
     0
 10
0.0
 20
0.0
 30
0.0
  3
_D_2
  1

  0
LINE
  5
FF
330
FC
100
AcDbEntity
  8
치수문자_일반주서
 62
     0
370
    -2
100
AcDbLine
 10
9.999999999999995
 20
5.345856515890736
 30
0.0
 11
10.0
 21
18.63035432205828
 31
0.0
  0
LINE
  5
100
330
FC
100
AcDbEntity
  8
치수문자_일반주서
 62
     0
370
    -2
100
AcDbLine
 10
80.0
 20
6.062500000000264
 30
0.0
 11
80.0
 21
18.63035432205828
 31
0.0
  0
LINE
  5
101
330
FC
100
AcDbEntity
  8
치수문자_일반주서
 62
     0
370
    -2
100
AcDbLine
 10
13.302
 20
18.63035432205828
 30
0.0
 11
76.69800000000001
 21
18.63035432205828
 31
0.0
  0
SOLID
  5
102
330
FC
100
AcDbEntity
  8
치수문자_일반주서
 62
     0
100
AcDbTrace
 10
13.302
 20
19.18068765539162
 30
0.0
 11
13.302
 21
18.08002098872495
 31
0.0
 12
10.0
 22
18.63035432205828
 32
0.0
 13
10.0
 23
18.63035432205828
 33
0.0
  0
SOLID
  5
103
330
FC
100
AcDbEntity
  8
치수문자_일반주서
 62
     0
100
AcDbTrace
 10
76.69800000000001
 20
18.08002098872495
 30
0.0
 11
76.69800000000001
 21
19.18068765539162
 31
0.0
 12
80.0
 22
18.63035432205828
 32
0.0
 13
80.0
 23
18.63035432205828
 33
0.0
  0
MTEXT
  5
104
330
FC
100
AcDbEntity
  8
치수문자_일반주서
 62
     0
100
AcDbMText
 10
44.99999999999998
 20
23.00535432205828
 30
0.0
 40
3.5
 41
0.0
 71
     2
 72
     1
  1
\A1;70
  7
SLDTEXTSTYLE0
 73
     1
 44
1.0
  0
POINT
  5
141
330
FC
100
AcDbEntity
  8
Defpoints
 62
     0
100
AcDbPoint
 10
9.999999999999995
 20
5.283356515890736
 30
0.0
  0
POINT
  5
142
330
FC
100
AcDbEntity
  8
Defpoints
 62
     0
100
AcDbPoint
 10
80.0
 20
6.000000000000264
 30
0.0
  0
POINT
  5
143
330
FC
100
AcDbEntity
  8
Defpoints
 62
     0
100
AcDbPoint
 10
80.0
 20
18.63035432205828
 30
0.0
  0
ENDBLK
  5
FE
330
FC
100
AcDbEntity
  8
0
100
AcDbBlockEnd
  0
BLOCK
  5
107
330
106
100
AcDbEntity
  8
0
100
AcDbBlockBegin
  2
_D_3
 70
     0
 10
0.0
 20
0.0
 30
0.0
  3
_D_3
  1

  0
LINE
  5
109
330
106
100
AcDbEntity
  8
치수문자_일반주서
 62
     0
370
    -2
100
AcDbLine
 10
-119.0625
 20
5.999999999999989
 30
0.0
 11
-129.4801768489619
 21
5.99999999999995
 31
0.0
  0
LINE
  5
10A
330
106
100
AcDbEntity
  8
치수문자_일반주서
 62
     0
370
    -2
100
AcDbLine
 10
-119.0625
 20
-5.999999999999995
 30
0.0
 11
-129.4801768489619
 21
-6.000000000000032
 31
0.0
  0
LINE
  5
10B
330
106
100
AcDbEntity
  8
치수문자_일반주서
 62
     0
370
    -2
100
AcDbLine
 10
-129.4801768489619
 20
5.99999999999995
 30
0.0
 11
-129.480176848962
 21
20.47899999999995
 31
0.0
  0
LINE
  5
10C
330
106
100
AcDbEntity
  8
치수문자_일반주서
 62
     0
370
    -2
100
AcDbLine
 10
-129.4801768489619
 20
5.99999999999995
 30
0.0
 11
-129.4801768489619
 21
-6.000000000000032
 31
0.0
  0
LINE
  5
10D
330
106
100
AcDbEntity
  8
치수문자_일반주서
 62
     0
370
    -2
100
AcDbLine
 10
-129.4801768489619
 20
9.30199999999995
 30
0.0
 11
-129.4801768489619
 21
12.60399999999995
 31
0.0
  0
LINE
  5
10E
330
106
100
AcDbEntity
  8
치수문자_일반주서
 62
     0
370
    -2
100
AcDbLine
 10
-129.4801768489619
 20
-9.302000000000032
 30
0.0
 11
-129.4801768489619
 21
-12.60400000000003
 31
0.0
  0
SOLID
  5
10F
330
106
100
AcDbEntity
  8
치수문자_일반주서
 62
     0
100
AcDbTrace
 10
-130.0305101822953
 20
9.301999999999948
 30
0.0
 11
-128.9298435156286
 21
9.301999999999952
 31
0.0
 12
-129.4801768489619
 22
5.99999999999995
 32
0.0
 13
-129.4801768489619
 23
5.99999999999995
 33
0.0
  0
SOLID
  5
110
330
106
100
AcDbEntity
  8
치수문자_일반주서
 62
     0
100
AcDbTrace
 10
-128.9298435156286
 20
-9.30200000000003
 30
0.0
 11
-130.0305101822952
 21
-9.302000000000033
 31
0.0
 12
-129.4801768489619
 22
-6.000000000000032
 32
0.0
 13
-129.4801768489619
 23
-6.000000000000032
 33
0.0
  0
MTEXT
  5
111
330
106
100
AcDbEntity
  8
치수문자_일반주서
 62
     0
100
AcDbMText
 10
-133.855176848962
 20
16.54149999999994
 30
0.0
 40
3.5
 41
0.0
 71
     2
 72
     1
  1
\A1;%%c12
  7
SLDTEXTSTYLE0
 11
-2.368475785867004E-15
 21
1.0
 31
0.0
 73
     1
 44
1.0
  0
POINT
  5
144
330
106
100
AcDbEntity
  8
Defpoints
 62
     0
100
AcDbPoint
 10
-119.0
 20
5.999999999999989
 30
0.0
  0
POINT
  5
145
330
106
100
AcDbEntity
  8
Defpoints
 62
     0
100
AcDbPoint
 10
-119.0
 20
-5.999999999999995
 30
0.0
  0
POINT
  5
146
330
106
100
AcDbEntity
  8
Defpoints
 62
     0
100
AcDbPoint
 10
-129.4801768489619
 20
-6.000000000000034
 30
0.0
  0
ENDBLK
  5
108
330
106
100
AcDbEntity
  8
0
100
AcDbBlockEnd
  0
BLOCK
  5
113
330
112
100
AcDbEntity
  8
0
100
AcDbBlockBegin
  2
SW_DOWELSYMBOL_0
 70
     0
 10
0.0
 20
0.0
 30
0.0
  3
SW_DOWELSYMBOL_0
  1

  0
CIRCLE
  5
115
330
112
100
AcDbEntity
  8
외형선
 62
     0
100
AcDbCircle
 10
0.0
 20
0.0
 30
0.0
 40
3.000000000000004
  0
HATCH
  5
116
330
112
100
AcDbEntity
  8
0
  6
Continuous
 62
     0
370
    30
100
AcDbHatch
 10
0.0
 20
0.0
 30
0.0
210
0.0
220
0.0
230
1.0
  2
SOLID
 70
     1
 71
     0
 91
        1
 92
        0
 93
        3
 72
     2
 10
0.0000000000000104
 20
0.0
 40
3.000000000000004
 50
0.0
 51
90.0
 73
     1
 72
     1
 10
0.0000000000000104
 20
3.000000000000004
 11
0.0000000000000104
 21
0.0
 72
     1
 10
0.0000000000000104
 20
0.0
 11
3.000000000000015
 21
0.0
 97
        0
 75
     0
 76
     1
 98
        1
 10
0.0
 20
0.0
  0
HATCH
  5
117
330
112
100
AcDbEntity
  8
0
  6
Continuous
 62
     0
370
    30
100
AcDbHatch
 10
0.0
 20
0.0
 30
0.0
210
0.0
220
0.0
230
1.0
  2
SOLID
 70
     1
 71
     0
 91
        1
 92
        0
 93
        3
 72
     2
 10
0.0000000000000104
 20
0.0
 40
3.000000000000004
 50
180.0
 51
270.0000000000008
 73
     1
 72
     1
 10
0.0000000000000104
 20
-3.000000000000004
 11
0.0000000000000104
 21
0.0
 72
     1
 10
0.0000000000000104
 20
0.0
 11
-2.999999999999994
 21
0.0
 97
        0
 75
     0
 76
     1
 98
        1
 10
0.0
 20
0.0
  0
ENDBLK
  5
114
330
112
100
AcDbEntity
  8
0
100
AcDbBlockEnd
  0
ENDSEC
  0
SECTION
  2
ENTITIES
  0
LINE
  5
95
330
1F
100
AcDbEntity
  8
0
  6
Continuous
 62
     1
370
    15
100
AcDbLine
 10
28.75973561700009
 20
1.540913294838618
 30
0.0
 11
28.42313577294259
 21
1.725200363005196
 31
0.0
  0
LINE
  5
96
330
1F
100
AcDbEntity
  8
0
  6
Continuous
 62
     1
370
    15
100
AcDbLine
 10
61.25258344716443
 20
1.625909784796898
 30
0.0
 11
61.07114178317669
 21
1.725411690111563
 31
0.0
  0
LINE
  5
97
330
1F
100
AcDbEntity
  8
0
  6
Continuous
 62
     1
370
    15
100
AcDbLine
 10
15.13068925406484
 20
-6.000000000000001
 30
0.0
 11
18.03826593280695
 21
-6.000000000000001
 31
0.0
  0
LINE
  5
98
330
1F
100
AcDbEntity
  8
0
  6
Continuous
 62
     1
370
    15
100
AcDbLine
 10
50.68436286828203
 20
6.000000000000012
 30
0.0
 11
47.77733881745856
 21
6.000000000000012
 31
0.0
  0
LINE
  5
99
330
1F
100
AcDbEntity
  8
0
  6
Continuous
 62
     1
370
    15
100
AcDbLine
 10
47.77733881745859
 20
-6.000000000000001
 30
0.0
 11
50.68436286828209
 21
-6.000000000000001
 31
0.0
  0
LINE
  5
9A
330
1F
100
AcDbEntity
  8
0
  6
Continuous
 62
     1
370
    15
100
AcDbLine
 10
18.03826593280697
 20
6.000000000000012
 30
0.0
 11
15.13068925406485
 21
6.000000000000012
 31
0.0
  0
LINE
  5
9B
330
1F
100
AcDbEntity
  8
0
  6
Continuous
 62
     1
370
    15
100
AcDbLine
 10
62.87010014331489
 20
2.329081179201002
 30
0.0
 11
62.79044388459319
 21
2.370046192798627
 31
0.0
  0
SPLINE
  5
9C
330
1F
100
AcDbEntity
  8
0
  6
Continuous
 62
     1
370
    15
100
AcDbSpline
210
0.0
220
0.0
230
1.0
 70
     8
 71
     3
 72
     9
 73
     5
 74
     0
 42
0.000000001
 43
0.00000001
 40
0.0
 40
0.0
 40
0.0
 40
0.0
 40
0.4770970342628157
 40
1.0
 40
1.0
 40
1.0
 40
1.0
 10
64.4561648200368
 20
1.537430141871289
 30
0.0
 10
64.2013617289276
 20
1.658552424995725
 30
0.0
 10
63.66729198459786
 20
1.912425902351516
 30
0.0
 10
63.14382341226037
 20
2.186018695998612
 30
0.0
 10
62.87010014331489
 20
2.329081179201002
 30
0.0
  0
LINE
  5
9D
330
1F
100
AcDbEntity
  8
0
  6
Continuous
 62
     1
370
    15
100
AcDbLine
 10
30.2290114583656
 20
2.325324141108558
 30
0.0
 11
30.141764252553
 21
2.370200856569013
 31
0.0
  0
SPLINE
  5
9E
330
1F
100
AcDbEntity
  8
0
  6
Continuous
 62
     1
370
    15
100
AcDbSpline
210
0.0
220
0.0
230
1.0
 70
     8
 71
     3
 72
     9
 73
     5
 74
     0
 42
0.000000001
 43
0.00000001
 40
0.0
 40
0.0
 40
0.0
 40
0.0
 40
0.4814232978848097
 40
0.9999999999999999
 40
0.9999999999999999
 40
0.9999999999999999
 40
0.9999999999999999
 10
31.80754925505848
 20
1.537536467967488
 30
0.0
 10
31.55138365042837
 20
1.659309378252344
 30
0.0
 10
31.01928309410797
 20
1.912252912185743
 30
0.0
 10
30.49888024936419
 20
2.184265006370685
 30
0.0
 10
30.2290114583656
 20
2.325324141108558
 30
0.0
  0
SPLINE
  5
9F
330
1F
100
AcDbEntity
  8
0
  6
Continuous
 62
     1
370
    15
100
AcDbSpline
210
0.0
220
0.0
230
1.0
 70
     8
 71
     3
 72
    11
 73
     7
 74
     0
 42
0.000000001
 43
0.00000001
 40
0.0
 40
0.0
 40
0.0
 40
0.0
 40
0.2214298058055477
 40
0.5108130231547356
 40
0.6903506340889587
 40
1.0
 40
1.0
 40
1.0
 40
1.0
 10
20.80018825834978
 20
-4.992833121729842
 30
0.0
 10
21.46635510171277
 20
-4.931916744110119
 30
0.0
 10
23.00312517630032
 20
-4.791389686795661
 30
0.0
 10
25.08078985006217
 20
-4.699244294275792
 30
0.0
 10
27.42020391898387
 20
-4.671286951456461
 30
0.0
 10
28.89217988115753
 20
-4.73040757657058
 30
0.0
 10
29.82392263985232
 20
-4.767830208294977
 30
0.0
  0
SPLINE
  5
A0
330
1F
100
AcDbEntity
  8
0
  6
Continuous
 62
     1
370
    15
100
AcDbSpline
210
0.0
220
0.0
230
1.0
 70
     8
 71
     3
 72
    14
 73
    10
 74
     0
 42
0.000000001
 43
0.00000001
 40
0.0
 40
0.0
 40
0.0
 40
0.0
 40
0.2432541225696811
 40
0.409055899937356
 40
0.5197519235870545
 40
0.6343370132027213
 40
0.7527930760844436
 40
0.8707094590194628
 40
1.0
 40
1.0
 40
1.0
 40
1.0
 10
62.4723632010139
 20
4.76783299162988
 30
0.0
 10
62.06328179415856
 20
4.74839448665476
 30
0.0
 10
61.37537089151426
 20
4.715706715273795
 30
0.0
 10
60.50428793210984
 20
4.69480609882612
 30
0.0
 10
59.85178398669613
 20
4.686421349459057
 30
0.0
 10
59.27595509891288
 20
4.68473804896427
 30
0.0
 10
58.68748708563112
 20
4.689796554511555
 30
0.0
 10
58.07484135569259
 20
4.698703612643458
 30
0.0
 10
57.66039399188845
 20
4.716823718684018
 30
0.0
 10
57.44363580799346
 20
4.726300630881704
 30
0.0
  0
SPLINE
  5
A1
330
1F
100
AcDbEntity
  8
0
  6
Continuous
 62
     1
370
    15
100
AcDbSpline
210
0.0
220
0.0
230
1.0
 70
     8
 71
     3
 72
    20
 73
    16
 74
     0
 42
0.000000001
 43
0.00000001
 40
0.0
 40
0.0
 40
0.0
 40
0.0
 40
0.1253504511517448
 40
0.2146290462466187
 40
0.2705354954941925
 40
0.3209510363808244
 40
0.3722380925757474
 40
0.4240031792191654
 40
0.4757770506482419
 40
0.527394658057414
 40
0.6099538224504004
 40
0.6892587474487608
 40
0.7596647855839433
 40
0.8583870268324882
 40
1.0
 40
1.0
 40
1.0
 40
1.0
 10
53.44871790715152
 20
-4.992818999213049
 30
0.0
 10
53.82611048274057
 20
-4.956772632056837
 30
0.0
 10
54.47229410485756
 20
-4.895052890864785
 30
0.0
 10
55.28561665342173
 20
-4.83389056522858
 30
0.0
 10
55.87379311241332
 20
-4.795234757515921
 30
0.0
 10
56.34762037810081
 20
-4.767899633885395
 30
0.0
 10
56.80920433815095
 20
-4.744971874776377
 30
0.0
 10
57.27491906824707
 20
-4.725570090372496
 30
0.0
 10
57.74158259292678
 20
-4.709892160820131
 30
0.0
 10
58.30071981532915
 20
-4.695603780929577
 30
0.0
 10
58.94260747178936
 20
-4.68610594143495
 30
0.0
 10
59.64137240397087
 20
-4.68475014119489
 30
0.0
 10
60.38845598496005
 20
-4.692441394140798
 30
0.0
 10
61.32209921953021
 20
-4.713505796714941
 30
0.0
 10
62.04588571626405
 20
-4.747690375835752
 30
0.0
 10
62.4723632010139
 20
-4.767832991629864
 30
0.0
  0
SPLINE
  5
A2
330
1F
100
AcDbEntity
  8
0
  6
Continuous
 62
     1
370
    15
100
AcDbSpline
210
0.0
220
0.0
230
1.0
 70
     8
 71
     3
 72
    10
 73
     6
 74
     0
 42
0.000000001
 43
0.00000001
 40
0.0
 40
0.0
 40
0.0
 40
0.0
 40
0.4001112116597795
 40
0.9235997957982502
 40
1.0
 40
1.0
 40
1.0
 40
1.0
 10
29.82392263985233
 20
4.767830208294991
 30
0.0
 10
29.15848697552195
 20
4.739761812484097
 30
0.0
 10
27.6224234367301
 20
4.674969914921948
 30
0.0
 10
25.96074731539296
 20
4.674100675022547
 30
0.0
 10
24.96352046492067
 20
4.71725997900291
 30
0.0
 10
24.83651636600701
 20
4.722756630551322
 30
0.0
  0
SPLINE
  5
A3
330
1F
100
AcDbEntity
  8
0
  6
Continuous
 62
     1
370
    15
100
AcDbSpline
210
0.0
220
0.0
230
1.0
 70
     8
 71
     3
 72
    13
 73
     9
 74
     0
 42
0.000000001
 43
0.00000001
 40
0.0
 40
0.0
 40
0.0
 40
0.0
 40
0.2597850492689365
 40
0.4341678694533564
 40
0.5816027098616517
 40
0.7287745502323826
 40
0.8728678129530444
 40
1.0
 40
1.0
 40
1.0
 40
1.0
 10
67.28800008359767
 20
-4.512838578327955
 30
0.0
 10
67.67952734301672
 20
-4.453824432676766
 30
0.0
 10
68.3338704491086
 20
-4.35519656337832
 30
0.0
 10
69.21097337329309
 20
-4.245797511227484
 30
0.0
 10
69.91918903295338
 20
-4.167954356431011
 30
0.0
 10
70.58084206729191
 20
-4.105846819846043
 30
0.0
 10
71.2115719932221
 20
-4.054881519814738
 30
0.0
 10
71.62037917106429
 20
-4.030168150730458
 30
0.0
 10
71.81200038745126
 20
-4.018584191099552
 30
0.0
  0
SPLINE
  5
A4
330
1F
100
AcDbEntity
  8
0
  6
Continuous
 62
     1
370
    15
100
AcDbSpline
210
0.0
220
0.0
230
1.0
 70
     8
 71
     3
 72
    19
 73
    15
 74
     0
 42
0.000000001
 43
0.00000001
 40
0.0
 40
0.0
 40
0.0
 40
0.0
 40
0.1276422445249191
 40
0.2113834972228486
 40
0.2648609820903682
 40
0.3196881372981363
 40
0.4938806712377372
 40
0.5842897615578015
 40
0.6701110037896678
 40
0.7175421318335268
 40
0.7706174138013114
 40
0.8247039796610752
 40
0.9011426599454427
 40
1.0
 40
1.0
 40
1.0
 40
1.0
 10
45.12216014370122
 20
4.103706895514041
 30
0.0
 10
44.67309605360032
 20
4.068983638467948
 30
0.0
 10
43.92941798529282
 20
4.011479764756781
 30
0.0
 10
43.00377881990447
 20
3.972363331188202
 30
0.0
 10
42.34071952860277
 20
3.954790264921826
 30
0.0
 10
41.3548553909526
 20
3.942453664176978
 30
0.0
 10
40.23803103762258
 20
3.961454344582474
 30
0.0
 10
39.01334993688273
 20
4.023353550775592
 30
0.0
 10
38.23247718550101
 20
4.080338990127019
 30
0.0
 10
37.58159268862369
 20
4.138120297303143
 30
0.0
 10
37.04120840560709
 20
4.192492173439524
 30
0.0
 10
36.40062357888207
 20
4.265440398212008
 30
0.0
 10
35.59952791358022
 20
4.367452179467484
 30
0.0
 10
34.9856020492475
 20
4.46043665198445
 30
0.0
 10
34.63938153710305
 20
4.512874794057675
 30
0.0
  0
SPLINE
  5
A5
330
1F
100
AcDbEntity
  8
0
  6
Continuous
 62
     1
370
    15
100
AcDbSpline
210
0.0
220
0.0
230
1.0
 70
     8
 71
     3
 72
    13
 73
     9
 74
     0
 42
0.000000001
 43
0.00000001
 40
0.0
 40
0.0
 40
0.0
 40
0.0
 40
0.2284448538728303
 40
0.4050834639968451
 40
0.5300696069326947
 40
0.7088317851873231
 40
0.8617846702051172
 40
1.0
 40
1.0
 40
1.0
 40
1.0
 10
34.63938153710303
 20
-4.512874794057662
 30
0.0
 10
34.98560348317316
 20
-4.460435110692925
 30
0.0
 10
35.59953189017457
 20
-4.367447905123782
 30
0.0
 10
36.40061318310731
 20
-4.26545157237518
 30
0.0
 10
37.12596123461086
 20
-4.182810592569669
 30
0.0
 10
37.81688805399391
 20
-4.115555687244249
 30
0.0
 10
38.52699904794412
 20
-4.057348202542597
 30
0.0
 10
38.96707723101616
 20
-4.030327394788611
 30
0.0
 10
39.17597898647723
 20
-4.017500823531704
 30
0.0
  0
SPLINE
  5
A6
330
1F
100
AcDbEntity
  8
0
  6
Continuous
 62
     1
370
    15
100
AcDbSpline
210
0.0
220
0.0
230
1.0
 70
     8
 71
     3
 72
    22
 73
    18
 74
     0
 42
0.000000001
 43
0.00000001
 40
0.0
 40
0.0
 40
0.0
 40
0.0
 40
0.11088146833947
 40
0.1886224526731768
 40
0.2396385760172939
 40
0.2903823004330569
 40
0.3429043960310981
 40
0.3953888353590107
 40
0.4472582215497137
 40
0.4974295012044547
 40
0.5531608899223218
 40
0.609251593402411
 40
0.6657061464960301
 40
0.7213853190364725
 40
0.7808831419250557
 40
0.8721268201116259
 40
0.9999999999999999
 40
0.9999999999999999
 40
0.9999999999999999
 40
0.9999999999999999
 10
77.78057806277951
 20
4.104570697908273
 30
0.0
 10
77.3896894518395
 20
4.073813348342003
 30
0.0
 10
76.72474183145103
 20
4.02149146985502
 30
0.0
 10
75.88438239177263
 20
3.9815603522001
 30
0.0
 10
75.264272394024
 20
3.961206086605469
 30
0.0
 10
74.72657917088343
 20
3.950667660814615
 30
0.0
 10
74.18125686830918
 20
3.947165431409662
 30
0.0
 10
73.63263205303679
 20
3.951054896597725
 30
0.0
 10
73.09225562451681
 20
3.962214543311472
 30
0.0
 10
72.54599613820848
 20
3.980565091787266
 30
0.0
 10
71.98959383801271
 20
4.006266595202565
 30
0.0
 10
71.39915523025053
 20
4.042160182677148
 30
0.0
 10
70.80303852691667
 20
4.087215279896885
 30
0.0
 10
70.19908614749475
 20
4.140683736095544
 30
0.0
 10
69.47747554407542
 20
4.214705007525017
 30
0.0
 10
68.50442938888018
 20
4.330670430825447
 30
0.0
 10
67.73628005235088
 20
4.445705756785745
 30
0.0
 10
67.28800008359764
 20
4.512838578327973
 30
0.0
  0
SPLINE
  5
A7
330
1F
100
AcDbEntity
  8
0
  6
Continuous
 62
     1
370
    15
100
AcDbSpline
210
0.0
220
0.0
230
1.0
 70
     8
 71
     3
 72
     9
 73
     5
 74
     0
 42
0.000000001
 43
0.00000001
 40
0.0
 40
0.0
 40
0.0
 40
0.0
 40
0.4995874715422901
 40
1.0
 40
1.0
 40
1.0
 40
1.0
 10
12.4737789002018
 20
4.103707526709672
 30
0.0
 10
12.06070373783439
 20
4.071130637244388
 30
0.0
 10
11.23387122922045
 20
4.005923058349916
 30
0.0
 10
10.41151657287217
 20
3.977480107883457
 30
0.0
 10
9.99999999999995
 20
3.96324689912374
 30
0.0
  0
LINE
  5
A8
330
1F
100
AcDbEntity
  8
0
  6
Continuous
 62
   131
370
    15
100
AcDbLine
 10
7.970077293424829
 20
6.000000000000005
 30
0.0
 11
-119.0
 21
5.999999999999997
 31
0.0
  0
LINE
  5
A9
330
1F
100
AcDbEntity
  8
0
  6
Continuous
 62
   131
370
    15
100
AcDbLine
 10
-119.0
 20
-6.000000000000003
 30
0.0
 11
7.970077293424829
 21
-5.999999999999995
 31
0.0
  0
LINE
  5
AA
330
1F
100
AcDbEntity
  8
0
  6
Continuous
 62
   131
370
    15
100
AcDbLine
 10
-119.0
 20
5.999999999999989
 30
0.0
 11
-120.0
 21
4.999999999999988
 31
0.0
  0
LINE
  5
AB
330
1F
100
AcDbEntity
  8
0
  6
Continuous
 62
   131
370
    15
100
AcDbLine
 10
-120.0
 20
-4.999999999999995
 30
0.0
 11
-119.0
 21
-5.999999999999995
 31
0.0
  0
SPLINE
  5
AC
330
1F
100
AcDbEntity
  8
0
  6
Continuous
 62
   131
370
    15
100
AcDbSpline
210
0.0
220
0.0
230
1.0
 70
     8
 71
     3
 72
     9
 73
     5
 74
     0
 42
0.000000001
 43
0.00000001
 40
0.0
 40
0.0
 40
0.0
 40
0.0
 40
0.4391781085875574
 40
1.0
 40
1.0
 40
1.0
 40
1.0
 10
10.00000000000001
 20
3.963246899123742
 30
0.0
 10
9.7025748540128
 20
3.956853890316257
 30
0.0
 10
9.025343589130864
 20
3.94229713376925
 30
0.0
 10
8.349259524735011
 20
3.953002364753574
 30
0.0
 10
7.970096780986717
 20
3.959006092642207
 30
0.0
  0
SPLINE
  5
AD
330
1F
100
AcDbEntity
  8
0
  6
Continuous
 62
     1
370
    15
100
AcDbSpline
210
0.0
220
0.0
230
1.0
 70
     8
 71
     3
 72
    21
 73
    17
 74
     0
 42
0.000000001
 43
0.00000001
 40
0.0
 40
0.0
 40
0.0
 40
0.0
 40
0.0704618708595493
 40
0.1409516961282585
 40
0.2114754253502328
 40
0.2819977090370259
 40
0.3524832131530878
 40
0.4229477115148075
 40
0.5024204122248451
 40
0.5818665178743627
 40
0.661272268171209
 40
0.7407552427671027
 40
0.8201582385436883
 40
0.8996077072982624
 40
0.9790785064836369
 40
1.0
 40
1.0
 40
1.0
 40
1.0
 10
9.9999999999983
 20
5.283356515890282
 30
0.0
 10
10.88708785190152
 20
5.492641160274164
 30
0.0
 10
12.66161549096698
 20
5.911293478750171
 30
0.0
 10
15.32424273343676
 20
6.060780544493715
 30
0.0
 10
17.98796466662596
 20
5.839289854013125
 30
0.0
 10
20.65159772781364
 20
5.229896141492059
 30
0.0
 10
23.31422337615782
 20
4.280706970740139
 30
0.0
 10
26.08893432928316
 20
2.999028870074025
 30
0.0
 10
28.9783414121214
 20
1.436323497999893
 30
0.0
 10
31.97971252863032
 20
-0.3065973458923087
 30
0.0
 10
34.98057352009575
 20
-2.026084594006037
 30
0.0
 10
37.98228693833241
 20
-3.572557517804583
 30
0.0
 10
40.98310365454218
 20
-4.835791367682971
 30
0.0
 10
43.9845415557527
 20
-5.65861017255876
 30
0.0
 10
46.24980613074204
 20
-6.034843469735725
 30
0.0
 10
47.51390408182417
 20
-5.965958409884969
 30
0.0
 10
47.77733881745858
 20
-5.951602942007336
 30
0.0
  0
SPLINE
  5
AE
330
1F
100
AcDbEntity
  8
0
  6
Continuous
 62
     1
370
    15
100
AcDbSpline
210
0.0
220
0.0
230
1.0
 70
     8
 71
     3
 72
    10
 73
     6
 74
     0
 42
0.000000001
 43
0.00000001
 40
0.0
 40
0.0
 40
0.0
 40
0.0
 40
0.2668172063080762
 40
0.6335355150283081
 40
1.0
 40
1.0
 40
1.0
 40
1.0
 10
71.81179470679025
 20
4.018502359747139
 30
0.0
 10
72.53992342392186
 20
4.324072536051625
 30
0.0
 10
74.2688051860757
 20
5.049623791538605
 30
0.0
 10
76.99887063963286
 20
5.771373725830931
 30
0.0
 10
78.99985445631536
 20
5.920427703411057
 30
0.0
 10
80.0
 20
6.000000000000264
 30
0.0
  0
SPLINE
  5
AF
330
1F
100
AcDbEntity
  8
0
  6
Continuous
 62
     1
370
    15
100
AcDbSpline
210
0.0
220
0.0
230
1.0
 70
    24
 71
     3
 72
    10
 73
     6
 74
     0
 42
0.000000001
 43
0.00000001
 40
0.0
 40
0.0
 40
0.0
 40
0.0
 40
0.5
 40
0.5
 40
1.0
 40
1.0
 40
1.0
 40
1.0
 10
80.00000000000001
 20
4.200000000000012
 30
0.0
 10
80.00000000000003
 20
4.454593540843896
 30
0.0
 10
80.0
 20
4.750454813202714
 30
0.0
 10
79.99999999999999
 20
5.371170965765145
 30
0.0
 10
80.0
 20
5.694440614808851
 30
0.0
 10
79.99999999999999
 20
6.000000000000266
 30
0.0
  0
LINE
  5
B0
330
1F
100
AcDbEntity
  8
0
  6
Continuous
 62
     1
370
    15
100
AcDbLine
 10
80.00000000000001
 20
4.200000000000013
 30
0.0
 11
77.77102702487907
 21
4.070812746375223
 31
0.0
  0
SPLINE
  5
B1
330
1F
100
AcDbEntity
  8
0
  6
Continuous
 62
     1
370
    15
100
AcDbSpline
210
0.0
220
0.0
230
1.0
 70
     8
 71
     3
 72
    15
 73
    11
 74
     0
 42
0.000000001
 43
0.00000001
 40
0.0
 40
0.0
 40
0.0
 40
0.0
 40
0.0235333745813105
 40
0.1736878184565082
 40
0.3238969364362263
 40
0.4739361306628496
 40
0.6241511317612906
 40
0.7742930730039954
 40
0.9487051621722714
 40
0.9999999999999999
 40
0.9999999999999999
 40
0.9999999999999999
 40
0.9999999999999999
 10
32.4505262516408
 20
-0.5685917649916038
 30
0.0
 10
32.29372696842361
 20
-0.5073373924924077
 30
0.0
 10
31.13647154194661
 20
-0.0552501538540096
 30
0.0
 10
28.97826502302925
 20
0.8384850168759419
 30
0.0
 10
25.97682020665863
 20
1.987873786104325
 30
0.0
 10
22.97580376815683
 20
2.97884147721258
 30
0.0
 10
19.97430516815707
 20
3.726851203318043
 30
0.0
 10
16.81113606971441
 20
4.163162099421545
 30
0.0
 10
14.30610005133349
 20
4.288692236618665
 30
0.0
 10
12.80199219077766
 20
4.098479335441152
 30
0.0
 10
12.46016409622393
 20
4.055250977107182
 30
0.0
  0
SPLINE
  5
B2
330
1F
100
AcDbEntity
  8
0
  6
Continuous
 62
   131
370
    15
100
AcDbSpline
210
0.0
220
0.0
230
1.0
 70
    24
 71
     3
 72
    10
 73
     6
 74
     0
 42
0.000000001
 43
0.00000001
 40
0.0
 40
0.0
 40
0.0
 40
0.0
 40
0.0973441077571022
 40
0.6060038718879316
 40
1.0
 40
1.0
 40
1.0
 40
1.0
 10
9.999999999999993
 20
5.283356515890741
 30
0.0
 10
9.99999999999999
 20
5.23331397953131
 30
0.0
 10
9.999999999999982
 20
4.921780272030713
 30
0.0
 10
9.99999999999999
 20
4.415479684304826
 30
0.0
 10
9.99999999999999
 20
4.100660764655611
 30
0.0
 10
9.99999999999999
 20
3.963246899123742
 30
0.0
  0
SPLINE
  5
B3
330
1F
100
AcDbEntity
  8
0
  6
Continuous
 62
     1
370
    15
100
AcDbSpline
210
0.0
220
0.0
230
1.0
 70
     8
 71
     3
 72
     9
 73
     5
 74
     0
 42
0.000000001
 43
0.00000001
 40
0.0
 40
0.0
 40
0.0
 40
0.0
 40
0.518722479365775
 40
1.0
 40
1.0
 40
1.0
 40
1.0
 10
9.9999999999983
 20
-5.283356515890272
 30
0.0
 10
10.88708255614569
 20
-5.49898263576555
 30
0.0
 10
12.59721194408351
 20
-5.914669498110356
 30
0.0
 10
14.30754459592622
 20
-5.963366730491479
 30
0.0
 10
15.13068925406484
 20
-5.986803613753615
 30
0.0
  0
SPLINE
  5
B4
330
1F
100
AcDbEntity
  8
0
  6
Continuous
 62
     1
370
    15
100
AcDbSpline
210
0.0
220
0.0
230
1.0
 70
     8
 71
     3
 72
    21
 73
    17
 74
     0
 42
0.000000001
 43
0.00000001
 40
0.0
 40
0.0
 40
0.0
 40
0.0
 40
0.0441951865858737
 40
0.1177261079846566
 40
0.1912767708147563
 40
0.264753017392993
 40
0.3383094483018666
 40
0.4118281112648796
 40
0.4853266725825265
 40
0.5588878582633405
 40
0.6323701020959187
 40
0.7059086876715039
 40
0.779453854187667
 40
0.8529322098237914
 40
0.9264915619316957
 40
1.0
 40
1.0
 40
1.0
 40
1.0
 10
39.17870940747748
 20
4.018626303616012
 30
0.0
 10
39.78001183392626
 20
4.278740004156043
 30
0.0
 10
41.38174722314106
 20
4.971624817269432
 30
0.0
 10
43.98453948575395
 20
5.673626638543688
 30
0.0
 10
46.98623760436373
 20
6.068764992014295
 30
0.0
 10
49.98687714742915
 20
5.946321400056649
 30
0.0
 10
52.98860021437937
 20
5.335748271717371
 30
0.0
 10
55.9898777606634
 20
4.281951336883986
 30
0.0
 10
58.99085119065978
 20
2.872905956983304
 30
0.0
 10
61.99257058330416
 20
1.228103605068213
 30
0.0
 10
64.99329915988332
 20
-0.5213684684070568
 30
0.0
 10
67.9948499781973
 20
-2.225087791123069
 30
0.0
 10
70.99647757069145
 20
-3.747071531510705
 30
0.0
 10
73.99715053827055
 20
-4.950641553771867
 30
0.0
 10
76.99887575928823
 20
-5.778163872231713
 30
0.0
 10
78.99985616247324
 20
-5.922690563104262
 30
0.0
 10
80.0
 20
-5.999999999999733
 30
0.0
  0
SPLINE
  5
B5
330
1F
100
AcDbEntity
  8
0
  6
Continuous
 62
     1
370
    15
100
AcDbSpline
210
0.0
220
0.0
230
1.0
 70
     8
 71
     3
 72
    15
 73
    11
 74
     0
 42
0.000000001
 43
0.00000001
 40
0.0
 40
0.0
 40
0.0
 40
0.0
 40
0.0051474851333177
 40
0.1552348057719348
 40
0.3054974988347094
 40
0.455621072168109
 40
0.605789297489312
 40
0.7560414286304147
 40
0.9061154268580959
 40
1.0
 40
1.0
 40
1.0
 40
1.0
 10
65.09558515610638
 20
-0.5709456343801219
 30
0.0
 10
65.0612933443318
 20
-0.557653392071592
 30
0.0
 10
64.02714120935256
 20
-0.1567938267505758
 30
0.0
 10
61.99239884462725
 20
0.6932439431311809
 30
0.0
 10
58.99101444932813
 20
1.853591527827511
 30
0.0
 10
55.98983511480506
 20
2.870289780188574
 30
0.0
 10
52.98850849077434
 20
3.64993175758719
 30
0.0
 10
49.98708716484012
 20
4.113472989714285
 30
0.0
 10
47.36142706887914
 20
4.267576536192213
 30
0.0
 10
45.73613308353729
 20
4.119469108508449
 30
0.0
 10
45.11065790065161
 20
4.06247171526593
 30
0.0
  0
LINE
  5
B6
330
1F
100
AcDbEntity
  8
0
  6
Continuous
 62
   131
370
    15
100
AcDbLine
 10
9.999999999999993
 20
-5.283356515890731
 30
0.0
 11
9.999999999999993
 21
-4.292512417078392
 31
0.0
  0
SPLINE
  5
B7
330
1F
100
AcDbEntity
  8
0
  6
Continuous
 62
     1
370
    15
100
AcDbSpline
210
0.0
220
0.0
230
1.0
 70
     8
 71
     3
 72
    17
 73
    13
 74
     0
 42
0.000000001
 43
0.00000001
 40
0.0
 40
0.0
 40
0.0
 40
0.0
 40
0.1023591183053681
 40
0.2047891338621639
 40
0.307106363684533
 40
0.4095166244237527
 40
0.5119177250276556
 40
0.6142403667774349
 40
0.7166729347171399
 40
0.8190183048118057
 40
0.9213916557340315
 40
1.0
 40
1.0
 40
1.0
 40
1.0
 10
80.00000000000003
 20
-5.693645215391391
 30
0.0
 10
78.9998572904128
 20
-5.465376802094611
 30
0.0
 10
76.9988791398988
 20
-5.008681869380576
 30
0.0
 10
73.99715730096936
 20
-3.783815634619503
 30
0.0
 10
70.99648768001136
 20
-2.277160269891727
 30
0.0
 10
67.99486358117392
 20
-0.5748072015613517
 30
0.0
 10
64.9933157307784
 20
1.173212008278457
 30
0.0
 10
61.99259200963832
 20
2.825301244040496
 30
0.0
 10
58.99087055051429
 20
4.244957472045378
 30
0.0
 10
55.98992073939411
 20
5.299119973822533
 30
0.0
 10
53.22131126454956
 20
5.920507046282382
 30
0.0
 10
51.45259462839935
 20
5.944884956250633
 30
0.0
 10
50.68436286828203
 20
5.955473359333478
 30
0.0
  0
SPLINE
  5
B8
330
1F
100
AcDbEntity
  8
0
  6
Continuous
 62
     1
370
    15
100
AcDbSpline
210
0.0
220
0.0
230
1.0
 70
     8
 71
     3
 72
    13
 73
     9
 74
     0
 42
0.000000001
 43
0.00000001
 40
0.0
 40
0.0
 40
0.0
 40
0.0
 40
0.1013698413797217
 40
0.2810674648383943
 40
0.4608588661467115
 40
0.6406539585215668
 40
0.8203626157203828
 40
1.0
 40
1.0
 40
1.0
 40
1.0
 10
24.81623773881672
 20
-4.729692293243408
 30
0.0
 10
24.31564212330017
 20
-4.910671597595242
 30
0.0
 10
22.92764408909789
 20
-5.412471675113784
 30
0.0
 10
20.65165601499199
 20
-5.865970093468801
 30
0.0
 10
17.98799036341524
 20
-6.069319862139055
 30
0.0
 10
15.32426429302273
 20
-5.856394565630508
 30
0.0
 10
12.66162529380671
 20
-5.285044186243243
 30
0.0
 10
10.88709111052426
 20
-4.623312590726314
 30
0.0
 10
9.999999999994362
 20
-4.292512417097649
 30
0.0
  0
LINE
  5
B9
330
1F
100
AcDbEntity
  8
0
  6
Continuous
 62
     1
370
    15
100
AcDbLine
 10
79.99999999999999
 20
-5.999999999999735
 30
0.0
 11
80.0
 21
-5.693645215391402
 31
0.0
  0
SPLINE
  5
BA
330
1F
100
AcDbEntity
  8
0
  6
Continuous
 62
     1
370
    15
100
AcDbSpline
210
0.0
220
0.0
230
1.0
 70
     8
 71
     3
 72
    21
 73
    17
 74
     0
 42
0.000000001
 43
0.00000001
 40
0.0
 40
0.0
 40
0.0
 40
0.0
 40
0.037332311787078
 40
0.1134545567448165
 40
0.1896159129633693
 40
0.2656942442018591
 40
0.3418496234726984
 40
0.4179845704438395
 40
0.4940749734086652
 40
0.5702420228889047
 40
0.6463350757559891
 40
0.7224667873758004
 40
0.798623995852848
 40
0.8661491444072009
 40
0.9336944136130629
 40
0.9999999999999999
 40
0.9999999999999999
 40
0.9999999999999999
 40
0.9999999999999999
 10
57.46185171159299
 20
-4.71991750389205
 30
0.0
 10
56.97127404756496
 20
-4.901641816797722
 30
0.0
 10
55.48038669671853
 20
-5.453910090138502
 30
0.0
 10
52.98864463973079
 20
-5.922256196720659
 30
0.0
 10
49.98690801588853
 20
-6.07380070843474
 30
0.0
 10
46.98627243977531
 20
-5.701080669605167
 30
0.0
 10
43.98459226406783
 20
-4.862323507287018
 30
0.0
 10
40.98314480518525
 20
-3.619379069226079
 30
0.0
 10
37.98233498149246
 20
-2.075601393597514
 30
0.0
 10
34.98062400887257
 20
-0.3624797852835105
 30
0.0
 10
31.97976657814243
 20
1.383449624259493
 30
0.0
 10
28.97839880635684
 20
3.012802998301567
 30
0.0
 10
26.08899077021128
 20
4.342928363954054
 30
0.0
 10
23.31427339423108
 20
5.296212198629142
 30
0.0
 10
20.66839160696335
 20
5.890141088135376
 30
0.0
 10
18.90954453554079
 20
5.961180792619116
 30
0.0
 10
18.03826593280697
 20
5.996371671614159
 30
0.0
  0
SPLINE
  5
BB
330
1F
100
AcDbEntity
  8
0
  6
Continuous
 62
   131
370
    15
100
AcDbSpline
210
0.0
220
0.0
230
1.0
 70
    24
 71
     3
 72
     8
 73
     4
 74
     0
 42
0.000000001
 43
0.00000001
 40
0.0
 40
0.0
 40
0.0
 40
0.0
 40
1.0
 40
1.0
 40
1.0
 40
1.0
 10
10.0000000000003
 20
-3.427232330018274
 30
0.0
 10
10.0000000000003
 20
-3.703048506437566
 30
0.0
 10
10.0000000000003
 20
-3.993272972451333
 30
0.0
 10
10.0000000000003
 20
-4.292512417088409
 30
0.0
  0
SPLINE
  5
BC
330
1F
100
AcDbEntity
  8
0
  6
Continuous
 62
     1
370
    15
100
AcDbSpline
210
0.0
220
0.0
230
1.0
 70
     8
 71
     3
 72
    13
 73
     9
 74
     0
 42
0.000000001
 43
0.00000001
 40
0.0
 40
0.0
 40
0.0
 40
0.0
 40
0.1925870172391695
 40
0.3853133910387463
 40
0.5778180715342787
 40
0.7705056147644924
 40
0.963175152664451
 40
1.0
 40
1.0
 40
1.0
 40
1.0
 10
80.00000000000003
 20
-4.733833586209282
 30
0.0
 10
78.99984471191124
 20
-4.512807355948704
 30
0.0
 10
76.99881042027856
 20
-4.070594960164772
 30
0.0
 10
73.9972646665985
 20
-2.967285839716973
 30
0.0
 10
70.99640023687084
 20
-1.640715648173117
 30
0.0
 10
67.99487475202059
 20
-0.1857110250912768
 30
0.0
 10
65.8020432800639
 20
0.9232148009210269
 30
0.0
 10
64.61024315921532
 20
1.456853818322241
 30
0.0
 10
64.41900598598468
 20
1.542481949607134
 30
0.0
  0
SPLINE
  5
BD
330
1F
100
AcDbEntity
  8
0
  6
Continuous
 62
     1
370
    15
100
AcDbSpline
210
0.0
220
0.0
230
1.0
 70
     8
 71
     3
 72
    12
 73
     8
 74
     0
 42
0.000000001
 43
0.00000001
 40
0.0
 40
0.0
 40
0.0
 40
0.0
 40
0.0773449258862898
 40
0.3549230840847246
 40
0.5699316629114417
 40
0.7849549718022203
 40
1.0
 40
1.0
 40
1.0
 40
1.0
 10
20.81032655793371
 20
-4.95038236654244
 30
0.0
 10
20.53154816680765
 20
-4.990529966767057
 30
0.0
 10
19.25228019646782
 20
-5.174760670036075
 30
0.0
 10
17.19796295941514
 20
-5.090757094500733
 30
0.0
 10
14.64868833567643
 20
-4.764805541878625
 30
0.0
 10
12.32439838457593
 20
-4.221419062980847
 30
0.0
 10
10.77482554702944
 20
-3.69197015374695
 30
0.0
 10
9.999999999999968
 20
-3.427232330018153
 30
0.0
  0
LINE
  5
BE
330
1F
100
AcDbEntity
  8
0
  6
Continuous
 62
     1
370
    15
100
AcDbLine
 10
80.00000000000001
 20
-5.693645215391395
 30
0.0
 11
80.00000000000001
 21
-4.733833586209281
 31
0.0
  0
SPLINE
  5
BF
330
1F
100
AcDbEntity
  8
0
  6
Continuous
 62
     1
370
    15
100
AcDbSpline
210
0.0
220
0.0
230
1.0
 70
     8
 71
     3
 72
    16
 73
    12
 74
     0
 42
0.000000001
 43
0.00000001
 40
0.0
 40
0.0
 40
0.0
 40
0.0
 40
0.021508869058322
 40
0.1598887238453748
 40
0.2981109873165553
 40
0.4364794970790022
 40
0.574809223845697
 40
0.7130544011166285
 40
0.8514450624759592
 40
0.9896952696001561
 40
0.9999999999999999
 40
0.9999999999999999
 40
0.9999999999999999
 40
0.9999999999999999
 10
53.45574123043247
 20
-4.965224444515474
 30
0.0
 10
53.30016901783615
 20
-4.989404983138201
 30
0.0
 10
52.14370456262093
 20
-5.169153878898287
 30
0.0
 10
49.98698948894297
 20
-5.105401345987779
 30
0.0
 10
46.98618167625238
 20
-4.735686122091477
 30
0.0
 10
43.98461775477309
 20
-3.935956721244051
 30
0.0
 10
40.9831985300145
 20
-2.821674763184899
 30
0.0
 10
37.98224476166101
 20
-1.464939635500446
 30
0.0
 10
34.98068557252856
 20
-0.0074743661319153
 30
0.0
 10
32.90562247030623
 20
1.047580428511796
 30
0.0
 10
31.83109710570832
 20
1.522676089277265
 30
0.0
 10
31.75656108304543
 20
1.555631794283917
 30
0.0
  0
SPLINE
  5
C0
330
1F
100
AcDbEntity
  8
0
  6
Continuous
 62
     1
370
    15
100
AcDbSpline
210
0.0
220
0.0
230
1.0
 70
     8
 71
     3
 72
     8
 73
     4
 74
     0
 42
0.000000001
 43
0.00000001
 40
0.0
 40
0.0
 40
0.0
 40
0.0
 40
1.0
 40
1.0
 40
1.0
 40
1.0
 10
76.28766238388738
 20
1.678126369560578
 30
0.0
 10
76.01854352449507
 20
1.99690824008025
 30
0.0
 10
75.7852895087321
 20
2.301017429348469
 30
0.0
 10
75.6006373060663
 20
2.584818657777569
 30
0.0
  0
LINE
  5
C1
330
1F
100
AcDbEntity
  8
0
  6
Continuous
 62
     1
370
    15
100
AcDbLine
 10
75.6006373060663
 20
2.584818657777574
 30
0.0
 11
80.00000000000001
 21
0.0000000000000135
 31
0.0
  0
LINE
  5
C2
330
1F
100
AcDbEntity
  8
0
  6
Continuous
 62
     1
370
    15
100
AcDbLine
 10
80.00000000000001
 20
0.0000000000000135
 30
0.0
 11
80.00000000000001
 21
-1.603457676177856
 31
0.0
  0
SPLINE
  5
C3
330
1F
100
AcDbEntity
  8
0
  6
Continuous
 62
     1
370
    15
100
AcDbSpline
210
0.0
220
0.0
230
1.0
 70
     8
 71
     3
 72
    12
 73
     8
 74
     0
 42
0.000000001
 43
0.00000001
 40
0.0
 40
0.0
 40
0.0
 40
0.0
 40
0.4999999999999969
 40
0.4999999999999969
 40
0.7499999999999984
 40
0.7499999999999984
 40
1.0
 40
1.0
 40
1.0
 40
1.0
 10
80.00000000000001
 20
-1.603457676177856
 30
0.0
 10
79.35738324975112
 20
-1.098253421645174
 30
0.0
 10
78.7255002752163
 20
-0.5723371630811751
 30
0.0
 10
77.79419516594552
 20
0.2484131373366936
 30
0.0
 10
77.48655768172873
 20
0.5273947563246798
 30
0.0
 10
76.87756600981882
 20
1.097482307906113
 30
0.0
 10
76.57786785258521
 20
1.387117232541318
 30
0.0
 10
76.28766238388774
 20
1.678126369559808
 30
0.0
  0
SPLINE
  5
C4
330
1F
100
AcDbEntity
  8
0
  6
Continuous
 62
   131
370
    15
100
AcDbSpline
210
0.0
220
0.0
230
1.0
 70
    24
 71
     3
 72
    14
 73
    10
 74
     0
 42
0.000000001
 43
0.00000001
 40
0.0
 40
0.0
 40
0.0
 40
0.0
 40
0.2499999999999999
 40
0.2499999999999999
 40
0.4999999999999999
 40
0.4999999999999999
 40
0.7499999999999999
 40
0.7499999999999999
 40
1.0
 40
1.0
 40
1.0
 40
1.0
 10
9.999999999999996
 20
2.099229313849647
 30
0.0
 10
9.999999999999996
 20
1.662496889105542
 30
0.0
 10
9.999999999999996
 20
1.199133792110788
 30
0.0
 10
9.999999999999996
 20
0.2474738079245374
 30
0.0
 10
9.999999999999996
 20
-0.2405933963518884
 30
0.0
 10
9.999999999999996
 20
-1.206479493718957
 30
0.0
 10
9.999999999999996
 20
-1.684019468225214
 30
0.0
 10
9.999999999999996
 20
-2.595052855387307
 30
0.0
 10
9.999999999999996
 20
-3.028348576208054
 30
0.0
 10
9.999999999999996
 20
-3.427232330018164
 30
0.0
  0
SPLINE
  5
C5
330
1F
100
AcDbEntity
  8
0
  6
Continuous
 62
     1
370
    15
100
AcDbSpline
210
0.0
220
0.0
230
1.0
 70
     8
 71
     3
 72
    12
 73
     8
 74
     0
 42
0.000000001
 43
0.00000001
 40
0.0
 40
0.0
 40
0.0
 40
0.0
 40
0.19148239588255
 40
0.3828710235526039
 40
0.6001052917155811
 40
0.8173189719871845
 40
1.0
 40
1.0
 40
1.0
 40
1.0
 10
76.28766238388822
 20
1.678126369560476
 30
0.0
 10
75.40564117836931
 20
2.049119908620903
 30
0.0
 10
73.64203068981425
 20
2.790925312594403
 30
0.0
 10
70.87834750899471
 20
3.738443744801573
 30
0.0
 10
67.99482923886258
 20
4.44634389875496
 30
0.0
 10
65.15172979799449
 20
4.832080451416997
 30
0.0
 10
63.30967263845674
 20
4.769580807617705
 30
0.0
 10
62.46817889374986
 20
4.741029544139699
 30
0.0
  0
SPLINE
  5
C6
330
1F
100
AcDbEntity
  8
0
  6
Continuous
 62
     1
370
    15
100
AcDbSpline
210
0.0
220
0.0
230
1.0
 70
     8
 71
     3
 72
    16
 73
    12
 74
     0
 42
0.000000001
 43
0.00000001
 40
0.0
 40
0.0
 40
0.0
 40
0.0
 40
0.1082680535028806
 40
0.2300295419689155
 40
0.3518342149692198
 40
0.47350467953931
 40
0.5953139973970029
 40
0.7170656147325825
 40
0.8113694887732159
 40
0.905679915741245
 40
1.0
 40
1.0
 40
1.0
 40
1.0
 10
34.64886337749577
 20
-4.492540803085875
 30
0.0
 10
33.75929709156394
 20
-4.61175762355942
 30
0.0
 10
31.86929797655775
 20
-4.865049243028594
 30
0.0
 10
28.9782991698199
 20
-4.76688010774765
 30
0.0
 10
25.97677015011153
 20
-4.305593252189173
 30
0.0
 10
22.97584894190143
 20
-3.477013924090452
 30
0.0
 10
19.97439377908184
 20
-2.364776620298487
 30
0.0
 10
17.19798222227205
 20
-1.152475484288596
 30
0.0
 10
14.64865036248799
 20
0.0242691733226999
 30
0.0
 10
12.32438335656291
 20
1.10326088626094
 30
0.0
 10
10.77482089643408
 20
1.767228506966636
 30
0.0
 10
10.00000000000001
 20
2.099229313849641
 30
0.0
  0
SPLINE
  5
C7
330
1F
100
AcDbEntity
  8
0
  6
Continuous
 62
     1
370
    15
100
AcDbSpline
210
0.0
220
0.0
230
1.0
 70
    24
 71
     3
 72
    10
 73
     6
 74
     0
 42
0.000000001
 43
0.00000001
 40
0.0
 40
0.0
 40
0.0
 40
0.0
 40
0.5
 40
0.5
 40
1.0
 40
1.0
 40
1.0
 40
1.0
 10
80.00000000000001
 20
-4.733833586209281
 30
0.0
 10
80.00000000000003
 20
-4.370948334022816
 30
0.0
 10
80.00000000000001
 20
-3.912428903438798
 30
0.0
 10
80.00000000000003
 20
-2.846415354904066
 30
0.0
 10
80.00000000000001
 20
-2.239844658307847
 30
0.0
 10
80.00000000000001
 20
-1.603457676178048
 30
0.0
  0
SPLINE
  5
C8
330
1F
100
AcDbEntity
  8
0
  6
Continuous
 62
     1
370
    15
100
AcDbSpline
210
0.0
220
0.0
230
1.0
 70
     8
 71
     3
 72
    20
 73
    16
 74
     0
 42
0.000000001
 43
0.00000001
 40
0.0
 40
0.0
 40
0.0
 40
0.0
 40
0.0616723967636464
 40
0.141689419135392
 40
0.2217975048519756
 40
0.3018333522715365
 40
0.3818923845266384
 40
0.4619949862128334
 40
0.5420050911735669
 40
0.6221010371968123
 40
0.7021742138945963
 40
0.7821977716890798
 40
0.8623067175643623
 40
0.9423332203300863
 40
1.0
 40
1.0
 40
1.0
 40
1.0
 10
67.30465630176232
 20
-4.476472232986339
 30
0.0
 10
66.53397980687825
 20
-4.590229558484513
 30
0.0
 10
64.76338695445656
 20
-4.851581641718821
 30
0.0
 10
61.99244410684904
 20
-4.795797885505968
 30
0.0
 10
58.99097025257421
 20
-4.383212360899196
 30
0.0
 10
55.98985360496651
 20
-3.595002459171149
 30
0.0
 10
52.98854347157285
 20
-2.512251753033878
 30
0.0
 10
49.98703007797207
 20
-1.221843440929551
 30
0.0
 10
46.98611911908294
 20
0.1718517812334017
 30
0.0
 10
43.98460221988243
 20
1.549434171666108
 30
0.0
 10
40.98319005464053
 20
2.798455082768394
 30
0.0
 10
37.9821760697188
 20
3.820140677603061
 30
0.0
 10
34.98070853394189
 20
4.510232080486069
 30
0.0
 10
32.25959748702948
 20
4.844974755176108
 30
0.0
 10
30.53899383410018
 20
4.762095283136683
 30
0.0
 10
29.81839461533218
 20
4.727384858860971
 30
0.0
  0
SPLINE
  5
C9
330
1F
100
AcDbEntity
  8
0
  6
Continuous
 62
     1
370
    15
100
AcDbSpline
210
0.0
220
0.0
230
1.0
 70
     8
 71
     3
 72
    10
 73
     6
 74
     0
 42
0.000000001
 43
0.00000001
 40
0.0
 40
0.0
 40
0.0
 40
0.0
 40
0.5
 40
0.5
 40
1.0
 40
1.0
 40
1.0
 40
1.0
 10
80.00000000000001
 20
4.200000000000013
 30
0.0
 10
79.25332347653939
 20
3.997490621300253
 30
0.0
 10
78.51228338110272
 20
3.76512727827749
 30
0.0
 10
77.04287433025135
 20
3.233286497890211
 30
0.0
 10
76.31450293166837
 20
2.934090734052228
 30
0.0
 10
75.60063730606628
 20
2.584818657777578
 30
0.0
  0
SPLINE
  5
CA
330
1F
100
AcDbEntity
  8
0
  6
Continuous
 62
   131
370
    15
100
AcDbSpline
210
0.0
220
0.0
230
1.0
 70
    24
 71
     3
 72
    12
 73
     8
 74
     0
 42
0.000000001
 43
0.00000001
 40
0.0
 40
0.0
 40
0.0
 40
0.0
 40
0.1305656059879521
 40
0.3459389310540219
 40
0.5675580971374353
 40
0.780753105760549
 40
1.0
 40
1.0
 40
1.0
 40
1.0
 10
9.99999999999999
 20
3.939869735210625
 30
0.0
 10
9.99999999999999
 20
3.942896516213156
 30
0.0
 10
9.99999999999999
 20
3.950916096688637
 30
0.0
 10
9.99999999999999
 20
3.754512761966486
 30
0.0
 10
9.99999999999999
 20
3.377950110469332
 30
0.0
 10
9.99999999999999
 20
2.830971023822144
 30
0.0
 10
9.99999999999999
 20
2.345408315253934
 30
0.0
 10
9.99999999999999
 20
2.099229313849647
 30
0.0
  0
LINE
  5
CB
330
1F
100
AcDbEntity
  8
0
  6
Continuous
 62
     1
370
    15
100
AcDbLine
 10
80.00000000000001
 20
0.0000000000000135
 30
0.0
 11
80.00000000000001
 21
4.200000000000013
 31
0.0
  0
SPLINE
  5
CC
330
1F
100
AcDbEntity
  8
0
  6
Continuous
 62
   131
370
    15
100
AcDbSpline
210
0.0
220
0.0
230
1.0
 70
     8
 71
     3
 72
    10
 73
     6
 74
     0
 42
0.000000001
 43
0.00000001
 40
0.0
 40
0.0
 40
0.0
 40
0.0
 40
0.5000000000000001
 40
0.5000000000000001
 40
1.0
 40
1.0
 40
1.0
 40
1.0
 10
9.999999999998302
 20
-4.292512417099237
 30
0.0
 10
9.662088350367343
 20
-4.15610717561206
 30
0.0
 10
9.322415864079883
 20
-4.012632312386445
 30
0.0
 10
8.644397700000972
 20
-3.713550330061012
 30
0.0
 10
8.307510345256706
 20
-3.558179545789769
 30
0.0
 10
7.970158140336308
 20
-3.397351247209048
 30
0.0
  0
SPLINE
  5
CD
330
1F
100
AcDbEntity
  8
0
  6
Continuous
 62
   131
370
    15
100
AcDbSpline
210
0.0
220
0.0
230
1.0
 70
     8
 71
     3
 72
    10
 73
     6
 74
     0
 42
0.000000001
 43
0.00000001
 40
0.0
 40
0.0
 40
0.0
 40
0.0
 40
0.5
 40
0.5
 40
1.0
 40
1.0
 40
1.0
 40
1.0
 10
9.9999999999983
 20
-5.283356515890262
 30
0.0
 10
9.662074853543542
 20
-5.19082713386556
 30
0.0
 10
9.322388729669893
 20
-5.089726199857219
 30
0.0
 10
8.644343590473516
 20
-4.871772337854508
 30
0.0
 10
8.307443309025997
 20
-4.755103019128454
 30
0.0
 10
7.970077293424829
 20
-4.63103691966877
 30
0.0
  0
LINE
  5
CE
330
1F
100
AcDbEntity
  8
0
  6
Continuous
 62
   131
370
    15
100
AcDbLine
 10
7.970077293424829
 20
-5.999999999999995
 30
0.0
 11
7.970077293424829
 21
-4.631038514309688
 31
0.0
  0
SPLINE
  5
CF
330
1F
100
AcDbEntity
  8
0
  6
Continuous
 62
   131
370
    15
100
AcDbSpline
210
0.0
220
0.0
230
1.0
 70
     8
 71
     3
 72
    10
 73
     6
 74
     0
 42
0.000000001
 43
0.00000001
 40
0.0
 40
0.0
 40
0.0
 40
0.0
 40
0.5
 40
0.5
 40
1.0
 40
1.0
 40
1.0
 40
1.0
 10
9.9999999999983
 20
5.283356515890271
 30
0.0
 10
9.662074853543542
 20
5.19082713386557
 30
0.0
 10
9.322388729669893
 20
5.089726199857229
 30
0.0
 10
8.644343590473516
 20
4.871772337854519
 30
0.0
 10
8.307443309025997
 20
4.755103019128464
 30
0.0
 10
7.970077293424829
 20
4.63103691966878
 30
0.0
  0
LINE
  5
D0
330
1F
100
AcDbEntity
  8
0
  6
Continuous
 62
   131
370
    15
100
AcDbLine
 10
7.970077293424829
 20
-3.397139293723153
 30
0.0
 11
7.970077293424829
 21
6.000000000000005
 31
0.0
  0
LINE
  5
D1
330
1F
100
AcDbEntity
  8
0
  6
Continuous
 62
   131
370
    15
100
AcDbLine
 10
-119.0
 20
5.999999999999989
 30
0.0
 11
-119.0
 21
-6.000000000000003
 31
0.0
  0
LINE
  5
D2
330
1F
100
AcDbEntity
  8
0
  6
Continuous
 62
   131
370
    15
100
AcDbLine
 10
-120.0
 20
4.999999999999988
 30
0.0
 11
-120.0
 21
-4.999999999999995
 31
0.0
  0
SPLINE
  5
D3
330
1F
100
AcDbEntity
  8
0
  6
Continuous
 62
   131
370
    15
100
AcDbSpline
210
0.0
220
0.0
230
1.0
 70
    24
 71
     3
 72
    14
 73
    10
 74
     0
 42
0.000000001
 43
0.00000001
 40
0.0
 40
0.0
 40
0.0
 40
0.0
 40
0.2499999999999999
 40
0.2499999999999999
 40
0.4999999999999999
 40
0.4999999999999999
 40
0.7499999999999999
 40
0.7499999999999999
 40
1.0
 40
1.0
 40
1.0
 40
1.0
 10
9.999999999999996
 20
2.099229313849647
 30
0.0
 10
9.999999999999996
 20
1.662496889105542
 30
0.0
 10
9.999999999999996
 20
1.199133792110788
 30
0.0
 10
9.999999999999996
 20
0.2474738079245374
 30
0.0
 10
9.999999999999996
 20
-0.2405933963518884
 30
0.0
 10
9.999999999999996
 20
-1.206479493718957
 30
0.0
 10
9.999999999999996
 20
-1.684019468225214
 30
0.0
 10
9.999999999999996
 20
-2.595052855387307
 30
0.0
 10
9.999999999999996
 20
-3.028348576208054
 30
0.0
 10
9.999999999999996
 20
-3.427232330018164
 30
0.0
  0
SPLINE
  5
D4
330
1F
100
AcDbEntity
  8
0
  6
Continuous
 62
   131
370
    15
100
AcDbSpline
210
0.0
220
0.0
230
1.0
 70
     8
 71
     3
 72
    10
 73
     6
 74
     0
 42
0.000000001
 43
0.00000001
 40
0.0
 40
0.0
 40
0.0
 40
0.0
 40
0.5
 40
0.5
 40
1.0
 40
1.0
 40
1.0
 40
1.0
 10
9.999999999997186
 20
-3.427232330017142
 30
0.0
 10
9.662088350366409
 20
-3.304343207582864
 30
0.0
 10
9.322415864079144
 20
-3.175785316240117
 30
0.0
 10
8.644397700000605
 20
-2.90913463080763
 30
0.0
 10
8.307510345256523
 20
-2.771250441710581
 30
0.0
 10
7.970158140336308
 20
-2.629134785310307
 30
0.0
  0
SPLINE
  5
D5
330
1F
100
AcDbEntity
  8
0
  6
Continuous
 62
   131
370
    15
100
AcDbSpline
210
0.0
220
0.0
230
1.0
 70
     8
 71
     3
 72
    10
 73
     6
 74
     0
 42
0.000000001
 43
0.00000001
 40
0.0
 40
0.0
 40
0.0
 40
0.0
 40
0.5
 40
0.5
 40
1.0
 40
1.0
 40
1.0
 40
1.0
 10
9.999999999996751
 20
2.099229313850996
 30
0.0
 10
9.662079784139147
 20
2.239687396919466
 30
0.0
 10
9.322398642285965
 20
2.37704706720188
 30
0.0
 10
8.644363357511795
 20
2.643584133301399
 30
0.0
 10
8.307467798399548
 20
2.77258204237366
 30
0.0
 10
7.97010682805189
 20
2.897044779929016
 30
0.0
  0
SPLINE
  5
D6
330
1F
100
AcDbEntity
  8
0
  6
Continuous
 62
   131
370
    15
100
AcDbSpline
210
0.0
220
0.0
230
1.0
 70
    24
 71
     3
 72
     8
 73
     4
 74
     0
 42
0.000000001
 43
0.00000001
 40
0.0
 40
0.0
 40
0.0
 40
0.0
 40
1.0
 40
1.0
 40
1.0
 40
1.0
 10
10.0000000000003
 20
-3.427232330018274
 30
0.0
 10
10.0000000000003
 20
-3.703048506437561
 30
0.0
 10
10.0000000000003
 20
-3.993272972451323
 30
0.0
 10
10.0000000000003
 20
-4.292512417088393
 30
0.0
  0
SPLINE
  5
D7
330
1F
100
AcDbEntity
  8
0
  6
Continuous
 62
   131
370
    15
100
AcDbSpline
210
0.0
220
0.0
230
1.0
 70
    24
 71
     3
 72
    12
 73
     8
 74
     0
 42
0.000000001
 43
0.00000001
 40
0.0
 40
0.0
 40
0.0
 40
0.0
 40
0.128872799842598
 40
0.3446654610779384
 40
0.5667161241079395
 40
0.7803262276746643
 40
0.9999999999999999
 40
0.9999999999999999
 40
0.9999999999999999
 40
0.9999999999999999
 10
9.99999999999999
 20
3.939734076538874
 30
0.0
 10
9.99999999999999
 20
3.942663137582795
 30
0.0
 10
9.99999999999999
 20
3.950496801291983
 30
0.0
 10
9.99999999999999
 20
3.754428339292668
 30
0.0
 10
9.999999999999986
 20
3.377971909326116
 30
0.0
 10
9.99999999999999
 20
2.830965484214418
 30
0.0
 10
9.99999999999999
 20
2.345406451570234
 30
0.0
 10
9.99999999999999
 20
2.099229313849648
 30
0.0
  0
SPLINE
  5
D8
330
1F
100
AcDbEntity
  8
0
  6
Continuous
 62
   131
370
    15
100
AcDbSpline
210
0.0
220
0.0
230
1.0
 70
    24
 71
     3
 72
    10
 73
     6
 74
     0
 42
0.000000001
 43
0.00000001
 40
0.0
 40
0.0
 40
0.0
 40
0.0
 40
0.0973441077571027
 40
0.6060038718879323
 40
1.0
 40
1.0
 40
1.0
 40
1.0
 10
9.999999999999993
 20
5.283356515890741
 30
0.0
 10
9.99999999999999
 20
5.23331397953131
 30
0.0
 10
9.999999999999982
 20
4.921780272030714
 30
0.0
 10
9.99999999999999
 20
4.415479684304825
 30
0.0
 10
9.99999999999999
 20
4.100660764655611
 30
0.0
 10
9.99999999999999
 20
3.963246899123742
 30
0.0
  0
LINE
  5
D9
330
1F
100
AcDbEntity
  8
중심선
100
AcDbLine
 10
-123.0
 20
-0.0000000000000004
 30
0.0
 11
83.00000000000003
 21
0.0000000000000137
 31
0.0
  0
CIRCLE
  5
DA
330
1F
100
AcDbEntity
  8
외형선
100
AcDbCircle
 10
0.0000000000000104
 20
0.0
 30
0.0
 40
3.000000000000005
  0
INSERT
  5
DB
330
1F
100
AcDbEntity
  8
0
  6
Continuous
 62
     7
100
AcDbBlockReference
 66
     1
  2
블럭10
 10
-22.93944368806589
 20
-52.04609937292004
 30
0.0
  0
ATTRIB
  5
DC
330
DB
100
AcDbEntity
  8
FORMAT
 62
     2
100
AcDbText
 10
-43.79769121965843
 20
-49.97073246008785
 30
0.0
 40
4.233333333333333
  1
SEME7012070200E [ 2 FLUTE ]
 41
0.75
  7
SLDTEXTSTYLE0
 11
-43.79769121965843
 21
-52.08739912675452
 31
0.0
100
AcDbAttribute
  2
AUTOATTR0
 70
     0
 74
     1
  0
SEQEND
  5
DD
330
DB
100
AcDbEntity
  8
0
  6
Continuous
 62
     7
  0
HATCH
  5
DE
330
1F
100
AcDbEntity
  8
중심선
100
AcDbHatch
 10
0.0
 20
0.0
 30
0.0
210
0.0
220
0.0
230
1.0
  2
SOLID
 70
     1
 71
     0
 91
        1
 92
        0
 93
        4
 72
     1
 10
-17.22453438368504
 20
-35.7989250712761
 11
-20.67080962752232
 21
-35.7989250712761
 72
     1
 10
-20.67080962752232
 20
-35.7989250712761
 11
-22.79903948672635
 21
-38.3352506518487
 72
     1
 10
-22.79903948672635
 20
-38.3352506518487
 11
-19.35273115777591
 21
-38.33521122254621
 72
     1
 10
-19.35273115777591
 20
-38.33521122254621
 11
-17.22453438368504
 21
-35.7989250712761
 97
        0
 75
     0
 76
     1
 98
        1
 10
0.0
 20
0.0
  0
HATCH
  5
DF
330
1F
100
AcDbEntity
  8
중심선
100
AcDbHatch
 10
0.0
 20
0.0
 30
0.0
210
0.0
220
0.0
230
1.0
  2
SOLID
 70
     1
 71
     0
 91
        1
 92
        0
 93
        4
 72
     1
 10
-12.21177039264909
 20
-35.7989250712761
 11
-15.65804563648637
 21
-35.7989250712761
 72
     1
 10
-15.65804563648637
 20
-35.7989250712761
 11
-20.18918364484376
 21
-41.19892507127612
 72
     1
 10
-20.18918364484376
 20
-41.19892507127612
 11
-16.74290840100648
 21
-41.19892507127612
 72
     1
 10
-16.74290840100648
 20
-41.19892507127612
 11
-12.21177039264909
 21
-35.7989250712761
 97
        0
 75
     0
 76
     1
 98
        1
 10
0.0
 20
0.0
  0
HATCH
  5
E0
330
1F
100
AcDbEntity
  8
중심선
100
AcDbHatch
 10
0.0
 20
0.0
 30
0.0
210
0.0
220
0.0
230
1.0
  2
SOLID
 70
     1
 71
     0
 91
        1
 92
        0
 93
        4
 72
     1
 10
-7.199006401613195
 20
-35.79892507127613
 11
-10.64528164545031
 21
-35.7989250712761
 72
     1
 10
-10.64528164545031
 20
-35.7989250712761
 11
-17.69371854733956
 21
-44.19892507127612
 72
     1
 10
-17.69371854733956
 20
-44.19892507127612
 11
-14.24744330350228
 21
-44.19892507127612
 72
     1
 10
-14.24744330350228
 20
-44.19892507127612
 11
-7.199006401613195
 21
-35.79892507127613
 97
        0
 75
     0
 76
     1
 98
        1
 10
0.0
 20
0.0
  0
HATCH
  5
E1
330
1F
100
AcDbEntity
  8
중심선
100
AcDbHatch
 10
0.0
 20
0.0
 30
0.0
210
0.0
220
0.0
230
1.0
  2
SOLID
 70
     1
 71
     0
 91
        1
 92
        0
 93
        6
 72
     3
 10
-2.399115970600996
 20
-39.99892507132738
 11
3.960054785062284
 21
1.540850780301639E-10
 40
0.3939339440162633
 50
17.09539180608433
 51
320.0019657685079
 73
     0
 72
     1
 10
-0.7161163149004002
 20
-38.58681907591441
 11
1.589185558800638
 21
-36.65249236586649
 72
     3
 10
-2.399115970653842
 20
-39.99892507127625
 11
6.600054785286829
 21
-1.249000902703301E-13
 40
0.6363583540795982
 50
39.99873849337408
 51
368.4976242363725
 73
     1
 72
     1
 10
4.026216521246767
 20
-39.03892507120613
 11
-3.71904866381792
 21
-39.0389250712061
 72
     1
 10
-3.71904866381792
 20
-39.0389250712061
 11
-3.719073708263854
 21
-40.95892507120602
 72
     1
 10
-3.719073708263854
 20
-40.95892507120602
 11
0.7223060612081831
 21
-40.95892507120599
 97
        0
 75
     0
 76
     1
 98
        1
 10
0.0
 20
0.0
  0
DIMENSION
  5
E2
330
1F
100
AcDbEntity
  8
치수문자_일반주서
100
AcDbDimension
  2
_D
 10
96.73870578194482
 20
6.000000000000323
 30
0.0
 11
96.73870578194477
 21
16.54150000000033
 31
0.0
 70
   160
  1
%%c<>
 71
     2
 42
12.0
 52
-270.0
  3
SLDDIMSTYLE0
100
AcDbAlignedDimension
 13
79.99999999999997
 23
-5.999999999999735
 33
0.0
 14
79.99999999999997
 24
6.000000000000261
 34
0.0
 50
90.0000000000002
100
AcDbRotatedDimension
  0
DIMENSION
  5
F0
330
1F
100
AcDbEntity
  8
치수문자_일반주서
100
AcDbDimension
  2
_D_1
 10
80.0
 20
26.78841044024269
 30
0.0
 11
-20.0
 21
26.78841044024269
 31
0.0
 70
   160
  1
<>
 71
     2
 42
200.0
  3
SLDDIMSTYLE1
100
AcDbAlignedDimension
 13
-120.0
 23
4.999999999999988
 33
0.0
 14
80.0
 24
6.000000000000264
 34
0.0
 50
-0.0000000000000041
100
AcDbRotatedDimension
  0
DIMENSION
  5
FB
330
1F
100
AcDbEntity
  8
치수문자_일반주서
100
AcDbDimension
  2
_D_2
 10
80.0
 20
18.63035432205828
 30
0.0
 11
44.99999999999998
 21
18.63035432205828
 31
0.0
 70
   160
  1
<>
 71
     2
 42
70.0
  3
SLDDIMSTYLE1
100
AcDbAlignedDimension
 13
9.999999999999995
 23
5.283356515890736
 33
0.0
 14
80.0
 24
6.000000000000264
 34
0.0
 50
0.0000000000000494
100
AcDbRotatedDimension
  0
DIMENSION
  5
105
330
1F
100
AcDbEntity
  8
치수문자_일반주서
100
AcDbDimension
  2
_D_3
 10
-129.4801768489619
 20
-6.000000000000032
 30
0.0
 11
-129.480176848962
 21
16.54149999999995
 31
0.0
 70
   160
  1
%%c<>
 71
     2
 42
11.99999999999998
 52
-270.0
  3
SLDDIMSTYLE0
100
AcDbAlignedDimension
 13
-119.0
 23
5.999999999999989
 33
0.0
 14
-119.0
 24
-5.999999999999995
 34
0.0
 50
90.0000000000002
100
AcDbRotatedDimension
  0
INSERT
  5
118
330
1F
100
AcDbEntity
  8
외형선
100
AcDbBlockReference
  2
SW_DOWELSYMBOL_0
 10
0.0000000000000104
 20
0.0
 30
0.0
  0
ENDSEC
  0
SECTION
  2
OBJECTS
  0
DICTIONARY
  5
C
330
0
100
AcDbDictionary
281
     1
  3
ACAD_GROUP
350
D
  3
ACAD_IMAGE_VARS
350
13C
  3
ACAD_LAYOUT
350
1A
  3
ACAD_MLINESTYLE
350
17
  3
ACAD_PLOTSETTINGS
350
19
  3
ACAD_PLOTSTYLENAME
350
E
  3
ACAD_SCALELIST
350
47
  3
APPDATA
350
13A
  3
DWGPROPS
350
14B
  0
DICTIONARY
  5
D
102
{ACAD_REACTORS
330
C
102
}
330
C
100
AcDbDictionary
281
     1
  0
RASTERVARIABLES
  5
13C
102
{ACAD_REACTORS
330
C
102
}
330
C
100
AcDbRasterVariables
 90
        0
 70
     1
 71
     1
 72
     1
  0
DICTIONARY
  5
1A
102
{ACAD_REACTORS
330
C
102
}
330
C
100
AcDbDictionary
281
     1
  3
Layout1
350
1E
  3
Layout2
350
26
  3
Model
350
22
  0
DICTIONARY
  5
17
102
{ACAD_REACTORS
330
C
102
}
330
C
100
AcDbDictionary
281
     1
  3
Standard
350
18
  0
DICTIONARY
  5
19
102
{ACAD_REACTORS
330
C
102
}
330
C
100
AcDbDictionary
281
     1
  0
ACDBDICTIONARYWDFLT
  5
E
102
{ACAD_REACTORS
330
C
102
}
330
C
100
AcDbDictionary
281
     1
  3
Normal
350
F
100
AcDbDictionaryWithDefault
340
F
  0
DICTIONARY
  5
47
102
{ACAD_REACTORS
330
C
102
}
330
C
100
AcDbDictionary
281
     1
  3
A0
350
48
  3
A1
350
49
  3
A2
350
4A
  3
A3
350
4B
  3
A4
350
4C
  3
A5
350
4D
  3
A6
350
4E
  3
A7
350
4F
  3
A8
350
50
  3
A9
350
51
  3
B0
350
52
  3
B1
350
53
  3
B2
350
54
  3
B3
350
55
  3
B4
350
56
  3
B5
350
57
  3
B6
350
58
  3
B7
350
59
  3
B8
350
5A
  3
B9
350
5B
  3
C0
350
5C
  3
C1
350
5D
  3
C2
350
5E
  3
C3
350
5F
  3
C4
350
60
  3
C5
350
61
  3
C6
350
62
  3
C7
350
63
  3
C8
350
64
  3
C9
350
65
  3
D0
350
66
  3
D1
350
67
  3
D2
350
68
  0
DICTIONARY
  5
13A
102
{ACAD_REACTORS
330
C
102
}
330
C
100
AcDbDictionary
281
     1
  0
XRECORD
  5
14B
102
{ACAD_REACTORS
330
C
102
}
330
C
100
AcDbXrecord
280
     1
  1
DWGPROPS COOKIE
  2

  3

  4

  6

  7

  8
12014102
  9

300
=
301
=
302
=
303
=
304
=
305
=
306
=
307
=
308
=
309
=
 40
0.0
 41
2458262.174239097
 42
2458266.312647153
  1

 90
        0
  0
LAYOUT
  5
1E
102
{ACAD_REACTORS
330
1A
102
}
330
1A
100
AcDbPlotSettings
  1

  2
none_device
  4

  6

 40
0.0
 41
0.0
 42
0.0
 43
0.0
 44
0.0
 45
0.0
 46
0.0
 47
0.0
 48
0.0
 49
0.0
140
0.0
141
0.0
142
1.0
143
1.0
 70
   688
 72
     1
 73
     0
 74
     5
  7

 75
    16
147
1.0
148
0.0
149
0.0
100
AcDbLayout
  1
Layout1
 70
     1
 71
     1
 10
0.0
 20
0.0
 11
420.0
 21
297.0
 12
0.0
 22
0.0
 32
0.0
 14
1.000000000000000E+20
 24
1.000000000000000E+20
 34
1.000000000000000E+20
 15
-1.000000000000000E+20
 25
-1.000000000000000E+20
 35
-1.000000000000000E+20
146
0.0
 13
0.0
 23
0.0
 33
0.0
 16
1.0
 26
0.0
 36
0.0
 17
0.0
 27
1.0
 37
0.0
 76
     0
330
1B
  0
LAYOUT
  5
26
102
{ACAD_REACTORS
330
1A
102
}
330
1A
100
AcDbPlotSettings
  1

  2
none_device
  4

  6

 40
0.0
 41
0.0
 42
0.0
 43
0.0
 44
0.0
 45
0.0
 46
0.0
 47
0.0
 48
0.0
 49
0.0
140
0.0
141
0.0
142
1.0
143
1.0
 70
   688
 72
     1
 73
     0
 74
     5
  7

 75
    16
147
1.0
148
0.0
149
0.0
100
AcDbLayout
  1
Layout2
 70
     1
 71
     2
 10
0.0
 20
0.0
 11
0.0
 21
0.0
 12
0.0
 22
0.0
 32
0.0
 14
0.0
 24
0.0
 34
0.0
 15
0.0
 25
0.0
 35
0.0
146
0.0
 13
0.0
 23
0.0
 33
0.0
 16
1.0
 26
0.0
 36
0.0
 17
0.0
 27
1.0
 37
0.0
 76
     0
330
23
  0
LAYOUT
  5
22
102
{ACAD_REACTORS
330
1A
102
}
330
1A
100
AcDbPlotSettings
  1

  2
none_device
  4
ANSI_A_(11.00_x_8.50_Inches)
  6

 40
6.35
 41
19.05
 42
6.35000508
 43
19.05000254
 44
279.4
 45
215.9
 46
162.8360819353437
 47
101.3267377860269
 48
0.0
 49
0.0
140
0.0
141
0.0
142
0.0504022769828517
143
1.0
 70
  1696
 72
     0
 73
     0
 74
     0
  7

 75
     0
147
0.0235690232323232
148
0.0
149
0.0
100
AcDbLayout
  1
Model
 70
     1
 71
     0
 10
0.0
 20
0.0
 11
420.0
 21
297.0
 12
0.0
 22
0.0
 32
0.0
 14
-133.855176848962
 24
-49.97073246008785
 34
0.0
 15
97.2890391152782
 25
31.16341044024268
 35
0.0
146
0.0
 13
0.0
 23
0.0
 33
0.0
 16
1.0
 26
0.0
 36
0.0
 17
0.0
 27
1.0
 37
0.0
 76
     0
330
1F
331
29
  0
MLINESTYLE
  5
18
102
{ACAD_REACTORS
330
17
102
}
330
17
100
AcDbMlineStyle
  2
Standard
 70
     0
  3

 62
   256
 51
90.0
 52
90.0
 71
     2
 49
0.5
 62
   256
  6
BYLAYER
 49
-0.5
 62
   256
  6
BYLAYER
  0
ACDBPLACEHOLDER
  5
F
102
{ACAD_REACTORS
330
E
102
}
330
E
  0
SCALE
  5
48
102
{ACAD_REACTORS
330
47
102
}
330
47
100
AcDbScale
 70
     0
300
1:1
140
1.0
141
1.0
290
     1
  0
SCALE
  5
49
102
{ACAD_REACTORS
330
47
102
}
330
47
100
AcDbScale
 70
     0
300
1:2
140
1.0
141
2.0
290
     0
  0
SCALE
  5
4A
102
{ACAD_REACTORS
330
47
102
}
330
47
100
AcDbScale
 70
     0
300
1:4
140
1.0
141
4.0
290
     0
  0
SCALE
  5
4B
102
{ACAD_REACTORS
330
47
102
}
330
47
100
AcDbScale
 70
     0
300
1:5
140
1.0
141
5.0
290
     0
  0
SCALE
  5
4C
102
{ACAD_REACTORS
330
47
102
}
330
47
100
AcDbScale
 70
     0
300
1:8
140
1.0
141
8.0
290
     0
  0
SCALE
  5
4D
102
{ACAD_REACTORS
330
47
102
}
330
47
100
AcDbScale
 70
     0
300
1:10
140
1.0
141
10.0
290
     0
  0
SCALE
  5
4E
102
{ACAD_REACTORS
330
47
102
}
330
47
100
AcDbScale
 70
     0
300
1:16
140
1.0
141
16.0
290
     0
  0
SCALE
  5
4F
102
{ACAD_REACTORS
330
47
102
}
330
47
100
AcDbScale
 70
     0
300
1:20
140
1.0
141
20.0
290
     0
  0
SCALE
  5
50
102
{ACAD_REACTORS
330
47
102
}
330
47
100
AcDbScale
 70
     0
300
1:30
140
1.0
141
30.0
290
     0
  0
SCALE
  5
51
102
{ACAD_REACTORS
330
47
102
}
330
47
100
AcDbScale
 70
     0
300
1:40
140
1.0
141
40.0
290
     0
  0
SCALE
  5
52
102
{ACAD_REACTORS
330
47
102
}
330
47
100
AcDbScale
 70
     0
300
1:50
140
1.0
141
50.0
290
     0
  0
SCALE
  5
53
102
{ACAD_REACTORS
330
47
102
}
330
47
100
AcDbScale
 70
     0
300
1:100
140
1.0
141
100.0
290
     0
  0
SCALE
  5
54
102
{ACAD_REACTORS
330
47
102
}
330
47
100
AcDbScale
 70
     0
300
2:1
140
2.0
141
1.0
290
     0
  0
SCALE
  5
55
102
{ACAD_REACTORS
330
47
102
}
330
47
100
AcDbScale
 70
     0
300
4:1
140
4.0
141
1.0
290
     0
  0
SCALE
  5
56
102
{ACAD_REACTORS
330
47
102
}
330
47
100
AcDbScale
 70
     0
300
8:1
140
8.0
141
1.0
290
     0
  0
SCALE
  5
57
102
{ACAD_REACTORS
330
47
102
}
330
47
100
AcDbScale
 70
     0
300
10:1
140
10.0
141
1.0
290
     0
  0
SCALE
  5
58
102
{ACAD_REACTORS
330
47
102
}
330
47
100
AcDbScale
 70
     0
300
100:1
140
100.0
141
1.0
290
     0
  0
SCALE
  5
59
102
{ACAD_REACTORS
330
47
102
}
330
47
100
AcDbScale
 70
     0
300
1/128" = 1'-0"
140
0.0078125
141
12.0
290
     0
  0
SCALE
  5
5A
102
{ACAD_REACTORS
330
47
102
}
330
47
100
AcDbScale
 70
     0
300
1/64" = 1'-0"
140
0.015625
141
12.0
290
     0
  0
SCALE
  5
5B
102
{ACAD_REACTORS
330
47
102
}
330
47
100
AcDbScale
 70
     0
300
1/32" = 1'-0"
140
0.03125
141
12.0
290
     0
  0
SCALE
  5
5C
102
{ACAD_REACTORS
330
47
102
}
330
47
100
AcDbScale
 70
     0
300
1/16" = 1'-0"
140
0.0625
141
12.0
290
     0
  0
SCALE
  5
5D
102
{ACAD_REACTORS
330
47
102
}
330
47
100
AcDbScale
 70
     0
300
3/32" = 1'-0"
140
0.09375
141
12.0
290
     0
  0
SCALE
  5
5E
102
{ACAD_REACTORS
330
47
102
}
330
47
100
AcDbScale
 70
     0
300
1/8" = 1'-0"
140
0.125
141
12.0
290
     0
  0
SCALE
  5
5F
102
{ACAD_REACTORS
330
47
102
}
330
47
100
AcDbScale
 70
     0
300
3/16" = 1'-0"
140
0.1875
141
12.0
290
     0
  0
SCALE
  5
60
102
{ACAD_REACTORS
330
47
102
}
330
47
100
AcDbScale
 70
     0
300
1/4" = 1'-0"
140
0.25
141
12.0
290
     0
  0
SCALE
  5
61
102
{ACAD_REACTORS
330
47
102
}
330
47
100
AcDbScale
 70
     0
300
3/8" = 1'-0"
140
0.375
141
12.0
290
     0
  0
SCALE
  5
62
102
{ACAD_REACTORS
330
47
102
}
330
47
100
AcDbScale
 70
     0
300
1/2" = 1'-0"
140
0.5
141
12.0
290
     0
  0
SCALE
  5
63
102
{ACAD_REACTORS
330
47
102
}
330
47
100
AcDbScale
 70
     0
300
3/4" = 1'-0"
140
0.75
141
12.0
290
     0
  0
SCALE
  5
64
102
{ACAD_REACTORS
330
47
102
}
330
47
100
AcDbScale
 70
     0
300
1" = 1'-0"
140
1.0
141
12.0
290
     0
  0
SCALE
  5
65
102
{ACAD_REACTORS
330
47
102
}
330
47
100
AcDbScale
 70
     0
300
1-1/2" = 1'-0"
140
1.5
141
12.0
290
     0
  0
SCALE
  5
66
102
{ACAD_REACTORS
330
47
102
}
330
47
100
AcDbScale
 70
     0
300
3" = 1'-0"
140
3.0
141
12.0
290
     0
  0
SCALE
  5
67
102
{ACAD_REACTORS
330
47
102
}
330
47
100
AcDbScale
 70
     0
300
6" = 1'-0"
140
6.0
141
12.0
290
     0
  0
SCALE
  5
68
102
{ACAD_REACTORS
330
47
102
}
330
47
100
AcDbScale
 70
     0
300
1'-0" = 1'-0"
140
12.0
141
12.0
290
     0
  0
ENDSEC
  0
EOF
