  0
SECTION
  2
HEADER
  9
$ACADVER
  1
AC1015
  9
$ACADMAINTVER
 70
     6
  9
$DWGCODEPAGE
  3
ANSI_949
  9
$INSBASE
 10
0.0
 20
0.0
 30
0.0
  9
$EXTMIN
 10
-145.3884980092026
 20
-49.97073246008785
 30
0.0
  9
$EXTMAX
 10
84.67480861823458
 20
31.16341044024269
 30
0.0
  9
$LIMMIN
 10
0.0
 20
0.0
  9
$LIMMAX
 10
420.0
 20
297.0
  9
$ORTHOMODE
 70
     0
  9
$REGENMODE
 70
     1
  9
$FILLMODE
 70
     1
  9
$QTEXTMODE
 70
     0
  9
$MIRRTEXT
 70
     1
  9
$LTSCALE
 40
1.0
  9
$ATTMODE
 70
     1
  9
$TEXTSIZE
 40
3.5
  9
$TRACEWID
 40
1.0
  9
$TEXTSTYLE
  7
Standard
  9
$CLAYER
  8
0
  9
$CELTYPE
  6
ByLayer
  9
$CECOLOR
 62
   256
  9
$CELTSCALE
 40
1.0
  9
$DISPSILH
 70
     0
  9
$DIMSCALE
 40
1.0
  9
$DIMASZ
 40
3.302
  9
$DIMEXO
 40
1.0
  9
$DIMDLI
 40
3.75
  9
$DIMRND
 40
0.0
  9
$DIMDLE
 40
0.0
  9
$DIMEXE
 40
1.0
  9
$DIMTP
 40
0.0
  9
$DIMTM
 40
0.0
  9
$DIMTXT
 40
3.5
  9
$DIMCEN
 40
2.5
  9
$DIMTSZ
 40
0.0
  9
$DIMTOL
 70
     0
  9
$DIMLIM
 70
     0
  9
$DIMTIH
 70
     1
  9
$DIMTOH
 70
     1
  9
$DIMSE1
 70
     0
  9
$DIMSE2
 70
     0
  9
$DIMTAD
 70
     1
  9
$DIMZIN
 70
     0
  9
$DIMBLK
  1

  9
$DIMASO
 70
     1
  9
$DIMSHO
 70
     1
  9
$DIMPOST
  1

  9
$DIMAPOST
  1

  9
$DIMALT
 70
     0
  9
$DIMALTD
 70
     3
  9
$DIMALTF
 40
0.0393700787401575
  9
$DIMLFAC
 40
1.0
  9
$DIMTOFL
 70
     1
  9
$DIMTVP
 40
0.0
  9
$DIMTIX
 70
     0
  9
$DIMSOXD
 70
     0
  9
$DIMSAH
 70
     0
  9
$DIMBLK1
  1

  9
$DIMBLK2
  1

  9
$DIMSTYLE
  2
ISO-25
  9
$DIMCLRD
 70
     0
  9
$DIMCLRE
 70
     0
  9
$DIMCLRT
 70
     0
  9
$DIMTFAC
 40
1.0
  9
$DIMGAP
 40
1.524
  9
$DIMJUST
 70
     0
  9
$DIMSD1
 70
     0
  9
$DIMSD2
 70
     0
  9
$DIMTOLJ
 70
     0
  9
$DIMTZIN
 70
     0
  9
$DIMALTZ
 70
     0
  9
$DIMALTTZ
 70
     0
  9
$DIMUPT
 70
     0
  9
$DIMDEC
 70
     2
  9
$DIMTDEC
 70
     2
  9
$DIMALTU
 70
     2
  9
$DIMALTTD
 70
     3
  9
$DIMTXSTY
  7
Standard
  9
$DIMAUNIT
 70
     0
  9
$DIMADEC
 70
     2
  9
$DIMALTRND
 40
0.0
  9
$DIMAZIN
 70
     0
  9
$DIMDSEP
 70
    44
  9
$DIMATFIT
 70
     3
  9
$DIMFRAC
 70
     0
  9
$DIMLDRBLK
  1

  9
$DIMLUNIT
 70
     2
  9
$DIMLWD
 70
    -2
  9
$DIMLWE
 70
    -2
  9
$DIMTMOVE
 70
     0
  9
$LUNITS
 70
     2
  9
$LUPREC
 70
     2
  9
$SKETCHINC
 40
1.0
  9
$FILLETRAD
 40
10.0
  9
$AUNITS
 70
     0
  9
$AUPREC
 70
     2
  9
$MENU
  1
.
  9
$ELEVATION
 40
0.0
  9
$PELEVATION
 40
0.0
  9
$THICKNESS
 40
0.0
  9
$LIMCHECK
 70
     0
  9
$CHAMFERA
 40
0.0
  9
$CHAMFERB
 40
0.0
  9
$CHAMFERC
 40
0.0
  9
$CHAMFERD
 40
0.0
  9
$SKPOLY
 70
     0
  9
$TDCREATE
 40
2458262.548675718
  9
$TDUCREATE
 40
2458262.173675718
  9
$TDUPDATE
 40
2458266.686599086
  9
$TDUUPDATE
 40
2458266.311599086
  9
$TDINDWG
 40
0.0010870023
  9
$TDUSRTIMER
 40
2458266.31051213
  9
$USRTIMER
 70
     1
  9
$ANGBASE
 50
0.0
  9
$ANGDIR
 70
     0
  9
$PDMODE
 70
     0
  9
$PDSIZE
 40
-1.0
  9
$PLINEWID
 40
0.0
  9
$SPLFRAME
 70
     0
  9
$SPLINETYPE
 70
     6
  9
$SPLINESEGS
 70
     8
  9
$HANDSEED
  5
146
  9
$SURFTAB1
 70
     6
  9
$SURFTAB2
 70
     6
  9
$SURFTYPE
 70
     6
  9
$SURFU
 70
     6
  9
$SURFV
 70
     6
  9
$UCSBASE
  2

  9
$UCSNAME
  2

  9
$UCSORG
 10
0.0
 20
0.0
 30
0.0
  9
$UCSXDIR
 10
1.0
 20
0.0
 30
0.0
  9
$UCSYDIR
 10
0.0
 20
1.0
 30
0.0
  9
$UCSORTHOREF
  2

  9
$UCSORTHOVIEW
 70
     0
  9
$UCSORGTOP
 10
0.0
 20
0.0
 30
0.0
  9
$UCSORGBOTTOM
 10
0.0
 20
0.0
 30
0.0
  9
$UCSORGLEFT
 10
0.0
 20
0.0
 30
0.0
  9
$UCSORGRIGHT
 10
0.0
 20
0.0
 30
0.0
  9
$UCSORGFRONT
 10
0.0
 20
0.0
 30
0.0
  9
$UCSORGBACK
 10
0.0
 20
0.0
 30
0.0
  9
$PUCSBASE
  2

  9
$PUCSNAME
  2

  9
$PUCSORG
 10
0.0
 20
0.0
 30
0.0
  9
$PUCSXDIR
 10
1.0
 20
0.0
 30
0.0
  9
$PUCSYDIR
 10
0.0
 20
1.0
 30
0.0
  9
$PUCSORTHOREF
  2

  9
$PUCSORTHOVIEW
 70
     0
  9
$PUCSORGTOP
 10
0.0
 20
0.0
 30
0.0
  9
$PUCSORGBOTTOM
 10
0.0
 20
0.0
 30
0.0
  9
$PUCSORGLEFT
 10
0.0
 20
0.0
 30
0.0
  9
$PUCSORGRIGHT
 10
0.0
 20
0.0
 30
0.0
  9
$PUCSORGFRONT
 10
0.0
 20
0.0
 30
0.0
  9
$PUCSORGBACK
 10
0.0
 20
0.0
 30
0.0
  9
$USERI1
 70
     0
  9
$USERI2
 70
     0
  9
$USERI3
 70
     0
  9
$USERI4
 70
     0
  9
$USERI5
 70
     0
  9
$USERR1
 40
0.0
  9
$USERR2
 40
0.0
  9
$USERR3
 40
0.0
  9
$USERR4
 40
0.0
  9
$USERR5
 40
0.0
  9
$WORLDVIEW
 70
     1
  9
$SHADEDGE
 70
     3
  9
$SHADEDIF
 70
    70
  9
$TILEMODE
 70
     1
  9
$MAXACTVP
 70
    64
  9
$PINSBASE
 10
0.0
 20
0.0
 30
0.0
  9
$PLIMCHECK
 70
     0
  9
$PEXTMIN
 10
1.000000000000000E+20
 20
1.000000000000000E+20
 30
1.000000000000000E+20
  9
$PEXTMAX
 10
-1.000000000000000E+20
 20
-1.000000000000000E+20
 30
-1.000000000000000E+20
  9
$PLIMMIN
 10
0.0
 20
0.0
  9
$PLIMMAX
 10
0.0
 20
0.0
  9
$UNITMODE
 70
     0
  9
$VISRETAIN
 70
     1
  9
$PLINEGEN
 70
     0
  9
$PSLTSCALE
 70
     1
  9
$TREEDEPTH
 70
  3020
  9
$CMLSTYLE
  2
Standard
  9
$CMLJUST
 70
     0
  9
$CMLSCALE
 40
20.0
  9
$PROXYGRAPHICS
 70
     1
  9
$MEASUREMENT
 70
     1
  9
$CELWEIGHT
370
    -1
  9
$ENDCAPS
280
     0
  9
$JOINSTYLE
280
     0
  9
$LWDISPLAY
290
     1
  9
$INSUNITS
 70
     4
  9
$HYPERLINKBASE
  1

  9
$STYLESHEET
  1

  9
$XEDIT
290
     1
  9
$CEPSNTYPE
380
     0
  9
$PSTYLEMODE
290
     1
  9
$FINGERPRINTGUID
  2
{A17CA9D7-6572-4850-8A06-CA2AB9F75AA2}
  9
$VERSIONGUID
  2
{FAEB1C32-E019-11D5-929B-00C0DF256EC4}
  9
$EXTNAMES
290
     1
  9
$PSVPSCALE
 40
0.0
  9
$OLESTARTUP
290
     0
  0
ENDSEC
  0
SECTION
  2
CLASSES
  0
CLASS
  1
ACDBDICTIONARYWDFLT
  2
AcDbDictionaryWithDefault
  3
ObjectDBX Classes
 90
        0
280
     0
281
     0
  0
CLASS
  1
VISUALSTYLE
  2
AcDbVisualStyle
  3
ObjectDBX Classes
 90
     4095
280
     0
281
     0
  0
CLASS
  1
MATERIAL
  2
AcDbMaterial
  3
ObjectDBX Classes
 90
     1153
280
     0
281
     0
  0
CLASS
  1
SCALE
  2
AcDbScale
  3
ObjectDBX Classes
 90
     1153
280
     0
281
     0
  0
CLASS
  1
SUN
  2
AcDbSun
  3
SCENEOE
 90
     1153
280
     0
281
     0
  0
CLASS
  1
ACDBPLACEHOLDER
  2
AcDbPlaceHolder
  3
ObjectDBX Classes
 90
        0
280
     0
281
     0
  0
CLASS
  1
LAYOUT
  2
AcDbLayout
  3
ObjectDBX Classes
 90
        0
280
     0
281
     0
  0
CLASS
  1
TABLESTYLE
  2
AcDbTableStyle
  3
ObjectDBX Classes
 90
     4095
280
     0
281
     0
  0
CLASS
  1
MLEADERSTYLE
  2
AcDbMLeaderStyle
  3
ACDB_MLEADERSTYLE_CLASS
 90
     4095
280
     0
281
     0
  0
CLASS
  1
RASTERVARIABLES
  2
AcDbRasterVariables
  3
ISM
 90
        0
280
     0
281
     0
  0
ENDSEC
  0
SECTION
  2
TABLES
  0
TABLE
  2
VPORT
  5
8
330
0
100
AcDbSymbolTable
 70
     1
  0
VPORT
  5
29
330
8
100
AcDbSymbolTableRecord
100
AcDbViewportTableRecord
  2
*Active
 70
     0
 10
0.0
 20
0.0
 11
1.0
 21
1.0
 12
-30.35684469548403
 22
-9.40366100992258
 13
0.0
 23
0.0
 14
10.0
 24
10.0
 15
10.0
 25
10.0
 16
0.0
 26
0.0
 36
1.0
 17
0.0
 27
0.0
 37
0.0
 40
203.6215014755932
 41
1.152454780361757
 42
50.0
 43
0.0
 44
0.0
 50
0.0
 51
0.0
 71
    16
 72
  2000
 73
     1
 74
     3
 75
     0
 76
     0
 77
     0
 78
     0
281
     0
 65
     1
110
0.0
120
0.0
130
0.0
111
1.0
121
0.0
131
0.0
112
0.0
122
1.0
132
0.0
 79
     0
146
0.0
  0
ENDTAB
  0
TABLE
  2
LTYPE
  5
5
330
0
100
AcDbSymbolTable
 70
     6
  0
LTYPE
  5
14
330
5
100
AcDbSymbolTableRecord
100
AcDbLinetypeTableRecord
  2
ByBlock
 70
     0
  3

 72
    65
 73
     0
 40
0.0
  0
LTYPE
  5
15
330
5
100
AcDbSymbolTableRecord
100
AcDbLinetypeTableRecord
  2
ByLayer
 70
     0
  3

 72
    65
 73
     0
 40
0.0
  0
LTYPE
  5
16
330
5
100
AcDbSymbolTableRecord
100
AcDbLinetypeTableRecord
  2
Continuous
 70
     0
  3
Solid line
 72
    65
 73
     0
 40
0.0
  0
LTYPE
  5
6A
330
5
100
AcDbSymbolTableRecord
100
AcDbLinetypeTableRecord
  2
HIDDEN
 70
     0
  3
Hidden __ __ __ __ __ __ __ __ __ __ __ __ __ __
 72
    65
 73
     2
 40
1.905
 49
1.27
 74
     0
 49
-0.635
 74
     0
  0
LTYPE
  5
6B
330
5
100
AcDbSymbolTableRecord
100
AcDbLinetypeTableRecord
  2
PHANTOM
 70
     0
  3
Phantom ______  __  __  ______  __  __  ______
 72
    65
 73
     6
 40
12.7
 49
6.35
 74
     0
 49
-1.27
 74
     0
 49
1.27
 74
     0
 49
-1.27
 74
     0
 49
1.27
 74
     0
 49
-1.27
 74
     0
  0
LTYPE
  5
6C
330
5
100
AcDbSymbolTableRecord
100
AcDbLinetypeTableRecord
  2
CENTER
 70
     0
  3
Center ____ _ ____ _ ____ _ ____ _ ____ _ ____
 72
    65
 73
     4
 40
10.16
 49
6.35
 74
     0
 49
-1.27
 74
     0
 49
1.27
 74
     0
 49
-1.27
 74
     0
  0
LTYPE
  5
6D
330
5
100
AcDbSymbolTableRecord
100
AcDbLinetypeTableRecord
  2
CENTERX2
 70
     0
  3
Center (2x) ________  __  ________  __  _____
 72
    65
 73
     4
 40
20.32
 49
12.7
 74
     0
 49
-2.54
 74
     0
 49
2.54
 74
     0
 49
-2.54
 74
     0
  0
LTYPE
  5
6E
330
5
100
AcDbSymbolTableRecord
100
AcDbLinetypeTableRecord
  2
DOT2
 70
     0
  3
Dot (.5x) ........................................
 72
    65
 73
     2
 40
0.635
 49
0.0
 74
     0
 49
-0.635
 74
     0
  0
ENDTAB
  0
TABLE
  2
LAYER
  5
2
330
0
100
AcDbSymbolTable
 70
    17
  0
LAYER
  5
10
330
2
100
AcDbSymbolTableRecord
100
AcDbLayerTableRecord
  2
0
 70
     0
 62
     7
  6
Continuous
370
    -3
390
F
  0
LAYER
  5
6F
330
2
100
AcDbSymbolTableRecord
100
AcDbLayerTableRecord
  2
FORMAT
 70
     0
 62
     2
  6
Continuous
370
    -3
390
F
  0
LAYER
  5
70
330
2
100
AcDbSymbolTableRecord
100
AcDbLayerTableRecord
  2
외형선
 70
     0
 62
   100
  6
Continuous
370
    30
390
F
  0
LAYER
  5
71
330
2
100
AcDbSymbolTableRecord
100
AcDbLayerTableRecord
  2
숨은선
 70
     0
 62
     2
  6
HIDDEN
370
    15
390
F
  0
LAYER
  5
72
330
2
100
AcDbSymbolTableRecord
100
AcDbLayerTableRecord
  2
중심선
 70
     0
 62
     1
  6
CENTERX2
370
    -3
390
F
  0
LAYER
  5
73
330
2
100
AcDbSymbolTableRecord
100
AcDbLayerTableRecord
  2
파단선
 70
     0
 62
     4
  6
Continuous
370
    -3
390
F
  0
LAYER
  5
74
330
2
100
AcDbSymbolTableRecord
100
AcDbLayerTableRecord
  2
해칭선
 70
     0
 62
     4
  6
Continuous
370
    -3
390
F
  0
LAYER
  5
75
330
2
100
AcDbSymbolTableRecord
100
AcDbLayerTableRecord
  2
가는실선
 70
     0
 62
     4
  6
Continuous
370
    -3
390
F
  0
LAYER
  5
76
330
2
100
AcDbSymbolTableRecord
100
AcDbLayerTableRecord
  2
치수_보조선
 70
     0
 62
     4
  6
Continuous
370
    -3
390
F
  0
LAYER
  5
77
330
2
100
AcDbSymbolTableRecord
100
AcDbLayerTableRecord
  2
치수문자_일반주서
 70
     0
 62
     7
  6
Continuous
370
    15
390
F
  0
LAYER
  5
78
330
2
100
AcDbSymbolTableRecord
100
AcDbLayerTableRecord
  2
개별주서
 70
     0
 62
   100
  6
Continuous
370
    30
390
F
  0
LAYER
  5
79
330
2
100
AcDbSymbolTableRecord
100
AcDbLayerTableRecord
  2
중간선
 70
     0
 62
     2
  6
Continuous
370
    15
390
F
  0
LAYER
  5
7A
330
2
100
AcDbSymbolTableRecord
100
AcDbLayerTableRecord
  2
윤곽선
 70
     0
 62
     3
  6
Continuous
370
    40
390
F
  0
LAYER
  5
7B
330
2
100
AcDbSymbolTableRecord
100
AcDbLayerTableRecord
  2
중심마크
 70
     0
 62
   100
  6
Continuous
370
    30
390
F
  0
LAYER
  5
7C
330
2
100
AcDbSymbolTableRecord
100
AcDbLayerTableRecord
  2
가상선
 70
     0
 62
     4
  6
PHANTOM
370
    -3
390
F
  0
LAYER
  5
7D
330
2
100
AcDbSymbolTableRecord
100
AcDbLayerTableRecord
  2
특수지정선
 70
     0
 62
     5
  6
CENTERX2
370
    60
390
F
  0
LAYER
  5
137
330
2
100
AcDbSymbolTableRecord
100
AcDbLayerTableRecord
  2
Defpoints
 70
     0
 62
     7
  6
Continuous
290
     0
370
    -3
390
F
  0
ENDTAB
  0
TABLE
  2
STYLE
  5
3
330
0
100
AcDbSymbolTable
 70
     2
  0
STYLE
  5
11
330
3
100
AcDbSymbolTableRecord
100
AcDbTextStyleTableRecord
  2
Standard
 70
     0
 40
0.0
 41
1.0
 50
0.0
 71
     0
 42
3.5
  3
txt
  4

  0
STYLE
  5
93
330
3
100
AcDbSymbolTableRecord
100
AcDbTextStyleTableRecord
  2
SLDTEXTSTYLE0
 70
     0
 40
0.0
 41
0.75
 50
0.0
 71
     0
 42
3.5
  3
TXT
  4

  0
ENDTAB
  0
TABLE
  2
VIEW
  5
6
330
0
100
AcDbSymbolTable
 70
     0
  0
ENDTAB
  0
TABLE
  2
UCS
  5
7
330
0
100
AcDbSymbolTable
 70
     0
  0
ENDTAB
  0
TABLE
  2
APPID
  5
9
330
0
100
AcDbSymbolTable
 70
     1
  0
APPID
  5
12
330
9
100
AcDbSymbolTableRecord
100
AcDbRegAppTableRecord
  2
ACAD
 70
     0
  0
ENDTAB
  0
TABLE
  2
DIMSTYLE
  5
A
330
0
100
AcDbSymbolTable
 70
     3
100
AcDbDimStyleTable
  0
DIMSTYLE
105
27
330
A
100
AcDbSymbolTableRecord
100
AcDbDimStyleTableRecord
  2
ISO-25
 70
     0
 41
2.5
 42
0.625
 43
3.75
 44
1.25
 73
     0
 74
     0
 77
     1
 78
     8
140
2.5
141
2.5
143
0.03937007874016
147
0.625
171
     3
172
     1
178
     0
271
     2
272
     2
274
     3
278
    44
283
     0
284
     8
340
11
  0
DIMSTYLE
105
DD
102
{ACAD_REACTORS
330
DC
330
FF
102
}
330
A
100
AcDbSymbolTableRecord
100
AcDbDimStyleTableRecord
  2
SLDDIMSTYLE0
 70
     0
 41
3.302
 44
0.0
 45
0.000000001
 73
     0
 74
     0
 77
     1
 78
    12
 79
     3
140
3.5
147
0.875
172
     1
173
     1
178
     0
271
     2
272
     2
276
     2
284
    12
289
     0
340
93
  0
DIMSTYLE
105
EB
102
{ACAD_REACTORS
330
EA
330
F5
102
}
330
A
100
AcDbSymbolTableRecord
100
AcDbDimStyleTableRecord
  2
SLDDIMSTYLE1
 70
     0
 41
3.302
 44
0.0
 45
0.000000001
 73
     0
 74
     0
 77
     1
 78
    12
 79
     3
140
3.5
147
0.875
173
     1
178
     0
271
     2
272
     2
276
     2
284
    12
340
93
  0
ENDTAB
  0
TABLE
  2
BLOCK_RECORD
  5
1
330
0
100
AcDbSymbolTable
 70
     7
  0
BLOCK_RECORD
  5
1F
330
1
100
AcDbSymbolTableRecord
100
AcDbBlockTableRecord
  2
*Model_Space
340
22
  0
BLOCK_RECORD
  5
1B
330
1
100
AcDbSymbolTableRecord
100
AcDbBlockTableRecord
  2
*Paper_Space
340
1E
  0
BLOCK_RECORD
  5
23
330
1
100
AcDbSymbolTableRecord
100
AcDbBlockTableRecord
  2
*Paper_Space0
340
26
  0
BLOCK_RECORD
  5
7E
330
1
100
AcDbSymbolTableRecord
100
AcDbBlockTableRecord
  2
블럭10
340
0
102
{BLKREFS
331
D5
102
}
  0
BLOCK_RECORD
  5
DE
330
1
100
AcDbSymbolTableRecord
100
AcDbBlockTableRecord
  2
_D
340
0
  0
BLOCK_RECORD
  5
EC
330
1
100
AcDbSymbolTableRecord
100
AcDbBlockTableRecord
  2
_D_1
340
0
  0
BLOCK_RECORD
  5
F6
330
1
100
AcDbSymbolTableRecord
100
AcDbBlockTableRecord
  2
_D_2
340
0
  0
BLOCK_RECORD
  5
100
330
1
100
AcDbSymbolTableRecord
100
AcDbBlockTableRecord
  2
_D_3
340
0
  0
BLOCK_RECORD
  5
10C
330
1
100
AcDbSymbolTableRecord
100
AcDbBlockTableRecord
  2
SW_DOWELSYMBOL_0
340
0
102
{BLKREFS
331
112
102
}
  0
ENDTAB
  0
ENDSEC
  0
SECTION
  2
BLOCKS
  0
BLOCK
  5
20
330
1F
100
AcDbEntity
  8
0
100
AcDbBlockBegin
  2
*Model_Space
 70
     0
 10
0.0
 20
0.0
 30
0.0
  3
*Model_Space
  1

  0
ENDBLK
  5
21
330
1F
100
AcDbEntity
  8
0
100
AcDbBlockEnd
  0
BLOCK
  5
1C
330
1B
100
AcDbEntity
 67
     1
  8
0
100
AcDbBlockBegin
  2
*Paper_Space
 70
     0
 10
0.0
 20
0.0
 30
0.0
  3
*Paper_Space
  1

  0
ENDBLK
  5
1D
330
1B
100
AcDbEntity
 67
     1
  8
0
100
AcDbBlockEnd
  0
BLOCK
  5
24
330
23
100
AcDbEntity
  8
0
100
AcDbBlockBegin
  2
*Paper_Space0
 70
     0
 10
0.0
 20
0.0
 30
0.0
  3
*Paper_Space0
  1

  0
ENDBLK
  5
25
330
23
100
AcDbEntity
  8
0
100
AcDbBlockEnd
  0
BLOCK
  5
7F
330
7E
100
AcDbEntity
  8
0
100
AcDbBlockBegin
  2
블럭10
 70
     2
 10
0.0
 20
0.0
 30
0.0
  3
블럭10
  1

  0
ELLIPSE
  5
81
330
7E
100
AcDbEntity
  8
중심선
100
AcDbEllipse
 10
20.54032771741204
 20
12.0471743016438
 30
0.0
 11
6.600054785286829
 21
-1.261213355974178E-13
 31
0.0
210
0.0
220
0.0
230
1.0
 40
0.636358354079598
 41
0.9219305317359503
 42
6.513795318482858
  0
ELLIPSE
  5
82
330
7E
100
AcDbEntity
  8
중심선
100
AcDbEllipse
 10
20.54032771746488
 20
12.04717430159265
 30
0.0
 11
3.960054785062283
 21
1.540847449632565E-10
 31
0.0
210
0.0
220
0.0
230
1.0
 40
0.3939339440162632
 41
1.131841032648279
 42
5.62031148352944
  0
LINE
  5
83
330
7E
100
AcDbEntity
  8
중심선
100
AcDbLine
 10
2.268634060543552
 20
16.24717430164393
 30
0.0
 11
5.714909304380834
 21
16.24717430164393
 31
0.0
  0
LINE
  5
84
330
7E
100
AcDbEntity
  8
중심선
100
AcDbLine
 10
5.245725140726316
 20
7.84717430164391
 30
0.0
 11
8.692000384563599
 21
7.84717430164391
 31
0.0
  0
LINE
  5
85
330
7E
100
AcDbEntity
  8
중심선
100
AcDbLine
 10
15.74043728645272
 20
16.24717430164393
 30
0.0
 11
8.692000384563599
 21
7.84717430164391
 31
0.0
  0
LINE
  5
86
330
7E
100
AcDbEntity
  8
중심선
100
AcDbLine
 10
0.1404042013395286
 20
13.71084872107135
 30
0.0
 11
3.58671253028996
 21
13.71088815037384
 31
0.0
  0
LINE
  5
87
330
7E
100
AcDbEntity
  8
중심선
100
AcDbLine
 10
2.750260043222114
 20
10.84717430164391
 30
0.0
 11
6.196535287059397
 21
10.84717430164391
 31
0.0
  0
LINE
  5
88
330
7E
100
AcDbEntity
  8
중심선
100
AcDbLine
 10
12.29416204261559
 20
16.24717430164393
 30
0.0
 11
5.245725140726316
 21
7.84717430164391
 31
0.0
  0
LINE
  5
89
330
7E
100
AcDbEntity
  8
중심선
100
AcDbLine
 10
10.72767329541681
 20
16.24717430164393
 30
0.0
 11
6.196535287059397
 21
10.84717430164391
 31
0.0
  0
LINE
  5
8A
330
7E
100
AcDbEntity
  8
중심선
100
AcDbLine
 10
7.28139805157953
 20
16.24717430164393
 30
0.0
 11
2.750260043222114
 21
10.84717430164391
 31
0.0
  0
LINE
  5
8B
330
7E
100
AcDbEntity
  8
중심선
100
AcDbLine
 10
5.714909304380834
 20
16.24717430164393
 30
0.0
 11
3.58671253028996
 21
13.71088815037384
 31
0.0
  0
LINE
  5
8C
330
7E
100
AcDbEntity
  8
중심선
100
AcDbLine
 10
2.268634060543552
 20
16.24717430164393
 30
0.0
 11
0.1404042013395286
 21
13.71084872107135
 31
0.0
  0
LINE
  5
8D
330
7E
100
AcDbEntity
  8
중심선
100
AcDbLine
 10
7.28139805157953
 20
16.24717430164393
 30
0.0
 11
10.72767329541681
 21
16.24717430164393
 31
0.0
  0
LINE
  5
8E
330
7E
100
AcDbEntity
  8
중심선
100
AcDbLine
 10
12.29416204261559
 20
16.24717430164393
 30
0.0
 11
15.74043728645272
 21
16.24717430164393
 31
0.0
  0
LINE
  5
8F
330
7E
100
AcDbEntity
  8
중심선
100
AcDbLine
 10
19.22036997980202
 20
11.08717430171403
 30
0.0
 11
23.66174974927406
 21
11.08717430171406
 31
0.0
  0
LINE
  5
90
330
7E
100
AcDbEntity
  8
중심선
100
AcDbLine
 10
19.22039502424796
 20
13.00717430171391
 30
0.0
 11
19.22036997980202
 21
11.08717430171403
 31
0.0
  0
LINE
  5
91
330
7E
100
AcDbEntity
  8
중심선
100
AcDbLine
 10
19.22039502424796
 20
13.00717430171391
 30
0.0
 11
26.96566020931264
 21
13.00717430171391
 31
0.0
  0
LINE
  5
92
330
7E
100
AcDbEntity
  8
중심선
100
AcDbLine
 10
22.22332737316547
 20
13.45928029700563
 30
0.0
 11
24.52862924686651
 21
15.39360700705356
 31
0.0
  0
ATTDEF
  5
94
330
7E
100
AcDbEntity
  8
FORMAT
 62
     2
100
AcDbText
 10
-20.85824753159254
 20
2.075366912832191
 30
0.0
 40
4.233333333333333
  1
SEME7012060200E [ 2 FLUTE ]
 41
0.75
  7
SLDTEXTSTYLE0
 11
-20.85824753159254
 21
-0.0412997538344756
 31
0.0
100
AcDbAttributeDefinition
  3

  2
AUTOATTR0
 70
     0
 74
     1
  0
ENDBLK
  5
80
330
7E
100
AcDbEntity
  8
0
100
AcDbBlockEnd
  0
BLOCK
  5
DF
330
DE
100
AcDbEntity
  8
0
100
AcDbBlockBegin
  2
_D
 70
     0
 10
0.0
 20
0.0
 30
0.0
  3
_D
  1

  0
LINE
  5
E1
330
DE
100
AcDbEntity
  8
치수문자_일반주서
 62
     0
370
    -2
100
AcDbLine
 10
70.0625
 20
-5.999999999999771
 30
0.0
 11
84.12447528490125
 21
-5.999999999999719
 31
0.0
  0
LINE
  5
E2
330
DE
100
AcDbEntity
  8
치수문자_일반주서
 62
     0
370
    -2
100
AcDbLine
 10
70.0625
 20
6.000000000000226
 30
0.0
 11
84.12447528490121
 21
6.000000000000277
 31
0.0
  0
LINE
  5
E3
330
DE
100
AcDbEntity
  8
치수문자_일반주서
 62
     0
370
    -2
100
AcDbLine
 10
84.12447528490125
 20
-5.999999999999719
 30
0.0
 11
84.12447528490115
 21
20.47900000000028
 31
0.0
  0
LINE
  5
E4
330
DE
100
AcDbEntity
  8
치수문자_일반주서
 62
     0
370
    -2
100
AcDbLine
 10
84.12447528490125
 20
-5.999999999999719
 30
0.0
 11
84.12447528490121
 21
6.000000000000277
 31
0.0
  0
LINE
  5
E5
330
DE
100
AcDbEntity
  8
치수문자_일반주서
 62
     0
370
    -2
100
AcDbLine
 10
84.12447528490127
 20
-9.301999999999719
 30
0.0
 11
84.12447528490128
 21
-12.60399999999972
 31
0.0
  0
LINE
  5
E6
330
DE
100
AcDbEntity
  8
치수문자_일반주서
 62
     0
370
    -2
100
AcDbLine
 10
84.1244752849012
 20
9.302000000000277
 30
0.0
 11
84.12447528490118
 21
12.60400000000028
 31
0.0
  0
SOLID
  5
E7
330
DE
100
AcDbEntity
  8
치수문자_일반주서
 62
     0
100
AcDbTrace
 10
84.6748086182346
 20
-9.301999999999717
 30
0.0
 11
83.57414195156794
 21
-9.30199999999972
 31
0.0
 12
84.12447528490125
 22
-5.999999999999719
 32
0.0
 13
84.12447528490125
 23
-5.999999999999719
 33
0.0
  0
SOLID
  5
E8
330
DE
100
AcDbEntity
  8
치수문자_일반주서
 62
     0
100
AcDbTrace
 10
83.57414195156787
 20
9.302000000000275
 30
0.0
 11
84.67480861823452
 21
9.302000000000278
 31
0.0
 12
84.12447528490121
 22
6.000000000000277
 32
0.0
 13
84.12447528490121
 23
6.000000000000277
 33
0.0
  0
MTEXT
  5
E9
330
DE
100
AcDbEntity
  8
치수문자_일반주서
 62
     0
100
AcDbMText
 10
79.74947528490117
 20
16.54150000000026
 30
0.0
 40
3.5
 41
0.0
 71
     2
 72
     1
  1
\A1;%%c12
  7
SLDTEXTSTYLE0
 11
-3.552713678800502E-15
 21
1.0
 31
0.0
 73
     1
 44
1.0
  0
POINT
  5
141
330
DE
100
AcDbEntity
  8
Defpoints
 62
     0
100
AcDbPoint
 10
70.0
 20
-5.999999999999771
 30
0.0
  0
POINT
  5
142
330
DE
100
AcDbEntity
  8
Defpoints
 62
     0
100
AcDbPoint
 10
70.0
 20
6.000000000000226
 30
0.0
  0
POINT
  5
143
330
DE
100
AcDbEntity
  8
Defpoints
 62
     0
100
AcDbPoint
 10
84.12447528490121
 20
6.000000000000278
 30
0.0
  0
ENDBLK
  5
E0
330
DE
100
AcDbEntity
  8
0
100
AcDbBlockEnd
  0
BLOCK
  5
ED
330
EC
100
AcDbEntity
  8
0
100
AcDbBlockBegin
  2
_D_1
 70
     0
 10
0.0
 20
0.0
 30
0.0
  3
_D_1
  1

  0
LINE
  5
EF
330
EC
100
AcDbEntity
  8
치수문자_일반주서
 62
     0
370
    -2
100
AcDbLine
 10
-130.0
 20
5.062499999999987
 30
0.0
 11
-130.0
 21
26.78841044024269
 31
0.0
  0
LINE
  5
F0
330
EC
100
AcDbEntity
  8
치수문자_일반주서
 62
     0
370
    -2
100
AcDbLine
 10
69.99999999999973
 20
6.062500000000226
 30
0.0
 11
69.99999999999973
 21
26.78841044024269
 31
0.0
  0
LINE
  5
F1
330
EC
100
AcDbEntity
  8
치수문자_일반주서
 62
     0
370
    -2
100
AcDbLine
 10
-126.698
 20
26.78841044024269
 30
0.0
 11
66.69799999999972
 21
26.78841044024269
 31
0.0
  0
SOLID
  5
F2
330
EC
100
AcDbEntity
  8
치수문자_일반주서
 62
     0
100
AcDbTrace
 10
-126.698
 20
27.33874377357602
 30
0.0
 11
-126.698
 21
26.23807710690935
 31
0.0
 12
-130.0
 22
26.78841044024269
 32
0.0
 13
-130.0
 23
26.78841044024269
 33
0.0
  0
SOLID
  5
F3
330
EC
100
AcDbEntity
  8
치수문자_일반주서
 62
     0
100
AcDbTrace
 10
66.69799999999972
 20
26.23807710690935
 30
0.0
 11
66.69799999999972
 21
27.33874377357602
 31
0.0
 12
69.99999999999973
 22
26.78841044024269
 32
0.0
 13
69.99999999999973
 23
26.78841044024269
 33
0.0
  0
MTEXT
  5
F4
330
EC
100
AcDbEntity
  8
치수문자_일반주서
 62
     0
100
AcDbMText
 10
-30.00000000000014
 20
31.16341044024269
 30
0.0
 40
3.5
 41
0.0
 71
     2
 72
     1
  1
\A1;200
  7
SLDTEXTSTYLE0
 73
     1
 44
1.0
  0
POINT
  5
138
330
EC
100
AcDbEntity
  8
Defpoints
 62
     0
100
AcDbPoint
 10
-130.0
 20
4.999999999999987
 30
0.0
  0
POINT
  5
139
330
EC
100
AcDbEntity
  8
Defpoints
 62
     0
100
AcDbPoint
 10
69.99999999999973
 20
6.000000000000226
 30
0.0
  0
POINT
  5
13A
330
EC
100
AcDbEntity
  8
Defpoints
 62
     0
100
AcDbPoint
 10
69.99999999999973
 20
26.78841044024269
 30
0.0
  0
ENDBLK
  5
EE
330
EC
100
AcDbEntity
  8
0
100
AcDbBlockEnd
  0
BLOCK
  5
F7
330
F6
100
AcDbEntity
  8
0
100
AcDbBlockBegin
  2
_D_2
 70
     0
 10
0.0
 20
0.0
 30
0.0
  3
_D_2
  1

  0
LINE
  5
F9
330
F6
100
AcDbEntity
  8
치수문자_일반주서
 62
     0
370
    -2
100
AcDbLine
 10
10.00000000000001
 20
5.955911867549767
 30
0.0
 11
10.00000000000001
 21
19.24040967371729
 31
0.0
  0
LINE
  5
FA
330
F6
100
AcDbEntity
  8
치수문자_일반주서
 62
     0
370
    -2
100
AcDbLine
 10
69.99999999999973
 20
6.062500000000226
 30
0.0
 11
69.99999999999973
 21
19.24040967371729
 31
0.0
  0
LINE
  5
FB
330
F6
100
AcDbEntity
  8
치수문자_일반주서
 62
     0
370
    -2
100
AcDbLine
 10
13.30200000000001
 20
19.24040967371729
 30
0.0
 11
66.69799999999972
 21
19.24040967371729
 31
0.0
  0
SOLID
  5
FC
330
F6
100
AcDbEntity
  8
치수문자_일반주서
 62
     0
100
AcDbTrace
 10
13.30200000000001
 20
19.79074300705062
 30
0.0
 11
13.30200000000001
 21
18.69007634038395
 31
0.0
 12
10.00000000000001
 22
19.24040967371729
 32
0.0
 13
10.00000000000001
 23
19.24040967371729
 33
0.0
  0
SOLID
  5
FD
330
F6
100
AcDbEntity
  8
치수문자_일반주서
 62
     0
100
AcDbTrace
 10
66.69799999999972
 20
18.69007634038395
 30
0.0
 11
66.69799999999972
 21
19.79074300705062
 31
0.0
 12
69.99999999999973
 22
19.24040967371729
 32
0.0
 13
69.99999999999973
 23
19.24040967371729
 33
0.0
  0
MTEXT
  5
FE
330
F6
100
AcDbEntity
  8
치수문자_일반주서
 62
     0
100
AcDbMText
 10
40.00000000000001
 20
23.61540967371729
 30
0.0
 40
3.5
 41
0.0
 71
     2
 72
     1
  1
\A1;60
  7
SLDTEXTSTYLE0
 73
     1
 44
1.0
  0
POINT
  5
13B
330
F6
100
AcDbEntity
  8
Defpoints
 62
     0
100
AcDbPoint
 10
10.00000000000001
 20
5.893411867549767
 30
0.0
  0
POINT
  5
13C
330
F6
100
AcDbEntity
  8
Defpoints
 62
     0
100
AcDbPoint
 10
69.99999999999973
 20
6.000000000000226
 30
0.0
  0
POINT
  5
13D
330
F6
100
AcDbEntity
  8
Defpoints
 62
     0
100
AcDbPoint
 10
69.99999999999973
 20
19.24040967371729
 30
0.0
  0
ENDBLK
  5
F8
330
F6
100
AcDbEntity
  8
0
100
AcDbBlockEnd
  0
BLOCK
  5
101
330
100
100
AcDbEntity
  8
0
100
AcDbBlockBegin
  2
_D_3
 70
     0
 10
0.0
 20
0.0
 30
0.0
  3
_D_3
  1

  0
LINE
  5
103
330
100
100
AcDbEntity
  8
치수문자_일반주서
 62
     0
370
    -2
100
AcDbLine
 10
-129.0625
 20
5.999999999999989
 30
0.0
 11
-141.0134980092026
 21
5.999999999999945
 31
0.0
  0
LINE
  5
104
330
100
100
AcDbEntity
  8
치수문자_일반주서
 62
     0
370
    -2
100
AcDbLine
 10
-129.0625
 20
-5.999999999999996
 30
0.0
 11
-141.0134980092026
 21
-6.000000000000039
 31
0.0
  0
LINE
  5
105
330
100
100
AcDbEntity
  8
치수문자_일반주서
 62
     0
370
    -2
100
AcDbLine
 10
-141.0134980092026
 20
5.999999999999945
 30
0.0
 11
-141.0134980092026
 21
20.47899999999994
 31
0.0
  0
LINE
  5
106
330
100
100
AcDbEntity
  8
치수문자_일반주서
 62
     0
370
    -2
100
AcDbLine
 10
-141.0134980092026
 20
5.999999999999945
 30
0.0
 11
-141.0134980092026
 21
-6.000000000000039
 31
0.0
  0
LINE
  5
107
330
100
100
AcDbEntity
  8
치수문자_일반주서
 62
     0
370
    -2
100
AcDbLine
 10
-141.0134980092026
 20
9.301999999999945
 30
0.0
 11
-141.0134980092026
 21
12.60399999999994
 31
0.0
  0
LINE
  5
108
330
100
100
AcDbEntity
  8
치수문자_일반주서
 62
     0
370
    -2
100
AcDbLine
 10
-141.0134980092026
 20
-9.302000000000039
 30
0.0
 11
-141.0134980092026
 21
-12.60400000000004
 31
0.0
  0
SOLID
  5
109
330
100
100
AcDbEntity
  8
치수문자_일반주서
 62
     0
100
AcDbTrace
 10
-141.5638313425359
 20
9.301999999999943
 30
0.0
 11
-140.4631646758693
 21
9.301999999999946
 31
0.0
 12
-141.0134980092026
 22
5.999999999999945
 32
0.0
 13
-141.0134980092026
 23
5.999999999999945
 33
0.0
  0
SOLID
  5
10A
330
100
100
AcDbEntity
  8
치수문자_일반주서
 62
     0
100
AcDbTrace
 10
-140.4631646758692
 20
-9.302000000000037
 30
0.0
 11
-141.5638313425359
 21
-9.30200000000004
 31
0.0
 12
-141.0134980092026
 22
-6.000000000000039
 32
0.0
 13
-141.0134980092026
 23
-6.000000000000039
 33
0.0
  0
MTEXT
  5
10B
330
100
100
AcDbEntity
  8
치수문자_일반주서
 62
     0
100
AcDbMText
 10
-145.3884980092026
 20
16.54149999999993
 30
0.0
 40
3.5
 41
0.0
 71
     2
 72
     1
  1
\A1;%%c12
  7
SLDTEXTSTYLE0
 11
-2.368475785867003E-15
 21
1.0
 31
0.0
 73
     1
 44
1.0
  0
POINT
  5
13E
330
100
100
AcDbEntity
  8
Defpoints
 62
     0
100
AcDbPoint
 10
-129.0
 20
5.999999999999989
 30
0.0
  0
POINT
  5
13F
330
100
100
AcDbEntity
  8
Defpoints
 62
     0
100
AcDbPoint
 10
-129.0
 20
-5.999999999999996
 30
0.0
  0
POINT
  5
140
330
100
100
AcDbEntity
  8
Defpoints
 62
     0
100
AcDbPoint
 10
-141.0134980092026
 20
-6.000000000000042
 30
0.0
  0
ENDBLK
  5
102
330
100
100
AcDbEntity
  8
0
100
AcDbBlockEnd
  0
BLOCK
  5
10D
330
10C
100
AcDbEntity
  8
0
100
AcDbBlockBegin
  2
SW_DOWELSYMBOL_0
 70
     0
 10
0.0
 20
0.0
 30
0.0
  3
SW_DOWELSYMBOL_0
  1

  0
CIRCLE
  5
10F
330
10C
100
AcDbEntity
  8
외형선
 62
     0
100
AcDbCircle
 10
0.0
 20
0.0
 30
0.0
 40
3.000000000000004
  0
HATCH
  5
110
330
10C
100
AcDbEntity
  8
0
  6
Continuous
 62
     0
370
    30
100
AcDbHatch
 10
0.0
 20
0.0
 30
0.0
210
0.0
220
0.0
230
1.0
  2
SOLID
 70
     1
 71
     0
 91
        1
 92
        0
 93
        3
 72
     2
 10
0.0000000000000104
 20
0.0
 40
3.000000000000004
 50
0.0
 51
90.0
 73
     1
 72
     1
 10
0.0000000000000104
 20
3.000000000000004
 11
0.0000000000000104
 21
0.0
 72
     1
 10
0.0000000000000104
 20
0.0
 11
3.000000000000015
 21
0.0
 97
        0
 75
     0
 76
     1
 98
        1
 10
0.0
 20
0.0
  0
HATCH
  5
111
330
10C
100
AcDbEntity
  8
0
  6
Continuous
 62
     0
370
    30
100
AcDbHatch
 10
0.0
 20
0.0
 30
0.0
210
0.0
220
0.0
230
1.0
  2
SOLID
 70
     1
 71
     0
 91
        1
 92
        0
 93
        3
 72
     2
 10
0.0000000000000104
 20
0.0
 40
3.000000000000004
 50
180.0
 51
270.0000000000008
 73
     1
 72
     1
 10
0.0000000000000104
 20
-3.000000000000004
 11
0.0000000000000104
 21
0.0
 72
     1
 10
0.0000000000000104
 20
0.0
 11
-2.999999999999994
 21
0.0
 97
        0
 75
     0
 76
     1
 98
        1
 10
0.0
 20
0.0
  0
ENDBLK
  5
10E
330
10C
100
AcDbEntity
  8
0
100
AcDbBlockEnd
  0
ENDSEC
  0
SECTION
  2
ENTITIES
  0
LINE
  5
95
330
1F
100
AcDbEntity
  8
0
  6
Continuous
 62
     1
370
    15
100
AcDbLine
 10
19.1031119056513
 20
1.353053817224077
 30
0.0
 11
18.4234795427729
 21
1.72501045500968
 31
0.0
  0
LINE
  5
96
330
1F
100
AcDbEntity
  8
0
  6
Continuous
 62
     1
370
    15
100
AcDbLine
 10
51.20248541885408
 20
1.653485233064745
 30
0.0
 11
51.07154261181235
 21
1.725190263200726
 31
0.0
  0
LINE
  5
97
330
1F
100
AcDbEntity
  8
0
  6
Continuous
 62
     1
370
    15
100
AcDbLine
 10
40.68833905347076
 20
6.000000000000011
 30
0.0
 11
37.77964674025613
 21
6.000000000000011
 31
0.0
  0
LINE
  5
98
330
1F
100
AcDbEntity
  8
0
  6
Continuous
 62
     1
370
    15
100
AcDbLine
 10
37.77964674025612
 20
-6.0
 30
0.0
 11
40.68833905347073
 21
-6.0
 31
0.0
  0
SPLINE
  5
99
330
1F
100
AcDbEntity
  8
0
  6
Continuous
 62
     1
370
    15
100
AcDbSpline
210
0.0
220
0.0
230
1.0
 70
     8
 71
     3
 72
     9
 73
     5
 74
     0
 42
0.000000001
 43
0.00000001
 40
0.0
 40
0.0
 40
0.0
 40
0.0
 40
0.4371774061704595
 40
1.0
 40
1.0
 40
1.0
 40
1.0
 10
21.80812201990105
 20
1.53726819529837
 30
0.0
 10
21.56531269209113
 20
1.652669369332731
 30
0.0
 10
21.00991041287261
 20
1.916638120703577
 30
0.0
 10
20.45465877000081
 20
2.206726996246387
 30
0.0
 10
20.1421506001316
 20
2.369995569620486
 30
0.0
  0
LINE
  5
9A
330
1F
100
AcDbEntity
  8
0
  6
Continuous
 62
     1
370
    15
100
AcDbLine
 10
52.85949483329992
 20
2.33442751949773
 30
0.0
 11
52.79032287301727
 21
2.370110492743535
 31
0.0
  0
SPLINE
  5
9B
330
1F
100
AcDbEntity
  8
0
  6
Continuous
 62
     1
370
    15
100
AcDbSpline
210
0.0
220
0.0
230
1.0
 70
     8
 71
     3
 72
     9
 73
     5
 74
     0
 42
0.000000001
 43
0.00000001
 40
0.0
 40
0.0
 40
0.0
 40
0.0
 40
0.5309600798238436
 40
1.0
 40
1.0
 40
1.0
 40
1.0
 10
54.45643250424893
 20
1.537304763086994
 30
0.0
 10
54.1737206951611
 20
1.671893297788365
 30
0.0
 10
53.64126671259123
 20
1.925374754899082
 30
0.0
 10
53.10910154229583
 20
2.203823801096273
 30
0.0
 10
52.85949483329992
 20
2.33442751949773
 30
0.0
  0
SPLINE
  5
9C
330
1F
100
AcDbEntity
  8
0
  6
Continuous
 62
     1
370
    15
100
AcDbSpline
210
0.0
220
0.0
230
1.0
 70
     8
 71
     3
 72
    21
 73
    17
 74
     0
 42
0.000000001
 43
0.00000001
 40
0.0
 40
0.0
 40
0.0
 40
0.0
 40
0.1286137437190033
 40
0.2127517201606827
 40
0.2671461897377727
 40
0.3233581756831972
 40
0.3812286264205333
 40
0.4391246273003463
 40
0.4968794341517485
 40
0.5541677358673766
 40
0.6091309945147358
 40
0.661803982454776
 40
0.7151899381240063
 40
0.772199962220653
 40
0.8642081813754716
 40
1.0
 40
1.0
 40
1.0
 40
1.0
 10
10.85182191545547
 20
-4.987602599870244
 30
0.0
 10
11.23712194159058
 20
-4.951121165906749
 30
0.0
 10
11.87448184550021
 20
-4.890773899703075
 30
0.0
 10
12.67216558470974
 20
-4.831495978912017
 30
0.0
 10
13.25048236845221
 20
-4.793656641374999
 30
0.0
 10
13.75404333301281
 20
-4.764831598663235
 30
0.0
 10
14.26889286142312
 20
-4.739983917987546
 30
0.0
 10
14.78826161482974
 20
-4.71956216750072
 30
0.0
 10
15.30581528371547
 20
-4.7038502038981
 30
0.0
 10
15.81454216757081
 20
-4.692972113752799
 30
0.0
 10
16.30716248334134
 20
-4.686881312741813
 30
0.0
 10
16.78675441153469
 20
-4.685010387023365
 30
0.0
 10
17.27463641254071
 20
-4.687173684211488
 30
0.0
 10
17.88227085310089
 20
-4.695430505366334
 30
0.0
 10
18.73452832688755
 20
-4.716042287451585
 30
0.0
 10
19.41720226521725
 20
-4.748496257695909
 30
0.0
 10
19.82414484747948
 20
-4.767842100146259
 30
0.0
  0
SPLINE
  5
9D
330
1F
100
AcDbEntity
  8
0
  6
Continuous
 62
     1
370
    15
100
AcDbSpline
210
0.0
220
0.0
230
1.0
 70
     8
 71
     3
 72
    10
 73
     6
 74
     0
 42
0.000000001
 43
0.00000001
 40
0.0
 40
0.0
 40
0.0
 40
0.0
 40
0.378433961371516
 40
0.9071858365707105
 40
1.0
 40
1.0
 40
1.0
 40
1.0
 10
52.47238054611383
 20
4.767833919923302
 30
0.0
 10
51.84593651612104
 20
4.741089924257063
 30
0.0
 10
50.34421835807284
 20
4.676978939096554
 30
0.0
 10
48.69026480991911
 20
4.671892713546449
 30
0.0
 10
47.66178317347798
 20
4.716500422669911
 30
0.0
 10
47.5082071143688
 20
4.723161383770564
 30
0.0
  0
SPLINE
  5
9E
330
1F
100
AcDbEntity
  8
0
  6
Continuous
 62
     1
370
    15
100
AcDbSpline
210
0.0
220
0.0
230
1.0
 70
     8
 71
     3
 72
    12
 73
     8
 74
     0
 42
0.000000001
 43
0.00000001
 40
0.0
 40
0.0
 40
0.0
 40
0.0
 40
0.2086924561236696
 40
0.5009174388680864
 40
0.6985735814810695
 40
0.7918139085815153
 40
1.0
 40
1.0
 40
1.0
 40
1.0
 10
43.4487290046205
 20
-4.992817888383777
 30
0.0
 10
44.07666302361158
 20
-4.935191170624829
 30
0.0
 10
45.58387179585755
 20
-4.796871710466284
 30
0.0
 10
47.6842726352837
 20
-4.6981966191333
 30
0.0
 10
49.43858982619566
 20
-4.68074218728092
 30
0.0
 10
50.93863622117525
 20
-4.699487904624617
 30
0.0
 10
51.84581775572342
 20
-4.739913314538608
 30
0.0
 10
52.47238054611383
 20
-4.767833919923287
 30
0.0
  0
SPLINE
  5
9F
330
1F
100
AcDbEntity
  8
0
  6
Continuous
 62
     1
370
    15
100
AcDbSpline
210
0.0
220
0.0
230
1.0
 70
     8
 71
     3
 72
    15
 73
    11
 74
     0
 42
0.000000001
 43
0.00000001
 40
0.0
 40
0.0
 40
0.0
 40
0.0
 40
0.2471895302375689
 40
0.4146772971829538
 40
0.5184558695448737
 40
0.6156373451067417
 40
0.7115209651730524
 40
0.8115736945862531
 40
0.9158588314423306
 40
1.0
 40
1.0
 40
1.0
 40
1.0
 10
19.82414484747948
 20
4.767842100146271
 30
0.0
 10
19.41720226597244
 20
4.748496165726105
 30
0.0
 10
18.73452832890961
 20
4.716042041196141
 30
0.0
 10
17.88227084873542
 20
4.695431037010319
 30
0.0
 10
17.27463642198625
 20
4.687172533896814
 30
0.0
 10
16.78675437841981
 20
4.685014419886452
 30
0.0
 10
16.30716260774291
 20
4.686866162617184
 30
0.0
 10
15.81454167167638
 20
4.693032505768923
 30
0.0
 10
15.34032675682317
 20
4.702895915916655
 30
0.0
 10
15.03054935124531
 20
4.712610040793593
 30
0.0
 10
14.89221923411622
 20
4.716947852421677
 30
0.0
  0
SPLINE
  5
A0
330
1F
100
AcDbEntity
  8
0
  6
Continuous
 62
     1
370
    15
100
AcDbSpline
210
0.0
220
0.0
230
1.0
 70
     8
 71
     3
 72
    13
 73
     9
 74
     0
 42
0.000000001
 43
0.00000001
 40
0.0
 40
0.0
 40
0.0
 40
0.0
 40
0.221077943177081
 40
0.3639589289168064
 40
0.5077848545363364
 40
0.6773731020323199
 40
0.8506819168910251
 40
1.0
 40
1.0
 40
1.0
 40
1.0
 10
57.28788241710879
 20
-4.512857107109845
 30
0.0
 10
57.61403911590349
 20
-4.463209997237723
 30
0.0
 10
58.15098839743937
 20
-4.38147633953674
 30
0.0
 10
58.91816348352221
 20
-4.281787154573559
 30
0.0
 10
59.60602830987047
 20
-4.200748417175866
 30
0.0
 10
60.3331850781059
 20
-4.127511326270968
 30
0.0
 10
61.06962528124735
 20
-4.064716470945474
 30
0.0
 10
61.55194876801274
 20
-4.034570202049782
 30
0.0
 10
61.775177577935
 20
-4.0206179150187
 30
0.0
  0
SPLINE
  5
A1
330
1F
100
AcDbEntity
  8
0
  6
Continuous
 62
     1
370
    15
100
AcDbSpline
210
0.0
220
0.0
230
1.0
 70
     8
 71
     3
 72
    23
 73
    19
 74
     0
 42
0.000000001
 43
0.00000001
 40
0.0
 40
0.0
 40
0.0
 40
0.0
 40
0.0949478739035167
 40
0.1572535608802813
 40
0.2016328226409811
 40
0.249345657306213
 40
0.3014054862308652
 40
0.3588317329189897
 40
0.41977479841506
 40
0.480942234493333
 40
0.5932471175471391
 40
0.6895831405116486
 40
0.7395358218573703
 40
0.7876692086275925
 40
0.8202682027734243
 40
0.8664389465588852
 40
0.9264296857658411
 40
0.9999999999999999
 40
0.9999999999999999
 40
0.9999999999999999
 40
0.9999999999999999
 10
35.12244803697547
 20
4.103731743452483
 30
0.0
 10
34.79099472101903
 20
4.07733707821684
 30
0.0
 10
34.24203862482783
 20
4.033621985651779
 30
0.0
 10
33.5379138784556
 20
3.995765313509561
 30
0.0
 10
32.99641794780107
 20
3.973152771270338
 30
0.0
 10
32.49252614992766
 20
3.95822385096806
 30
0.0
 10
31.94312114779066
 20
3.948981131310282
 30
0.0
 10
31.34738843555323
 20
3.947312890309854
 30
0.0
 10
30.72038720933627
 20
3.955132310615547
 30
0.0
 10
29.90155632504982
 20
3.978194805476044
 30
0.0
 10
28.95850406036369
 20
4.025395732255054
 30
0.0
 10
28.05504364995591
 20
4.094504499996538
 30
0.0
 10
27.37544346248596
 20
4.158216744931355
 30
0.0
 10
26.9240649166912
 20
4.205725196619978
 30
0.0
 10
26.48296165431534
 20
4.256351622763505
 30
0.0
 10
25.99793911044152
 20
4.31663229526723
 30
0.0
 10
25.36777579240946
 20
4.401403168932415
 30
0.0
 10
24.89818572142337
 20
4.473267662020345
 30
0.0
 10
24.63951833153999
 20
4.51285325379683
 30
0.0
  0
SPLINE
  5
A2
330
1F
100
AcDbEntity
  8
0
  6
Continuous
 62
     1
370
    15
100
AcDbSpline
210
0.0
220
0.0
230
1.0
 70
     8
 71
     3
 72
    15
 73
    11
 74
     0
 42
0.000000001
 43
0.00000001
 40
0.0
 40
0.0
 40
0.0
 40
0.0
 40
0.1716121794689871
 40
0.3115482611675665
 40
0.4952723235007337
 40
0.6075496121714179
 40
0.7240706384208682
 40
0.838556376352023
 40
0.948791026437532
 40
0.9999999999999999
 40
0.9999999999999999
 40
0.9999999999999999
 40
0.9999999999999999
 10
24.63951833153999
 20
-4.512853253796821
 30
0.0
 10
24.89818221398334
 20
-4.473272984893231
 30
0.0
 10
25.36776591749104
 20
-4.401418155057644
 30
0.0
 10
26.11224589448835
 20
-4.301206919731772
 30
0.0
 10
26.76468804353334
 20
-4.222435657749636
 30
0.0
 10
27.37543529571518
 20
-4.15825161057155
 30
0.0
 10
27.88983410504406
 20
-4.109903342476484
 30
0.0
 10
28.40115806925296
 20
-4.068338526783712
 30
0.0
 10
28.81434366699521
 20
-4.038295801681398
 30
0.0
 10
29.0562016920987
 20
-4.024793610563283
 30
0.0
 10
29.13291764367077
 20
-4.020510794479382
 30
0.0
  0
SPLINE
  5
A3
330
1F
100
AcDbEntity
  8
0
  6
Continuous
 62
     1
370
    15
100
AcDbSpline
210
0.0
220
0.0
230
1.0
 70
     8
 71
     3
 72
    20
 73
    16
 74
     0
 42
0.000000001
 43
0.00000001
 40
0.0
 40
0.0
 40
0.0
 40
0.0
 40
0.100971380943176
 40
0.1635129756116855
 40
0.2235247405248253
 40
0.2931544624965936
 40
0.3661315986274274
 40
0.4379556728468725
 40
0.5041722439729773
 40
0.6214477115280235
 40
0.72933654654651
 40
0.7656669409809295
 40
0.8148200353390579
 40
0.8928636682204719
 40
1.0
 40
1.0
 40
1.0
 40
1.0
 10
67.80381905581217
 20
4.10655791575685
 30
0.0
 10
67.45226714968378
 20
4.078355144391208
 30
0.0
 10
66.88296426686624
 20
4.032683598420302
 30
0.0
 10
66.09246502851465
 20
3.990932308573113
 30
0.0
 10
65.4144476341839
 20
3.964622600166024
 30
0.0
 10
64.70541985296343
 20
3.949321172815036
 30
0.0
 10
63.95375318732164
 20
3.946734773791593
 30
0.0
 10
63.21479129108616
 20
3.958085686844005
 30
0.0
 10
62.30401226647925
 20
3.988008159151752
 30
0.0
 10
61.29857791582802
 20
4.045474005390744
 30
0.0
 10
60.38422370289784
 20
4.122470937395923
 30
0.0
 10
59.70655254537823
 20
4.191127057883546
 30
0.0
 10
59.13460373990162
 20
4.255128622670276
 30
0.0
 10
58.3144174928133
 20
4.357896224832423
 30
0.0
 10
57.66411598257611
 20
4.456062666640118
 30
0.0
 10
57.2878824171088
 20
4.512857107109861
 30
0.0
  0
LINE
  5
A4
330
1F
100
AcDbEntity
  8
0
  6
Continuous
 62
   131
370
    15
100
AcDbLine
 10
8.038276009748705
 20
6.000000000000005
 30
0.0
 11
-129.0
 21
5.999999999999996
 31
0.0
  0
LINE
  5
A5
330
1F
100
AcDbEntity
  8
0
  6
Continuous
 62
   131
370
    15
100
AcDbLine
 10
-129.0
 20
-6.000000000000004
 30
0.0
 11
8.038276009748683
 21
-5.999999999999995
 31
0.0
  0
LINE
  5
A6
330
1F
100
AcDbEntity
  8
0
  6
Continuous
 62
   131
370
    15
100
AcDbLine
 10
-129.0
 20
5.999999999999989
 30
0.0
 11
-130.0
 21
4.999999999999987
 31
0.0
  0
LINE
  5
A7
330
1F
100
AcDbEntity
  8
0
  6
Continuous
 62
   131
370
    15
100
AcDbLine
 10
-130.0
 20
-4.999999999999994
 30
0.0
 11
-129.0
 21
-5.999999999999996
 31
0.0
  0
SPLINE
  5
A8
330
1F
100
AcDbEntity
  8
0
  6
Continuous
 62
     1
370
    15
100
AcDbSpline
210
0.0
220
0.0
230
1.0
 70
     8
 71
     3
 72
    18
 73
    14
 74
     0
 42
0.000000001
 43
0.00000001
 40
0.0
 40
0.0
 40
0.0
 40
0.0
 40
0.0970653888472486
 40
0.194088645912508
 40
0.2910593171130771
 40
0.388098516376104
 40
0.4851653240791135
 40
0.578220247095885
 40
0.6712278677777007
 40
0.7642358746655474
 40
0.8572910069589225
 40
0.950364999605652
 40
1.0
 40
1.0
 40
1.0
 40
1.0
 10
10.00000000000001
 20
5.353234232225892
 30
0.0
 10
10.89891760570719
 20
5.084083405006067
 30
0.0
 10
12.69636263684166
 20
4.545898577007947
 30
0.0
 10
15.39163534695546
 20
3.338669217875061
 30
0.0
 10
18.08611457344651
 20
1.933059387895325
 30
0.0
 10
20.78166285675639
 20
0.3920743667607018
 30
0.0
 10
23.44111610488954
 20
-1.151966994421681
 30
0.0
 10
26.06282709526963
 20
-2.60055101283234
 30
0.0
 10
28.6466627890508
 20
-3.867532032589757
 30
0.0
 10
31.23048359092691
 20
-4.901364053941579
 30
0.0
 10
33.81529095254579
 20
-5.615264177360998
 30
0.0
 10
35.99854726686477
 20
-5.983691018220077
 30
0.0
 10
37.32002816062092
 20
-5.961564094294169
 30
0.0
 10
37.77964674025612
 20
-5.953868224157433
 30
0.0
  0
SPLINE
  5
A9
330
1F
100
AcDbEntity
  8
0
  6
Continuous
 62
     1
370
    15
100
AcDbSpline
210
0.0
220
0.0
230
1.0
 70
     8
 71
     3
 72
    11
 73
     7
 74
     0
 42
0.000000001
 43
0.00000001
 40
0.0
 40
0.0
 40
0.0
 40
0.0
 40
0.056399232594642
 40
0.3710287290922557
 40
0.6855941666301837
 40
1.0
 40
1.0
 40
1.0
 40
1.0
 10
61.7823980590142
 20
4.0239041112266
 30
0.0
 10
61.93689246798561
 20
4.095241001080949
 30
0.0
 10
62.9532514072022
 20
4.564538797564933
 30
0.0
 10
64.83137685105052
 20
5.186284247372611
 30
0.0
 10
67.41617728579432
 20
5.829321312470301
 30
0.0
 10
69.13887147562076
 20
5.939735704451142
 30
0.0
 10
69.99999999999973
 20
6.000000000000226
 30
0.0
  0
LINE
  5
AA
330
1F
100
AcDbEntity
  8
0
  6
Continuous
 62
     1
370
    15
100
AcDbLine
 10
70.0
 20
4.200000000000012
 30
0.0
 11
69.99999999999973
 21
6.000000000000228
 31
0.0
  0
LINE
  5
AB
330
1F
100
AcDbEntity
  8
0
  6
Continuous
 62
     1
370
    15
100
AcDbLine
 10
70.0
 20
4.200000000000012
 30
0.0
 11
67.79326637007307
 21
4.066452110308453
 31
0.0
  0
SPLINE
  5
AC
330
1F
100
AcDbEntity
  8
0
  6
Continuous
 62
     1
370
    15
100
AcDbSpline
210
0.0
220
0.0
230
1.0
 70
     8
 71
     3
 72
    12
 73
     8
 74
     0
 42
0.000000001
 43
0.00000001
 40
0.0
 40
0.0
 40
0.0
 40
0.0
 40
0.0655377288657849
 40
0.299236005656952
 40
0.532859865579749
 40
0.7663007854921348
 40
1.0
 40
1.0
 40
1.0
 40
1.0
 10
22.43218582835511
 20
-0.5598696019420093
 30
0.0
 10
22.16061280787587
 20
-0.4529371345849574
 30
0.0
 10
20.92064878564338
 20
0.0353013955065508
 30
0.0
 10
18.71222975859354
 20
0.943560699272845
 30
0.0
 10
15.80816388481613
 20
2.043705149359717
 30
0.0
 10
12.90454224251619
 20
3.010840686675724
 30
0.0
 10
10.96853757087
 20
3.447617272444313
 30
0.0
 10
10.00000000000001
 20
3.666126318206838
 30
0.0
  0
SPLINE
  5
AD
330
1F
100
AcDbEntity
  8
0
  6
Continuous
 62
   131
370
    15
100
AcDbSpline
210
0.0
220
0.0
230
1.0
 70
    24
 71
     3
 72
    10
 73
     6
 74
     0
 42
0.000000001
 43
0.00000001
 40
0.0
 40
0.0
 40
0.0
 40
0.0
 40
0.5
 40
0.5
 40
1.0
 40
1.0
 40
1.0
 40
1.0
 10
10.00000000000001
 20
5.353234232225884
 30
0.0
 10
10.00000000000001
 20
5.128456653315984
 30
0.0
 10
10.00000000000001
 20
4.855177163603368
 30
0.0
 10
10.00000000000001
 20
4.270125253620908
 30
0.0
 10
10.00000000000001
 20
3.9600772534769
 30
0.0
 10
10.00000000000001
 20
3.666126318206838
 30
0.0
  0
SPLINE
  5
AE
330
1F
100
AcDbEntity
  8
0
  6
Continuous
 62
     1
370
    15
100
AcDbSpline
210
0.0
220
0.0
230
1.0
 70
     8
 71
     3
 72
    23
 73
    19
 74
     0
 42
0.000000001
 43
0.00000001
 40
0.0
 40
0.0
 40
0.0
 40
0.0
 40
0.0512305705553057
 40
0.1144892906095212
 40
0.1777608318997455
 40
0.2410258836605752
 40
0.3042651838578017
 40
0.3674825127423464
 40
0.4307326498487851
 40
0.4940020511312802
 40
0.5572714218994635
 40
0.6205214676921438
 40
0.6837387525849365
 40
0.7469781642961231
 40
0.810243266949925
 40
0.8735147981301552
 40
0.9367734471473642
 40
1.0
 40
1.0
 40
1.0
 40
1.0
 10
29.13681961002758
 20
4.022050136519494
 30
0.0
 10
29.83456765390748
 20
4.312155796358054
 30
0.0
 10
31.39388424363296
 20
4.960479460074971
 30
0.0
 10
33.81529680497186
 20
5.621985004507441
 30
0.0
 10
36.40070269777347
 20
6.010187725679049
 30
0.0
 10
38.98580492510971
 20
6.021052372165277
 30
0.0
 10
41.56994478379891
 20
5.663490254254386
 30
0.0
 10
44.15355530340599
 20
4.956666534769929
 30
0.0
 10
46.73802841062231
 20
3.945251507192172
 30
0.0
 10
49.32333311697701
 20
2.690936771862656
 30
0.0
 10
51.90863637655739
 20
1.271021316099487
 30
0.0
 10
54.49310633976584
 20
-0.2268704487734288
 30
0.0
 10
57.07671580775907
 20
-1.711466541298158
 30
0.0
 10
59.66085892007355
 20
-3.089799664464462
 30
0.0
 10
62.24596284815119
 20
-4.279974621165502
 30
0.0
 10
64.83137067518605
 20
-5.199725097835089
 30
0.0
 10
67.41617882871559
 20
-5.82596337377682
 30
0.0
 10
69.13887198984084
 20
-5.938616580922965
 30
0.0
 10
70.0
 20
-5.999999999999769
 30
0.0
  0
SPLINE
  5
AF
330
1F
100
AcDbEntity
  8
0
  6
Continuous
 62
     1
370
    15
100
AcDbSpline
210
0.0
220
0.0
230
1.0
 70
     8
 71
     3
 72
    15
 73
    11
 74
     0
 42
0.000000001
 43
0.00000001
 40
0.0
 40
0.0
 40
0.0
 40
0.0
 40
0.0381832124028636
 40
0.195274162471908
 40
0.3432764051513282
 40
0.4912834654968767
 40
0.6394062165819484
 40
0.7873649745530171
 40
0.9354212221724035
 40
1.0
 40
1.0
 40
1.0
 40
1.0
 10
55.0838706920075
 20
-0.5606337461582891
 30
0.0
 10
54.82966833917236
 20
-0.4608733090940377
 30
0.0
 10
53.52964279327173
 20
0.0493151891919835
 30
0.0
 10
51.24367262000745
 20
0.9910485112027898
 30
0.0
 10
48.22736870920444
 20
2.130453690145654
 30
0.0
 10
45.27063902358589
 20
3.079416809685659
 30
0.0
 10
42.31368545141745
 20
3.783799171927242
 30
0.0
 10
39.35715733829168
 20
4.166112917364488
 30
0.0
 10
36.95637848543259
 20
4.261960689352155
 30
0.0
 10
35.54066565057619
 20
4.108645736104635
 30
0.0
 10
35.11070353855968
 20
4.062082888414762
 30
0.0
  0
SPLINE
  5
B0
330
1F
100
AcDbEntity
  8
0
  6
Continuous
 62
     1
370
    15
100
AcDbSpline
210
0.0
220
0.0
230
1.0
 70
     8
 71
     3
 72
    19
 73
    15
 74
     0
 42
0.000000001
 43
0.00000001
 40
0.0
 40
0.0
 40
0.0
 40
0.0
 40
0.0881432202207193
 40
0.1763311852359579
 40
0.2645371090889034
 40
0.3527340710315571
 40
0.440895217612926
 40
0.5290255175009303
 40
0.6172014888747797
 40
0.7054044009239906
 40
0.7936073555241742
 40
0.8817834542313638
 40
0.9699138154641423
 40
1.0
 40
1.0
 40
1.0
 40
1.0
 10
70.0
 20
-5.693645215391389
 30
0.0
 10
69.1388719970697
 20
-5.502687124711949
 30
0.0
 10
67.41617885043469
 20
-5.120674005885752
 30
0.0
 10
64.83137071820039
 20
-4.138870217624594
 30
0.0
 10
62.24596291433866
 20
-2.92745497040957
 30
0.0
 10
59.66085900207327
 20
-1.529224998067498
 30
0.0
 10
57.07671593231958
 20
-0.0387219799382602
 30
0.0
 10
54.49310640703375
 20
1.454953890259733
 30
0.0
 10
51.90863676079355
 20
2.858930686621759
 30
0.0
 10
49.32333242160464
 20
4.085409276585055
 30
0.0
 10
46.73803184707037
 20
5.067229090140071
 30
0.0
 10
44.15354342798668
 20
5.711950954249801
 30
0.0
 10
42.13731649433223
 20
6.014411140348166
 30
0.0
 10
40.98229320107509
 20
5.969732237243763
 30
0.0
 10
40.68833905347076
 20
5.958361428572958
 30
0.0
  0
SPLINE
  5
B1
330
1F
100
AcDbEntity
  8
0
  6
Continuous
 62
     1
370
    15
100
AcDbSpline
210
0.0
220
0.0
230
1.0
 70
     8
 71
     3
 72
     9
 73
     5
 74
     0
 42
0.000000001
 43
0.00000001
 40
0.0
 40
0.0
 40
0.0
 40
0.0
 40
0.4487032309338848
 40
1.0
 40
1.0
 40
1.0
 40
1.0
 10
14.89139906965565
 20
-4.717205789417779
 30
0.0
 10
14.15985274812694
 20
-4.969313475691461
 30
0.0
 10
12.52949604218984
 20
-5.531171890994089
 30
0.0
 10
10.89892728666132
 20
-5.764679743120878
 30
0.0
 10
9.999999999998295
 20
-5.893411867549943
 30
0.0
  0
LINE
  5
B2
330
1F
100
AcDbEntity
  8
0
  6
Continuous
 62
     1
370
    15
100
AcDbLine
 10
70.0
 20
-5.999999999999771
 30
0.0
 11
69.99999999999996
 21
-5.693645215391383
 31
0.0
  0
SPLINE
  5
B3
330
1F
100
AcDbEntity
  8
0
  6
Continuous
 62
     1
370
    15
100
AcDbSpline
210
0.0
220
0.0
230
1.0
 70
     8
 71
     3
 72
    22
 73
    18
 74
     0
 42
0.000000001
 43
0.00000001
 40
0.0
 40
0.0
 40
0.0
 40
0.0
 40
0.0202705111389503
 40
0.0891982881013467
 40
0.1580903118099558
 40
0.2270062790506996
 40
0.2959503094511651
 40
0.364901411926544
 40
0.4338385422863874
 40
0.5027407612094813
 40
0.5716426939466771
 40
0.6405796692285503
 40
0.7124887327979049
 40
0.7843773434943029
 40
0.8562151871909097
 40
0.9280919875478788
 40
1.0
 40
1.0
 40
1.0
 40
1.0
 10
47.49792144707812
 20
-4.727006385356499
 30
0.0
 10
47.24454223271309
 20
-4.824651492489216
 30
0.0
 10
46.12957320174491
 20
-5.254328688984514
 30
0.0
 10
44.15355883964027
 20
-5.714521185553177
 30
0.0
 10
41.56994416104502
 20
-6.043895507961893
 30
0.0
 10
38.98580530423313
 20
-5.980092933833898
 30
0.0
 10
36.40070336194329
 20
-5.554040863238166
 30
0.0
 10
33.81529545854244
 20
-4.784656859199256
 30
0.0
 10
31.2304827895402
 20
-3.721395319616212
 30
0.0
 10
28.64666343534848
 20
-2.428807676652801
 30
0.0
 10
26.06282738183993
 20
-0.9867912267611412
 30
0.0
 10
23.44111648424884
 20
0.5372974373187119
 30
0.0
 10
20.7816631624451
 20
2.049055466479679
 30
0.0
 10
18.08611480852686
 20
3.446593473466994
 30
0.0
 10
15.39163550192404
 20
4.606701447873268
 30
0.0
 10
12.69636271476795
 20
5.486305146818289
 30
0.0
 10
10.89891763174744
 20
5.757689990346746
 30
0.0
 10
9.999999999998291
 20
5.893411867549954
 30
0.0
  0
LINE
  5
B4
330
1F
100
AcDbEntity
  8
0
  6
Continuous
 62
   131
370
    15
100
AcDbLine
 10
10.0
 20
5.353234232225889
 30
0.0
 11
10.00000000000001
 21
5.893411867541457
 31
0.0
  0
SPLINE
  5
B5
330
1F
100
AcDbEntity
  8
0
  6
Continuous
 62
     1
370
    15
100
AcDbSpline
210
0.0
220
0.0
230
1.0
 70
     8
 71
     3
 72
    15
 73
    11
 74
     0
 42
0.000000001
 43
0.00000001
 40
0.0
 40
0.0
 40
0.0
 40
0.0
 40
0.0634799231720653
 40
0.2063619733000998
 40
0.3494157949425974
 40
0.4923167075109953
 40
0.6353289951772892
 40
0.7783158943504814
 40
0.921239018280166
 40
0.9999999999999999
 40
0.9999999999999999
 40
0.9999999999999999
 40
0.9999999999999999
 10
43.46254718515004
 20
-4.936674541951244
 30
0.0
 10
43.003472821736
 20
-4.995328083239086
 30
0.0
 10
41.51110347420502
 20
-5.186000344898726
 30
0.0
 10
38.98513854525747
 20
-5.030744370516675
 30
0.0
 10
35.88345895736889
 20
-4.490183729916457
 30
0.0
 10
32.78220874523653
 20
-3.526459015854505
 30
0.0
 10
29.68048080157436
 20
-2.257581439359628
 30
0.0
 10
26.57891828259566
 20
-0.792034649627515
 30
0.0
 10
23.94208612422132
 20
0.5297332531114912
 30
0.0
 10
22.33927779890519
 20
1.277785112221173
 30
0.0
 10
21.76982444616819
 20
1.543556528842144
 30
0.0
  0
SPLINE
  5
B6
330
1F
100
AcDbEntity
  8
0
  6
Continuous
 62
   131
370
    15
100
AcDbSpline
210
0.0
220
0.0
230
1.0
 70
    24
 71
     3
 72
     8
 73
     4
 74
     0
 42
0.000000001
 43
0.00000001
 40
0.0
 40
0.0
 40
0.0
 40
0.0
 40
1.0
 40
1.0
 40
1.0
 40
1.0
 10
10.00000000000001
 20
-5.057975160655199
 30
0.0
 10
10.00000000000001
 20
-5.347519273305156
 30
0.0
 10
10.00000000000001
 20
-5.627837067947046
 30
0.0
 10
10.00000000000001
 20
-5.893411867540093
 30
0.0
  0
SPLINE
  5
B7
330
1F
100
AcDbEntity
  8
0
  6
Continuous
 62
     1
370
    15
100
AcDbSpline
210
0.0
220
0.0
230
1.0
 70
     8
 71
     3
 72
    34
 73
    30
 74
     0
 42
0.000000001
 43
0.00000001
 40
0.0
 40
0.0
 40
0.0
 40
0.0
 40
0.125000000000001
 40
0.125000000000001
 40
0.1875000000000015
 40
0.1875000000000015
 40
0.250000000000002
 40
0.250000000000002
 40
0.3125000000000025
 40
0.3125000000000025
 40
0.375000000000003
 40
0.375000000000003
 40
0.4375000000000035
 40
0.4375000000000035
 40
0.500000000000004
 40
0.500000000000004
 40
0.6250000000000038
 40
0.6250000000000038
 40
0.6875000000000031
 40
0.6875000000000031
 40
0.7500000000000026
 40
0.7500000000000026
 40
0.8125000000000019
 40
0.8125000000000019
 40
0.8750000000000013
 40
0.8750000000000013
 40
0.9375000000000007
 40
0.9375000000000007
 40
1.0
 40
1.0
 40
1.0
 40
1.0
 10
70.0
 20
-4.733833586209282
 30
0.0
 10
69.35739377665517
 20
-4.616066120674553
 30
0.0
 10
68.70532548116934
 20
-4.470138998071939
 30
0.0
 10
67.73831803126897
 20
-4.21454379645871
 30
0.0
 10
67.41689152245483
 20
-4.123210327289272
 30
0.0
 10
66.769545759734
 20
-3.92842218728175
 30
0.0
 10
66.4450936356333
 20
-3.825094329450721
 30
0.0
 10
65.79885915474259
 20
-3.607937075258603
 30
0.0
 10
65.47821341910473
 20
-3.494261424704695
 30
0.0
 10
64.83188813139353
 20
-3.256531581203743
 30
0.0
 10
64.50742697942496
 20
-3.132603054477733
 30
0.0
 10
63.86013630232875
 20
-2.876220318867048
 30
0.0
 10
63.53881229585298
 20
-2.743982422210693
 30
0.0
 10
62.89401437253377
 20
-2.471667126223291
 30
0.0
 10
62.56980104523421
 20
-2.331470998278705
 30
0.0
 10
61.59804486792531
 20
-1.901457158844307
 30
0.0
 10
60.95596375784467
 20
-1.602935202369931
 30
0.0
 10
59.98415370601107
 20
-1.142496755733499
 30
0.0
 10
59.65999576311536
 20
-0.9870970320547547
 30
0.0
 10
59.01545290190217
 20
-0.674496612919915
 30
0.0
 10
58.6939166950397
 20
-0.517113589212567
 30
0.0
 10
58.04651836329516
 20
-0.200600626210034
 30
0.0
 10
57.72207653546724
 20
-0.0417017569949654
 30
0.0
 10
57.0759353635982
 20
0.2753090631730267
 30
0.0
 10
56.75528242216753
 20
0.4332506098266105
 30
0.0
 10
56.10886883101259
 20
0.7482543518749755
 30
0.0
 10
55.7843999196989
 20
0.9051022305938544
 30
0.0
 10
55.13716684411376
 20
1.215442523408069
 30
0.0
 10
54.81593814294289
 20
1.368694418895477
 30
0.0
 10
54.49347727807291
 20
1.519941409114387
 30
0.0
  0
LINE
  5
B8
330
1F
100
AcDbEntity
  8
0
  6
Continuous
 62
     1
370
    15
100
AcDbLine
 10
10.86133780220454
 20
-4.950392544311858
 30
0.0
 11
10.00000000000001
 21
-5.057975160655199
 31
0.0
  0
LINE
  5
B9
330
1F
100
AcDbEntity
  8
0
  6
Continuous
 62
     1
370
    15
100
AcDbLine
 10
69.99999999999996
 20
-5.693645215391383
 30
0.0
 11
70.0
 21
-4.733833586209282
 31
0.0
  0
SPLINE
  5
BA
330
1F
100
AcDbEntity
  8
0
  6
Continuous
 62
     1
370
    15
100
AcDbSpline
210
0.0
220
0.0
230
1.0
 70
     8
 71
     3
 72
     8
 73
     4
 74
     0
 42
0.000000001
 43
0.00000001
 40
0.0
 40
0.0
 40
0.0
 40
0.0
 40
1.0
 40
1.0
 40
1.0
 40
1.0
 10
66.28766238388621
 20
1.678126369561333
 30
0.0
 10
66.01854352449391
 20
1.996908240081016
 30
0.0
 10
65.78528950873151
 20
2.30101742934924
 30
0.0
 10
65.60063730606583
 20
2.584818657778267
 30
0.0
  0
LINE
  5
BB
330
1F
100
AcDbEntity
  8
0
  6
Continuous
 62
     1
370
    15
100
AcDbLine
 10
65.6006373060663
 20
2.584818657777568
 30
0.0
 11
70.0
 21
0.0000000000000123
 31
0.0
  0
LINE
  5
BC
330
1F
100
AcDbEntity
  8
0
  6
Continuous
 62
     1
370
    15
100
AcDbLine
 10
70.0
 20
0.0000000000000123
 30
0.0
 11
70.0
 21
-1.603457676177857
 31
0.0
  0
SPLINE
  5
BD
330
1F
100
AcDbEntity
  8
0
  6
Continuous
 62
     1
370
    15
100
AcDbSpline
210
0.0
220
0.0
230
1.0
 70
     8
 71
     3
 72
    12
 73
     8
 74
     0
 42
0.000000001
 43
0.00000001
 40
0.0
 40
0.0
 40
0.0
 40
0.0
 40
0.5000000000000016
 40
0.5000000000000016
 40
0.7500000000000008
 40
0.7500000000000008
 40
1.0
 40
1.0
 40
1.0
 40
1.0
 10
70.0
 20
-1.603457676177851
 30
0.0
 10
69.3573832497508
 20
-1.098253421644945
 30
0.0
 10
68.7255002752157
 20
-0.572337163080709
 30
0.0
 10
67.79419516594454
 20
0.2484131373375514
 30
0.0
 10
67.48655768172765
 20
0.5273947563256836
 30
0.0
 10
66.87756600981749
 20
1.097482307907401
 30
0.0
 10
66.5778678525838
 20
1.387117232542723
 30
0.0
 10
66.28766238388617
 20
1.678126369561346
 30
0.0
  0
SPLINE
  5
BE
330
1F
100
AcDbEntity
  8
0
  6
Continuous
 62
   131
370
    15
100
AcDbSpline
210
0.0
220
0.0
230
1.0
 70
    24
 71
     3
 72
    14
 73
    10
 74
     0
 42
0.000000001
 43
0.00000001
 40
0.0
 40
0.0
 40
0.0
 40
0.0
 40
0.2500000000000001
 40
0.2500000000000001
 40
0.5000000000000001
 40
0.5000000000000001
 40
0.75
 40
0.75
 40
1.0
 40
1.0
 40
1.0
 40
1.0
 10
10.00000000000001
 20
-2.342025725354432
 30
0.0
 10
10.00000000000001
 20
-2.717136119464063
 30
0.0
 10
10.00000000000001
 20
-3.072340857593436
 30
0.0
 10
10.00000000000001
 20
-3.712288165108949
 30
0.0
 10
10.00000000000001
 20
-3.996782213988884
 30
0.0
 10
10.00000000000001
 20
-4.471461668901915
 30
0.0
 10
10.00000000000001
 20
-4.661510001917851
 30
0.0
 10
10.00000000000001
 20
-4.93697319320956
 30
0.0
 10
10.00000000000001
 20
-5.02242654100134
 30
0.0
 10
10.00000000000001
 20
-5.057975160655199
 30
0.0
  0
SPLINE
  5
BF
330
1F
100
AcDbEntity
  8
0
  6
Continuous
 62
     1
370
    15
100
AcDbSpline
210
0.0
220
0.0
230
1.0
 70
     8
 71
     3
 72
    12
 73
     8
 74
     0
 42
0.000000001
 43
0.00000001
 40
0.0
 40
0.0
 40
0.0
 40
0.0
 40
0.213254920317188
 40
0.4266191300425121
 40
0.6400815452114714
 40
0.853303958732219
 40
1.0
 40
1.0
 40
1.0
 40
1.0
 10
66.28766238388617
 20
1.678126369561353
 30
0.0
 10
65.3051940685574
 20
2.090134471490059
 30
0.0
 10
63.33975394011168
 20
2.914361822276885
 30
0.0
 10
60.39071608225399
 20
3.885325205572141
 30
0.0
 10
57.44132055582113
 20
4.53934155844124
 30
0.0
 10
54.80014421618333
 20
4.850225446983904
 30
0.0
 10
53.14160262653435
 20
4.757241929418782
 30
0.0
 10
52.46561204521662
 20
4.719343583978366
 30
0.0
  0
SPLINE
  5
C0
330
1F
100
AcDbEntity
  8
0
  6
Continuous
 62
     1
370
    15
100
AcDbSpline
210
0.0
220
0.0
230
1.0
 70
     8
 71
     3
 72
    12
 73
     8
 74
     0
 42
0.000000001
 43
0.00000001
 40
0.0
 40
0.0
 40
0.0
 40
0.0
 40
0.0809593960421594
 40
0.310788953552092
 40
0.5404785143737538
 40
0.7702204482707535
 40
1.0
 40
1.0
 40
1.0
 40
1.0
 10
24.66530643765497
 20
-4.461992475969148
 30
0.0
 10
24.26961784602496
 20
-4.53652247715709
 30
0.0
 10
22.7506385880627
 20
-4.822630109004724
 30
0.0
 10
20.10801589438321
 20
-4.848930005402821
 30
0.0
 10
16.73893027232648
 20
-4.476464581709618
 30
0.0
 10
13.36968995377104
 20
-3.627447026560877
 30
0.0
 10
11.12329128360899
 20
-2.770522875899288
 30
0.0
 10
10.00000000000001
 20
-2.342025725354432
 30
0.0
  0
LINE
  5
C1
330
1F
100
AcDbEntity
  8
0
  6
Continuous
 62
     1
370
    15
100
AcDbLine
 10
70.0
 20
-4.733833586209282
 30
0.0
 11
70.0
 21
-1.60345767617785
 31
0.0
  0
SPLINE
  5
C2
330
1F
100
AcDbEntity
  8
0
  6
Continuous
 62
     1
370
    15
100
AcDbSpline
210
0.0
220
0.0
230
1.0
 70
     8
 71
     3
 72
    20
 73
    16
 74
     0
 42
0.000000001
 43
0.00000001
 40
0.0
 40
0.0
 40
0.0
 40
0.0
 40
0.0746927537304706
 40
0.1574943330034586
 40
0.240265564790201
 40
0.323017000203913
 40
0.4058285795583372
 40
0.4885473275114206
 40
0.5713669095459717
 40
0.654096730242109
 40
0.7368919308370042
 40
0.8196722277235763
 40
0.9024150871153875
 40
0.9923560714117066
 40
1.0
 40
1.0
 40
1.0
 40
1.0
 10
57.29184886330302
 20
-4.503328670105871
 30
0.0
 10
56.35910644743058
 20
-4.622122250757419
 30
0.0
 10
54.39236084876167
 20
-4.872605929767579
 30
0.0
 10
51.39101148889391
 20
-4.74918269656772
 30
0.0
 10
48.28942561364266
 20
-4.233508200292285
 30
0.0
 10
45.18795894780544
 20
-3.3344134532678
 30
0.0
 10
42.08632993365578
 20
-2.144490091660828
 30
0.0
 10
38.98508641560586
 20
-0.7616264581791464
 30
0.0
 10
35.88349978011557
 20
0.6849965006530444
 30
0.0
 10
32.78217602399748
 20
2.074879786457508
 30
0.0
 10
29.68050894031043
 20
3.276116109957783
 30
0.0
 10
26.57885034643226
 20
4.200669589915341
 30
0.0
 10
23.38854559152171
 20
4.722809666645857
 30
0.0
 10
21.13548369956544
 20
4.905335831550374
 30
0.0
 10
19.91653222225112
 20
4.759947627745488
 30
0.0
 10
19.82105047440959
 20
4.748559217235977
 30
0.0
  0
SPLINE
  5
C3
330
1F
100
AcDbEntity
  8
0
  6
Continuous
 62
   131
370
    15
100
AcDbSpline
210
0.0
220
0.0
230
1.0
 70
    24
 71
     3
 72
    14
 73
    10
 74
     0
 42
0.000000001
 43
0.00000001
 40
0.0
 40
0.0
 40
0.0
 40
0.0
 40
0.25
 40
0.25
 40
0.5
 40
0.5
 40
0.75
 40
0.75
 40
1.0
 40
1.0
 40
1.0
 40
1.0
 10
10.00000000000001
 20
3.666126318206838
 30
0.0
 10
10.00000000000001
 20
3.313965566828169
 30
0.0
 10
10.00000000000001
 20
2.901698972928003
 30
0.0
 10
10.00000000000001
 20
1.980436477392354
 30
0.0
 10
10.00000000000001
 20
1.471700341676171
 30
0.0
 10
10.00000000000001
 20
0.4038785018423537
 30
0.0
 10
10.00000000000001
 20
-0.1546382221552863
 30
0.0
 10
10.00000000000001
 20
-1.265580843473038
 30
0.0
 10
10.00000000000001
 20
-1.817480558902525
 30
0.0
 10
10.00000000000001
 20
-2.34202572535443
 30
0.0
  0
SPLINE
  5
C4
330
1F
100
AcDbEntity
  8
0
  6
Continuous
 62
     1
370
    15
100
AcDbSpline
210
0.0
220
0.0
230
1.0
 70
     8
 71
     3
 72
    10
 73
     6
 74
     0
 42
0.000000001
 43
0.00000001
 40
0.0
 40
0.0
 40
0.0
 40
0.0
 40
0.5
 40
0.5
 40
1.0
 40
1.0
 40
1.0
 40
1.0
 10
70.0
 20
4.200000000000012
 30
0.0
 10
69.25342417078966
 20
3.997517931024638
 30
0.0
 10
68.51177972161537
 20
3.764963796806373
 30
0.0
 10
67.04225163442668
 20
3.233042289695111
 30
0.0
 10
66.31423208593023
 20
2.933958217721531
 30
0.0
 10
65.60063730606632
 20
2.584818657777569
 30
0.0
  0
LINE
  5
C5
330
1F
100
AcDbEntity
  8
0
  6
Continuous
 62
     1
370
    15
100
AcDbLine
 10
70.0
 20
0.0000000000000123
 30
0.0
 11
70.0
 21
4.200000000000012
 31
0.0
  0
SPLINE
  5
C6
330
1F
100
AcDbEntity
  8
0
  6
Continuous
 62
   131
370
    15
100
AcDbSpline
210
0.0
220
0.0
230
1.0
 70
     8
 71
     3
 72
     8
 73
     4
 74
     0
 42
0.000000001
 43
0.00000001
 40
0.0
 40
0.0
 40
0.0
 40
0.0
 40
1.0
 40
1.0
 40
1.0
 40
1.0
 10
10.00000000000001
 20
-5.893411867549756
 30
0.0
 10
9.321441516318698
 20
-5.96680085800415
 30
0.0
 10
8.648657695873071
 20
-6.002446920979122
 30
0.0
 10
7.970001016817163
 20
-5.999869735388926
 30
0.0
  0
LINE
  5
C7
330
1F
100
AcDbEntity
  8
0
  6
Continuous
 62
   131
370
    15
100
AcDbLine
 10
10.00000000000001
 20
5.893411867549767
 30
0.0
 11
8.038276009748705
 21
5.996289235972709
 31
0.0
  0
SPLINE
  5
C8
330
1F
100
AcDbEntity
  8
0
  6
Continuous
 62
   131
370
    15
100
AcDbSpline
210
0.0
220
0.0
230
1.0
 70
     8
 71
     3
 72
     8
 73
     4
 74
     0
 42
0.000000001
 43
0.00000001
 40
0.0
 40
0.0
 40
0.0
 40
0.0
 40
1.0
 40
1.0
 40
1.0
 40
1.0
 10
10.00000000000001
 20
5.353234232225885
 30
0.0
 10
9.321441342889576
 20
5.529861064620044
 30
0.0
 10
8.648657348974114
 20
5.671891510132706
 30
0.0
 10
7.970000496454514
 20
5.777428426566274
 30
0.0
  0
LINE
  5
C9
330
1F
100
AcDbEntity
  8
0
  6
Continuous
 62
   131
370
    15
100
AcDbLine
 10
7.970000496454482
 20
-5.999868035442907
 30
0.0
 11
7.970000496454514
 21
5.777427749798385
 31
0.0
  0
LINE
  5
CA
330
1F
100
AcDbEntity
  8
0
  6
Continuous
 62
   131
370
    15
100
AcDbLine
 10
-129.0
 20
5.999999999999989
 30
0.0
 11
-129.0
 21
-6.000000000000004
 31
0.0
  0
LINE
  5
CB
330
1F
100
AcDbEntity
  8
0
  6
Continuous
 62
   131
370
    15
100
AcDbLine
 10
-130.0
 20
4.999999999999987
 30
0.0
 11
-130.0
 21
-4.999999999999994
 31
0.0
  0
SPLINE
  5
CC
330
1F
100
AcDbEntity
  8
0
  6
Continuous
 62
   131
370
    15
100
AcDbSpline
210
0.0
220
0.0
230
1.0
 70
    24
 71
     3
 72
    14
 73
    10
 74
     0
 42
0.000000001
 43
0.00000001
 40
0.0
 40
0.0
 40
0.0
 40
0.0
 40
0.25
 40
0.25
 40
0.5
 40
0.5
 40
0.75
 40
0.75
 40
1.0
 40
1.0
 40
1.0
 40
1.0
 10
10.00000000000001
 20
3.666126318206838
 30
0.0
 10
10.00000000000001
 20
3.313965566828169
 30
0.0
 10
10.00000000000001
 20
2.901698972928003
 30
0.0
 10
10.00000000000001
 20
1.980436477392354
 30
0.0
 10
10.00000000000001
 20
1.471700341676171
 30
0.0
 10
10.00000000000001
 20
0.4038785018423537
 30
0.0
 10
10.00000000000001
 20
-0.1546382221552863
 30
0.0
 10
10.00000000000001
 20
-1.265580843473038
 30
0.0
 10
10.00000000000001
 20
-1.817480558902525
 30
0.0
 10
10.00000000000001
 20
-2.34202572535443
 30
0.0
  0
SPLINE
  5
CD
330
1F
100
AcDbEntity
  8
0
  6
Continuous
 62
   131
370
    15
100
AcDbSpline
210
0.0
220
0.0
230
1.0
 70
     8
 71
     3
 72
     8
 73
     4
 74
     0
 42
0.000000001
 43
0.00000001
 40
0.0
 40
0.0
 40
0.0
 40
0.0
 40
1.0
 40
1.0
 40
1.0
 40
1.0
 10
10.00000000000001
 20
-2.342025725354432
 30
0.0
 10
9.321441406204642
 20
-2.068925096670202
 30
0.0
 10
8.648657475619107
 20
-1.781685553086211
 30
0.0
 10
7.97000068642719
 20
-1.484131719141342
 30
0.0
  0
SPLINE
  5
CE
330
1F
100
AcDbEntity
  8
0
  6
Continuous
 62
   131
370
    15
100
AcDbSpline
210
0.0
220
0.0
230
1.0
 70
     8
 71
     3
 72
     8
 73
     4
 74
     0
 42
0.000000001
 43
0.00000001
 40
0.0
 40
0.0
 40
0.0
 40
0.0
 40
1.0
 40
1.0
 40
1.0
 40
1.0
 10
10.00000000000001
 20
3.666126318206838
 30
0.0
 10
9.321441384661652
 20
3.799700664107823
 30
0.0
 10
8.648657432528072
 20
3.909546024530458
 30
0.0
 10
7.970000621788873
 20
3.99419559934642
 30
0.0
  0
SPLINE
  5
CF
330
1F
100
AcDbEntity
  8
0
  6
Continuous
 62
   131
370
    15
100
AcDbSpline
210
0.0
220
0.0
230
1.0
 70
    24
 71
     3
 72
    14
 73
    10
 74
     0
 42
0.000000001
 43
0.00000001
 40
0.0
 40
0.0
 40
0.0
 40
0.0
 40
0.2500000000000001
 40
0.2500000000000001
 40
0.5000000000000001
 40
0.5000000000000001
 40
0.75
 40
0.75
 40
1.0
 40
1.0
 40
1.0
 40
1.0
 10
10.00000000000001
 20
-2.342025725354432
 30
0.0
 10
10.00000000000001
 20
-2.717136119464063
 30
0.0
 10
10.00000000000001
 20
-3.072340857593436
 30
0.0
 10
10.00000000000001
 20
-3.712288165108949
 30
0.0
 10
10.00000000000001
 20
-3.996782213988884
 30
0.0
 10
10.00000000000001
 20
-4.471461668901915
 30
0.0
 10
10.00000000000001
 20
-4.661510001917851
 30
0.0
 10
10.00000000000001
 20
-4.93697319320956
 30
0.0
 10
10.00000000000001
 20
-5.02242654100134
 30
0.0
 10
10.00000000000001
 20
-5.057975160655199
 30
0.0
  0
SPLINE
  5
D0
330
1F
100
AcDbEntity
  8
0
  6
Continuous
 62
   131
370
    15
100
AcDbSpline
210
0.0
220
0.0
230
1.0
 70
     8
 71
     3
 72
     8
 73
     4
 74
     0
 42
0.000000001
 43
0.00000001
 40
0.0
 40
0.0
 40
0.0
 40
0.0
 40
1.0
 40
1.0
 40
1.0
 40
1.0
 10
10.00000000000001
 20
-5.057975160655199
 30
0.0
 10
9.321441516318698
 20
-5.10056243661899
 30
0.0
 10
8.648657695873071
 20
-5.11081517548887
 30
0.0
 10
7.970001016817163
 20
-5.088592130008217
 30
0.0
  0
SPLINE
  5
D1
330
1F
100
AcDbEntity
  8
0
  6
Continuous
 62
   131
370
    15
100
AcDbSpline
210
0.0
220
0.0
230
1.0
 70
    24
 71
     3
 72
    10
 73
     6
 74
     0
 42
0.000000001
 43
0.00000001
 40
0.0
 40
0.0
 40
0.0
 40
0.0
 40
0.5
 40
0.5
 40
1.0
 40
1.0
 40
1.0
 40
1.0
 10
10.00000000000001
 20
5.35323423222588
 30
0.0
 10
10.00000000000001
 20
5.128456653315979
 30
0.0
 10
10.00000000000001
 20
4.855177163603365
 30
0.0
 10
10.00000000000001
 20
4.270125253620906
 30
0.0
 10
10.00000000000001
 20
3.960077253476897
 30
0.0
 10
10.00000000000001
 20
3.666126318206838
 30
0.0
  0
SPLINE
  5
D2
330
1F
100
AcDbEntity
  8
0
  6
Continuous
 62
   131
370
    15
100
AcDbSpline
210
0.0
220
0.0
230
1.0
 70
    24
 71
     3
 72
     8
 73
     4
 74
     0
 42
0.000000001
 43
0.00000001
 40
0.0
 40
0.0
 40
0.0
 40
0.0
 40
1.0
 40
1.0
 40
1.0
 40
1.0
 10
10.00000000000001
 20
-5.057975160655199
 30
0.0
 10
10.00000000000001
 20
-5.347519273308177
 30
0.0
 10
10.00000000000001
 20
-5.627837067952891
 30
0.0
 10
10.00000000000001
 20
-5.893411867548405
 30
0.0
  0
LINE
  5
D3
330
1F
100
AcDbEntity
  8
중심선
100
AcDbLine
 10
-133.0
 20
-0.0000000000000004
 30
0.0
 11
73.00000000000003
 21
0.0000000000000125
 31
0.0
  0
CIRCLE
  5
D4
330
1F
100
AcDbEntity
  8
외형선
100
AcDbCircle
 10
0.0000000000000104
 20
0.0
 30
0.0
 40
3.000000000000005
  0
INSERT
  5
D5
330
1F
100
AcDbEntity
  8
0
  6
Continuous
 62
     7
100
AcDbBlockReference
 66
     1
  2
블럭10
 10
-22.93944368806589
 20
-52.04609937292004
 30
0.0
  0
ATTRIB
  5
D6
330
D5
100
AcDbEntity
  8
FORMAT
 62
     2
100
AcDbText
 10
-43.79769121965843
 20
-49.97073246008785
 30
0.0
 40
4.233333333333333
  1
SEME7012060200E [ 2 FLUTE ]
 41
0.75
  7
SLDTEXTSTYLE0
 11
-43.79769121965843
 21
-52.08739912675452
 31
0.0
100
AcDbAttribute
  2
AUTOATTR0
 70
     0
 74
     1
  0
SEQEND
  5
D7
330
D5
100
AcDbEntity
  8
0
  6
Continuous
 62
     7
  0
HATCH
  5
D8
330
1F
100
AcDbEntity
  8
중심선
100
AcDbHatch
 10
0.0
 20
0.0
 30
0.0
210
0.0
220
0.0
230
1.0
  2
SOLID
 70
     1
 71
     0
 91
        1
 92
        0
 93
        4
 72
     1
 10
-17.22453438368504
 20
-35.7989250712761
 11
-20.67080962752232
 21
-35.7989250712761
 72
     1
 10
-20.67080962752232
 20
-35.7989250712761
 11
-22.79903948672635
 21
-38.3352506518487
 72
     1
 10
-22.79903948672635
 20
-38.3352506518487
 11
-19.35273115777591
 21
-38.33521122254621
 72
     1
 10
-19.35273115777591
 20
-38.33521122254621
 11
-17.22453438368504
 21
-35.7989250712761
 97
        0
 75
     0
 76
     1
 98
        1
 10
0.0
 20
0.0
  0
HATCH
  5
D9
330
1F
100
AcDbEntity
  8
중심선
100
AcDbHatch
 10
0.0
 20
0.0
 30
0.0
210
0.0
220
0.0
230
1.0
  2
SOLID
 70
     1
 71
     0
 91
        1
 92
        0
 93
        4
 72
     1
 10
-12.21177039264909
 20
-35.7989250712761
 11
-15.65804563648637
 21
-35.7989250712761
 72
     1
 10
-15.65804563648637
 20
-35.7989250712761
 11
-20.18918364484376
 21
-41.19892507127612
 72
     1
 10
-20.18918364484376
 20
-41.19892507127612
 11
-16.74290840100648
 21
-41.19892507127612
 72
     1
 10
-16.74290840100648
 20
-41.19892507127612
 11
-12.21177039264909
 21
-35.7989250712761
 97
        0
 75
     0
 76
     1
 98
        1
 10
0.0
 20
0.0
  0
HATCH
  5
DA
330
1F
100
AcDbEntity
  8
중심선
100
AcDbHatch
 10
0.0
 20
0.0
 30
0.0
210
0.0
220
0.0
230
1.0
  2
SOLID
 70
     1
 71
     0
 91
        1
 92
        0
 93
        4
 72
     1
 10
-7.199006401613195
 20
-35.79892507127613
 11
-10.64528164545031
 21
-35.7989250712761
 72
     1
 10
-10.64528164545031
 20
-35.7989250712761
 11
-17.69371854733956
 21
-44.19892507127612
 72
     1
 10
-17.69371854733956
 20
-44.19892507127612
 11
-14.24744330350228
 21
-44.19892507127612
 72
     1
 10
-14.24744330350228
 20
-44.19892507127612
 11
-7.199006401613195
 21
-35.79892507127613
 97
        0
 75
     0
 76
     1
 98
        1
 10
0.0
 20
0.0
  0
HATCH
  5
DB
330
1F
100
AcDbEntity
  8
중심선
100
AcDbHatch
 10
0.0
 20
0.0
 30
0.0
210
0.0
220
0.0
230
1.0
  2
SOLID
 70
     1
 71
     0
 91
        1
 92
        0
 93
        6
 72
     3
 10
-2.399115970600996
 20
-39.99892507132738
 11
3.960054785062284
 21
1.540850780301639E-10
 40
0.3939339440162633
 50
17.09539180608433
 51
320.0019657685079
 73
     0
 72
     1
 10
-0.7161163149004002
 20
-38.58681907591441
 11
1.589185558800638
 21
-36.65249236586649
 72
     3
 10
-2.399115970653842
 20
-39.99892507127625
 11
6.600054785286829
 21
-1.249000902703301E-13
 40
0.6363583540795982
 50
39.99873849337408
 51
368.4976242363725
 73
     1
 72
     1
 10
4.026216521246767
 20
-39.03892507120613
 11
-3.71904866381792
 21
-39.0389250712061
 72
     1
 10
-3.71904866381792
 20
-39.0389250712061
 11
-3.719073708263854
 21
-40.95892507120602
 72
     1
 10
-3.719073708263854
 20
-40.95892507120602
 11
0.7223060612081831
 21
-40.95892507120599
 97
        0
 75
     0
 76
     1
 98
        1
 10
0.0
 20
0.0
  0
DIMENSION
  5
DC
330
1F
100
AcDbEntity
  8
치수문자_일반주서
100
AcDbDimension
  2
_D
 10
84.12447528490121
 20
6.000000000000277
 30
0.0
 11
84.12447528490117
 21
16.54150000000028
 31
0.0
 70
   160
  1
%%c<>
 71
     2
 42
12.0
 52
-270.0
  3
SLDDIMSTYLE0
100
AcDbAlignedDimension
 13
70.0
 23
-5.999999999999771
 33
0.0
 14
70.0
 24
6.000000000000226
 34
0.0
 50
90.0000000000002
100
AcDbRotatedDimension
  0
DIMENSION
  5
EA
330
1F
100
AcDbEntity
  8
치수문자_일반주서
100
AcDbDimension
  2
_D_1
 10
69.99999999999973
 20
26.78841044024269
 30
0.0
 11
-30.00000000000014
 21
26.78841044024269
 31
0.0
 70
   160
  1
<>
 71
     2
 42
199.9999999999997
  3
SLDDIMSTYLE1
100
AcDbAlignedDimension
 13
-130.0
 23
4.999999999999987
 33
0.0
 14
69.99999999999973
 24
6.000000000000226
 34
0.0
 50
-0.0000000000000041
100
AcDbRotatedDimension
  0
DIMENSION
  5
F5
330
1F
100
AcDbEntity
  8
치수문자_일반주서
100
AcDbDimension
  2
_D_2
 10
69.99999999999973
 20
19.24040967371729
 30
0.0
 11
40.00000000000001
 21
19.24040967371729
 31
0.0
 70
   160
  1
<>
 71
     2
 42
59.99999999999972
  3
SLDDIMSTYLE1
100
AcDbAlignedDimension
 13
10.00000000000001
 23
5.893411867549767
 33
0.0
 14
69.99999999999973
 24
6.000000000000226
 34
0.0
 50
-0.0000000000000034
100
AcDbRotatedDimension
  0
DIMENSION
  5
FF
330
1F
100
AcDbEntity
  8
치수문자_일반주서
100
AcDbDimension
  2
_D_3
 10
-141.0134980092026
 20
-6.000000000000039
 30
0.0
 11
-141.0134980092026
 21
16.54149999999994
 31
0.0
 70
   160
  1
%%c<>
 71
     2
 42
11.99999999999999
 52
-270.0
  3
SLDDIMSTYLE0
100
AcDbAlignedDimension
 13
-129.0
 23
5.999999999999989
 33
0.0
 14
-129.0
 24
-5.999999999999996
 34
0.0
 50
90.0000000000002
100
AcDbRotatedDimension
  0
INSERT
  5
112
330
1F
100
AcDbEntity
  8
외형선
100
AcDbBlockReference
  2
SW_DOWELSYMBOL_0
 10
0.0000000000000104
 20
0.0
 30
0.0
  0
ENDSEC
  0
SECTION
  2
OBJECTS
  0
DICTIONARY
  5
C
330
0
100
AcDbDictionary
281
     1
  3
ACAD_GROUP
350
D
  3
ACAD_IMAGE_VARS
350
136
  3
ACAD_LAYOUT
350
1A
  3
ACAD_MLINESTYLE
350
17
  3
ACAD_PLOTSETTINGS
350
19
  3
ACAD_PLOTSTYLENAME
350
E
  3
ACAD_SCALELIST
350
47
  3
APPDATA
350
134
  3
DWGPROPS
350
145
  0
DICTIONARY
  5
D
102
{ACAD_REACTORS
330
C
102
}
330
C
100
AcDbDictionary
281
     1
  0
RASTERVARIABLES
  5
136
102
{ACAD_REACTORS
330
C
102
}
330
C
100
AcDbRasterVariables
 90
        0
 70
     1
 71
     1
 72
     1
  0
DICTIONARY
  5
1A
102
{ACAD_REACTORS
330
C
102
}
330
C
100
AcDbDictionary
281
     1
  3
Layout1
350
1E
  3
Layout2
350
26
  3
Model
350
22
  0
DICTIONARY
  5
17
102
{ACAD_REACTORS
330
C
102
}
330
C
100
AcDbDictionary
281
     1
  3
Standard
350
18
  0
DICTIONARY
  5
19
102
{ACAD_REACTORS
330
C
102
}
330
C
100
AcDbDictionary
281
     1
  0
ACDBDICTIONARYWDFLT
  5
E
102
{ACAD_REACTORS
330
C
102
}
330
C
100
AcDbDictionary
281
     1
  3
Normal
350
F
100
AcDbDictionaryWithDefault
340
F
  0
DICTIONARY
  5
47
102
{ACAD_REACTORS
330
C
102
}
330
C
100
AcDbDictionary
281
     1
  3
A0
350
48
  3
A1
350
49
  3
A2
350
4A
  3
A3
350
4B
  3
A4
350
4C
  3
A5
350
4D
  3
A6
350
4E
  3
A7
350
4F
  3
A8
350
50
  3
A9
350
51
  3
B0
350
52
  3
B1
350
53
  3
B2
350
54
  3
B3
350
55
  3
B4
350
56
  3
B5
350
57
  3
B6
350
58
  3
B7
350
59
  3
B8
350
5A
  3
B9
350
5B
  3
C0
350
5C
  3
C1
350
5D
  3
C2
350
5E
  3
C3
350
5F
  3
C4
350
60
  3
C5
350
61
  3
C6
350
62
  3
C7
350
63
  3
C8
350
64
  3
C9
350
65
  3
D0
350
66
  3
D1
350
67
  3
D2
350
68
  0
DICTIONARY
  5
134
102
{ACAD_REACTORS
330
C
102
}
330
C
100
AcDbDictionary
281
     1
  0
XRECORD
  5
145
102
{ACAD_REACTORS
330
C
102
}
330
C
100
AcDbXrecord
280
     1
  1
DWGPROPS COOKIE
  2

  3

  4

  6

  7

  8
12014102
  9

300
=
301
=
302
=
303
=
304
=
305
=
306
=
307
=
308
=
309
=
 40
0.0
 41
2458262.173675718
 42
2458266.311599086
  1

 90
        0
  0
LAYOUT
  5
1E
102
{ACAD_REACTORS
330
1A
102
}
330
1A
100
AcDbPlotSettings
  1

  2
none_device
  4

  6

 40
0.0
 41
0.0
 42
0.0
 43
0.0
 44
0.0
 45
0.0
 46
0.0
 47
0.0
 48
0.0
 49
0.0
140
0.0
141
0.0
142
1.0
143
1.0
 70
   688
 72
     1
 73
     0
 74
     5
  7

 75
    16
147
1.0
148
0.0
149
0.0
100
AcDbLayout
  1
Layout1
 70
     1
 71
     1
 10
0.0
 20
0.0
 11
420.0
 21
297.0
 12
0.0
 22
0.0
 32
0.0
 14
1.000000000000000E+20
 24
1.000000000000000E+20
 34
1.000000000000000E+20
 15
-1.000000000000000E+20
 25
-1.000000000000000E+20
 35
-1.000000000000000E+20
146
0.0
 13
0.0
 23
0.0
 33
0.0
 16
1.0
 26
0.0
 36
0.0
 17
0.0
 27
1.0
 37
0.0
 76
     0
330
1B
  0
LAYOUT
  5
26
102
{ACAD_REACTORS
330
1A
102
}
330
1A
100
AcDbPlotSettings
  1

  2
none_device
  4

  6

 40
0.0
 41
0.0
 42
0.0
 43
0.0
 44
0.0
 45
0.0
 46
0.0
 47
0.0
 48
0.0
 49
0.0
140
0.0
141
0.0
142
1.0
143
1.0
 70
   688
 72
     1
 73
     0
 74
     5
  7

 75
    16
147
1.0
148
0.0
149
0.0
100
AcDbLayout
  1
Layout2
 70
     1
 71
     2
 10
0.0
 20
0.0
 11
0.0
 21
0.0
 12
0.0
 22
0.0
 32
0.0
 14
0.0
 24
0.0
 34
0.0
 15
0.0
 25
0.0
 35
0.0
146
0.0
 13
0.0
 23
0.0
 33
0.0
 16
1.0
 26
0.0
 36
0.0
 17
0.0
 27
1.0
 37
0.0
 76
     0
330
23
  0
LAYOUT
  5
22
102
{ACAD_REACTORS
330
1A
102
}
330
1A
100
AcDbPlotSettings
  1

  2
none_device
  4
ANSI_A_(11.00_x_8.50_Inches)
  6

 40
6.35
 41
19.05
 42
6.35000508
 43
19.05000254
 44
279.4
 45
215.9
 46
175.6382602889881
 47
101.3267377860269
 48
0.0
 49
0.0
140
0.0
141
0.0
142
0.0504022769828517
143
1.0
 70
  1696
 72
     0
 73
     0
 74
     0
  7

 75
     0
147
0.0235690232323232
148
0.0
149
0.0
100
AcDbLayout
  1
Model
 70
     1
 71
     0
 10
0.0
 20
0.0
 11
420.0
 21
297.0
 12
0.0
 22
0.0
 32
0.0
 14
-145.3884980092026
 24
-49.97073246008785
 34
0.0
 15
84.67480861823458
 25
31.16341044024269
 35
0.0
146
0.0
 13
0.0
 23
0.0
 33
0.0
 16
1.0
 26
0.0
 36
0.0
 17
0.0
 27
1.0
 37
0.0
 76
     0
330
1F
331
29
  0
MLINESTYLE
  5
18
102
{ACAD_REACTORS
330
17
102
}
330
17
100
AcDbMlineStyle
  2
Standard
 70
     0
  3

 62
   256
 51
90.0
 52
90.0
 71
     2
 49
0.5
 62
   256
  6
BYLAYER
 49
-0.5
 62
   256
  6
BYLAYER
  0
ACDBPLACEHOLDER
  5
F
102
{ACAD_REACTORS
330
E
102
}
330
E
  0
SCALE
  5
48
102
{ACAD_REACTORS
330
47
102
}
330
47
100
AcDbScale
 70
     0
300
1:1
140
1.0
141
1.0
290
     1
  0
SCALE
  5
49
102
{ACAD_REACTORS
330
47
102
}
330
47
100
AcDbScale
 70
     0
300
1:2
140
1.0
141
2.0
290
     0
  0
SCALE
  5
4A
102
{ACAD_REACTORS
330
47
102
}
330
47
100
AcDbScale
 70
     0
300
1:4
140
1.0
141
4.0
290
     0
  0
SCALE
  5
4B
102
{ACAD_REACTORS
330
47
102
}
330
47
100
AcDbScale
 70
     0
300
1:5
140
1.0
141
5.0
290
     0
  0
SCALE
  5
4C
102
{ACAD_REACTORS
330
47
102
}
330
47
100
AcDbScale
 70
     0
300
1:8
140
1.0
141
8.0
290
     0
  0
SCALE
  5
4D
102
{ACAD_REACTORS
330
47
102
}
330
47
100
AcDbScale
 70
     0
300
1:10
140
1.0
141
10.0
290
     0
  0
SCALE
  5
4E
102
{ACAD_REACTORS
330
47
102
}
330
47
100
AcDbScale
 70
     0
300
1:16
140
1.0
141
16.0
290
     0
  0
SCALE
  5
4F
102
{ACAD_REACTORS
330
47
102
}
330
47
100
AcDbScale
 70
     0
300
1:20
140
1.0
141
20.0
290
     0
  0
SCALE
  5
50
102
{ACAD_REACTORS
330
47
102
}
330
47
100
AcDbScale
 70
     0
300
1:30
140
1.0
141
30.0
290
     0
  0
SCALE
  5
51
102
{ACAD_REACTORS
330
47
102
}
330
47
100
AcDbScale
 70
     0
300
1:40
140
1.0
141
40.0
290
     0
  0
SCALE
  5
52
102
{ACAD_REACTORS
330
47
102
}
330
47
100
AcDbScale
 70
     0
300
1:50
140
1.0
141
50.0
290
     0
  0
SCALE
  5
53
102
{ACAD_REACTORS
330
47
102
}
330
47
100
AcDbScale
 70
     0
300
1:100
140
1.0
141
100.0
290
     0
  0
SCALE
  5
54
102
{ACAD_REACTORS
330
47
102
}
330
47
100
AcDbScale
 70
     0
300
2:1
140
2.0
141
1.0
290
     0
  0
SCALE
  5
55
102
{ACAD_REACTORS
330
47
102
}
330
47
100
AcDbScale
 70
     0
300
4:1
140
4.0
141
1.0
290
     0
  0
SCALE
  5
56
102
{ACAD_REACTORS
330
47
102
}
330
47
100
AcDbScale
 70
     0
300
8:1
140
8.0
141
1.0
290
     0
  0
SCALE
  5
57
102
{ACAD_REACTORS
330
47
102
}
330
47
100
AcDbScale
 70
     0
300
10:1
140
10.0
141
1.0
290
     0
  0
SCALE
  5
58
102
{ACAD_REACTORS
330
47
102
}
330
47
100
AcDbScale
 70
     0
300
100:1
140
100.0
141
1.0
290
     0
  0
SCALE
  5
59
102
{ACAD_REACTORS
330
47
102
}
330
47
100
AcDbScale
 70
     0
300
1/128" = 1'-0"
140
0.0078125
141
12.0
290
     0
  0
SCALE
  5
5A
102
{ACAD_REACTORS
330
47
102
}
330
47
100
AcDbScale
 70
     0
300
1/64" = 1'-0"
140
0.015625
141
12.0
290
     0
  0
SCALE
  5
5B
102
{ACAD_REACTORS
330
47
102
}
330
47
100
AcDbScale
 70
     0
300
1/32" = 1'-0"
140
0.03125
141
12.0
290
     0
  0
SCALE
  5
5C
102
{ACAD_REACTORS
330
47
102
}
330
47
100
AcDbScale
 70
     0
300
1/16" = 1'-0"
140
0.0625
141
12.0
290
     0
  0
SCALE
  5
5D
102
{ACAD_REACTORS
330
47
102
}
330
47
100
AcDbScale
 70
     0
300
3/32" = 1'-0"
140
0.09375
141
12.0
290
     0
  0
SCALE
  5
5E
102
{ACAD_REACTORS
330
47
102
}
330
47
100
AcDbScale
 70
     0
300
1/8" = 1'-0"
140
0.125
141
12.0
290
     0
  0
SCALE
  5
5F
102
{ACAD_REACTORS
330
47
102
}
330
47
100
AcDbScale
 70
     0
300
3/16" = 1'-0"
140
0.1875
141
12.0
290
     0
  0
SCALE
  5
60
102
{ACAD_REACTORS
330
47
102
}
330
47
100
AcDbScale
 70
     0
300
1/4" = 1'-0"
140
0.25
141
12.0
290
     0
  0
SCALE
  5
61
102
{ACAD_REACTORS
330
47
102
}
330
47
100
AcDbScale
 70
     0
300
3/8" = 1'-0"
140
0.375
141
12.0
290
     0
  0
SCALE
  5
62
102
{ACAD_REACTORS
330
47
102
}
330
47
100
AcDbScale
 70
     0
300
1/2" = 1'-0"
140
0.5
141
12.0
290
     0
  0
SCALE
  5
63
102
{ACAD_REACTORS
330
47
102
}
330
47
100
AcDbScale
 70
     0
300
3/4" = 1'-0"
140
0.75
141
12.0
290
     0
  0
SCALE
  5
64
102
{ACAD_REACTORS
330
47
102
}
330
47
100
AcDbScale
 70
     0
300
1" = 1'-0"
140
1.0
141
12.0
290
     0
  0
SCALE
  5
65
102
{ACAD_REACTORS
330
47
102
}
330
47
100
AcDbScale
 70
     0
300
1-1/2" = 1'-0"
140
1.5
141
12.0
290
     0
  0
SCALE
  5
66
102
{ACAD_REACTORS
330
47
102
}
330
47
100
AcDbScale
 70
     0
300
3" = 1'-0"
140
3.0
141
12.0
290
     0
  0
SCALE
  5
67
102
{ACAD_REACTORS
330
47
102
}
330
47
100
AcDbScale
 70
     0
300
6" = 1'-0"
140
6.0
141
12.0
290
     0
  0
SCALE
  5
68
102
{ACAD_REACTORS
330
47
102
}
330
47
100
AcDbScale
 70
     0
300
1'-0" = 1'-0"
140
12.0
141
12.0
290
     0
  0
ENDSEC
  0
EOF
