  0
SECTION
  2
HEADER
  9
$ACADVER
  1
AC1015
  9
$ACADMAINTVER
 70
     6
  9
$DWGCODEPAGE
  3
ANSI_949
  9
$INSBASE
 10
0.0
 20
0.0
 30
0.0
  9
$EXTMIN
 10
-95.30363185088618
 20
-49.97073246008785
 30
0.0
  9
$EXTMAX
 10
84.25176142669622
 20
31.16341044024269
 30
0.0
  9
$LIMMIN
 10
0.0
 20
0.0
  9
$LIMMAX
 10
420.0
 20
297.0
  9
$ORTHOMODE
 70
     0
  9
$REGENMODE
 70
     1
  9
$FILLMODE
 70
     1
  9
$QTEXTMODE
 70
     0
  9
$MIRRTEXT
 70
     1
  9
$LTSCALE
 40
1.0
  9
$ATTMODE
 70
     1
  9
$TEXTSIZE
 40
3.5
  9
$TRACEWID
 40
1.0
  9
$TEXTSTYLE
  7
Standard
  9
$CLAYER
  8
0
  9
$CELTYPE
  6
ByLayer
  9
$CECOLOR
 62
   256
  9
$CELTSCALE
 40
1.0
  9
$DISPSILH
 70
     0
  9
$DIMSCALE
 40
1.0
  9
$DIMASZ
 40
3.302
  9
$DIMEXO
 40
1.0
  9
$DIMDLI
 40
3.75
  9
$DIMRND
 40
0.0
  9
$DIMDLE
 40
0.0
  9
$DIMEXE
 40
1.0
  9
$DIMTP
 40
0.0
  9
$DIMTM
 40
0.0
  9
$DIMTXT
 40
3.5
  9
$DIMCEN
 40
2.5
  9
$DIMTSZ
 40
0.0
  9
$DIMTOL
 70
     0
  9
$DIMLIM
 70
     0
  9
$DIMTIH
 70
     1
  9
$DIMTOH
 70
     1
  9
$DIMSE1
 70
     0
  9
$DIMSE2
 70
     0
  9
$DIMTAD
 70
     1
  9
$DIMZIN
 70
     0
  9
$DIMBLK
  1

  9
$DIMASO
 70
     1
  9
$DIMSHO
 70
     1
  9
$DIMPOST
  1

  9
$DIMAPOST
  1

  9
$DIMALT
 70
     0
  9
$DIMALTD
 70
     3
  9
$DIMALTF
 40
0.0393700787401575
  9
$DIMLFAC
 40
1.0
  9
$DIMTOFL
 70
     1
  9
$DIMTVP
 40
0.0
  9
$DIMTIX
 70
     0
  9
$DIMSOXD
 70
     0
  9
$DIMSAH
 70
     0
  9
$DIMBLK1
  1

  9
$DIMBLK2
  1

  9
$DIMSTYLE
  2
ISO-25
  9
$DIMCLRD
 70
     0
  9
$DIMCLRE
 70
     0
  9
$DIMCLRT
 70
     0
  9
$DIMTFAC
 40
1.0
  9
$DIMGAP
 40
1.524
  9
$DIMJUST
 70
     0
  9
$DIMSD1
 70
     0
  9
$DIMSD2
 70
     0
  9
$DIMTOLJ
 70
     0
  9
$DIMTZIN
 70
     0
  9
$DIMALTZ
 70
     0
  9
$DIMALTTZ
 70
     0
  9
$DIMUPT
 70
     0
  9
$DIMDEC
 70
     2
  9
$DIMTDEC
 70
     2
  9
$DIMALTU
 70
     2
  9
$DIMALTTD
 70
     3
  9
$DIMTXSTY
  7
Standard
  9
$DIMAUNIT
 70
     0
  9
$DIMADEC
 70
     2
  9
$DIMALTRND
 40
0.0
  9
$DIMAZIN
 70
     0
  9
$DIMDSEP
 70
    44
  9
$DIMATFIT
 70
     3
  9
$DIMFRAC
 70
     0
  9
$DIMLDRBLK
  1

  9
$DIMLUNIT
 70
     2
  9
$DIMLWD
 70
    -2
  9
$DIMLWE
 70
    -2
  9
$DIMTMOVE
 70
     0
  9
$LUNITS
 70
     2
  9
$LUPREC
 70
     2
  9
$SKETCHINC
 40
1.0
  9
$FILLETRAD
 40
10.0
  9
$AUNITS
 70
     0
  9
$AUPREC
 70
     2
  9
$MENU
  1
.
  9
$ELEVATION
 40
0.0
  9
$PELEVATION
 40
0.0
  9
$THICKNESS
 40
0.0
  9
$LIMCHECK
 70
     0
  9
$CHAMFERA
 40
0.0
  9
$CHAMFERB
 40
0.0
  9
$CHAMFERC
 40
0.0
  9
$CHAMFERD
 40
0.0
  9
$SKPOLY
 70
     0
  9
$TDCREATE
 40
2458262.548487986
  9
$TDUCREATE
 40
2458262.173487986
  9
$TDUPDATE
 40
2458266.685362465
  9
$TDUUPDATE
 40
2458266.310362465
  9
$TDINDWG
 40
0.0013386574
  9
$TDUSRTIMER
 40
2458266.309023831
  9
$USRTIMER
 70
     1
  9
$ANGBASE
 50
0.0
  9
$ANGDIR
 70
     0
  9
$PDMODE
 70
     0
  9
$PDSIZE
 40
-1.0
  9
$PLINEWID
 40
0.0
  9
$SPLFRAME
 70
     0
  9
$SPLINETYPE
 70
     6
  9
$SPLINESEGS
 70
     8
  9
$HANDSEED
  5
146
  9
$SURFTAB1
 70
     6
  9
$SURFTAB2
 70
     6
  9
$SURFTYPE
 70
     6
  9
$SURFU
 70
     6
  9
$SURFV
 70
     6
  9
$UCSBASE
  2

  9
$UCSNAME
  2

  9
$UCSORG
 10
0.0
 20
0.0
 30
0.0
  9
$UCSXDIR
 10
1.0
 20
0.0
 30
0.0
  9
$UCSYDIR
 10
0.0
 20
1.0
 30
0.0
  9
$UCSORTHOREF
  2

  9
$UCSORTHOVIEW
 70
     0
  9
$UCSORGTOP
 10
0.0
 20
0.0
 30
0.0
  9
$UCSORGBOTTOM
 10
0.0
 20
0.0
 30
0.0
  9
$UCSORGLEFT
 10
0.0
 20
0.0
 30
0.0
  9
$UCSORGRIGHT
 10
0.0
 20
0.0
 30
0.0
  9
$UCSORGFRONT
 10
0.0
 20
0.0
 30
0.0
  9
$UCSORGBACK
 10
0.0
 20
0.0
 30
0.0
  9
$PUCSBASE
  2

  9
$PUCSNAME
  2

  9
$PUCSORG
 10
0.0
 20
0.0
 30
0.0
  9
$PUCSXDIR
 10
1.0
 20
0.0
 30
0.0
  9
$PUCSYDIR
 10
0.0
 20
1.0
 30
0.0
  9
$PUCSORTHOREF
  2

  9
$PUCSORTHOVIEW
 70
     0
  9
$PUCSORGTOP
 10
0.0
 20
0.0
 30
0.0
  9
$PUCSORGBOTTOM
 10
0.0
 20
0.0
 30
0.0
  9
$PUCSORGLEFT
 10
0.0
 20
0.0
 30
0.0
  9
$PUCSORGRIGHT
 10
0.0
 20
0.0
 30
0.0
  9
$PUCSORGFRONT
 10
0.0
 20
0.0
 30
0.0
  9
$PUCSORGBACK
 10
0.0
 20
0.0
 30
0.0
  9
$USERI1
 70
     0
  9
$USERI2
 70
     0
  9
$USERI3
 70
     0
  9
$USERI4
 70
     0
  9
$USERI5
 70
     0
  9
$USERR1
 40
0.0
  9
$USERR2
 40
0.0
  9
$USERR3
 40
0.0
  9
$USERR4
 40
0.0
  9
$USERR5
 40
0.0
  9
$WORLDVIEW
 70
     1
  9
$SHADEDGE
 70
     3
  9
$SHADEDIF
 70
    70
  9
$TILEMODE
 70
     1
  9
$MAXACTVP
 70
    64
  9
$PINSBASE
 10
0.0
 20
0.0
 30
0.0
  9
$PLIMCHECK
 70
     0
  9
$PEXTMIN
 10
1.000000000000000E+20
 20
1.000000000000000E+20
 30
1.000000000000000E+20
  9
$PEXTMAX
 10
-1.000000000000000E+20
 20
-1.000000000000000E+20
 30
-1.000000000000000E+20
  9
$PLIMMIN
 10
0.0
 20
0.0
  9
$PLIMMAX
 10
0.0
 20
0.0
  9
$UNITMODE
 70
     0
  9
$VISRETAIN
 70
     1
  9
$PLINEGEN
 70
     0
  9
$PSLTSCALE
 70
     1
  9
$TREEDEPTH
 70
  3020
  9
$CMLSTYLE
  2
Standard
  9
$CMLJUST
 70
     0
  9
$CMLSCALE
 40
20.0
  9
$PROXYGRAPHICS
 70
     1
  9
$MEASUREMENT
 70
     1
  9
$CELWEIGHT
370
    -1
  9
$ENDCAPS
280
     0
  9
$JOINSTYLE
280
     0
  9
$LWDISPLAY
290
     1
  9
$INSUNITS
 70
     4
  9
$HYPERLINKBASE
  1

  9
$STYLESHEET
  1

  9
$XEDIT
290
     1
  9
$CEPSNTYPE
380
     0
  9
$PSTYLEMODE
290
     1
  9
$FINGERPRINTGUID
  2
{CBE874D6-595C-49E5-8F45-2402E316ED65}
  9
$VERSIONGUID
  2
{FAEB1C32-E019-11D5-929B-00C0DF256EC4}
  9
$EXTNAMES
290
     1
  9
$PSVPSCALE
 40
0.0
  9
$OLESTARTUP
290
     0
  0
ENDSEC
  0
SECTION
  2
CLASSES
  0
CLASS
  1
ACDBDICTIONARYWDFLT
  2
AcDbDictionaryWithDefault
  3
ObjectDBX Classes
 90
        0
280
     0
281
     0
  0
CLASS
  1
VISUALSTYLE
  2
AcDbVisualStyle
  3
ObjectDBX Classes
 90
     4095
280
     0
281
     0
  0
CLASS
  1
MATERIAL
  2
AcDbMaterial
  3
ObjectDBX Classes
 90
     1153
280
     0
281
     0
  0
CLASS
  1
SCALE
  2
AcDbScale
  3
ObjectDBX Classes
 90
     1153
280
     0
281
     0
  0
CLASS
  1
SUN
  2
AcDbSun
  3
SCENEOE
 90
     1153
280
     0
281
     0
  0
CLASS
  1
ACDBPLACEHOLDER
  2
AcDbPlaceHolder
  3
ObjectDBX Classes
 90
        0
280
     0
281
     0
  0
CLASS
  1
LAYOUT
  2
AcDbLayout
  3
ObjectDBX Classes
 90
        0
280
     0
281
     0
  0
CLASS
  1
TABLESTYLE
  2
AcDbTableStyle
  3
ObjectDBX Classes
 90
     4095
280
     0
281
     0
  0
CLASS
  1
MLEADERSTYLE
  2
AcDbMLeaderStyle
  3
ACDB_MLEADERSTYLE_CLASS
 90
     4095
280
     0
281
     0
  0
CLASS
  1
RASTERVARIABLES
  2
AcDbRasterVariables
  3
ISM
 90
        0
280
     0
281
     0
  0
ENDSEC
  0
SECTION
  2
TABLES
  0
TABLE
  2
VPORT
  5
8
330
0
100
AcDbSymbolTable
 70
     1
  0
VPORT
  5
29
330
8
100
AcDbSymbolTableRecord
100
AcDbViewportTableRecord
  2
*Active
 70
     0
 10
0.0
 20
0.0
 11
1.0
 21
1.0
 12
-5.525935212094979
 22
-9.40366100992258
 13
0.0
 23
0.0
 14
10.0
 24
10.0
 15
10.0
 25
10.0
 16
0.0
 26
0.0
 36
1.0
 17
0.0
 27
0.0
 37
0.0
 40
158.9186007676971
 41
1.152454780361757
 42
50.0
 43
0.0
 44
0.0
 50
0.0
 51
0.0
 71
    16
 72
  2000
 73
     1
 74
     3
 75
     0
 76
     0
 77
     0
 78
     0
281
     0
 65
     1
110
0.0
120
0.0
130
0.0
111
1.0
121
0.0
131
0.0
112
0.0
122
1.0
132
0.0
 79
     0
146
0.0
  0
ENDTAB
  0
TABLE
  2
LTYPE
  5
5
330
0
100
AcDbSymbolTable
 70
     6
  0
LTYPE
  5
14
330
5
100
AcDbSymbolTableRecord
100
AcDbLinetypeTableRecord
  2
ByBlock
 70
     0
  3

 72
    65
 73
     0
 40
0.0
  0
LTYPE
  5
15
330
5
100
AcDbSymbolTableRecord
100
AcDbLinetypeTableRecord
  2
ByLayer
 70
     0
  3

 72
    65
 73
     0
 40
0.0
  0
LTYPE
  5
16
330
5
100
AcDbSymbolTableRecord
100
AcDbLinetypeTableRecord
  2
Continuous
 70
     0
  3
Solid line
 72
    65
 73
     0
 40
0.0
  0
LTYPE
  5
6A
330
5
100
AcDbSymbolTableRecord
100
AcDbLinetypeTableRecord
  2
HIDDEN
 70
     0
  3
Hidden __ __ __ __ __ __ __ __ __ __ __ __ __ __
 72
    65
 73
     2
 40
1.905
 49
1.27
 74
     0
 49
-0.635
 74
     0
  0
LTYPE
  5
6B
330
5
100
AcDbSymbolTableRecord
100
AcDbLinetypeTableRecord
  2
PHANTOM
 70
     0
  3
Phantom ______  __  __  ______  __  __  ______
 72
    65
 73
     6
 40
12.7
 49
6.35
 74
     0
 49
-1.27
 74
     0
 49
1.27
 74
     0
 49
-1.27
 74
     0
 49
1.27
 74
     0
 49
-1.27
 74
     0
  0
LTYPE
  5
6C
330
5
100
AcDbSymbolTableRecord
100
AcDbLinetypeTableRecord
  2
CENTER
 70
     0
  3
Center ____ _ ____ _ ____ _ ____ _ ____ _ ____
 72
    65
 73
     4
 40
10.16
 49
6.35
 74
     0
 49
-1.27
 74
     0
 49
1.27
 74
     0
 49
-1.27
 74
     0
  0
LTYPE
  5
6D
330
5
100
AcDbSymbolTableRecord
100
AcDbLinetypeTableRecord
  2
CENTERX2
 70
     0
  3
Center (2x) ________  __  ________  __  _____
 72
    65
 73
     4
 40
20.32
 49
12.7
 74
     0
 49
-2.54
 74
     0
 49
2.54
 74
     0
 49
-2.54
 74
     0
  0
LTYPE
  5
6E
330
5
100
AcDbSymbolTableRecord
100
AcDbLinetypeTableRecord
  2
DOT2
 70
     0
  3
Dot (.5x) ........................................
 72
    65
 73
     2
 40
0.635
 49
0.0
 74
     0
 49
-0.635
 74
     0
  0
ENDTAB
  0
TABLE
  2
LAYER
  5
2
330
0
100
AcDbSymbolTable
 70
    17
  0
LAYER
  5
10
330
2
100
AcDbSymbolTableRecord
100
AcDbLayerTableRecord
  2
0
 70
     0
 62
     7
  6
Continuous
370
    -3
390
F
  0
LAYER
  5
6F
330
2
100
AcDbSymbolTableRecord
100
AcDbLayerTableRecord
  2
FORMAT
 70
     0
 62
     2
  6
Continuous
370
    -3
390
F
  0
LAYER
  5
70
330
2
100
AcDbSymbolTableRecord
100
AcDbLayerTableRecord
  2
외형선
 70
     0
 62
   100
  6
Continuous
370
    30
390
F
  0
LAYER
  5
71
330
2
100
AcDbSymbolTableRecord
100
AcDbLayerTableRecord
  2
숨은선
 70
     0
 62
     2
  6
HIDDEN
370
    15
390
F
  0
LAYER
  5
72
330
2
100
AcDbSymbolTableRecord
100
AcDbLayerTableRecord
  2
중심선
 70
     0
 62
     1
  6
CENTERX2
370
    -3
390
F
  0
LAYER
  5
73
330
2
100
AcDbSymbolTableRecord
100
AcDbLayerTableRecord
  2
파단선
 70
     0
 62
     4
  6
Continuous
370
    -3
390
F
  0
LAYER
  5
74
330
2
100
AcDbSymbolTableRecord
100
AcDbLayerTableRecord
  2
해칭선
 70
     0
 62
     4
  6
Continuous
370
    -3
390
F
  0
LAYER
  5
75
330
2
100
AcDbSymbolTableRecord
100
AcDbLayerTableRecord
  2
가는실선
 70
     0
 62
     4
  6
Continuous
370
    -3
390
F
  0
LAYER
  5
76
330
2
100
AcDbSymbolTableRecord
100
AcDbLayerTableRecord
  2
치수_보조선
 70
     0
 62
     4
  6
Continuous
370
    -3
390
F
  0
LAYER
  5
77
330
2
100
AcDbSymbolTableRecord
100
AcDbLayerTableRecord
  2
치수문자_일반주서
 70
     0
 62
     7
  6
Continuous
370
    15
390
F
  0
LAYER
  5
78
330
2
100
AcDbSymbolTableRecord
100
AcDbLayerTableRecord
  2
개별주서
 70
     0
 62
   100
  6
Continuous
370
    30
390
F
  0
LAYER
  5
79
330
2
100
AcDbSymbolTableRecord
100
AcDbLayerTableRecord
  2
중간선
 70
     0
 62
     2
  6
Continuous
370
    15
390
F
  0
LAYER
  5
7A
330
2
100
AcDbSymbolTableRecord
100
AcDbLayerTableRecord
  2
윤곽선
 70
     0
 62
     3
  6
Continuous
370
    40
390
F
  0
LAYER
  5
7B
330
2
100
AcDbSymbolTableRecord
100
AcDbLayerTableRecord
  2
중심마크
 70
     0
 62
   100
  6
Continuous
370
    30
390
F
  0
LAYER
  5
7C
330
2
100
AcDbSymbolTableRecord
100
AcDbLayerTableRecord
  2
가상선
 70
     0
 62
     4
  6
PHANTOM
370
    -3
390
F
  0
LAYER
  5
7D
330
2
100
AcDbSymbolTableRecord
100
AcDbLayerTableRecord
  2
특수지정선
 70
     0
 62
     5
  6
CENTERX2
370
    60
390
F
  0
LAYER
  5
137
330
2
100
AcDbSymbolTableRecord
100
AcDbLayerTableRecord
  2
Defpoints
 70
     0
 62
     7
  6
Continuous
290
     0
370
    -3
390
F
  0
ENDTAB
  0
TABLE
  2
STYLE
  5
3
330
0
100
AcDbSymbolTable
 70
     2
  0
STYLE
  5
11
330
3
100
AcDbSymbolTableRecord
100
AcDbTextStyleTableRecord
  2
Standard
 70
     0
 40
0.0
 41
1.0
 50
0.0
 71
     0
 42
3.5
  3
txt
  4

  0
STYLE
  5
93
330
3
100
AcDbSymbolTableRecord
100
AcDbTextStyleTableRecord
  2
SLDTEXTSTYLE0
 70
     0
 40
0.0
 41
0.75
 50
0.0
 71
     0
 42
3.5
  3
TXT
  4

  0
ENDTAB
  0
TABLE
  2
VIEW
  5
6
330
0
100
AcDbSymbolTable
 70
     0
  0
ENDTAB
  0
TABLE
  2
UCS
  5
7
330
0
100
AcDbSymbolTable
 70
     0
  0
ENDTAB
  0
TABLE
  2
APPID
  5
9
330
0
100
AcDbSymbolTable
 70
     1
  0
APPID
  5
12
330
9
100
AcDbSymbolTableRecord
100
AcDbRegAppTableRecord
  2
ACAD
 70
     0
  0
ENDTAB
  0
TABLE
  2
DIMSTYLE
  5
A
330
0
100
AcDbSymbolTable
 70
     3
100
AcDbDimStyleTable
  0
DIMSTYLE
105
27
330
A
100
AcDbSymbolTableRecord
100
AcDbDimStyleTableRecord
  2
ISO-25
 70
     0
 41
2.5
 42
0.625
 43
3.75
 44
1.25
 73
     0
 74
     0
 77
     1
 78
     8
140
2.5
141
2.5
143
0.03937007874016
147
0.625
171
     3
172
     1
178
     0
271
     2
272
     2
274
     3
278
    44
283
     0
284
     8
340
11
  0
DIMSTYLE
105
DD
102
{ACAD_REACTORS
330
DC
330
FF
102
}
330
A
100
AcDbSymbolTableRecord
100
AcDbDimStyleTableRecord
  2
SLDDIMSTYLE0
 70
     0
 41
3.302
 44
0.0
 45
0.000000001
 73
     0
 74
     0
 77
     1
 78
    12
 79
     3
140
3.5
147
0.875
172
     1
173
     1
178
     0
271
     2
272
     2
276
     2
284
    12
289
     0
340
93
  0
DIMSTYLE
105
EB
102
{ACAD_REACTORS
330
EA
330
F5
102
}
330
A
100
AcDbSymbolTableRecord
100
AcDbDimStyleTableRecord
  2
SLDDIMSTYLE1
 70
     0
 41
3.302
 44
0.0
 45
0.000000001
 73
     0
 74
     0
 77
     1
 78
    12
 79
     3
140
3.5
147
0.875
173
     1
178
     0
271
     2
272
     2
276
     2
284
    12
340
93
  0
ENDTAB
  0
TABLE
  2
BLOCK_RECORD
  5
1
330
0
100
AcDbSymbolTable
 70
     7
  0
BLOCK_RECORD
  5
1F
330
1
100
AcDbSymbolTableRecord
100
AcDbBlockTableRecord
  2
*Model_Space
340
22
  0
BLOCK_RECORD
  5
1B
330
1
100
AcDbSymbolTableRecord
100
AcDbBlockTableRecord
  2
*Paper_Space
340
1E
  0
BLOCK_RECORD
  5
23
330
1
100
AcDbSymbolTableRecord
100
AcDbBlockTableRecord
  2
*Paper_Space0
340
26
  0
BLOCK_RECORD
  5
7E
330
1
100
AcDbSymbolTableRecord
100
AcDbBlockTableRecord
  2
블럭10
340
0
102
{BLKREFS
331
D5
102
}
  0
BLOCK_RECORD
  5
DE
330
1
100
AcDbSymbolTableRecord
100
AcDbBlockTableRecord
  2
_D
340
0
  0
BLOCK_RECORD
  5
EC
330
1
100
AcDbSymbolTableRecord
100
AcDbBlockTableRecord
  2
_D_1
340
0
  0
BLOCK_RECORD
  5
F6
330
1
100
AcDbSymbolTableRecord
100
AcDbBlockTableRecord
  2
_D_2
340
0
  0
BLOCK_RECORD
  5
100
330
1
100
AcDbSymbolTableRecord
100
AcDbBlockTableRecord
  2
_D_3
340
0
  0
BLOCK_RECORD
  5
10C
330
1
100
AcDbSymbolTableRecord
100
AcDbBlockTableRecord
  2
SW_DOWELSYMBOL_0
340
0
102
{BLKREFS
331
112
102
}
  0
ENDTAB
  0
ENDSEC
  0
SECTION
  2
BLOCKS
  0
BLOCK
  5
20
330
1F
100
AcDbEntity
  8
0
100
AcDbBlockBegin
  2
*Model_Space
 70
     0
 10
0.0
 20
0.0
 30
0.0
  3
*Model_Space
  1

  0
ENDBLK
  5
21
330
1F
100
AcDbEntity
  8
0
100
AcDbBlockEnd
  0
BLOCK
  5
1C
330
1B
100
AcDbEntity
 67
     1
  8
0
100
AcDbBlockBegin
  2
*Paper_Space
 70
     0
 10
0.0
 20
0.0
 30
0.0
  3
*Paper_Space
  1

  0
ENDBLK
  5
1D
330
1B
100
AcDbEntity
 67
     1
  8
0
100
AcDbBlockEnd
  0
BLOCK
  5
24
330
23
100
AcDbEntity
  8
0
100
AcDbBlockBegin
  2
*Paper_Space0
 70
     0
 10
0.0
 20
0.0
 30
0.0
  3
*Paper_Space0
  1

  0
ENDBLK
  5
25
330
23
100
AcDbEntity
  8
0
100
AcDbBlockEnd
  0
BLOCK
  5
7F
330
7E
100
AcDbEntity
  8
0
100
AcDbBlockBegin
  2
블럭10
 70
     2
 10
0.0
 20
0.0
 30
0.0
  3
블럭10
  1

  0
ELLIPSE
  5
81
330
7E
100
AcDbEntity
  8
중심선
100
AcDbEllipse
 10
20.54032771741204
 20
12.0471743016438
 30
0.0
 11
6.600054785286829
 21
-1.261213355974178E-13
 31
0.0
210
0.0
220
0.0
230
1.0
 40
0.636358354079598
 41
0.9219305317359503
 42
6.513795318482858
  0
ELLIPSE
  5
82
330
7E
100
AcDbEntity
  8
중심선
100
AcDbEllipse
 10
20.54032771746488
 20
12.04717430159265
 30
0.0
 11
3.960054785062283
 21
1.540847449632565E-10
 31
0.0
210
0.0
220
0.0
230
1.0
 40
0.3939339440162632
 41
1.131841032648279
 42
5.62031148352944
  0
LINE
  5
83
330
7E
100
AcDbEntity
  8
중심선
100
AcDbLine
 10
2.268634060543552
 20
16.24717430164393
 30
0.0
 11
5.714909304380834
 21
16.24717430164393
 31
0.0
  0
LINE
  5
84
330
7E
100
AcDbEntity
  8
중심선
100
AcDbLine
 10
5.245725140726316
 20
7.84717430164391
 30
0.0
 11
8.692000384563599
 21
7.84717430164391
 31
0.0
  0
LINE
  5
85
330
7E
100
AcDbEntity
  8
중심선
100
AcDbLine
 10
15.74043728645272
 20
16.24717430164393
 30
0.0
 11
8.692000384563599
 21
7.84717430164391
 31
0.0
  0
LINE
  5
86
330
7E
100
AcDbEntity
  8
중심선
100
AcDbLine
 10
0.1404042013395286
 20
13.71084872107135
 30
0.0
 11
3.58671253028996
 21
13.71088815037384
 31
0.0
  0
LINE
  5
87
330
7E
100
AcDbEntity
  8
중심선
100
AcDbLine
 10
2.750260043222114
 20
10.84717430164391
 30
0.0
 11
6.196535287059397
 21
10.84717430164391
 31
0.0
  0
LINE
  5
88
330
7E
100
AcDbEntity
  8
중심선
100
AcDbLine
 10
12.29416204261559
 20
16.24717430164393
 30
0.0
 11
5.245725140726316
 21
7.84717430164391
 31
0.0
  0
LINE
  5
89
330
7E
100
AcDbEntity
  8
중심선
100
AcDbLine
 10
10.72767329541681
 20
16.24717430164393
 30
0.0
 11
6.196535287059397
 21
10.84717430164391
 31
0.0
  0
LINE
  5
8A
330
7E
100
AcDbEntity
  8
중심선
100
AcDbLine
 10
7.28139805157953
 20
16.24717430164393
 30
0.0
 11
2.750260043222114
 21
10.84717430164391
 31
0.0
  0
LINE
  5
8B
330
7E
100
AcDbEntity
  8
중심선
100
AcDbLine
 10
5.714909304380834
 20
16.24717430164393
 30
0.0
 11
3.58671253028996
 21
13.71088815037384
 31
0.0
  0
LINE
  5
8C
330
7E
100
AcDbEntity
  8
중심선
100
AcDbLine
 10
2.268634060543552
 20
16.24717430164393
 30
0.0
 11
0.1404042013395286
 21
13.71084872107135
 31
0.0
  0
LINE
  5
8D
330
7E
100
AcDbEntity
  8
중심선
100
AcDbLine
 10
7.28139805157953
 20
16.24717430164393
 30
0.0
 11
10.72767329541681
 21
16.24717430164393
 31
0.0
  0
LINE
  5
8E
330
7E
100
AcDbEntity
  8
중심선
100
AcDbLine
 10
12.29416204261559
 20
16.24717430164393
 30
0.0
 11
15.74043728645272
 21
16.24717430164393
 31
0.0
  0
LINE
  5
8F
330
7E
100
AcDbEntity
  8
중심선
100
AcDbLine
 10
19.22036997980202
 20
11.08717430171403
 30
0.0
 11
23.66174974927406
 21
11.08717430171406
 31
0.0
  0
LINE
  5
90
330
7E
100
AcDbEntity
  8
중심선
100
AcDbLine
 10
19.22039502424796
 20
13.00717430171391
 30
0.0
 11
19.22036997980202
 21
11.08717430171403
 31
0.0
  0
LINE
  5
91
330
7E
100
AcDbEntity
  8
중심선
100
AcDbLine
 10
19.22039502424796
 20
13.00717430171391
 30
0.0
 11
26.96566020931264
 21
13.00717430171391
 31
0.0
  0
LINE
  5
92
330
7E
100
AcDbEntity
  8
중심선
100
AcDbLine
 10
22.22332737316547
 20
13.45928029700563
 30
0.0
 11
24.52862924686651
 21
15.39360700705356
 31
0.0
  0
ATTDEF
  5
94
330
7E
100
AcDbEntity
  8
FORMAT
 62
     2
100
AcDbText
 10
-20.85824753159254
 20
2.075366912832191
 30
0.0
 40
4.233333333333333
  1
SEME7012060150E [ 2 FLUTE ]
 41
0.75
  7
SLDTEXTSTYLE0
 11
-20.85824753159254
 21
-0.0412997538344756
 31
0.0
100
AcDbAttributeDefinition
  3

  2
AUTOATTR0
 70
     0
 74
     1
  0
ENDBLK
  5
80
330
7E
100
AcDbEntity
  8
0
100
AcDbBlockEnd
  0
BLOCK
  5
DF
330
DE
100
AcDbEntity
  8
0
100
AcDbBlockBegin
  2
_D
 70
     0
 10
0.0
 20
0.0
 30
0.0
  3
_D
  1

  0
LINE
  5
E1
330
DE
100
AcDbEntity
  8
치수문자_일반주서
 62
     0
370
    -2
100
AcDbLine
 10
70.0625
 20
-5.999999999999769
 30
0.0
 11
83.70142809336288
 21
-5.999999999999719
 31
0.0
  0
LINE
  5
E2
330
DE
100
AcDbEntity
  8
치수문자_일반주서
 62
     0
370
    -2
100
AcDbLine
 10
70.0625
 20
6.000000000000227
 30
0.0
 11
83.70142809336284
 21
6.000000000000279
 31
0.0
  0
LINE
  5
E3
330
DE
100
AcDbEntity
  8
치수문자_일반주서
 62
     0
370
    -2
100
AcDbLine
 10
83.70142809336288
 20
-5.999999999999719
 30
0.0
 11
83.70142809336278
 21
20.47900000000028
 31
0.0
  0
LINE
  5
E4
330
DE
100
AcDbEntity
  8
치수문자_일반주서
 62
     0
370
    -2
100
AcDbLine
 10
83.70142809336288
 20
-5.999999999999719
 30
0.0
 11
83.70142809336284
 21
6.000000000000279
 31
0.0
  0
LINE
  5
E5
330
DE
100
AcDbEntity
  8
치수문자_일반주서
 62
     0
370
    -2
100
AcDbLine
 10
83.70142809336289
 20
-9.301999999999719
 30
0.0
 11
83.7014280933629
 21
-12.60399999999972
 31
0.0
  0
LINE
  5
E6
330
DE
100
AcDbEntity
  8
치수문자_일반주서
 62
     0
370
    -2
100
AcDbLine
 10
83.70142809336282
 20
9.302000000000278
 30
0.0
 11
83.70142809336281
 21
12.60400000000028
 31
0.0
  0
SOLID
  5
E7
330
DE
100
AcDbEntity
  8
치수문자_일반주서
 62
     0
100
AcDbTrace
 10
84.25176142669622
 20
-9.301999999999717
 30
0.0
 11
83.15109476002957
 21
-9.30199999999972
 31
0.0
 12
83.70142809336288
 22
-5.999999999999719
 32
0.0
 13
83.70142809336288
 23
-5.999999999999719
 33
0.0
  0
SOLID
  5
E8
330
DE
100
AcDbEntity
  8
치수문자_일반주서
 62
     0
100
AcDbTrace
 10
83.1510947600295
 20
9.302000000000277
 30
0.0
 11
84.25176142669615
 21
9.30200000000028
 31
0.0
 12
83.70142809336284
 22
6.000000000000279
 32
0.0
 13
83.70142809336284
 23
6.000000000000279
 33
0.0
  0
MTEXT
  5
E9
330
DE
100
AcDbEntity
  8
치수문자_일반주서
 62
     0
100
AcDbMText
 10
79.3264280933628
 20
16.54150000000026
 30
0.0
 40
3.5
 41
0.0
 71
     2
 72
     1
  1
\A1;%%c12
  7
SLDTEXTSTYLE0
 11
-3.552713678800502E-15
 21
1.0
 31
0.0
 73
     1
 44
1.0
  0
POINT
  5
141
330
DE
100
AcDbEntity
  8
Defpoints
 62
     0
100
AcDbPoint
 10
70.0
 20
-5.999999999999769
 30
0.0
  0
POINT
  5
142
330
DE
100
AcDbEntity
  8
Defpoints
 62
     0
100
AcDbPoint
 10
70.0
 20
6.000000000000227
 30
0.0
  0
POINT
  5
143
330
DE
100
AcDbEntity
  8
Defpoints
 62
     0
100
AcDbPoint
 10
83.70142809336284
 20
6.000000000000279
 30
0.0
  0
ENDBLK
  5
E0
330
DE
100
AcDbEntity
  8
0
100
AcDbBlockEnd
  0
BLOCK
  5
ED
330
EC
100
AcDbEntity
  8
0
100
AcDbBlockBegin
  2
_D_1
 70
     0
 10
0.0
 20
0.0
 30
0.0
  3
_D_1
  1

  0
LINE
  5
EF
330
EC
100
AcDbEntity
  8
치수문자_일반주서
 62
     0
370
    -2
100
AcDbLine
 10
-79.99999999999999
 20
5.062499999999994
 30
0.0
 11
-79.99999999999999
 21
26.78841044024269
 31
0.0
  0
LINE
  5
F0
330
EC
100
AcDbEntity
  8
치수문자_일반주서
 62
     0
370
    -2
100
AcDbLine
 10
69.99999999999973
 20
6.062500000000227
 30
0.0
 11
69.99999999999973
 21
26.78841044024269
 31
0.0
  0
LINE
  5
F1
330
EC
100
AcDbEntity
  8
치수문자_일반주서
 62
     0
370
    -2
100
AcDbLine
 10
-76.69799999999998
 20
26.78841044024269
 30
0.0
 11
66.69799999999972
 21
26.78841044024269
 31
0.0
  0
SOLID
  5
F2
330
EC
100
AcDbEntity
  8
치수문자_일반주서
 62
     0
100
AcDbTrace
 10
-76.69799999999998
 20
27.33874377357603
 30
0.0
 11
-76.69799999999998
 21
26.23807710690936
 31
0.0
 12
-79.99999999999999
 22
26.78841044024269
 32
0.0
 13
-79.99999999999999
 23
26.78841044024269
 33
0.0
  0
SOLID
  5
F3
330
EC
100
AcDbEntity
  8
치수문자_일반주서
 62
     0
100
AcDbTrace
 10
66.69799999999972
 20
26.23807710690936
 30
0.0
 11
66.69799999999972
 21
27.33874377357603
 31
0.0
 12
69.99999999999973
 22
26.78841044024269
 32
0.0
 13
69.99999999999973
 23
26.78841044024269
 33
0.0
  0
MTEXT
  5
F4
330
EC
100
AcDbEntity
  8
치수문자_일반주서
 62
     0
100
AcDbMText
 10
-5.000000000000129
 20
31.16341044024269
 30
0.0
 40
3.5
 41
0.0
 71
     2
 72
     1
  1
\A1;150
  7
SLDTEXTSTYLE0
 73
     1
 44
1.0
  0
POINT
  5
138
330
EC
100
AcDbEntity
  8
Defpoints
 62
     0
100
AcDbPoint
 10
-79.99999999999999
 20
4.999999999999994
 30
0.0
  0
POINT
  5
139
330
EC
100
AcDbEntity
  8
Defpoints
 62
     0
100
AcDbPoint
 10
69.99999999999973
 20
6.000000000000227
 30
0.0
  0
POINT
  5
13A
330
EC
100
AcDbEntity
  8
Defpoints
 62
     0
100
AcDbPoint
 10
69.99999999999973
 20
26.78841044024269
 30
0.0
  0
ENDBLK
  5
EE
330
EC
100
AcDbEntity
  8
0
100
AcDbBlockEnd
  0
BLOCK
  5
F7
330
F6
100
AcDbEntity
  8
0
100
AcDbBlockBegin
  2
_D_2
 70
     0
 10
0.0
 20
0.0
 30
0.0
  3
_D_2
  1

  0
LINE
  5
F9
330
F6
100
AcDbEntity
  8
치수문자_일반주서
 62
     0
370
    -2
100
AcDbLine
 10
10.00000000000001
 20
5.955911867549767
 30
0.0
 11
10.00000000000001
 21
19.24040967371729
 31
0.0
  0
LINE
  5
FA
330
F6
100
AcDbEntity
  8
치수문자_일반주서
 62
     0
370
    -2
100
AcDbLine
 10
69.99999999999973
 20
6.062500000000227
 30
0.0
 11
69.99999999999973
 21
19.24040967371729
 31
0.0
  0
LINE
  5
FB
330
F6
100
AcDbEntity
  8
치수문자_일반주서
 62
     0
370
    -2
100
AcDbLine
 10
13.30200000000001
 20
19.24040967371729
 30
0.0
 11
66.69799999999972
 21
19.24040967371729
 31
0.0
  0
SOLID
  5
FC
330
F6
100
AcDbEntity
  8
치수문자_일반주서
 62
     0
100
AcDbTrace
 10
13.30200000000001
 20
19.79074300705062
 30
0.0
 11
13.30200000000001
 21
18.69007634038395
 31
0.0
 12
10.00000000000001
 22
19.24040967371729
 32
0.0
 13
10.00000000000001
 23
19.24040967371729
 33
0.0
  0
SOLID
  5
FD
330
F6
100
AcDbEntity
  8
치수문자_일반주서
 62
     0
100
AcDbTrace
 10
66.69799999999972
 20
18.69007634038395
 30
0.0
 11
66.69799999999972
 21
19.79074300705062
 31
0.0
 12
69.99999999999973
 22
19.24040967371729
 32
0.0
 13
69.99999999999973
 23
19.24040967371729
 33
0.0
  0
MTEXT
  5
FE
330
F6
100
AcDbEntity
  8
치수문자_일반주서
 62
     0
100
AcDbMText
 10
40.00000000000001
 20
23.61540967371729
 30
0.0
 40
3.5
 41
0.0
 71
     2
 72
     1
  1
\A1;60
  7
SLDTEXTSTYLE0
 73
     1
 44
1.0
  0
POINT
  5
13B
330
F6
100
AcDbEntity
  8
Defpoints
 62
     0
100
AcDbPoint
 10
10.00000000000001
 20
5.893411867549767
 30
0.0
  0
POINT
  5
13C
330
F6
100
AcDbEntity
  8
Defpoints
 62
     0
100
AcDbPoint
 10
69.99999999999973
 20
6.000000000000227
 30
0.0
  0
POINT
  5
13D
330
F6
100
AcDbEntity
  8
Defpoints
 62
     0
100
AcDbPoint
 10
69.99999999999973
 20
19.24040967371729
 30
0.0
  0
ENDBLK
  5
F8
330
F6
100
AcDbEntity
  8
0
100
AcDbBlockEnd
  0
BLOCK
  5
101
330
100
100
AcDbEntity
  8
0
100
AcDbBlockBegin
  2
_D_3
 70
     0
 10
0.0
 20
0.0
 30
0.0
  3
_D_3
  1

  0
LINE
  5
103
330
100
100
AcDbEntity
  8
치수문자_일반주서
 62
     0
370
    -2
100
AcDbLine
 10
-79.06249999999999
 20
5.999999999999995
 30
0.0
 11
-90.92863185088612
 21
5.99999999999995
 31
0.0
  0
LINE
  5
104
330
100
100
AcDbEntity
  8
치수문자_일반주서
 62
     0
370
    -2
100
AcDbLine
 10
-79.06249999999999
 20
-5.999999999999995
 30
0.0
 11
-90.92863185088608
 21
-6.000000000000039
 31
0.0
  0
LINE
  5
105
330
100
100
AcDbEntity
  8
치수문자_일반주서
 62
     0
370
    -2
100
AcDbLine
 10
-90.92863185088612
 20
5.99999999999995
 30
0.0
 11
-90.92863185088618
 21
20.47899999999995
 31
0.0
  0
LINE
  5
106
330
100
100
AcDbEntity
  8
치수문자_일반주서
 62
     0
370
    -2
100
AcDbLine
 10
-90.92863185088612
 20
5.99999999999995
 30
0.0
 11
-90.92863185088608
 21
-6.000000000000039
 31
0.0
  0
LINE
  5
107
330
100
100
AcDbEntity
  8
치수문자_일반주서
 62
     0
370
    -2
100
AcDbLine
 10
-90.92863185088613
 20
9.30199999999995
 30
0.0
 11
-90.92863185088615
 21
12.60399999999995
 31
0.0
  0
LINE
  5
108
330
100
100
AcDbEntity
  8
치수문자_일반주서
 62
     0
370
    -2
100
AcDbLine
 10
-90.92863185088606
 20
-9.302000000000039
 30
0.0
 11
-90.92863185088605
 21
-12.60400000000004
 31
0.0
  0
SOLID
  5
109
330
100
100
AcDbEntity
  8
치수문자_일반주서
 62
     0
100
AcDbTrace
 10
-91.47896518421946
 20
9.301999999999948
 30
0.0
 11
-90.3782985175528
 21
9.301999999999952
 31
0.0
 12
-90.92863185088612
 22
5.99999999999995
 32
0.0
 13
-90.92863185088612
 23
5.99999999999995
 33
0.0
  0
SOLID
  5
10A
330
100
100
AcDbEntity
  8
치수문자_일반주서
 62
     0
100
AcDbTrace
 10
-90.37829851755274
 20
-9.302000000000037
 30
0.0
 11
-91.47896518421939
 21
-9.30200000000004
 31
0.0
 12
-90.92863185088608
 22
-6.000000000000039
 32
0.0
 13
-90.92863185088608
 23
-6.000000000000039
 33
0.0
  0
MTEXT
  5
10B
330
100
100
AcDbEntity
  8
치수문자_일반주서
 62
     0
100
AcDbMText
 10
-95.30363185088616
 20
16.54149999999993
 30
0.0
 40
3.5
 41
0.0
 71
     2
 72
     1
  1
\A1;%%c12
  7
SLDTEXTSTYLE0
 11
-3.552713678800504E-15
 21
1.0
 31
0.0
 73
     1
 44
1.0
  0
POINT
  5
13E
330
100
100
AcDbEntity
  8
Defpoints
 62
     0
100
AcDbPoint
 10
-78.99999999999999
 20
5.999999999999995
 30
0.0
  0
POINT
  5
13F
330
100
100
AcDbEntity
  8
Defpoints
 62
     0
100
AcDbPoint
 10
-78.99999999999999
 20
-5.999999999999995
 30
0.0
  0
POINT
  5
140
330
100
100
AcDbEntity
  8
Defpoints
 62
     0
100
AcDbPoint
 10
-90.92863185088612
 20
-6.000000000000039
 30
0.0
  0
ENDBLK
  5
102
330
100
100
AcDbEntity
  8
0
100
AcDbBlockEnd
  0
BLOCK
  5
10D
330
10C
100
AcDbEntity
  8
0
100
AcDbBlockBegin
  2
SW_DOWELSYMBOL_0
 70
     0
 10
0.0
 20
0.0
 30
0.0
  3
SW_DOWELSYMBOL_0
  1

  0
CIRCLE
  5
10F
330
10C
100
AcDbEntity
  8
외형선
 62
     0
100
AcDbCircle
 10
0.0
 20
0.0
 30
0.0
 40
3.000000000000004
  0
HATCH
  5
110
330
10C
100
AcDbEntity
  8
0
  6
Continuous
 62
     0
370
    30
100
AcDbHatch
 10
0.0
 20
0.0
 30
0.0
210
0.0
220
0.0
230
1.0
  2
SOLID
 70
     1
 71
     0
 91
        1
 92
        0
 93
        3
 72
     2
 10
0.0000000000000104
 20
0.0
 40
3.000000000000004
 50
0.0
 51
90.0
 73
     1
 72
     1
 10
0.0000000000000104
 20
3.000000000000004
 11
0.0000000000000104
 21
0.0
 72
     1
 10
0.0000000000000104
 20
0.0
 11
3.000000000000015
 21
0.0
 97
        0
 75
     0
 76
     1
 98
        1
 10
0.0
 20
0.0
  0
HATCH
  5
111
330
10C
100
AcDbEntity
  8
0
  6
Continuous
 62
     0
370
    30
100
AcDbHatch
 10
0.0
 20
0.0
 30
0.0
210
0.0
220
0.0
230
1.0
  2
SOLID
 70
     1
 71
     0
 91
        1
 92
        0
 93
        3
 72
     2
 10
0.0000000000000104
 20
0.0
 40
3.000000000000004
 50
180.0
 51
270.0000000000008
 73
     1
 72
     1
 10
0.0000000000000104
 20
-3.000000000000004
 11
0.0000000000000104
 21
0.0
 72
     1
 10
0.0000000000000104
 20
0.0
 11
-2.999999999999994
 21
0.0
 97
        0
 75
     0
 76
     1
 98
        1
 10
0.0
 20
0.0
  0
ENDBLK
  5
10E
330
10C
100
AcDbEntity
  8
0
100
AcDbBlockEnd
  0
ENDSEC
  0
SECTION
  2
ENTITIES
  0
LINE
  5
95
330
1F
100
AcDbEntity
  8
0
  6
Continuous
 62
     1
370
    15
100
AcDbLine
 10
18.7456563881719
 20
1.548685984998489
 30
0.0
 11
18.4234795427729
 21
1.72501045500968
 31
0.0
  0
LINE
  5
96
330
1F
100
AcDbEntity
  8
0
  6
Continuous
 62
     1
370
    15
100
AcDbLine
 10
51.2045226754538
 20
1.652252138462495
 30
0.0
 11
51.07154261181235
 21
1.725190263200726
 31
0.0
  0
LINE
  5
97
330
1F
100
AcDbEntity
  8
0
  6
Continuous
 62
     1
370
    15
100
AcDbLine
 10
40.68833905347076
 20
6.000000000000011
 30
0.0
 11
37.77964674025613
 21
6.000000000000011
 31
0.0
  0
LINE
  5
98
330
1F
100
AcDbEntity
  8
0
  6
Continuous
 62
     1
370
    15
100
AcDbLine
 10
37.77964674025612
 20
-6.0
 30
0.0
 11
40.68833905347073
 21
-6.0
 31
0.0
  0
SPLINE
  5
99
330
1F
100
AcDbEntity
  8
0
  6
Continuous
 62
     1
370
    15
100
AcDbSpline
210
0.0
220
0.0
230
1.0
 70
     8
 71
     3
 72
     9
 73
     5
 74
     0
 42
0.000000001
 43
0.00000001
 40
0.0
 40
0.0
 40
0.0
 40
0.0
 40
0.4371774061704595
 40
1.0
 40
1.0
 40
1.0
 40
1.0
 10
21.80812201990105
 20
1.53726819529837
 30
0.0
 10
21.56531269209113
 20
1.652669369332731
 30
0.0
 10
21.00991041287261
 20
1.916638120703577
 30
0.0
 10
20.45465877000081
 20
2.206726996246387
 30
0.0
 10
20.1421506001316
 20
2.369995569620486
 30
0.0
  0
LINE
  5
9A
330
1F
100
AcDbEntity
  8
0
  6
Continuous
 62
     1
370
    15
100
AcDbLine
 10
52.85949483329992
 20
2.33442751949773
 30
0.0
 11
52.79032287301727
 21
2.370110492743535
 31
0.0
  0
SPLINE
  5
9B
330
1F
100
AcDbEntity
  8
0
  6
Continuous
 62
     1
370
    15
100
AcDbSpline
210
0.0
220
0.0
230
1.0
 70
     8
 71
     3
 72
     9
 73
     5
 74
     0
 42
0.000000001
 43
0.00000001
 40
0.0
 40
0.0
 40
0.0
 40
0.0
 40
0.5309600798238436
 40
1.0
 40
1.0
 40
1.0
 40
1.0
 10
54.45643250424893
 20
1.537304763086994
 30
0.0
 10
54.1737206951611
 20
1.671893297788365
 30
0.0
 10
53.64126671259123
 20
1.925374754899082
 30
0.0
 10
53.10910154229583
 20
2.203823801096273
 30
0.0
 10
52.85949483329992
 20
2.33442751949773
 30
0.0
  0
SPLINE
  5
9C
330
1F
100
AcDbEntity
  8
0
  6
Continuous
 62
     1
370
    15
100
AcDbSpline
210
0.0
220
0.0
230
1.0
 70
     8
 71
     3
 72
    18
 73
    14
 74
     0
 42
0.000000001
 43
0.00000001
 40
0.0
 40
0.0
 40
0.0
 40
0.0
 40
0.1264737522528898
 40
0.2102560473129413
 40
0.2638666079044573
 40
0.3187486647910345
 40
0.4968794048782375
 40
0.606987453923782
 40
0.7108782374174212
 40
0.7526256192927221
 40
0.8090097569975345
 40
0.8916269870662483
 40
1.0
 40
1.0
 40
1.0
 40
1.0
 10
10.85182191545547
 20
-4.987602599870244
 30
0.0
 10
11.23069479220679
 20
-4.951698676085066
 30
0.0
 10
11.8605512808522
 20
-4.892010266722451
 30
0.0
 10
12.64861945508481
 20
-4.833174081312267
 30
0.0
 10
13.21953273689199
 20
-4.795589294114386
 30
0.0
 10
14.07598136050276
 20
-4.746059697619331
 30
0.0
 10
15.10403585545623
 20
-4.705231176309303
 30
0.0
 10
16.27664373887236
 20
-4.685107667812754
 30
0.0
 10
17.03851788112777
 20
-4.684966331241793
 30
0.0
 10
17.64497413777039
 20
-4.691880622120292
 30
0.0
 10
18.18645812326375
 20
-4.702445527104341
 30
0.0
 10
18.92703989602708
 20
-4.724146499878009
 30
0.0
 10
19.49938232376014
 20
-4.752023779897805
 30
0.0
 10
19.82414484747948
 20
-4.767842100146259
 30
0.0
  0
SPLINE
  5
9D
330
1F
100
AcDbEntity
  8
0
  6
Continuous
 62
     1
370
    15
100
AcDbSpline
210
0.0
220
0.0
230
1.0
 70
     8
 71
     3
 72
    10
 73
     6
 74
     0
 42
0.000000001
 43
0.00000001
 40
0.0
 40
0.0
 40
0.0
 40
0.0
 40
0.378433961371516
 40
0.9071858365707105
 40
1.0
 40
1.0
 40
1.0
 40
1.0
 10
52.47238054611383
 20
4.767833919923302
 30
0.0
 10
51.84593651612104
 20
4.741089924257063
 30
0.0
 10
50.34421835807284
 20
4.676978939096554
 30
0.0
 10
48.69026480991911
 20
4.671892713546449
 30
0.0
 10
47.66178317347798
 20
4.716500422669911
 30
0.0
 10
47.5082071143688
 20
4.723161383770564
 30
0.0
  0
SPLINE
  5
9E
330
1F
100
AcDbEntity
  8
0
  6
Continuous
 62
     1
370
    15
100
AcDbSpline
210
0.0
220
0.0
230
1.0
 70
     8
 71
     3
 72
    12
 73
     8
 74
     0
 42
0.000000001
 43
0.00000001
 40
0.0
 40
0.0
 40
0.0
 40
0.0
 40
0.2086924561236696
 40
0.5009174388680864
 40
0.6985735814810695
 40
0.7918139085815153
 40
1.0
 40
1.0
 40
1.0
 40
1.0
 10
43.4487290046205
 20
-4.992817888383777
 30
0.0
 10
44.07666302361158
 20
-4.935191170624829
 30
0.0
 10
45.58387179585755
 20
-4.796871710466284
 30
0.0
 10
47.6842726352837
 20
-4.6981966191333
 30
0.0
 10
49.43858982619566
 20
-4.68074218728092
 30
0.0
 10
50.93863622117525
 20
-4.699487904624617
 30
0.0
 10
51.84581775572342
 20
-4.739913314538608
 30
0.0
 10
52.47238054611383
 20
-4.767833919923287
 30
0.0
  0
SPLINE
  5
9F
330
1F
100
AcDbEntity
  8
0
  6
Continuous
 62
     1
370
    15
100
AcDbSpline
210
0.0
220
0.0
230
1.0
 70
     8
 71
     3
 72
    13
 73
     9
 74
     0
 42
0.000000001
 43
0.00000001
 40
0.0
 40
0.0
 40
0.0
 40
0.0
 40
0.244049370911026
 40
0.4112672284262746
 40
0.5147446537199336
 40
0.6105150269402511
 40
0.9197332334002762
 40
1.0
 40
1.0
 40
1.0
 40
1.0
 10
19.82414484747948
 20
4.767842100146272
 30
0.0
 10
19.42406073453873
 20
4.748780112230657
 30
0.0
 10
18.74984680949438
 20
4.716657222878045
 30
0.0
 10
17.90733386615448
 20
4.69597188876986
 30
0.0
 10
17.30545479428259
 20
4.687428187466852
 30
0.0
 10
16.47356182780457
 20
4.683624473982202
 30
0.0
 10
15.68226971325171
 20
4.690091011296167
 30
0.0
 10
15.04441522851999
 20
4.71343889387293
 30
0.0
 10
14.91296338674973
 20
4.718250527622661
 30
0.0
  0
SPLINE
  5
A0
330
1F
100
AcDbEntity
  8
0
  6
Continuous
 62
     1
370
    15
100
AcDbSpline
210
0.0
220
0.0
230
1.0
 70
     8
 71
     3
 72
    14
 73
    10
 74
     0
 42
0.000000001
 43
0.00000001
 40
0.0
 40
0.0
 40
0.0
 40
0.0
 40
0.1979193427317615
 40
0.3325542308802674
 40
0.4502162738460213
 40
0.5910404177947776
 40
0.7421851721651715
 40
0.8937664765708436
 40
1.0
 40
1.0
 40
1.0
 40
1.0
 10
57.28788241710879
 20
-4.512857107109845
 30
0.0
 10
57.58011752824549
 20
-4.468225218648814
 30
0.0
 10
58.07114595062659
 20
-4.393232430500726
 30
0.0
 10
58.74771810412653
 20
-4.303524615455896
 30
0.0
 10
59.34309277068981
 20
-4.230921095360484
 30
0.0
 10
59.95625377488319
 20
-4.164297709717498
 30
0.0
 10
60.6197722776223
 20
-4.102409178933984
 30
0.0
 10
61.23140240439311
 20
-4.053484866149649
 30
0.0
 10
61.61694398120071
 20
-4.030411989898314
 30
0.0
 10
61.77580776912428
 20
-4.020904728580536
 30
0.0
  0
SPLINE
  5
A1
330
1F
100
AcDbEntity
  8
0
  6
Continuous
 62
     1
370
    15
100
AcDbSpline
210
0.0
220
0.0
230
1.0
 70
     8
 71
     3
 72
    22
 73
    18
 74
     0
 42
0.000000001
 43
0.00000001
 40
0.0
 40
0.0
 40
0.0
 40
0.0
 40
0.086575088770992
 40
0.1470216981766323
 40
0.1874829540338271
 40
0.2290457756418513
 40
0.2736623629259343
 40
0.373386147761969
 40
0.4809406982193837
 40
0.593245913665994
 40
0.6895822217596977
 40
0.7395350509521682
 40
0.7876685801845076
 40
0.8202676708147555
 40
0.8664385512534285
 40
0.9264294680171343
 40
1.0
 40
1.0
 40
1.0
 40
1.0
 10
35.12244803697547
 20
4.103731743452483
 30
0.0
 10
34.82016226369843
 20
4.079492255098803
 30
0.0
 10
34.30682097404192
 20
4.038328788895289
 30
0.0
 10
33.65264614474304
 20
4.001606400937629
 30
0.0
 10
33.15292017703581
 20
3.979230860442008
 30
0.0
 10
32.70994002343858
 20
3.964114476939637
 30
0.0
 10
32.06018950370241
 20
3.949179652011111
 30
0.0
 10
31.17964656999245
 20
3.945206223094147
 30
0.0
 10
30.06374408228645
 20
3.970072369699931
 30
0.0
 10
28.95849145944445
 20
4.025397478937015
 30
0.0
 10
28.0550451698801
 20
4.094504289311582
 30
0.0
 10
27.37544317888594
 20
4.158216784242695
 30
0.0
 10
26.92406496438186
 20
4.20572519000932
 30
0.0
 10
26.48296163867465
 20
4.256351624931547
 30
0.0
 10
25.99793911675868
 20
4.316632294391573
 30
0.0
 10
25.36777579019921
 20
4.40140316923879
 30
0.0
 10
24.89818572063832
 20
4.473267662129165
 30
0.0
 10
24.63951833153999
 20
4.51285325379683
 30
0.0
  0
SPLINE
  5
A2
330
1F
100
AcDbEntity
  8
0
  6
Continuous
 62
     1
370
    15
100
AcDbSpline
210
0.0
220
0.0
230
1.0
 70
     8
 71
     3
 72
    16
 73
    12
 74
     0
 42
0.000000001
 43
0.00000001
 40
0.0
 40
0.0
 40
0.0
 40
0.0
 40
0.1716725481856076
 40
0.3116578557706433
 40
0.4460619812997112
 40
0.5297044101233082
 40
0.603207959762116
 40
0.6787885382956942
 40
0.7554525048494797
 40
0.8299225184198107
 40
1.0
 40
1.0
 40
1.0
 40
1.0
 10
24.63951833153999
 20
-4.512853253796821
 30
0.0
 10
24.89820027897818
 20
-4.473267114723025
 30
0.0
 10
25.3678167780471
 20
-4.401401628060366
 30
0.0
 10
26.03788061127466
 20
-4.311246953263342
 30
0.0
 10
26.57453103365114
 20
-4.245187120951788
 30
0.0
 10
27.00683350663471
 20
-4.196951122690066
 30
0.0
 10
27.35251111990833
 20
-4.16107028956317
 30
0.0
 10
27.68965639169451
 20
-4.128590320802251
 30
0.0
 10
28.02946266548595
 20
-4.09856889023296
 30
0.0
 10
28.51046435051664
 20
-4.059378971281432
 30
0.0
 10
28.87661560455544
 20
-4.036070026455103
 30
0.0
 10
29.13126586431792
 20
-4.019859160619353
 30
0.0
  0
SPLINE
  5
A3
330
1F
100
AcDbEntity
  8
0
  6
Continuous
 62
     1
370
    15
100
AcDbSpline
210
0.0
220
0.0
230
1.0
 70
     8
 71
     3
 72
    21
 73
    17
 74
     0
 42
0.000000001
 43
0.00000001
 40
0.0
 40
0.0
 40
0.0
 40
0.0
 40
0.0825530402593115
 40
0.1403081918306821
 40
0.1834468312072891
 40
0.2325378717913684
 40
0.2874326741161226
 40
0.3999276955011888
 40
0.5041681970973078
 40
0.6214439363856232
 40
0.7293330213880707
 40
0.7587318420722885
 40
0.791701969145773
 40
0.8425059830337817
 40
0.9119956971910755
 40
0.9999999999999999
 40
0.9999999999999999
 40
0.9999999999999999
 40
0.9999999999999999
 10
67.80381905581217
 20
4.10655791575685
 30
0.0
 10
67.51600510155384
 20
4.083135842174796
 30
0.0
 10
67.02683286296903
 20
4.043327389537551
 30
0.0
 10
66.38315561757497
 20
4.00581118790506
 30
0.0
 10
65.85061476801069
 20
3.98099710108945
 30
0.0
 10
65.33375632319331
 20
3.963025173176735
 30
0.0
 10
64.57494821763795
 20
3.946909669856607
 30
0.0
 10
63.62760237993025
 20
3.947005746344895
 30
0.0
 10
62.43735504088957
 20
3.980476229802826
 30
0.0
 10
61.29800128564025
 20
4.045492272901951
 30
0.0
 10
60.408511686452
 20
4.120405545689814
 30
0.0
 10
59.81183962592046
 20
4.180405839504392
 30
0.0
 10
59.41575780258003
 20
4.223147407943259
 30
0.0
 10
58.87974889472447
 20
4.286638401177807
 30
0.0
 10
58.15001176933706
 20
4.381705695895572
 30
0.0
 10
57.59693175253172
 20
4.465842982871082
 30
0.0
 10
57.28788241710879
 20
4.51285710710986
 30
0.0
  0
LINE
  5
A4
330
1F
100
AcDbEntity
  8
0
  6
Continuous
 62
   131
370
    15
100
AcDbLine
 10
8.038276009748705
 20
6.000000000000005
 30
0.0
 11
-78.99999999999999
 21
6.0
 31
0.0
  0
LINE
  5
A5
330
1F
100
AcDbEntity
  8
0
  6
Continuous
 62
   131
370
    15
100
AcDbLine
 10
-78.99999999999999
 20
-6.0
 30
0.0
 11
8.038276009748698
 21
-5.999999999999995
 31
0.0
  0
LINE
  5
A6
330
1F
100
AcDbEntity
  8
0
  6
Continuous
 62
   131
370
    15
100
AcDbLine
 10
-78.99999999999999
 20
5.999999999999995
 30
0.0
 11
-79.99999999999999
 21
4.999999999999993
 31
0.0
  0
LINE
  5
A7
330
1F
100
AcDbEntity
  8
0
  6
Continuous
 62
   131
370
    15
100
AcDbLine
 10
-79.99999999999999
 20
-4.999999999999994
 30
0.0
 11
-78.99999999999999
 21
-5.999999999999995
 31
0.0
  0
SPLINE
  5
A8
330
1F
100
AcDbEntity
  8
0
  6
Continuous
 62
     1
370
    15
100
AcDbSpline
210
0.0
220
0.0
230
1.0
 70
     8
 71
     3
 72
    19
 73
    15
 74
     0
 42
0.000000001
 43
0.00000001
 40
0.0
 40
0.0
 40
0.0
 40
0.0
 40
0.0808698695930135
 40
0.161739890569306
 40
0.2426099216533425
 40
0.3234798215673994
 40
0.4043494490621553
 40
0.4852186629472701
 40
0.5782639451132943
 40
0.6712619298450678
 40
0.76426030074286
 40
0.8573057921638059
 40
0.9503701419841004
 40
1.0
 40
1.0
 40
1.0
 40
1.0
 10
10.00000000000001
 20
5.353234232225891
 30
0.0
 10
10.74878989957443
 20
5.13384219741519
 30
0.0
 10
12.24637110041061
 20
4.695057717105779
 30
0.0
 10
14.49274404597167
 20
3.75163507452595
 30
0.0
 10
16.73912091770116
 20
2.65150674801371
 30
0.0
 10
18.98547955143122
 20
1.42319904104537
 30
0.0
 10
21.23188098030844
 20
0.129923719374553
 30
0.0
 10
23.59081288140646
 20
-1.234883612292243
 30
0.0
 10
26.0628870596624
 20
-2.600526291676346
 30
0.0
 10
28.64664672398569
 20
-3.867538655636569
 30
0.0
 10
31.2304879028529
 20
-4.90136227629004
 30
0.0
 10
33.81528977836783
 20
-5.615264661432219
 30
0.0
 10
35.99854740753708
 20
-5.98369096022597
 30
0.0
 10
37.32002819692187
 20
-5.961564079328597
 30
0.0
 10
37.77964674025612
 20
-5.953868224157433
 30
0.0
  0
SPLINE
  5
A9
330
1F
100
AcDbEntity
  8
0
  6
Continuous
 62
     1
370
    15
100
AcDbSpline
210
0.0
220
0.0
230
1.0
 70
     8
 71
     3
 72
    11
 73
     7
 74
     0
 42
0.000000001
 43
0.00000001
 40
0.0
 40
0.0
 40
0.0
 40
0.0
 40
0.056399232594642
 40
0.3710287290922557
 40
0.6855941666301837
 40
1.0
 40
1.0
 40
1.0
 40
1.0
 10
61.7823980590142
 20
4.0239041112266
 30
0.0
 10
61.93689246798561
 20
4.095241001080949
 30
0.0
 10
62.9532514072022
 20
4.564538797564933
 30
0.0
 10
64.83137685105052
 20
5.186284247372611
 30
0.0
 10
67.41617728579432
 20
5.829321312470301
 30
0.0
 10
69.13887147562076
 20
5.939735704451142
 30
0.0
 10
69.99999999999973
 20
6.000000000000227
 30
0.0
  0
LINE
  5
AA
330
1F
100
AcDbEntity
  8
0
  6
Continuous
 62
     1
370
    15
100
AcDbLine
 10
70.0
 20
4.200000000000012
 30
0.0
 11
69.99999999999973
 21
6.00000000000023
 31
0.0
  0
LINE
  5
AB
330
1F
100
AcDbEntity
  8
0
  6
Continuous
 62
     1
370
    15
100
AcDbLine
 10
70.0
 20
4.200000000000012
 30
0.0
 11
67.79856398925129
 21
4.085562709560818
 31
0.0
  0
SPLINE
  5
AC
330
1F
100
AcDbEntity
  8
0
  6
Continuous
 62
     1
370
    15
100
AcDbSpline
210
0.0
220
0.0
230
1.0
 70
     8
 71
     3
 72
    12
 73
     8
 74
     0
 42
0.000000001
 43
0.00000001
 40
0.0
 40
0.0
 40
0.0
 40
0.0
 40
0.0654114514614175
 40
0.299141308780456
 40
0.5327967391748928
 40
0.7662692048375462
 40
1.0
 40
1.0
 40
1.0
 40
1.0
 10
22.43050614651075
 20
-0.5592060749268036
 30
0.0
 10
22.15949300788743
 20
-0.4524935220886496
 30
0.0
 10
20.9200888489337
 20
0.0355270309812976
 30
0.0
 10
18.71222974136227
 20
0.9435624964032122
 30
0.0
 10
15.80816388940633
 20
2.043704670626031
 30
0.0
 10
12.90454224136753
 20
3.01084080647454
 30
0.0
 10
10.96853757048697
 20
3.44761731239197
 30
0.0
 10
10.00000000000001
 20
3.666126318206838
 30
0.0
  0
SPLINE
  5
AD
330
1F
100
AcDbEntity
  8
0
  6
Continuous
 62
   131
370
    15
100
AcDbSpline
210
0.0
220
0.0
230
1.0
 70
    24
 71
     3
 72
    10
 73
     6
 74
     0
 42
0.000000001
 43
0.00000001
 40
0.0
 40
0.0
 40
0.0
 40
0.0
 40
0.5
 40
0.5
 40
1.0
 40
1.0
 40
1.0
 40
1.0
 10
10.00000000000001
 20
5.353234232225884
 30
0.0
 10
10.00000000000001
 20
5.128456653315984
 30
0.0
 10
10.00000000000001
 20
4.855177163603368
 30
0.0
 10
10.00000000000001
 20
4.270125253620908
 30
0.0
 10
10.00000000000001
 20
3.9600772534769
 30
0.0
 10
10.00000000000001
 20
3.666126318206838
 30
0.0
  0
SPLINE
  5
AE
330
1F
100
AcDbEntity
  8
0
  6
Continuous
 62
     1
370
    15
100
AcDbSpline
210
0.0
220
0.0
230
1.0
 70
     8
 71
     3
 72
    23
 73
    19
 74
     0
 42
0.000000001
 43
0.00000001
 40
0.0
 40
0.0
 40
0.0
 40
0.0
 40
0.0512305705553057
 40
0.1144892906095212
 40
0.1777608318997455
 40
0.2410258836605752
 40
0.3042651838578017
 40
0.3674825127423464
 40
0.4307326498487851
 40
0.4940020511312802
 40
0.5572714218994635
 40
0.6205214676921438
 40
0.6837387525849365
 40
0.7469781642961231
 40
0.810243266949925
 40
0.8735147981301552
 40
0.9367734471473642
 40
1.0
 40
1.0
 40
1.0
 40
1.0
 10
29.13681961002758
 20
4.022050136519494
 30
0.0
 10
29.83456765390748
 20
4.312155796358054
 30
0.0
 10
31.39388424363296
 20
4.960479460074971
 30
0.0
 10
33.81529680497186
 20
5.621985004507441
 30
0.0
 10
36.40070269777347
 20
6.010187725679049
 30
0.0
 10
38.98580492510971
 20
6.021052372165277
 30
0.0
 10
41.56994478379891
 20
5.663490254254386
 30
0.0
 10
44.15355530340599
 20
4.956666534769929
 30
0.0
 10
46.73802841062231
 20
3.945251507192172
 30
0.0
 10
49.32333311697701
 20
2.690936771862656
 30
0.0
 10
51.90863637655739
 20
1.271021316099487
 30
0.0
 10
54.49310633976584
 20
-0.2268704487734288
 30
0.0
 10
57.07671580775907
 20
-1.711466541298158
 30
0.0
 10
59.66085892007355
 20
-3.089799664464462
 30
0.0
 10
62.24596284815119
 20
-4.279974621165502
 30
0.0
 10
64.83137067518605
 20
-5.199725097835089
 30
0.0
 10
67.41617882871559
 20
-5.82596337377682
 30
0.0
 10
69.13887198984084
 20
-5.938616580922965
 30
0.0
 10
70.0
 20
-5.999999999999767
 30
0.0
  0
SPLINE
  5
AF
330
1F
100
AcDbEntity
  8
0
  6
Continuous
 62
     1
370
    15
100
AcDbSpline
210
0.0
220
0.0
230
1.0
 70
     8
 71
     3
 72
    15
 73
    11
 74
     0
 42
0.000000001
 43
0.00000001
 40
0.0
 40
0.0
 40
0.0
 40
0.0
 40
0.061059521477265
 40
0.1956485032397251
 40
0.3435809666814374
 40
0.4915182455178727
 40
0.6395711605486332
 40
0.7874601597839117
 40
0.9354466027036549
 40
1.0
 40
1.0
 40
1.0
 40
1.0
 10
55.09265991487266
 20
-0.5656310672799024
 30
0.0
 10
54.68598342125958
 20
-0.4039652606147603
 30
0.0
 10
53.38290004698504
 20
0.1140485124026858
 30
0.0
 10
51.09446092872555
 20
1.046005115075499
 30
0.0
 10
48.22732356340251
 20
2.130862945757275
 30
0.0
 10
45.27065113286479
 20
3.079307084474761
 30
0.0
 10
42.31368220460472
 20
3.783828413663159
 30
0.0
 10
39.35715822766722
 20
4.166105571528555
 30
0.0
 10
36.95634465170657
 20
4.261960763737311
 30
0.0
 10
35.54059813170557
 20
4.108640460354408
 30
0.0
 10
35.11060228959134
 20
4.062073442858724
 30
0.0
  0
SPLINE
  5
B0
330
1F
100
AcDbEntity
  8
0
  6
Continuous
 62
     1
370
    15
100
AcDbSpline
210
0.0
220
0.0
230
1.0
 70
     8
 71
     3
 72
    19
 73
    15
 74
     0
 42
0.000000001
 43
0.00000001
 40
0.0
 40
0.0
 40
0.0
 40
0.0
 40
0.0881432202207193
 40
0.1763311852359579
 40
0.2645371090889034
 40
0.3527340710315571
 40
0.440895217612926
 40
0.5290255175009303
 40
0.6172014888747797
 40
0.7054044009239906
 40
0.7936073555241742
 40
0.8817834542313638
 40
0.9699138154641423
 40
1.0
 40
1.0
 40
1.0
 40
1.0
 10
70.0
 20
-5.693645215391389
 30
0.0
 10
69.1388719970697
 20
-5.502687124711949
 30
0.0
 10
67.41617885043469
 20
-5.120674005885752
 30
0.0
 10
64.83137071820039
 20
-4.138870217624594
 30
0.0
 10
62.24596291433866
 20
-2.92745497040957
 30
0.0
 10
59.66085900207327
 20
-1.529224998067498
 30
0.0
 10
57.07671593231958
 20
-0.0387219799382602
 30
0.0
 10
54.49310640703375
 20
1.454953890259733
 30
0.0
 10
51.90863676079355
 20
2.858930686621759
 30
0.0
 10
49.32333242160464
 20
4.085409276585055
 30
0.0
 10
46.73803184707037
 20
5.067229090140071
 30
0.0
 10
44.15354342798668
 20
5.711950954249801
 30
0.0
 10
42.13731649433223
 20
6.014411140348166
 30
0.0
 10
40.98229320107509
 20
5.969732237243763
 30
0.0
 10
40.68833905347076
 20
5.958361428572958
 30
0.0
  0
SPLINE
  5
B1
330
1F
100
AcDbEntity
  8
0
  6
Continuous
 62
     1
370
    15
100
AcDbSpline
210
0.0
220
0.0
230
1.0
 70
     8
 71
     3
 72
    10
 73
     6
 74
     0
 42
0.000000001
 43
0.00000001
 40
0.0
 40
0.0
 40
0.0
 40
0.0
 40
0.0844604503639524
 40
0.5422306536400152
 40
1.0
 40
1.0
 40
1.0
 40
1.0
 10
14.90720993137552
 20
-4.720459137133687
 30
0.0
 10
14.76905485175597
 20
-4.774365897124765
 30
0.0
 10
13.88210813523964
 20
-5.120443825665545
 30
0.0
 10
12.24637099538441
 20
-5.559748123798402
 30
0.0
 10
10.74878986456413
 20
-5.782190689032499
 30
0.0
 10
9.999999999998295
 20
-5.893411867549943
 30
0.0
  0
LINE
  5
B2
330
1F
100
AcDbEntity
  8
0
  6
Continuous
 62
     1
370
    15
100
AcDbLine
 10
70.0
 20
-5.999999999999769
 30
0.0
 11
69.99999999999996
 21
-5.693645215391383
 31
0.0
  0
SPLINE
  5
B3
330
1F
100
AcDbEntity
  8
0
  6
Continuous
 62
     1
370
    15
100
AcDbSpline
210
0.0
220
0.0
230
1.0
 70
     8
 71
     3
 72
    23
 73
    19
 74
     0
 42
0.000000001
 43
0.00000001
 40
0.0
 40
0.0
 40
0.0
 40
0.0
 40
0.0202689552977123
 40
0.0891914417828678
 40
0.1580781777584386
 40
0.226988855428384
 40
0.2959275941040935
 40
0.364873404311907
 40
0.4338052434765995
 40
0.5027021738841324
 40
0.5715988181277329
 40
0.6405305022263581
 40
0.7004416678918586
 40
0.760353139977063
 40
0.8202648138822005
 40
0.8801765849638046
 40
0.9400883485573666
 40
0.9999999999999999
 40
0.9999999999999999
 40
0.9999999999999999
 40
0.9999999999999999
 10
47.49792144707812
 20
-4.727006385356499
 30
0.0
 10
47.24454223278169
 20
-4.82465149245171
 30
0.0
 10
46.1295732021154
 20
-5.254328688781965
 30
0.0
 10
44.15355883348267
 20
-5.714521188919635
 30
0.0
 10
41.56994418328699
 20
-6.043895495801864
 30
0.0
 10
38.98580522137258
 20
-5.980092979135033
 30
0.0
 10
36.40070367128112
 20
-5.554040694118458
 30
0.0
 10
33.81529430407555
 20
-4.784657490363895
 30
0.0
 10
31.23048709615244
 20
-3.721392965125654
 30
0.0
 10
28.64664737183966
 20
-2.428816458817906
 30
0.0
 10
26.06288734531969
 20
-0.9867584438128444
 30
0.0
 10
23.59081326112951
 20
0.4500350546010113
 30
0.0
 10
21.23188130070411
 20
1.794540789698632
 30
0.0
 10
18.9854798128367
 20
2.990921028456424
 30
0.0
 10
16.73912111248619
 20
4.049522796150526
 30
0.0
 10
14.4927441761496
 20
4.91439728409182
 30
0.0
 10
12.24637116543051
 20
5.570260584655012
 30
0.0
 10
10.74878992124613
 20
5.785694840464859
 30
0.0
 10
9.999999999998291
 20
5.893411867549955
 30
0.0
  0
LINE
  5
B4
330
1F
100
AcDbEntity
  8
0
  6
Continuous
 62
   131
370
    15
100
AcDbLine
 10
10.0
 20
5.353234232225889
 30
0.0
 11
10.00000000000001
 21
5.893411867541457
 31
0.0
  0
SPLINE
  5
B5
330
1F
100
AcDbEntity
  8
0
  6
Continuous
 62
     1
370
    15
100
AcDbSpline
210
0.0
220
0.0
230
1.0
 70
     8
 71
     3
 72
    16
 73
    12
 74
     0
 42
0.000000001
 43
0.00000001
 40
0.0
 40
0.0
 40
0.0
 40
0.0
 40
0.0870380722131553
 40
0.206279489391751
 40
0.3255716344631671
 40
0.4448765634513472
 40
0.5641562356636036
 40
0.6833728013964199
 40
0.802588849823122
 40
0.9218682417095541
 40
1.0
 40
1.0
 40
1.0
 40
1.0
 10
43.45628343334356
 20
-4.961366215170718
 30
0.0
 10
42.82759110198821
 20
-5.020863590082083
 30
0.0
 10
41.33759563450025
 20
-5.161871861575152
 30
0.0
 10
38.98578405648743
 20
-5.017341576200308
 30
0.0
 10
36.40069709898403
 20
-4.589433872826946
 30
0.0
 10
33.81530621179944
 20
-3.86839729499912
 30
0.0
 10
31.2305162621902
 20
-2.912567295627224
 30
0.0
 10
28.64666334410445
 20
-1.77550043834452
 30
0.0
 10
26.06279532064016
 20
-0.5332265346229536
 30
0.0
 10
23.77550441071611
 20
0.6077483073187059
 30
0.0
 10
22.34926624290892
 20
1.27315582068932
 30
0.0
 10
21.7847870040621
 20
1.536512064512111
 30
0.0
  0
SPLINE
  5
B6
330
1F
100
AcDbEntity
  8
0
  6
Continuous
 62
   131
370
    15
100
AcDbSpline
210
0.0
220
0.0
230
1.0
 70
    24
 71
     3
 72
     8
 73
     4
 74
     0
 42
0.000000001
 43
0.00000001
 40
0.0
 40
0.0
 40
0.0
 40
0.0
 40
1.0
 40
1.0
 40
1.0
 40
1.0
 10
10.00000000000001
 20
-5.057975160655199
 30
0.0
 10
10.00000000000001
 20
-5.347519273305156
 30
0.0
 10
10.00000000000001
 20
-5.627837067947046
 30
0.0
 10
10.00000000000001
 20
-5.893411867540093
 30
0.0
  0
SPLINE
  5
B7
330
1F
100
AcDbEntity
  8
0
  6
Continuous
 62
     1
370
    15
100
AcDbSpline
210
0.0
220
0.0
230
1.0
 70
     8
 71
     3
 72
    14
 73
    10
 74
     0
 42
0.000000001
 43
0.00000001
 40
0.0
 40
0.0
 40
0.0
 40
0.0
 40
0.1659258497525283
 40
0.3319396970355186
 40
0.4979888639147864
 40
0.664020405374576
 40
0.8299815097445277
 40
0.9958819499905586
 40
1.0
 40
1.0
 40
1.0
 40
1.0
 10
70.0
 20
-4.733833586209282
 30
0.0
 10
69.13886731258339
 20
-4.54822791770947
 30
0.0
 10
67.41614524248531
 20
-4.176918146135051
 30
0.0
 10
64.83136046323254
 20
-3.284821205499961
 30
0.0
 10
62.24596698538676
 20
-2.212439202376072
 30
0.0
 10
59.66088818240317
 20
-0.9946001504984845
 30
0.0
 10
57.07672207709899
 20
0.2688576286223606
 30
0.0
 10
55.33317117392792
 20
1.146250722320203
 30
0.0
 10
54.4507298002692
 20
1.538997040307957
 30
0.0
 10
54.42935602085458
 20
1.548509823159206
 30
0.0
  0
LINE
  5
B8
330
1F
100
AcDbEntity
  8
0
  6
Continuous
 62
     1
370
    15
100
AcDbLine
 10
10.86135478619062
 20
-4.950390422981929
 30
0.0
 11
10.00000000000001
 21
-5.057975160655199
 31
0.0
  0
LINE
  5
B9
330
1F
100
AcDbEntity
  8
0
  6
Continuous
 62
     1
370
    15
100
AcDbLine
 10
69.99999999999996
 20
-5.693645215391383
 30
0.0
 11
70.0
 21
-4.733833586209282
 31
0.0
  0
SPLINE
  5
BA
330
1F
100
AcDbEntity
  8
0
  6
Continuous
 62
     1
370
    15
100
AcDbSpline
210
0.0
220
0.0
230
1.0
 70
     8
 71
     3
 72
     8
 73
     4
 74
     0
 42
0.000000001
 43
0.00000001
 40
0.0
 40
0.0
 40
0.0
 40
0.0
 40
1.0
 40
1.0
 40
1.0
 40
1.0
 10
66.28766238388621
 20
1.678126369561333
 30
0.0
 10
66.01854352449391
 20
1.996908240081016
 30
0.0
 10
65.78528950873151
 20
2.30101742934924
 30
0.0
 10
65.60063730606583
 20
2.584818657778267
 30
0.0
  0
LINE
  5
BB
330
1F
100
AcDbEntity
  8
0
  6
Continuous
 62
     1
370
    15
100
AcDbLine
 10
65.6006373060663
 20
2.584818657777568
 30
0.0
 11
70.0
 21
0.0000000000000123
 31
0.0
  0
LINE
  5
BC
330
1F
100
AcDbEntity
  8
0
  6
Continuous
 62
     1
370
    15
100
AcDbLine
 10
70.0
 20
0.0000000000000123
 30
0.0
 11
70.0
 21
-1.603457676177857
 31
0.0
  0
SPLINE
  5
BD
330
1F
100
AcDbEntity
  8
0
  6
Continuous
 62
     1
370
    15
100
AcDbSpline
210
0.0
220
0.0
230
1.0
 70
     8
 71
     3
 72
    12
 73
     8
 74
     0
 42
0.000000001
 43
0.00000001
 40
0.0
 40
0.0
 40
0.0
 40
0.0
 40
0.5000000000000016
 40
0.5000000000000016
 40
0.7500000000000008
 40
0.7500000000000008
 40
1.0
 40
1.0
 40
1.0
 40
1.0
 10
70.0
 20
-1.603457676177851
 30
0.0
 10
69.3573832497508
 20
-1.098253421644945
 30
0.0
 10
68.7255002752157
 20
-0.572337163080709
 30
0.0
 10
67.79419516594454
 20
0.2484131373375514
 30
0.0
 10
67.48655768172765
 20
0.5273947563256836
 30
0.0
 10
66.87756600981749
 20
1.097482307907401
 30
0.0
 10
66.5778678525838
 20
1.387117232542723
 30
0.0
 10
66.28766238388617
 20
1.678126369561346
 30
0.0
  0
SPLINE
  5
BE
330
1F
100
AcDbEntity
  8
0
  6
Continuous
 62
   131
370
    15
100
AcDbSpline
210
0.0
220
0.0
230
1.0
 70
    24
 71
     3
 72
    14
 73
    10
 74
     0
 42
0.000000001
 43
0.00000001
 40
0.0
 40
0.0
 40
0.0
 40
0.0
 40
0.2500000000000001
 40
0.2500000000000001
 40
0.5000000000000001
 40
0.5000000000000001
 40
0.75
 40
0.75
 40
1.0
 40
1.0
 40
1.0
 40
1.0
 10
10.00000000000001
 20
-2.342025725354432
 30
0.0
 10
10.00000000000001
 20
-2.717136119464063
 30
0.0
 10
10.00000000000001
 20
-3.072340857593436
 30
0.0
 10
10.00000000000001
 20
-3.712288165108949
 30
0.0
 10
10.00000000000001
 20
-3.996782213988884
 30
0.0
 10
10.00000000000001
 20
-4.471461668901915
 30
0.0
 10
10.00000000000001
 20
-4.661510001917851
 30
0.0
 10
10.00000000000001
 20
-4.93697319320956
 30
0.0
 10
10.00000000000001
 20
-5.02242654100134
 30
0.0
 10
10.00000000000001
 20
-5.057975160655199
 30
0.0
  0
SPLINE
  5
BF
330
1F
100
AcDbEntity
  8
0
  6
Continuous
 62
     1
370
    15
100
AcDbSpline
210
0.0
220
0.0
230
1.0
 70
     8
 71
     3
 72
    12
 73
     8
 74
     0
 42
0.000000001
 43
0.00000001
 40
0.0
 40
0.0
 40
0.0
 40
0.0
 40
0.2133009106125796
 40
0.4267111342025155
 40
0.6402195844149524
 40
0.8534879812207157
 40
1.0
 40
1.0
 40
1.0
 40
1.0
 10
66.28766238388617
 20
1.678126369561353
 30
0.0
 10
65.30519545687125
 20
2.090198523926781
 30
0.0
 10
63.33975810576476
 20
2.914554012412803
 30
0.0
 10
60.39069940648102
 20
3.884555837838605
 30
0.0
 10
57.44138309134032
 20
4.542226750673275
 30
0.0
 10
54.80093506764186
 20
4.840773769709379
 30
0.0
 10
53.14388478650242
 20
4.770965111764542
 30
0.0
 10
52.46909046365487
 20
4.742537195844941
 30
0.0
  0
SPLINE
  5
C0
330
1F
100
AcDbEntity
  8
0
  6
Continuous
 62
     1
370
    15
100
AcDbSpline
210
0.0
220
0.0
230
1.0
 70
     8
 71
     3
 72
    13
 73
     9
 74
     0
 42
0.000000001
 43
0.00000001
 40
0.0
 40
0.0
 40
0.0
 40
0.0
 40
0.0805451902068006
 40
0.2645038926862005
 40
0.4484071692357377
 40
0.6321728741777167
 40
0.8160441459995976
 40
1.0
 40
1.0
 40
1.0
 40
1.0
 10
24.65886966601372
 20
-4.475534191037515
 30
0.0
 10
24.265318508128
 20
-4.545257363704863
 30
0.0
 10
22.97292832362827
 20
-4.774222625734728
 30
0.0
 10
20.78167753019807
 20
-4.84226668038031
 30
0.0
 10
18.08618766009189
 20
-4.664441436901575
 30
0.0
 10
15.39157860813867
 20
-4.154809217318637
 30
0.0
 10
12.69632914910722
 20
-3.383114502154016
 30
0.0
 10
10.89891415543406
 20
-2.689108513388134
 30
0.0
 10
10.00000000000001
 20
-2.342025725354432
 30
0.0
  0
LINE
  5
C1
330
1F
100
AcDbEntity
  8
0
  6
Continuous
 62
     1
370
    15
100
AcDbLine
 10
70.0
 20
-4.733833586209282
 30
0.0
 11
70.0
 21
-1.60345767617785
 31
0.0
  0
SPLINE
  5
C2
330
1F
100
AcDbEntity
  8
0
  6
Continuous
 62
     1
370
    15
100
AcDbSpline
210
0.0
220
0.0
230
1.0
 70
     8
 71
     3
 72
    22
 73
    18
 74
     0
 42
0.000000001
 43
0.00000001
 40
0.0
 40
0.0
 40
0.0
 40
0.0
 40
0.074672941005291
 40
0.143645056920358
 40
0.2126394964504032
 40
0.2816339712335189
 40
0.3506061926404597
 40
0.4195405161429999
 40
0.4885002193105705
 40
0.5574896696071328
 40
0.6264866164935012
 40
0.695468752590592
 40
0.7644138827629849
 40
0.8333587096378309
 40
0.902340681377904
 40
0.9742990588758966
 40
1.0
 40
1.0
 40
1.0
 40
1.0
 10
57.29184678900025
 20
-4.503328879024595
 30
0.0
 10
56.35904071850367
 20
-4.622588062317205
 30
0.0
 10
54.56464265023095
 20
-4.852001715264506
 30
0.0
 10
51.9086400428375
 20
-4.775660169527154
 30
0.0
 10
49.32332635559469
 20
-4.431676111263142
 30
0.0
 10
46.73805194330161
 20
-3.808501024298491
 30
0.0
 10
44.153603795124
 20
-2.952855003440325
 30
0.0
 10
41.56991112874413
 20
-1.914639688485028
 30
0.0
 10
38.98577301298987
 20
-0.759064459697263
 30
0.0
 10
36.40069592746939
 20
0.4432882887339272
 30
0.0
 10
33.81530926181611
 20
1.618317045522849
 30
0.0
 10
31.23052701175084
 20
2.694028189656648
 30
0.0
 10
28.64666326914997
 20
3.602761169038512
 30
0.0
 10
26.0627838975276
 20
4.295065417117568
 30
0.0
 10
23.44107795702167
 20
4.708924144703306
 30
0.0
 10
21.35925889392805
 20
4.860513537887471
 30
0.0
 10
20.13933372467594
 20
4.757918843748945
 30
0.0
 10
19.81828678933856
 20
4.730919062971208
 30
0.0
  0
SPLINE
  5
C3
330
1F
100
AcDbEntity
  8
0
  6
Continuous
 62
   131
370
    15
100
AcDbSpline
210
0.0
220
0.0
230
1.0
 70
    24
 71
     3
 72
    14
 73
    10
 74
     0
 42
0.000000001
 43
0.00000001
 40
0.0
 40
0.0
 40
0.0
 40
0.0
 40
0.25
 40
0.25
 40
0.5
 40
0.5
 40
0.75
 40
0.75
 40
1.0
 40
1.0
 40
1.0
 40
1.0
 10
10.00000000000001
 20
3.666126318206838
 30
0.0
 10
10.00000000000001
 20
3.313965566828169
 30
0.0
 10
10.00000000000001
 20
2.901698972928003
 30
0.0
 10
10.00000000000001
 20
1.980436477392354
 30
0.0
 10
10.00000000000001
 20
1.471700341676171
 30
0.0
 10
10.00000000000001
 20
0.4038785018423537
 30
0.0
 10
10.00000000000001
 20
-0.1546382221552863
 30
0.0
 10
10.00000000000001
 20
-1.265580843473038
 30
0.0
 10
10.00000000000001
 20
-1.817480558902525
 30
0.0
 10
10.00000000000001
 20
-2.34202572535443
 30
0.0
  0
SPLINE
  5
C4
330
1F
100
AcDbEntity
  8
0
  6
Continuous
 62
     1
370
    15
100
AcDbSpline
210
0.0
220
0.0
230
1.0
 70
     8
 71
     3
 72
    10
 73
     6
 74
     0
 42
0.000000001
 43
0.00000001
 40
0.0
 40
0.0
 40
0.0
 40
0.0
 40
0.5
 40
0.5
 40
1.0
 40
1.0
 40
1.0
 40
1.0
 10
70.0
 20
4.200000000000012
 30
0.0
 10
69.25342417078966
 20
3.997517931024638
 30
0.0
 10
68.51177972161537
 20
3.764963796806373
 30
0.0
 10
67.04225163442668
 20
3.233042289695111
 30
0.0
 10
66.31423208593023
 20
2.933958217721531
 30
0.0
 10
65.60063730606632
 20
2.584818657777569
 30
0.0
  0
LINE
  5
C5
330
1F
100
AcDbEntity
  8
0
  6
Continuous
 62
     1
370
    15
100
AcDbLine
 10
70.0
 20
0.0000000000000123
 30
0.0
 11
70.0
 21
4.200000000000012
 31
0.0
  0
SPLINE
  5
C6
330
1F
100
AcDbEntity
  8
0
  6
Continuous
 62
   131
370
    15
100
AcDbSpline
210
0.0
220
0.0
230
1.0
 70
     8
 71
     3
 72
     8
 73
     4
 74
     0
 42
0.000000001
 43
0.00000001
 40
0.0
 40
0.0
 40
0.0
 40
0.0
 40
1.0
 40
1.0
 40
1.0
 40
1.0
 10
10.00000000000001
 20
-5.893411867549756
 30
0.0
 10
9.321441516318698
 20
-5.96680085800415
 30
0.0
 10
8.648657695873071
 20
-6.002446920979122
 30
0.0
 10
7.970001016817163
 20
-5.999869735388926
 30
0.0
  0
LINE
  5
C7
330
1F
100
AcDbEntity
  8
0
  6
Continuous
 62
   131
370
    15
100
AcDbLine
 10
10.00000000000001
 20
5.893411867549767
 30
0.0
 11
8.038276009748705
 21
5.996289235972709
 31
0.0
  0
SPLINE
  5
C8
330
1F
100
AcDbEntity
  8
0
  6
Continuous
 62
   131
370
    15
100
AcDbSpline
210
0.0
220
0.0
230
1.0
 70
     8
 71
     3
 72
     8
 73
     4
 74
     0
 42
0.000000001
 43
0.00000001
 40
0.0
 40
0.0
 40
0.0
 40
0.0
 40
1.0
 40
1.0
 40
1.0
 40
1.0
 10
10.00000000000001
 20
5.353234232225885
 30
0.0
 10
9.321441342889576
 20
5.529861064620044
 30
0.0
 10
8.648657348974114
 20
5.671891510132706
 30
0.0
 10
7.970000496454514
 20
5.777428426566274
 30
0.0
  0
LINE
  5
C9
330
1F
100
AcDbEntity
  8
0
  6
Continuous
 62
   131
370
    15
100
AcDbLine
 10
7.970000496454482
 20
-5.999868035442907
 30
0.0
 11
7.970000496454514
 21
5.777427749798385
 31
0.0
  0
LINE
  5
CA
330
1F
100
AcDbEntity
  8
0
  6
Continuous
 62
   131
370
    15
100
AcDbLine
 10
-78.99999999999999
 20
5.999999999999995
 30
0.0
 11
-78.99999999999999
 21
-6.0
 31
0.0
  0
LINE
  5
CB
330
1F
100
AcDbEntity
  8
0
  6
Continuous
 62
   131
370
    15
100
AcDbLine
 10
-79.99999999999999
 20
4.999999999999994
 30
0.0
 11
-79.99999999999999
 21
-4.999999999999994
 31
0.0
  0
SPLINE
  5
CC
330
1F
100
AcDbEntity
  8
0
  6
Continuous
 62
   131
370
    15
100
AcDbSpline
210
0.0
220
0.0
230
1.0
 70
    24
 71
     3
 72
    14
 73
    10
 74
     0
 42
0.000000001
 43
0.00000001
 40
0.0
 40
0.0
 40
0.0
 40
0.0
 40
0.25
 40
0.25
 40
0.5
 40
0.5
 40
0.75
 40
0.75
 40
1.0
 40
1.0
 40
1.0
 40
1.0
 10
10.00000000000001
 20
3.666126318206838
 30
0.0
 10
10.00000000000001
 20
3.313965566828169
 30
0.0
 10
10.00000000000001
 20
2.901698972928003
 30
0.0
 10
10.00000000000001
 20
1.980436477392354
 30
0.0
 10
10.00000000000001
 20
1.471700341676171
 30
0.0
 10
10.00000000000001
 20
0.4038785018423537
 30
0.0
 10
10.00000000000001
 20
-0.1546382221552863
 30
0.0
 10
10.00000000000001
 20
-1.265580843473038
 30
0.0
 10
10.00000000000001
 20
-1.817480558902525
 30
0.0
 10
10.00000000000001
 20
-2.34202572535443
 30
0.0
  0
SPLINE
  5
CD
330
1F
100
AcDbEntity
  8
0
  6
Continuous
 62
   131
370
    15
100
AcDbSpline
210
0.0
220
0.0
230
1.0
 70
     8
 71
     3
 72
     8
 73
     4
 74
     0
 42
0.000000001
 43
0.00000001
 40
0.0
 40
0.0
 40
0.0
 40
0.0
 40
1.0
 40
1.0
 40
1.0
 40
1.0
 10
10.00000000000001
 20
-2.342025725354432
 30
0.0
 10
9.321441406204642
 20
-2.068925096670202
 30
0.0
 10
8.648657475619107
 20
-1.781685553086211
 30
0.0
 10
7.97000068642719
 20
-1.484131719141342
 30
0.0
  0
SPLINE
  5
CE
330
1F
100
AcDbEntity
  8
0
  6
Continuous
 62
   131
370
    15
100
AcDbSpline
210
0.0
220
0.0
230
1.0
 70
     8
 71
     3
 72
     8
 73
     4
 74
     0
 42
0.000000001
 43
0.00000001
 40
0.0
 40
0.0
 40
0.0
 40
0.0
 40
1.0
 40
1.0
 40
1.0
 40
1.0
 10
10.00000000000001
 20
3.666126318206838
 30
0.0
 10
9.321441384661652
 20
3.799700664107823
 30
0.0
 10
8.648657432528072
 20
3.909546024530458
 30
0.0
 10
7.970000621788873
 20
3.99419559934642
 30
0.0
  0
SPLINE
  5
CF
330
1F
100
AcDbEntity
  8
0
  6
Continuous
 62
   131
370
    15
100
AcDbSpline
210
0.0
220
0.0
230
1.0
 70
    24
 71
     3
 72
    14
 73
    10
 74
     0
 42
0.000000001
 43
0.00000001
 40
0.0
 40
0.0
 40
0.0
 40
0.0
 40
0.2500000000000001
 40
0.2500000000000001
 40
0.5000000000000001
 40
0.5000000000000001
 40
0.75
 40
0.75
 40
1.0
 40
1.0
 40
1.0
 40
1.0
 10
10.00000000000001
 20
-2.342025725354432
 30
0.0
 10
10.00000000000001
 20
-2.717136119464063
 30
0.0
 10
10.00000000000001
 20
-3.072340857593436
 30
0.0
 10
10.00000000000001
 20
-3.712288165108949
 30
0.0
 10
10.00000000000001
 20
-3.996782213988884
 30
0.0
 10
10.00000000000001
 20
-4.471461668901915
 30
0.0
 10
10.00000000000001
 20
-4.661510001917851
 30
0.0
 10
10.00000000000001
 20
-4.93697319320956
 30
0.0
 10
10.00000000000001
 20
-5.02242654100134
 30
0.0
 10
10.00000000000001
 20
-5.057975160655199
 30
0.0
  0
SPLINE
  5
D0
330
1F
100
AcDbEntity
  8
0
  6
Continuous
 62
   131
370
    15
100
AcDbSpline
210
0.0
220
0.0
230
1.0
 70
     8
 71
     3
 72
     8
 73
     4
 74
     0
 42
0.000000001
 43
0.00000001
 40
0.0
 40
0.0
 40
0.0
 40
0.0
 40
1.0
 40
1.0
 40
1.0
 40
1.0
 10
10.00000000000001
 20
-5.057975160655199
 30
0.0
 10
9.321441516318698
 20
-5.10056243661899
 30
0.0
 10
8.648657695873071
 20
-5.11081517548887
 30
0.0
 10
7.970001016817163
 20
-5.088592130008217
 30
0.0
  0
SPLINE
  5
D1
330
1F
100
AcDbEntity
  8
0
  6
Continuous
 62
   131
370
    15
100
AcDbSpline
210
0.0
220
0.0
230
1.0
 70
    24
 71
     3
 72
    10
 73
     6
 74
     0
 42
0.000000001
 43
0.00000001
 40
0.0
 40
0.0
 40
0.0
 40
0.0
 40
0.5
 40
0.5
 40
1.0
 40
1.0
 40
1.0
 40
1.0
 10
10.00000000000001
 20
5.35323423222588
 30
0.0
 10
10.00000000000001
 20
5.128456653315979
 30
0.0
 10
10.00000000000001
 20
4.855177163603365
 30
0.0
 10
10.00000000000001
 20
4.270125253620906
 30
0.0
 10
10.00000000000001
 20
3.960077253476897
 30
0.0
 10
10.00000000000001
 20
3.666126318206838
 30
0.0
  0
SPLINE
  5
D2
330
1F
100
AcDbEntity
  8
0
  6
Continuous
 62
   131
370
    15
100
AcDbSpline
210
0.0
220
0.0
230
1.0
 70
    24
 71
     3
 72
     8
 73
     4
 74
     0
 42
0.000000001
 43
0.00000001
 40
0.0
 40
0.0
 40
0.0
 40
0.0
 40
1.0
 40
1.0
 40
1.0
 40
1.0
 10
10.00000000000001
 20
-5.057975160655199
 30
0.0
 10
10.00000000000001
 20
-5.347519273308177
 30
0.0
 10
10.00000000000001
 20
-5.627837067952891
 30
0.0
 10
10.00000000000001
 20
-5.893411867548405
 30
0.0
  0
LINE
  5
D3
330
1F
100
AcDbEntity
  8
중심선
100
AcDbLine
 10
-82.99999999999999
 20
-0.0000000000000004
 30
0.0
 11
73.00000000000001
 21
0.0000000000000126
 31
0.0
  0
CIRCLE
  5
D4
330
1F
100
AcDbEntity
  8
외형선
100
AcDbCircle
 10
0.0000000000000104
 20
0.0
 30
0.0
 40
3.000000000000005
  0
INSERT
  5
D5
330
1F
100
AcDbEntity
  8
0
  6
Continuous
 62
     7
100
AcDbBlockReference
 66
     1
  2
블럭10
 10
-22.93944368806589
 20
-52.04609937292004
 30
0.0
  0
ATTRIB
  5
D6
330
D5
100
AcDbEntity
  8
FORMAT
 62
     2
100
AcDbText
 10
-43.79769121965843
 20
-49.97073246008785
 30
0.0
 40
4.233333333333333
  1
SEME7012060150E [ 2 FLUTE ]
 41
0.75
  7
SLDTEXTSTYLE0
 11
-43.79769121965843
 21
-52.08739912675452
 31
0.0
100
AcDbAttribute
  2
AUTOATTR0
 70
     0
 74
     1
  0
SEQEND
  5
D7
330
D5
100
AcDbEntity
  8
0
  6
Continuous
 62
     7
  0
HATCH
  5
D8
330
1F
100
AcDbEntity
  8
중심선
100
AcDbHatch
 10
0.0
 20
0.0
 30
0.0
210
0.0
220
0.0
230
1.0
  2
SOLID
 70
     1
 71
     0
 91
        1
 92
        0
 93
        4
 72
     1
 10
-17.22453438368504
 20
-35.7989250712761
 11
-20.67080962752232
 21
-35.7989250712761
 72
     1
 10
-20.67080962752232
 20
-35.7989250712761
 11
-22.79903948672635
 21
-38.3352506518487
 72
     1
 10
-22.79903948672635
 20
-38.3352506518487
 11
-19.35273115777591
 21
-38.33521122254621
 72
     1
 10
-19.35273115777591
 20
-38.33521122254621
 11
-17.22453438368504
 21
-35.7989250712761
 97
        0
 75
     0
 76
     1
 98
        1
 10
0.0
 20
0.0
  0
HATCH
  5
D9
330
1F
100
AcDbEntity
  8
중심선
100
AcDbHatch
 10
0.0
 20
0.0
 30
0.0
210
0.0
220
0.0
230
1.0
  2
SOLID
 70
     1
 71
     0
 91
        1
 92
        0
 93
        4
 72
     1
 10
-12.21177039264909
 20
-35.7989250712761
 11
-15.65804563648637
 21
-35.7989250712761
 72
     1
 10
-15.65804563648637
 20
-35.7989250712761
 11
-20.18918364484376
 21
-41.19892507127612
 72
     1
 10
-20.18918364484376
 20
-41.19892507127612
 11
-16.74290840100648
 21
-41.19892507127612
 72
     1
 10
-16.74290840100648
 20
-41.19892507127612
 11
-12.21177039264909
 21
-35.7989250712761
 97
        0
 75
     0
 76
     1
 98
        1
 10
0.0
 20
0.0
  0
HATCH
  5
DA
330
1F
100
AcDbEntity
  8
중심선
100
AcDbHatch
 10
0.0
 20
0.0
 30
0.0
210
0.0
220
0.0
230
1.0
  2
SOLID
 70
     1
 71
     0
 91
        1
 92
        0
 93
        4
 72
     1
 10
-7.199006401613195
 20
-35.79892507127613
 11
-10.64528164545031
 21
-35.7989250712761
 72
     1
 10
-10.64528164545031
 20
-35.7989250712761
 11
-17.69371854733956
 21
-44.19892507127612
 72
     1
 10
-17.69371854733956
 20
-44.19892507127612
 11
-14.24744330350228
 21
-44.19892507127612
 72
     1
 10
-14.24744330350228
 20
-44.19892507127612
 11
-7.199006401613195
 21
-35.79892507127613
 97
        0
 75
     0
 76
     1
 98
        1
 10
0.0
 20
0.0
  0
HATCH
  5
DB
330
1F
100
AcDbEntity
  8
중심선
100
AcDbHatch
 10
0.0
 20
0.0
 30
0.0
210
0.0
220
0.0
230
1.0
  2
SOLID
 70
     1
 71
     0
 91
        1
 92
        0
 93
        6
 72
     3
 10
-2.399115970600996
 20
-39.99892507132738
 11
3.960054785062284
 21
1.540850780301639E-10
 40
0.3939339440162633
 50
17.09539180608433
 51
320.0019657685079
 73
     0
 72
     1
 10
-0.7161163149004002
 20
-38.58681907591441
 11
1.589185558800638
 21
-36.65249236586649
 72
     3
 10
-2.399115970653842
 20
-39.99892507127625
 11
6.600054785286829
 21
-1.249000902703301E-13
 40
0.6363583540795982
 50
39.99873849337408
 51
368.4976242363725
 73
     1
 72
     1
 10
4.026216521246767
 20
-39.03892507120613
 11
-3.71904866381792
 21
-39.0389250712061
 72
     1
 10
-3.71904866381792
 20
-39.0389250712061
 11
-3.719073708263854
 21
-40.95892507120602
 72
     1
 10
-3.719073708263854
 20
-40.95892507120602
 11
0.7223060612081831
 21
-40.95892507120599
 97
        0
 75
     0
 76
     1
 98
        1
 10
0.0
 20
0.0
  0
DIMENSION
  5
DC
330
1F
100
AcDbEntity
  8
치수문자_일반주서
100
AcDbDimension
  2
_D
 10
83.70142809336284
 20
6.000000000000279
 30
0.0
 11
83.7014280933628
 21
16.54150000000028
 31
0.0
 70
   160
  1
%%c<>
 71
     2
 42
12.0
 52
-270.0
  3
SLDDIMSTYLE0
100
AcDbAlignedDimension
 13
70.0
 23
-5.999999999999769
 33
0.0
 14
70.0
 24
6.000000000000227
 34
0.0
 50
90.0000000000002
100
AcDbRotatedDimension
  0
DIMENSION
  5
EA
330
1F
100
AcDbEntity
  8
치수문자_일반주서
100
AcDbDimension
  2
_D_1
 10
69.99999999999973
 20
26.78841044024269
 30
0.0
 11
-5.000000000000129
 21
26.78841044024269
 31
0.0
 70
   160
  1
<>
 71
     2
 42
149.9999999999997
  3
SLDDIMSTYLE1
100
AcDbAlignedDimension
 13
-79.99999999999999
 23
4.999999999999994
 33
0.0
 14
69.99999999999973
 24
6.000000000000227
 34
0.0
 50
-0.0000000000000041
100
AcDbRotatedDimension
  0
DIMENSION
  5
F5
330
1F
100
AcDbEntity
  8
치수문자_일반주서
100
AcDbDimension
  2
_D_2
 10
69.99999999999973
 20
19.24040967371729
 30
0.0
 11
40.00000000000001
 21
19.24040967371729
 31
0.0
 70
   160
  1
<>
 71
     2
 42
59.99999999999972
  3
SLDDIMSTYLE1
100
AcDbAlignedDimension
 13
10.00000000000001
 23
5.893411867549767
 33
0.0
 14
69.99999999999973
 24
6.000000000000227
 34
0.0
 50
-0.0000000000000034
100
AcDbRotatedDimension
  0
DIMENSION
  5
FF
330
1F
100
AcDbEntity
  8
치수문자_일반주서
100
AcDbDimension
  2
_D_3
 10
-90.92863185088608
 20
-6.000000000000039
 30
0.0
 11
-90.92863185088616
 21
16.54149999999995
 31
0.0
 70
   160
  1
%%c<>
 71
     2
 42
11.99999999999999
 52
-270.0
  3
SLDDIMSTYLE0
100
AcDbAlignedDimension
 13
-78.99999999999999
 23
5.999999999999995
 33
0.0
 14
-78.99999999999999
 24
-5.999999999999995
 34
0.0
 50
90.0000000000002
100
AcDbRotatedDimension
  0
INSERT
  5
112
330
1F
100
AcDbEntity
  8
외형선
100
AcDbBlockReference
  2
SW_DOWELSYMBOL_0
 10
0.0000000000000104
 20
0.0
 30
0.0
  0
ENDSEC
  0
SECTION
  2
OBJECTS
  0
DICTIONARY
  5
C
330
0
100
AcDbDictionary
281
     1
  3
ACAD_GROUP
350
D
  3
ACAD_IMAGE_VARS
350
136
  3
ACAD_LAYOUT
350
1A
  3
ACAD_MLINESTYLE
350
17
  3
ACAD_PLOTSETTINGS
350
19
  3
ACAD_PLOTSTYLENAME
350
E
  3
ACAD_SCALELIST
350
47
  3
APPDATA
350
134
  3
DWGPROPS
350
145
  0
DICTIONARY
  5
D
102
{ACAD_REACTORS
330
C
102
}
330
C
100
AcDbDictionary
281
     1
  0
RASTERVARIABLES
  5
136
102
{ACAD_REACTORS
330
C
102
}
330
C
100
AcDbRasterVariables
 90
        0
 70
     1
 71
     1
 72
     1
  0
DICTIONARY
  5
1A
102
{ACAD_REACTORS
330
C
102
}
330
C
100
AcDbDictionary
281
     1
  3
Layout1
350
1E
  3
Layout2
350
26
  3
Model
350
22
  0
DICTIONARY
  5
17
102
{ACAD_REACTORS
330
C
102
}
330
C
100
AcDbDictionary
281
     1
  3
Standard
350
18
  0
DICTIONARY
  5
19
102
{ACAD_REACTORS
330
C
102
}
330
C
100
AcDbDictionary
281
     1
  0
ACDBDICTIONARYWDFLT
  5
E
102
{ACAD_REACTORS
330
C
102
}
330
C
100
AcDbDictionary
281
     1
  3
Normal
350
F
100
AcDbDictionaryWithDefault
340
F
  0
DICTIONARY
  5
47
102
{ACAD_REACTORS
330
C
102
}
330
C
100
AcDbDictionary
281
     1
  3
A0
350
48
  3
A1
350
49
  3
A2
350
4A
  3
A3
350
4B
  3
A4
350
4C
  3
A5
350
4D
  3
A6
350
4E
  3
A7
350
4F
  3
A8
350
50
  3
A9
350
51
  3
B0
350
52
  3
B1
350
53
  3
B2
350
54
  3
B3
350
55
  3
B4
350
56
  3
B5
350
57
  3
B6
350
58
  3
B7
350
59
  3
B8
350
5A
  3
B9
350
5B
  3
C0
350
5C
  3
C1
350
5D
  3
C2
350
5E
  3
C3
350
5F
  3
C4
350
60
  3
C5
350
61
  3
C6
350
62
  3
C7
350
63
  3
C8
350
64
  3
C9
350
65
  3
D0
350
66
  3
D1
350
67
  3
D2
350
68
  0
DICTIONARY
  5
134
102
{ACAD_REACTORS
330
C
102
}
330
C
100
AcDbDictionary
281
     1
  0
XRECORD
  5
145
102
{ACAD_REACTORS
330
C
102
}
330
C
100
AcDbXrecord
280
     1
  1
DWGPROPS COOKIE
  2

  3

  4

  6

  7

  8
12014102
  9

300
=
301
=
302
=
303
=
304
=
305
=
306
=
307
=
308
=
309
=
 40
0.0
 41
2458262.173487986
 42
2458266.310362465
  1

 90
        0
  0
LAYOUT
  5
1E
102
{ACAD_REACTORS
330
1A
102
}
330
1A
100
AcDbPlotSettings
  1

  2
none_device
  4

  6

 40
0.0
 41
0.0
 42
0.0
 43
0.0
 44
0.0
 45
0.0
 46
0.0
 47
0.0
 48
0.0
 49
0.0
140
0.0
141
0.0
142
1.0
143
1.0
 70
   688
 72
     1
 73
     0
 74
     5
  7

 75
    16
147
1.0
148
0.0
149
0.0
100
AcDbLayout
  1
Layout1
 70
     1
 71
     1
 10
0.0
 20
0.0
 11
420.0
 21
297.0
 12
0.0
 22
0.0
 32
0.0
 14
1.000000000000000E+20
 24
1.000000000000000E+20
 34
1.000000000000000E+20
 15
-1.000000000000000E+20
 25
-1.000000000000000E+20
 35
-1.000000000000000E+20
146
0.0
 13
0.0
 23
0.0
 33
0.0
 16
1.0
 26
0.0
 36
0.0
 17
0.0
 27
1.0
 37
0.0
 76
     0
330
1B
  0
LAYOUT
  5
26
102
{ACAD_REACTORS
330
1A
102
}
330
1A
100
AcDbPlotSettings
  1

  2
none_device
  4

  6

 40
0.0
 41
0.0
 42
0.0
 43
0.0
 44
0.0
 45
0.0
 46
0.0
 47
0.0
 48
0.0
 49
0.0
140
0.0
141
0.0
142
1.0
143
1.0
 70
   688
 72
     1
 73
     0
 74
     5
  7

 75
    16
147
1.0
148
0.0
149
0.0
100
AcDbLayout
  1
Layout2
 70
     1
 71
     2
 10
0.0
 20
0.0
 11
0.0
 21
0.0
 12
0.0
 22
0.0
 32
0.0
 14
0.0
 24
0.0
 34
0.0
 15
0.0
 25
0.0
 35
0.0
146
0.0
 13
0.0
 23
0.0
 33
0.0
 16
1.0
 26
0.0
 36
0.0
 17
0.0
 27
1.0
 37
0.0
 76
     0
330
23
  0
LAYOUT
  5
22
102
{ACAD_REACTORS
330
1A
102
}
330
1A
100
AcDbPlotSettings
  1

  2
none_device
  4
ANSI_A_(11.00_x_8.50_Inches)
  6

 40
6.35
 41
19.05
 42
6.35000508
 43
19.05000254
 44
279.4
 45
215.9
 46
146.7288982612065
 47
105.0683415104176
 48
0.0
 49
0.0
140
0.0
141
0.0
142
0.065578048070227
143
1.0
 70
  1696
 72
     0
 73
     0
 74
     0
  7

 75
     0
147
0.0235690232323232
148
0.0
149
0.0
100
AcDbLayout
  1
Model
 70
     1
 71
     0
 10
0.0
 20
0.0
 11
420.0
 21
297.0
 12
0.0
 22
0.0
 32
0.0
 14
-95.30363185088618
 24
-49.97073246008785
 34
0.0
 15
84.25176142669622
 25
31.16341044024269
 35
0.0
146
0.0
 13
0.0
 23
0.0
 33
0.0
 16
1.0
 26
0.0
 36
0.0
 17
0.0
 27
1.0
 37
0.0
 76
     0
330
1F
331
29
  0
MLINESTYLE
  5
18
102
{ACAD_REACTORS
330
17
102
}
330
17
100
AcDbMlineStyle
  2
Standard
 70
     0
  3

 62
   256
 51
90.0
 52
90.0
 71
     2
 49
0.5
 62
   256
  6
BYLAYER
 49
-0.5
 62
   256
  6
BYLAYER
  0
ACDBPLACEHOLDER
  5
F
102
{ACAD_REACTORS
330
E
102
}
330
E
  0
SCALE
  5
48
102
{ACAD_REACTORS
330
47
102
}
330
47
100
AcDbScale
 70
     0
300
1:1
140
1.0
141
1.0
290
     1
  0
SCALE
  5
49
102
{ACAD_REACTORS
330
47
102
}
330
47
100
AcDbScale
 70
     0
300
1:2
140
1.0
141
2.0
290
     0
  0
SCALE
  5
4A
102
{ACAD_REACTORS
330
47
102
}
330
47
100
AcDbScale
 70
     0
300
1:4
140
1.0
141
4.0
290
     0
  0
SCALE
  5
4B
102
{ACAD_REACTORS
330
47
102
}
330
47
100
AcDbScale
 70
     0
300
1:5
140
1.0
141
5.0
290
     0
  0
SCALE
  5
4C
102
{ACAD_REACTORS
330
47
102
}
330
47
100
AcDbScale
 70
     0
300
1:8
140
1.0
141
8.0
290
     0
  0
SCALE
  5
4D
102
{ACAD_REACTORS
330
47
102
}
330
47
100
AcDbScale
 70
     0
300
1:10
140
1.0
141
10.0
290
     0
  0
SCALE
  5
4E
102
{ACAD_REACTORS
330
47
102
}
330
47
100
AcDbScale
 70
     0
300
1:16
140
1.0
141
16.0
290
     0
  0
SCALE
  5
4F
102
{ACAD_REACTORS
330
47
102
}
330
47
100
AcDbScale
 70
     0
300
1:20
140
1.0
141
20.0
290
     0
  0
SCALE
  5
50
102
{ACAD_REACTORS
330
47
102
}
330
47
100
AcDbScale
 70
     0
300
1:30
140
1.0
141
30.0
290
     0
  0
SCALE
  5
51
102
{ACAD_REACTORS
330
47
102
}
330
47
100
AcDbScale
 70
     0
300
1:40
140
1.0
141
40.0
290
     0
  0
SCALE
  5
52
102
{ACAD_REACTORS
330
47
102
}
330
47
100
AcDbScale
 70
     0
300
1:50
140
1.0
141
50.0
290
     0
  0
SCALE
  5
53
102
{ACAD_REACTORS
330
47
102
}
330
47
100
AcDbScale
 70
     0
300
1:100
140
1.0
141
100.0
290
     0
  0
SCALE
  5
54
102
{ACAD_REACTORS
330
47
102
}
330
47
100
AcDbScale
 70
     0
300
2:1
140
2.0
141
1.0
290
     0
  0
SCALE
  5
55
102
{ACAD_REACTORS
330
47
102
}
330
47
100
AcDbScale
 70
     0
300
4:1
140
4.0
141
1.0
290
     0
  0
SCALE
  5
56
102
{ACAD_REACTORS
330
47
102
}
330
47
100
AcDbScale
 70
     0
300
8:1
140
8.0
141
1.0
290
     0
  0
SCALE
  5
57
102
{ACAD_REACTORS
330
47
102
}
330
47
100
AcDbScale
 70
     0
300
10:1
140
10.0
141
1.0
290
     0
  0
SCALE
  5
58
102
{ACAD_REACTORS
330
47
102
}
330
47
100
AcDbScale
 70
     0
300
100:1
140
100.0
141
1.0
290
     0
  0
SCALE
  5
59
102
{ACAD_REACTORS
330
47
102
}
330
47
100
AcDbScale
 70
     0
300
1/128" = 1'-0"
140
0.0078125
141
12.0
290
     0
  0
SCALE
  5
5A
102
{ACAD_REACTORS
330
47
102
}
330
47
100
AcDbScale
 70
     0
300
1/64" = 1'-0"
140
0.015625
141
12.0
290
     0
  0
SCALE
  5
5B
102
{ACAD_REACTORS
330
47
102
}
330
47
100
AcDbScale
 70
     0
300
1/32" = 1'-0"
140
0.03125
141
12.0
290
     0
  0
SCALE
  5
5C
102
{ACAD_REACTORS
330
47
102
}
330
47
100
AcDbScale
 70
     0
300
1/16" = 1'-0"
140
0.0625
141
12.0
290
     0
  0
SCALE
  5
5D
102
{ACAD_REACTORS
330
47
102
}
330
47
100
AcDbScale
 70
     0
300
3/32" = 1'-0"
140
0.09375
141
12.0
290
     0
  0
SCALE
  5
5E
102
{ACAD_REACTORS
330
47
102
}
330
47
100
AcDbScale
 70
     0
300
1/8" = 1'-0"
140
0.125
141
12.0
290
     0
  0
SCALE
  5
5F
102
{ACAD_REACTORS
330
47
102
}
330
47
100
AcDbScale
 70
     0
300
3/16" = 1'-0"
140
0.1875
141
12.0
290
     0
  0
SCALE
  5
60
102
{ACAD_REACTORS
330
47
102
}
330
47
100
AcDbScale
 70
     0
300
1/4" = 1'-0"
140
0.25
141
12.0
290
     0
  0
SCALE
  5
61
102
{ACAD_REACTORS
330
47
102
}
330
47
100
AcDbScale
 70
     0
300
3/8" = 1'-0"
140
0.375
141
12.0
290
     0
  0
SCALE
  5
62
102
{ACAD_REACTORS
330
47
102
}
330
47
100
AcDbScale
 70
     0
300
1/2" = 1'-0"
140
0.5
141
12.0
290
     0
  0
SCALE
  5
63
102
{ACAD_REACTORS
330
47
102
}
330
47
100
AcDbScale
 70
     0
300
3/4" = 1'-0"
140
0.75
141
12.0
290
     0
  0
SCALE
  5
64
102
{ACAD_REACTORS
330
47
102
}
330
47
100
AcDbScale
 70
     0
300
1" = 1'-0"
140
1.0
141
12.0
290
     0
  0
SCALE
  5
65
102
{ACAD_REACTORS
330
47
102
}
330
47
100
AcDbScale
 70
     0
300
1-1/2" = 1'-0"
140
1.5
141
12.0
290
     0
  0
SCALE
  5
66
102
{ACAD_REACTORS
330
47
102
}
330
47
100
AcDbScale
 70
     0
300
3" = 1'-0"
140
3.0
141
12.0
290
     0
  0
SCALE
  5
67
102
{ACAD_REACTORS
330
47
102
}
330
47
100
AcDbScale
 70
     0
300
6" = 1'-0"
140
6.0
141
12.0
290
     0
  0
SCALE
  5
68
102
{ACAD_REACTORS
330
47
102
}
330
47
100
AcDbScale
 70
     0
300
1'-0" = 1'-0"
140
12.0
141
12.0
290
     0
  0
ENDSEC
  0
EOF
