  0
SECTION
  2
HEADER
  9
$ACADVER
  1
AC1015
  9
$ACADMAINTVER
 70
     6
  9
$DWGCODEPAGE
  3
ANSI_949
  9
$INSBASE
 10
0.0
 20
0.0
 30
0.0
  9
$EXTMIN
 10
-60.09952654221592
 20
-49.97073246008785
 30
0.0
  9
$EXTMAX
 10
65.72704395368208
 20
31.16341044024269
 30
0.0
  9
$LIMMIN
 10
0.0
 20
0.0
  9
$LIMMAX
 10
420.0
 20
297.0
  9
$ORTHOMODE
 70
     0
  9
$REGENMODE
 70
     1
  9
$FILLMODE
 70
     1
  9
$QTEXTMODE
 70
     0
  9
$MIRRTEXT
 70
     1
  9
$LTSCALE
 40
1.0
  9
$ATTMODE
 70
     1
  9
$TEXTSIZE
 40
3.5
  9
$TRACEWID
 40
1.0
  9
$TEXTSTYLE
  7
Standard
  9
$CLAYER
  8
0
  9
$CELTYPE
  6
ByLayer
  9
$CECOLOR
 62
   256
  9
$CELTSCALE
 40
1.0
  9
$DISPSILH
 70
     0
  9
$DIMSCALE
 40
1.0
  9
$DIMASZ
 40
3.302
  9
$DIMEXO
 40
1.0
  9
$DIMDLI
 40
3.75
  9
$DIMRND
 40
0.0
  9
$DIMDLE
 40
0.0
  9
$DIMEXE
 40
1.0
  9
$DIMTP
 40
0.0
  9
$DIMTM
 40
0.0
  9
$DIMTXT
 40
3.5
  9
$DIMCEN
 40
2.5
  9
$DIMTSZ
 40
0.0
  9
$DIMTOL
 70
     0
  9
$DIMLIM
 70
     0
  9
$DIMTIH
 70
     1
  9
$DIMTOH
 70
     1
  9
$DIMSE1
 70
     0
  9
$DIMSE2
 70
     0
  9
$DIMTAD
 70
     1
  9
$DIMZIN
 70
     0
  9
$DIMBLK
  1

  9
$DIMASO
 70
     1
  9
$DIMSHO
 70
     1
  9
$DIMPOST
  1

  9
$DIMAPOST
  1

  9
$DIMALT
 70
     0
  9
$DIMALTD
 70
     3
  9
$DIMALTF
 40
0.0393700787401575
  9
$DIMLFAC
 40
1.0
  9
$DIMTOFL
 70
     1
  9
$DIMTVP
 40
0.0
  9
$DIMTIX
 70
     0
  9
$DIMSOXD
 70
     0
  9
$DIMSAH
 70
     0
  9
$DIMBLK1
  1

  9
$DIMBLK2
  1

  9
$DIMSTYLE
  2
ISO-25
  9
$DIMCLRD
 70
     0
  9
$DIMCLRE
 70
     0
  9
$DIMCLRT
 70
     0
  9
$DIMTFAC
 40
1.0
  9
$DIMGAP
 40
1.524
  9
$DIMJUST
 70
     0
  9
$DIMSD1
 70
     0
  9
$DIMSD2
 70
     0
  9
$DIMTOLJ
 70
     0
  9
$DIMTZIN
 70
     0
  9
$DIMALTZ
 70
     0
  9
$DIMALTTZ
 70
     0
  9
$DIMUPT
 70
     0
  9
$DIMDEC
 70
     2
  9
$DIMTDEC
 70
     2
  9
$DIMALTU
 70
     2
  9
$DIMALTTD
 70
     3
  9
$DIMTXSTY
  7
Standard
  9
$DIMAUNIT
 70
     0
  9
$DIMADEC
 70
     2
  9
$DIMALTRND
 40
0.0
  9
$DIMAZIN
 70
     0
  9
$DIMDSEP
 70
    44
  9
$DIMATFIT
 70
     3
  9
$DIMFRAC
 70
     0
  9
$DIMLDRBLK
  1

  9
$DIMLUNIT
 70
     2
  9
$DIMLWD
 70
    -2
  9
$DIMLWE
 70
    -2
  9
$DIMTMOVE
 70
     0
  9
$LUNITS
 70
     2
  9
$LUPREC
 70
     2
  9
$SKETCHINC
 40
1.0
  9
$FILLETRAD
 40
10.0
  9
$AUNITS
 70
     0
  9
$AUPREC
 70
     2
  9
$MENU
  1
.
  9
$ELEVATION
 40
0.0
  9
$PELEVATION
 40
0.0
  9
$THICKNESS
 40
0.0
  9
$LIMCHECK
 70
     0
  9
$CHAMFERA
 40
0.0
  9
$CHAMFERB
 40
0.0
  9
$CHAMFERC
 40
0.0
  9
$CHAMFERD
 40
0.0
  9
$SKPOLY
 70
     0
  9
$TDCREATE
 40
2458262.547173843
  9
$TDUCREATE
 40
2458262.172173843
  9
$TDUPDATE
 40
2458266.488448136
  9
$TDUUPDATE
 40
2458266.113448136
  9
$TDINDWG
 40
0.0014286921
  9
$TDUSRTIMER
 40
2458266.112019479
  9
$USRTIMER
 70
     1
  9
$ANGBASE
 50
0.0
  9
$ANGDIR
 70
     0
  9
$PDMODE
 70
     0
  9
$PDSIZE
 40
-1.0
  9
$PLINEWID
 40
0.0
  9
$SPLFRAME
 70
     0
  9
$SPLINETYPE
 70
     6
  9
$SPLINESEGS
 70
     8
  9
$HANDSEED
  5
13D
  9
$SURFTAB1
 70
     6
  9
$SURFTAB2
 70
     6
  9
$SURFTYPE
 70
     6
  9
$SURFU
 70
     6
  9
$SURFV
 70
     6
  9
$UCSBASE
  2

  9
$UCSNAME
  2

  9
$UCSORG
 10
0.0
 20
0.0
 30
0.0
  9
$UCSXDIR
 10
1.0
 20
0.0
 30
0.0
  9
$UCSYDIR
 10
0.0
 20
1.0
 30
0.0
  9
$UCSORTHOREF
  2

  9
$UCSORTHOVIEW
 70
     0
  9
$UCSORGTOP
 10
0.0
 20
0.0
 30
0.0
  9
$UCSORGBOTTOM
 10
0.0
 20
0.0
 30
0.0
  9
$UCSORGLEFT
 10
0.0
 20
0.0
 30
0.0
  9
$UCSORGRIGHT
 10
0.0
 20
0.0
 30
0.0
  9
$UCSORGFRONT
 10
0.0
 20
0.0
 30
0.0
  9
$UCSORGBACK
 10
0.0
 20
0.0
 30
0.0
  9
$PUCSBASE
  2

  9
$PUCSNAME
  2

  9
$PUCSORG
 10
0.0
 20
0.0
 30
0.0
  9
$PUCSXDIR
 10
1.0
 20
0.0
 30
0.0
  9
$PUCSYDIR
 10
0.0
 20
1.0
 30
0.0
  9
$PUCSORTHOREF
  2

  9
$PUCSORTHOVIEW
 70
     0
  9
$PUCSORGTOP
 10
0.0
 20
0.0
 30
0.0
  9
$PUCSORGBOTTOM
 10
0.0
 20
0.0
 30
0.0
  9
$PUCSORGLEFT
 10
0.0
 20
0.0
 30
0.0
  9
$PUCSORGRIGHT
 10
0.0
 20
0.0
 30
0.0
  9
$PUCSORGFRONT
 10
0.0
 20
0.0
 30
0.0
  9
$PUCSORGBACK
 10
0.0
 20
0.0
 30
0.0
  9
$USERI1
 70
     0
  9
$USERI2
 70
     0
  9
$USERI3
 70
     0
  9
$USERI4
 70
     0
  9
$USERI5
 70
     0
  9
$USERR1
 40
0.0
  9
$USERR2
 40
0.0
  9
$USERR3
 40
0.0
  9
$USERR4
 40
0.0
  9
$USERR5
 40
0.0
  9
$WORLDVIEW
 70
     1
  9
$SHADEDGE
 70
     3
  9
$SHADEDIF
 70
    70
  9
$TILEMODE
 70
     1
  9
$MAXACTVP
 70
    64
  9
$PINSBASE
 10
0.0
 20
0.0
 30
0.0
  9
$PLIMCHECK
 70
     0
  9
$PEXTMIN
 10
1.000000000000000E+20
 20
1.000000000000000E+20
 30
1.000000000000000E+20
  9
$PEXTMAX
 10
-1.000000000000000E+20
 20
-1.000000000000000E+20
 30
-1.000000000000000E+20
  9
$PLIMMIN
 10
0.0
 20
0.0
  9
$PLIMMAX
 10
0.0
 20
0.0
  9
$UNITMODE
 70
     0
  9
$VISRETAIN
 70
     1
  9
$PLINEGEN
 70
     0
  9
$PSLTSCALE
 70
     1
  9
$TREEDEPTH
 70
  3020
  9
$CMLSTYLE
  2
Standard
  9
$CMLJUST
 70
     0
  9
$CMLSCALE
 40
20.0
  9
$PROXYGRAPHICS
 70
     1
  9
$MEASUREMENT
 70
     1
  9
$CELWEIGHT
370
    -1
  9
$ENDCAPS
280
     0
  9
$JOINSTYLE
280
     0
  9
$LWDISPLAY
290
     1
  9
$INSUNITS
 70
     4
  9
$HYPERLINKBASE
  1

  9
$STYLESHEET
  1

  9
$XEDIT
290
     1
  9
$CEPSNTYPE
380
     0
  9
$PSTYLEMODE
290
     1
  9
$FINGERPRINTGUID
  2
{C5992914-8540-445F-A9E4-DD417AEBB7C4}
  9
$VERSIONGUID
  2
{FAEB1C32-E019-11D5-929B-00C0DF256EC4}
  9
$EXTNAMES
290
     1
  9
$PSVPSCALE
 40
0.0
  9
$OLESTARTUP
290
     0
  0
ENDSEC
  0
SECTION
  2
CLASSES
  0
CLASS
  1
ACDBDICTIONARYWDFLT
  2
AcDbDictionaryWithDefault
  3
ObjectDBX Classes
 90
        0
280
     0
281
     0
  0
CLASS
  1
VISUALSTYLE
  2
AcDbVisualStyle
  3
ObjectDBX Classes
 90
     4095
280
     0
281
     0
  0
CLASS
  1
MATERIAL
  2
AcDbMaterial
  3
ObjectDBX Classes
 90
     1153
280
     0
281
     0
  0
CLASS
  1
SCALE
  2
AcDbScale
  3
ObjectDBX Classes
 90
     1153
280
     0
281
     0
  0
CLASS
  1
SUN
  2
AcDbSun
  3
SCENEOE
 90
     1153
280
     0
281
     0
  0
CLASS
  1
ACDBPLACEHOLDER
  2
AcDbPlaceHolder
  3
ObjectDBX Classes
 90
        0
280
     0
281
     0
  0
CLASS
  1
LAYOUT
  2
AcDbLayout
  3
ObjectDBX Classes
 90
        0
280
     0
281
     0
  0
CLASS
  1
TABLESTYLE
  2
AcDbTableStyle
  3
ObjectDBX Classes
 90
     4095
280
     0
281
     0
  0
CLASS
  1
MLEADERSTYLE
  2
AcDbMLeaderStyle
  3
ACDB_MLEADERSTYLE_CLASS
 90
     4095
280
     0
281
     0
  0
CLASS
  1
RASTERVARIABLES
  2
AcDbRasterVariables
  3
ISM
 90
        0
280
     0
281
     0
  0
ENDSEC
  0
SECTION
  2
TABLES
  0
TABLE
  2
VPORT
  5
8
330
0
100
AcDbSymbolTable
 70
     1
  0
VPORT
  5
29
330
8
100
AcDbSymbolTableRecord
100
AcDbViewportTableRecord
  2
*Active
 70
     0
 10
0.0
 20
0.0
 11
1.0
 21
1.0
 12
2.813758705733079
 22
-9.40366100992258
 13
0.0
 23
0.0
 14
10.0
 24
10.0
 15
10.0
 25
10.0
 16
0.0
 26
0.0
 36
1.0
 17
0.0
 27
0.0
 37
0.0
 40
111.3649785595309
 41
1.152454780361757
 42
50.0
 43
0.0
 44
0.0
 50
0.0
 51
0.0
 71
    16
 72
  2000
 73
     1
 74
     3
 75
     0
 76
     0
 77
     0
 78
     0
281
     0
 65
     1
110
0.0
120
0.0
130
0.0
111
1.0
121
0.0
131
0.0
112
0.0
122
1.0
132
0.0
 79
     0
146
0.0
  0
ENDTAB
  0
TABLE
  2
LTYPE
  5
5
330
0
100
AcDbSymbolTable
 70
     6
  0
LTYPE
  5
14
330
5
100
AcDbSymbolTableRecord
100
AcDbLinetypeTableRecord
  2
ByBlock
 70
     0
  3

 72
    65
 73
     0
 40
0.0
  0
LTYPE
  5
15
330
5
100
AcDbSymbolTableRecord
100
AcDbLinetypeTableRecord
  2
ByLayer
 70
     0
  3

 72
    65
 73
     0
 40
0.0
  0
LTYPE
  5
16
330
5
100
AcDbSymbolTableRecord
100
AcDbLinetypeTableRecord
  2
Continuous
 70
     0
  3
Solid line
 72
    65
 73
     0
 40
0.0
  0
LTYPE
  5
6A
330
5
100
AcDbSymbolTableRecord
100
AcDbLinetypeTableRecord
  2
HIDDEN
 70
     0
  3
Hidden __ __ __ __ __ __ __ __ __ __ __ __ __ __
 72
    65
 73
     2
 40
1.905
 49
1.27
 74
     0
 49
-0.635
 74
     0
  0
LTYPE
  5
6B
330
5
100
AcDbSymbolTableRecord
100
AcDbLinetypeTableRecord
  2
PHANTOM
 70
     0
  3
Phantom ______  __  __  ______  __  __  ______
 72
    65
 73
     6
 40
12.7
 49
6.35
 74
     0
 49
-1.27
 74
     0
 49
1.27
 74
     0
 49
-1.27
 74
     0
 49
1.27
 74
     0
 49
-1.27
 74
     0
  0
LTYPE
  5
6C
330
5
100
AcDbSymbolTableRecord
100
AcDbLinetypeTableRecord
  2
CENTER
 70
     0
  3
Center ____ _ ____ _ ____ _ ____ _ ____ _ ____
 72
    65
 73
     4
 40
10.16
 49
6.35
 74
     0
 49
-1.27
 74
     0
 49
1.27
 74
     0
 49
-1.27
 74
     0
  0
LTYPE
  5
6D
330
5
100
AcDbSymbolTableRecord
100
AcDbLinetypeTableRecord
  2
CENTERX2
 70
     0
  3
Center (2x) ________  __  ________  __  _____
 72
    65
 73
     4
 40
20.32
 49
12.7
 74
     0
 49
-2.54
 74
     0
 49
2.54
 74
     0
 49
-2.54
 74
     0
  0
LTYPE
  5
6E
330
5
100
AcDbSymbolTableRecord
100
AcDbLinetypeTableRecord
  2
DOT2
 70
     0
  3
Dot (.5x) ........................................
 72
    65
 73
     2
 40
0.635
 49
0.0
 74
     0
 49
-0.635
 74
     0
  0
ENDTAB
  0
TABLE
  2
LAYER
  5
2
330
0
100
AcDbSymbolTable
 70
    17
  0
LAYER
  5
10
330
2
100
AcDbSymbolTableRecord
100
AcDbLayerTableRecord
  2
0
 70
     0
 62
     7
  6
Continuous
370
    -3
390
F
  0
LAYER
  5
6F
330
2
100
AcDbSymbolTableRecord
100
AcDbLayerTableRecord
  2
FORMAT
 70
     0
 62
     2
  6
Continuous
370
    -3
390
F
  0
LAYER
  5
70
330
2
100
AcDbSymbolTableRecord
100
AcDbLayerTableRecord
  2
외형선
 70
     0
 62
   100
  6
Continuous
370
    30
390
F
  0
LAYER
  5
71
330
2
100
AcDbSymbolTableRecord
100
AcDbLayerTableRecord
  2
숨은선
 70
     0
 62
     2
  6
HIDDEN
370
    15
390
F
  0
LAYER
  5
72
330
2
100
AcDbSymbolTableRecord
100
AcDbLayerTableRecord
  2
중심선
 70
     0
 62
     1
  6
CENTERX2
370
    -3
390
F
  0
LAYER
  5
73
330
2
100
AcDbSymbolTableRecord
100
AcDbLayerTableRecord
  2
파단선
 70
     0
 62
     4
  6
Continuous
370
    -3
390
F
  0
LAYER
  5
74
330
2
100
AcDbSymbolTableRecord
100
AcDbLayerTableRecord
  2
해칭선
 70
     0
 62
     4
  6
Continuous
370
    -3
390
F
  0
LAYER
  5
75
330
2
100
AcDbSymbolTableRecord
100
AcDbLayerTableRecord
  2
가는실선
 70
     0
 62
     4
  6
Continuous
370
    -3
390
F
  0
LAYER
  5
76
330
2
100
AcDbSymbolTableRecord
100
AcDbLayerTableRecord
  2
치수_보조선
 70
     0
 62
     4
  6
Continuous
370
    -3
390
F
  0
LAYER
  5
77
330
2
100
AcDbSymbolTableRecord
100
AcDbLayerTableRecord
  2
치수문자_일반주서
 70
     0
 62
     7
  6
Continuous
370
    15
390
F
  0
LAYER
  5
78
330
2
100
AcDbSymbolTableRecord
100
AcDbLayerTableRecord
  2
개별주서
 70
     0
 62
   100
  6
Continuous
370
    30
390
F
  0
LAYER
  5
79
330
2
100
AcDbSymbolTableRecord
100
AcDbLayerTableRecord
  2
중간선
 70
     0
 62
     2
  6
Continuous
370
    15
390
F
  0
LAYER
  5
7A
330
2
100
AcDbSymbolTableRecord
100
AcDbLayerTableRecord
  2
윤곽선
 70
     0
 62
     3
  6
Continuous
370
    40
390
F
  0
LAYER
  5
7B
330
2
100
AcDbSymbolTableRecord
100
AcDbLayerTableRecord
  2
중심마크
 70
     0
 62
   100
  6
Continuous
370
    30
390
F
  0
LAYER
  5
7C
330
2
100
AcDbSymbolTableRecord
100
AcDbLayerTableRecord
  2
가상선
 70
     0
 62
     4
  6
PHANTOM
370
    -3
390
F
  0
LAYER
  5
7D
330
2
100
AcDbSymbolTableRecord
100
AcDbLayerTableRecord
  2
특수지정선
 70
     0
 62
     5
  6
CENTERX2
370
    60
390
F
  0
LAYER
  5
12D
330
2
100
AcDbSymbolTableRecord
100
AcDbLayerTableRecord
  2
Defpoints
 70
     0
 62
     7
  6
Continuous
290
     0
370
    -3
390
F
  0
ENDTAB
  0
TABLE
  2
STYLE
  5
3
330
0
100
AcDbSymbolTable
 70
     2
  0
STYLE
  5
11
330
3
100
AcDbSymbolTableRecord
100
AcDbTextStyleTableRecord
  2
Standard
 70
     0
 40
0.0
 41
1.0
 50
0.0
 71
     0
 42
3.5
  3
txt
  4

  0
STYLE
  5
93
330
3
100
AcDbSymbolTableRecord
100
AcDbTextStyleTableRecord
  2
SLDTEXTSTYLE0
 70
     0
 40
0.0
 41
0.75
 50
0.0
 71
     0
 42
3.5
  3
TXT
  4

  0
ENDTAB
  0
TABLE
  2
VIEW
  5
6
330
0
100
AcDbSymbolTable
 70
     0
  0
ENDTAB
  0
TABLE
  2
UCS
  5
7
330
0
100
AcDbSymbolTable
 70
     0
  0
ENDTAB
  0
TABLE
  2
APPID
  5
9
330
0
100
AcDbSymbolTable
 70
     1
  0
APPID
  5
12
330
9
100
AcDbSymbolTableRecord
100
AcDbRegAppTableRecord
  2
ACAD
 70
     0
  0
ENDTAB
  0
TABLE
  2
DIMSTYLE
  5
A
330
0
100
AcDbSymbolTable
 70
     3
100
AcDbDimStyleTable
  0
DIMSTYLE
105
27
330
A
100
AcDbSymbolTableRecord
100
AcDbDimStyleTableRecord
  2
ISO-25
 70
     0
 41
2.5
 42
0.625
 43
3.75
 44
1.25
 73
     0
 74
     0
 77
     1
 78
     8
140
2.5
141
2.5
143
0.03937007874016
147
0.625
171
     3
172
     1
178
     0
271
     2
272
     2
274
     3
278
    44
283
     0
284
     8
340
11
  0
DIMSTYLE
105
D3
102
{ACAD_REACTORS
330
D2
330
F5
102
}
330
A
100
AcDbSymbolTableRecord
100
AcDbDimStyleTableRecord
  2
SLDDIMSTYLE0
 70
     0
 41
3.302
 44
0.0
 45
0.000000001
 73
     0
 74
     0
 77
     1
 78
    12
 79
     3
140
3.5
147
0.875
172
     1
173
     1
178
     0
271
     2
272
     2
276
     2
284
    12
289
     0
340
93
  0
DIMSTYLE
105
E1
102
{ACAD_REACTORS
330
E0
330
EB
102
}
330
A
100
AcDbSymbolTableRecord
100
AcDbDimStyleTableRecord
  2
SLDDIMSTYLE1
 70
     0
 41
3.302
 44
0.0
 45
0.000000001
 73
     0
 74
     0
 77
     1
 78
    12
 79
     3
140
3.5
147
0.875
173
     1
178
     0
271
     2
272
     2
276
     2
284
    12
340
93
  0
ENDTAB
  0
TABLE
  2
BLOCK_RECORD
  5
1
330
0
100
AcDbSymbolTable
 70
     7
  0
BLOCK_RECORD
  5
1F
330
1
100
AcDbSymbolTableRecord
100
AcDbBlockTableRecord
  2
*Model_Space
340
22
  0
BLOCK_RECORD
  5
1B
330
1
100
AcDbSymbolTableRecord
100
AcDbBlockTableRecord
  2
*Paper_Space
340
1E
  0
BLOCK_RECORD
  5
23
330
1
100
AcDbSymbolTableRecord
100
AcDbBlockTableRecord
  2
*Paper_Space0
340
26
  0
BLOCK_RECORD
  5
7E
330
1
100
AcDbSymbolTableRecord
100
AcDbBlockTableRecord
  2
블럭10
340
0
102
{BLKREFS
331
CB
102
}
  0
BLOCK_RECORD
  5
D4
330
1
100
AcDbSymbolTableRecord
100
AcDbBlockTableRecord
  2
_D
340
0
  0
BLOCK_RECORD
  5
E2
330
1
100
AcDbSymbolTableRecord
100
AcDbBlockTableRecord
  2
_D_1
340
0
  0
BLOCK_RECORD
  5
EC
330
1
100
AcDbSymbolTableRecord
100
AcDbBlockTableRecord
  2
_D_2
340
0
  0
BLOCK_RECORD
  5
F6
330
1
100
AcDbSymbolTableRecord
100
AcDbBlockTableRecord
  2
_D_3
340
0
  0
BLOCK_RECORD
  5
102
330
1
100
AcDbSymbolTableRecord
100
AcDbBlockTableRecord
  2
SW_DOWELSYMBOL_0
340
0
102
{BLKREFS
331
108
102
}
  0
ENDTAB
  0
ENDSEC
  0
SECTION
  2
BLOCKS
  0
BLOCK
  5
20
330
1F
100
AcDbEntity
  8
0
100
AcDbBlockBegin
  2
*Model_Space
 70
     0
 10
0.0
 20
0.0
 30
0.0
  3
*Model_Space
  1

  0
ENDBLK
  5
21
330
1F
100
AcDbEntity
  8
0
100
AcDbBlockEnd
  0
BLOCK
  5
1C
330
1B
100
AcDbEntity
 67
     1
  8
0
100
AcDbBlockBegin
  2
*Paper_Space
 70
     0
 10
0.0
 20
0.0
 30
0.0
  3
*Paper_Space
  1

  0
ENDBLK
  5
1D
330
1B
100
AcDbEntity
 67
     1
  8
0
100
AcDbBlockEnd
  0
BLOCK
  5
24
330
23
100
AcDbEntity
  8
0
100
AcDbBlockBegin
  2
*Paper_Space0
 70
     0
 10
0.0
 20
0.0
 30
0.0
  3
*Paper_Space0
  1

  0
ENDBLK
  5
25
330
23
100
AcDbEntity
  8
0
100
AcDbBlockEnd
  0
BLOCK
  5
7F
330
7E
100
AcDbEntity
  8
0
100
AcDbBlockBegin
  2
블럭10
 70
     2
 10
0.0
 20
0.0
 30
0.0
  3
블럭10
  1

  0
ELLIPSE
  5
81
330
7E
100
AcDbEntity
  8
중심선
100
AcDbEllipse
 10
20.54032771741204
 20
12.0471743016438
 30
0.0
 11
6.600054785286829
 21
-1.261213355974178E-13
 31
0.0
210
0.0
220
0.0
230
1.0
 40
0.636358354079598
 41
0.9219305317359503
 42
6.513795318482858
  0
ELLIPSE
  5
82
330
7E
100
AcDbEntity
  8
중심선
100
AcDbEllipse
 10
20.54032771746488
 20
12.04717430159265
 30
0.0
 11
3.960054785062283
 21
1.540847449632565E-10
 31
0.0
210
0.0
220
0.0
230
1.0
 40
0.3939339440162632
 41
1.131841032648279
 42
5.62031148352944
  0
LINE
  5
83
330
7E
100
AcDbEntity
  8
중심선
100
AcDbLine
 10
2.268634060543552
 20
16.24717430164393
 30
0.0
 11
5.714909304380834
 21
16.24717430164393
 31
0.0
  0
LINE
  5
84
330
7E
100
AcDbEntity
  8
중심선
100
AcDbLine
 10
5.245725140726316
 20
7.84717430164391
 30
0.0
 11
8.692000384563599
 21
7.84717430164391
 31
0.0
  0
LINE
  5
85
330
7E
100
AcDbEntity
  8
중심선
100
AcDbLine
 10
15.74043728645272
 20
16.24717430164393
 30
0.0
 11
8.692000384563599
 21
7.84717430164391
 31
0.0
  0
LINE
  5
86
330
7E
100
AcDbEntity
  8
중심선
100
AcDbLine
 10
0.1404042013395286
 20
13.71084872107135
 30
0.0
 11
3.58671253028996
 21
13.71088815037384
 31
0.0
  0
LINE
  5
87
330
7E
100
AcDbEntity
  8
중심선
100
AcDbLine
 10
2.750260043222114
 20
10.84717430164391
 30
0.0
 11
6.196535287059397
 21
10.84717430164391
 31
0.0
  0
LINE
  5
88
330
7E
100
AcDbEntity
  8
중심선
100
AcDbLine
 10
12.29416204261559
 20
16.24717430164393
 30
0.0
 11
5.245725140726316
 21
7.84717430164391
 31
0.0
  0
LINE
  5
89
330
7E
100
AcDbEntity
  8
중심선
100
AcDbLine
 10
10.72767329541681
 20
16.24717430164393
 30
0.0
 11
6.196535287059397
 21
10.84717430164391
 31
0.0
  0
LINE
  5
8A
330
7E
100
AcDbEntity
  8
중심선
100
AcDbLine
 10
7.28139805157953
 20
16.24717430164393
 30
0.0
 11
2.750260043222114
 21
10.84717430164391
 31
0.0
  0
LINE
  5
8B
330
7E
100
AcDbEntity
  8
중심선
100
AcDbLine
 10
5.714909304380834
 20
16.24717430164393
 30
0.0
 11
3.58671253028996
 21
13.71088815037384
 31
0.0
  0
LINE
  5
8C
330
7E
100
AcDbEntity
  8
중심선
100
AcDbLine
 10
2.268634060543552
 20
16.24717430164393
 30
0.0
 11
0.1404042013395286
 21
13.71084872107135
 31
0.0
  0
LINE
  5
8D
330
7E
100
AcDbEntity
  8
중심선
100
AcDbLine
 10
7.28139805157953
 20
16.24717430164393
 30
0.0
 11
10.72767329541681
 21
16.24717430164393
 31
0.0
  0
LINE
  5
8E
330
7E
100
AcDbEntity
  8
중심선
100
AcDbLine
 10
12.29416204261559
 20
16.24717430164393
 30
0.0
 11
15.74043728645272
 21
16.24717430164393
 31
0.0
  0
LINE
  5
8F
330
7E
100
AcDbEntity
  8
중심선
100
AcDbLine
 10
19.22036997980202
 20
11.08717430171403
 30
0.0
 11
23.66174974927406
 21
11.08717430171406
 31
0.0
  0
LINE
  5
90
330
7E
100
AcDbEntity
  8
중심선
100
AcDbLine
 10
19.22039502424796
 20
13.00717430171391
 30
0.0
 11
19.22036997980202
 21
11.08717430171403
 31
0.0
  0
LINE
  5
91
330
7E
100
AcDbEntity
  8
중심선
100
AcDbLine
 10
19.22039502424796
 20
13.00717430171391
 30
0.0
 11
26.96566020931264
 21
13.00717430171391
 31
0.0
  0
LINE
  5
92
330
7E
100
AcDbEntity
  8
중심선
100
AcDbLine
 10
22.22332737316547
 20
13.45928029700563
 30
0.0
 11
24.52862924686651
 21
15.39360700705356
 31
0.0
  0
ATTDEF
  5
94
330
7E
100
AcDbEntity
  8
FORMAT
 62
     2
100
AcDbText
 10
-16.11926103943555
 20
2.075366912832191
 30
0.0
 40
4.233333333333333
  1
SEME7012035E [ 2 FLUTE ]
 41
0.75
  7
SLDTEXTSTYLE0
 11
-16.11926103943555
 21
-0.0412997538344756
 31
0.0
100
AcDbAttributeDefinition
  3

  2
AUTOATTR0
 70
     0
 74
     1
  0
ENDBLK
  5
80
330
7E
100
AcDbEntity
  8
0
100
AcDbBlockEnd
  0
BLOCK
  5
D5
330
D4
100
AcDbEntity
  8
0
100
AcDbBlockBegin
  2
_D
 70
     0
 10
0.0
 20
0.0
 30
0.0
  3
_D
  1

  0
LINE
  5
D7
330
D4
100
AcDbEntity
  8
치수문자_일반주서
 62
     0
370
    -2
100
AcDbLine
 10
45.0625
 20
-5.999999999999863
 30
0.0
 11
65.17671062034874
 21
-5.999999999999787
 31
0.0
  0
LINE
  5
D8
330
D4
100
AcDbEntity
  8
치수문자_일반주서
 62
     0
370
    -2
100
AcDbLine
 10
45.0625
 20
6.000000000000132
 30
0.0
 11
65.1767106203487
 21
6.000000000000206
 31
0.0
  0
LINE
  5
D9
330
D4
100
AcDbEntity
  8
치수문자_일반주서
 62
     0
370
    -2
100
AcDbLine
 10
65.17671062034874
 20
-5.999999999999787
 30
0.0
 11
65.17671062034864
 21
20.47900000000021
 31
0.0
  0
LINE
  5
DA
330
D4
100
AcDbEntity
  8
치수문자_일반주서
 62
     0
370
    -2
100
AcDbLine
 10
65.17671062034874
 20
-5.999999999999787
 30
0.0
 11
65.1767106203487
 21
6.000000000000206
 31
0.0
  0
LINE
  5
DB
330
D4
100
AcDbEntity
  8
치수문자_일반주서
 62
     0
370
    -2
100
AcDbLine
 10
65.17671062034876
 20
-9.301999999999786
 30
0.0
 11
65.17671062034877
 21
-12.60399999999979
 31
0.0
  0
LINE
  5
DC
330
D4
100
AcDbEntity
  8
치수문자_일반주서
 62
     0
370
    -2
100
AcDbLine
 10
65.17671062034869
 20
9.302000000000206
 30
0.0
 11
65.17671062034867
 21
12.60400000000021
 31
0.0
  0
SOLID
  5
DD
330
D4
100
AcDbEntity
  8
치수문자_일반주서
 62
     0
100
AcDbTrace
 10
65.72704395368208
 20
-9.301999999999785
 30
0.0
 11
64.62637728701543
 21
-9.301999999999788
 31
0.0
 12
65.17671062034874
 22
-5.999999999999787
 32
0.0
 13
65.17671062034874
 23
-5.999999999999787
 33
0.0
  0
SOLID
  5
DE
330
D4
100
AcDbEntity
  8
치수문자_일반주서
 62
     0
100
AcDbTrace
 10
64.62637728701536
 20
9.302000000000204
 30
0.0
 11
65.72704395368201
 21
9.302000000000207
 31
0.0
 12
65.1767106203487
 22
6.000000000000206
 32
0.0
 13
65.1767106203487
 23
6.000000000000206
 33
0.0
  0
MTEXT
  5
DF
330
D4
100
AcDbEntity
  8
치수문자_일반주서
 62
     0
100
AcDbMText
 10
60.80171062034866
 20
16.54150000000019
 30
0.0
 40
3.5
 41
0.0
 71
     2
 72
     1
  1
\A1;%%c12
  7
SLDTEXTSTYLE0
 11
-3.552713678800502E-15
 21
1.0
 31
0.0
 73
     1
 44
1.0
  0
POINT
  5
137
330
D4
100
AcDbEntity
  8
Defpoints
 62
     0
100
AcDbPoint
 10
45.0
 20
-5.999999999999863
 30
0.0
  0
POINT
  5
138
330
D4
100
AcDbEntity
  8
Defpoints
 62
     0
100
AcDbPoint
 10
45.0
 20
6.000000000000132
 30
0.0
  0
POINT
  5
139
330
D4
100
AcDbEntity
  8
Defpoints
 62
     0
100
AcDbPoint
 10
65.1767106203487
 20
6.000000000000208
 30
0.0
  0
ENDBLK
  5
D6
330
D4
100
AcDbEntity
  8
0
100
AcDbBlockEnd
  0
BLOCK
  5
E3
330
E2
100
AcDbEntity
  8
0
100
AcDbBlockBegin
  2
_D_1
 70
     0
 10
0.0
 20
0.0
 30
0.0
  3
_D_1
  1

  0
LINE
  5
E5
330
E2
100
AcDbEntity
  8
치수문자_일반주서
 62
     0
370
    -2
100
AcDbLine
 10
-44.99999999999999
 20
5.062499999999997
 30
0.0
 11
-45.0
 21
26.78841044024269
 31
0.0
  0
LINE
  5
E6
330
E2
100
AcDbEntity
  8
치수문자_일반주서
 62
     0
370
    -2
100
AcDbLine
 10
45.0
 20
6.062500000000132
 30
0.0
 11
44.99999999999999
 21
26.78841044024269
 31
0.0
  0
LINE
  5
E7
330
E2
100
AcDbEntity
  8
치수문자_일반주서
 62
     0
370
    -2
100
AcDbLine
 10
-41.698
 20
26.78841044024269
 30
0.0
 11
41.69799999999999
 21
26.78841044024269
 31
0.0
  0
SOLID
  5
E8
330
E2
100
AcDbEntity
  8
치수문자_일반주서
 62
     0
100
AcDbTrace
 10
-41.698
 20
27.33874377357603
 30
0.0
 11
-41.698
 21
26.23807710690936
 31
0.0
 12
-45.0
 22
26.78841044024269
 32
0.0
 13
-45.0
 23
26.78841044024269
 33
0.0
  0
SOLID
  5
E9
330
E2
100
AcDbEntity
  8
치수문자_일반주서
 62
     0
100
AcDbTrace
 10
41.69799999999999
 20
26.23807710690936
 30
0.0
 11
41.69799999999999
 21
27.33874377357603
 31
0.0
 12
44.99999999999999
 22
26.78841044024269
 32
0.0
 13
44.99999999999999
 23
26.78841044024269
 33
0.0
  0
MTEXT
  5
EA
330
E2
100
AcDbEntity
  8
치수문자_일반주서
 62
     0
100
AcDbMText
 10
0.0000000000000062
 20
31.16341044024269
 30
0.0
 40
3.5
 41
0.0
 71
     2
 72
     1
  1
\A1;90
  7
SLDTEXTSTYLE0
 73
     1
 44
1.0
  0
POINT
  5
12E
330
E2
100
AcDbEntity
  8
Defpoints
 62
     0
100
AcDbPoint
 10
-44.99999999999999
 20
4.999999999999997
 30
0.0
  0
POINT
  5
12F
330
E2
100
AcDbEntity
  8
Defpoints
 62
     0
100
AcDbPoint
 10
45.0
 20
6.000000000000132
 30
0.0
  0
POINT
  5
130
330
E2
100
AcDbEntity
  8
Defpoints
 62
     0
100
AcDbPoint
 10
45.0
 20
26.78841044024269
 30
0.0
  0
ENDBLK
  5
E4
330
E2
100
AcDbEntity
  8
0
100
AcDbBlockEnd
  0
BLOCK
  5
ED
330
EC
100
AcDbEntity
  8
0
100
AcDbBlockBegin
  2
_D_2
 70
     0
 10
0.0
 20
0.0
 30
0.0
  3
_D_2
  1

  0
LINE
  5
EF
330
EC
100
AcDbEntity
  8
치수문자_일반주서
 62
     0
370
    -2
100
AcDbLine
 10
9.999999999994774
 20
5.849189831837928
 30
0.0
 11
9.99999999999477
 21
17.44034073650282
 31
0.0
  0
LINE
  5
F0
330
EC
100
AcDbEntity
  8
치수문자_일반주서
 62
     0
370
    -2
100
AcDbLine
 10
45.0
 20
6.062500000000132
 30
0.0
 11
45.0
 21
17.44034073650282
 31
0.0
  0
LINE
  5
F1
330
EC
100
AcDbEntity
  8
치수문자_일반주서
 62
     0
370
    -2
100
AcDbLine
 10
13.30199999999477
 20
17.44034073650282
 30
0.0
 11
41.698
 21
17.44034073650282
 31
0.0
  0
SOLID
  5
F2
330
EC
100
AcDbEntity
  8
치수문자_일반주서
 62
     0
100
AcDbTrace
 10
13.30199999999477
 20
17.99067406983616
 30
0.0
 11
13.30199999999477
 21
16.89000740316949
 31
0.0
 12
9.99999999999477
 22
17.44034073650282
 32
0.0
 13
9.99999999999477
 23
17.44034073650282
 33
0.0
  0
SOLID
  5
F3
330
EC
100
AcDbEntity
  8
치수문자_일반주서
 62
     0
100
AcDbTrace
 10
41.698
 20
16.89000740316949
 30
0.0
 11
41.698
 21
17.99067406983616
 31
0.0
 12
45.0
 22
17.44034073650282
 32
0.0
 13
45.0
 23
17.44034073650282
 33
0.0
  0
MTEXT
  5
F4
330
EC
100
AcDbEntity
  8
치수문자_일반주서
 62
     0
100
AcDbMText
 10
27.49999999999999
 20
21.81534073650282
 30
0.0
 40
3.5
 41
0.0
 71
     2
 72
     1
  1
\A1;35
  7
SLDTEXTSTYLE0
 73
     1
 44
1.0
  0
POINT
  5
131
330
EC
100
AcDbEntity
  8
Defpoints
 62
     0
100
AcDbPoint
 10
9.999999999994774
 20
5.786689831837928
 30
0.0
  0
POINT
  5
132
330
EC
100
AcDbEntity
  8
Defpoints
 62
     0
100
AcDbPoint
 10
45.0
 20
6.000000000000132
 30
0.0
  0
POINT
  5
133
330
EC
100
AcDbEntity
  8
Defpoints
 62
     0
100
AcDbPoint
 10
45.0
 20
17.44034073650282
 30
0.0
  0
ENDBLK
  5
EE
330
EC
100
AcDbEntity
  8
0
100
AcDbBlockEnd
  0
BLOCK
  5
F7
330
F6
100
AcDbEntity
  8
0
100
AcDbBlockBegin
  2
_D_3
 70
     0
 10
0.0
 20
0.0
 30
0.0
  3
_D_3
  1

  0
LINE
  5
F9
330
F6
100
AcDbEntity
  8
치수문자_일반주서
 62
     0
370
    -2
100
AcDbLine
 10
-44.06249999999999
 20
5.999999999999998
 30
0.0
 11
-55.72452654221588
 21
5.999999999999952
 31
0.0
  0
LINE
  5
FA
330
F6
100
AcDbEntity
  8
치수문자_일반주서
 62
     0
370
    -2
100
AcDbLine
 10
-44.06249999999999
 20
-5.999999999999995
 30
0.0
 11
-55.72452654221583
 21
-6.000000000000043
 31
0.0
  0
LINE
  5
FB
330
F6
100
AcDbEntity
  8
치수문자_일반주서
 62
     0
370
    -2
100
AcDbLine
 10
-55.72452654221588
 20
5.999999999999952
 30
0.0
 11
-55.72452654221593
 21
20.47899999999995
 31
0.0
  0
LINE
  5
FC
330
F6
100
AcDbEntity
  8
치수문자_일반주서
 62
     0
370
    -2
100
AcDbLine
 10
-55.72452654221588
 20
5.999999999999952
 30
0.0
 11
-55.72452654221583
 21
-6.000000000000043
 31
0.0
  0
LINE
  5
FD
330
F6
100
AcDbEntity
  8
치수문자_일반주서
 62
     0
370
    -2
100
AcDbLine
 10
-55.72452654221589
 20
9.301999999999952
 30
0.0
 11
-55.72452654221591
 21
12.60399999999995
 31
0.0
  0
LINE
  5
FE
330
F6
100
AcDbEntity
  8
치수문자_일반주서
 62
     0
370
    -2
100
AcDbLine
 10
-55.72452654221582
 20
-9.302000000000042
 30
0.0
 11
-55.72452654221581
 21
-12.60400000000004
 31
0.0
  0
SOLID
  5
FF
330
F6
100
AcDbEntity
  8
치수문자_일반주서
 62
     0
100
AcDbTrace
 10
-56.27485987554923
 20
9.30199999999995
 30
0.0
 11
-55.17419320888256
 21
9.301999999999953
 31
0.0
 12
-55.72452654221588
 22
5.999999999999952
 32
0.0
 13
-55.72452654221588
 23
5.999999999999952
 33
0.0
  0
SOLID
  5
100
330
F6
100
AcDbEntity
  8
치수문자_일반주서
 62
     0
100
AcDbTrace
 10
-55.17419320888249
 20
-9.30200000000004
 30
0.0
 11
-56.27485987554915
 21
-9.302000000000044
 31
0.0
 12
-55.72452654221583
 22
-6.000000000000043
 32
0.0
 13
-55.72452654221583
 23
-6.000000000000043
 33
0.0
  0
MTEXT
  5
101
330
F6
100
AcDbEntity
  8
치수문자_일반주서
 62
     0
100
AcDbMText
 10
-60.09952654221591
 20
16.54149999999994
 30
0.0
 40
3.5
 41
0.0
 71
     2
 72
     1
  1
\A1;%%c12
  7
SLDTEXTSTYLE0
 11
-3.552713678800503E-15
 21
1.0
 31
0.0
 73
     1
 44
1.0
  0
POINT
  5
134
330
F6
100
AcDbEntity
  8
Defpoints
 62
     0
100
AcDbPoint
 10
-43.99999999999999
 20
5.999999999999998
 30
0.0
  0
POINT
  5
135
330
F6
100
AcDbEntity
  8
Defpoints
 62
     0
100
AcDbPoint
 10
-43.99999999999999
 20
-5.999999999999995
 30
0.0
  0
POINT
  5
136
330
F6
100
AcDbEntity
  8
Defpoints
 62
     0
100
AcDbPoint
 10
-55.72452654221583
 20
-6.000000000000038
 30
0.0
  0
ENDBLK
  5
F8
330
F6
100
AcDbEntity
  8
0
100
AcDbBlockEnd
  0
BLOCK
  5
103
330
102
100
AcDbEntity
  8
0
100
AcDbBlockBegin
  2
SW_DOWELSYMBOL_0
 70
     0
 10
0.0
 20
0.0
 30
0.0
  3
SW_DOWELSYMBOL_0
  1

  0
CIRCLE
  5
105
330
102
100
AcDbEntity
  8
외형선
 62
     0
100
AcDbCircle
 10
0.0
 20
0.0
 30
0.0
 40
3.000000000000004
  0
HATCH
  5
106
330
102
100
AcDbEntity
  8
0
  6
Continuous
 62
     0
370
    30
100
AcDbHatch
 10
0.0
 20
0.0
 30
0.0
210
0.0
220
0.0
230
1.0
  2
SOLID
 70
     1
 71
     0
 91
        1
 92
        0
 93
        3
 72
     2
 10
0.0000000000000104
 20
0.0
 40
3.000000000000004
 50
0.0
 51
90.0
 73
     1
 72
     1
 10
0.0000000000000104
 20
3.000000000000004
 11
0.0000000000000104
 21
0.0
 72
     1
 10
0.0000000000000104
 20
0.0
 11
3.000000000000015
 21
0.0
 97
        0
 75
     0
 76
     1
 98
        1
 10
0.0
 20
0.0
  0
HATCH
  5
107
330
102
100
AcDbEntity
  8
0
  6
Continuous
 62
     0
370
    30
100
AcDbHatch
 10
0.0
 20
0.0
 30
0.0
210
0.0
220
0.0
230
1.0
  2
SOLID
 70
     1
 71
     0
 91
        1
 92
        0
 93
        3
 72
     2
 10
0.0000000000000104
 20
0.0
 40
3.000000000000004
 50
180.0
 51
270.0000000000008
 73
     1
 72
     1
 10
0.0000000000000104
 20
-3.000000000000004
 11
0.0000000000000104
 21
0.0
 72
     1
 10
0.0000000000000104
 20
0.0
 11
-2.999999999999994
 21
0.0
 97
        0
 75
     0
 76
     1
 98
        1
 10
0.0
 20
0.0
  0
ENDBLK
  5
104
330
102
100
AcDbEntity
  8
0
100
AcDbBlockEnd
  0
ENDSEC
  0
SECTION
  2
ENTITIES
  0
LINE
  5
95
330
1F
100
AcDbEntity
  8
0
  6
Continuous
 62
     1
370
    15
100
AcDbLine
 10
15.68738334713371
 20
6.000000000000008
 30
0.0
 11
12.77951962255681
 21
6.000000000000008
 31
0.0
  0
SPLINE
  5
96
330
1F
100
AcDbEntity
  8
0
  6
Continuous
 62
     1
370
    15
100
AcDbSpline
210
0.0
220
0.0
230
1.0
 70
     8
 71
     3
 72
     9
 73
     5
 74
     0
 42
0.000000001
 43
0.00000001
 40
0.0
 40
0.0
 40
0.0
 40
0.0
 40
0.4723297812291528
 40
1.0
 40
1.0
 40
1.0
 40
1.0
 10
29.45620219291119
 20
1.537412637121256
 30
0.0
 10
29.19308164270893
 20
1.66263201363176
 30
0.0
 10
28.63601206831635
 20
1.92774207335453
 30
0.0
 10
28.08243266391881
 20
2.217311854299703
 30
0.0
 10
27.79032529849332
 20
2.370109203960467
 30
0.0
  0
SPLINE
  5
97
330
1F
100
AcDbEntity
  8
0
  6
Continuous
 62
     1
370
    15
100
AcDbSpline
210
0.0
220
0.0
230
1.0
 70
     8
 71
     3
 72
    18
 73
    14
 74
     0
 42
0.000000001
 43
0.00000001
 40
0.0
 40
0.0
 40
0.0
 40
0.0
 40
0.1421961025422824
 40
0.248848098573892
 40
0.334673385217157
 40
0.4172312670615783
 40
0.492899486992897
 40
0.5575540257376099
 40
0.6469190289250154
 40
0.760292884812965
 40
0.8586971811471914
 40
0.9405513897958059
 40
1.0
 40
1.0
 40
1.0
 40
1.0
 10
27.47237548031115
 20
4.767833648807674
 30
0.0
 10
27.24358599252958
 20
4.756270079421817
 30
0.0
 10
26.84319647417966
 20
4.736033432967027
 30
0.0
 10
26.29168166895178
 20
4.715986035592489
 30
0.0
 10
25.83398527226095
 20
4.702995023570684
 30
0.0
 10
25.43215381259161
 20
4.694368637858486
 30
0.0
 10
25.06704957373149
 20
4.689075761842321
 30
0.0
 10
24.69148118190343
 20
4.685923325197788
 30
0.0
 10
24.25287186937351
 20
4.685185394003581
 30
0.0
 10
23.75745341012266
 20
4.688689015638916
 30
0.0
 10
23.27530545370524
 20
4.696709551748757
 30
0.0
 10
22.88219914000307
 20
4.705962739436181
 30
0.0
 10
22.65075346607777
 20
4.713530550851057
 30
0.0
 10
22.55338015276146
 20
4.716714463773351
 30
0.0
  0
SPLINE
  5
98
330
1F
100
AcDbEntity
  8
0
  6
Continuous
 62
     1
370
    15
100
AcDbSpline
210
0.0
220
0.0
230
1.0
 70
     8
 71
     3
 72
    27
 73
    23
 74
     0
 42
0.000000001
 43
0.00000001
 40
0.0
 40
0.0
 40
0.0
 40
0.0
 40
0.0758408277539918
 40
0.1466666358872859
 40
0.2013105170710602
 40
0.2397760896826285
 40
0.2781340969059731
 40
0.3149846502426975
 40
0.3646908209194284
 40
0.4167576532385352
 40
0.4554316513489155
 40
0.4875768838928008
 40
0.5330435261547645
 40
0.5879464041048581
 40
0.6506391814340656
 40
0.699113295320379
 40
0.7426160954989622
 40
0.7828093129175737
 40
0.8255449137722639
 40
0.8700879877015626
 40
0.9264375146336763
 40
1.0
 40
1.0
 40
1.0
 40
1.0
 10
18.44868623001538
 20
-4.9928221699845
 30
0.0
 10
18.66788583983139
 20
-4.971086418040931
 30
0.0
 10
19.09179035553373
 20
-4.9290522036151
 30
0.0
 10
19.71054825815168
 20
-4.877649736952226
 30
0.0
 10
20.2103402321652
 20
-4.839906480703915
 30
0.0
 10
20.60607466631645
 20
-4.812655907807515
 30
0.0
 10
20.94846598836771
 20
-4.790998069878021
 30
0.0
 10
21.32483955806419
 20
-4.769286253137704
 30
0.0
 10
21.74277886147387
 20
-4.748054515362942
 30
0.0
 10
22.16620594926046
 20
-4.729901026348075
 30
0.0
 10
22.53602829584301
 20
-4.716664643274776
 30
0.0
 10
22.8855185424968
 20
-4.706084703881761
 30
0.0
 10
23.28446408463626
 20
-4.696417571387117
 30
0.0
 10
23.77592828382797
 20
-4.688473142433672
 30
0.0
 10
24.27747703263925
 20
-4.685103289591719
 30
0.0
 10
24.74289827450022
 20
-4.686116672520177
 30
0.0
 10
25.13973532862762
 20
-4.689888515797415
 30
0.0
 10
25.52001013222005
 20
-4.696057132732682
 30
0.0
 10
25.90608606738022
 20
-4.704893895838929
 30
0.0
 10
26.3450676147994
 20
-4.717772176927011
 30
0.0
 10
26.8713627822427
 20
-4.737384735972417
 30
0.0
 10
27.25509032509982
 20
-4.756825400940876
 30
0.0
 10
27.47237548031115
 20
-4.76783364880766
 30
0.0
  0
SPLINE
  5
99
330
1F
100
AcDbEntity
  8
0
  6
Continuous
 62
     1
370
    15
100
AcDbSpline
210
0.0
220
0.0
230
1.0
 70
     8
 71
     3
 72
    17
 73
    13
 74
     0
 42
0.000000001
 43
0.00000001
 40
0.0
 40
0.0
 40
0.0
 40
0.0
 40
0.1716344349533038
 40
0.3015894890383776
 40
0.397609302821044
 40
0.4794653261229225
 40
0.5505816873879926
 40
0.6177750408843059
 40
0.6850478944462131
 40
0.7790827324073496
 40
0.8947819556880809
 40
1.0
 40
1.0
 40
1.0
 40
1.0
 10
32.28814069345248
 20
-4.512816435945261
 30
0.0
 10
32.54039742155846
 20
-4.474129795605282
 30
0.0
 10
32.98365333204445
 20
-4.406151105338844
 30
0.0
 10
33.57630216969323
 20
-4.325800464706067
 30
0.0
 10
34.04334017817807
 20
-4.267156268066794
 30
0.0
 10
34.41774953081236
 20
-4.223238866763034
 30
0.0
 10
34.74570606226447
 20
-4.18739818888621
 30
0.0
 10
35.052545937029
 20
-4.15600943220122
 30
0.0
 10
35.39384027989831
 20
-4.123414078189124
 30
0.0
 10
35.80808381352362
 20
-4.087349967832687
 30
0.0
 10
36.27931070858426
 20
-4.05086997652057
 30
0.0
 10
36.60898540164336
 20
-4.030370063613623
 30
0.0
 10
36.76600221993377
 20
-4.020606405171988
 30
0.0
  0
SPLINE
  5
9A
330
1F
100
AcDbEntity
  8
0
  6
Continuous
 62
     1
370
    15
100
AcDbSpline
210
0.0
220
0.0
230
1.0
 70
     8
 71
     3
 72
     9
 73
     5
 74
     0
 42
0.000000001
 43
0.00000001
 40
0.0
 40
0.0
 40
0.0
 40
0.0
 40
0.4984037378458894
 40
1.0
 40
1.0
 40
1.0
 40
1.0
 10
10.32304290392073
 20
4.120272351634393
 30
0.0
 10
10.26913164990657
 20
4.114532811154419
 30
0.0
 10
10.16096381343095
 20
4.103016965577535
 30
0.0
 10
10.05376867882601
 20
4.090197944325388
 30
0.0
 10
9.999999999987072
 20
4.083767971180833
 30
0.0
  0
SPLINE
  5
9B
330
1F
100
AcDbEntity
  8
0
  6
Continuous
 62
     1
370
    15
100
AcDbSpline
210
0.0
220
0.0
230
1.0
 70
     8
 71
     3
 72
    32
 73
    28
 74
     0
 42
0.000000001
 43
0.00000001
 40
0.0
 40
0.0
 40
0.0
 40
0.0
 40
0.0674198399533521
 40
0.1234692711485265
 40
0.1688808479609616
 40
0.2039082118623027
 40
0.2369546832341292
 40
0.2808432540122054
 40
0.3179927763321973
 40
0.3548994840635899
 40
0.3878887136176326
 40
0.414991002364469
 40
0.4459897738559922
 40
0.4892582522724715
 40
0.5521015875820553
 40
0.6014051096967885
 40
0.6396229918994973
 40
0.670882443973035
 40
0.7027690406726048
 40
0.7408658709715523
 40
0.7839568653597228
 40
0.8170635231841665
 40
0.8296063341039077
 40
0.8451105677703481
 40
0.8698950061353219
 40
0.9245514652162465
 40
1.0
 40
1.0
 40
1.0
 40
1.0
 10
42.77680368093306
 20
4.10424606202101
 30
0.0
 10
42.54988973168126
 20
4.085445528716198
 30
0.0
 10
42.13433104825902
 20
4.051015186758178
 30
0.0
 10
41.53721400876503
 20
4.013968944445445
 30
0.0
 10
41.04593096977528
 20
3.989654815930447
 30
0.0
 10
40.64489525285548
 20
3.973587030872239
 30
0.0
 10
40.25849216780311
 20
3.961579126535649
 30
0.0
 10
39.85829827327892
 20
3.953033034347332
 30
0.0
 10
39.44579328145367
 20
3.948558310688449
 30
0.0
 10
39.07131682417029
 20
3.948042487189956
 30
0.0
 10
38.73214343318663
 20
3.950626087114649
 30
0.0
 10
38.41357853582188
 20
3.955537324514368
 30
0.0
 10
38.05895984609995
 20
3.963660467746789
 30
0.0
 10
37.57931505248581
 20
3.979176620973919
 30
0.0
 10
37.03557017211566
 20
4.00406526901638
 30
0.0
 10
36.50951107018891
 20
4.0356042047364
 30
0.0
 10
36.09412862410605
 20
4.065175440186009
 30
0.0
 10
35.74010224991768
 20
4.093313636674427
 30
0.0
 10
35.38667369294679
 20
4.12406481906316
 30
0.0
 10
34.99078539379672
 20
4.161808529407559
 30
0.0
 10
34.59058031143347
 20
4.203838909089495
 30
0.0
 10
34.28080086245285
 20
4.239197502254751
 30
0.0
 10
34.0698025985368
 20
4.264412242769321
 30
0.0
 10
33.8866146983408
 20
4.286847988555321
 30
0.0
 10
33.55458646240046
 20
4.329040236576156
 30
0.0
 10
33.01140532127562
 20
4.402194241295951
 30
0.0
 10
32.55361536950878
 20
4.472212499074264
 30
0.0
 10
32.28814069345248
 20
4.512816435945274
 30
0.0
  0
LINE
  5
9C
330
1F
100
AcDbEntity
  8
0
  6
Continuous
 62
     1
370
    15
100
AcDbLine
 10
12.77951962255679
 20
-5.999999999999997
 30
0.0
 11
15.68738334713372
 21
-5.999999999999997
 31
0.0
  0
LINE
  5
9D
330
1F
100
AcDbEntity
  8
0
  6
Continuous
 62
   131
370
    15
100
AcDbLine
 10
7.97001414675009
 20
6.000000000000005
 30
0.0
 11
-43.99999999999999
 21
6.000000000000002
 31
0.0
  0
LINE
  5
9E
330
1F
100
AcDbEntity
  8
0
  6
Continuous
 62
   131
370
    15
100
AcDbLine
 10
-43.99999999999999
 20
-5.999999999999998
 30
0.0
 11
7.97001414675009
 21
-5.999999999999995
 31
0.0
  0
LINE
  5
9F
330
1F
100
AcDbEntity
  8
0
  6
Continuous
 62
   131
370
    15
100
AcDbLine
 10
-43.99999999999999
 20
5.999999999999998
 30
0.0
 11
-44.99999999999999
 21
4.999999999999996
 31
0.0
  0
LINE
  5
A0
330
1F
100
AcDbEntity
  8
0
  6
Continuous
 62
   131
370
    15
100
AcDbLine
 10
-44.99999999999999
 20
-4.999999999999994
 30
0.0
 11
-43.99999999999999
 21
-5.999999999999995
 31
0.0
  0
SPLINE
  5
A1
330
1F
100
AcDbEntity
  8
0
  6
Continuous
 62
   131
370
    15
100
AcDbSpline
210
0.0
220
0.0
230
1.0
 70
     8
 71
     3
 72
     9
 73
     5
 74
     0
 42
0.000000001
 43
0.00000001
 40
0.0
 40
0.0
 40
0.0
 40
0.0
 40
0.5599455606678032
 40
1.0
 40
1.0
 40
1.0
 40
1.0
 10
9.999999999999996
 20
4.083767971181651
 30
0.0
 10
9.617727250776271
 20
4.058411466516842
 30
0.0
 10
8.935030974431445
 20
4.013127591715565
 30
0.0
 10
8.264908209229608
 20
3.985401674360559
 30
0.0
 10
7.970017711504973
 20
3.973200761343931
 30
0.0
  0
SPLINE
  5
A2
330
1F
100
AcDbEntity
  8
0
  6
Continuous
 62
     1
370
    15
100
AcDbSpline
210
0.0
220
0.0
230
1.0
 70
     8
 71
     3
 72
    50
 73
    46
 74
     0
 42
0.000000001
 43
0.00000001
 40
0.0
 40
0.0
 40
0.0
 40
0.0
 40
0.0625
 40
0.0625
 40
0.125
 40
0.125
 40
0.1875000000000001
 40
0.1875000000000001
 40
0.2500000000000001
 40
0.2500000000000001
 40
0.3125000000000001
 40
0.3125000000000001
 40
0.3750000000000001
 40
0.3750000000000001
 40
0.4375000000000001
 40
0.4375000000000001
 40
0.5000000000000001
 40
0.5000000000000001
 40
0.5625000000000001
 40
0.5625000000000001
 40
0.625
 40
0.625
 40
0.65625
 40
0.65625
 40
0.6875
 40
0.6875
 40
0.71875
 40
0.71875
 40
0.75
 40
0.75
 40
0.7812500000000001
 40
0.7812500000000001
 40
0.8125000000000001
 40
0.8125000000000001
 40
0.8437500000000001
 40
0.8437500000000001
 40
0.8750000000000001
 40
0.8750000000000001
 40
0.9062500000000001
 40
0.9062500000000001
 40
0.9375000000000001
 40
0.9375000000000001
 40
0.9687500000000001
 40
0.9687500000000001
 40
1.0
 40
1.0
 40
1.0
 40
1.0
 10
45.0
 20
-5.999999999999863
 30
0.0
 10
44.27481239337524
 20
-5.977655389568748
 30
0.0
 10
43.53782040863036
 20
-5.915701412922577
 30
0.0
 10
42.08720530281407
 20
-5.706447205412445
 30
0.0
 10
41.35045021687698
 20
-5.558062554198727
 30
0.0
 10
39.89959760936289
 20
-5.183320056566127
 30
0.0
 10
39.16307704872376
 20
-4.955072651751358
 30
0.0
 10
37.71198933169776
 20
-4.431367902051448
 30
0.0
 10
36.97570092154623
 20
-4.133349180765057
 30
0.0
 10
35.52438048849799
 20
-3.483786519789573
 30
0.0
 10
34.78832185273617
 20
-3.129165312928488
 30
0.0
 10
33.33677109844623
 20
-2.38240804363262
 30
0.0
 10
32.6009398597016
 20
-1.986848731960429
 30
0.0
 10
31.14916118022825
 20
-1.17585423410895
 30
0.0
 10
30.41355495986662
 20
-0.7568248880978573
 30
0.0
 10
28.96155075253292
 20
0.0826099910734913
 30
0.0
 10
28.22616717067131
 20
0.5066089327951074
 30
0.0
 10
26.77393983405201
 20
1.337428008102122
 30
0.0
 10
26.03877650957173
 20
1.74768046649141
 30
0.0
 10
24.58632844348016
 20
2.533204111676894
 30
0.0
 10
23.85138299403972
 20
2.911604449111186
 30
0.0
 10
22.76188319814597
 20
3.440762891164348
 30
0.0
 10
22.39600781355087
 20
3.611559039315829
 30
0.0
 10
21.66489061715795
 20
3.939056595014546
 30
0.0
 10
21.3007660613861
 20
4.095603384851796
 30
0.0
 10
20.5743249010325
 20
4.392808080565369
 30
0.0
 10
20.20842557440001
 20
4.533937295947029
 30
0.0
 10
19.47732188646837
 20
4.798806188203439
 30
0.0
 10
19.11331350878475
 20
4.922419267488907
 30
0.0
 10
18.38676558706533
 20
5.150929983198519
 30
0.0
 10
18.02084293417919
 20
5.256160388724375
 30
0.0
 10
17.28975398243447
 20
5.446708479275167
 30
0.0
 10
16.92585875541977
 20
5.531938841298143
 30
0.0
 10
16.19920527465288
 20
5.681660659002914
 30
0.0
 10
15.83325991142818
 20
5.746345016748931
 30
0.0
 10
15.10218692351354
 20
5.854161385607929
 30
0.0
 10
14.73840181911866
 20
5.897255037494482
 30
0.0
 10
14.01164398220913
 20
5.961570490599315
 30
0.0
 10
13.64567652468891
 20
5.982851446536705
 30
0.0
 10
12.91462072815816
 20
6.003177673842351
 30
0.0
 10
12.55094271772102
 20
6.002240940748762
 30
0.0
 10
11.82408172815359
 20
5.978302513247754
 30
0.0
 10
11.45809279250536
 20
5.955238824545248
 30
0.0
 10
10.72705541481605
 20
5.887179010968642
 30
0.0
 10
10.36348146907838
 20
5.842261728396708
 30
0.0
 10
9.999999999994774
 20
5.786689831837929
 30
0.0
  0
SPLINE
  5
A3
330
1F
100
AcDbEntity
  8
0
  6
Continuous
 62
     1
370
    15
100
AcDbSpline
210
0.0
220
0.0
230
1.0
 70
     8
 71
     3
 72
    17
 73
    13
 74
     0
 42
0.000000001
 43
0.00000001
 40
0.0
 40
0.0
 40
0.0
 40
0.0
 40
0.0191447517249058
 40
0.1264335050129977
 40
0.2337225356988355
 40
0.3431896967518064
 40
0.4526572204547291
 40
0.5621250988529125
 40
0.6715933239828507
 40
0.7810618878724175
 40
0.890530782541061
 40
1.0
 40
1.0
 40
1.0
 40
1.0
 10
30.09668771791512
 20
-0.5699942856464454
 30
0.0
 10
29.96843924498167
 20
-0.5194279376087484
 30
0.0
 10
29.12147584850958
 20
-0.185483642588406
 30
0.0
 10
27.55579505825968
 20
0.456878132582625
 30
0.0
 10
25.38505467050951
 20
1.316902879613044
 30
0.0
 10
23.19971692058605
 20
2.128135312884909
 30
0.0
 10
20.999782898746
 20
2.849008457058066
 30
0.0
 10
18.79984092057097
 20
3.442648545064002
 30
0.0
 10
16.59989128446428
 20
3.883463735500975
 30
0.0
 10
14.39993411966092
 20
4.147389545543412
 30
0.0
 10
12.1999696708189
 20
4.239257012276448
 30
0.0
 10
10.73332394437825
 20
4.141674970430878
 30
0.0
 10
9.999999999987072
 20
4.092883877573298
 30
0.0
  0
SPLINE
  5
A4
330
1F
100
AcDbEntity
  8
0
  6
Continuous
 62
   131
370
    15
100
AcDbSpline
210
0.0
220
0.0
230
1.0
 70
    24
 71
     3
 72
    11
 73
     7
 74
     0
 42
0.000000001
 43
0.00000001
 40
0.0
 40
0.0
 40
0.0
 40
0.0
 40
0.2938770836153091
 40
0.5182021380448738
 40
0.7490326342497596
 40
1.0
 40
1.0
 40
1.0
 40
1.0
 10
9.999999999999998
 20
5.786689831838729
 30
0.0
 10
9.999999999999998
 20
5.611941971158153
 30
0.0
 10
9.999999999999998
 20
5.303803909117285
 30
0.0
 10
9.999999999999996
 20
4.87619273276888
 30
0.0
 10
10.00000000000001
 20
4.492902401784027
 30
0.0
 10
9.999999999999979
 20
4.270996211761284
 30
0.0
 10
9.999999999999957
 20
4.155405802688718
 30
0.0
  0
SPLINE
  5
A5
330
1F
100
AcDbEntity
  8
0
  6
Continuous
 62
     1
370
    15
100
AcDbSpline
210
0.0
220
0.0
230
1.0
 70
     8
 71
     3
 72
    24
 73
    20
 74
     0
 42
0.000000001
 43
0.00000001
 40
0.0
 40
0.0
 40
0.0
 40
0.0
 40
0.0624399316105102
 40
0.1248445902979205
 40
0.1872304468496461
 40
0.24961407092413
 40
0.3120120439336477
 40
0.3744408717974927
 40
0.433329747066072
 40
0.492163550027811
 40
0.5509748615733078
 40
0.6098001972328485
 40
0.6686759485561821
 40
0.7343740511685573
 40
0.8000510456596179
 40
0.8657131130093378
 40
0.931366531028032
 40
0.9970176015546217
 40
1.0
 40
1.0
 40
1.0
 40
1.0
 10
45.0
 20
-5.693645215391387
 30
0.0
 10
44.38982990502484
 20
-5.565552425139153
 30
0.0
 10
43.16983440608048
 20
-5.309439205494531
 30
0.0
 10
41.34048472972591
 20
-4.713887259926584
 30
0.0
 10
39.51177424232314
 20
-3.985356197820295
 30
0.0
 10
37.683147147039
 20
-3.130286466164383
 30
0.0
 10
35.85401749011915
 20
-2.179310257947514
 30
0.0
 10
34.0588443856477
 20
-1.179981146461931
 30
0.0
 10
32.29828111634149
 20
-0.1672055952265064
 30
0.0
 10
30.57358622373999
 20
0.8307902524492644
 30
0.0
 10
28.84959094167996
 20
1.805699048774398
 30
0.0
 10
27.12514704356668
 20
2.731185287102357
 30
0.0
 10
25.33298841528922
 20
3.61393860359069
 30
0.0
 10
23.47380519948085
 20
4.418215888663257
 30
0.0
 10
21.54849096793979
 20
5.098402778221928
 30
0.0
 10
19.62368510374147
 20
5.610369132488046
 30
0.0
 10
17.6991837271804
 20
5.906975966685789
 30
0.0
 10
16.38712566766979
 20
6.030942796701191
 30
0.0
 10
15.71652368270726
 20
5.997022299671375
 30
0.0
 10
15.68738334713371
 20
5.995548318549284
 30
0.0
  0
LINE
  5
A6
330
1F
100
AcDbEntity
  8
0
  6
Continuous
 62
     1
370
    15
100
AcDbLine
 10
45.0
 20
-5.999999999999863
 30
0.0
 11
45.00000000000001
 21
-5.693645215391396
 31
0.0
  0
SPLINE
  5
A7
330
1F
100
AcDbEntity
  8
0
  6
Continuous
 62
     1
370
    15
100
AcDbSpline
210
0.0
220
0.0
230
1.0
 70
     8
 71
     3
 72
    16
 73
    12
 74
     0
 42
0.000000001
 43
0.00000001
 40
0.0
 40
0.0
 40
0.0
 40
0.0
 40
0.1188922331687189
 40
0.2377218938571513
 40
0.3565155273807429
 40
0.4752998476806674
 40
0.5941016123523636
 40
0.7129474972448868
 40
0.8318557607176912
 40
0.9507261793472136
 40
1.0
 40
1.0
 40
1.0
 40
1.0
 10
45.00000000000001
 20
-4.733833586209285
 30
0.0
 10
44.38246559523714
 20
-4.60663260427367
 30
0.0
 10
43.14772179146108
 20
-4.35229758574212
 30
0.0
 10
41.2961555849533
 20
-3.792733130849375
 30
0.0
 10
39.44521831526211
 20
-3.12394628821753
 30
0.0
 10
37.59445271664537
 20
-2.353351952171752
 30
0.0
 10
35.74336957081674
 20
-1.509218610563823
 30
0.0
 10
33.89155813529035
 20
-0.6161365170693957
 30
0.0
 10
32.03916173965474
 20
0.2930513635275884
 30
0.0
 10
30.54824704381821
 20
1.026822347407721
 30
0.0
 10
29.67500051029722
 20
1.429846377868628
 30
0.0
 10
29.41910002115743
 20
1.547950535825249
 30
0.0
  0
LINE
  5
A8
330
1F
100
AcDbEntity
  8
0
  6
Continuous
 62
     1
370
    15
100
AcDbLine
 10
45.00000000000001
 20
-5.693645215391392
 30
0.0
 11
45.00000000000001
 21
-4.733833586209285
 31
0.0
  0
SPLINE
  5
A9
330
1F
100
AcDbEntity
  8
0
  6
Continuous
 62
     1
370
    15
100
AcDbSpline
210
0.0
220
0.0
230
1.0
 70
     8
 71
     3
 72
     8
 73
     4
 74
     0
 42
0.000000001
 43
0.00000001
 40
0.0
 40
0.0
 40
0.0
 40
0.0
 40
1.0
 40
1.0
 40
1.0
 40
1.0
 10
41.28766238388619
 20
1.678126369561336
 30
0.0
 10
41.01854352449389
 20
1.996908240081018
 30
0.0
 10
40.78528950873155
 20
2.301017429349245
 30
0.0
 10
40.60063730606587
 20
2.58481865777827
 30
0.0
  0
LINE
  5
AA
330
1F
100
AcDbEntity
  8
0
  6
Continuous
 62
     1
370
    15
100
AcDbLine
 10
40.6006373060663
 20
2.584818657777568
 30
0.0
 11
45.00000000000001
 21
0.0000000000000093
 31
0.0
  0
LINE
  5
AB
330
1F
100
AcDbEntity
  8
0
  6
Continuous
 62
     1
370
    15
100
AcDbLine
 10
45.00000000000001
 20
0.0000000000000093
 30
0.0
 11
45.00000000000001
 21
-1.60345767617786
 31
0.0
  0
SPLINE
  5
AC
330
1F
100
AcDbEntity
  8
0
  6
Continuous
 62
     1
370
    15
100
AcDbSpline
210
0.0
220
0.0
230
1.0
 70
     8
 71
     3
 72
    12
 73
     8
 74
     0
 42
0.000000001
 43
0.00000001
 40
0.0
 40
0.0
 40
0.0
 40
0.0
 40
0.5000000000000016
 40
0.5000000000000016
 40
0.7500000000000008
 40
0.7500000000000008
 40
1.0
 40
1.0
 40
1.0
 40
1.0
 10
45.00000000000001
 20
-1.60345767617786
 30
0.0
 10
44.35738324975082
 20
-1.098253421644955
 30
0.0
 10
43.7255002752157
 20
-0.572337163080717
 30
0.0
 10
42.79419516594456
 20
0.2484131373375429
 30
0.0
 10
42.48655768172765
 20
0.5273947563256676
 30
0.0
 10
41.87756600981746
 20
1.097482307907384
 30
0.0
 10
41.57786785258379
 20
1.387117232542716
 30
0.0
 10
41.28766238388619
 20
1.67812636956134
 30
0.0
  0
SPLINE
  5
AD
330
1F
100
AcDbEntity
  8
0
  6
Continuous
 62
     1
370
    15
100
AcDbSpline
210
0.0
220
0.0
230
1.0
 70
     8
 71
     3
 72
    15
 73
    11
 74
     0
 42
0.000000001
 43
0.00000001
 40
0.0
 40
0.0
 40
0.0
 40
0.0
 40
0.1420117254189155
 40
0.2840139611156074
 40
0.4260154489779128
 40
0.5680249324292
 40
0.7100511384806667
 40
0.8495729096354703
 40
0.989141595868022
 40
1.0
 40
1.0
 40
1.0
 40
1.0
 10
41.28766238388616
 20
1.678126369561345
 30
0.0
 10
40.63364010750269
 20
1.955408128471391
 30
0.0
 10
39.32563925880109
 20
2.509953117350568
 30
0.0
 10
37.3636898498057
 20
3.236514938783189
 30
0.0
 10
35.4017489678177
 20
3.852641380251963
 30
0.0
 10
33.43968655272825
 20
4.32938322171881
 30
0.0
 10
31.48900274035728
 20
4.655398103954398
 30
0.0
 10
29.549553886778
 20
4.799632795585423
 30
0.0
 10
28.21408404699832
 20
4.830112965313614
 30
0.0
 10
27.52126263105031
 20
4.76655278951826
 30
0.0
 10
27.47125212491459
 20
4.761964772334569
 30
0.0
  0
SPLINE
  5
AE
330
1F
100
AcDbEntity
  8
0
  6
Continuous
 62
     1
370
    15
100
AcDbSpline
210
0.0
220
0.0
230
1.0
 70
    24
 71
     3
 72
    10
 73
     6
 74
     0
 42
0.000000001
 43
0.00000001
 40
0.0
 40
0.0
 40
0.0
 40
0.0
 40
0.4999999999999999
 40
0.4999999999999999
 40
1.0
 40
1.0
 40
1.0
 40
1.0
 10
45.00000000000001
 20
-4.733833586209285
 30
0.0
 10
45.00000000000002
 20
-4.37094833402282
 30
0.0
 10
45.00000000000001
 20
-3.912428903438803
 30
0.0
 10
45.0
 20
-2.84641535490407
 30
0.0
 10
45.00000000000002
 20
-2.23984465830785
 30
0.0
 10
45.00000000000001
 20
-1.603457676178053
 30
0.0
  0
SPLINE
  5
AF
330
1F
100
AcDbEntity
  8
0
  6
Continuous
 62
     1
370
    15
100
AcDbSpline
210
0.0
220
0.0
230
1.0
 70
     8
 71
     3
 72
    12
 73
     8
 74
     0
 42
0.000000001
 43
0.00000001
 40
0.0
 40
0.0
 40
0.0
 40
0.0
 40
0.1449939265804775
 40
0.3587307097244174
 40
0.5724290465760948
 40
0.7861613931502422
 40
1.0
 40
1.0
 40
1.0
 40
1.0
 10
18.45180842151832
 20
-4.974579772174472
 30
0.0
 10
18.04329111858863
 20
-5.015887392761037
 30
0.0
 10
17.03257497708645
 20
-5.118086928972796
 30
0.0
 10
15.41995565830714
 20
-5.103497699280081
 30
0.0
 10
13.61370452416995
 20
-4.953190362169401
 30
0.0
 10
11.80714755179906
 20
-4.656570916431481
 30
0.0
 10
10.60248231205621
 20
-4.343734366400988
 30
0.0
 10
9.999999999999936
 20
-4.187277218190824
 30
0.0
  0
SPLINE
  5
B0
330
1F
100
AcDbEntity
  8
0
  6
Continuous
 62
     1
370
    15
100
AcDbSpline
210
0.0
220
0.0
230
1.0
 70
     8
 71
     3
 72
    18
 73
    14
 74
     0
 42
0.000000001
 43
0.00000001
 40
0.0
 40
0.0
 40
0.0
 40
0.0
 40
0.0367940126555108
 40
0.1232516751847475
 40
0.2097384096496821
 40
0.296216891989999
 40
0.382667906164675
 40
0.4855694149068609
 40
0.588465756988346
 40
0.6913560358992893
 40
0.7942393589344245
 40
0.8971168280276597
 40
1.0
 40
1.0
 40
1.0
 40
1.0
 10
32.29783827940306
 20
-4.492036024122269
 30
0.0
 10
32.02438175133528
 20
-4.539863449529396
 30
0.0
 10
31.10836382499175
 20
-4.700074578345192
 30
0.0
 10
29.5495473600125
 20
-4.804686847918016
 30
0.0
 10
27.62134220607687
 20
-4.80435653650282
 30
0.0
 10
25.69320396806667
 20
-4.629816408050136
 30
0.0
 10
23.64327417282866
 20
-4.277973157350591
 30
0.0
 10
21.4709206280362
 20
-3.722213528108405
 30
0.0
 10
19.17651457185052
 20
-2.954749195840926
 30
0.0
 10
16.88222744501653
 20
-2.043523931154686
 30
0.0
 10
14.58810876980038
 20
-1.034135653652136
 30
0.0
 10
12.29406982686655
 20
0.0292529422255798
 30
0.0
 10
10.76470407162531
 20
0.7278378710533292
 30
0.0
 10
9.999999999990209
 20
1.077140016486308
 30
0.0
  0
SPLINE
  5
B1
330
1F
100
AcDbEntity
  8
0
  6
Continuous
 62
   131
370
    15
100
AcDbSpline
210
0.0
220
0.0
230
1.0
 70
    24
 71
     3
 72
    14
 73
    10
 74
     0
 42
0.000000001
 43
0.00000001
 40
0.0
 40
0.0
 40
0.0
 40
0.0
 40
0.2499999999999999
 40
0.2499999999999999
 40
0.4999999999999998
 40
0.4999999999999998
 40
0.7499999999999999
 40
0.7499999999999999
 40
1.0
 40
1.0
 40
1.0
 40
1.0
 10
9.999999999999996
 20
1.077140016481894
 30
0.0
 10
9.999999999999996
 20
0.6172315165847062
 30
0.0
 10
9.999999999999996
 20
0.1409772331621764
 30
0.0
 10
9.999999999999996
 20
-0.8126637780550816
 30
0.0
 10
9.999999999999996
 20
-1.289794621024177
 30
0.0
 10
9.999999999999996
 20
-2.209881965401594
 30
0.0
 10
9.999999999999996
 20
-2.652572773515121
 30
0.0
 10
9.999999999999996
 20
-3.473303090454578
 30
0.0
 10
9.999999999999996
 20
-3.851191373888901
 30
0.0
 10
9.999999999999996
 20
-4.18727721819084
 30
0.0
  0
SPLINE
  5
B2
330
1F
100
AcDbEntity
  8
0
  6
Continuous
 62
   131
370
    15
100
AcDbSpline
210
0.0
220
0.0
230
1.0
 70
    24
 71
     3
 72
    13
 73
     9
 74
     0
 42
0.000000001
 43
0.00000001
 40
0.0
 40
0.0
 40
0.0
 40
0.0
 40
0.1082268952749655
 40
0.2893674176407624
 40
0.4654028991182219
 40
0.6465434214840187
 40
0.8207984550637766
 40
1.0
 40
1.0
 40
1.0
 40
1.0
 10
9.999999999999996
 20
4.062788642417645
 30
0.0
 10
9.999999999999993
 20
4.052825020860347
 30
0.0
 10
9.999999999999993
 20
4.026185178397345
 30
0.0
 10
9.999999999999993
 20
3.774736686120592
 30
0.0
 10
9.999999999999993
 20
3.335329965397988
 30
0.0
 10
9.999999999999993
 20
2.727033737233592
 30
0.0
 10
9.999999999999993
 20
1.977331561449702
 30
0.0
 10
9.999999999999993
 20
1.379990397419024
 30
0.0
 10
9.999999999999993
 20
1.077140016481894
 30
0.0
  0
SPLINE
  5
B3
330
1F
100
AcDbEntity
  8
0
  6
Continuous
 62
     1
370
    15
100
AcDbSpline
210
0.0
220
0.0
230
1.0
 70
     8
 71
     3
 72
     9
 73
     5
 74
     0
 42
0.000000001
 43
0.00000001
 40
0.0
 40
0.0
 40
0.0
 40
0.0
 40
0.9872302055340582
 40
1.0
 40
1.0
 40
1.0
 40
1.0
 10
45.00000000000001
 20
4.200000000000008
 30
0.0
 10
44.26828446850803
 20
4.198919745385127
 30
0.0
 10
43.52710421754909
 20
4.197825517707707
 30
0.0
 10
42.78592372222511
 20
4.104271616484947
 30
0.0
 10
42.77645899963768
 20
4.103076952394846
 30
0.0
  0
SPLINE
  5
B4
330
1F
100
AcDbEntity
  8
0
  6
Continuous
 62
     1
370
    15
100
AcDbSpline
210
0.0
220
0.0
230
1.0
 70
     8
 71
     3
 72
    10
 73
     6
 74
     0
 42
0.000000001
 43
0.00000001
 40
0.0
 40
0.0
 40
0.0
 40
0.0
 40
0.5
 40
0.5
 40
1.0
 40
1.0
 40
1.0
 40
1.0
 10
45.00000000000001
 20
4.200000000000008
 30
0.0
 10
44.25332347653936
 20
3.997490621300245
 30
0.0
 10
43.51228338110268
 20
3.765127278277482
 30
0.0
 10
42.04287433025133
 20
3.233286497890204
 30
0.0
 10
41.31450293166837
 20
2.934090734052221
 30
0.0
 10
40.6006373060663
 20
2.584818657777565
 30
0.0
  0
LINE
  5
B5
330
1F
100
AcDbEntity
  8
0
  6
Continuous
 62
     1
370
    15
100
AcDbLine
 10
45.00000000000001
 20
0.0000000000000093
 30
0.0
 11
45.00000000000001
 21
4.200000000000008
 31
0.0
  0
SPLINE
  5
B6
330
1F
100
AcDbEntity
  8
0
  6
Continuous
 62
     1
370
    15
100
AcDbSpline
210
0.0
220
0.0
230
1.0
 70
     8
 71
     3
 72
    14
 73
    10
 74
     0
 42
0.000000001
 43
0.00000001
 40
0.0
 40
0.0
 40
0.0
 40
0.0
 40
0.0801307657018383
 40
0.2334437486594565
 40
0.3867365364755923
 40
0.5400238431816822
 40
0.6933203980499193
 40
0.8466409046404907
 40
0.9999999999999999
 40
0.9999999999999999
 40
0.9999999999999999
 40
0.9999999999999999
 10
22.55439408220921
 20
-4.7163576090199
 30
0.0
 10
22.21904594861741
 20
-4.838763168701219
 30
0.0
 10
21.2420812993226
 20
-5.195365435739216
 30
0.0
 10
19.62368854175706
 20
-5.601383810599989
 30
0.0
 10
17.69918506583027
 20
-5.922824669567276
 30
0.0
 10
15.77477016742611
 20
-6.034388888508661
 30
0.0
 10
13.85021202529235
 20
-5.938333980788815
 30
0.0
 10
11.92530321021096
 20
-5.651088637811932
 30
0.0
 10
10.64182156921724
 20
-5.299511123097689
 30
0.0
 10
9.99999999999081
 20
-5.123700246657015
 30
0.0
  0
SPLINE
  5
B7
330
1F
100
AcDbEntity
  8
0
  6
Continuous
 62
   131
370
    15
100
AcDbSpline
210
0.0
220
0.0
230
1.0
 70
    24
 71
     3
 72
     8
 73
     4
 74
     0
 42
0.000000001
 43
0.00000001
 40
0.0
 40
0.0
 40
0.0
 40
0.0
 40
1.0
 40
1.0
 40
1.0
 40
1.0
 10
9.999999999999996
 20
-4.18727721819084
 30
0.0
 10
9.999999999999996
 20
-4.492126200974808
 30
0.0
 10
9.999999999999996
 20
-4.806240993263025
 30
0.0
 10
9.999999999999996
 20
-5.123700246647481
 30
0.0
  0
SPLINE
  5
B8
330
1F
100
AcDbEntity
  8
0
  6
Continuous
 62
     1
370
    15
100
AcDbSpline
210
0.0
220
0.0
230
1.0
 70
     8
 71
     3
 72
     9
 73
     5
 74
     0
 42
0.000000001
 43
0.00000001
 40
0.0
 40
0.0
 40
0.0
 40
0.0
 40
0.6582821620429627
 40
1.0
 40
1.0
 40
1.0
 40
1.0
 10
9.999999999994774
 20
-5.786689831837919
 30
0.0
 10
10.60993805714054
 20
-5.869705910047412
 30
0.0
 10
11.53649826538443
 20
-5.99581608437122
 30
0.0
 10
12.46293847658789
 20
-5.981653724221295
 30
0.0
 10
12.77951962255679
 20
-5.976814193130495
 30
0.0
  0
SPLINE
  5
B9
330
1F
100
AcDbEntity
  8
0
  6
Continuous
 62
     1
370
    15
100
AcDbSpline
210
0.0
220
0.0
230
1.0
 70
     8
 71
     3
 72
    12
 73
     8
 74
     0
 42
0.000000001
 43
0.00000001
 40
0.0
 40
0.0
 40
0.0
 40
0.0
 40
0.0646506881891758
 40
0.2984210186301144
 40
0.532221132495479
 40
0.7660733883080049
 40
1.0
 40
1.0
 40
1.0
 40
1.0
 10
36.76740050659642
 20
4.021225138890646
 30
0.0
 10
36.94480433188755
 20
4.100952621438068
 30
0.0
 10
37.76368239390207
 20
4.468966593462576
 30
0.0
 10
39.22412011430571
 20
4.985393492715042
 30
0.0
 10
41.14890734522629
 20
5.529645857752314
 30
0.0
 10
43.07419770599098
 20
5.889265231695294
 30
0.0
 10
44.35799787976282
 20
5.959703939284258
 30
0.0
 10
45.0
 20
6.000000000000132
 30
0.0
  0
LINE
  5
BA
330
1F
100
AcDbEntity
  8
0
  6
Continuous
 62
   131
370
    15
100
AcDbLine
 10
9.999999999999998
 20
-5.786689831838719
 30
0.0
 11
9.999999999999996
 21
-5.123700246636891
 31
0.0
  0
SPLINE
  5
BB
330
1F
100
AcDbEntity
  8
0
  6
Continuous
 62
     1
370
    15
100
AcDbSpline
210
0.0
220
0.0
230
1.0
 70
    24
 71
     3
 72
    10
 73
     6
 74
     0
 42
0.000000001
 43
0.00000001
 40
0.0
 40
0.0
 40
0.0
 40
0.0
 40
0.5
 40
0.5
 40
1.0
 40
1.0
 40
1.0
 40
1.0
 10
45.00000000000001
 20
4.200000000000007
 30
0.0
 10
45.00000000000001
 20
4.454593540843891
 30
0.0
 10
44.99999999999999
 20
4.750454813202709
 30
0.0
 10
44.99999999999999
 20
5.371170965765141
 30
0.0
 10
45.0
 20
5.694440614808841
 30
0.0
 10
45.0
 20
6.000000000000132
 30
0.0
  0
SPLINE
  5
BC
330
1F
100
AcDbEntity
  8
0
  6
Continuous
 62
   131
370
    15
100
AcDbSpline
210
0.0
220
0.0
230
1.0
 70
     8
 71
     3
 72
     8
 73
     4
 74
     0
 42
0.000000001
 43
0.00000001
 40
0.0
 40
0.0
 40
0.0
 40
0.0
 40
1.0
 40
1.0
 40
1.0
 40
1.0
 10
9.999999999994774
 20
5.786689831837928
 30
0.0
 10
9.325594187628232
 20
5.683581384141931
 30
0.0
 10
8.643060608434817
 20
5.543033735710662
 30
0.0
 10
7.970014146750044
 20
5.36898006366152
 30
0.0
  0
LINE
  5
BD
330
1F
100
AcDbEntity
  8
0
  6
Continuous
 62
   131
370
    15
100
AcDbLine
 10
7.970014146750083
 20
-4.420255024339353
 30
0.0
 11
7.97001414675009
 21
6.000000000000005
 31
0.0
  0
SPLINE
  5
BE
330
1F
100
AcDbEntity
  8
0
  6
Continuous
 62
   131
370
    15
100
AcDbSpline
210
0.0
220
0.0
230
1.0
 70
     8
 71
     3
 72
     8
 73
     4
 74
     0
 42
0.000000001
 43
0.00000001
 40
0.0
 40
0.0
 40
0.0
 40
0.0
 40
1.0
 40
1.0
 40
1.0
 40
1.0
 10
9.99999999999477
 20
-5.123700246658211
 30
0.0
 10
9.325599125384468
 20
-4.920679535107428
 30
0.0
 10
8.643070316717655
 20
-4.684068156091804
 30
0.0
 10
7.970028930159113
 20
-4.420428902960101
 30
0.0
  0
SPLINE
  5
BF
330
1F
100
AcDbEntity
  8
0
  6
Continuous
 62
   131
370
    15
100
AcDbSpline
210
0.0
220
0.0
230
1.0
 70
     8
 71
     3
 72
     8
 73
     4
 74
     0
 42
0.000000001
 43
0.00000001
 40
0.0
 40
0.0
 40
0.0
 40
0.0
 40
1.0
 40
1.0
 40
1.0
 40
1.0
 10
9.999999999994774
 20
-5.786689831837919
 30
0.0
 10
9.325594187628232
 20
-5.68358138414192
 30
0.0
 10
8.643060608434817
 20
-5.543033735710653
 30
0.0
 10
7.970014146750044
 20
-5.36898006366151
 30
0.0
  0
LINE
  5
C0
330
1F
100
AcDbEntity
  8
0
  6
Continuous
 62
   131
370
    15
100
AcDbLine
 10
7.97001414675009
 20
-5.999999999999995
 30
0.0
 11
7.970014146750044
 21
-5.368981183257799
 31
0.0
  0
LINE
  5
C1
330
1F
100
AcDbEntity
  8
0
  6
Continuous
 62
   131
370
    15
100
AcDbLine
 10
-43.99999999999999
 20
5.999999999999998
 30
0.0
 11
-43.99999999999999
 21
-5.999999999999998
 31
0.0
  0
LINE
  5
C2
330
1F
100
AcDbEntity
  8
0
  6
Continuous
 62
   131
370
    15
100
AcDbLine
 10
-44.99999999999999
 20
4.999999999999997
 30
0.0
 11
-44.99999999999999
 21
-5.000000000000002
 31
0.0
  0
SPLINE
  5
C3
330
1F
100
AcDbEntity
  8
0
  6
Continuous
 62
   131
370
    15
100
AcDbSpline
210
0.0
220
0.0
230
1.0
 70
     8
 71
     3
 72
     8
 73
     4
 74
     0
 42
0.000000001
 43
0.00000001
 40
0.0
 40
0.0
 40
0.0
 40
0.0
 40
1.0
 40
1.0
 40
1.0
 40
1.0
 10
9.999999999991502
 20
-4.187277218188456
 30
0.0
 10
9.325599125382265
 20
-3.997954377531949
 30
0.0
 10
8.643070316716566
 20
-3.781087528160268
 30
0.0
 10
7.970028930159113
 20
-3.542685348450738
 30
0.0
  0
SPLINE
  5
C4
330
1F
100
AcDbEntity
  8
0
  6
Continuous
 62
   131
370
    15
100
AcDbSpline
210
0.0
220
0.0
230
1.0
 70
     8
 71
     3
 72
     8
 73
     4
 74
     0
 42
0.000000001
 43
0.00000001
 40
0.0
 40
0.0
 40
0.0
 40
0.0
 40
1.0
 40
1.0
 40
1.0
 40
1.0
 10
9.999999999999996
 20
1.077140016481894
 30
0.0
 10
9.32559599204405
 20
1.381307475721597
 30
0.0
 10
8.643064156150494
 20
1.679783483899508
 30
0.0
 10
7.970019549075635
 20
1.964385194867418
 30
0.0
  0
SPLINE
  5
C5
330
1F
100
AcDbEntity
  8
0
  6
Continuous
 62
   131
370
    15
100
AcDbSpline
210
0.0
220
0.0
230
1.0
 70
    24
 71
     3
 72
    14
 73
    10
 74
     0
 42
0.000000001
 43
0.00000001
 40
0.0
 40
0.0
 40
0.0
 40
0.0
 40
0.2499999999999999
 40
0.2499999999999999
 40
0.4999999999999998
 40
0.4999999999999998
 40
0.7499999999999999
 40
0.7499999999999999
 40
1.0
 40
1.0
 40
1.0
 40
1.0
 10
9.999999999999996
 20
1.077140016481894
 30
0.0
 10
9.999999999999996
 20
0.6172315165847062
 30
0.0
 10
9.999999999999996
 20
0.1409772331621764
 30
0.0
 10
9.999999999999996
 20
-0.8126637780550816
 30
0.0
 10
9.999999999999996
 20
-1.289794621024177
 30
0.0
 10
9.999999999999996
 20
-2.209881965401594
 30
0.0
 10
9.999999999999996
 20
-2.652572773515121
 30
0.0
 10
9.999999999999996
 20
-3.473303090454578
 30
0.0
 10
9.999999999999996
 20
-3.851191373888901
 30
0.0
 10
9.999999999999996
 20
-4.18727721819084
 30
0.0
  0
SPLINE
  5
C6
330
1F
100
AcDbEntity
  8
0
  6
Continuous
 62
   131
370
    15
100
AcDbSpline
210
0.0
220
0.0
230
1.0
 70
    24
 71
     3
 72
    13
 73
     9
 74
     0
 42
0.000000001
 43
0.00000001
 40
0.0
 40
0.0
 40
0.0
 40
0.0
 40
0.1067116125682605
 40
0.2881599252223832
 40
0.4644945226066088
 40
0.6459428352607314
 40
0.8204939594464298
 40
0.9999999999999999
 40
0.9999999999999999
 40
0.9999999999999999
 40
0.9999999999999999
 10
9.999999999999996
 20
4.062035781019
 30
0.0
 10
9.999999999999996
 20
4.052172800038903
 30
0.0
 10
9.999999999999993
 20
4.025539186383446
 30
0.0
 10
9.999999999999996
 20
3.774651712450655
 30
0.0
 10
9.999999999999993
 20
3.335353206417134
 30
0.0
 10
9.999999999999996
 20
2.727027736148515
 30
0.0
 10
9.999999999999996
 20
1.97733308646808
 30
0.0
 10
9.999999999999996
 20
1.379990910479161
 30
0.0
 10
9.999999999999996
 20
1.077140016481894
 30
0.0
  0
SPLINE
  5
C7
330
1F
100
AcDbEntity
  8
0
  6
Continuous
 62
   131
370
    15
100
AcDbSpline
210
0.0
220
0.0
230
1.0
 70
    24
 71
     3
 72
     8
 73
     4
 74
     0
 42
0.000000001
 43
0.00000001
 40
0.0
 40
0.0
 40
0.0
 40
0.0
 40
1.0
 40
1.0
 40
1.0
 40
1.0
 10
9.999999999999996
 20
-4.18727721819084
 30
0.0
 10
9.999999999999996
 20
-4.492126200974808
 30
0.0
 10
9.999999999999996
 20
-4.806240993263025
 30
0.0
 10
9.999999999999996
 20
-5.123700246647481
 30
0.0
  0
SPLINE
  5
C8
330
1F
100
AcDbEntity
  8
0
  6
Continuous
 62
   131
370
    15
100
AcDbSpline
210
0.0
220
0.0
230
1.0
 70
    24
 71
     3
 72
    10
 73
     6
 74
     0
 42
0.000000001
 43
0.00000001
 40
0.0
 40
0.0
 40
0.0
 40
0.0
 40
0.5
 40
0.5
 40
1.0
 40
1.0
 40
1.0
 40
1.0
 10
9.999999999999979
 20
5.786689831838726
 30
0.0
 10
9.999999999999975
 20
5.476611425700551
 30
0.0
 10
9.999999999999975
 20
5.157493833088779
 30
0.0
 10
9.999999999999979
 20
4.572493672407509
 30
0.0
 10
9.999999999999979
 20
4.30799921555202
 30
0.0
 10
9.999999999999982
 20
4.09288387757447
 30
0.0
  0
LINE
  5
C9
330
1F
100
AcDbEntity
  8
중심선
 62
     1
100
AcDbLine
 10
-47.99999999999999
 20
-0.0000000000000004
 30
0.0
 11
48.00000000000001
 21
0.0000000000000096
 31
0.0
  0
CIRCLE
  5
CA
330
1F
100
AcDbEntity
  8
외형선
100
AcDbCircle
 10
0.0000000000000104
 20
0.0
 30
0.0
 40
3.000000000000005
  0
INSERT
  5
CB
330
1F
100
AcDbEntity
  8
0
  6
Continuous
 62
     7
100
AcDbBlockReference
 66
     1
  2
블럭10
 10
-22.93944368806589
 20
-52.04609937292004
 30
0.0
  0
ATTRIB
  5
CC
330
CB
100
AcDbEntity
  8
FORMAT
 62
     2
100
AcDbText
 10
-39.05870472750145
 20
-49.97073246008785
 30
0.0
 40
4.233333333333333
  1
SEME7012035E [ 2 FLUTE ]
 41
0.75
  7
SLDTEXTSTYLE0
 11
-39.05870472750145
 21
-52.08739912675452
 31
0.0
100
AcDbAttribute
  2
AUTOATTR0
 70
     0
 74
     1
  0
SEQEND
  5
CD
330
CB
100
AcDbEntity
  8
0
  6
Continuous
 62
     7
  0
HATCH
  5
CE
330
1F
100
AcDbEntity
  8
중심선
100
AcDbHatch
 10
0.0
 20
0.0
 30
0.0
210
0.0
220
0.0
230
1.0
  2
SOLID
 70
     1
 71
     0
 91
        1
 92
        0
 93
        4
 72
     1
 10
-17.22453438368504
 20
-35.7989250712761
 11
-20.67080962752232
 21
-35.7989250712761
 72
     1
 10
-20.67080962752232
 20
-35.7989250712761
 11
-22.79903948672635
 21
-38.3352506518487
 72
     1
 10
-22.79903948672635
 20
-38.3352506518487
 11
-19.35273115777591
 21
-38.33521122254621
 72
     1
 10
-19.35273115777591
 20
-38.33521122254621
 11
-17.22453438368504
 21
-35.7989250712761
 97
        0
 75
     0
 76
     1
 98
        1
 10
0.0
 20
0.0
  0
HATCH
  5
CF
330
1F
100
AcDbEntity
  8
중심선
100
AcDbHatch
 10
0.0
 20
0.0
 30
0.0
210
0.0
220
0.0
230
1.0
  2
SOLID
 70
     1
 71
     0
 91
        1
 92
        0
 93
        4
 72
     1
 10
-12.21177039264909
 20
-35.7989250712761
 11
-15.65804563648637
 21
-35.7989250712761
 72
     1
 10
-15.65804563648637
 20
-35.7989250712761
 11
-20.18918364484376
 21
-41.19892507127612
 72
     1
 10
-20.18918364484376
 20
-41.19892507127612
 11
-16.74290840100648
 21
-41.19892507127612
 72
     1
 10
-16.74290840100648
 20
-41.19892507127612
 11
-12.21177039264909
 21
-35.7989250712761
 97
        0
 75
     0
 76
     1
 98
        1
 10
0.0
 20
0.0
  0
HATCH
  5
D0
330
1F
100
AcDbEntity
  8
중심선
100
AcDbHatch
 10
0.0
 20
0.0
 30
0.0
210
0.0
220
0.0
230
1.0
  2
SOLID
 70
     1
 71
     0
 91
        1
 92
        0
 93
        4
 72
     1
 10
-7.199006401613195
 20
-35.79892507127613
 11
-10.64528164545031
 21
-35.7989250712761
 72
     1
 10
-10.64528164545031
 20
-35.7989250712761
 11
-17.69371854733956
 21
-44.19892507127612
 72
     1
 10
-17.69371854733956
 20
-44.19892507127612
 11
-14.24744330350228
 21
-44.19892507127612
 72
     1
 10
-14.24744330350228
 20
-44.19892507127612
 11
-7.199006401613195
 21
-35.79892507127613
 97
        0
 75
     0
 76
     1
 98
        1
 10
0.0
 20
0.0
  0
HATCH
  5
D1
330
1F
100
AcDbEntity
  8
중심선
100
AcDbHatch
 10
0.0
 20
0.0
 30
0.0
210
0.0
220
0.0
230
1.0
  2
SOLID
 70
     1
 71
     0
 91
        1
 92
        0
 93
        6
 72
     3
 10
-2.399115970600996
 20
-39.99892507132738
 11
3.960054785062284
 21
1.540850780301639E-10
 40
0.3939339440162633
 50
17.09539180608433
 51
320.0019657685079
 73
     0
 72
     1
 10
-0.7161163149004002
 20
-38.58681907591441
 11
1.589185558800638
 21
-36.65249236586649
 72
     3
 10
-2.399115970653842
 20
-39.99892507127625
 11
6.600054785286829
 21
-1.249000902703301E-13
 40
0.6363583540795982
 50
39.99873849337408
 51
368.4976242363725
 73
     1
 72
     1
 10
4.026216521246767
 20
-39.03892507120613
 11
-3.71904866381792
 21
-39.0389250712061
 72
     1
 10
-3.71904866381792
 20
-39.0389250712061
 11
-3.719073708263854
 21
-40.95892507120602
 72
     1
 10
-3.719073708263854
 20
-40.95892507120602
 11
0.7223060612081831
 21
-40.95892507120599
 97
        0
 75
     0
 76
     1
 98
        1
 10
0.0
 20
0.0
  0
DIMENSION
  5
D2
330
1F
100
AcDbEntity
  8
치수문자_일반주서
100
AcDbDimension
  2
_D
 10
65.1767106203487
 20
6.000000000000206
 30
0.0
 11
65.17671062034866
 21
16.54150000000021
 31
0.0
 70
   160
  1
%%c<>
 71
     2
 42
12.0
 52
-270.0
  3
SLDDIMSTYLE0
100
AcDbAlignedDimension
 13
45.0
 23
-5.999999999999863
 33
0.0
 14
45.0
 24
6.000000000000132
 34
0.0
 50
90.0000000000002
100
AcDbRotatedDimension
  0
DIMENSION
  5
E0
330
1F
100
AcDbEntity
  8
치수문자_일반주서
100
AcDbDimension
  2
_D_1
 10
44.99999999999999
 20
26.78841044024269
 30
0.0
 11
0.0000000000000062
 21
26.78841044024269
 31
0.0
 70
   160
  1
<>
 71
     2
 42
90.0
  3
SLDDIMSTYLE1
100
AcDbAlignedDimension
 13
-44.99999999999999
 23
4.999999999999997
 33
0.0
 14
45.0
 24
6.000000000000132
 34
0.0
100
AcDbRotatedDimension
  0
DIMENSION
  5
EB
330
1F
100
AcDbEntity
  8
치수문자_일반주서
100
AcDbDimension
  2
_D_2
 10
45.0
 20
17.44034073650282
 30
0.0
 11
27.49999999999999
 21
17.44034073650282
 31
0.0
 70
   160
  1
<>
 71
     2
 42
35.00000000000523
  3
SLDDIMSTYLE1
100
AcDbAlignedDimension
 13
9.999999999994774
 23
5.786689831837928
 33
0.0
 14
45.0
 24
6.000000000000132
 34
0.0
 50
0.0000000000000349
100
AcDbRotatedDimension
  0
DIMENSION
  5
F5
330
1F
100
AcDbEntity
  8
치수문자_일반주서
100
AcDbDimension
  2
_D_3
 10
-55.72452654221583
 20
-6.000000000000043
 30
0.0
 11
-55.72452654221591
 21
16.54149999999995
 31
0.0
 70
   160
  1
%%c<>
 71
     2
 42
11.99999999999999
 52
-270.0
  3
SLDDIMSTYLE0
100
AcDbAlignedDimension
 13
-43.99999999999999
 23
5.999999999999998
 33
0.0
 14
-43.99999999999999
 24
-5.999999999999995
 34
0.0
 50
90.0000000000002
100
AcDbRotatedDimension
  0
INSERT
  5
108
330
1F
100
AcDbEntity
  8
외형선
100
AcDbBlockReference
  2
SW_DOWELSYMBOL_0
 10
0.0000000000000104
 20
0.0
 30
0.0
  0
ENDSEC
  0
SECTION
  2
OBJECTS
  0
DICTIONARY
  5
C
330
0
100
AcDbDictionary
281
     1
  3
ACAD_GROUP
350
D
  3
ACAD_IMAGE_VARS
350
12C
  3
ACAD_LAYOUT
350
1A
  3
ACAD_MLINESTYLE
350
17
  3
ACAD_PLOTSETTINGS
350
19
  3
ACAD_PLOTSTYLENAME
350
E
  3
ACAD_SCALELIST
350
47
  3
APPDATA
350
12A
  3
DWGPROPS
350
13C
  0
DICTIONARY
  5
D
102
{ACAD_REACTORS
330
C
102
}
330
C
100
AcDbDictionary
281
     1
  0
RASTERVARIABLES
  5
12C
102
{ACAD_REACTORS
330
C
102
}
330
C
100
AcDbRasterVariables
 90
        0
 70
     1
 71
     1
 72
     1
  0
DICTIONARY
  5
1A
102
{ACAD_REACTORS
330
C
102
}
330
C
100
AcDbDictionary
281
     1
  3
Layout1
350
1E
  3
Layout2
350
26
  3
Model
350
22
  0
DICTIONARY
  5
17
102
{ACAD_REACTORS
330
C
102
}
330
C
100
AcDbDictionary
281
     1
  3
Standard
350
18
  0
DICTIONARY
  5
19
102
{ACAD_REACTORS
330
C
102
}
330
C
100
AcDbDictionary
281
     1
  0
ACDBDICTIONARYWDFLT
  5
E
102
{ACAD_REACTORS
330
C
102
}
330
C
100
AcDbDictionary
281
     1
  3
Normal
350
F
100
AcDbDictionaryWithDefault
340
F
  0
DICTIONARY
  5
47
102
{ACAD_REACTORS
330
C
102
}
330
C
100
AcDbDictionary
281
     1
  3
A0
350
48
  3
A1
350
49
  3
A2
350
4A
  3
A3
350
4B
  3
A4
350
4C
  3
A5
350
4D
  3
A6
350
4E
  3
A7
350
4F
  3
A8
350
50
  3
A9
350
51
  3
B0
350
52
  3
B1
350
53
  3
B2
350
54
  3
B3
350
55
  3
B4
350
56
  3
B5
350
57
  3
B6
350
58
  3
B7
350
59
  3
B8
350
5A
  3
B9
350
5B
  3
C0
350
5C
  3
C1
350
5D
  3
C2
350
5E
  3
C3
350
5F
  3
C4
350
60
  3
C5
350
61
  3
C6
350
62
  3
C7
350
63
  3
C8
350
64
  3
C9
350
65
  3
D0
350
66
  3
D1
350
67
  3
D2
350
68
  0
DICTIONARY
  5
12A
102
{ACAD_REACTORS
330
C
102
}
330
C
100
AcDbDictionary
281
     1
  0
XRECORD
  5
13C
102
{ACAD_REACTORS
330
C
102
}
330
C
100
AcDbXrecord
280
     1
  1
DWGPROPS COOKIE
  2

  3

  4

  6

  7

  8
12014102
  9

300
=
301
=
302
=
303
=
304
=
305
=
306
=
307
=
308
=
309
=
 40
0.0
 41
2458262.172173843
 42
2458266.113448136
  1

 90
        0
  0
LAYOUT
  5
1E
102
{ACAD_REACTORS
330
1A
102
}
330
1A
100
AcDbPlotSettings
  1

  2
none_device
  4

  6

 40
0.0
 41
0.0
 42
0.0
 43
0.0
 44
0.0
 45
0.0
 46
0.0
 47
0.0
 48
0.0
 49
0.0
140
0.0
141
0.0
142
1.0
143
1.0
 70
   688
 72
     1
 73
     0
 74
     5
  7

 75
    16
147
1.0
148
0.0
149
0.0
100
AcDbLayout
  1
Layout1
 70
     1
 71
     1
 10
0.0
 20
0.0
 11
420.0
 21
297.0
 12
0.0
 22
0.0
 32
0.0
 14
1.000000000000000E+20
 24
1.000000000000000E+20
 34
1.000000000000000E+20
 15
-1.000000000000000E+20
 25
-1.000000000000000E+20
 35
-1.000000000000000E+20
146
0.0
 13
0.0
 23
0.0
 33
0.0
 16
1.0
 26
0.0
 36
0.0
 17
0.0
 27
1.0
 37
0.0
 76
     0
330
1B
  0
LAYOUT
  5
26
102
{ACAD_REACTORS
330
1A
102
}
330
1A
100
AcDbPlotSettings
  1

  2
none_device
  4

  6

 40
0.0
 41
0.0
 42
0.0
 43
0.0
 44
0.0
 45
0.0
 46
0.0
 47
0.0
 48
0.0
 49
0.0
140
0.0
141
0.0
142
1.0
143
1.0
 70
   688
 72
     1
 73
     0
 74
     5
  7

 75
    16
147
1.0
148
0.0
149
0.0
100
AcDbLayout
  1
Layout2
 70
     1
 71
     2
 10
0.0
 20
0.0
 11
0.0
 21
0.0
 12
0.0
 22
0.0
 32
0.0
 14
0.0
 24
0.0
 34
0.0
 15
0.0
 25
0.0
 35
0.0
146
0.0
 13
0.0
 23
0.0
 33
0.0
 16
1.0
 26
0.0
 36
0.0
 17
0.0
 27
1.0
 37
0.0
 76
     0
330
23
  0
LAYOUT
  5
22
102
{ACAD_REACTORS
330
1A
102
}
330
1A
100
AcDbPlotSettings
  1

  2
none_device
  4
ANSI_A_(11.00_x_8.50_Inches)
  6

 40
6.35
 41
19.05
 42
6.35000508
 43
19.05000254
 44
279.4
 45
215.9
 46
141.2518855469653
 47
114.1966468140686
 48
0.0
 49
0.0
140
0.0
141
0.0
142
0.1026020308081207
143
1.0
 70
  1696
 72
     0
 73
     0
 74
     0
  7

 75
     0
147
0.0235690232323232
148
0.0
149
0.0
100
AcDbLayout
  1
Model
 70
     1
 71
     0
 10
0.0
 20
0.0
 11
420.0
 21
297.0
 12
0.0
 22
0.0
 32
0.0
 14
-60.09952654221592
 24
-49.97073246008785
 34
0.0
 15
65.72704395368208
 25
31.16341044024269
 35
0.0
146
0.0
 13
0.0
 23
0.0
 33
0.0
 16
1.0
 26
0.0
 36
0.0
 17
0.0
 27
1.0
 37
0.0
 76
     0
330
1F
331
29
  0
MLINESTYLE
  5
18
102
{ACAD_REACTORS
330
17
102
}
330
17
100
AcDbMlineStyle
  2
Standard
 70
     0
  3

 62
   256
 51
90.0
 52
90.0
 71
     2
 49
0.5
 62
   256
  6
BYLAYER
 49
-0.5
 62
   256
  6
BYLAYER
  0
ACDBPLACEHOLDER
  5
F
102
{ACAD_REACTORS
330
E
102
}
330
E
  0
SCALE
  5
48
102
{ACAD_REACTORS
330
47
102
}
330
47
100
AcDbScale
 70
     0
300
1:1
140
1.0
141
1.0
290
     1
  0
SCALE
  5
49
102
{ACAD_REACTORS
330
47
102
}
330
47
100
AcDbScale
 70
     0
300
1:2
140
1.0
141
2.0
290
     0
  0
SCALE
  5
4A
102
{ACAD_REACTORS
330
47
102
}
330
47
100
AcDbScale
 70
     0
300
1:4
140
1.0
141
4.0
290
     0
  0
SCALE
  5
4B
102
{ACAD_REACTORS
330
47
102
}
330
47
100
AcDbScale
 70
     0
300
1:5
140
1.0
141
5.0
290
     0
  0
SCALE
  5
4C
102
{ACAD_REACTORS
330
47
102
}
330
47
100
AcDbScale
 70
     0
300
1:8
140
1.0
141
8.0
290
     0
  0
SCALE
  5
4D
102
{ACAD_REACTORS
330
47
102
}
330
47
100
AcDbScale
 70
     0
300
1:10
140
1.0
141
10.0
290
     0
  0
SCALE
  5
4E
102
{ACAD_REACTORS
330
47
102
}
330
47
100
AcDbScale
 70
     0
300
1:16
140
1.0
141
16.0
290
     0
  0
SCALE
  5
4F
102
{ACAD_REACTORS
330
47
102
}
330
47
100
AcDbScale
 70
     0
300
1:20
140
1.0
141
20.0
290
     0
  0
SCALE
  5
50
102
{ACAD_REACTORS
330
47
102
}
330
47
100
AcDbScale
 70
     0
300
1:30
140
1.0
141
30.0
290
     0
  0
SCALE
  5
51
102
{ACAD_REACTORS
330
47
102
}
330
47
100
AcDbScale
 70
     0
300
1:40
140
1.0
141
40.0
290
     0
  0
SCALE
  5
52
102
{ACAD_REACTORS
330
47
102
}
330
47
100
AcDbScale
 70
     0
300
1:50
140
1.0
141
50.0
290
     0
  0
SCALE
  5
53
102
{ACAD_REACTORS
330
47
102
}
330
47
100
AcDbScale
 70
     0
300
1:100
140
1.0
141
100.0
290
     0
  0
SCALE
  5
54
102
{ACAD_REACTORS
330
47
102
}
330
47
100
AcDbScale
 70
     0
300
2:1
140
2.0
141
1.0
290
     0
  0
SCALE
  5
55
102
{ACAD_REACTORS
330
47
102
}
330
47
100
AcDbScale
 70
     0
300
4:1
140
4.0
141
1.0
290
     0
  0
SCALE
  5
56
102
{ACAD_REACTORS
330
47
102
}
330
47
100
AcDbScale
 70
     0
300
8:1
140
8.0
141
1.0
290
     0
  0
SCALE
  5
57
102
{ACAD_REACTORS
330
47
102
}
330
47
100
AcDbScale
 70
     0
300
10:1
140
10.0
141
1.0
290
     0
  0
SCALE
  5
58
102
{ACAD_REACTORS
330
47
102
}
330
47
100
AcDbScale
 70
     0
300
100:1
140
100.0
141
1.0
290
     0
  0
SCALE
  5
59
102
{ACAD_REACTORS
330
47
102
}
330
47
100
AcDbScale
 70
     0
300
1/128" = 1'-0"
140
0.0078125
141
12.0
290
     0
  0
SCALE
  5
5A
102
{ACAD_REACTORS
330
47
102
}
330
47
100
AcDbScale
 70
     0
300
1/64" = 1'-0"
140
0.015625
141
12.0
290
     0
  0
SCALE
  5
5B
102
{ACAD_REACTORS
330
47
102
}
330
47
100
AcDbScale
 70
     0
300
1/32" = 1'-0"
140
0.03125
141
12.0
290
     0
  0
SCALE
  5
5C
102
{ACAD_REACTORS
330
47
102
}
330
47
100
AcDbScale
 70
     0
300
1/16" = 1'-0"
140
0.0625
141
12.0
290
     0
  0
SCALE
  5
5D
102
{ACAD_REACTORS
330
47
102
}
330
47
100
AcDbScale
 70
     0
300
3/32" = 1'-0"
140
0.09375
141
12.0
290
     0
  0
SCALE
  5
5E
102
{ACAD_REACTORS
330
47
102
}
330
47
100
AcDbScale
 70
     0
300
1/8" = 1'-0"
140
0.125
141
12.0
290
     0
  0
SCALE
  5
5F
102
{ACAD_REACTORS
330
47
102
}
330
47
100
AcDbScale
 70
     0
300
3/16" = 1'-0"
140
0.1875
141
12.0
290
     0
  0
SCALE
  5
60
102
{ACAD_REACTORS
330
47
102
}
330
47
100
AcDbScale
 70
     0
300
1/4" = 1'-0"
140
0.25
141
12.0
290
     0
  0
SCALE
  5
61
102
{ACAD_REACTORS
330
47
102
}
330
47
100
AcDbScale
 70
     0
300
3/8" = 1'-0"
140
0.375
141
12.0
290
     0
  0
SCALE
  5
62
102
{ACAD_REACTORS
330
47
102
}
330
47
100
AcDbScale
 70
     0
300
1/2" = 1'-0"
140
0.5
141
12.0
290
     0
  0
SCALE
  5
63
102
{ACAD_REACTORS
330
47
102
}
330
47
100
AcDbScale
 70
     0
300
3/4" = 1'-0"
140
0.75
141
12.0
290
     0
  0
SCALE
  5
64
102
{ACAD_REACTORS
330
47
102
}
330
47
100
AcDbScale
 70
     0
300
1" = 1'-0"
140
1.0
141
12.0
290
     0
  0
SCALE
  5
65
102
{ACAD_REACTORS
330
47
102
}
330
47
100
AcDbScale
 70
     0
300
1-1/2" = 1'-0"
140
1.5
141
12.0
290
     0
  0
SCALE
  5
66
102
{ACAD_REACTORS
330
47
102
}
330
47
100
AcDbScale
 70
     0
300
3" = 1'-0"
140
3.0
141
12.0
290
     0
  0
SCALE
  5
67
102
{ACAD_REACTORS
330
47
102
}
330
47
100
AcDbScale
 70
     0
300
6" = 1'-0"
140
6.0
141
12.0
290
     0
  0
SCALE
  5
68
102
{ACAD_REACTORS
330
47
102
}
330
47
100
AcDbScale
 70
     0
300
1'-0" = 1'-0"
140
12.0
141
12.0
290
     0
  0
ENDSEC
  0
EOF
