  0
SECTION
  2
HEADER
  9
$ACADVER
  1
AC1015
  9
$ACADMAINTVER
 70
     6
  9
$DWGCODEPAGE
  3
ANSI_949
  9
$INSBASE
 10
0.0
 20
0.0
 30
0.0
  9
$EXTMIN
 10
-146.8036587929162
 20
-49.97073246008785
 30
0.0
  9
$EXTMAX
 10
88.20094765990595
 20
30.16341044024268
 30
0.0
  9
$LIMMIN
 10
0.0
 20
0.0
  9
$LIMMAX
 10
420.0
 20
297.0
  9
$ORTHOMODE
 70
     0
  9
$REGENMODE
 70
     1
  9
$FILLMODE
 70
     1
  9
$QTEXTMODE
 70
     0
  9
$MIRRTEXT
 70
     1
  9
$LTSCALE
 40
1.0
  9
$ATTMODE
 70
     1
  9
$TEXTSIZE
 40
3.5
  9
$TRACEWID
 40
1.0
  9
$TEXTSTYLE
  7
Standard
  9
$CLAYER
  8
0
  9
$CELTYPE
  6
ByLayer
  9
$CECOLOR
 62
   256
  9
$CELTSCALE
 40
1.0
  9
$DISPSILH
 70
     0
  9
$DIMSCALE
 40
1.0
  9
$DIMASZ
 40
3.302
  9
$DIMEXO
 40
1.0
  9
$DIMDLI
 40
3.75
  9
$DIMRND
 40
0.0
  9
$DIMDLE
 40
0.0
  9
$DIMEXE
 40
1.0
  9
$DIMTP
 40
0.0
  9
$DIMTM
 40
0.0
  9
$DIMTXT
 40
3.5
  9
$DIMCEN
 40
2.5
  9
$DIMTSZ
 40
0.0
  9
$DIMTOL
 70
     0
  9
$DIMLIM
 70
     0
  9
$DIMTIH
 70
     1
  9
$DIMTOH
 70
     1
  9
$DIMSE1
 70
     0
  9
$DIMSE2
 70
     0
  9
$DIMTAD
 70
     1
  9
$DIMZIN
 70
     0
  9
$DIMBLK
  1

  9
$DIMASO
 70
     1
  9
$DIMSHO
 70
     1
  9
$DIMPOST
  1

  9
$DIMAPOST
  1

  9
$DIMALT
 70
     0
  9
$DIMALTD
 70
     3
  9
$DIMALTF
 40
0.0393700787401575
  9
$DIMLFAC
 40
1.0
  9
$DIMTOFL
 70
     1
  9
$DIMTVP
 40
0.0
  9
$DIMTIX
 70
     0
  9
$DIMSOXD
 70
     0
  9
$DIMSAH
 70
     0
  9
$DIMBLK1
  1

  9
$DIMBLK2
  1

  9
$DIMSTYLE
  2
ISO-25
  9
$DIMCLRD
 70
     0
  9
$DIMCLRE
 70
     0
  9
$DIMCLRT
 70
     0
  9
$DIMTFAC
 40
1.0
  9
$DIMGAP
 40
1.524
  9
$DIMJUST
 70
     0
  9
$DIMSD1
 70
     0
  9
$DIMSD2
 70
     0
  9
$DIMTOLJ
 70
     0
  9
$DIMTZIN
 70
     0
  9
$DIMALTZ
 70
     0
  9
$DIMALTTZ
 70
     0
  9
$DIMUPT
 70
     0
  9
$DIMDEC
 70
     2
  9
$DIMTDEC
 70
     2
  9
$DIMALTU
 70
     2
  9
$DIMALTTD
 70
     3
  9
$DIMTXSTY
  7
Standard
  9
$DIMAUNIT
 70
     0
  9
$DIMADEC
 70
     2
  9
$DIMALTRND
 40
0.0
  9
$DIMAZIN
 70
     0
  9
$DIMDSEP
 70
    44
  9
$DIMATFIT
 70
     3
  9
$DIMFRAC
 70
     0
  9
$DIMLDRBLK
  1

  9
$DIMLUNIT
 70
     2
  9
$DIMLWD
 70
    -2
  9
$DIMLWE
 70
    -2
  9
$DIMTMOVE
 70
     0
  9
$LUNITS
 70
     2
  9
$LUPREC
 70
     2
  9
$SKETCHINC
 40
1.0
  9
$FILLETRAD
 40
10.0
  9
$AUNITS
 70
     0
  9
$AUPREC
 70
     2
  9
$MENU
  1
.
  9
$ELEVATION
 40
0.0
  9
$PELEVATION
 40
0.0
  9
$THICKNESS
 40
0.0
  9
$LIMCHECK
 70
     0
  9
$CHAMFERA
 40
0.0
  9
$CHAMFERB
 40
0.0
  9
$CHAMFERC
 40
0.0
  9
$CHAMFERD
 40
0.0
  9
$SKPOLY
 70
     0
  9
$TDCREATE
 40
2458262.546798009
  9
$TDUCREATE
 40
2458262.171798009
  9
$TDUPDATE
 40
2458266.677641898
  9
$TDUUPDATE
 40
2458266.302641898
  9
$TDINDWG
 40
0.0011411227
  9
$TDUSRTIMER
 40
2458266.30150081
  9
$USRTIMER
 70
     1
  9
$ANGBASE
 50
0.0
  9
$ANGDIR
 70
     0
  9
$PDMODE
 70
     0
  9
$PDSIZE
 40
-1.0
  9
$PLINEWID
 40
0.0
  9
$SPLFRAME
 70
     0
  9
$SPLINETYPE
 70
     6
  9
$SPLINESEGS
 70
     8
  9
$HANDSEED
  5
14A
  9
$SURFTAB1
 70
     6
  9
$SURFTAB2
 70
     6
  9
$SURFTYPE
 70
     6
  9
$SURFU
 70
     6
  9
$SURFV
 70
     6
  9
$UCSBASE
  2

  9
$UCSNAME
  2

  9
$UCSORG
 10
0.0
 20
0.0
 30
0.0
  9
$UCSXDIR
 10
1.0
 20
0.0
 30
0.0
  9
$UCSYDIR
 10
0.0
 20
1.0
 30
0.0
  9
$UCSORTHOREF
  2

  9
$UCSORTHOVIEW
 70
     0
  9
$UCSORGTOP
 10
0.0
 20
0.0
 30
0.0
  9
$UCSORGBOTTOM
 10
0.0
 20
0.0
 30
0.0
  9
$UCSORGLEFT
 10
0.0
 20
0.0
 30
0.0
  9
$UCSORGRIGHT
 10
0.0
 20
0.0
 30
0.0
  9
$UCSORGFRONT
 10
0.0
 20
0.0
 30
0.0
  9
$UCSORGBACK
 10
0.0
 20
0.0
 30
0.0
  9
$PUCSBASE
  2

  9
$PUCSNAME
  2

  9
$PUCSORG
 10
0.0
 20
0.0
 30
0.0
  9
$PUCSXDIR
 10
1.0
 20
0.0
 30
0.0
  9
$PUCSYDIR
 10
0.0
 20
1.0
 30
0.0
  9
$PUCSORTHOREF
  2

  9
$PUCSORTHOVIEW
 70
     0
  9
$PUCSORGTOP
 10
0.0
 20
0.0
 30
0.0
  9
$PUCSORGBOTTOM
 10
0.0
 20
0.0
 30
0.0
  9
$PUCSORGLEFT
 10
0.0
 20
0.0
 30
0.0
  9
$PUCSORGRIGHT
 10
0.0
 20
0.0
 30
0.0
  9
$PUCSORGFRONT
 10
0.0
 20
0.0
 30
0.0
  9
$PUCSORGBACK
 10
0.0
 20
0.0
 30
0.0
  9
$USERI1
 70
     0
  9
$USERI2
 70
     0
  9
$USERI3
 70
     0
  9
$USERI4
 70
     0
  9
$USERI5
 70
     0
  9
$USERR1
 40
0.0
  9
$USERR2
 40
0.0
  9
$USERR3
 40
0.0
  9
$USERR4
 40
0.0
  9
$USERR5
 40
0.0
  9
$WORLDVIEW
 70
     1
  9
$SHADEDGE
 70
     3
  9
$SHADEDIF
 70
    70
  9
$TILEMODE
 70
     1
  9
$MAXACTVP
 70
    64
  9
$PINSBASE
 10
0.0
 20
0.0
 30
0.0
  9
$PLIMCHECK
 70
     0
  9
$PEXTMIN
 10
1.000000000000000E+20
 20
1.000000000000000E+20
 30
1.000000000000000E+20
  9
$PEXTMAX
 10
-1.000000000000000E+20
 20
-1.000000000000000E+20
 30
-1.000000000000000E+20
  9
$PLIMMIN
 10
0.0
 20
0.0
  9
$PLIMMAX
 10
0.0
 20
0.0
  9
$UNITMODE
 70
     0
  9
$VISRETAIN
 70
     1
  9
$PLINEGEN
 70
     0
  9
$PSLTSCALE
 70
     1
  9
$TREEDEPTH
 70
  3020
  9
$CMLSTYLE
  2
Standard
  9
$CMLJUST
 70
     0
  9
$CMLSCALE
 40
20.0
  9
$PROXYGRAPHICS
 70
     1
  9
$MEASUREMENT
 70
     1
  9
$CELWEIGHT
370
    -1
  9
$ENDCAPS
280
     0
  9
$JOINSTYLE
280
     0
  9
$LWDISPLAY
290
     1
  9
$INSUNITS
 70
     4
  9
$HYPERLINKBASE
  1

  9
$STYLESHEET
  1

  9
$XEDIT
290
     1
  9
$CEPSNTYPE
380
     0
  9
$PSTYLEMODE
290
     1
  9
$FINGERPRINTGUID
  2
{0BC5EC99-0CC3-4FA9-A61A-377860700029}
  9
$VERSIONGUID
  2
{FAEB1C32-E019-11D5-929B-00C0DF256EC4}
  9
$EXTNAMES
290
     1
  9
$PSVPSCALE
 40
0.0
  9
$OLESTARTUP
290
     0
  0
ENDSEC
  0
SECTION
  2
CLASSES
  0
CLASS
  1
ACDBDICTIONARYWDFLT
  2
AcDbDictionaryWithDefault
  3
ObjectDBX Classes
 90
        0
280
     0
281
     0
  0
CLASS
  1
VISUALSTYLE
  2
AcDbVisualStyle
  3
ObjectDBX Classes
 90
     4095
280
     0
281
     0
  0
CLASS
  1
MATERIAL
  2
AcDbMaterial
  3
ObjectDBX Classes
 90
     1153
280
     0
281
     0
  0
CLASS
  1
SCALE
  2
AcDbScale
  3
ObjectDBX Classes
 90
     1153
280
     0
281
     0
  0
CLASS
  1
SUN
  2
AcDbSun
  3
SCENEOE
 90
     1153
280
     0
281
     0
  0
CLASS
  1
ACDBPLACEHOLDER
  2
AcDbPlaceHolder
  3
ObjectDBX Classes
 90
        0
280
     0
281
     0
  0
CLASS
  1
LAYOUT
  2
AcDbLayout
  3
ObjectDBX Classes
 90
        0
280
     0
281
     0
  0
CLASS
  1
TABLESTYLE
  2
AcDbTableStyle
  3
ObjectDBX Classes
 90
     4095
280
     0
281
     0
  0
CLASS
  1
MLEADERSTYLE
  2
AcDbMLeaderStyle
  3
ACDB_MLEADERSTYLE_CLASS
 90
     4095
280
     0
281
     0
  0
CLASS
  1
RASTERVARIABLES
  2
AcDbRasterVariables
  3
ISM
 90
        0
280
     0
281
     0
  0
ENDSEC
  0
SECTION
  2
TABLES
  0
TABLE
  2
VPORT
  5
8
330
0
100
AcDbSymbolTable
 70
     1
  0
VPORT
  5
29
330
8
100
AcDbSymbolTableRecord
100
AcDbViewportTableRecord
  2
*Active
 70
     0
 10
0.0
 20
0.0
 11
1.0
 21
1.0
 12
-29.30135556650511
 22
-9.903661009922587
 13
0.0
 23
0.0
 14
10.0
 24
10.0
 15
10.0
 25
10.0
 16
0.0
 26
0.0
 36
1.0
 17
0.0
 27
0.0
 37
0.0
 40
207.9948841954866
 41
1.152454780361757
 42
50.0
 43
0.0
 44
0.0
 50
0.0
 51
0.0
 71
    16
 72
  2000
 73
     1
 74
     3
 75
     0
 76
     0
 77
     0
 78
     0
281
     0
 65
     1
110
0.0
120
0.0
130
0.0
111
1.0
121
0.0
131
0.0
112
0.0
122
1.0
132
0.0
 79
     0
146
0.0
  0
ENDTAB
  0
TABLE
  2
LTYPE
  5
5
330
0
100
AcDbSymbolTable
 70
     6
  0
LTYPE
  5
14
330
5
100
AcDbSymbolTableRecord
100
AcDbLinetypeTableRecord
  2
ByBlock
 70
     0
  3

 72
    65
 73
     0
 40
0.0
  0
LTYPE
  5
15
330
5
100
AcDbSymbolTableRecord
100
AcDbLinetypeTableRecord
  2
ByLayer
 70
     0
  3

 72
    65
 73
     0
 40
0.0
  0
LTYPE
  5
16
330
5
100
AcDbSymbolTableRecord
100
AcDbLinetypeTableRecord
  2
Continuous
 70
     0
  3
Solid line
 72
    65
 73
     0
 40
0.0
  0
LTYPE
  5
6A
330
5
100
AcDbSymbolTableRecord
100
AcDbLinetypeTableRecord
  2
HIDDEN
 70
     0
  3
Hidden __ __ __ __ __ __ __ __ __ __ __ __ __ __
 72
    65
 73
     2
 40
1.905
 49
1.27
 74
     0
 49
-0.635
 74
     0
  0
LTYPE
  5
6B
330
5
100
AcDbSymbolTableRecord
100
AcDbLinetypeTableRecord
  2
PHANTOM
 70
     0
  3
Phantom ______  __  __  ______  __  __  ______
 72
    65
 73
     6
 40
12.7
 49
6.35
 74
     0
 49
-1.27
 74
     0
 49
1.27
 74
     0
 49
-1.27
 74
     0
 49
1.27
 74
     0
 49
-1.27
 74
     0
  0
LTYPE
  5
6C
330
5
100
AcDbSymbolTableRecord
100
AcDbLinetypeTableRecord
  2
CENTER
 70
     0
  3
Center ____ _ ____ _ ____ _ ____ _ ____ _ ____
 72
    65
 73
     4
 40
10.16
 49
6.35
 74
     0
 49
-1.27
 74
     0
 49
1.27
 74
     0
 49
-1.27
 74
     0
  0
LTYPE
  5
6D
330
5
100
AcDbSymbolTableRecord
100
AcDbLinetypeTableRecord
  2
CENTERX2
 70
     0
  3
Center (2x) ________  __  ________  __  _____
 72
    65
 73
     4
 40
20.32
 49
12.7
 74
     0
 49
-2.54
 74
     0
 49
2.54
 74
     0
 49
-2.54
 74
     0
  0
LTYPE
  5
6E
330
5
100
AcDbSymbolTableRecord
100
AcDbLinetypeTableRecord
  2
DOT2
 70
     0
  3
Dot (.5x) ........................................
 72
    65
 73
     2
 40
0.635
 49
0.0
 74
     0
 49
-0.635
 74
     0
  0
ENDTAB
  0
TABLE
  2
LAYER
  5
2
330
0
100
AcDbSymbolTable
 70
    17
  0
LAYER
  5
10
330
2
100
AcDbSymbolTableRecord
100
AcDbLayerTableRecord
  2
0
 70
     0
 62
     7
  6
Continuous
370
    -3
390
F
  0
LAYER
  5
6F
330
2
100
AcDbSymbolTableRecord
100
AcDbLayerTableRecord
  2
FORMAT
 70
     0
 62
     2
  6
Continuous
370
    -3
390
F
  0
LAYER
  5
70
330
2
100
AcDbSymbolTableRecord
100
AcDbLayerTableRecord
  2
외형선
 70
     0
 62
   100
  6
Continuous
370
    30
390
F
  0
LAYER
  5
71
330
2
100
AcDbSymbolTableRecord
100
AcDbLayerTableRecord
  2
숨은선
 70
     0
 62
     2
  6
HIDDEN
370
    15
390
F
  0
LAYER
  5
72
330
2
100
AcDbSymbolTableRecord
100
AcDbLayerTableRecord
  2
중심선
 70
     0
 62
     1
  6
CENTERX2
370
    -3
390
F
  0
LAYER
  5
73
330
2
100
AcDbSymbolTableRecord
100
AcDbLayerTableRecord
  2
파단선
 70
     0
 62
     4
  6
Continuous
370
    -3
390
F
  0
LAYER
  5
74
330
2
100
AcDbSymbolTableRecord
100
AcDbLayerTableRecord
  2
해칭선
 70
     0
 62
     4
  6
Continuous
370
    -3
390
F
  0
LAYER
  5
75
330
2
100
AcDbSymbolTableRecord
100
AcDbLayerTableRecord
  2
가는실선
 70
     0
 62
     4
  6
Continuous
370
    -3
390
F
  0
LAYER
  5
76
330
2
100
AcDbSymbolTableRecord
100
AcDbLayerTableRecord
  2
치수_보조선
 70
     0
 62
     4
  6
Continuous
370
    -3
390
F
  0
LAYER
  5
77
330
2
100
AcDbSymbolTableRecord
100
AcDbLayerTableRecord
  2
치수문자_일반주서
 70
     0
 62
     7
  6
Continuous
370
    15
390
F
  0
LAYER
  5
78
330
2
100
AcDbSymbolTableRecord
100
AcDbLayerTableRecord
  2
개별주서
 70
     0
 62
   100
  6
Continuous
370
    30
390
F
  0
LAYER
  5
79
330
2
100
AcDbSymbolTableRecord
100
AcDbLayerTableRecord
  2
중간선
 70
     0
 62
     2
  6
Continuous
370
    15
390
F
  0
LAYER
  5
7A
330
2
100
AcDbSymbolTableRecord
100
AcDbLayerTableRecord
  2
윤곽선
 70
     0
 62
     3
  6
Continuous
370
    40
390
F
  0
LAYER
  5
7B
330
2
100
AcDbSymbolTableRecord
100
AcDbLayerTableRecord
  2
중심마크
 70
     0
 62
   100
  6
Continuous
370
    30
390
F
  0
LAYER
  5
7C
330
2
100
AcDbSymbolTableRecord
100
AcDbLayerTableRecord
  2
가상선
 70
     0
 62
     4
  6
PHANTOM
370
    -3
390
F
  0
LAYER
  5
7D
330
2
100
AcDbSymbolTableRecord
100
AcDbLayerTableRecord
  2
특수지정선
 70
     0
 62
     5
  6
CENTERX2
370
    60
390
F
  0
LAYER
  5
13B
330
2
100
AcDbSymbolTableRecord
100
AcDbLayerTableRecord
  2
Defpoints
 70
     0
 62
     7
  6
Continuous
290
     0
370
    -3
390
F
  0
ENDTAB
  0
TABLE
  2
STYLE
  5
3
330
0
100
AcDbSymbolTable
 70
     2
  0
STYLE
  5
11
330
3
100
AcDbSymbolTableRecord
100
AcDbTextStyleTableRecord
  2
Standard
 70
     0
 40
0.0
 41
1.0
 50
0.0
 71
     0
 42
3.5
  3
txt
  4

  0
STYLE
  5
93
330
3
100
AcDbSymbolTableRecord
100
AcDbTextStyleTableRecord
  2
SLDTEXTSTYLE0
 70
     0
 40
0.0
 41
0.75
 50
0.0
 71
     0
 42
3.5
  3
TXT
  4

  0
ENDTAB
  0
TABLE
  2
VIEW
  5
6
330
0
100
AcDbSymbolTable
 70
     0
  0
ENDTAB
  0
TABLE
  2
UCS
  5
7
330
0
100
AcDbSymbolTable
 70
     0
  0
ENDTAB
  0
TABLE
  2
APPID
  5
9
330
0
100
AcDbSymbolTable
 70
     1
  0
APPID
  5
12
330
9
100
AcDbSymbolTableRecord
100
AcDbRegAppTableRecord
  2
ACAD
 70
     0
  0
ENDTAB
  0
TABLE
  2
DIMSTYLE
  5
A
330
0
100
AcDbSymbolTable
 70
     3
100
AcDbDimStyleTable
  0
DIMSTYLE
105
27
330
A
100
AcDbSymbolTableRecord
100
AcDbDimStyleTableRecord
  2
ISO-25
 70
     0
 41
2.5
 42
0.625
 43
3.75
 44
1.25
 73
     0
 74
     0
 77
     1
 78
     8
140
2.5
141
2.5
143
0.03937007874016
147
0.625
171
     3
172
     1
178
     0
271
     2
272
     2
274
     3
278
    44
283
     0
284
     8
340
11
  0
DIMSTYLE
105
E1
102
{ACAD_REACTORS
330
E0
330
103
102
}
330
A
100
AcDbSymbolTableRecord
100
AcDbDimStyleTableRecord
  2
SLDDIMSTYLE0
 70
     0
 41
3.302
 44
0.0
 45
0.000000001
 73
     0
 74
     0
 77
     1
 78
    12
 79
     3
140
3.5
147
0.875
172
     1
173
     1
178
     0
271
     2
272
     2
276
     2
284
    12
289
     0
340
93
  0
DIMSTYLE
105
EF
102
{ACAD_REACTORS
330
EE
330
F9
102
}
330
A
100
AcDbSymbolTableRecord
100
AcDbDimStyleTableRecord
  2
SLDDIMSTYLE1
 70
     0
 41
3.302
 44
0.0
 45
0.000000001
 73
     0
 74
     0
 77
     1
 78
    12
 79
     3
140
3.5
147
0.875
173
     1
178
     0
271
     2
272
     2
276
     2
284
    12
340
93
  0
ENDTAB
  0
TABLE
  2
BLOCK_RECORD
  5
1
330
0
100
AcDbSymbolTable
 70
     7
  0
BLOCK_RECORD
  5
1F
330
1
100
AcDbSymbolTableRecord
100
AcDbBlockTableRecord
  2
*Model_Space
340
22
  0
BLOCK_RECORD
  5
1B
330
1
100
AcDbSymbolTableRecord
100
AcDbBlockTableRecord
  2
*Paper_Space
340
1E
  0
BLOCK_RECORD
  5
23
330
1
100
AcDbSymbolTableRecord
100
AcDbBlockTableRecord
  2
*Paper_Space0
340
26
  0
BLOCK_RECORD
  5
7E
330
1
100
AcDbSymbolTableRecord
100
AcDbBlockTableRecord
  2
블럭10
340
0
102
{BLKREFS
331
D9
102
}
  0
BLOCK_RECORD
  5
E2
330
1
100
AcDbSymbolTableRecord
100
AcDbBlockTableRecord
  2
_D
340
0
  0
BLOCK_RECORD
  5
F0
330
1
100
AcDbSymbolTableRecord
100
AcDbBlockTableRecord
  2
_D_1
340
0
  0
BLOCK_RECORD
  5
FA
330
1
100
AcDbSymbolTableRecord
100
AcDbBlockTableRecord
  2
_D_2
340
0
  0
BLOCK_RECORD
  5
104
330
1
100
AcDbSymbolTableRecord
100
AcDbBlockTableRecord
  2
_D_3
340
0
  0
BLOCK_RECORD
  5
110
330
1
100
AcDbSymbolTableRecord
100
AcDbBlockTableRecord
  2
SW_DOWELSYMBOL_0
340
0
102
{BLKREFS
331
116
102
}
  0
ENDTAB
  0
ENDSEC
  0
SECTION
  2
BLOCKS
  0
BLOCK
  5
20
330
1F
100
AcDbEntity
  8
0
100
AcDbBlockBegin
  2
*Model_Space
 70
     0
 10
0.0
 20
0.0
 30
0.0
  3
*Model_Space
  1

  0
ENDBLK
  5
21
330
1F
100
AcDbEntity
  8
0
100
AcDbBlockEnd
  0
BLOCK
  5
1C
330
1B
100
AcDbEntity
 67
     1
  8
0
100
AcDbBlockBegin
  2
*Paper_Space
 70
     0
 10
0.0
 20
0.0
 30
0.0
  3
*Paper_Space
  1

  0
ENDBLK
  5
1D
330
1B
100
AcDbEntity
 67
     1
  8
0
100
AcDbBlockEnd
  0
BLOCK
  5
24
330
23
100
AcDbEntity
  8
0
100
AcDbBlockBegin
  2
*Paper_Space0
 70
     0
 10
0.0
 20
0.0
 30
0.0
  3
*Paper_Space0
  1

  0
ENDBLK
  5
25
330
23
100
AcDbEntity
  8
0
100
AcDbBlockEnd
  0
BLOCK
  5
7F
330
7E
100
AcDbEntity
  8
0
100
AcDbBlockBegin
  2
블럭10
 70
     2
 10
0.0
 20
0.0
 30
0.0
  3
블럭10
  1

  0
ELLIPSE
  5
81
330
7E
100
AcDbEntity
  8
중심선
100
AcDbEllipse
 10
20.54032771741204
 20
12.0471743016438
 30
0.0
 11
6.600054785286829
 21
-1.261213355974178E-13
 31
0.0
210
0.0
220
0.0
230
1.0
 40
0.636358354079598
 41
0.9219305317359503
 42
6.513795318482858
  0
ELLIPSE
  5
82
330
7E
100
AcDbEntity
  8
중심선
100
AcDbEllipse
 10
20.54032771746488
 20
12.04717430159265
 30
0.0
 11
3.960054785062283
 21
1.540847449632565E-10
 31
0.0
210
0.0
220
0.0
230
1.0
 40
0.3939339440162632
 41
1.131841032648279
 42
5.62031148352944
  0
LINE
  5
83
330
7E
100
AcDbEntity
  8
중심선
100
AcDbLine
 10
2.268634060543552
 20
16.24717430164393
 30
0.0
 11
5.714909304380834
 21
16.24717430164393
 31
0.0
  0
LINE
  5
84
330
7E
100
AcDbEntity
  8
중심선
100
AcDbLine
 10
5.245725140726316
 20
7.84717430164391
 30
0.0
 11
8.692000384563599
 21
7.84717430164391
 31
0.0
  0
LINE
  5
85
330
7E
100
AcDbEntity
  8
중심선
100
AcDbLine
 10
15.74043728645272
 20
16.24717430164393
 30
0.0
 11
8.692000384563599
 21
7.84717430164391
 31
0.0
  0
LINE
  5
86
330
7E
100
AcDbEntity
  8
중심선
100
AcDbLine
 10
0.1404042013395286
 20
13.71084872107135
 30
0.0
 11
3.58671253028996
 21
13.71088815037384
 31
0.0
  0
LINE
  5
87
330
7E
100
AcDbEntity
  8
중심선
100
AcDbLine
 10
2.750260043222114
 20
10.84717430164391
 30
0.0
 11
6.196535287059397
 21
10.84717430164391
 31
0.0
  0
LINE
  5
88
330
7E
100
AcDbEntity
  8
중심선
100
AcDbLine
 10
12.29416204261559
 20
16.24717430164393
 30
0.0
 11
5.245725140726316
 21
7.84717430164391
 31
0.0
  0
LINE
  5
89
330
7E
100
AcDbEntity
  8
중심선
100
AcDbLine
 10
10.72767329541681
 20
16.24717430164393
 30
0.0
 11
6.196535287059397
 21
10.84717430164391
 31
0.0
  0
LINE
  5
8A
330
7E
100
AcDbEntity
  8
중심선
100
AcDbLine
 10
7.28139805157953
 20
16.24717430164393
 30
0.0
 11
2.750260043222114
 21
10.84717430164391
 31
0.0
  0
LINE
  5
8B
330
7E
100
AcDbEntity
  8
중심선
100
AcDbLine
 10
5.714909304380834
 20
16.24717430164393
 30
0.0
 11
3.58671253028996
 21
13.71088815037384
 31
0.0
  0
LINE
  5
8C
330
7E
100
AcDbEntity
  8
중심선
100
AcDbLine
 10
2.268634060543552
 20
16.24717430164393
 30
0.0
 11
0.1404042013395286
 21
13.71084872107135
 31
0.0
  0
LINE
  5
8D
330
7E
100
AcDbEntity
  8
중심선
100
AcDbLine
 10
7.28139805157953
 20
16.24717430164393
 30
0.0
 11
10.72767329541681
 21
16.24717430164393
 31
0.0
  0
LINE
  5
8E
330
7E
100
AcDbEntity
  8
중심선
100
AcDbLine
 10
12.29416204261559
 20
16.24717430164393
 30
0.0
 11
15.74043728645272
 21
16.24717430164393
 31
0.0
  0
LINE
  5
8F
330
7E
100
AcDbEntity
  8
중심선
100
AcDbLine
 10
19.22036997980202
 20
11.08717430171403
 30
0.0
 11
23.66174974927406
 21
11.08717430171406
 31
0.0
  0
LINE
  5
90
330
7E
100
AcDbEntity
  8
중심선
100
AcDbLine
 10
19.22039502424796
 20
13.00717430171391
 30
0.0
 11
19.22036997980202
 21
11.08717430171403
 31
0.0
  0
LINE
  5
91
330
7E
100
AcDbEntity
  8
중심선
100
AcDbLine
 10
19.22039502424796
 20
13.00717430171391
 30
0.0
 11
26.96566020931264
 21
13.00717430171391
 31
0.0
  0
LINE
  5
92
330
7E
100
AcDbEntity
  8
중심선
100
AcDbLine
 10
22.22332737316547
 20
13.45928029700563
 30
0.0
 11
24.52862924686651
 21
15.39360700705356
 31
0.0
  0
ATTDEF
  5
94
330
7E
100
AcDbEntity
  8
FORMAT
 62
     2
100
AcDbText
 10
-20.85824753159254
 20
2.075366912832191
 30
0.0
 40
4.233333333333333
  1
SEME7010060200E [ 2 FLUTE ]
 41
0.75
  7
SLDTEXTSTYLE0
 11
-20.85824753159254
 21
-0.0412997538344756
 31
0.0
100
AcDbAttributeDefinition
  3

  2
AUTOATTR0
 70
     0
 74
     1
  0
ENDBLK
  5
80
330
7E
100
AcDbEntity
  8
0
100
AcDbBlockEnd
  0
BLOCK
  5
E3
330
E2
100
AcDbEntity
  8
0
100
AcDbBlockBegin
  2
_D
 70
     0
 10
0.0
 20
0.0
 30
0.0
  3
_D
  1

  0
LINE
  5
E5
330
E2
100
AcDbEntity
  8
치수문자_일반주서
 62
     0
370
    -2
100
AcDbLine
 10
70.06249999999972
 20
-4.999999999999762
 30
0.0
 11
87.65061432657261
 21
-4.999999999999698
 31
0.0
  0
LINE
  5
E6
330
E2
100
AcDbEntity
  8
치수문자_일반주서
 62
     0
370
    -2
100
AcDbLine
 10
70.06249999999972
 20
5.000000000000233
 30
0.0
 11
87.65061432657258
 21
5.000000000000298
 31
0.0
  0
LINE
  5
E7
330
E2
100
AcDbEntity
  8
치수문자_일반주서
 62
     0
370
    -2
100
AcDbLine
 10
87.65061432657261
 20
-4.999999999999698
 30
0.0
 11
87.65061432657254
 21
19.0415000000003
 31
0.0
  0
LINE
  5
E8
330
E2
100
AcDbEntity
  8
치수문자_일반주서
 62
     0
370
    -2
100
AcDbLine
 10
87.65061432657261
 20
-4.999999999999698
 30
0.0
 11
87.65061432657258
 21
5.000000000000298
 31
0.0
  0
LINE
  5
E9
330
E2
100
AcDbEntity
  8
치수문자_일반주서
 62
     0
370
    -2
100
AcDbLine
 10
87.65061432657262
 20
-8.301999999999698
 30
0.0
 11
87.65061432657264
 21
-11.6039999999997
 31
0.0
  0
LINE
  5
EA
330
E2
100
AcDbEntity
  8
치수문자_일반주서
 62
     0
370
    -2
100
AcDbLine
 10
87.65061432657257
 20
8.302000000000298
 30
0.0
 11
87.65061432657255
 21
11.6040000000003
 31
0.0
  0
SOLID
  5
EB
330
E2
100
AcDbEntity
  8
치수문자_일반주서
 62
     0
100
AcDbTrace
 10
88.20094765990595
 20
-8.301999999999696
 30
0.0
 11
87.1002809932393
 21
-8.3019999999997
 31
0.0
 12
87.65061432657261
 22
-4.999999999999698
 32
0.0
 13
87.65061432657261
 23
-4.999999999999698
 33
0.0
  0
SOLID
  5
EC
330
E2
100
AcDbEntity
  8
치수문자_일반주서
 62
     0
100
AcDbTrace
 10
87.10028099323924
 20
8.302000000000296
 30
0.0
 11
88.20094765990589
 21
8.3020000000003
 31
0.0
 12
87.65061432657258
 22
5.000000000000298
 32
0.0
 13
87.65061432657258
 23
5.000000000000298
 33
0.0
  0
MTEXT
  5
ED
330
E2
100
AcDbEntity
  8
치수문자_일반주서
 62
     0
100
AcDbMText
 10
83.27561432657255
 20
15.32275000000029
 30
0.0
 40
3.5
 41
0.0
 71
     2
 72
     1
  1
\A1;%%c10
  7
SLDTEXTSTYLE0
 11
-2.842170943040402E-15
 21
1.0
 31
0.0
 73
     1
 44
1.0
  0
POINT
  5
145
330
E2
100
AcDbEntity
  8
Defpoints
 62
     0
100
AcDbPoint
 10
69.99999999999972
 20
-4.999999999999762
 30
0.0
  0
POINT
  5
146
330
E2
100
AcDbEntity
  8
Defpoints
 62
     0
100
AcDbPoint
 10
69.99999999999972
 20
5.000000000000233
 30
0.0
  0
POINT
  5
147
330
E2
100
AcDbEntity
  8
Defpoints
 62
     0
100
AcDbPoint
 10
87.65061432657258
 20
5.000000000000298
 30
0.0
  0
ENDBLK
  5
E4
330
E2
100
AcDbEntity
  8
0
100
AcDbBlockEnd
  0
BLOCK
  5
F1
330
F0
100
AcDbEntity
  8
0
100
AcDbBlockBegin
  2
_D_1
 70
     0
 10
0.0
 20
0.0
 30
0.0
  3
_D_1
  1

  0
LINE
  5
F3
330
F0
100
AcDbEntity
  8
치수문자_일반주서
 62
     0
370
    -2
100
AcDbLine
 10
-130.0
 20
4.062499999999988
 30
0.0
 11
-130.0
 21
25.78841044024269
 31
0.0
  0
LINE
  5
F4
330
F0
100
AcDbEntity
  8
치수문자_일반주서
 62
     0
370
    -2
100
AcDbLine
 10
69.99999999999972
 20
5.062500000000226
 30
0.0
 11
69.99999999999972
 21
25.78841044024269
 31
0.0
  0
LINE
  5
F5
330
F0
100
AcDbEntity
  8
치수문자_일반주서
 62
     0
370
    -2
100
AcDbLine
 10
-126.698
 20
25.78841044024269
 30
0.0
 11
66.69799999999972
 21
25.78841044024269
 31
0.0
  0
SOLID
  5
F6
330
F0
100
AcDbEntity
  8
치수문자_일반주서
 62
     0
100
AcDbTrace
 10
-126.698
 20
26.33874377357602
 30
0.0
 11
-126.698
 21
25.23807710690935
 31
0.0
 12
-130.0
 22
25.78841044024269
 32
0.0
 13
-130.0
 23
25.78841044024269
 33
0.0
  0
SOLID
  5
F7
330
F0
100
AcDbEntity
  8
치수문자_일반주서
 62
     0
100
AcDbTrace
 10
66.69799999999972
 20
25.23807710690935
 30
0.0
 11
66.69799999999972
 21
26.33874377357602
 31
0.0
 12
69.99999999999972
 22
25.78841044024269
 32
0.0
 13
69.99999999999972
 23
25.78841044024269
 33
0.0
  0
MTEXT
  5
F8
330
F0
100
AcDbEntity
  8
치수문자_일반주서
 62
     0
100
AcDbMText
 10
-30.00000000000015
 20
30.16341044024269
 30
0.0
 40
3.5
 41
0.0
 71
     2
 72
     1
  1
\A1;200
  7
SLDTEXTSTYLE0
 73
     1
 44
1.0
  0
POINT
  5
13C
330
F0
100
AcDbEntity
  8
Defpoints
 62
     0
100
AcDbPoint
 10
-130.0
 20
3.999999999999988
 30
0.0
  0
POINT
  5
13D
330
F0
100
AcDbEntity
  8
Defpoints
 62
     0
100
AcDbPoint
 10
69.99999999999972
 20
5.000000000000226
 30
0.0
  0
POINT
  5
13E
330
F0
100
AcDbEntity
  8
Defpoints
 62
     0
100
AcDbPoint
 10
69.99999999999972
 20
25.78841044024269
 30
0.0
  0
ENDBLK
  5
F2
330
F0
100
AcDbEntity
  8
0
100
AcDbBlockEnd
  0
BLOCK
  5
FB
330
FA
100
AcDbEntity
  8
0
100
AcDbBlockBegin
  2
_D_2
 70
     0
 10
0.0
 20
0.0
 30
0.0
  3
_D_2
  1

  0
LINE
  5
FD
330
FA
100
AcDbEntity
  8
치수문자_일반주서
 62
     0
370
    -2
100
AcDbLine
 10
9.999999999999991
 20
3.931248463826009
 30
0.0
 11
9.999999999999993
 21
17.21574626999353
 31
0.0
  0
LINE
  5
FE
330
FA
100
AcDbEntity
  8
치수문자_일반주서
 62
     0
370
    -2
100
AcDbLine
 10
69.99999999999972
 20
5.062500000000226
 30
0.0
 11
69.99999999999972
 21
17.21574626999353
 31
0.0
  0
LINE
  5
FF
330
FA
100
AcDbEntity
  8
치수문자_일반주서
 62
     0
370
    -2
100
AcDbLine
 10
13.30199999999999
 20
17.21574626999353
 30
0.0
 11
66.69799999999972
 21
17.21574626999353
 31
0.0
  0
SOLID
  5
100
330
FA
100
AcDbEntity
  8
치수문자_일반주서
 62
     0
100
AcDbTrace
 10
13.30199999999999
 20
17.76607960332687
 30
0.0
 11
13.30199999999999
 21
16.6654129366602
 31
0.0
 12
9.999999999999993
 22
17.21574626999353
 32
0.0
 13
9.999999999999993
 23
17.21574626999353
 33
0.0
  0
SOLID
  5
101
330
FA
100
AcDbEntity
  8
치수문자_일반주서
 62
     0
100
AcDbTrace
 10
66.69799999999972
 20
16.6654129366602
 30
0.0
 11
66.69799999999972
 21
17.76607960332687
 31
0.0
 12
69.99999999999972
 22
17.21574626999353
 32
0.0
 13
69.99999999999972
 23
17.21574626999353
 33
0.0
  0
MTEXT
  5
102
330
FA
100
AcDbEntity
  8
치수문자_일반주서
 62
     0
100
AcDbMText
 10
39.99999999999999
 20
21.59074626999353
 30
0.0
 40
3.5
 41
0.0
 71
     2
 72
     1
  1
\A1;60
  7
SLDTEXTSTYLE0
 73
     1
 44
1.0
  0
POINT
  5
13F
330
FA
100
AcDbEntity
  8
Defpoints
 62
     0
100
AcDbPoint
 10
9.999999999999991
 20
3.868748463826009
 30
0.0
  0
POINT
  5
140
330
FA
100
AcDbEntity
  8
Defpoints
 62
     0
100
AcDbPoint
 10
69.99999999999972
 20
5.000000000000226
 30
0.0
  0
POINT
  5
141
330
FA
100
AcDbEntity
  8
Defpoints
 62
     0
100
AcDbPoint
 10
69.99999999999972
 20
17.21574626999353
 30
0.0
  0
ENDBLK
  5
FC
330
FA
100
AcDbEntity
  8
0
100
AcDbBlockEnd
  0
BLOCK
  5
105
330
104
100
AcDbEntity
  8
0
100
AcDbBlockBegin
  2
_D_3
 70
     0
 10
0.0
 20
0.0
 30
0.0
  3
_D_3
  1

  0
LINE
  5
107
330
104
100
AcDbEntity
  8
치수문자_일반주서
 62
     0
370
    -2
100
AcDbLine
 10
-129.0625
 20
4.999999999999988
 30
0.0
 11
-142.4286587929161
 21
4.99999999999994
 31
0.0
  0
LINE
  5
108
330
104
100
AcDbEntity
  8
치수문자_일반주서
 62
     0
370
    -2
100
AcDbLine
 10
-129.0625
 20
-4.999999999999996
 30
0.0
 11
-142.4286587929161
 21
-5.000000000000046
 31
0.0
  0
LINE
  5
109
330
104
100
AcDbEntity
  8
치수문자_일반주서
 62
     0
370
    -2
100
AcDbLine
 10
-142.4286587929161
 20
4.99999999999994
 30
0.0
 11
-142.4286587929162
 21
19.04149999999994
 31
0.0
  0
LINE
  5
10A
330
104
100
AcDbEntity
  8
치수문자_일반주서
 62
     0
370
    -2
100
AcDbLine
 10
-142.4286587929161
 20
4.99999999999994
 30
0.0
 11
-142.4286587929161
 21
-5.000000000000046
 31
0.0
  0
LINE
  5
10B
330
104
100
AcDbEntity
  8
치수문자_일반주서
 62
     0
370
    -2
100
AcDbLine
 10
-142.4286587929161
 20
8.30199999999994
 30
0.0
 11
-142.4286587929161
 21
11.60399999999994
 31
0.0
  0
LINE
  5
10C
330
104
100
AcDbEntity
  8
치수문자_일반주서
 62
     0
370
    -2
100
AcDbLine
 10
-142.4286587929161
 20
-8.302000000000046
 30
0.0
 11
-142.4286587929161
 21
-11.60400000000005
 31
0.0
  0
SOLID
  5
10D
330
104
100
AcDbEntity
  8
치수문자_일반주서
 62
     0
100
AcDbTrace
 10
-142.9789921262495
 20
8.301999999999937
 30
0.0
 11
-141.8783254595828
 21
8.301999999999941
 31
0.0
 12
-142.4286587929161
 22
4.99999999999994
 32
0.0
 13
-142.4286587929161
 23
4.99999999999994
 33
0.0
  0
SOLID
  5
10E
330
104
100
AcDbEntity
  8
치수문자_일반주서
 62
     0
100
AcDbTrace
 10
-141.8783254595828
 20
-8.302000000000044
 30
0.0
 11
-142.9789921262494
 21
-8.302000000000048
 31
0.0
 12
-142.4286587929161
 22
-5.000000000000046
 32
0.0
 13
-142.4286587929161
 23
-5.000000000000046
 33
0.0
  0
MTEXT
  5
10F
330
104
100
AcDbEntity
  8
치수문자_일반주서
 62
     0
100
AcDbMText
 10
-146.8036587929162
 20
15.32274999999993
 30
0.0
 40
3.5
 41
0.0
 71
     2
 72
     1
  1
\A1;%%c10
  7
SLDTEXTSTYLE0
 11
-2.842170943040405E-15
 21
1.0
 31
0.0
 73
     1
 44
1.0
  0
POINT
  5
142
330
104
100
AcDbEntity
  8
Defpoints
 62
     0
100
AcDbPoint
 10
-129.0
 20
4.999999999999988
 30
0.0
  0
POINT
  5
143
330
104
100
AcDbEntity
  8
Defpoints
 62
     0
100
AcDbPoint
 10
-129.0
 20
-4.999999999999996
 30
0.0
  0
POINT
  5
144
330
104
100
AcDbEntity
  8
Defpoints
 62
     0
100
AcDbPoint
 10
-142.4286587929161
 20
-5.000000000000045
 30
0.0
  0
ENDBLK
  5
106
330
104
100
AcDbEntity
  8
0
100
AcDbBlockEnd
  0
BLOCK
  5
111
330
110
100
AcDbEntity
  8
0
100
AcDbBlockBegin
  2
SW_DOWELSYMBOL_0
 70
     0
 10
0.0
 20
0.0
 30
0.0
  3
SW_DOWELSYMBOL_0
  1

  0
CIRCLE
  5
113
330
110
100
AcDbEntity
  8
외형선
 62
     0
100
AcDbCircle
 10
0.0
 20
0.0
 30
0.0
 40
3.000000000000004
  0
HATCH
  5
114
330
110
100
AcDbEntity
  8
0
  6
Continuous
 62
     0
370
    30
100
AcDbHatch
 10
0.0
 20
0.0
 30
0.0
210
0.0
220
0.0
230
1.0
  2
SOLID
 70
     1
 71
     0
 91
        1
 92
        0
 93
        3
 72
     2
 10
0.0000000000000104
 20
0.0
 40
3.000000000000004
 50
0.0
 51
90.0
 73
     1
 72
     1
 10
0.0000000000000104
 20
3.000000000000004
 11
0.0000000000000104
 21
0.0
 72
     1
 10
0.0000000000000104
 20
0.0
 11
3.000000000000015
 21
0.0
 97
        0
 75
     0
 76
     1
 98
        1
 10
0.0
 20
0.0
  0
HATCH
  5
115
330
110
100
AcDbEntity
  8
0
  6
Continuous
 62
     0
370
    30
100
AcDbHatch
 10
0.0
 20
0.0
 30
0.0
210
0.0
220
0.0
230
1.0
  2
SOLID
 70
     1
 71
     0
 91
        1
 92
        0
 93
        3
 72
     2
 10
0.0000000000000104
 20
0.0
 40
3.000000000000004
 50
180.0
 51
270.0000000000008
 73
     1
 72
     1
 10
0.0000000000000104
 20
-3.000000000000004
 11
0.0000000000000104
 21
0.0
 72
     1
 10
0.0000000000000104
 20
0.0
 11
-2.999999999999994
 21
0.0
 97
        0
 75
     0
 76
     1
 98
        1
 10
0.0
 20
0.0
  0
ENDBLK
  5
112
330
110
100
AcDbEntity
  8
0
100
AcDbBlockEnd
  0
ENDSEC
  0
SECTION
  2
ENTITIES
  0
SPLINE
  5
95
330
1F
100
AcDbEntity
  8
0
  6
Continuous
 62
     1
370
    15
100
AcDbSpline
210
0.0
220
0.0
230
1.0
 70
     8
 71
     3
 72
     9
 73
     5
 74
     0
 42
0.000000001
 43
0.00000001
 40
0.0
 40
0.0
 40
0.0
 40
0.0
 40
0.4732938471380457
 40
0.9999999999999999
 40
0.9999999999999999
 40
0.9999999999999999
 40
0.9999999999999999
 10
29.83865331246572
 20
1.281182191065146
 30
0.0
 10
29.61997446518347
 20
1.385453409509128
 30
0.0
 10
29.15793835673923
 20
1.605763094653986
 30
0.0
 10
28.69593043635545
 20
1.847656141803474
 30
0.0
 10
28.45258802201835
 20
1.975062698071636
 30
0.0
  0
LINE
  5
96
330
1F
100
AcDbEntity
  8
0
  6
Continuous
 62
     1
370
    15
100
AcDbLine
 10
55.74515454757466
 20
1.930943954924068
 30
0.0
 11
55.65954625837661
 21
1.975079761668035
 31
0.0
  0
SPLINE
  5
97
330
1F
100
AcDbEntity
  8
0
  6
Continuous
 62
     1
370
    15
100
AcDbSpline
210
0.0
220
0.0
230
1.0
 70
     8
 71
     3
 72
     9
 73
     5
 74
     0
 42
0.000000001
 43
0.00000001
 40
0.0
 40
0.0
 40
0.0
 40
0.0
 40
0.5120749682462624
 40
0.9999999999999999
 40
0.9999999999999999
 40
0.9999999999999999
 40
0.9999999999999999
 10
57.04564103139488
 20
1.281183473499698
 30
0.0
 10
56.82365739797957
 20
1.386956539998125
 30
0.0
 10
56.39015908780916
 20
1.593514315826683
 30
0.0
 10
55.95666645446441
 20
1.820292971939266
 30
0.0
 10
55.74515454757467
 20
1.930943954924069
 30
0.0
  0
LINE
  5
98
330
1F
100
AcDbEntity
  8
0
  6
Continuous
 62
     1
370
    15
100
AcDbLine
 10
43.14953917577623
 20
-4.999999999999999
 30
0.0
 11
45.57220376182826
 21
-4.999999999999999
 31
0.0
  0
LINE
  5
99
330
1F
100
AcDbEntity
  8
0
  6
Continuous
 62
     1
370
    15
100
AcDbLine
 10
18.36464789084602
 20
5.00000000000001
 30
0.0
 11
15.94155124548671
 21
5.00000000000001
 31
0.0
  0
LINE
  5
9A
330
1F
100
AcDbEntity
  8
0
  6
Continuous
 62
     1
370
    15
100
AcDbLine
 10
15.9415596866315
 20
-4.999999999999999
 30
0.0
 11
18.36464789084603
 21
-4.999999999999999
 31
0.0
  0
LINE
  5
9B
330
1F
100
AcDbEntity
  8
0
  6
Continuous
 62
     1
370
    15
100
AcDbLine
 10
45.5722037618282
 20
5.00000000000001
 30
0.0
 11
43.14953917577624
 21
5.00000000000001
 31
0.0
  0
SPLINE
  5
9C
330
1F
100
AcDbEntity
  8
0
  6
Continuous
 62
     1
370
    15
100
AcDbSpline
210
0.0
220
0.0
230
1.0
 70
     8
 71
     3
 72
    17
 73
    13
 74
     0
 42
0.000000001
 43
0.00000001
 40
0.0
 40
0.0
 40
0.0
 40
0.0
 40
0.1272297700634299
 40
0.2161083526015314
 40
0.2926084927394434
 40
0.3733147193475115
 40
0.4547012478061919
 40
0.6547182588751886
 40
0.7005379936719222
 40
0.7671961676590563
 40
0.8670239739820885
 40
1.0
 40
1.0
 40
1.0
 40
1.0
 10
20.6669533536942
 20
-4.160661793525291
 30
0.0
 10
20.98704367309912
 20
-4.130125753809559
 30
0.0
 10
21.53073868705545
 20
-4.078258229136273
 30
0.0
 10
22.26253868971058
 20
-4.023326769032511
 30
0.0
 10
22.87740794646202
 20
-3.984110628406508
 30
0.0
 10
23.4755612705122
 20
-3.952990644581123
 30
0.0
 10
24.3830858612472
 20
-3.917371027200796
 30
0.0
 10
25.20327323841642
 20
-3.903343774234013
 30
0.0
 10
25.98658854979075
 20
-3.905368292943748
 30
0.0
 10
26.51834336561547
 20
-3.91162507497577
 30
0.0
 10
27.26831572322862
 20
-3.929469229862267
 30
0.0
 10
27.85266311437228
 20
-3.957303677609392
 30
0.0
 10
28.18643852136135
 20
-3.973202532068088
 30
0.0
  0
SPLINE
  5
9D
330
1F
100
AcDbEntity
  8
0
  6
Continuous
 62
     1
370
    15
100
AcDbSpline
210
0.0
220
0.0
230
1.0
 70
     8
 71
     3
 72
    15
 73
    11
 74
     0
 42
0.000000001
 43
0.00000001
 40
0.0
 40
0.0
 40
0.0
 40
0.0
 40
0.2536379051428393
 40
0.421077465674542
 40
0.5274281543136995
 40
0.6325538347236784
 40
0.7385231221205745
 40
0.845103861854208
 40
0.9520301165915922
 40
1.0
 40
1.0
 40
1.0
 40
1.0
 10
55.39340034324126
 20
3.973201006513199
 30
0.0
 10
55.04041797984334
 20
3.956482752220753
 30
0.0
 10
54.45441361695562
 20
3.928727909568189
 30
0.0
 10
53.7220067512742
 20
3.911782357346801
 30
0.0
 10
53.19522155121262
 20
3.905322454782375
 30
0.0
 10
52.7540005215016
 20
3.904164228309821
 30
0.0
 10
52.31259056268426
 20
3.90700484742861
 30
0.0
 10
51.86857825806336
 20
3.914537725288489
 30
0.0
 10
51.50507695662525
 20
3.922589104380256
 30
0.0
 10
51.28979174815347
 20
3.931223886850824
 30
0.0
 10
51.22311993519823
 20
3.933897998118725
 30
0.0
  0
SPLINE
  5
9E
330
1F
100
AcDbEntity
  8
0
  6
Continuous
 62
     1
370
    15
100
AcDbSpline
210
0.0
220
0.0
230
1.0
 70
     8
 71
     3
 72
    17
 73
    13
 74
     0
 42
0.000000001
 43
0.00000001
 40
0.0
 40
0.0
 40
0.0
 40
0.0
 40
0.1252068106424493
 40
0.2134603440081991
 40
0.2899412961724798
 40
0.3706600742800042
 40
0.4520312973973253
 40
0.6520635778978439
 40
0.6978821339695084
 40
0.7648907827341107
 40
0.8656166586802413
 40
1.0
 40
1.0
 40
1.0
 40
1.0
 10
47.87401745758197
 20
-4.160654435535202
 30
0.0
 10
48.18890040097493
 20
-4.130595288086598
 30
0.0
 10
48.72573239177551
 20
-4.079348587351642
 30
0.0
 10
49.45097978552464
 20
-4.024635355754162
 30
0.0
 10
50.06454327479484
 20
-3.985261506195712
 30
0.0
 10
50.66259705086244
 20
-3.95390960076902
 30
0.0
 10
51.57012918823313
 20
-3.917902417627965
 30
0.0
 10
52.39031206690245
 20
-3.903533403423201
 30
0.0
 10
53.17451445531628
 20
-3.905227079051892
 30
0.0
 10
53.70937239127746
 20
-3.911311584421416
 30
0.0
 10
54.46597933849952
 20
-3.929078928598774
 30
0.0
 10
55.05610009041782
 20
-3.957153938396833
 30
0.0
 10
55.39340034324126
 20
-3.973201006513185
 30
0.0
  0
SPLINE
  5
9F
330
1F
100
AcDbEntity
  8
0
  6
Continuous
 62
     1
370
    15
100
AcDbSpline
210
0.0
220
0.0
230
1.0
 70
     8
 71
     3
 72
    15
 73
    11
 74
     0
 42
0.000000001
 43
0.00000001
 40
0.0
 40
0.0
 40
0.0
 40
0.0
 40
0.2586182423316409
 40
0.4293452356216295
 40
0.5377828471960173
 40
0.644968827601858
 40
0.7530134679369377
 40
0.86168404292436
 40
0.9707091239223895
 40
1.0
 40
1.0
 40
1.0
 40
1.0
 10
28.18643852136135
 20
3.973202532068101
 30
0.0
 10
27.83344841628553
 20
3.956483638648215
 30
0.0
 10
27.24743167411955
 20
3.928727757353929
 30
0.0
 10
26.51501073704435
 20
3.911782856660225
 30
0.0
 10
25.98822151502366
 20
3.905320924365647
 30
0.0
 10
25.54700699607477
 20
3.904169755505797
 30
0.0
 10
25.10560643816932
 20
3.906984062228394
 30
0.0
 10
24.66159915710298
 20
3.914615510766799
 30
0.0
 10
24.32484213231878
 20
3.921794552884739
 30
0.0
 10
24.13629861020855
 20
3.929249667984155
 30
0.0
 10
24.09637114950098
 20
3.930828421854192
 30
0.0
  0
SPLINE
  5
A0
330
1F
100
AcDbEntity
  8
0
  6
Continuous
 62
     1
370
    15
100
AcDbSpline
210
0.0
220
0.0
230
1.0
 70
     8
 71
     3
 72
    13
 73
     9
 74
     0
 42
0.000000001
 43
0.00000001
 40
0.0
 40
0.0
 40
0.0
 40
0.0
 40
0.3153828766113656
 40
0.5262001178948095
 40
0.6547591935648925
 40
0.7781659376133568
 40
0.9038546234348465
 40
1.0
 40
1.0
 40
1.0
 40
1.0
 10
32.20046000766373
 20
-3.760702260357661
 30
0.0
 10
32.59346653428786
 20
-3.701795490147248
 30
0.0
 10
33.24917772211458
 20
-3.603512572055543
 30
0.0
 10
34.0630139166433
 20
-3.508208317569229
 30
0.0
 10
34.64029748582406
 20
-3.449377551305124
 30
0.0
 10
35.10944190197652
 20
-3.407738883491194
 30
0.0
 10
35.53695891451644
 20
-3.374655323346246
 30
0.0
 10
35.81258808981871
 20
-3.35822897281462
 30
0.0
 10
35.93204887310271
 20
-3.351109607824125
 30
0.0
  0
SPLINE
  5
A1
330
1F
100
AcDbEntity
  8
0
  6
Continuous
 62
     1
370
    15
100
AcDbSpline
210
0.0
220
0.0
230
1.0
 70
     8
 71
     3
 72
    19
 73
    15
 74
     0
 42
0.000000001
 43
0.00000001
 40
0.0
 40
0.0
 40
0.0
 40
0.0
 40
0.1262629232383431
 40
0.2100841617385956
 40
0.2657740789187801
 40
0.3235890491820805
 40
0.3828372970185069
 40
0.441833615749712
 40
0.5006764905172394
 40
0.6957469263154868
 40
0.7412165427211741
 40
0.7940673218567836
 40
0.879792577036324
 40
1.0
 40
1.0
 40
1.0
 40
1.0
 10
68.14172167067969
 20
3.419760966736038
 30
0.0
 10
67.7714824175618
 20
3.391063427303489
 30
0.0
 10
67.15545515366601
 20
3.343314663366933
 30
0.0
 10
66.3814041156992
 20
3.310472727344216
 30
0.0
 10
65.81433047784546
 20
3.295343250489508
 30
0.0
 10
65.31186416727603
 20
3.289386710586028
 30
0.0
 10
64.7989457341152
 20
3.290975614629624
 30
0.0
 10
64.28340261206282
 20
3.300415864336611
 30
0.0
 10
63.37279505073025
 20
3.330957367884213
 30
0.0
 10
62.50082891095266
 20
3.388193000443315
 30
0.0
 10
61.64707419085498
 20
3.46922908835004
 30
0.0
 10
61.11140031638394
 20
3.526221798519121
 30
0.0
 10
60.35881809349831
 20
3.617397157017351
 30
0.0
 10
59.7580936358091
 20
3.707884712038624
 30
0.0
 10
59.40743758830286
 20
3.760704283451309
 30
0.0
  0
SPLINE
  5
A2
330
1F
100
AcDbEntity
  8
0
  6
Continuous
 62
     1
370
    15
100
AcDbSpline
210
0.0
220
0.0
230
1.0
 70
     8
 71
     3
 72
     9
 73
     5
 74
     0
 42
0.000000001
 43
0.00000001
 40
0.0
 40
0.0
 40
0.0
 40
0.0
 40
0.4956049328683195
 40
1.0
 40
1.0
 40
1.0
 40
1.0
 10
13.72774492397415
 20
3.419761327550179
 30
0.0
 10
13.10929995018785
 20
3.374512214926507
 30
0.0
 10
11.86144115627502
 20
3.283211443641217
 30
0.0
 10
10.62410583329758
 20
3.29343249104927
 30
0.0
 10
9.99999999999998
 20
3.298587936942812
 30
0.0
  0
SPLINE
  5
A3
330
1F
100
AcDbEntity
  8
0
  6
Continuous
 62
     1
370
    15
100
AcDbSpline
210
0.0
220
0.0
230
1.0
 70
     8
 71
     3
 72
    13
 73
     9
 74
     0
 42
0.000000001
 43
0.00000001
 40
0.0
 40
0.0
 40
0.0
 40
0.0
 40
0.2814135902645845
 40
0.4821021271423142
 40
0.6589062435347117
 40
0.8199877407299997
 40
0.9888528838574725
 40
1.0
 40
1.0
 40
1.0
 40
1.0
 10
59.40743758830287
 20
-3.760704283451294
 30
0.0
 10
59.75809595843786
 20
-3.707877557212568
 30
0.0
 10
60.35882439512565
 20
-3.617377744940849
 30
0.0
 10
61.17731809902584
 20
-3.518283826876092
 30
0.0
 10
61.84706218559647
 20
-3.448441055324931
 30
0.0
 10
62.4766688333557
 20
-3.394732704222762
 30
0.0
 10
62.90085897389467
 20
-3.362712731652612
 30
0.0
 10
63.12476574349512
 20
-3.351510320005466
 30
0.0
 10
63.13863099231737
 20
-3.350816619564099
 30
0.0
  0
SPLINE
  5
A4
330
1F
100
AcDbEntity
  8
0
  6
Continuous
 62
     1
370
    15
100
AcDbSpline
210
0.0
220
0.0
230
1.0
 70
     8
 71
     3
 72
    21
 73
    17
 74
     0
 42
0.000000001
 43
0.00000001
 40
0.0
 40
0.0
 40
0.0
 40
0.0
 40
0.1246470919146296
 40
0.2078165242042348
 40
0.2634884069180199
 40
0.321292965517949
 40
0.3805396047916973
 40
0.4395457660876451
 40
0.498378343577061
 40
0.5573223574387486
 40
0.6138965027795683
 40
0.6675874834953567
 40
0.7203036772529628
 40
0.7752208148419838
 40
0.8652765295813447
 40
1.0
 40
1.0
 40
1.0
 40
1.0
 10
40.93475347637712
 20
3.419762888838855
 30
0.0
 10
40.56920251984394
 20
3.391387401266987
 30
0.0
 10
39.95974161675053
 20
3.344078674611537
 30
0.0
 10
39.19228533132209
 20
3.311136037045418
 30
0.0
 10
38.62721551347854
 20
3.295730737993857
 30
0.0
 10
38.12482238663134
 20
3.28947892647892
 30
0.0
 10
37.61188886011765
 20
3.290769494985944
 30
0.0
 10
37.09628703979693
 20
3.299901899327603
 30
0.0
 10
36.5819051894324
 20
3.316871712400872
 30
0.0
 10
36.07400915942842
 20
3.341121842821957
 30
0.0
 10
35.58198355985596
 20
3.371708177256298
 30
0.0
 10
35.10942069244206
 20
3.407603011879927
 30
0.0
 10
34.64030328832353
 20
3.449414723028615
 30
0.0
 10
34.06301121377956
 20
3.508191002599302
 30
0.0
 10
33.24917899934251
 20
3.603520754178379
 30
0.0
 10
32.5934670129285
 20
3.70179855639438
 30
0.0
 10
32.20046000766373
 20
3.760702260357673
 30
0.0
  0
LINE
  5
A5
330
1F
100
AcDbEntity
  8
0
  6
Continuous
 62
   131
370
    15
100
AcDbLine
 10
8.47991924855923
 20
5.000000000000005
 30
0.0
 11
-129.0
 21
4.999999999999996
 31
0.0
  0
LINE
  5
A6
330
1F
100
AcDbEntity
  8
0
  6
Continuous
 62
   131
370
    15
100
AcDbLine
 10
-129.0
 20
-5.000000000000004
 30
0.0
 11
8.47991924855923
 21
-4.999999999999995
 31
0.0
  0
LINE
  5
A7
330
1F
100
AcDbEntity
  8
0
  6
Continuous
 62
   131
370
    15
100
AcDbLine
 10
-129.0
 20
4.999999999999988
 30
0.0
 11
-130.0
 21
3.999999999999987
 31
0.0
  0
LINE
  5
A8
330
1F
100
AcDbEntity
  8
0
  6
Continuous
 62
   131
370
    15
100
AcDbLine
 10
-130.0
 20
-3.999999999999996
 30
0.0
 11
-129.0
 21
-4.999999999999996
 31
0.0
  0
SPLINE
  5
A9
330
1F
100
AcDbEntity
  8
0
  6
Continuous
 62
   131
370
    15
100
AcDbSpline
210
0.0
220
0.0
230
1.0
 70
     8
 71
     3
 72
     9
 73
     5
 74
     0
 42
0.000000001
 43
0.00000001
 40
0.0
 40
0.0
 40
0.0
 40
0.0
 40
0.4362130755440316
 40
1.0
 40
1.0
 40
1.0
 40
1.0
 10
9.999999999999993
 20
3.298587936942811
 30
0.0
 10
9.777715330196617
 20
3.304605858690994
 30
0.0
 10
9.268137139478364
 20
3.318401689411285
 30
0.0
 10
8.758227101064701
 20
3.349057684248809
 30
0.0
 10
8.47074648875824
 20
3.366341133294395
 30
0.0
  0
LINE
  5
AA
330
1F
100
AcDbEntity
  8
0
  6
Continuous
 62
   131
370
    15
100
AcDbLine
 10
8.47074648875824
 20
-3.366341133294386
 30
0.0
 11
8.718478835544083
 21
-3.352290357747207
 31
0.0
  0
SPLINE
  5
AB
330
1F
100
AcDbEntity
  8
0
  6
Continuous
 62
     1
370
    15
100
AcDbSpline
210
0.0
220
0.0
230
1.0
 70
     8
 71
     3
 72
    20
 73
    16
 74
     0
 42
0.000000001
 43
0.00000001
 40
0.0
 40
0.0
 40
0.0
 40
0.0
 40
0.0527357174543212
 40
0.1307588597092781
 40
0.2087086292702518
 40
0.2867449581804113
 40
0.3647778293808718
 40
0.4427266073756616
 40
0.520754136101014
 40
0.5987945412997678
 40
0.6767470118879935
 40
0.7547635479197574
 40
0.8328092887291125
 40
0.9170919313821235
 40
1.0
 40
1.0
 40
1.0
 40
1.0
 10
51.22634736889859
 20
-3.932848902738746
 30
0.0
 10
50.64865022442653
 20
-4.135476809373832
 30
0.0
 10
49.21624305306484
 20
-4.637895194784663
 30
0.0
 10
46.92987570971885
 20
-5.002840715435354
 30
0.0
 10
44.36736425082416
 20
-5.026667668097278
 30
0.0
 10
41.80362770586261
 20
-4.600009310178564
 30
0.0
 10
39.23994902728969
 20
-3.777345543199868
 30
0.0
 10
36.67743330107513
 20
-2.623828028585006
 30
0.0
 10
34.11383217068597
 20
-1.24367675794998
 30
0.0
 10
31.55003541759616
 20
0.2445166076833074
 30
0.0
 10
28.98747601263637
 20
1.712577389932568
 30
0.0
 10
26.42400689331488
 20
3.032727942748689
 30
0.0
 10
23.79095492276642
 20
4.108205770955959
 30
0.0
 10
21.10501039703037
 20
4.856616605107402
 30
0.0
 10
19.27308160172474
 20
4.949549791654622
 30
0.0
 10
18.36464789084602
 20
4.995634355495321
 30
0.0
  0
SPLINE
  5
AC
330
1F
100
AcDbEntity
  8
0
  6
Continuous
 62
     1
370
    15
100
AcDbSpline
210
0.0
220
0.0
230
1.0
 70
     8
 71
     3
 72
    15
 73
    11
 74
     0
 42
0.000000001
 43
0.00000001
 40
0.0
 40
0.0
 40
0.0
 40
0.0
 40
0.052880018412363
 40
0.1945410267572141
 40
0.336366380233285
 40
0.478185168687393
 40
0.619844294386153
 40
0.7616529393039553
 40
0.9034860322860367
 40
1.0
 40
1.0
 40
1.0
 40
1.0
 10
47.88540921873774
 20
-4.117116957504376
 30
0.0
 10
47.56667777187379
 20
-4.160256976581119
 30
0.0
 10
46.39409226993256
 20
-4.318965385872313
 30
0.0
 10
44.36729699434717
 20
-4.21221364453325
 30
0.0
 10
41.80362665551642
 20
-3.797723669964336
 30
0.0
 10
39.24003111950009
 20
-3.030387465954318
 30
0.0
 10
36.67735739469362
 20
-2.003355922877095
 30
0.0
 10
34.11381859881907
 20
-0.8056039765110828
 30
0.0
 10
31.82229653329681
 20
0.3401945879926161
 30
0.0
 10
30.38596791225297
 20
1.013858725835614
 30
0.0
 10
29.80435480675363
 20
1.286645806406114
 30
0.0
  0
SPLINE
  5
AD
330
1F
100
AcDbEntity
  8
0
  6
Continuous
 62
     1
370
    15
100
AcDbSpline
210
0.0
220
0.0
230
1.0
 70
     8
 71
     3
 72
    17
 73
    13
 74
     0
 42
0.000000001
 43
0.00000001
 40
0.0
 40
0.0
 40
0.0
 40
0.0
 40
0.1049009319813791
 40
0.2098942857600032
 40
0.3148171221003254
 40
0.4196978306783067
 40
0.5246882215395554
 40
0.629630031489339
 40
0.734496808164906
 40
0.8394812745457437
 40
0.9444391187137485
 40
1.0
 40
1.0
 40
1.0
 40
1.0
 10
69.99999999999999
 20
-4.744704346159491
 30
0.0
 10
69.14593259209364
 20
-4.548772205634375
 30
0.0
 10
67.4370453097078
 20
-4.156735300754943
 30
0.0
 10
64.87308078293815
 20
-3.09746922776773
 30
0.0
 10
62.30990315591812
 20
-1.797881161533547
 30
0.0
 10
59.7471549643455
 20
-0.3333257443513154
 30
0.0
 10
57.1832416037936
 20
1.156877645995514
 30
0.0
 10
54.61987012520038
 20
2.54624767633456
 30
0.0
 10
52.0572647971217
 20
3.720599505835898
 30
0.0
 10
49.49342463043948
 20
4.548641834521359
 30
0.0
 10
47.33135272133635
 20
4.981434960669512
 30
0.0
 10
46.02453643670872
 20
4.954793781131618
 30
0.0
 10
45.5722037618282
 20
4.945572380890358
 30
0.0
  0
SPLINE
  5
AE
330
1F
100
AcDbEntity
  8
0
  6
Continuous
 62
     1
370
    15
100
AcDbSpline
210
0.0
220
0.0
230
1.0
 70
     8
 71
     3
 72
    13
 73
     9
 74
     0
 42
0.000000001
 43
0.00000001
 40
0.0
 40
0.0
 40
0.0
 40
0.0
 40
0.0169312616232674
 40
0.2134121451214986
 40
0.4101277686150362
 40
0.6066955148235097
 40
0.8033063262973487
 40
1.0
 40
1.0
 40
1.0
 40
1.0
 10
24.09807526179655
 20
-3.930137555825705
 30
0.0
 10
24.01851243866112
 20
-3.962776216196242
 30
0.0
 10
23.01565316360744
 20
-4.37417417805847
 30
0.0
 10
21.08892550305097
 20
-4.813743880767116
 30
0.0
 10
18.31666369143895
 20
-5.093075991151689
 30
0.0
 10
15.54492206064939
 20
-4.813565512846369
 30
0.0
 10
12.77288142742476
 20
-4.075335175193403
 30
0.0
 10
10.92442362148546
 20
-3.254159682604342
 30
0.0
 10
9.999999999996906
 20
-2.843485432806639
 30
0.0
  0
SPLINE
  5
AF
330
1F
100
AcDbEntity
  8
0
  6
Continuous
 62
   131
370
    15
100
AcDbSpline
210
0.0
220
0.0
230
1.0
 70
    24
 71
     3
 72
     8
 73
     4
 74
     0
 42
0.000000001
 43
0.00000001
 40
0.0
 40
0.0
 40
0.0
 40
0.0
 40
1.0
 40
1.0
 40
1.0
 40
1.0
 10
9.999999999999993
 20
-2.20186841212701
 30
0.0
 10
9.999999999999993
 20
-2.40187883464578
 30
0.0
 10
9.999999999999993
 20
-2.617064229203996
 30
0.0
 10
9.999999999999993
 20
-2.843485432799475
 30
0.0
  0
SPLINE
  5
B0
330
1F
100
AcDbEntity
  8
0
  6
Continuous
 62
     1
370
    15
100
AcDbSpline
210
0.0
220
0.0
230
1.0
 70
     8
 71
     3
 72
    13
 73
     9
 74
     0
 42
0.000000001
 43
0.00000001
 40
0.0
 40
0.0
 40
0.0
 40
0.0
 40
0.1970239073778561
 40
0.3942291636808111
 40
0.5912960510667186
 40
0.7882802766917184
 40
0.9854797191158338
 40
1.0
 40
1.0
 40
1.0
 40
1.0
 10
69.99999999999999
 20
-3.944861321841068
 30
0.0
 10
69.1459220872475
 20
-3.755265903372788
 30
0.0
 10
67.43698013322903
 20
-3.375900554998502
 30
0.0
 10
64.87313167011565
 20
-2.423186519476104
 30
0.0
 10
62.30992615686733
 20
-1.279777880583381
 30
0.0
 10
59.74710517336983
 20
-0.0329428811986548
 30
0.0
 10
57.97488871949015
 20
0.8678024427801279
 30
0.0
 10
57.05701648487705
 20
1.272730260881293
 30
0.0
 10
56.99406645615935
 20
1.300501247753783
 30
0.0
  0
SPLINE
  5
B1
330
1F
100
AcDbEntity
  8
0
  6
Continuous
 62
     1
370
    15
100
AcDbSpline
210
0.0
220
0.0
230
1.0
 70
     8
 71
     3
 72
    12
 73
     8
 74
     0
 42
0.000000001
 43
0.00000001
 40
0.0
 40
0.0
 40
0.0
 40
0.0
 40
0.1819134038036122
 40
0.4220969814508432
 40
0.6147425831897463
 40
0.8073777070187792
 40
1.0
 40
1.0
 40
1.0
 40
1.0
 10
20.67716267805179
 20
-4.125952838563434
 30
0.0
 10
20.0296727501672
 20
-4.184381971461163
 30
0.0
 10
18.52729008695805
 20
-4.319956151863764
 30
0.0
 10
16.33854741682562
 20
-4.110390302042026
 30
0.0
 10
14.1130025988232
 20
-3.654566422926583
 30
0.0
 10
12.05640927756493
 20
-3.028721703079666
 30
0.0
 10
10.68545453948429
 20
-2.477480056148651
 30
0.0
 10
10.00000000000004
 20
-2.20186841212703
 30
0.0
  0
LINE
  5
B2
330
1F
100
AcDbEntity
  8
0
  6
Continuous
 62
     1
370
    15
100
AcDbLine
 10
69.99999999999972
 20
-4.744704346159494
 30
0.0
 11
69.99999999999999
 21
-3.944861321841068
 31
0.0
  0
SPLINE
  5
B3
330
1F
100
AcDbEntity
  8
0
  6
Continuous
 62
     1
370
    15
100
AcDbSpline
210
0.0
220
0.0
230
1.0
 70
     8
 71
     3
 72
    30
 73
    26
 74
     0
 42
0.000000001
 43
0.00000001
 40
0.0
 40
0.0
 40
0.0
 40
0.0
 40
0.0472920127947234
 40
0.0949744717883218
 40
0.1383871930395155
 40
0.1821017314688782
 40
0.2267453820778313
 40
0.2717166855622017
 40
0.3154317543566677
 40
0.3594550673647773
 40
0.4028794555980612
 40
0.4466051799729324
 40
0.4899794615284598
 40
0.5336547490542471
 40
0.5782565986796003
 40
0.6231851922743629
 40
0.6669004047927057
 40
0.7109238486881351
 40
0.7543482576971744
 40
0.7980740214360617
 40
0.8414482773410701
 40
0.8851235226564792
 40
0.9297252687966986
 40
0.9746537777033959
 40
1.0
 40
1.0
 40
1.0
 40
1.0
 10
9.999999999999991
 20
3.868748463826015
 30
0.0
 10
10.52268784603134
 20
4.047548912009039
 30
0.0
 10
11.57237888587946
 20
4.406625997507769
 30
0.0
 10
13.10174439830267
 20
4.756011173516263
 30
0.0
 10
14.59104391535983
 20
4.962617658180611
 30
0.0
 10
16.04679048248859
 20
5.023413884075048
 30
0.0
 10
17.52037366541725
 20
4.941362811555755
 30
0.0
 10
18.99392020975143
 20
4.715542251290307
 30
0.0
 10
20.46003613750003
 20
4.35537507093326
 30
0.0
 10
21.90905916439844
 20
3.877017864477354
 30
0.0
 10
23.35876295624286
 20
3.291013822949663
 30
0.0
 10
24.80130244844437
 20
2.616809162639874
 30
0.0
 10
26.24600344238097
 20
1.867856262481702
 30
0.0
 10
27.7004356442253
 20
1.06166038361166
 30
0.0
 10
29.17266522480762
 20
0.2163958589507307
 30
0.0
 10
30.64526199621502
 20
-0.6356259856057507
 30
0.0
 10
32.11090741528574
 20
-1.466382122997265
 30
0.0
 10
33.5599338810401
 20
-2.246658529924714
 30
0.0
 10
35.00966140436198
 20
-2.963113887961394
 30
0.0
 10
36.45217974113059
 20
-3.594307052781497
 30
0.0
 10
37.89687965614007
 20
-4.127151957861219
 30
0.0
 10
39.35131431969219
 20
-4.549820767661084
 30
0.0
 10
40.82355094036769
 20
-4.840280187182576
 30
0.0
 10
42.0931482020054
 20
-4.990822795041926
 30
0.0
 10
42.86952188381994
 20
-4.985030989924674
 30
0.0
 10
43.14953917577623
 20
-4.982942040205668
 30
0.0
  0
SPLINE
  5
B4
330
1F
100
AcDbEntity
  8
0
  6
Continuous
 62
     1
370
    15
100
AcDbSpline
210
0.0
220
0.0
230
1.0
 70
     8
 71
     3
 72
    13
 73
     9
 74
     0
 42
0.000000001
 43
0.00000001
 40
0.0
 40
0.0
 40
0.0
 40
0.0
 40
0.1408677528861162
 40
0.3585250623355941
 40
0.5173045312570475
 40
0.6767101086112493
 40
0.8380258799245791
 40
1.0
 40
1.0
 40
1.0
 40
1.0
 10
63.15785618620124
 20
3.358878228816769
 30
0.0
 10
63.47919828458353
 20
3.496312116436643
 30
0.0
 10
64.2970518635123
 20
3.846097586257922
 30
0.0
 10
65.47745150938032
 20
4.240890085057762
 30
0.0
 10
66.69850850010441
 20
4.573767498981665
 30
0.0
 10
67.79293312400037
 20
4.79403039006428
 30
0.0
 10
68.89310584526949
 20
4.946022139557395
 30
0.0
 10
69.6305347141072
 20
4.979167598105415
 30
0.0
 10
69.99999999999972
 20
5.000000000000226
 30
0.0
  0
SPLINE
  5
B5
330
1F
100
AcDbEntity
  8
0
  6
Continuous
 62
     1
370
    15
100
AcDbSpline
210
0.0
220
0.0
230
1.0
 70
     8
 71
     3
 72
    11
 73
     7
 74
     0
 42
0.000000001
 43
0.00000001
 40
0.0
 40
0.0
 40
0.0
 40
0.0
 40
0.2638579877360359
 40
0.5298944056607282
 40
0.7729487897160191
 40
1.0
 40
1.0
 40
1.0
 40
1.0
 10
9.999999999999991
 20
-3.868748463826006
 30
0.0
 10
10.52268910808718
 20
-4.047719235717866
 30
0.0
 10
11.57238268246659
 20
-4.407138374838844
 30
0.0
 10
13.10339398311525
 20
-4.754396677095107
 30
0.0
 10
14.56106213592113
 20
-4.964959195250034
 30
0.0
 10
15.49195690343519
 20
-4.985694854794855
 30
0.0
 10
15.9415596866315
 20
-4.995709746454048
 30
0.0
  0
SPLINE
  5
B6
330
1F
100
AcDbEntity
  8
0
  6
Continuous
 62
     1
370
    15
100
AcDbSpline
210
0.0
220
0.0
230
1.0
 70
     8
 71
     3
 72
    30
 73
    26
 74
     0
 42
0.000000001
 43
0.00000001
 40
0.0
 40
0.0
 40
0.0
 40
0.0
 40
0.0153775189366199
 40
0.0577301462161497
 40
0.1000827401622413
 40
0.1436423450291763
 40
0.1872019764940089
 40
0.229741484183665
 40
0.2725809358504884
 40
0.3148361885831935
 40
0.3573846999081287
 40
0.39973728840614
 40
0.44208983506343
 40
0.4856493341018988
 40
0.5292088697819287
 40
0.5717495997196014
 40
0.6145902842311332
 40
0.6568454715583157
 40
0.6993939341378524
 40
0.7417464736865161
 40
0.7840989629407148
 40
0.8276583469577896
 40
0.8712177775888055
 40
0.9350969882751399
 40
1.0
 40
1.0
 40
1.0
 40
1.0
 10
35.93204887310271
 20
3.351109607824137
 30
0.0
 10
36.10669246137879
 20
3.428527435505337
 30
0.0
 10
36.7623378830132
 20
3.719168762639662
 30
0.0
 10
37.89863617079516
 20
4.123638703265688
 30
0.0
 10
39.35478089801752
 20
4.550900782838635
 30
0.0
 10
40.82526657484487
 20
4.843959294051287
 30
0.0
 10
42.2979831754668
 20
4.999840402718445
 30
0.0
 10
43.76181305113428
 20
5.010977315671488
 30
0.0
 10
45.21087439187669
 20
4.88155545874426
 30
0.0
 10
46.66064681089451
 20
4.615900963387216
 30
0.0
 10
48.10475665797848
 20
4.223466209293483
 30
0.0
 10
49.54962292948356
 20
3.712388577475767
 30
0.0
 10
51.00573344359353
 20
3.094082138400867
 30
0.0
 10
52.47620094109505
 20
2.381075565236075
 30
0.0
 10
53.94895238778706
 20
1.598878175728442
 30
0.0
 10
55.41279727931046
 20
0.7740469203409374
 30
0.0
 10
56.86188888269749
 20
-0.0641186821766802
 30
0.0
 10
58.31169536403359
 20
-0.899279057282782
 30
0.0
 10
59.75577399179811
 20
-1.706814712583269
 30
0.0
 10
61.20067187236026
 20
-2.467635066433841
 30
0.0
 10
62.65674469407512
 20
-3.166347416532521
 30
0.0
 10
64.12725675372587
 20
-3.780253609224519
 30
0.0
 10
65.84211792865435
 20
-4.365575708868331
 30
0.0
 10
67.80001372711874
 20
-4.849690033868744
 30
0.0
 10
69.26279493891082
 20
-4.946822000110145
 30
0.0
 10
69.99999999999999
 20
-4.999999999999771
 30
0.0
  0
LINE
  5
B7
330
1F
100
AcDbEntity
  8
0
  6
Continuous
 62
   131
370
    15
100
AcDbLine
 10
9.999999999999988
 20
-3.868748463825998
 30
0.0
 11
9.999999999999993
 21
-2.843485432792086
 31
0.0
  0
LINE
  5
B8
330
1F
100
AcDbEntity
  8
0
  6
Continuous
 62
     1
370
    15
100
AcDbLine
 10
70.0
 20
-4.999999999999777
 30
0.0
 11
69.99999999999936
 21
-4.744704346159481
 31
0.0
  0
SPLINE
  5
B9
330
1F
100
AcDbEntity
  8
0
  6
Continuous
 62
     1
370
    15
100
AcDbSpline
210
0.0
220
0.0
230
1.0
 70
    24
 71
     3
 72
    10
 73
     6
 74
     0
 42
0.000000001
 43
0.00000001
 40
0.0
 40
0.0
 40
0.0
 40
0.0
 40
0.5
 40
0.5
 40
1.0
 40
1.0
 40
1.0
 40
1.0
 10
69.99999999999999
 20
3.500000000000012
 30
0.0
 10
69.99999999999999
 20
3.712161284036582
 30
0.0
 10
69.99999999999999
 20
3.9587123443356
 30
0.0
 10
69.99999999999996
 20
4.475975804804293
 30
0.0
 10
69.99999999999999
 20
4.745367179007382
 30
0.0
 10
69.99999999999972
 20
5.000000000000233
 30
0.0
  0
LINE
  5
BA
330
1F
100
AcDbEntity
  8
0
  6
Continuous
 62
     1
370
    15
100
AcDbLine
 10
69.99999999999999
 20
3.500000000000012
 30
0.0
 11
68.13369267139753
 21
3.389173901927005
 31
0.0
  0
SPLINE
  5
BB
330
1F
100
AcDbEntity
  8
0
  6
Continuous
 62
     1
370
    15
100
AcDbSpline
210
0.0
220
0.0
230
1.0
 70
     8
 71
     3
 72
    14
 73
    10
 74
     0
 42
0.000000001
 43
0.00000001
 40
0.0
 40
0.0
 40
0.0
 40
0.0
 40
0.0819410128642254
 40
0.2360930094891534
 40
0.390307785319576
 40
0.544340134725817
 40
0.69846380243694
 40
0.8526853126988297
 40
1.0
 40
1.0
 40
1.0
 40
1.0
 10
30.35073699984873
 20
-0.463099173260145
 30
0.0
 10
29.89652362553461
 20
-0.2818214158889522
 30
0.0
 10
28.58781875670743
 20
0.240486153851802
 30
0.0
 10
26.42402160553815
 20
1.116468789048276
 30
0.0
 10
23.8603452012166
 20
2.0488337155211
 30
0.0
 10
21.29744237515309
 20
2.808729853111944
 30
0.0
 10
18.7341286704855
 20
3.313172033890649
 30
0.0
 10
16.20799598547913
 20
3.563121900699152
 30
0.0
 10
14.53606257997712
 20
3.442295188055856
 30
0.0
 10
13.71924407257919
 20
3.383265626979849
 30
0.0
  0
SPLINE
  5
BC
330
1F
100
AcDbEntity
  8
0
  6
Continuous
 62
   131
370
    15
100
AcDbSpline
210
0.0
220
0.0
230
1.0
 70
    24
 71
     3
 72
     9
 73
     5
 74
     0
 42
0.000000001
 43
0.00000001
 40
0.0
 40
0.0
 40
0.0
 40
0.0
 40
0.1867203348947475
 40
1.0
 40
1.0
 40
1.0
 40
1.0
 10
9.999999999999988
 20
3.868748463826007
 30
0.0
 10
9.999999999999988
 20
3.829345525872917
 30
0.0
 10
9.99999999999998
 20
3.618319030149776
 30
0.0
 10
9.99999999999998
 20
3.441991517433526
 30
0.0
 10
9.999999999999984
 20
3.298587936942812
 30
0.0
  0
SPLINE
  5
BD
330
1F
100
AcDbEntity
  8
0
  6
Continuous
 62
     1
370
    15
100
AcDbSpline
210
0.0
220
0.0
230
1.0
 70
     8
 71
     3
 72
    15
 73
    11
 74
     0
 42
0.000000001
 43
0.00000001
 40
0.0
 40
0.0
 40
0.0
 40
0.0
 40
0.0229763565014141
 40
0.1770316010378898
 40
0.3309670403531085
 40
0.4850903827769189
 40
0.6391712289110716
 40
0.7930944802135581
 40
0.9472036365759279
 40
1.0
 40
1.0
 40
1.0
 40
1.0
 10
57.56528564435338
 20
-0.4670711846661903
 30
0.0
 10
57.43783382776764
 20
-0.4173638289776795
 30
0.0
 10
56.45582438062262
 20
-0.0343713053216642
 30
0.0
 10
54.61998890129145
 20
0.7265715768684005
 30
0.0
 10
52.05711896949243
 20
1.705824754801598
 30
0.0
 10
49.49348621583626
 20
2.539673518249005
 30
0.0
 10
46.93004936900197
 20
3.15701582989324
 30
0.0
 10
44.36723563827282
 20
3.480436310467518
 30
0.0
 10
42.36559621914464
 20
3.554789052258606
 30
0.0
 10
41.21790646600626
 20
3.419909824848142
 30
0.0
 10
40.9250489077965
 20
3.3854925085964
 30
0.0
  0
SPLINE
  5
BE
330
1F
100
AcDbEntity
  8
0
  6
Continuous
 62
     1
370
    15
100
AcDbSpline
210
0.0
220
0.0
230
1.0
 70
     8
 71
     3
 72
     8
 73
     4
 74
     0
 42
0.000000001
 43
0.00000001
 40
0.0
 40
0.0
 40
0.0
 40
0.0
 40
1.0
 40
1.0
 40
1.0
 40
1.0
 10
66.90623807966202
 20
1.39859078479461
 30
0.0
 10
66.6821404292319
 20
1.664076176022848
 30
0.0
 10
66.4875569916119
 20
1.917882404497385
 30
0.0
 10
66.33398001936777
 20
2.153947629457781
 30
0.0
  0
LINE
  5
BF
330
1F
100
AcDbEntity
  8
0
  6
Continuous
 62
     1
370
    15
100
AcDbLine
 10
66.33398001936779
 20
2.153947629457782
 30
0.0
 11
69.99999999999999
 21
0.0000000000000123
 31
0.0
  0
LINE
  5
C0
330
1F
100
AcDbEntity
  8
0
  6
Continuous
 62
     1
370
    15
100
AcDbLine
 10
69.99999999999999
 20
0.0000000000000123
 30
0.0
 11
69.99999999999999
 21
-1.336214730148212
 31
0.0
  0
SPLINE
  5
C1
330
1F
100
AcDbEntity
  8
0
  6
Continuous
 62
     1
370
    15
100
AcDbSpline
210
0.0
220
0.0
230
1.0
 70
     8
 71
     3
 72
    12
 73
     8
 74
     0
 42
0.000000001
 43
0.00000001
 40
0.0
 40
0.0
 40
0.0
 40
0.0
 40
0.4999999999999981
 40
0.4999999999999981
 40
0.749999999999999
 40
0.749999999999999
 40
1.0
 40
1.0
 40
1.0
 40
1.0
 10
69.99999999999999
 20
-1.336214730148217
 30
0.0
 10
69.4644603835447
 20
-0.9151902182568158
 30
0.0
 10
68.93786580922738
 20
-0.4769025407148355
 30
0.0
 10
68.16173639957108
 20
0.2070893295748704
 30
0.0
 10
67.90536026588217
 20
0.4395904021070557
 30
0.0
 10
67.39784408881668
 20
0.9146977532766439
 30
0.0
 10
67.14808896088132
 20
1.156071134681422
 30
0.0
 10
66.90623807966202
 20
1.398590784794607
 30
0.0
  0
SPLINE
  5
C2
330
1F
100
AcDbEntity
  8
0
  6
Continuous
 62
   131
370
    15
100
AcDbSpline
210
0.0
220
0.0
230
1.0
 70
    24
 71
     3
 72
    14
 73
    10
 74
     0
 42
0.000000001
 43
0.00000001
 40
0.0
 40
0.0
 40
0.0
 40
0.0
 40
0.2499999999999998
 40
0.2499999999999998
 40
0.4999999999999999
 40
0.4999999999999999
 40
0.75
 40
0.75
 40
1.0
 40
1.0
 40
1.0
 40
1.0
 10
9.999999999999993
 20
2.404602905995598
 30
0.0
 10
9.999999999999993
 20
2.071722685426305
 30
0.0
 10
9.999999999999993
 20
1.710241020721139
 30
0.0
 10
9.999999999999993
 20
0.9504394798127251
 30
0.0
 10
9.999999999999993
 20
0.5522847226407772
 30
0.0
 10
9.999999999999993
 20
-0.2528102713743854
 30
0.0
 10
9.999999999999993
 20
-0.659518021222872
 30
0.0
 10
9.999999999999993
 20
-1.452327199886564
 30
0.0
 10
9.999999999999993
 20
-1.838237518077357
 30
0.0
 10
9.999999999999993
 20
-2.20186841212701
 30
0.0
  0
SPLINE
  5
C3
330
1F
100
AcDbEntity
  8
0
  6
Continuous
 62
     1
370
    15
100
AcDbSpline
210
0.0
220
0.0
230
1.0
 70
     8
 71
     3
 72
    12
 73
     8
 74
     0
 42
0.000000001
 43
0.00000001
 40
0.0
 40
0.0
 40
0.0
 40
0.0
 40
0.199595631644808
 40
0.3990881054043254
 40
0.6214924503952147
 40
0.8441431841916213
 40
1.0
 40
1.0
 40
1.0
 40
1.0
 10
66.90623807966202
 20
1.398590784794609
 30
0.0
 10
66.13989677580906
 20
1.720419621312592
 30
0.0
 10
64.60761023963866
 20
2.363910962140146
 30
0.0
 10
62.22171562948662
 20
3.170201047801074
 30
0.0
 10
59.74704390984623
 20
3.751513708712743
 30
0.0
 10
57.43935880016744
 20
4.039576490382198
 30
0.0
 10
55.98600212003151
 20
3.966434632878831
 30
0.0
 10
55.38755819299139
 20
3.936317249421916
 30
0.0
  0
SPLINE
  5
C4
330
1F
100
AcDbEntity
  8
0
  6
Continuous
 62
     1
370
    15
100
AcDbSpline
210
0.0
220
0.0
230
1.0
 70
     8
 71
     3
 72
    16
 73
    12
 74
     0
 42
0.000000001
 43
0.00000001
 40
0.0
 40
0.0
 40
0.0
 40
0.0
 40
0.0299821885373316
 40
0.1452930234140118
 40
0.2607042381221788
 40
0.3761612295060833
 40
0.4914851930674346
 40
0.6068757507456414
 40
0.7223376531617929
 40
0.8610858892761561
 40
1.0
 40
1.0
 40
1.0
 40
1.0
 10
32.21534505516413
 20
-3.727218658819511
 30
0.0
 10
31.99332267332948
 20
-3.771528348218981
 30
0.0
 10
30.91740711492484
 20
-3.986252124349221
 30
0.0
 10
28.98744496704801
 20
-4.041875200850032
 30
0.0
 10
26.42402282448343
 20
-3.857785107347626
 30
0.0
 10
23.86028816493824
 20
-3.313492080029639
 30
0.0
 10
21.29746011991964
 20
-2.487188316072475
 30
0.0
 10
18.73414494652217
 20
-1.4419428926282
 30
0.0
 10
15.99724619490664
 20
-0.1984850902350057
 30
0.0
 10
13.08577752532009
 20
1.177767862876637
 30
0.0
 10
11.02900207882633
 20
1.995495055741405
 30
0.0
 10
9.99999999999998
 20
2.404602905995602
 30
0.0
  0
SPLINE
  5
C5
330
1F
100
AcDbEntity
  8
0
  6
Continuous
 62
     1
370
    15
100
AcDbSpline
210
0.0
220
0.0
230
1.0
 70
    24
 71
     3
 72
    10
 73
     6
 74
     0
 42
0.000000001
 43
0.00000001
 40
0.0
 40
0.0
 40
0.0
 40
0.0
 40
0.5
 40
0.5
 40
1.0
 40
1.0
 40
1.0
 40
1.0
 10
69.99999999999999
 20
-3.944861321841067
 30
0.0
 10
69.99999999999999
 20
-3.642456945019013
 30
0.0
 10
69.99999999999999
 20
-3.260357419532333
 30
0.0
 10
69.99999999999999
 20
-2.372012795753391
 30
0.0
 10
70.0
 20
-1.86653721525654
 30
0.0
 10
69.99999999999999
 20
-1.336214730148376
 30
0.0
  0
SPLINE
  5
C6
330
1F
100
AcDbEntity
  8
0
  6
Continuous
 62
     1
370
    15
100
AcDbSpline
210
0.0
220
0.0
230
1.0
 70
     8
 71
     3
 72
    20
 73
    16
 74
     0
 42
0.000000001
 43
0.00000001
 40
0.0
 40
0.0
 40
0.0
 40
0.0
 40
0.0715159549677314
 40
0.1535870893463241
 40
0.2355960599873971
 40
0.3177025294446646
 40
0.3997869478077833
 40
0.4817895942714893
 40
0.5638887031585385
 40
0.6459839640108436
 40
0.7279855068779293
 40
0.8100748069431113
 40
0.8921784638033889
 40
0.97418412413534
 40
1.0
 40
1.0
 40
1.0
 40
1.0
 10
59.41691328158241
 20
-3.74035614039306
 30
0.0
 10
58.67224669828781
 20
-3.841291600526345
 30
0.0
 10
57.07300673689325
 20
-4.05805978240545
 30
0.0
 10
54.61994733931534
 20
-3.968493376871514
 30
0.0
 10
52.05717046221285
 20
-3.561004972157457
 30
0.0
 10
49.49346986399762
 20
-2.835961107844188
 30
0.0
 10
46.93000373938291
 20
-1.866659267025438
 30
0.0
 10
44.3672723781099
 20
-0.7330237049758208
 30
0.0
 10
41.80365748534354
 20
0.4625511547769879
 30
0.0
 10
39.24008343727468
 20
1.618526442332094
 30
0.0
 10
36.67736023328275
 20
2.633290405661451
 30
0.0
 10
34.11385241190449
 20
3.424333673798571
 30
0.0
 10
31.55016271847308
 20
3.893304320635164
 30
0.0
 10
29.57314544482541
 20
4.064739188885224
 30
0.0
 10
28.45049001442019
 20
3.96058693893088
 30
0.0
 10
28.18169090199353
 20
3.935649605901758
 30
0.0
  0
SPLINE
  5
C7
330
1F
100
AcDbEntity
  8
0
  6
Continuous
 62
     1
370
    15
100
AcDbSpline
210
0.0
220
0.0
230
1.0
 70
     8
 71
     3
 72
    10
 73
     6
 74
     0
 42
0.000000001
 43
0.00000001
 40
0.0
 40
0.0
 40
0.0
 40
0.0
 40
0.5
 40
0.5
 40
1.0
 40
1.0
 40
1.0
 40
1.0
 10
69.99999999999999
 20
3.500000000000012
 30
0.0
 10
69.37778486821061
 20
3.331216419726826
 30
0.0
 10
68.76026279451116
 20
3.137623633046197
 30
0.0
 10
67.53581778859242
 20
2.694407155383062
 30
0.0
 10
66.92880705278057
 20
2.445160530077933
 30
0.0
 10
66.33398001936779
 20
2.153947629457786
 30
0.0
  0
SPLINE
  5
C8
330
1F
100
AcDbEntity
  8
0
  6
Continuous
 62
   131
370
    15
100
AcDbSpline
210
0.0
220
0.0
230
1.0
 70
    24
 71
     3
 72
    11
 73
     7
 74
     0
 42
0.000000001
 43
0.00000001
 40
0.0
 40
0.0
 40
0.0
 40
0.0
 40
0.1315829610591319
 40
0.4258335580145655
 40
0.7088991414832508
 40
0.9999999999999999
 40
0.9999999999999999
 40
0.9999999999999999
 40
0.9999999999999999
 10
9.999999999999993
 20
3.279684722763352
 30
0.0
 10
9.999999999999993
 20
3.28427468203266
 30
0.0
 10
9.999999999999991
 20
3.29912887493924
 30
0.0
 10
9.999999999999991
 20
3.156326429373597
 30
0.0
 10
9.999999999999993
 20
2.872276285517309
 30
0.0
 10
9.999999999999993
 20
2.56194171009138
 30
0.0
 10
9.999999999999993
 20
2.404602905995598
 30
0.0
  0
LINE
  5
C9
330
1F
100
AcDbEntity
  8
0
  6
Continuous
 62
     1
370
    15
100
AcDbLine
 10
69.99999999999999
 20
0.0000000000000123
 30
0.0
 11
69.99999999999999
 21
3.500000000000011
 31
0.0
  0
SPLINE
  5
CA
330
1F
100
AcDbEntity
  8
0
  6
Continuous
 62
   131
370
    15
100
AcDbSpline
210
0.0
220
0.0
230
1.0
 70
     8
 71
     3
 72
    10
 73
     6
 74
     0
 42
0.000000001
 43
0.00000001
 40
0.0
 40
0.0
 40
0.0
 40
0.0
 40
0.5
 40
0.5
 40
1.0
 40
1.0
 40
1.0
 40
1.0
 10
10.00000000000015
 20
-2.843485432808181
 30
0.0
 10
9.747156773675137
 20
-2.723239136248895
 30
0.0
 10
9.49562833907742
 20
-2.599563182451889
 30
0.0
 10
8.988320845390334
 20
-2.345161327025308
 30
0.0
 10
8.73378414066898
 20
-2.214630038557341
 30
0.0
 10
8.47983462520877
 20
-2.081518961146756
 30
0.0
  0
SPLINE
  5
CB
330
1F
100
AcDbEntity
  8
0
  6
Continuous
 62
   131
370
    15
100
AcDbSpline
210
0.0
220
0.0
230
1.0
 70
     8
 71
     3
 72
    10
 73
     6
 74
     0
 42
0.000000001
 43
0.00000001
 40
0.0
 40
0.0
 40
0.0
 40
0.0
 40
0.5
 40
0.5
 40
1.0
 40
1.0
 40
1.0
 40
1.0
 10
8.479919248559154
 20
-3.256149899127872
 30
0.0
 10
8.73385479055216
 20
-3.367244221251638
 30
0.0
 10
8.988377293198234
 20
-3.474228819551697
 30
0.0
 10
9.495656416023012
 20
-3.678753000027518
 30
0.0
 10
9.747170816121852
 20
-3.776144920736782
 30
0.0
 10
9.999999999999991
 20
-3.868748463825997
 30
0.0
  0
LINE
  5
CC
330
1F
100
AcDbEntity
  8
0
  6
Continuous
 62
   131
370
    15
100
AcDbLine
 10
8.47991924855923
 20
-4.999999999999995
 30
0.0
 11
8.479919248559154
 21
-3.256152426650436
 31
0.0
  0
LINE
  5
CD
330
1F
100
AcDbEntity
  8
0
  6
Continuous
 62
   131
370
    15
100
AcDbLine
 10
8.719999353283525
 20
3.352903132419812
 30
0.0
 11
9.999999999999988
 21
3.868748463826008
 31
0.0
  0
LINE
  5
CE
330
1F
100
AcDbEntity
  8
0
  6
Continuous
 62
   131
370
    15
100
AcDbLine
 10
8.479919248559188
 20
-2.081324124982728
 30
0.0
 11
8.47991924855923
 21
5.000000000000005
 31
0.0
  0
LINE
  5
CF
330
1F
100
AcDbEntity
  8
0
  6
Continuous
 62
   131
370
    15
100
AcDbLine
 10
-129.0
 20
4.999999999999988
 30
0.0
 11
-129.0
 21
-5.000000000000004
 31
0.0
  0
LINE
  5
D0
330
1F
100
AcDbEntity
  8
0
  6
Continuous
 62
   131
370
    15
100
AcDbLine
 10
-130.0
 20
3.999999999999988
 30
0.0
 11
-130.0
 21
-3.999999999999996
 31
0.0
  0
SPLINE
  5
D1
330
1F
100
AcDbEntity
  8
0
  6
Continuous
 62
   131
370
    15
100
AcDbSpline
210
0.0
220
0.0
230
1.0
 70
    24
 71
     3
 72
     8
 73
     4
 74
     0
 42
0.000000001
 43
0.00000001
 40
0.0
 40
0.0
 40
0.0
 40
0.0
 40
1.0
 40
1.0
 40
1.0
 40
1.0
 10
9.999999999999993
 20
-2.20186841212701
 30
0.0
 10
9.999999999999993
 20
-2.401878834645781
 30
0.0
 10
9.999999999999993
 20
-2.617064229203999
 30
0.0
 10
9.999999999999993
 20
-2.843485432799479
 30
0.0
  0
SPLINE
  5
D2
330
1F
100
AcDbEntity
  8
0
  6
Continuous
 62
   131
370
    15
100
AcDbSpline
210
0.0
220
0.0
230
1.0
 70
     8
 71
     3
 72
    10
 73
     6
 74
     0
 42
0.000000001
 43
0.00000001
 40
0.0
 40
0.0
 40
0.0
 40
0.0
 40
0.5000000000000001
 40
0.5000000000000001
 40
1.0
 40
1.0
 40
1.0
 40
1.0
 10
10.0000000000002
 20
-2.201868412127095
 30
0.0
 10
9.747156773675174
 20
-2.095585696450556
 30
0.0
 10
9.495628339077452
 20
-1.986669959046237
 30
0.0
 10
8.988320845390351
 20
-1.763407040462864
 30
0.0
 10
8.733784140668988
 20
-1.64923228206398
 30
0.0
 10
8.47983462520877
 20
-1.533171174361686
 30
0.0
  0
SPLINE
  5
D3
330
1F
100
AcDbEntity
  8
0
  6
Continuous
 62
   131
370
    15
100
AcDbSpline
210
0.0
220
0.0
230
1.0
 70
     8
 71
     3
 72
    10
 73
     6
 74
     0
 42
0.000000001
 43
0.00000001
 40
0.0
 40
0.0
 40
0.0
 40
0.0
 40
0.5
 40
0.5
 40
1.0
 40
1.0
 40
1.0
 40
1.0
 10
9.99999999999998
 20
2.404602905995601
 30
0.0
 10
9.747165689215686
 20
2.498058683008308
 30
0.0
 10
9.495646165114191
 20
2.588277233158143
 30
0.0
 10
8.988356684070233
 20
2.762342224955407
 30
0.0
 10
8.733828996236289
 20
2.846031356909867
 30
0.0
 10
8.47988835251577
 20
2.925889559782565
 30
0.0
  0
SPLINE
  5
D4
330
1F
100
AcDbEntity
  8
0
  6
Continuous
 62
   131
370
    15
100
AcDbSpline
210
0.0
220
0.0
230
1.0
 70
    24
 71
     3
 72
    14
 73
    10
 74
     0
 42
0.000000001
 43
0.00000001
 40
0.0
 40
0.0
 40
0.0
 40
0.0
 40
0.2499999999999998
 40
0.2499999999999998
 40
0.4999999999999999
 40
0.4999999999999999
 40
0.75
 40
0.75
 40
1.0
 40
1.0
 40
1.0
 40
1.0
 10
9.999999999999993
 20
2.404602905995598
 30
0.0
 10
9.999999999999993
 20
2.071722685426305
 30
0.0
 10
9.999999999999993
 20
1.710241020721139
 30
0.0
 10
9.999999999999993
 20
0.9504394798127251
 30
0.0
 10
9.999999999999993
 20
0.5522847226407772
 30
0.0
 10
9.999999999999993
 20
-0.2528102713743854
 30
0.0
 10
9.999999999999993
 20
-0.659518021222872
 30
0.0
 10
9.999999999999993
 20
-1.452327199886564
 30
0.0
 10
9.999999999999993
 20
-1.838237518077357
 30
0.0
 10
9.999999999999993
 20
-2.20186841212701
 30
0.0
  0
SPLINE
  5
D5
330
1F
100
AcDbEntity
  8
0
  6
Continuous
 62
   131
370
    15
100
AcDbSpline
210
0.0
220
0.0
230
1.0
 70
    24
 71
     3
 72
    11
 73
     7
 74
     0
 42
0.000000001
 43
0.00000001
 40
0.0
 40
0.0
 40
0.0
 40
0.0
 40
0.12412648730097
 40
0.420903602917527
 40
0.7063996673651981
 40
1.0
 40
1.0
 40
1.0
 40
1.0
 10
9.999999999999993
 20
3.279953936802222
 30
0.0
 10
9.999999999999993
 20
3.28411631769659
 30
0.0
 10
9.999999999999993
 20
3.2982306389285
 30
0.0
 10
9.999999999999993
 20
3.156049904130676
 30
0.0
 10
9.999999999999993
 20
2.872346557155267
 30
0.0
 10
9.999999999999993
 20
2.56196535149575
 30
0.0
 10
9.999999999999993
 20
2.404602905995598
 30
0.0
  0
SPLINE
  5
D6
330
1F
100
AcDbEntity
  8
0
  6
Continuous
 62
   131
370
    15
100
AcDbSpline
210
0.0
220
0.0
230
1.0
 70
    24
 71
     3
 72
     9
 73
     5
 74
     0
 42
0.000000001
 43
0.00000001
 40
0.0
 40
0.0
 40
0.0
 40
0.0
 40
0.1867203348947515
 40
1.0
 40
1.0
 40
1.0
 40
1.0
 10
9.999999999999988
 20
3.868748463826008
 30
0.0
 10
9.999999999999988
 20
3.829345525872918
 30
0.0
 10
9.99999999999998
 20
3.618319030149775
 30
0.0
 10
9.999999999999984
 20
3.441991517433526
 30
0.0
 10
9.999999999999984
 20
3.298587936942812
 30
0.0
  0
LINE
  5
D7
330
1F
100
AcDbEntity
  8
중심선
100
AcDbLine
 10
-133.0
 20
-0.0000000000000004
 30
0.0
 11
73.0
 21
0.0000000000000125
 31
0.0
  0
CIRCLE
  5
D8
330
1F
100
AcDbEntity
  8
외형선
100
AcDbCircle
 10
0.0000000000000104
 20
0.0
 30
0.0
 40
3.000000000000005
  0
INSERT
  5
D9
330
1F
100
AcDbEntity
  8
0
  6
Continuous
 62
     7
100
AcDbBlockReference
 66
     1
  2
블럭10
 10
-22.93944368806589
 20
-52.04609937292004
 30
0.0
  0
ATTRIB
  5
DA
330
D9
100
AcDbEntity
  8
FORMAT
 62
     2
100
AcDbText
 10
-43.79769121965843
 20
-49.97073246008785
 30
0.0
 40
4.233333333333333
  1
SEME7010060200E [ 2 FLUTE ]
 41
0.75
  7
SLDTEXTSTYLE0
 11
-43.79769121965843
 21
-52.08739912675452
 31
0.0
100
AcDbAttribute
  2
AUTOATTR0
 70
     0
 74
     1
  0
SEQEND
  5
DB
330
D9
100
AcDbEntity
  8
0
  6
Continuous
 62
     7
  0
HATCH
  5
DC
330
1F
100
AcDbEntity
  8
중심선
100
AcDbHatch
 10
0.0
 20
0.0
 30
0.0
210
0.0
220
0.0
230
1.0
  2
SOLID
 70
     1
 71
     0
 91
        1
 92
        0
 93
        4
 72
     1
 10
-17.22453438368504
 20
-35.7989250712761
 11
-20.67080962752232
 21
-35.7989250712761
 72
     1
 10
-20.67080962752232
 20
-35.7989250712761
 11
-22.79903948672635
 21
-38.3352506518487
 72
     1
 10
-22.79903948672635
 20
-38.3352506518487
 11
-19.35273115777591
 21
-38.33521122254621
 72
     1
 10
-19.35273115777591
 20
-38.33521122254621
 11
-17.22453438368504
 21
-35.7989250712761
 97
        0
 75
     0
 76
     1
 98
        1
 10
0.0
 20
0.0
  0
HATCH
  5
DD
330
1F
100
AcDbEntity
  8
중심선
100
AcDbHatch
 10
0.0
 20
0.0
 30
0.0
210
0.0
220
0.0
230
1.0
  2
SOLID
 70
     1
 71
     0
 91
        1
 92
        0
 93
        4
 72
     1
 10
-12.21177039264909
 20
-35.7989250712761
 11
-15.65804563648637
 21
-35.7989250712761
 72
     1
 10
-15.65804563648637
 20
-35.7989250712761
 11
-20.18918364484376
 21
-41.19892507127612
 72
     1
 10
-20.18918364484376
 20
-41.19892507127612
 11
-16.74290840100648
 21
-41.19892507127612
 72
     1
 10
-16.74290840100648
 20
-41.19892507127612
 11
-12.21177039264909
 21
-35.7989250712761
 97
        0
 75
     0
 76
     1
 98
        1
 10
0.0
 20
0.0
  0
HATCH
  5
DE
330
1F
100
AcDbEntity
  8
중심선
100
AcDbHatch
 10
0.0
 20
0.0
 30
0.0
210
0.0
220
0.0
230
1.0
  2
SOLID
 70
     1
 71
     0
 91
        1
 92
        0
 93
        4
 72
     1
 10
-7.199006401613195
 20
-35.79892507127613
 11
-10.64528164545031
 21
-35.7989250712761
 72
     1
 10
-10.64528164545031
 20
-35.7989250712761
 11
-17.69371854733956
 21
-44.19892507127612
 72
     1
 10
-17.69371854733956
 20
-44.19892507127612
 11
-14.24744330350228
 21
-44.19892507127612
 72
     1
 10
-14.24744330350228
 20
-44.19892507127612
 11
-7.199006401613195
 21
-35.79892507127613
 97
        0
 75
     0
 76
     1
 98
        1
 10
0.0
 20
0.0
  0
HATCH
  5
DF
330
1F
100
AcDbEntity
  8
중심선
100
AcDbHatch
 10
0.0
 20
0.0
 30
0.0
210
0.0
220
0.0
230
1.0
  2
SOLID
 70
     1
 71
     0
 91
        1
 92
        0
 93
        6
 72
     3
 10
-2.399115970600996
 20
-39.99892507132738
 11
3.960054785062284
 21
1.540850780301639E-10
 40
0.3939339440162633
 50
17.09539180608433
 51
320.0019657685079
 73
     0
 72
     1
 10
-0.7161163149004002
 20
-38.58681907591441
 11
1.589185558800638
 21
-36.65249236586649
 72
     3
 10
-2.399115970653842
 20
-39.99892507127625
 11
6.600054785286829
 21
-1.249000902703301E-13
 40
0.6363583540795982
 50
39.99873849337408
 51
368.4976242363725
 73
     1
 72
     1
 10
4.026216521246767
 20
-39.03892507120613
 11
-3.71904866381792
 21
-39.0389250712061
 72
     1
 10
-3.71904866381792
 20
-39.0389250712061
 11
-3.719073708263854
 21
-40.95892507120602
 72
     1
 10
-3.719073708263854
 20
-40.95892507120602
 11
0.7223060612081831
 21
-40.95892507120599
 97
        0
 75
     0
 76
     1
 98
        1
 10
0.0
 20
0.0
  0
DIMENSION
  5
E0
330
1F
100
AcDbEntity
  8
치수문자_일반주서
100
AcDbDimension
  2
_D
 10
87.65061432657258
 20
5.000000000000298
 30
0.0
 11
87.65061432657255
 21
15.3227500000003
 31
0.0
 70
   160
  1
%%c<>
 71
     2
 42
9.999999999999995
 52
-270.0
  3
SLDDIMSTYLE0
100
AcDbAlignedDimension
 13
69.99999999999972
 23
-4.999999999999762
 33
0.0
 14
69.99999999999972
 24
5.000000000000233
 34
0.0
 50
90.0000000000002
100
AcDbRotatedDimension
  0
DIMENSION
  5
EE
330
1F
100
AcDbEntity
  8
치수문자_일반주서
100
AcDbDimension
  2
_D_1
 10
69.99999999999972
 20
25.78841044024269
 30
0.0
 11
-30.00000000000015
 21
25.78841044024269
 31
0.0
 70
   160
  1
<>
 71
     2
 42
199.9999999999997
  3
SLDDIMSTYLE1
100
AcDbAlignedDimension
 13
-130.0
 23
3.999999999999988
 33
0.0
 14
69.99999999999972
 24
5.000000000000226
 34
0.0
 50
-0.0000000000000041
100
AcDbRotatedDimension
  0
DIMENSION
  5
F9
330
1F
100
AcDbEntity
  8
치수문자_일반주서
100
AcDbDimension
  2
_D_2
 10
69.99999999999972
 20
17.21574626999353
 30
0.0
 11
39.99999999999999
 21
17.21574626999353
 31
0.0
 70
   160
  1
<>
 71
     2
 42
59.99999999999972
  3
SLDDIMSTYLE1
100
AcDbAlignedDimension
 13
9.999999999999991
 23
3.868748463826009
 33
0.0
 14
69.99999999999972
 24
5.000000000000226
 34
0.0
 50
-0.0000000000000034
100
AcDbRotatedDimension
  0
DIMENSION
  5
103
330
1F
100
AcDbEntity
  8
치수문자_일반주서
100
AcDbDimension
  2
_D_3
 10
-142.4286587929161
 20
-5.000000000000046
 30
0.0
 11
-142.4286587929162
 21
15.32274999999994
 31
0.0
 70
   160
  1
%%c<>
 71
     2
 42
9.999999999999984
 52
-270.0
  3
SLDDIMSTYLE0
100
AcDbAlignedDimension
 13
-129.0
 23
4.999999999999988
 33
0.0
 14
-129.0
 24
-4.999999999999996
 34
0.0
 50
90.0000000000002
100
AcDbRotatedDimension
  0
INSERT
  5
116
330
1F
100
AcDbEntity
  8
외형선
100
AcDbBlockReference
  2
SW_DOWELSYMBOL_0
 10
0.0000000000000104
 20
0.0
 30
0.0
  0
ENDSEC
  0
SECTION
  2
OBJECTS
  0
DICTIONARY
  5
C
330
0
100
AcDbDictionary
281
     1
  3
ACAD_GROUP
350
D
  3
ACAD_IMAGE_VARS
350
13A
  3
ACAD_LAYOUT
350
1A
  3
ACAD_MLINESTYLE
350
17
  3
ACAD_PLOTSETTINGS
350
19
  3
ACAD_PLOTSTYLENAME
350
E
  3
ACAD_SCALELIST
350
47
  3
APPDATA
350
138
  3
DWGPROPS
350
149
  0
DICTIONARY
  5
D
102
{ACAD_REACTORS
330
C
102
}
330
C
100
AcDbDictionary
281
     1
  0
RASTERVARIABLES
  5
13A
102
{ACAD_REACTORS
330
C
102
}
330
C
100
AcDbRasterVariables
 90
        0
 70
     1
 71
     1
 72
     1
  0
DICTIONARY
  5
1A
102
{ACAD_REACTORS
330
C
102
}
330
C
100
AcDbDictionary
281
     1
  3
Layout1
350
1E
  3
Layout2
350
26
  3
Model
350
22
  0
DICTIONARY
  5
17
102
{ACAD_REACTORS
330
C
102
}
330
C
100
AcDbDictionary
281
     1
  3
Standard
350
18
  0
DICTIONARY
  5
19
102
{ACAD_REACTORS
330
C
102
}
330
C
100
AcDbDictionary
281
     1
  0
ACDBDICTIONARYWDFLT
  5
E
102
{ACAD_REACTORS
330
C
102
}
330
C
100
AcDbDictionary
281
     1
  3
Normal
350
F
100
AcDbDictionaryWithDefault
340
F
  0
DICTIONARY
  5
47
102
{ACAD_REACTORS
330
C
102
}
330
C
100
AcDbDictionary
281
     1
  3
A0
350
48
  3
A1
350
49
  3
A2
350
4A
  3
A3
350
4B
  3
A4
350
4C
  3
A5
350
4D
  3
A6
350
4E
  3
A7
350
4F
  3
A8
350
50
  3
A9
350
51
  3
B0
350
52
  3
B1
350
53
  3
B2
350
54
  3
B3
350
55
  3
B4
350
56
  3
B5
350
57
  3
B6
350
58
  3
B7
350
59
  3
B8
350
5A
  3
B9
350
5B
  3
C0
350
5C
  3
C1
350
5D
  3
C2
350
5E
  3
C3
350
5F
  3
C4
350
60
  3
C5
350
61
  3
C6
350
62
  3
C7
350
63
  3
C8
350
64
  3
C9
350
65
  3
D0
350
66
  3
D1
350
67
  3
D2
350
68
  0
DICTIONARY
  5
138
102
{ACAD_REACTORS
330
C
102
}
330
C
100
AcDbDictionary
281
     1
  0
XRECORD
  5
149
102
{ACAD_REACTORS
330
C
102
}
330
C
100
AcDbXrecord
280
     1
  1
DWGPROPS COOKIE
  2

  3

  4

  6

  7

  8
12014102
  9

300
=
301
=
302
=
303
=
304
=
305
=
306
=
307
=
308
=
309
=
 40
0.0
 41
2458262.171798009
 42
2458266.302641898
  1

 90
        0
  0
LAYOUT
  5
1E
102
{ACAD_REACTORS
330
1A
102
}
330
1A
100
AcDbPlotSettings
  1

  2
none_device
  4

  6

 40
0.0
 41
0.0
 42
0.0
 43
0.0
 44
0.0
 45
0.0
 46
0.0
 47
0.0
 48
0.0
 49
0.0
140
0.0
141
0.0
142
1.0
143
1.0
 70
   688
 72
     1
 73
     0
 74
     5
  7

 75
    16
147
1.0
148
0.0
149
0.0
100
AcDbLayout
  1
Layout1
 70
     1
 71
     1
 10
0.0
 20
0.0
 11
420.0
 21
297.0
 12
0.0
 22
0.0
 32
0.0
 14
1.000000000000000E+20
 24
1.000000000000000E+20
 34
1.000000000000000E+20
 15
-1.000000000000000E+20
 25
-1.000000000000000E+20
 35
-1.000000000000000E+20
146
0.0
 13
0.0
 23
0.0
 33
0.0
 16
1.0
 26
0.0
 36
0.0
 17
0.0
 27
1.0
 37
0.0
 76
     0
330
1B
  0
LAYOUT
  5
26
102
{ACAD_REACTORS
330
1A
102
}
330
1A
100
AcDbPlotSettings
  1

  2
none_device
  4

  6

 40
0.0
 41
0.0
 42
0.0
 43
0.0
 44
0.0
 45
0.0
 46
0.0
 47
0.0
 48
0.0
 49
0.0
140
0.0
141
0.0
142
1.0
143
1.0
 70
   688
 72
     1
 73
     0
 74
     5
  7

 75
    16
147
1.0
148
0.0
149
0.0
100
AcDbLayout
  1
Layout2
 70
     1
 71
     2
 10
0.0
 20
0.0
 11
0.0
 21
0.0
 12
0.0
 22
0.0
 32
0.0
 14
0.0
 24
0.0
 34
0.0
 15
0.0
 25
0.0
 35
0.0
146
0.0
 13
0.0
 23
0.0
 33
0.0
 16
1.0
 26
0.0
 36
0.0
 17
0.0
 27
1.0
 37
0.0
 76
     0
330
23
  0
LAYOUT
  5
22
102
{ACAD_REACTORS
330
1A
102
}
330
1A
100
AcDbPlotSettings
  1

  2
none_device
  4
ANSI_A_(11.00_x_8.50_Inches)
  6

 40
6.35
 41
19.05
 42
6.35000508
 43
19.05000254
 44
279.4
 45
215.9
 46
175.6382602889881
 47
101.9668467037091
 48
0.0
 49
0.0
140
0.0
141
0.0
142
0.0504022769828517
143
1.0
 70
  1696
 72
     0
 73
     0
 74
     0
  7

 75
     0
147
0.0235690232323232
148
0.0
149
0.0
100
AcDbLayout
  1
Model
 70
     1
 71
     0
 10
0.0
 20
0.0
 11
420.0
 21
297.0
 12
0.0
 22
0.0
 32
0.0
 14
-146.8036587929162
 24
-49.97073246008785
 34
0.0
 15
88.20094765990595
 25
30.16341044024268
 35
0.0
146
0.0
 13
0.0
 23
0.0
 33
0.0
 16
1.0
 26
0.0
 36
0.0
 17
0.0
 27
1.0
 37
0.0
 76
     0
330
1F
331
29
  0
MLINESTYLE
  5
18
102
{ACAD_REACTORS
330
17
102
}
330
17
100
AcDbMlineStyle
  2
Standard
 70
     0
  3

 62
   256
 51
90.0
 52
90.0
 71
     2
 49
0.5
 62
   256
  6
BYLAYER
 49
-0.5
 62
   256
  6
BYLAYER
  0
ACDBPLACEHOLDER
  5
F
102
{ACAD_REACTORS
330
E
102
}
330
E
  0
SCALE
  5
48
102
{ACAD_REACTORS
330
47
102
}
330
47
100
AcDbScale
 70
     0
300
1:1
140
1.0
141
1.0
290
     1
  0
SCALE
  5
49
102
{ACAD_REACTORS
330
47
102
}
330
47
100
AcDbScale
 70
     0
300
1:2
140
1.0
141
2.0
290
     0
  0
SCALE
  5
4A
102
{ACAD_REACTORS
330
47
102
}
330
47
100
AcDbScale
 70
     0
300
1:4
140
1.0
141
4.0
290
     0
  0
SCALE
  5
4B
102
{ACAD_REACTORS
330
47
102
}
330
47
100
AcDbScale
 70
     0
300
1:5
140
1.0
141
5.0
290
     0
  0
SCALE
  5
4C
102
{ACAD_REACTORS
330
47
102
}
330
47
100
AcDbScale
 70
     0
300
1:8
140
1.0
141
8.0
290
     0
  0
SCALE
  5
4D
102
{ACAD_REACTORS
330
47
102
}
330
47
100
AcDbScale
 70
     0
300
1:10
140
1.0
141
10.0
290
     0
  0
SCALE
  5
4E
102
{ACAD_REACTORS
330
47
102
}
330
47
100
AcDbScale
 70
     0
300
1:16
140
1.0
141
16.0
290
     0
  0
SCALE
  5
4F
102
{ACAD_REACTORS
330
47
102
}
330
47
100
AcDbScale
 70
     0
300
1:20
140
1.0
141
20.0
290
     0
  0
SCALE
  5
50
102
{ACAD_REACTORS
330
47
102
}
330
47
100
AcDbScale
 70
     0
300
1:30
140
1.0
141
30.0
290
     0
  0
SCALE
  5
51
102
{ACAD_REACTORS
330
47
102
}
330
47
100
AcDbScale
 70
     0
300
1:40
140
1.0
141
40.0
290
     0
  0
SCALE
  5
52
102
{ACAD_REACTORS
330
47
102
}
330
47
100
AcDbScale
 70
     0
300
1:50
140
1.0
141
50.0
290
     0
  0
SCALE
  5
53
102
{ACAD_REACTORS
330
47
102
}
330
47
100
AcDbScale
 70
     0
300
1:100
140
1.0
141
100.0
290
     0
  0
SCALE
  5
54
102
{ACAD_REACTORS
330
47
102
}
330
47
100
AcDbScale
 70
     0
300
2:1
140
2.0
141
1.0
290
     0
  0
SCALE
  5
55
102
{ACAD_REACTORS
330
47
102
}
330
47
100
AcDbScale
 70
     0
300
4:1
140
4.0
141
1.0
290
     0
  0
SCALE
  5
56
102
{ACAD_REACTORS
330
47
102
}
330
47
100
AcDbScale
 70
     0
300
8:1
140
8.0
141
1.0
290
     0
  0
SCALE
  5
57
102
{ACAD_REACTORS
330
47
102
}
330
47
100
AcDbScale
 70
     0
300
10:1
140
10.0
141
1.0
290
     0
  0
SCALE
  5
58
102
{ACAD_REACTORS
330
47
102
}
330
47
100
AcDbScale
 70
     0
300
100:1
140
100.0
141
1.0
290
     0
  0
SCALE
  5
59
102
{ACAD_REACTORS
330
47
102
}
330
47
100
AcDbScale
 70
     0
300
1/128" = 1'-0"
140
0.0078125
141
12.0
290
     0
  0
SCALE
  5
5A
102
{ACAD_REACTORS
330
47
102
}
330
47
100
AcDbScale
 70
     0
300
1/64" = 1'-0"
140
0.015625
141
12.0
290
     0
  0
SCALE
  5
5B
102
{ACAD_REACTORS
330
47
102
}
330
47
100
AcDbScale
 70
     0
300
1/32" = 1'-0"
140
0.03125
141
12.0
290
     0
  0
SCALE
  5
5C
102
{ACAD_REACTORS
330
47
102
}
330
47
100
AcDbScale
 70
     0
300
1/16" = 1'-0"
140
0.0625
141
12.0
290
     0
  0
SCALE
  5
5D
102
{ACAD_REACTORS
330
47
102
}
330
47
100
AcDbScale
 70
     0
300
3/32" = 1'-0"
140
0.09375
141
12.0
290
     0
  0
SCALE
  5
5E
102
{ACAD_REACTORS
330
47
102
}
330
47
100
AcDbScale
 70
     0
300
1/8" = 1'-0"
140
0.125
141
12.0
290
     0
  0
SCALE
  5
5F
102
{ACAD_REACTORS
330
47
102
}
330
47
100
AcDbScale
 70
     0
300
3/16" = 1'-0"
140
0.1875
141
12.0
290
     0
  0
SCALE
  5
60
102
{ACAD_REACTORS
330
47
102
}
330
47
100
AcDbScale
 70
     0
300
1/4" = 1'-0"
140
0.25
141
12.0
290
     0
  0
SCALE
  5
61
102
{ACAD_REACTORS
330
47
102
}
330
47
100
AcDbScale
 70
     0
300
3/8" = 1'-0"
140
0.375
141
12.0
290
     0
  0
SCALE
  5
62
102
{ACAD_REACTORS
330
47
102
}
330
47
100
AcDbScale
 70
     0
300
1/2" = 1'-0"
140
0.5
141
12.0
290
     0
  0
SCALE
  5
63
102
{ACAD_REACTORS
330
47
102
}
330
47
100
AcDbScale
 70
     0
300
3/4" = 1'-0"
140
0.75
141
12.0
290
     0
  0
SCALE
  5
64
102
{ACAD_REACTORS
330
47
102
}
330
47
100
AcDbScale
 70
     0
300
1" = 1'-0"
140
1.0
141
12.0
290
     0
  0
SCALE
  5
65
102
{ACAD_REACTORS
330
47
102
}
330
47
100
AcDbScale
 70
     0
300
1-1/2" = 1'-0"
140
1.5
141
12.0
290
     0
  0
SCALE
  5
66
102
{ACAD_REACTORS
330
47
102
}
330
47
100
AcDbScale
 70
     0
300
3" = 1'-0"
140
3.0
141
12.0
290
     0
  0
SCALE
  5
67
102
{ACAD_REACTORS
330
47
102
}
330
47
100
AcDbScale
 70
     0
300
6" = 1'-0"
140
6.0
141
12.0
290
     0
  0
SCALE
  5
68
102
{ACAD_REACTORS
330
47
102
}
330
47
100
AcDbScale
 70
     0
300
1'-0" = 1'-0"
140
12.0
141
12.0
290
     0
  0
ENDSEC
  0
EOF
