  0
SECTION
  2
HEADER
  9
$ACADVER
  1
AC1015
  9
$ACADMAINTVER
 70
     6
  9
$DWGCODEPAGE
  3
ANSI_949
  9
$INSBASE
 10
0.0
 20
0.0
 30
0.0
  9
$EXTMIN
 10
-156.0407700999942
 20
-49.97073246008785
 30
0.0
  9
$EXTMAX
 10
78.3486445245675
 20
30.16341044024269
 30
0.0
  9
$LIMMIN
 10
0.0
 20
0.0
  9
$LIMMAX
 10
420.0
 20
297.0
  9
$ORTHOMODE
 70
     0
  9
$REGENMODE
 70
     1
  9
$FILLMODE
 70
     1
  9
$QTEXTMODE
 70
     0
  9
$MIRRTEXT
 70
     1
  9
$LTSCALE
 40
1.0
  9
$ATTMODE
 70
     1
  9
$TEXTSIZE
 40
3.5
  9
$TRACEWID
 40
1.0
  9
$TEXTSTYLE
  7
Standard
  9
$CLAYER
  8
0
  9
$CELTYPE
  6
ByLayer
  9
$CECOLOR
 62
   256
  9
$CELTSCALE
 40
1.0
  9
$DISPSILH
 70
     0
  9
$DIMSCALE
 40
1.0
  9
$DIMASZ
 40
3.302
  9
$DIMEXO
 40
1.0
  9
$DIMDLI
 40
3.75
  9
$DIMRND
 40
0.0
  9
$DIMDLE
 40
0.0
  9
$DIMEXE
 40
1.0
  9
$DIMTP
 40
0.0
  9
$DIMTM
 40
0.0
  9
$DIMTXT
 40
3.5
  9
$DIMCEN
 40
2.5
  9
$DIMTSZ
 40
0.0
  9
$DIMTOL
 70
     0
  9
$DIMLIM
 70
     0
  9
$DIMTIH
 70
     1
  9
$DIMTOH
 70
     1
  9
$DIMSE1
 70
     0
  9
$DIMSE2
 70
     0
  9
$DIMTAD
 70
     1
  9
$DIMZIN
 70
     0
  9
$DIMBLK
  1

  9
$DIMASO
 70
     1
  9
$DIMSHO
 70
     1
  9
$DIMPOST
  1

  9
$DIMAPOST
  1

  9
$DIMALT
 70
     0
  9
$DIMALTD
 70
     3
  9
$DIMALTF
 40
0.0393700787401575
  9
$DIMLFAC
 40
1.0
  9
$DIMTOFL
 70
     1
  9
$DIMTVP
 40
0.0
  9
$DIMTIX
 70
     0
  9
$DIMSOXD
 70
     0
  9
$DIMSAH
 70
     0
  9
$DIMBLK1
  1

  9
$DIMBLK2
  1

  9
$DIMSTYLE
  2
ISO-25
  9
$DIMCLRD
 70
     0
  9
$DIMCLRE
 70
     0
  9
$DIMCLRT
 70
     0
  9
$DIMTFAC
 40
1.0
  9
$DIMGAP
 40
1.524
  9
$DIMJUST
 70
     0
  9
$DIMSD1
 70
     0
  9
$DIMSD2
 70
     0
  9
$DIMTOLJ
 70
     0
  9
$DIMTZIN
 70
     0
  9
$DIMALTZ
 70
     0
  9
$DIMALTTZ
 70
     0
  9
$DIMUPT
 70
     0
  9
$DIMDEC
 70
     2
  9
$DIMTDEC
 70
     2
  9
$DIMALTU
 70
     2
  9
$DIMALTTD
 70
     3
  9
$DIMTXSTY
  7
Standard
  9
$DIMAUNIT
 70
     0
  9
$DIMADEC
 70
     2
  9
$DIMALTRND
 40
0.0
  9
$DIMAZIN
 70
     0
  9
$DIMDSEP
 70
    44
  9
$DIMATFIT
 70
     3
  9
$DIMFRAC
 70
     0
  9
$DIMLDRBLK
  1

  9
$DIMLUNIT
 70
     2
  9
$DIMLWD
 70
    -2
  9
$DIMLWE
 70
    -2
  9
$DIMTMOVE
 70
     0
  9
$LUNITS
 70
     2
  9
$LUPREC
 70
     2
  9
$SKETCHINC
 40
1.0
  9
$FILLETRAD
 40
10.0
  9
$AUNITS
 70
     0
  9
$AUPREC
 70
     2
  9
$MENU
  1
.
  9
$ELEVATION
 40
0.0
  9
$PELEVATION
 40
0.0
  9
$THICKNESS
 40
0.0
  9
$LIMCHECK
 70
     0
  9
$CHAMFERA
 40
0.0
  9
$CHAMFERB
 40
0.0
  9
$CHAMFERC
 40
0.0
  9
$CHAMFERD
 40
0.0
  9
$SKPOLY
 70
     0
  9
$TDCREATE
 40
2458262.546235706
  9
$TDUCREATE
 40
2458262.171235706
  9
$TDUPDATE
 40
2458266.676408507
  9
$TDUUPDATE
 40
2458266.301408507
  9
$TDINDWG
 40
0.0014351042
  9
$TDUSRTIMER
 40
2458266.299973461
  9
$USRTIMER
 70
     1
  9
$ANGBASE
 50
0.0
  9
$ANGDIR
 70
     0
  9
$PDMODE
 70
     0
  9
$PDSIZE
 40
-1.0
  9
$PLINEWID
 40
0.0
  9
$SPLFRAME
 70
     0
  9
$SPLINETYPE
 70
     6
  9
$SPLINESEGS
 70
     8
  9
$HANDSEED
  5
144
  9
$SURFTAB1
 70
     6
  9
$SURFTAB2
 70
     6
  9
$SURFTYPE
 70
     6
  9
$SURFU
 70
     6
  9
$SURFV
 70
     6
  9
$UCSBASE
  2

  9
$UCSNAME
  2

  9
$UCSORG
 10
0.0
 20
0.0
 30
0.0
  9
$UCSXDIR
 10
1.0
 20
0.0
 30
0.0
  9
$UCSYDIR
 10
0.0
 20
1.0
 30
0.0
  9
$UCSORTHOREF
  2

  9
$UCSORTHOVIEW
 70
     0
  9
$UCSORGTOP
 10
0.0
 20
0.0
 30
0.0
  9
$UCSORGBOTTOM
 10
0.0
 20
0.0
 30
0.0
  9
$UCSORGLEFT
 10
0.0
 20
0.0
 30
0.0
  9
$UCSORGRIGHT
 10
0.0
 20
0.0
 30
0.0
  9
$UCSORGFRONT
 10
0.0
 20
0.0
 30
0.0
  9
$UCSORGBACK
 10
0.0
 20
0.0
 30
0.0
  9
$PUCSBASE
  2

  9
$PUCSNAME
  2

  9
$PUCSORG
 10
0.0
 20
0.0
 30
0.0
  9
$PUCSXDIR
 10
1.0
 20
0.0
 30
0.0
  9
$PUCSYDIR
 10
0.0
 20
1.0
 30
0.0
  9
$PUCSORTHOREF
  2

  9
$PUCSORTHOVIEW
 70
     0
  9
$PUCSORGTOP
 10
0.0
 20
0.0
 30
0.0
  9
$PUCSORGBOTTOM
 10
0.0
 20
0.0
 30
0.0
  9
$PUCSORGLEFT
 10
0.0
 20
0.0
 30
0.0
  9
$PUCSORGRIGHT
 10
0.0
 20
0.0
 30
0.0
  9
$PUCSORGFRONT
 10
0.0
 20
0.0
 30
0.0
  9
$PUCSORGBACK
 10
0.0
 20
0.0
 30
0.0
  9
$USERI1
 70
     0
  9
$USERI2
 70
     0
  9
$USERI3
 70
     0
  9
$USERI4
 70
     0
  9
$USERI5
 70
     0
  9
$USERR1
 40
0.0
  9
$USERR2
 40
0.0
  9
$USERR3
 40
0.0
  9
$USERR4
 40
0.0
  9
$USERR5
 40
0.0
  9
$WORLDVIEW
 70
     1
  9
$SHADEDGE
 70
     3
  9
$SHADEDIF
 70
    70
  9
$TILEMODE
 70
     1
  9
$MAXACTVP
 70
    64
  9
$PINSBASE
 10
0.0
 20
0.0
 30
0.0
  9
$PLIMCHECK
 70
     0
  9
$PEXTMIN
 10
1.000000000000000E+20
 20
1.000000000000000E+20
 30
1.000000000000000E+20
  9
$PEXTMAX
 10
-1.000000000000000E+20
 20
-1.000000000000000E+20
 30
-1.000000000000000E+20
  9
$PLIMMIN
 10
0.0
 20
0.0
  9
$PLIMMAX
 10
0.0
 20
0.0
  9
$UNITMODE
 70
     0
  9
$VISRETAIN
 70
     1
  9
$PLINEGEN
 70
     0
  9
$PSLTSCALE
 70
     1
  9
$TREEDEPTH
 70
  3020
  9
$CMLSTYLE
  2
Standard
  9
$CMLJUST
 70
     0
  9
$CMLSCALE
 40
20.0
  9
$PROXYGRAPHICS
 70
     1
  9
$MEASUREMENT
 70
     1
  9
$CELWEIGHT
370
    -1
  9
$ENDCAPS
280
     0
  9
$JOINSTYLE
280
     0
  9
$LWDISPLAY
290
     1
  9
$INSUNITS
 70
     4
  9
$HYPERLINKBASE
  1

  9
$STYLESHEET
  1

  9
$XEDIT
290
     1
  9
$CEPSNTYPE
380
     0
  9
$PSTYLEMODE
290
     1
  9
$FINGERPRINTGUID
  2
{CBC85B24-5A14-4581-98B8-FA84BD9CEB68}
  9
$VERSIONGUID
  2
{FAEB1C32-E019-11D5-929B-00C0DF256EC4}
  9
$EXTNAMES
290
     1
  9
$PSVPSCALE
 40
0.0
  9
$OLESTARTUP
290
     0
  0
ENDSEC
  0
SECTION
  2
CLASSES
  0
CLASS
  1
ACDBDICTIONARYWDFLT
  2
AcDbDictionaryWithDefault
  3
ObjectDBX Classes
 90
        0
280
     0
281
     0
  0
CLASS
  1
VISUALSTYLE
  2
AcDbVisualStyle
  3
ObjectDBX Classes
 90
     4095
280
     0
281
     0
  0
CLASS
  1
MATERIAL
  2
AcDbMaterial
  3
ObjectDBX Classes
 90
     1153
280
     0
281
     0
  0
CLASS
  1
SCALE
  2
AcDbScale
  3
ObjectDBX Classes
 90
     1153
280
     0
281
     0
  0
CLASS
  1
SUN
  2
AcDbSun
  3
SCENEOE
 90
     1153
280
     0
281
     0
  0
CLASS
  1
ACDBPLACEHOLDER
  2
AcDbPlaceHolder
  3
ObjectDBX Classes
 90
        0
280
     0
281
     0
  0
CLASS
  1
LAYOUT
  2
AcDbLayout
  3
ObjectDBX Classes
 90
        0
280
     0
281
     0
  0
CLASS
  1
TABLESTYLE
  2
AcDbTableStyle
  3
ObjectDBX Classes
 90
     4095
280
     0
281
     0
  0
CLASS
  1
MLEADERSTYLE
  2
AcDbMLeaderStyle
  3
ACDB_MLEADERSTYLE_CLASS
 90
     4095
280
     0
281
     0
  0
CLASS
  1
RASTERVARIABLES
  2
AcDbRasterVariables
  3
ISM
 90
        0
280
     0
281
     0
  0
ENDSEC
  0
SECTION
  2
TABLES
  0
TABLE
  2
VPORT
  5
8
330
0
100
AcDbSymbolTable
 70
     1
  0
VPORT
  5
29
330
8
100
AcDbSymbolTableRecord
100
AcDbViewportTableRecord
  2
*Active
 70
     0
 10
0.0
 20
0.0
 11
1.0
 21
1.0
 12
-38.84606278771332
 22
-9.903661009922587
 13
0.0
 23
0.0
 14
10.0
 24
10.0
 15
10.0
 25
10.0
 16
0.0
 26
0.0
 36
1.0
 17
0.0
 27
0.0
 37
0.0
 40
207.4503980468598
 41
1.152454780361757
 42
50.0
 43
0.0
 44
0.0
 50
0.0
 51
0.0
 71
    16
 72
  2000
 73
     1
 74
     3
 75
     0
 76
     0
 77
     0
 78
     0
281
     0
 65
     1
110
0.0
120
0.0
130
0.0
111
1.0
121
0.0
131
0.0
112
0.0
122
1.0
132
0.0
 79
     0
146
0.0
  0
ENDTAB
  0
TABLE
  2
LTYPE
  5
5
330
0
100
AcDbSymbolTable
 70
     6
  0
LTYPE
  5
14
330
5
100
AcDbSymbolTableRecord
100
AcDbLinetypeTableRecord
  2
ByBlock
 70
     0
  3

 72
    65
 73
     0
 40
0.0
  0
LTYPE
  5
15
330
5
100
AcDbSymbolTableRecord
100
AcDbLinetypeTableRecord
  2
ByLayer
 70
     0
  3

 72
    65
 73
     0
 40
0.0
  0
LTYPE
  5
16
330
5
100
AcDbSymbolTableRecord
100
AcDbLinetypeTableRecord
  2
Continuous
 70
     0
  3
Solid line
 72
    65
 73
     0
 40
0.0
  0
LTYPE
  5
6A
330
5
100
AcDbSymbolTableRecord
100
AcDbLinetypeTableRecord
  2
HIDDEN
 70
     0
  3
Hidden __ __ __ __ __ __ __ __ __ __ __ __ __ __
 72
    65
 73
     2
 40
1.905
 49
1.27
 74
     0
 49
-0.635
 74
     0
  0
LTYPE
  5
6B
330
5
100
AcDbSymbolTableRecord
100
AcDbLinetypeTableRecord
  2
PHANTOM
 70
     0
  3
Phantom ______  __  __  ______  __  __  ______
 72
    65
 73
     6
 40
12.7
 49
6.35
 74
     0
 49
-1.27
 74
     0
 49
1.27
 74
     0
 49
-1.27
 74
     0
 49
1.27
 74
     0
 49
-1.27
 74
     0
  0
LTYPE
  5
6C
330
5
100
AcDbSymbolTableRecord
100
AcDbLinetypeTableRecord
  2
CENTER
 70
     0
  3
Center ____ _ ____ _ ____ _ ____ _ ____ _ ____
 72
    65
 73
     4
 40
10.16
 49
6.35
 74
     0
 49
-1.27
 74
     0
 49
1.27
 74
     0
 49
-1.27
 74
     0
  0
LTYPE
  5
6D
330
5
100
AcDbSymbolTableRecord
100
AcDbLinetypeTableRecord
  2
CENTERX2
 70
     0
  3
Center (2x) ________  __  ________  __  _____
 72
    65
 73
     4
 40
20.32
 49
12.7
 74
     0
 49
-2.54
 74
     0
 49
2.54
 74
     0
 49
-2.54
 74
     0
  0
LTYPE
  5
6E
330
5
100
AcDbSymbolTableRecord
100
AcDbLinetypeTableRecord
  2
DOT2
 70
     0
  3
Dot (.5x) ........................................
 72
    65
 73
     2
 40
0.635
 49
0.0
 74
     0
 49
-0.635
 74
     0
  0
ENDTAB
  0
TABLE
  2
LAYER
  5
2
330
0
100
AcDbSymbolTable
 70
    17
  0
LAYER
  5
10
330
2
100
AcDbSymbolTableRecord
100
AcDbLayerTableRecord
  2
0
 70
     0
 62
     7
  6
Continuous
370
    -3
390
F
  0
LAYER
  5
6F
330
2
100
AcDbSymbolTableRecord
100
AcDbLayerTableRecord
  2
FORMAT
 70
     0
 62
     2
  6
Continuous
370
    -3
390
F
  0
LAYER
  5
70
330
2
100
AcDbSymbolTableRecord
100
AcDbLayerTableRecord
  2
외형선
 70
     0
 62
   100
  6
Continuous
370
    30
390
F
  0
LAYER
  5
71
330
2
100
AcDbSymbolTableRecord
100
AcDbLayerTableRecord
  2
숨은선
 70
     0
 62
     2
  6
HIDDEN
370
    15
390
F
  0
LAYER
  5
72
330
2
100
AcDbSymbolTableRecord
100
AcDbLayerTableRecord
  2
중심선
 70
     0
 62
     1
  6
CENTERX2
370
    -3
390
F
  0
LAYER
  5
73
330
2
100
AcDbSymbolTableRecord
100
AcDbLayerTableRecord
  2
파단선
 70
     0
 62
     4
  6
Continuous
370
    -3
390
F
  0
LAYER
  5
74
330
2
100
AcDbSymbolTableRecord
100
AcDbLayerTableRecord
  2
해칭선
 70
     0
 62
     4
  6
Continuous
370
    -3
390
F
  0
LAYER
  5
75
330
2
100
AcDbSymbolTableRecord
100
AcDbLayerTableRecord
  2
가는실선
 70
     0
 62
     4
  6
Continuous
370
    -3
390
F
  0
LAYER
  5
76
330
2
100
AcDbSymbolTableRecord
100
AcDbLayerTableRecord
  2
치수_보조선
 70
     0
 62
     4
  6
Continuous
370
    -3
390
F
  0
LAYER
  5
77
330
2
100
AcDbSymbolTableRecord
100
AcDbLayerTableRecord
  2
치수문자_일반주서
 70
     0
 62
     7
  6
Continuous
370
    15
390
F
  0
LAYER
  5
78
330
2
100
AcDbSymbolTableRecord
100
AcDbLayerTableRecord
  2
개별주서
 70
     0
 62
   100
  6
Continuous
370
    30
390
F
  0
LAYER
  5
79
330
2
100
AcDbSymbolTableRecord
100
AcDbLayerTableRecord
  2
중간선
 70
     0
 62
     2
  6
Continuous
370
    15
390
F
  0
LAYER
  5
7A
330
2
100
AcDbSymbolTableRecord
100
AcDbLayerTableRecord
  2
윤곽선
 70
     0
 62
     3
  6
Continuous
370
    40
390
F
  0
LAYER
  5
7B
330
2
100
AcDbSymbolTableRecord
100
AcDbLayerTableRecord
  2
중심마크
 70
     0
 62
   100
  6
Continuous
370
    30
390
F
  0
LAYER
  5
7C
330
2
100
AcDbSymbolTableRecord
100
AcDbLayerTableRecord
  2
가상선
 70
     0
 62
     4
  6
PHANTOM
370
    -3
390
F
  0
LAYER
  5
7D
330
2
100
AcDbSymbolTableRecord
100
AcDbLayerTableRecord
  2
특수지정선
 70
     0
 62
     5
  6
CENTERX2
370
    60
390
F
  0
LAYER
  5
135
330
2
100
AcDbSymbolTableRecord
100
AcDbLayerTableRecord
  2
Defpoints
 70
     0
 62
     7
  6
Continuous
290
     0
370
    -3
390
F
  0
ENDTAB
  0
TABLE
  2
STYLE
  5
3
330
0
100
AcDbSymbolTable
 70
     2
  0
STYLE
  5
11
330
3
100
AcDbSymbolTableRecord
100
AcDbTextStyleTableRecord
  2
Standard
 70
     0
 40
0.0
 41
1.0
 50
0.0
 71
     0
 42
3.5
  3
txt
  4

  0
STYLE
  5
93
330
3
100
AcDbSymbolTableRecord
100
AcDbTextStyleTableRecord
  2
SLDTEXTSTYLE0
 70
     0
 40
0.0
 41
0.75
 50
0.0
 71
     0
 42
3.5
  3
TXT
  4

  0
ENDTAB
  0
TABLE
  2
VIEW
  5
6
330
0
100
AcDbSymbolTable
 70
     0
  0
ENDTAB
  0
TABLE
  2
UCS
  5
7
330
0
100
AcDbSymbolTable
 70
     0
  0
ENDTAB
  0
TABLE
  2
APPID
  5
9
330
0
100
AcDbSymbolTable
 70
     1
  0
APPID
  5
12
330
9
100
AcDbSymbolTableRecord
100
AcDbRegAppTableRecord
  2
ACAD
 70
     0
  0
ENDTAB
  0
TABLE
  2
DIMSTYLE
  5
A
330
0
100
AcDbSymbolTable
 70
     3
100
AcDbDimStyleTable
  0
DIMSTYLE
105
27
330
A
100
AcDbSymbolTableRecord
100
AcDbDimStyleTableRecord
  2
ISO-25
 70
     0
 41
2.5
 42
0.625
 43
3.75
 44
1.25
 73
     0
 74
     0
 77
     1
 78
     8
140
2.5
141
2.5
143
0.03937007874016
147
0.625
171
     3
172
     1
178
     0
271
     2
272
     2
274
     3
278
    44
283
     0
284
     8
340
11
  0
DIMSTYLE
105
DB
102
{ACAD_REACTORS
330
DA
330
FD
102
}
330
A
100
AcDbSymbolTableRecord
100
AcDbDimStyleTableRecord
  2
SLDDIMSTYLE0
 70
     0
 41
3.302
 44
0.0
 45
0.000000001
 73
     0
 74
     0
 77
     1
 78
    12
 79
     3
140
3.5
147
0.875
172
     1
173
     1
178
     0
271
     2
272
     2
276
     2
284
    12
289
     0
340
93
  0
DIMSTYLE
105
E9
102
{ACAD_REACTORS
330
E8
330
F3
102
}
330
A
100
AcDbSymbolTableRecord
100
AcDbDimStyleTableRecord
  2
SLDDIMSTYLE1
 70
     0
 41
3.302
 44
0.0
 45
0.000000001
 73
     0
 74
     0
 77
     1
 78
    12
 79
     3
140
3.5
147
0.875
173
     1
178
     0
271
     2
272
     2
276
     2
284
    12
340
93
  0
ENDTAB
  0
TABLE
  2
BLOCK_RECORD
  5
1
330
0
100
AcDbSymbolTable
 70
     7
  0
BLOCK_RECORD
  5
1F
330
1
100
AcDbSymbolTableRecord
100
AcDbBlockTableRecord
  2
*Model_Space
340
22
  0
BLOCK_RECORD
  5
1B
330
1
100
AcDbSymbolTableRecord
100
AcDbBlockTableRecord
  2
*Paper_Space
340
1E
  0
BLOCK_RECORD
  5
23
330
1
100
AcDbSymbolTableRecord
100
AcDbBlockTableRecord
  2
*Paper_Space0
340
26
  0
BLOCK_RECORD
  5
7E
330
1
100
AcDbSymbolTableRecord
100
AcDbBlockTableRecord
  2
블럭10
340
0
102
{BLKREFS
331
D3
102
}
  0
BLOCK_RECORD
  5
DC
330
1
100
AcDbSymbolTableRecord
100
AcDbBlockTableRecord
  2
_D
340
0
  0
BLOCK_RECORD
  5
EA
330
1
100
AcDbSymbolTableRecord
100
AcDbBlockTableRecord
  2
_D_1
340
0
  0
BLOCK_RECORD
  5
F4
330
1
100
AcDbSymbolTableRecord
100
AcDbBlockTableRecord
  2
_D_2
340
0
  0
BLOCK_RECORD
  5
FE
330
1
100
AcDbSymbolTableRecord
100
AcDbBlockTableRecord
  2
_D_3
340
0
  0
BLOCK_RECORD
  5
10A
330
1
100
AcDbSymbolTableRecord
100
AcDbBlockTableRecord
  2
SW_DOWELSYMBOL_0
340
0
102
{BLKREFS
331
110
102
}
  0
ENDTAB
  0
ENDSEC
  0
SECTION
  2
BLOCKS
  0
BLOCK
  5
20
330
1F
100
AcDbEntity
  8
0
100
AcDbBlockBegin
  2
*Model_Space
 70
     0
 10
0.0
 20
0.0
 30
0.0
  3
*Model_Space
  1

  0
ENDBLK
  5
21
330
1F
100
AcDbEntity
  8
0
100
AcDbBlockEnd
  0
BLOCK
  5
1C
330
1B
100
AcDbEntity
 67
     1
  8
0
100
AcDbBlockBegin
  2
*Paper_Space
 70
     0
 10
0.0
 20
0.0
 30
0.0
  3
*Paper_Space
  1

  0
ENDBLK
  5
1D
330
1B
100
AcDbEntity
 67
     1
  8
0
100
AcDbBlockEnd
  0
BLOCK
  5
24
330
23
100
AcDbEntity
  8
0
100
AcDbBlockBegin
  2
*Paper_Space0
 70
     0
 10
0.0
 20
0.0
 30
0.0
  3
*Paper_Space0
  1

  0
ENDBLK
  5
25
330
23
100
AcDbEntity
  8
0
100
AcDbBlockEnd
  0
BLOCK
  5
7F
330
7E
100
AcDbEntity
  8
0
100
AcDbBlockBegin
  2
블럭10
 70
     2
 10
0.0
 20
0.0
 30
0.0
  3
블럭10
  1

  0
ELLIPSE
  5
81
330
7E
100
AcDbEntity
  8
중심선
100
AcDbEllipse
 10
20.54032771741204
 20
12.0471743016438
 30
0.0
 11
6.600054785286829
 21
-1.261213355974178E-13
 31
0.0
210
0.0
220
0.0
230
1.0
 40
0.636358354079598
 41
0.9219305317359503
 42
6.513795318482858
  0
ELLIPSE
  5
82
330
7E
100
AcDbEntity
  8
중심선
100
AcDbEllipse
 10
20.54032771746488
 20
12.04717430159265
 30
0.0
 11
3.960054785062283
 21
1.540847449632565E-10
 31
0.0
210
0.0
220
0.0
230
1.0
 40
0.3939339440162632
 41
1.131841032648279
 42
5.62031148352944
  0
LINE
  5
83
330
7E
100
AcDbEntity
  8
중심선
100
AcDbLine
 10
2.268634060543552
 20
16.24717430164393
 30
0.0
 11
5.714909304380834
 21
16.24717430164393
 31
0.0
  0
LINE
  5
84
330
7E
100
AcDbEntity
  8
중심선
100
AcDbLine
 10
5.245725140726316
 20
7.84717430164391
 30
0.0
 11
8.692000384563599
 21
7.84717430164391
 31
0.0
  0
LINE
  5
85
330
7E
100
AcDbEntity
  8
중심선
100
AcDbLine
 10
15.74043728645272
 20
16.24717430164393
 30
0.0
 11
8.692000384563599
 21
7.84717430164391
 31
0.0
  0
LINE
  5
86
330
7E
100
AcDbEntity
  8
중심선
100
AcDbLine
 10
0.1404042013395286
 20
13.71084872107135
 30
0.0
 11
3.58671253028996
 21
13.71088815037384
 31
0.0
  0
LINE
  5
87
330
7E
100
AcDbEntity
  8
중심선
100
AcDbLine
 10
2.750260043222114
 20
10.84717430164391
 30
0.0
 11
6.196535287059397
 21
10.84717430164391
 31
0.0
  0
LINE
  5
88
330
7E
100
AcDbEntity
  8
중심선
100
AcDbLine
 10
12.29416204261559
 20
16.24717430164393
 30
0.0
 11
5.245725140726316
 21
7.84717430164391
 31
0.0
  0
LINE
  5
89
330
7E
100
AcDbEntity
  8
중심선
100
AcDbLine
 10
10.72767329541681
 20
16.24717430164393
 30
0.0
 11
6.196535287059397
 21
10.84717430164391
 31
0.0
  0
LINE
  5
8A
330
7E
100
AcDbEntity
  8
중심선
100
AcDbLine
 10
7.28139805157953
 20
16.24717430164393
 30
0.0
 11
2.750260043222114
 21
10.84717430164391
 31
0.0
  0
LINE
  5
8B
330
7E
100
AcDbEntity
  8
중심선
100
AcDbLine
 10
5.714909304380834
 20
16.24717430164393
 30
0.0
 11
3.58671253028996
 21
13.71088815037384
 31
0.0
  0
LINE
  5
8C
330
7E
100
AcDbEntity
  8
중심선
100
AcDbLine
 10
2.268634060543552
 20
16.24717430164393
 30
0.0
 11
0.1404042013395286
 21
13.71084872107135
 31
0.0
  0
LINE
  5
8D
330
7E
100
AcDbEntity
  8
중심선
100
AcDbLine
 10
7.28139805157953
 20
16.24717430164393
 30
0.0
 11
10.72767329541681
 21
16.24717430164393
 31
0.0
  0
LINE
  5
8E
330
7E
100
AcDbEntity
  8
중심선
100
AcDbLine
 10
12.29416204261559
 20
16.24717430164393
 30
0.0
 11
15.74043728645272
 21
16.24717430164393
 31
0.0
  0
LINE
  5
8F
330
7E
100
AcDbEntity
  8
중심선
100
AcDbLine
 10
19.22036997980202
 20
11.08717430171403
 30
0.0
 11
23.66174974927406
 21
11.08717430171406
 31
0.0
  0
LINE
  5
90
330
7E
100
AcDbEntity
  8
중심선
100
AcDbLine
 10
19.22039502424796
 20
13.00717430171391
 30
0.0
 11
19.22036997980202
 21
11.08717430171403
 31
0.0
  0
LINE
  5
91
330
7E
100
AcDbEntity
  8
중심선
100
AcDbLine
 10
19.22039502424796
 20
13.00717430171391
 30
0.0
 11
26.96566020931264
 21
13.00717430171391
 31
0.0
  0
LINE
  5
92
330
7E
100
AcDbEntity
  8
중심선
100
AcDbLine
 10
22.22332737316547
 20
13.45928029700563
 30
0.0
 11
24.52862924686651
 21
15.39360700705356
 31
0.0
  0
ATTDEF
  5
94
330
7E
100
AcDbEntity
  8
FORMAT
 62
     2
100
AcDbText
 10
-20.85824753159254
 20
2.075366912832191
 30
0.0
 40
4.233333333333333
  1
SEME7010050200E [ 2 FLUTE ]
 41
0.75
  7
SLDTEXTSTYLE0
 11
-20.85824753159254
 21
-0.0412997538344756
 31
0.0
100
AcDbAttributeDefinition
  3

  2
AUTOATTR0
 70
     0
 74
     1
  0
ENDBLK
  5
80
330
7E
100
AcDbEntity
  8
0
100
AcDbBlockEnd
  0
BLOCK
  5
DD
330
DC
100
AcDbEntity
  8
0
100
AcDbBlockBegin
  2
_D
 70
     0
 10
0.0
 20
0.0
 30
0.0
  3
_D
  1

  0
LINE
  5
DF
330
DC
100
AcDbEntity
  8
치수문자_일반주서
 62
     0
370
    -2
100
AcDbLine
 10
60.06249999999972
 20
-4.999999999999808
 30
0.0
 11
77.79831119123416
 21
-4.999999999999741
 31
0.0
  0
LINE
  5
E0
330
DC
100
AcDbEntity
  8
치수문자_일반주서
 62
     0
370
    -2
100
AcDbLine
 10
60.06249999999972
 20
5.000000000000187
 30
0.0
 11
77.79831119123413
 21
5.000000000000252
 31
0.0
  0
LINE
  5
E1
330
DC
100
AcDbEntity
  8
치수문자_일반주서
 62
     0
370
    -2
100
AcDbLine
 10
77.79831119123416
 20
-4.999999999999741
 30
0.0
 11
77.79831119123409
 21
19.04150000000025
 31
0.0
  0
LINE
  5
E2
330
DC
100
AcDbEntity
  8
치수문자_일반주서
 62
     0
370
    -2
100
AcDbLine
 10
77.79831119123416
 20
-4.999999999999741
 30
0.0
 11
77.79831119123413
 21
5.000000000000252
 31
0.0
  0
LINE
  5
E3
330
DC
100
AcDbEntity
  8
치수문자_일반주서
 62
     0
370
    -2
100
AcDbLine
 10
77.79831119123418
 20
-8.30199999999974
 30
0.0
 11
77.79831119123419
 21
-11.60399999999974
 31
0.0
  0
LINE
  5
E4
330
DC
100
AcDbEntity
  8
치수문자_일반주서
 62
     0
370
    -2
100
AcDbLine
 10
77.79831119123412
 20
8.302000000000252
 30
0.0
 11
77.7983111912341
 21
11.60400000000025
 31
0.0
  0
SOLID
  5
E5
330
DC
100
AcDbEntity
  8
치수문자_일반주서
 62
     0
100
AcDbTrace
 10
78.3486445245675
 20
-8.301999999999738
 30
0.0
 11
77.24797785790085
 21
-8.301999999999742
 31
0.0
 12
77.79831119123416
 22
-4.999999999999741
 32
0.0
 13
77.79831119123416
 23
-4.999999999999741
 33
0.0
  0
SOLID
  5
E6
330
DC
100
AcDbEntity
  8
치수문자_일반주서
 62
     0
100
AcDbTrace
 10
77.24797785790079
 20
8.30200000000025
 30
0.0
 11
78.34864452456745
 21
8.302000000000254
 31
0.0
 12
77.79831119123413
 22
5.000000000000252
 32
0.0
 13
77.79831119123413
 23
5.000000000000252
 33
0.0
  0
MTEXT
  5
E7
330
DC
100
AcDbEntity
  8
치수문자_일반주서
 62
     0
100
AcDbMText
 10
73.4233111912341
 20
15.32275000000024
 30
0.0
 40
3.5
 41
0.0
 71
     2
 72
     1
  1
\A1;%%c10
  7
SLDTEXTSTYLE0
 11
-2.842170943040402E-15
 21
1.0
 31
0.0
 73
     1
 44
1.0
  0
POINT
  5
13F
330
DC
100
AcDbEntity
  8
Defpoints
 62
     0
100
AcDbPoint
 10
59.99999999999972
 20
-4.999999999999808
 30
0.0
  0
POINT
  5
140
330
DC
100
AcDbEntity
  8
Defpoints
 62
     0
100
AcDbPoint
 10
59.99999999999972
 20
5.000000000000187
 30
0.0
  0
POINT
  5
141
330
DC
100
AcDbEntity
  8
Defpoints
 62
     0
100
AcDbPoint
 10
77.79831119123413
 20
5.000000000000253
 30
0.0
  0
ENDBLK
  5
DE
330
DC
100
AcDbEntity
  8
0
100
AcDbBlockEnd
  0
BLOCK
  5
EB
330
EA
100
AcDbEntity
  8
0
100
AcDbBlockBegin
  2
_D_1
 70
     0
 10
0.0
 20
0.0
 30
0.0
  3
_D_1
  1

  0
LINE
  5
ED
330
EA
100
AcDbEntity
  8
치수문자_일반주서
 62
     0
370
    -2
100
AcDbLine
 10
-140.0
 20
4.062499999999986
 30
0.0
 11
-140.0
 21
25.78841044024269
 31
0.0
  0
LINE
  5
EE
330
EA
100
AcDbEntity
  8
치수문자_일반주서
 62
     0
370
    -2
100
AcDbLine
 10
59.99999999999972
 20
5.062500000000187
 30
0.0
 11
59.99999999999972
 21
25.78841044024269
 31
0.0
  0
LINE
  5
EF
330
EA
100
AcDbEntity
  8
치수문자_일반주서
 62
     0
370
    -2
100
AcDbLine
 10
-136.698
 20
25.78841044024269
 30
0.0
 11
56.69799999999972
 21
25.78841044024269
 31
0.0
  0
SOLID
  5
F0
330
EA
100
AcDbEntity
  8
치수문자_일반주서
 62
     0
100
AcDbTrace
 10
-136.698
 20
26.33874377357602
 30
0.0
 11
-136.698
 21
25.23807710690935
 31
0.0
 12
-140.0
 22
25.78841044024269
 32
0.0
 13
-140.0
 23
25.78841044024269
 33
0.0
  0
SOLID
  5
F1
330
EA
100
AcDbEntity
  8
치수문자_일반주서
 62
     0
100
AcDbTrace
 10
56.69799999999972
 20
25.23807710690935
 30
0.0
 11
56.69799999999972
 21
26.33874377357602
 31
0.0
 12
59.99999999999972
 22
25.78841044024269
 32
0.0
 13
59.99999999999972
 23
25.78841044024269
 33
0.0
  0
MTEXT
  5
F2
330
EA
100
AcDbEntity
  8
치수문자_일반주서
 62
     0
100
AcDbMText
 10
-40.00000000000017
 20
30.16341044024269
 30
0.0
 40
3.5
 41
0.0
 71
     2
 72
     1
  1
\A1;200
  7
SLDTEXTSTYLE0
 73
     1
 44
1.0
  0
POINT
  5
136
330
EA
100
AcDbEntity
  8
Defpoints
 62
     0
100
AcDbPoint
 10
-140.0
 20
3.999999999999986
 30
0.0
  0
POINT
  5
137
330
EA
100
AcDbEntity
  8
Defpoints
 62
     0
100
AcDbPoint
 10
59.99999999999972
 20
5.000000000000187
 30
0.0
  0
POINT
  5
138
330
EA
100
AcDbEntity
  8
Defpoints
 62
     0
100
AcDbPoint
 10
59.99999999999972
 20
25.78841044024269
 30
0.0
  0
ENDBLK
  5
EC
330
EA
100
AcDbEntity
  8
0
100
AcDbBlockEnd
  0
BLOCK
  5
F5
330
F4
100
AcDbEntity
  8
0
100
AcDbBlockBegin
  2
_D_2
 70
     0
 10
0.0
 20
0.0
 30
0.0
  3
_D_2
  1

  0
LINE
  5
F7
330
F4
100
AcDbEntity
  8
치수문자_일반주서
 62
     0
370
    -2
100
AcDbLine
 10
9.999999999999986
 20
4.97362004595352
 30
0.0
 11
9.999999999999986
 21
18.25811785212104
 31
0.0
  0
LINE
  5
F8
330
F4
100
AcDbEntity
  8
치수문자_일반주서
 62
     0
370
    -2
100
AcDbLine
 10
59.99999999999972
 20
5.062500000000187
 30
0.0
 11
59.99999999999972
 21
18.25811785212104
 31
0.0
  0
LINE
  5
F9
330
F4
100
AcDbEntity
  8
치수문자_일반주서
 62
     0
370
    -2
100
AcDbLine
 10
13.30199999999999
 20
18.25811785212104
 30
0.0
 11
56.69799999999972
 21
18.25811785212104
 31
0.0
  0
SOLID
  5
FA
330
F4
100
AcDbEntity
  8
치수문자_일반주서
 62
     0
100
AcDbTrace
 10
13.30199999999999
 20
18.80845118545438
 30
0.0
 11
13.30199999999999
 21
17.70778451878771
 31
0.0
 12
9.999999999999986
 22
18.25811785212104
 32
0.0
 13
9.999999999999986
 23
18.25811785212104
 33
0.0
  0
SOLID
  5
FB
330
F4
100
AcDbEntity
  8
치수문자_일반주서
 62
     0
100
AcDbTrace
 10
56.69799999999972
 20
17.70778451878771
 30
0.0
 11
56.69799999999972
 21
18.80845118545438
 31
0.0
 12
59.99999999999972
 22
18.25811785212104
 32
0.0
 13
59.99999999999972
 23
18.25811785212104
 33
0.0
  0
MTEXT
  5
FC
330
F4
100
AcDbEntity
  8
치수문자_일반주서
 62
     0
100
AcDbMText
 10
34.99999999999998
 20
22.63311785212104
 30
0.0
 40
3.5
 41
0.0
 71
     2
 72
     1
  1
\A1;50
  7
SLDTEXTSTYLE0
 73
     1
 44
1.0
  0
POINT
  5
139
330
F4
100
AcDbEntity
  8
Defpoints
 62
     0
100
AcDbPoint
 10
9.999999999999986
 20
4.91112004595352
 30
0.0
  0
POINT
  5
13A
330
F4
100
AcDbEntity
  8
Defpoints
 62
     0
100
AcDbPoint
 10
59.99999999999972
 20
5.000000000000187
 30
0.0
  0
POINT
  5
13B
330
F4
100
AcDbEntity
  8
Defpoints
 62
     0
100
AcDbPoint
 10
59.99999999999972
 20
18.25811785212104
 30
0.0
  0
ENDBLK
  5
F6
330
F4
100
AcDbEntity
  8
0
100
AcDbBlockEnd
  0
BLOCK
  5
FF
330
FE
100
AcDbEntity
  8
0
100
AcDbBlockBegin
  2
_D_3
 70
     0
 10
0.0
 20
0.0
 30
0.0
  3
_D_3
  1

  0
LINE
  5
101
330
FE
100
AcDbEntity
  8
치수문자_일반주서
 62
     0
370
    -2
100
AcDbLine
 10
-139.0625
 20
4.999999999999987
 30
0.0
 11
-151.6657700999941
 21
4.999999999999941
 31
0.0
  0
LINE
  5
102
330
FE
100
AcDbEntity
  8
치수문자_일반주서
 62
     0
370
    -2
100
AcDbLine
 10
-139.0625
 20
-4.999999999999994
 30
0.0
 11
-151.6657700999941
 21
-5.000000000000041
 31
0.0
  0
LINE
  5
103
330
FE
100
AcDbEntity
  8
치수문자_일반주서
 62
     0
370
    -2
100
AcDbLine
 10
-151.6657700999941
 20
4.999999999999941
 30
0.0
 11
-151.6657700999941
 21
19.04149999999994
 31
0.0
  0
LINE
  5
104
330
FE
100
AcDbEntity
  8
치수문자_일반주서
 62
     0
370
    -2
100
AcDbLine
 10
-151.6657700999941
 20
4.999999999999941
 30
0.0
 11
-151.6657700999941
 21
-5.000000000000041
 31
0.0
  0
LINE
  5
105
330
FE
100
AcDbEntity
  8
치수문자_일반주서
 62
     0
370
    -2
100
AcDbLine
 10
-151.6657700999941
 20
8.301999999999941
 30
0.0
 11
-151.6657700999941
 21
11.60399999999994
 31
0.0
  0
LINE
  5
106
330
FE
100
AcDbEntity
  8
치수문자_일반주서
 62
     0
370
    -2
100
AcDbLine
 10
-151.6657700999941
 20
-8.30200000000004
 30
0.0
 11
-151.6657700999941
 21
-11.60400000000004
 31
0.0
  0
SOLID
  5
107
330
FE
100
AcDbEntity
  8
치수문자_일반주서
 62
     0
100
AcDbTrace
 10
-152.2161034333274
 20
8.30199999999994
 30
0.0
 11
-151.1154367666608
 21
8.301999999999943
 31
0.0
 12
-151.6657700999941
 22
4.999999999999941
 32
0.0
 13
-151.6657700999941
 23
4.999999999999941
 33
0.0
  0
SOLID
  5
108
330
FE
100
AcDbEntity
  8
치수문자_일반주서
 62
     0
100
AcDbTrace
 10
-151.1154367666608
 20
-8.302000000000039
 30
0.0
 11
-152.2161034333274
 21
-8.302000000000042
 31
0.0
 12
-151.6657700999941
 22
-5.000000000000041
 32
0.0
 13
-151.6657700999941
 23
-5.000000000000041
 33
0.0
  0
MTEXT
  5
109
330
FE
100
AcDbEntity
  8
치수문자_일반주서
 62
     0
100
AcDbMText
 10
-156.0407700999941
 20
15.32274999999993
 30
0.0
 40
3.5
 41
0.0
 71
     2
 72
     1
  1
\A1;%%c10
  7
SLDTEXTSTYLE0
 11
-2.842170943040406E-15
 21
1.0
 31
0.0
 73
     1
 44
1.0
  0
POINT
  5
13C
330
FE
100
AcDbEntity
  8
Defpoints
 62
     0
100
AcDbPoint
 10
-139.0
 20
4.999999999999987
 30
0.0
  0
POINT
  5
13D
330
FE
100
AcDbEntity
  8
Defpoints
 62
     0
100
AcDbPoint
 10
-139.0
 20
-4.999999999999994
 30
0.0
  0
POINT
  5
13E
330
FE
100
AcDbEntity
  8
Defpoints
 62
     0
100
AcDbPoint
 10
-151.6657700999941
 20
-5.000000000000041
 30
0.0
  0
ENDBLK
  5
100
330
FE
100
AcDbEntity
  8
0
100
AcDbBlockEnd
  0
BLOCK
  5
10B
330
10A
100
AcDbEntity
  8
0
100
AcDbBlockBegin
  2
SW_DOWELSYMBOL_0
 70
     0
 10
0.0
 20
0.0
 30
0.0
  3
SW_DOWELSYMBOL_0
  1

  0
CIRCLE
  5
10D
330
10A
100
AcDbEntity
  8
외형선
 62
     0
100
AcDbCircle
 10
0.0
 20
0.0
 30
0.0
 40
3.000000000000004
  0
HATCH
  5
10E
330
10A
100
AcDbEntity
  8
0
  6
Continuous
 62
     0
370
    30
100
AcDbHatch
 10
0.0
 20
0.0
 30
0.0
210
0.0
220
0.0
230
1.0
  2
SOLID
 70
     1
 71
     0
 91
        1
 92
        0
 93
        3
 72
     2
 10
0.0000000000000104
 20
0.0
 40
3.000000000000004
 50
0.0
 51
90.0
 73
     1
 72
     1
 10
0.0000000000000104
 20
3.000000000000004
 11
0.0000000000000104
 21
0.0
 72
     1
 10
0.0000000000000104
 20
0.0
 11
3.000000000000015
 21
0.0
 97
        0
 75
     0
 76
     1
 98
        1
 10
0.0
 20
0.0
  0
HATCH
  5
10F
330
10A
100
AcDbEntity
  8
0
  6
Continuous
 62
     0
370
    30
100
AcDbHatch
 10
0.0
 20
0.0
 30
0.0
210
0.0
220
0.0
230
1.0
  2
SOLID
 70
     1
 71
     0
 91
        1
 92
        0
 93
        3
 72
     2
 10
0.0000000000000104
 20
0.0
 40
3.000000000000004
 50
180.0
 51
270.0000000000008
 73
     1
 72
     1
 10
0.0000000000000104
 20
-3.000000000000004
 11
0.0000000000000104
 21
0.0
 72
     1
 10
0.0000000000000104
 20
0.0
 11
-2.999999999999994
 21
0.0
 97
        0
 75
     0
 76
     1
 98
        1
 10
0.0
 20
0.0
  0
ENDBLK
  5
10C
330
10A
100
AcDbEntity
  8
0
100
AcDbBlockEnd
  0
ENDSEC
  0
SECTION
  2
ENTITIES
  0
SPLINE
  5
95
330
1F
100
AcDbEntity
  8
0
  6
Continuous
 62
     1
370
    15
100
AcDbSpline
210
0.0
220
0.0
230
1.0
 70
     8
 71
     3
 72
     9
 73
     5
 74
     0
 42
0.000000001
 43
0.00000001
 40
0.0
 40
0.0
 40
0.0
 40
0.0
 40
0.4369064673413931
 40
1.0
 40
1.0
 40
1.0
 40
1.0
 10
19.83811332167513
 20
1.28143450501563
 30
0.0
 10
19.63633242459474
 20
1.377489744233983
 30
0.0
 10
19.17449239208563
 20
1.597342839572341
 30
0.0
 10
18.71261951863909
 20
1.839007382454327
 30
0.0
 10
18.45254189069091
 20
1.975087123624071
 30
0.0
  0
LINE
  5
96
330
1F
100
AcDbEntity
  8
0
  6
Continuous
 62
     1
370
    15
100
AcDbLine
 10
45.74725904351575
 20
1.929791463787827
 30
0.0
 11
45.65965308487917
 21
1.975023199185058
 31
0.0
  0
SPLINE
  5
97
330
1F
100
AcDbEntity
  8
0
  6
Continuous
 62
     1
370
    15
100
AcDbSpline
210
0.0
220
0.0
230
1.0
 70
     8
 71
     3
 72
     9
 73
     5
 74
     0
 42
0.000000001
 43
0.00000001
 40
0.0
 40
0.0
 40
0.0
 40
0.0
 40
0.5427643054157631
 40
1.0
 40
1.0
 40
1.0
 40
1.0
 10
47.04536211434964
 20
1.281313799705374
 30
0.0
 10
46.8105307004376
 20
1.393344159720899
 30
0.0
 10
46.37787252529812
 20
1.599751174511064
 30
0.0
 10
45.94512613833682
 20
1.826234982520534
 30
0.0
 10
45.74725904351575
 20
1.929791463787827
 30
0.0
  0
LINE
  5
98
330
1F
100
AcDbEntity
  8
0
  6
Continuous
 62
     1
370
    15
100
AcDbLine
 10
33.15010628965766
 20
-4.999999999999998
 30
0.0
 11
35.57268235381352
 21
-4.999999999999998
 31
0.0
  0
LINE
  5
99
330
1F
100
AcDbEntity
  8
0
  6
Continuous
 62
     1
370
    15
100
AcDbLine
 10
35.57268235381354
 20
5.000000000000009
 30
0.0
 11
33.15010628965768
 21
5.000000000000009
 31
0.0
  0
SPLINE
  5
9A
330
1F
100
AcDbEntity
  8
0
  6
Continuous
 62
     1
370
    15
100
AcDbSpline
210
0.0
220
0.0
230
1.0
 70
     8
 71
     3
 72
    17
 73
    13
 74
     0
 42
0.000000001
 43
0.00000001
 40
0.0
 40
0.0
 40
0.0
 40
0.0
 40
0.1411329520054398
 40
0.2430190910060836
 40
0.3173018182059018
 40
0.3982200744172797
 40
0.486564380589014
 40
0.5650786534549168
 40
0.6586597107072952
 40
0.7384744798748248
 40
0.8376988417727579
 40
1.0
 40
1.0
 40
1.0
 40
1.0
 10
37.87314070577346
 20
-4.160742019151155
 30
0.0
 10
38.22720440927164
 20
-4.127148077226019
 30
0.0
 10
38.83687237242072
 20
-4.069302130450648
 30
0.0
 10
39.63166416834002
 20
-4.012086273464353
 30
0.0
 10
40.27613384935382
 20
-3.973408350764106
 30
0.0
 10
40.88617525401063
 20
-3.943997674231781
 30
0.0
 10
41.50728430980099
 20
-3.922414815594462
 30
0.0
 10
42.16004569216327
 20
-3.908299625510039
 30
0.0
 10
42.79111408504443
 20
-3.90321566966808
 30
0.0
 10
43.47452793440463
 20
-3.907455130241995
 30
0.0
 10
44.32930576638933
 20
-3.923758584834014
 30
0.0
 10
44.98537585811993
 20
-3.954238761285871
 30
0.0
 10
45.39252899451428
 20
-3.973154574697653
 30
0.0
  0
SPLINE
  5
9B
330
1F
100
AcDbEntity
  8
0
  6
Continuous
 62
     1
370
    15
100
AcDbSpline
210
0.0
220
0.0
230
1.0
 70
     8
 71
     3
 72
    12
 73
     8
 74
     0
 42
0.000000001
 43
0.00000001
 40
0.0
 40
0.0
 40
0.0
 40
0.0
 40
0.3020895535580293
 40
0.5263872126027724
 40
0.7225537693432552
 40
0.9259001992620428
 40
1.0
 40
1.0
 40
1.0
 40
1.0
 10
18.18701191923427
 20
3.973233064161581
 30
0.0
 10
17.77174791741421
 20
3.954042513804581
 30
0.0
 10
17.04815566525663
 20
3.920603223396304
 30
0.0
 10
16.05595287799894
 20
3.904014241970878
 30
0.0
 10
15.19909680466291
 20
3.904740323741466
 30
0.0
 10
14.54852758800003
 20
3.915055366161572
 30
0.0
 10
14.16740283444865
 20
3.928486399236645
 30
0.0
 10
14.06561277506449
 20
3.932073533479601
 30
0.0
  0
SPLINE
  5
9C
330
1F
100
AcDbEntity
  8
0
  6
Continuous
 62
     1
370
    15
100
AcDbSpline
210
0.0
220
0.0
230
1.0
 70
     8
 71
     3
 72
    16
 73
    12
 74
     0
 42
0.000000001
 43
0.00000001
 40
0.0
 40
0.0
 40
0.0
 40
0.0
 40
0.2193414098264888
 40
0.3745503945713151
 40
0.4893386987931812
 40
0.5374591622712543
 40
0.5822151858980638
 40
0.6309518854803096
 40
0.7153126683718588
 40
0.8385469911378187
 40
1.0
 40
1.0
 40
1.0
 40
1.0
 10
11.07051434252852
 20
-4.115806290927271
 30
0.0
 10
11.57347194433665
 20
-4.075540031875938
 30
0.0
 10
12.43232923151693
 20
-4.006780816607294
 30
0.0
 10
13.60417651551417
 20
-3.945300185621042
 30
0.0
 10
14.36441331956837
 20
-3.920756862656886
 30
0.0
 10
14.86099312446155
 20
-3.91081230848066
 30
0.0
 10
15.1995118609923
 20
-3.906409563328679
 30
0.0
 10
15.62439575161735
 20
-3.903892694930378
 30
0.0
 10
16.23655850395102
 20
-3.906693681444207
 30
0.0
 10
17.11843432565989
 20
-3.923280940640727
 30
0.0
 10
17.80030609591491
 20
-3.955155970678761
 30
0.0
 10
18.18701191923428
 20
-3.97323306416157
 30
0.0
  0
SPLINE
  5
9D
330
1F
100
AcDbEntity
  8
0
  6
Continuous
 62
     1
370
    15
100
AcDbSpline
210
0.0
220
0.0
230
1.0
 70
     8
 71
     3
 72
    14
 73
    10
 74
     0
 42
0.000000001
 43
0.00000001
 40
0.0
 40
0.0
 40
0.0
 40
0.0
 40
0.2438275782729691
 40
0.4141313769170578
 40
0.5277824602003399
 40
0.6477040499265921
 40
0.7856448421864535
 40
0.9274724823338101
 40
1.0
 40
1.0
 40
1.0
 40
1.0
 10
45.39252899451429
 20
3.973154574697668
 30
0.0
 10
45.05382549720026
 20
3.95704737026561
 30
0.0
 10
44.47855117137216
 20
3.929689928597285
 30
0.0
 10
43.74702594353736
 20
3.912168998357195
 30
0.0
 10
43.186647751281
 20
3.905129746702765
 30
0.0
 10
42.67121604166475
 20
3.903979926326042
 30
0.0
 10
42.11689421761862
 20
3.909497247994283
 30
0.0
 10
41.62805884533108
 20
3.918976000192994
 30
0.0
 10
41.33064731754105
 20
3.929899566954498
 30
0.0
 10
41.2300175027237
 20
3.933595578701331
 30
0.0
  0
SPLINE
  5
9E
330
1F
100
AcDbEntity
  8
0
  6
Continuous
 62
     1
370
    15
100
AcDbSpline
210
0.0
220
0.0
230
1.0
 70
     8
 71
     3
 72
    13
 73
     9
 74
     0
 42
0.000000001
 43
0.00000001
 40
0.0
 40
0.0
 40
0.0
 40
0.0
 40
0.2991176235731397
 40
0.5068281013377809
 40
0.6363604895545065
 40
0.7603699298717979
 40
0.8898526343948108
 40
1.0
 40
1.0
 40
1.0
 40
1.0
 10
49.40845014140394
 20
-3.760545249324274
 30
0.0
 10
49.78608505460317
 20
-3.703849839815754
 30
0.0
 10
50.42595369146006
 20
-3.607784531417951
 30
0.0
 10
51.22690037843528
 20
-3.512988549118683
 30
0.0
 10
51.80815850384771
 20
-3.45311284091318
 30
0.0
 10
52.29046175283975
 20
-3.409842074306203
 30
0.0
 10
52.74849296524723
 20
-3.374133796571821
 30
0.0
 10
53.05049420869543
 20
-3.356396791129387
 30
0.0
 10
53.18931084951817
 20
-3.348243872665674
 30
0.0
  0
SPLINE
  5
9F
330
1F
100
AcDbEntity
  8
0
  6
Continuous
 62
     1
370
    15
100
AcDbSpline
210
0.0
220
0.0
230
1.0
 70
     8
 71
     3
 72
    18
 73
    14
 74
     0
 42
0.000000001
 43
0.00000001
 40
0.0
 40
0.0
 40
0.0
 40
0.0
 40
0.1374677077525336
 40
0.2369328078933863
 40
0.3074643859263216
 40
0.3803502883254617
 40
0.4571271124558479
 40
0.5338568799073475
 40
0.6241787316272961
 40
0.7024218361095625
 40
0.7677505334591299
 40
0.8623669439171009
 40
1.0
 40
1.0
 40
1.0
 40
1.0
 10
30.93464910948974
 20
3.419753880510389
 30
0.0
 10
30.53367951547667
 20
3.389038613518114
 30
0.0
 10
29.84258737942089
 20
3.336099239081352
 30
0.0
 10
28.94894093346132
 20
3.302313972119802
 30
0.0
 10
28.24182637373666
 20
3.289557997184196
 30
0.0
 10
27.6006254930656
 20
3.290111079871354
 30
0.0
 10
26.94181294817978
 20
3.30327681240859
 30
0.0
 10
26.23243745533402
 20
3.331469430441422
 30
0.0
 10
25.5180161181251
 20
3.374660939838297
 30
0.0
 10
24.8374864385928
 20
3.430329647955436
 30
0.0
 10
24.14404854470528
 20
3.498989999193572
 30
0.0
 10
23.27875567597948
 20
3.599267690614648
 30
0.0
 10
22.60141105726261
 20
3.700676854201785
 30
0.0
 10
22.20001073852861
 20
3.760772807519519
 30
0.0
  0
SPLINE
  5
A0
330
1F
100
AcDbEntity
  8
0
  6
Continuous
 62
     1
370
    15
100
AcDbSpline
210
0.0
220
0.0
230
1.0
 70
     8
 71
     3
 72
    12
 73
     8
 74
     0
 42
0.000000001
 43
0.00000001
 40
0.0
 40
0.0
 40
0.0
 40
0.0
 40
0.3196284310895353
 40
0.5393583106018376
 40
0.6910726562194233
 40
0.8727784283718557
 40
1.0
 40
1.0
 40
1.0
 40
1.0
 10
22.20001073852862
 20
-3.760772807519506
 30
0.0
 10
22.60141089860186
 20
-3.700696193152641
 30
0.0
 10
23.27875524958597
 20
-3.599319663157679
 30
0.0
 10
24.1440495118744
 20
-3.498872112223948
 30
0.0
 10
24.83748382166704
 20
-3.430648621588526
 30
0.0
 10
25.41462111950552
 20
-3.381832134139922
 30
0.0
 10
25.80194860143976
 20
-3.359865797122896
 30
0.0
 10
25.96145669283566
 20
-3.350819683289073
 30
0.0
  0
SPLINE
  5
A1
330
1F
100
AcDbEntity
  8
0
  6
Continuous
 62
     1
370
    15
100
AcDbSpline
210
0.0
220
0.0
230
1.0
 70
     8
 71
     3
 72
    18
 73
    14
 74
     0
 42
0.000000001
 43
0.00000001
 40
0.0
 40
0.0
 40
0.0
 40
0.0
 40
0.1337194096451108
 40
0.2253484254921728
 40
0.2810585716426465
 40
0.3346954350062895
 40
0.3906398523352891
 40
0.4531934801000413
 40
0.5402431399315293
 40
0.6282769248552861
 40
0.7176512075703245
 40
0.8405278142837262
 40
1.0
 40
1.0
 40
1.0
 40
1.0
 10
58.21882461850487
 20
3.426276609859373
 30
0.0
 10
57.82351721665419
 20
3.395136946681476
 30
0.0
 10
57.15733194984155
 20
3.34265934387034
 30
0.0
 10
56.3294567486921
 20
3.308427402464409
 30
0.0
 10
55.74041491669255
 20
3.29405241856578
 30
0.0
 10
55.25574024992846
 20
3.289337308854396
 30
0.0
 10
54.75107346343722
 20
3.291494422550838
 30
0.0
 10
54.14857972950266
 20
3.303334259144746
 30
0.0
 10
53.45146475271057
 20
3.330596089150146
 30
0.0
 10
52.67541930131345
 20
3.377817900355468
 30
0.0
 10
51.79568855914927
 20
3.451753098931197
 30
0.0
 10
50.7066834898985
 20
3.568036686189311
 30
0.0
 10
49.87703837033543
 20
3.691060632588655
 30
0.0
 10
49.40845014140394
 20
3.760545249324288
 30
0.0
  0
LINE
  5
A2
330
1F
100
AcDbEntity
  8
0
  6
Continuous
 62
   131
370
    15
100
AcDbLine
 10
8.479993814073097
 20
5.000000000000005
 30
0.0
 11
-139.0
 21
4.999999999999996
 31
0.0
  0
LINE
  5
A3
330
1F
100
AcDbEntity
  8
0
  6
Continuous
 62
   131
370
    15
100
AcDbLine
 10
-139.0
 20
-5.000000000000004
 30
0.0
 11
8.479993814073097
 21
-4.999999999999995
 31
0.0
  0
LINE
  5
A4
330
1F
100
AcDbEntity
  8
0
  6
Continuous
 62
   131
370
    15
100
AcDbLine
 10
-139.0
 20
4.999999999999987
 30
0.0
 11
-140.0
 21
3.999999999999986
 31
0.0
  0
LINE
  5
A5
330
1F
100
AcDbEntity
  8
0
  6
Continuous
 62
   131
370
    15
100
AcDbLine
 10
-140.0
 20
-3.999999999999996
 30
0.0
 11
-139.0
 21
-4.999999999999994
 31
0.0
  0
SPLINE
  5
A6
330
1F
100
AcDbEntity
  8
0
  6
Continuous
 62
     1
370
    15
100
AcDbSpline
210
0.0
220
0.0
230
1.0
 70
     8
 71
     3
 72
    20
 73
    16
 74
     0
 42
0.000000001
 43
0.00000001
 40
0.0
 40
0.0
 40
0.0
 40
0.0
 40
0.0588627882093256
 40
0.1413440560522917
 40
0.2237746260277396
 40
0.3062972193113255
 40
0.3887861133558389
 40
0.4712116820874681
 40
0.5537314765092138
 40
0.636227301925251
 40
0.7089408266553783
 40
0.7816776661677859
 40
0.8544457601535098
 40
0.9272262023289147
 40
1.0
 40
1.0
 40
1.0
 40
1.0
 10
41.2300175027237
 20
-3.933595578701318
 30
0.0
 10
40.61714060760174
 20
-4.145993069591875
 30
0.0
 10
39.14547219275846
 20
-4.656011771917715
 30
0.0
 10
36.81575119964128
 20
-5.014110132777429
 30
0.0
 10
34.24039741066693
 20
-5.016377435350203
 30
0.0
 10
31.66382931918113
 20
-4.565721177718918
 30
0.0
 10
29.08772080709788
 20
-3.717610368994923
 30
0.0
 10
26.51240656775347
 20
-2.540886930160902
 30
0.0
 10
23.93592143789912
 20
-1.142937018246771
 30
0.0
 10
21.4606638749841
 20
0.2973696885720155
 30
0.0
 10
19.08863306202591
 20
1.651274048818525
 30
0.0
 10
16.81734184958135
 20
2.83577131768084
 30
0.0
 10
14.54520908391433
 20
3.819830293519718
 30
0.0
 10
12.27259050323352
 20
4.566726935251896
 30
0.0
 10
10.75750711338677
 20
4.796325836091786
 30
0.0
 10
9.999999999998561
 20
4.911120045953675
 30
0.0
  0
SPLINE
  5
A7
330
1F
100
AcDbEntity
  8
0
  6
Continuous
 62
     1
370
    15
100
AcDbSpline
210
0.0
220
0.0
230
1.0
 70
     8
 71
     3
 72
    15
 73
    11
 74
     0
 42
0.000000001
 43
0.00000001
 40
0.0
 40
0.0
 40
0.0
 40
0.0
 40
0.0591950361675004
 40
0.2016785139909947
 40
0.3443281720097112
 40
0.4869169738111752
 40
0.6293914201015476
 40
0.7720360237294145
 40
0.9146373425774073
 40
0.9999999999999999
 40
0.9999999999999999
 40
0.9999999999999999
 40
0.9999999999999999
 10
37.88488505868425
 20
-4.115042132309592
 30
0.0
 10
37.52836124891173
 20
-4.161703238661317
 30
0.0
 10
36.31367845095092
 20
-4.32067843657425
 30
0.0
 10
34.24032645446478
 20
-4.200678235885865
 30
0.0
 10
31.6638576514264
 20
-3.764564877170839
 30
0.0
 10
29.08777485957777
 20
-2.976433585911481
 30
0.0
 10
26.51234017573412
 20
-1.930124521495342
 30
0.0
 10
23.93586649145479
 20
-0.7199116310031409
 30
0.0
 10
21.70385334223095
 20
0.4018049575728866
 30
0.0
 10
20.33077902064456
 20
1.037183532170122
 30
0.0
 10
19.81662202598758
 20
1.27510534983758
 30
0.0
  0
SPLINE
  5
A8
330
1F
100
AcDbEntity
  8
0
  6
Continuous
 62
     1
370
    15
100
AcDbSpline
210
0.0
220
0.0
230
1.0
 70
     8
 71
     3
 72
    17
 73
    13
 74
     0
 42
0.000000001
 43
0.00000001
 40
0.0
 40
0.0
 40
0.0
 40
0.0
 40
0.1054234202984644
 40
0.2109396154928831
 40
0.3163754432117234
 40
0.4217869357432458
 40
0.5273022360004348
 40
0.6327495870544144
 40
0.7381509950753642
 40
0.8436645055792198
 40
0.9491224943302685
 40
0.9999999999999999
 40
0.9999999999999999
 40
0.9999999999999999
 40
0.9999999999999999
 10
60.00000000000001
 20
-4.74470434615949
 30
0.0
 10
59.14169513664155
 20
-4.547594984448375
 30
0.0
 10
57.42433008303266
 20
-4.15320280051355
 30
0.0
 10
54.84769441687085
 20
-3.086143908306883
 30
0.0
 10
52.27190086785522
 20
-1.777182112052933
 30
0.0
 10
49.69635020922199
 20
-0.3037104267801142
 30
0.0
 10
47.11973037299926
 20
1.193133234710085
 30
0.0
 10
44.54382166925508
 20
2.585156767138536
 30
0.0
 10
41.96837436372729
 20
3.756697432082029
 30
0.0
 10
39.39176848232614
 20
4.573658455637364
 30
0.0
 10
37.25968108494248
 20
4.990613672261668
 30
0.0
 10
35.98689520469814
 20
4.956121131654238
 30
0.0
 10
35.57268235381354
 20
4.944895949319159
 30
0.0
  0
SPLINE
  5
A9
330
1F
100
AcDbEntity
  8
0
  6
Continuous
 62
     1
370
    15
100
AcDbSpline
210
0.0
220
0.0
230
1.0
 70
     8
 71
     3
 72
     9
 73
     5
 74
     0
 42
0.000000001
 43
0.00000001
 40
0.0
 40
0.0
 40
0.0
 40
0.0
 40
0.4406946444899767
 40
1.0
 40
1.0
 40
1.0
 40
1.0
 10
14.06317256876363
 20
-3.932845958101498
 30
0.0
 10
13.46629128537421
 20
-4.139601405209084
 30
0.0
 10
12.11188117204006
 20
-4.608759471213872
 30
0.0
 10
10.75750810804789
 20
-4.802666696422431
 30
0.0
 10
9.999999999998561
 20
-4.911120045953665
 30
0.0
  0
SPLINE
  5
AA
330
1F
100
AcDbEntity
  8
0
  6
Continuous
 62
   131
370
    15
100
AcDbSpline
210
0.0
220
0.0
230
1.0
 70
    24
 71
     3
 72
     8
 73
     4
 74
     0
 42
0.000000001
 43
0.00000001
 40
0.0
 40
0.0
 40
0.0
 40
0.0
 40
1.0
 40
1.0
 40
1.0
 40
1.0
 10
9.999999999999986
 20
-4.214946505395343
 30
0.0
 10
9.999999999999986
 20
-4.456226518910895
 30
0.0
 10
9.999999999999986
 20
-4.68981673038254
 30
0.0
 10
9.999999999999986
 20
-4.911120045945466
 30
0.0
  0
SPLINE
  5
AB
330
1F
100
AcDbEntity
  8
0
  6
Continuous
 62
     1
370
    15
100
AcDbSpline
210
0.0
220
0.0
230
1.0
 70
     8
 71
     3
 72
    13
 73
     9
 74
     0
 42
0.000000001
 43
0.00000001
 40
0.0
 40
0.0
 40
0.0
 40
0.0
 40
0.1979692908026391
 40
0.3961205901621395
 40
0.5941142219254939
 40
0.7920601127304578
 40
0.9902096563518641
 40
0.9999999999999999
 40
0.9999999999999999
 40
0.9999999999999999
 40
0.9999999999999999
 10
60.00000000000001
 20
-3.94486132184107
 30
0.0
 10
59.14168419903333
 20
-3.754150957332055
 30
0.0
 10
57.42426348066871
 20
-3.37255489345233
 30
0.0
 10
54.84775370049868
 20
-2.413136102358257
 30
0.0
 10
52.27191019869699
 20
-1.261593548359698
 30
0.0
 10
49.69630708776198
 20
-0.0083449245476511
 30
0.0
 10
47.93599260129864
 20
0.8875495045993707
 30
0.0
 10
47.03438105342195
 20
1.284224339488036
 30
0.0
 10
46.99193086742469
 20
1.302900808928906
 30
0.0
  0
LINE
  5
AC
330
1F
100
AcDbEntity
  8
0
  6
Continuous
 62
     1
370
    15
100
AcDbLine
 10
11.08104425351198
 20
-4.062727247931773
 30
0.0
 11
9.999999999999986
 21
-4.214946505395343
 31
0.0
  0
LINE
  5
AD
330
1F
100
AcDbEntity
  8
0
  6
Continuous
 62
     1
370
    15
100
AcDbLine
 10
59.99999999999994
 20
-4.74470434615948
 30
0.0
 11
59.99999999999999
 21
-3.944861321841069
 31
0.0
  0
SPLINE
  5
AE
330
1F
100
AcDbEntity
  8
0
  6
Continuous
 62
     1
370
    15
100
AcDbSpline
210
0.0
220
0.0
230
1.0
 70
     8
 71
     3
 72
    17
 73
    13
 74
     0
 42
0.000000001
 43
0.00000001
 40
0.0
 40
0.0
 40
0.0
 40
0.0
 40
0.0981712056877302
 40
0.1963513747261048
 40
0.2945148859241412
 40
0.3926362346600544
 40
0.4907261328154779
 40
0.6020122068858434
 40
0.7133306135773492
 40
0.8245219106355774
 40
0.9357986342433684
 40
1.0
 40
1.0
 40
1.0
 40
1.0
 10
9.999999999999986
 20
4.460892535609198
 30
0.0
 10
10.75750743789848
 20
4.23367629725527
 30
0.0
 10
12.27259147659037
 20
3.779223074965222
 30
0.0
 10
14.54521102291375
 20
2.757244600408246
 30
0.0
 10
16.81734477028237
 20
1.568583296296858
 30
0.0
 10
19.08863687681241
 20
0.2668623930149038
 30
0.0
 10
21.46066849219104
 20
-1.111086218528716
 30
0.0
 10
23.93592508536698
 20
-2.462965364426837
 30
0.0
 10
26.51241405053854
 20
-3.65853810605734
 30
0.0
 10
29.0877124581899
 20
-4.514177531920791
 30
0.0
 10
31.30020385101181
 20
-4.971667322241715
 30
0.0
 10
32.65458504017217
 20
-4.95293948915071
 30
0.0
 10
33.15010628965766
 20
-4.94608762253614
 30
0.0
  0
SPLINE
  5
AF
330
1F
100
AcDbEntity
  8
0
  6
Continuous
 62
     1
370
    15
100
AcDbSpline
210
0.0
220
0.0
230
1.0
 70
     8
 71
     3
 72
    10
 73
     6
 74
     0
 42
0.000000001
 43
0.00000001
 40
0.0
 40
0.0
 40
0.0
 40
0.0
 40
0.243151522320763
 40
0.621742198703666
 40
1.0
 40
1.0
 40
1.0
 40
1.0
 10
53.19182803555822
 20
3.349267229419647
 30
0.0
 10
53.74358407254743
 20
3.584932024616702
 30
0.0
 10
55.15443278248531
 20
4.187530546412402
 30
0.0
 10
57.42434094412231
 20
4.798974173535305
 30
0.0
 10
59.1416987559574
 20
4.930193346099869
 30
0.0
 10
59.99999999999972
 20
5.000000000000187
 30
0.0
  0
LINE
  5
B0
330
1F
100
AcDbEntity
  8
0
  6
Continuous
 62
   131
370
    15
100
AcDbLine
 10
9.999999999999986
 20
4.460892535609197
 30
0.0
 11
9.999999999999986
 21
4.911120045946602
 31
0.0
  0
SPLINE
  5
B1
330
1F
100
AcDbEntity
  8
0
  6
Continuous
 62
     1
370
    15
100
AcDbSpline
210
0.0
220
0.0
230
1.0
 70
     8
 71
     3
 72
    21
 73
    17
 74
     0
 42
0.000000001
 43
0.00000001
 40
0.0
 40
0.0
 40
0.0
 40
0.0
 40
0.0162079659177876
 40
0.0918371910509685
 40
0.1675245209452247
 40
0.2432427707049459
 40
0.3188765847038081
 40
0.3945569171083649
 40
0.4702770933164195
 40
0.5459168206723184
 40
0.6215895189660163
 40
0.6973109796178293
 40
0.772957944080403
 40
0.8486223726715381
 40
0.9243444755886959
 40
1.0
 40
1.0
 40
1.0
 40
1.0
 10
25.96145669283566
 20
3.350819683289083
 30
0.0
 10
26.14537870581663
 20
3.436304566594813
 30
0.0
 10
27.18751324202477
 20
3.920676979514454
 30
0.0
 10
29.08769091112704
 20
4.511888712102341
 30
0.0
 10
31.66384265525619
 20
5.003821805099009
 30
0.0
 10
34.24039533753938
 20
5.033091455449838
 30
0.0
 10
36.81576555370998
 20
4.626345238614259
 30
0.0
 10
39.39177869451017
 20
3.811644351318427
 30
0.0
 10
41.96837458649009
 20
2.663499910789744
 30
0.0
 10
44.54382415209007
 20
1.279872847438949
 30
0.0
 10
47.11973184328565
 20
-0.2156819643237461
 30
0.0
 10
49.69635154220504
 20
-1.690689140680047
 30
0.0
 10
52.27190182490277
 20
-3.021012772593469
 30
0.0
 10
54.84769506604021
 20
-4.076985304067382
 30
0.0
 10
57.42433040610768
 20
-4.805946266976776
 30
0.0
 10
59.14169524431598
 20
-4.932516695714294
 30
0.0
 10
60.00000000000001
 20
-4.999999999999807
 30
0.0
  0
LINE
  5
B2
330
1F
100
AcDbEntity
  8
0
  6
Continuous
 62
     1
370
    15
100
AcDbLine
 10
59.99999999999998
 20
-4.999999999999812
 30
0.0
 11
59.99999999999994
 21
-4.74470434615948
 31
0.0
  0
SPLINE
  5
B3
330
1F
100
AcDbEntity
  8
0
  6
Continuous
 62
     1
370
    15
100
AcDbSpline
210
0.0
220
0.0
230
1.0
 70
     8
 71
     3
 72
    14
 73
    10
 74
     0
 42
0.000000001
 43
0.00000001
 40
0.0
 40
0.0
 40
0.0
 40
0.0
 40
0.0082789195198091
 40
0.1963318502014706
 40
0.3811356661056116
 40
0.5657471333859263
 40
0.750594093017832
 40
0.9352227455262696
 40
1.0
 40
1.0
 40
1.0
 40
1.0
 10
47.59458905652492
 20
-0.480234533234132
 30
0.0
 10
47.54857708512788
 20
-0.4626053382484232
 30
0.0
 10
46.45741833498164
 20
-0.0445347843766163
 30
0.0
 10
44.33913351530273
 20
0.8502758999466262
 30
0.0
 10
41.2404921426937
 20
2.000745789922271
 30
0.0
 10
38.16051993085559
 20
2.915678944051859
 30
0.0
 10
35.08043123046738
 20
3.431701075409932
 30
0.0
 10
32.66733584317149
 20
3.586048081162921
 30
0.0
 10
31.28110606306311
 20
3.413236192196115
 30
0.0
 10
30.92106583662385
 20
3.36835241280556
 30
0.0
  0
SPLINE
  5
B4
330
1F
100
AcDbEntity
  8
0
  6
Continuous
 62
     1
370
    15
100
AcDbSpline
210
0.0
220
0.0
230
1.0
 70
    24
 71
     3
 72
    10
 73
     6
 74
     0
 42
0.000000001
 43
0.00000001
 40
0.0
 40
0.0
 40
0.0
 40
0.0
 40
0.5
 40
0.5
 40
1.0
 40
1.0
 40
1.0
 40
1.0
 10
59.99999999999999
 20
3.500000000000011
 30
0.0
 10
60.00000000000001
 20
3.71216128403658
 30
0.0
 10
60.00000000000001
 20
3.958712344335597
 30
0.0
 10
60.00000000000001
 20
4.47597580480429
 30
0.0
 10
60.00000000000001
 20
4.745367179007378
 30
0.0
 10
59.99999999999972
 20
5.000000000000187
 30
0.0
  0
LINE
  5
B5
330
1F
100
AcDbEntity
  8
0
  6
Continuous
 62
     1
370
    15
100
AcDbLine
 10
59.99999999999999
 20
3.50000000000001
 30
0.0
 11
58.20312858728441
 21
3.369959565464248
 31
0.0
  0
SPLINE
  5
B6
330
1F
100
AcDbEntity
  8
0
  6
Continuous
 62
     1
370
    15
100
AcDbSpline
210
0.0
220
0.0
230
1.0
 70
     8
 71
     3
 72
    11
 73
     7
 74
     0
 42
0.000000001
 43
0.00000001
 40
0.0
 40
0.0
 40
0.0
 40
0.0
 40
0.0883700929496927
 40
0.3921527326629833
 40
0.695947238476082
 40
1.0
 40
1.0
 40
1.0
 40
1.0
 10
20.34249046154031
 20
-0.4560327382959277
 30
0.0
 10
20.03781419862671
 20
-0.3367100165892833
 30
0.0
 10
18.68577726971759
 20
0.192798664732161
 30
0.0
 10
16.28669647211299
 20
1.175657924401584
 30
0.0
 10
13.14400679257017
 20
2.317118732456045
 30
0.0
 10
11.0482990648931
 20
2.808971534501865
 30
0.0
 10
9.999999999999986
 20
3.055002422130075
 30
0.0
  0
SPLINE
  5
B7
330
1F
100
AcDbEntity
  8
0
  6
Continuous
 62
   131
370
    15
100
AcDbSpline
210
0.0
220
0.0
230
1.0
 70
    24
 71
     3
 72
    10
 73
     6
 74
     0
 42
0.000000001
 43
0.00000001
 40
0.0
 40
0.0
 40
0.0
 40
0.0
 40
0.4999999999999996
 40
0.4999999999999996
 40
1.0
 40
1.0
 40
1.0
 40
1.0
 10
9.999999999999986
 20
4.460892535609198
 30
0.0
 10
9.999999999999986
 20
4.273588612271418
 30
0.0
 10
9.999999999999986
 20
4.04586441875291
 30
0.0
 10
9.999999999999986
 20
3.558332478014814
 30
0.0
 10
9.999999999999986
 20
3.299961739335501
 30
0.0
 10
9.999999999999986
 20
3.055002422130076
 30
0.0
  0
SPLINE
  5
B8
330
1F
100
AcDbEntity
  8
0
  6
Continuous
 62
     1
370
    15
100
AcDbSpline
210
0.0
220
0.0
230
1.0
 70
     8
 71
     3
 72
     8
 73
     4
 74
     0
 42
0.000000001
 43
0.00000001
 40
0.0
 40
0.0
 40
0.0
 40
0.0
 40
1.0
 40
1.0
 40
1.0
 40
1.0
 10
56.90623807966212
 20
1.398590784794528
 30
0.0
 10
56.68214042923199
 20
1.664076176022792
 30
0.0
 10
56.48755699161192
 20
1.91788240449736
 30
0.0
 10
56.33398001936777
 20
2.153947629457782
 30
0.0
  0
LINE
  5
B9
330
1F
100
AcDbEntity
  8
0
  6
Continuous
 62
     1
370
    15
100
AcDbLine
 10
56.33398001936777
 20
2.153947629457785
 30
0.0
 11
59.99999999999999
 21
0.0000000000000111
 31
0.0
  0
LINE
  5
BA
330
1F
100
AcDbEntity
  8
0
  6
Continuous
 62
     1
370
    15
100
AcDbLine
 10
59.99999999999999
 20
0.0000000000000111
 30
0.0
 11
59.99999999999999
 21
-1.336214730148213
 31
0.0
  0
SPLINE
  5
BB
330
1F
100
AcDbEntity
  8
0
  6
Continuous
 62
     1
370
    15
100
AcDbSpline
210
0.0
220
0.0
230
1.0
 70
     8
 71
     3
 72
    12
 73
     8
 74
     0
 42
0.000000001
 43
0.00000001
 40
0.0
 40
0.0
 40
0.0
 40
0.0
 40
0.5
 40
0.5
 40
0.75
 40
0.75
 40
1.0
 40
1.0
 40
1.0
 40
1.0
 10
60.00000000000001
 20
-1.336214730148218
 30
0.0
 10
59.46446038354475
 20
-0.9151902182568659
 30
0.0
 10
58.93786580922747
 20
-0.4769025407149404
 30
0.0
 10
58.16173639957132
 20
0.20708932957468
 30
0.0
 10
57.90536026588239
 20
0.4395904021068335
 30
0.0
 10
57.39784408881693
 20
0.9146977532763602
 30
0.0
 10
57.14808896088164
 20
1.156071134681107
 30
0.0
 10
56.90623807966235
 20
1.398590784794262
 30
0.0
  0
SPLINE
  5
BC
330
1F
100
AcDbEntity
  8
0
  6
Continuous
 62
     1
370
    15
100
AcDbSpline
210
0.0
220
0.0
230
1.0
 70
     8
 71
     3
 72
    20
 73
    16
 74
     0
 42
0.000000001
 43
0.00000001
 40
0.0
 40
0.0
 40
0.0
 40
0.0
 40
0.0734496640445046
 40
0.155932623123307
 40
0.2383775132074108
 40
0.3209152927753187
 40
0.4034070664248303
 40
0.4858451287138125
 40
0.5683806839185084
 40
0.6508805371148567
 40
0.7333133008749513
 40
0.8158458907337699
 40
0.8983530873548133
 40
0.9892239255954105
 40
1.0
 40
1.0
 40
1.0
 40
1.0
 10
49.41299500218141
 20
-3.750777463560667
 30
0.0
 10
48.64842614761237
 20
-3.849327617665354
 30
0.0
 10
47.02525702080611
 20
-4.058548234786741
 30
0.0
 10
44.54384598828852
 20
-3.962438977743658
 30
0.0
 10
41.96827292769625
 20
-3.541096207808384
 30
0.0
 10
39.39182864256591
 20
-2.80229242140833
 30
0.0
 10
36.81582657305662
 20
-1.81905547100578
 30
0.0
 10
34.24028406312734
 20
-0.6745012997806059
 30
0.0
 10
31.66387404382314
 20
0.5273724393789038
 30
0.0
 10
29.08779671557301
 20
1.684283268541298
 30
0.0
 10
26.51230931371458
 20
2.691568895313288
 30
0.0
 10
23.9358971469188
 20
3.470798236186903
 30
0.0
 10
21.27200565693871
 20
3.924733890028991
 30
0.0
 10
19.35510202478966
 20
4.087994341710536
 30
0.0
 10
18.29677697487865
 20
3.96423750100309
 30
0.0
 10
18.18457888459438
 20
3.95111744758646
 30
0.0
  0
SPLINE
  5
BD
330
1F
100
AcDbEntity
  8
0
  6
Continuous
 62
   131
370
    15
100
AcDbSpline
210
0.0
220
0.0
230
1.0
 70
    24
 71
     3
 72
    14
 73
    10
 74
     0
 42
0.000000001
 43
0.00000001
 40
0.0
 40
0.0
 40
0.0
 40
0.0
 40
0.25
 40
0.25
 40
0.5
 40
0.5
 40
0.75
 40
0.75
 40
1.0
 40
1.0
 40
1.0
 40
1.0
 10
9.999999999999986
 20
-1.951898358270219
 30
0.0
 10
9.999999999999986
 20
-2.264476756066668
 30
0.0
 10
9.999999999999986
 20
-2.560464782699135
 30
0.0
 10
9.999999999999986
 20
-3.093718374005083
 30
0.0
 10
9.999999999999986
 20
-3.330776843616357
 30
0.0
 10
9.999999999999986
 20
-3.726300577216478
 30
0.0
 10
9.999999999999986
 20
-3.884651625957619
 30
0.0
 10
9.999999999999986
 20
-4.114158197362564
 30
0.0
 10
9.999999999999986
 20
-4.185345808058973
 30
0.0
 10
9.999999999999986
 20
-4.214946505395342
 30
0.0
  0
SPLINE
  5
BE
330
1F
100
AcDbEntity
  8
0
  6
Continuous
 62
     1
370
    15
100
AcDbSpline
210
0.0
220
0.0
230
1.0
 70
     8
 71
     3
 72
    12
 73
     8
 74
     0
 42
0.000000001
 43
0.00000001
 40
0.0
 40
0.0
 40
0.0
 40
0.0
 40
0.2124340318935885
 40
0.4246710395478644
 40
0.6370771930099903
 40
0.849582757526851
 40
1.0
 40
1.0
 40
1.0
 40
1.0
 10
56.90623807966202
 20
1.398590784794604
 30
0.0
 10
56.09045973988356
 20
1.740485531763573
 30
0.0
 10
54.45965966276653
 20
2.42395793172252
 30
0.0
 10
52.01376400955224
 20
3.231410917996705
 30
0.0
 10
49.56709547538266
 20
3.777545387490574
 30
0.0
 10
47.35769704597065
 20
4.040259018937958
 30
0.0
 10
45.96404545131743
 20
3.965203540839788
 30
0.0
 10
45.3864316287675
 20
3.934095994467423
 30
0.0
  0
SPLINE
  5
BF
330
1F
100
AcDbEntity
  8
0
  6
Continuous
 62
     1
370
    15
100
AcDbSpline
210
0.0
220
0.0
230
1.0
 70
     8
 71
     3
 72
    12
 73
     8
 74
     0
 42
0.000000001
 43
0.00000001
 40
0.0
 40
0.0
 40
0.0
 40
0.0
 40
0.0702654912132336
 40
0.3025644092271431
 40
0.5351424924062568
 40
0.7674081350907949
 40
0.9999999999999999
 40
0.9999999999999999
 40
0.9999999999999999
 40
0.9999999999999999
 10
22.21745118779729
 20
-3.721506562749251
 30
0.0
 10
21.9313250805031
 20
-3.776649348143772
 30
0.0
 10
20.6992611594638
 20
-4.014095126974246
 30
0.0
 10
18.52020735978324
 20
-4.044672524372522
 30
0.0
 10
15.68045893975687
 20
-3.744686413183723
 30
0.0
 10
12.84081552045331
 20
-3.034066954226952
 30
0.0
 10
10.94738142410825
 20
-2.312789946682522
 30
0.0
 10
9.999999999999986
 20
-1.951898358270219
 30
0.0
  0
LINE
  5
C0
330
1F
100
AcDbEntity
  8
0
  6
Continuous
 62
     1
370
    15
100
AcDbLine
 10
59.99999999999999
 20
-3.944861321841068
 30
0.0
 11
60.00000000000001
 21
-1.336214730148217
 31
0.0
  0
SPLINE
  5
C1
330
1F
100
AcDbEntity
  8
0
  6
Continuous
 62
   131
370
    15
100
AcDbSpline
210
0.0
220
0.0
230
1.0
 70
    24
 71
     3
 72
    14
 73
    10
 74
     0
 42
0.000000001
 43
0.00000001
 40
0.0
 40
0.0
 40
0.0
 40
0.0
 40
0.25
 40
0.25
 40
0.5
 40
0.5
 40
0.75
 40
0.75
 40
1.0
 40
1.0
 40
1.0
 40
1.0
 10
9.999999999999986
 20
3.055002422130075
 30
0.0
 10
9.999999999999986
 20
2.761515152266401
 30
0.0
 10
9.99999999999999
 20
2.41794120506609
 30
0.0
 10
9.99999999999999
 20
1.650190934944771
 30
0.0
 10
9.999999999999993
 20
1.226231109411253
 30
0.0
 10
9.999999999999993
 20
0.336360486226533
 30
0.0
 10
9.999999999999993
 20
-0.1290761511527309
 30
0.0
 10
9.99999999999999
 20
-1.054866475832273
 30
0.0
 10
9.99999999999999
 20
-1.514781689960987
 30
0.0
 10
9.999999999999986
 20
-1.951898358270219
 30
0.0
  0
SPLINE
  5
C2
330
1F
100
AcDbEntity
  8
0
  6
Continuous
 62
     1
370
    15
100
AcDbSpline
210
0.0
220
0.0
230
1.0
 70
     8
 71
     3
 72
    10
 73
     6
 74
     0
 42
0.000000001
 43
0.00000001
 40
0.0
 40
0.0
 40
0.0
 40
0.0
 40
0.5
 40
0.5
 40
1.0
 40
1.0
 40
1.0
 40
1.0
 10
59.99999999999999
 20
3.50000000000001
 30
0.0
 10
59.3777848682106
 20
3.331216419726824
 30
0.0
 10
58.76026279451116
 20
3.137623633046196
 30
0.0
 10
57.53581778859241
 20
2.694407155383059
 30
0.0
 10
56.92880705278055
 20
2.445160530077928
 30
0.0
 10
56.33398001936776
 20
2.153947629457782
 30
0.0
  0
LINE
  5
C3
330
1F
100
AcDbEntity
  8
0
  6
Continuous
 62
     1
370
    15
100
AcDbLine
 10
59.99999999999999
 20
0.0000000000000111
 30
0.0
 11
59.99999999999999
 21
3.50000000000001
 31
0.0
  0
SPLINE
  5
C4
330
1F
100
AcDbEntity
  8
0
  6
Continuous
 62
   131
370
    15
100
AcDbSpline
210
0.0
220
0.0
230
1.0
 70
     8
 71
     3
 72
    10
 73
     6
 74
     0
 42
0.000000001
 43
0.00000001
 40
0.0
 40
0.0
 40
0.0
 40
0.0
 40
0.5
 40
0.5
 40
1.0
 40
1.0
 40
1.0
 40
1.0
 10
9.999999999999986
 20
-4.91112004595351
 30
0.0
 10
9.746191940168353
 20
-4.938605102971539
 30
0.0
 10
9.494478322279171
 20
-4.959711293141607
 30
0.0
 10
8.98864067221713
 20
-4.989231224164825
 30
0.0
 10
8.734294530672495
 20
-4.99762263222729
 30
0.0
 10
8.479987329272717
 20
-4.999561979277974
 30
0.0
  0
SPLINE
  5
C5
330
1F
100
AcDbEntity
  8
0
  6
Continuous
 62
   131
370
    15
100
AcDbSpline
210
0.0
220
0.0
230
1.0
 70
     8
 71
     3
 72
    10
 73
     6
 74
     0
 42
0.000000001
 43
0.00000001
 40
0.0
 40
0.0
 40
0.0
 40
0.0
 40
0.5
 40
0.5
 40
1.0
 40
1.0
 40
1.0
 40
1.0
 10
9.999999999999986
 20
4.91112004595352
 30
0.0
 10
9.746191940168353
 20
4.938605102971549
 30
0.0
 10
9.494478322279171
 20
4.959711293141618
 30
0.0
 10
8.98864067221713
 20
4.989231224164835
 30
0.0
 10
8.734294530672491
 20
4.997622632227301
 30
0.0
 10
8.479987329272717
 20
4.999561979277985
 30
0.0
  0
SPLINE
  5
C6
330
1F
100
AcDbEntity
  8
0
  6
Continuous
 62
   131
370
    15
100
AcDbSpline
210
0.0
220
0.0
230
1.0
 70
     8
 71
     3
 72
    10
 73
     6
 74
     0
 42
0.000000001
 43
0.00000001
 40
0.0
 40
0.0
 40
0.0
 40
0.0
 40
0.5
 40
0.5
 40
1.0
 40
1.0
 40
1.0
 40
1.0
 10
9.999999999999986
 20
4.460892535609194
 30
0.0
 10
9.746193018847071
 20
4.527028127521437
 30
0.0
 10
9.49448045996893
 20
4.587256324332473
 30
0.0
 10
8.98864498392417
 20
4.695998123925423
 30
0.0
 10
8.734299935364621
 20
4.74450291255029
 30
0.0
 10
8.479993814073097
 20
4.786828361164408
 30
0.0
  0
LINE
  5
C7
330
1F
100
AcDbEntity
  8
0
  6
Continuous
 62
   131
370
    15
100
AcDbLine
 10
8.479993814073097
 20
-4.999564811047343
 30
0.0
 11
8.479993814073097
 21
4.786827399025054
 31
0.0
  0
LINE
  5
C8
330
1F
100
AcDbEntity
  8
0
  6
Continuous
 62
   131
370
    15
100
AcDbLine
 10
-139.0
 20
4.999999999999987
 30
0.0
 11
-139.0
 21
-5.000000000000004
 31
0.0
  0
LINE
  5
C9
330
1F
100
AcDbEntity
  8
0
  6
Continuous
 62
   131
370
    15
100
AcDbLine
 10
-140.0
 20
3.999999999999986
 30
0.0
 11
-140.0
 21
-3.999999999999996
 31
0.0
  0
SPLINE
  5
CA
330
1F
100
AcDbEntity
  8
0
  6
Continuous
 62
   131
370
    15
100
AcDbSpline
210
0.0
220
0.0
230
1.0
 70
    24
 71
     3
 72
    14
 73
    10
 74
     0
 42
0.000000001
 43
0.00000001
 40
0.0
 40
0.0
 40
0.0
 40
0.0
 40
0.25
 40
0.25
 40
0.5
 40
0.5
 40
0.75
 40
0.75
 40
1.0
 40
1.0
 40
1.0
 40
1.0
 10
9.999999999999986
 20
3.055002422130075
 30
0.0
 10
9.999999999999986
 20
2.761515152266401
 30
0.0
 10
9.99999999999999
 20
2.41794120506609
 30
0.0
 10
9.99999999999999
 20
1.650190934944771
 30
0.0
 10
9.999999999999993
 20
1.226231109411253
 30
0.0
 10
9.999999999999993
 20
0.336360486226533
 30
0.0
 10
9.999999999999993
 20
-0.1290761511527309
 30
0.0
 10
9.99999999999999
 20
-1.054866475832273
 30
0.0
 10
9.99999999999999
 20
-1.514781689960987
 30
0.0
 10
9.999999999999986
 20
-1.951898358270219
 30
0.0
  0
SPLINE
  5
CB
330
1F
100
AcDbEntity
  8
0
  6
Continuous
 62
   131
370
    15
100
AcDbSpline
210
0.0
220
0.0
230
1.0
 70
     8
 71
     3
 72
    10
 73
     6
 74
     0
 42
0.000000001
 43
0.00000001
 40
0.0
 40
0.0
 40
0.0
 40
0.0
 40
0.5
 40
0.5
 40
1.0
 40
1.0
 40
1.0
 40
1.0
 10
9.999999999999986
 20
-1.951898358270219
 30
0.0
 10
9.74619262506599
 20
-1.849654860757807
 30
0.0
 10
9.494479679586636
 20
-1.745187732323652
 30
0.0
 10
8.988643409897904
 20
-1.531719743488827
 30
0.0
 10
8.734297962334608
 20
-1.42267847911685
 30
0.0
 10
8.479991446740115
 20
-1.311949260356631
 30
0.0
  0
SPLINE
  5
CC
330
1F
100
AcDbEntity
  8
0
  6
Continuous
 62
   131
370
    15
100
AcDbSpline
210
0.0
220
0.0
230
1.0
 70
     8
 71
     3
 72
    10
 73
     6
 74
     0
 42
0.000000001
 43
0.00000001
 40
0.0
 40
0.0
 40
0.0
 40
0.0
 40
0.5
 40
0.5
 40
1.0
 40
1.0
 40
1.0
 40
1.0
 10
9.999999999999986
 20
3.055002422130075
 30
0.0
 10
9.746192759052175
 20
3.105017069821211
 30
0.0
 10
9.494479945116016
 20
3.150973079955016
 30
0.0
 10
8.988643945469025
 20
3.234841134704812
 30
0.0
 10
8.734298633668951
 20
3.272748458307456
 30
0.0
 10
8.479992252238214
 20
3.306387338075948
 30
0.0
  0
SPLINE
  5
CD
330
1F
100
AcDbEntity
  8
0
  6
Continuous
 62
   131
370
    15
100
AcDbSpline
210
0.0
220
0.0
230
1.0
 70
     8
 71
     3
 72
    10
 73
     6
 74
     0
 42
0.000000001
 43
0.00000001
 40
0.0
 40
0.0
 40
0.0
 40
0.0
 40
0.5
 40
0.5
 40
1.0
 40
1.0
 40
1.0
 40
1.0
 10
9.999999999999986
 20
-4.214946505395343
 30
0.0
 10
9.746191940168353
 20
-4.230898358168207
 30
0.0
 10
9.494478322279171
 20
-4.241396605867155
 30
0.0
 10
8.98864067221713
 20
-4.251534334588847
 30
0.0
 10
8.734294530672495
 20
-4.251152521070543
 30
0.0
 10
8.479987329272717
 20
-4.245292397445684
 30
0.0
  0
SPLINE
  5
CE
330
1F
100
AcDbEntity
  8
0
  6
Continuous
 62
   131
370
    15
100
AcDbSpline
210
0.0
220
0.0
230
1.0
 70
    24
 71
     3
 72
    14
 73
    10
 74
     0
 42
0.000000001
 43
0.00000001
 40
0.0
 40
0.0
 40
0.0
 40
0.0
 40
0.25
 40
0.25
 40
0.5
 40
0.5
 40
0.75
 40
0.75
 40
1.0
 40
1.0
 40
1.0
 40
1.0
 10
9.999999999999986
 20
-1.951898358270219
 30
0.0
 10
9.999999999999986
 20
-2.264476756066668
 30
0.0
 10
9.999999999999986
 20
-2.560464782699135
 30
0.0
 10
9.999999999999986
 20
-3.093718374005083
 30
0.0
 10
9.999999999999986
 20
-3.330776843616357
 30
0.0
 10
9.999999999999986
 20
-3.726300577216478
 30
0.0
 10
9.999999999999986
 20
-3.884651625957619
 30
0.0
 10
9.999999999999986
 20
-4.114158197362564
 30
0.0
 10
9.999999999999986
 20
-4.185345808058973
 30
0.0
 10
9.999999999999986
 20
-4.214946505395342
 30
0.0
  0
SPLINE
  5
CF
330
1F
100
AcDbEntity
  8
0
  6
Continuous
 62
   131
370
    15
100
AcDbSpline
210
0.0
220
0.0
230
1.0
 70
    24
 71
     3
 72
    10
 73
     6
 74
     0
 42
0.000000001
 43
0.00000001
 40
0.0
 40
0.0
 40
0.0
 40
0.0
 40
0.5
 40
0.5
 40
1.0
 40
1.0
 40
1.0
 40
1.0
 10
9.999999999999986
 20
4.460892535609195
 30
0.0
 10
9.999999999999986
 20
4.273588612271414
 30
0.0
 10
9.999999999999986
 20
4.045864418752908
 30
0.0
 10
9.999999999999986
 20
3.558332478014814
 30
0.0
 10
9.999999999999986
 20
3.299961739335498
 30
0.0
 10
9.999999999999986
 20
3.055002422130076
 30
0.0
  0
SPLINE
  5
D0
330
1F
100
AcDbEntity
  8
0
  6
Continuous
 62
   131
370
    15
100
AcDbSpline
210
0.0
220
0.0
230
1.0
 70
    24
 71
     3
 72
     8
 73
     4
 74
     0
 42
0.000000001
 43
0.00000001
 40
0.0
 40
0.0
 40
0.0
 40
0.0
 40
1.0
 40
1.0
 40
1.0
 40
1.0
 10
9.999999999999986
 20
-4.214946505395343
 30
0.0
 10
9.999999999999986
 20
-4.456226518913409
 30
0.0
 10
9.999999999999986
 20
-4.689816730387409
 30
0.0
 10
9.999999999999986
 20
-4.911120045952386
 30
0.0
  0
LINE
  5
D1
330
1F
100
AcDbEntity
  8
중심선
100
AcDbLine
 10
-143.0
 20
-0.0000000000000004
 30
0.0
 11
63.00000000000003
 21
0.0000000000000112
 31
0.0
  0
CIRCLE
  5
D2
330
1F
100
AcDbEntity
  8
외형선
100
AcDbCircle
 10
0.0000000000000104
 20
0.0
 30
0.0
 40
3.000000000000005
  0
INSERT
  5
D3
330
1F
100
AcDbEntity
  8
0
  6
Continuous
 62
     7
100
AcDbBlockReference
 66
     1
  2
블럭10
 10
-22.93944368806589
 20
-52.04609937292004
 30
0.0
  0
ATTRIB
  5
D4
330
D3
100
AcDbEntity
  8
FORMAT
 62
     2
100
AcDbText
 10
-43.79769121965843
 20
-49.97073246008785
 30
0.0
 40
4.233333333333333
  1
SEME7010050200E [ 2 FLUTE ]
 41
0.75
  7
SLDTEXTSTYLE0
 11
-43.79769121965843
 21
-52.08739912675452
 31
0.0
100
AcDbAttribute
  2
AUTOATTR0
 70
     0
 74
     1
  0
SEQEND
  5
D5
330
D3
100
AcDbEntity
  8
0
  6
Continuous
 62
     7
  0
HATCH
  5
D6
330
1F
100
AcDbEntity
  8
중심선
100
AcDbHatch
 10
0.0
 20
0.0
 30
0.0
210
0.0
220
0.0
230
1.0
  2
SOLID
 70
     1
 71
     0
 91
        1
 92
        0
 93
        4
 72
     1
 10
-17.22453438368504
 20
-35.7989250712761
 11
-20.67080962752232
 21
-35.7989250712761
 72
     1
 10
-20.67080962752232
 20
-35.7989250712761
 11
-22.79903948672635
 21
-38.3352506518487
 72
     1
 10
-22.79903948672635
 20
-38.3352506518487
 11
-19.35273115777591
 21
-38.33521122254621
 72
     1
 10
-19.35273115777591
 20
-38.33521122254621
 11
-17.22453438368504
 21
-35.7989250712761
 97
        0
 75
     0
 76
     1
 98
        1
 10
0.0
 20
0.0
  0
HATCH
  5
D7
330
1F
100
AcDbEntity
  8
중심선
100
AcDbHatch
 10
0.0
 20
0.0
 30
0.0
210
0.0
220
0.0
230
1.0
  2
SOLID
 70
     1
 71
     0
 91
        1
 92
        0
 93
        4
 72
     1
 10
-12.21177039264909
 20
-35.7989250712761
 11
-15.65804563648637
 21
-35.7989250712761
 72
     1
 10
-15.65804563648637
 20
-35.7989250712761
 11
-20.18918364484376
 21
-41.19892507127612
 72
     1
 10
-20.18918364484376
 20
-41.19892507127612
 11
-16.74290840100648
 21
-41.19892507127612
 72
     1
 10
-16.74290840100648
 20
-41.19892507127612
 11
-12.21177039264909
 21
-35.7989250712761
 97
        0
 75
     0
 76
     1
 98
        1
 10
0.0
 20
0.0
  0
HATCH
  5
D8
330
1F
100
AcDbEntity
  8
중심선
100
AcDbHatch
 10
0.0
 20
0.0
 30
0.0
210
0.0
220
0.0
230
1.0
  2
SOLID
 70
     1
 71
     0
 91
        1
 92
        0
 93
        4
 72
     1
 10
-7.199006401613195
 20
-35.79892507127613
 11
-10.64528164545031
 21
-35.7989250712761
 72
     1
 10
-10.64528164545031
 20
-35.7989250712761
 11
-17.69371854733956
 21
-44.19892507127612
 72
     1
 10
-17.69371854733956
 20
-44.19892507127612
 11
-14.24744330350228
 21
-44.19892507127612
 72
     1
 10
-14.24744330350228
 20
-44.19892507127612
 11
-7.199006401613195
 21
-35.79892507127613
 97
        0
 75
     0
 76
     1
 98
        1
 10
0.0
 20
0.0
  0
HATCH
  5
D9
330
1F
100
AcDbEntity
  8
중심선
100
AcDbHatch
 10
0.0
 20
0.0
 30
0.0
210
0.0
220
0.0
230
1.0
  2
SOLID
 70
     1
 71
     0
 91
        1
 92
        0
 93
        6
 72
     3
 10
-2.399115970600996
 20
-39.99892507132738
 11
3.960054785062284
 21
1.540850780301639E-10
 40
0.3939339440162633
 50
17.09539180608433
 51
320.0019657685079
 73
     0
 72
     1
 10
-0.7161163149004002
 20
-38.58681907591441
 11
1.589185558800638
 21
-36.65249236586649
 72
     3
 10
-2.399115970653842
 20
-39.99892507127625
 11
6.600054785286829
 21
-1.249000902703301E-13
 40
0.6363583540795982
 50
39.99873849337408
 51
368.4976242363725
 73
     1
 72
     1
 10
4.026216521246767
 20
-39.03892507120613
 11
-3.71904866381792
 21
-39.0389250712061
 72
     1
 10
-3.71904866381792
 20
-39.0389250712061
 11
-3.719073708263854
 21
-40.95892507120602
 72
     1
 10
-3.719073708263854
 20
-40.95892507120602
 11
0.7223060612081831
 21
-40.95892507120599
 97
        0
 75
     0
 76
     1
 98
        1
 10
0.0
 20
0.0
  0
DIMENSION
  5
DA
330
1F
100
AcDbEntity
  8
치수문자_일반주서
100
AcDbDimension
  2
_D
 10
77.79831119123413
 20
5.000000000000252
 30
0.0
 11
77.7983111912341
 21
15.32275000000025
 31
0.0
 70
   160
  1
%%c<>
 71
     2
 42
9.999999999999995
 52
-270.0
  3
SLDDIMSTYLE0
100
AcDbAlignedDimension
 13
59.99999999999972
 23
-4.999999999999808
 33
0.0
 14
59.99999999999972
 24
5.000000000000187
 34
0.0
 50
90.0000000000002
100
AcDbRotatedDimension
  0
DIMENSION
  5
E8
330
1F
100
AcDbEntity
  8
치수문자_일반주서
100
AcDbDimension
  2
_D_1
 10
59.99999999999972
 20
25.78841044024269
 30
0.0
 11
-40.00000000000017
 21
25.78841044024269
 31
0.0
 70
   160
  1
<>
 71
     2
 42
199.9999999999997
  3
SLDDIMSTYLE1
100
AcDbAlignedDimension
 13
-140.0
 23
3.999999999999986
 33
0.0
 14
59.99999999999972
 24
5.000000000000187
 34
0.0
 50
-0.0000000000000041
100
AcDbRotatedDimension
  0
DIMENSION
  5
F3
330
1F
100
AcDbEntity
  8
치수문자_일반주서
100
AcDbDimension
  2
_D_2
 10
59.99999999999972
 20
18.25811785212104
 30
0.0
 11
34.99999999999998
 21
18.25811785212104
 31
0.0
 70
   160
  1
<>
 71
     2
 42
49.99999999999973
  3
SLDDIMSTYLE1
100
AcDbAlignedDimension
 13
9.999999999999986
 23
4.91112004595352
 33
0.0
 14
59.99999999999972
 24
5.000000000000187
 34
0.0
 50
-0.0000000000000041
100
AcDbRotatedDimension
  0
DIMENSION
  5
FD
330
1F
100
AcDbEntity
  8
치수문자_일반주서
100
AcDbDimension
  2
_D_3
 10
-151.6657700999941
 20
-5.000000000000041
 30
0.0
 11
-151.6657700999941
 21
15.32274999999994
 31
0.0
 70
   160
  1
%%c<>
 71
     2
 42
9.99999999999998
 52
-270.0
  3
SLDDIMSTYLE0
100
AcDbAlignedDimension
 13
-139.0
 23
4.999999999999987
 33
0.0
 14
-139.0
 24
-4.999999999999994
 34
0.0
 50
90.0000000000002
100
AcDbRotatedDimension
  0
INSERT
  5
110
330
1F
100
AcDbEntity
  8
외형선
100
AcDbBlockReference
  2
SW_DOWELSYMBOL_0
 10
0.0000000000000104
 20
0.0
 30
0.0
  0
ENDSEC
  0
SECTION
  2
OBJECTS
  0
DICTIONARY
  5
C
330
0
100
AcDbDictionary
281
     1
  3
ACAD_GROUP
350
D
  3
ACAD_IMAGE_VARS
350
134
  3
ACAD_LAYOUT
350
1A
  3
ACAD_MLINESTYLE
350
17
  3
ACAD_PLOTSETTINGS
350
19
  3
ACAD_PLOTSTYLENAME
350
E
  3
ACAD_SCALELIST
350
47
  3
APPDATA
350
132
  3
DWGPROPS
350
143
  0
DICTIONARY
  5
D
102
{ACAD_REACTORS
330
C
102
}
330
C
100
AcDbDictionary
281
     1
  0
RASTERVARIABLES
  5
134
102
{ACAD_REACTORS
330
C
102
}
330
C
100
AcDbRasterVariables
 90
        0
 70
     1
 71
     1
 72
     1
  0
DICTIONARY
  5
1A
102
{ACAD_REACTORS
330
C
102
}
330
C
100
AcDbDictionary
281
     1
  3
Layout1
350
1E
  3
Layout2
350
26
  3
Model
350
22
  0
DICTIONARY
  5
17
102
{ACAD_REACTORS
330
C
102
}
330
C
100
AcDbDictionary
281
     1
  3
Standard
350
18
  0
DICTIONARY
  5
19
102
{ACAD_REACTORS
330
C
102
}
330
C
100
AcDbDictionary
281
     1
  0
ACDBDICTIONARYWDFLT
  5
E
102
{ACAD_REACTORS
330
C
102
}
330
C
100
AcDbDictionary
281
     1
  3
Normal
350
F
100
AcDbDictionaryWithDefault
340
F
  0
DICTIONARY
  5
47
102
{ACAD_REACTORS
330
C
102
}
330
C
100
AcDbDictionary
281
     1
  3
A0
350
48
  3
A1
350
49
  3
A2
350
4A
  3
A3
350
4B
  3
A4
350
4C
  3
A5
350
4D
  3
A6
350
4E
  3
A7
350
4F
  3
A8
350
50
  3
A9
350
51
  3
B0
350
52
  3
B1
350
53
  3
B2
350
54
  3
B3
350
55
  3
B4
350
56
  3
B5
350
57
  3
B6
350
58
  3
B7
350
59
  3
B8
350
5A
  3
B9
350
5B
  3
C0
350
5C
  3
C1
350
5D
  3
C2
350
5E
  3
C3
350
5F
  3
C4
350
60
  3
C5
350
61
  3
C6
350
62
  3
C7
350
63
  3
C8
350
64
  3
C9
350
65
  3
D0
350
66
  3
D1
350
67
  3
D2
350
68
  0
DICTIONARY
  5
132
102
{ACAD_REACTORS
330
C
102
}
330
C
100
AcDbDictionary
281
     1
  0
XRECORD
  5
143
102
{ACAD_REACTORS
330
C
102
}
330
C
100
AcDbXrecord
280
     1
  1
DWGPROPS COOKIE
  2

  3

  4

  6

  7

  8
12014102
  9

300
=
301
=
302
=
303
=
304
=
305
=
306
=
307
=
308
=
309
=
 40
0.0
 41
2458262.171235706
 42
2458266.301408507
  1

 90
        0
  0
LAYOUT
  5
1E
102
{ACAD_REACTORS
330
1A
102
}
330
1A
100
AcDbPlotSettings
  1

  2
none_device
  4

  6

 40
0.0
 41
0.0
 42
0.0
 43
0.0
 44
0.0
 45
0.0
 46
0.0
 47
0.0
 48
0.0
 49
0.0
140
0.0
141
0.0
142
1.0
143
1.0
 70
   688
 72
     1
 73
     0
 74
     5
  7

 75
    16
147
1.0
148
0.0
149
0.0
100
AcDbLayout
  1
Layout1
 70
     1
 71
     1
 10
0.0
 20
0.0
 11
420.0
 21
297.0
 12
0.0
 22
0.0
 32
0.0
 14
1.000000000000000E+20
 24
1.000000000000000E+20
 34
1.000000000000000E+20
 15
-1.000000000000000E+20
 25
-1.000000000000000E+20
 35
-1.000000000000000E+20
146
0.0
 13
0.0
 23
0.0
 33
0.0
 16
1.0
 26
0.0
 36
0.0
 17
0.0
 27
1.0
 37
0.0
 76
     0
330
1B
  0
LAYOUT
  5
26
102
{ACAD_REACTORS
330
1A
102
}
330
1A
100
AcDbPlotSettings
  1

  2
none_device
  4

  6

 40
0.0
 41
0.0
 42
0.0
 43
0.0
 44
0.0
 45
0.0
 46
0.0
 47
0.0
 48
0.0
 49
0.0
140
0.0
141
0.0
142
1.0
143
1.0
 70
   688
 72
     1
 73
     0
 74
     5
  7

 75
    16
147
1.0
148
0.0
149
0.0
100
AcDbLayout
  1
Layout2
 70
     1
 71
     2
 10
0.0
 20
0.0
 11
0.0
 21
0.0
 12
0.0
 22
0.0
 32
0.0
 14
0.0
 24
0.0
 34
0.0
 15
0.0
 25
0.0
 35
0.0
146
0.0
 13
0.0
 23
0.0
 33
0.0
 16
1.0
 26
0.0
 36
0.0
 17
0.0
 27
1.0
 37
0.0
 76
     0
330
23
  0
LAYOUT
  5
22
102
{ACAD_REACTORS
330
1A
102
}
330
1A
100
AcDbPlotSettings
  1

  2
none_device
  4
ANSI_A_(11.00_x_8.50_Inches)
  6

 40
6.35
 41
19.05
 42
6.35000508
 43
19.05000254
 44
279.4
 45
215.9
 46
188.4404386426323
 47
101.9668467037091
 48
0.0
 49
0.0
140
0.0
141
0.0
142
0.0504022769828517
143
1.0
 70
  1696
 72
     0
 73
     0
 74
     0
  7

 75
     0
147
0.0235690232323232
148
0.0
149
0.0
100
AcDbLayout
  1
Model
 70
     1
 71
     0
 10
0.0
 20
0.0
 11
420.0
 21
297.0
 12
0.0
 22
0.0
 32
0.0
 14
-156.0407700999942
 24
-49.97073246008785
 34
0.0
 15
78.3486445245675
 25
30.16341044024269
 35
0.0
146
0.0
 13
0.0
 23
0.0
 33
0.0
 16
1.0
 26
0.0
 36
0.0
 17
0.0
 27
1.0
 37
0.0
 76
     0
330
1F
331
29
  0
MLINESTYLE
  5
18
102
{ACAD_REACTORS
330
17
102
}
330
17
100
AcDbMlineStyle
  2
Standard
 70
     0
  3

 62
   256
 51
90.0
 52
90.0
 71
     2
 49
0.5
 62
   256
  6
BYLAYER
 49
-0.5
 62
   256
  6
BYLAYER
  0
ACDBPLACEHOLDER
  5
F
102
{ACAD_REACTORS
330
E
102
}
330
E
  0
SCALE
  5
48
102
{ACAD_REACTORS
330
47
102
}
330
47
100
AcDbScale
 70
     0
300
1:1
140
1.0
141
1.0
290
     1
  0
SCALE
  5
49
102
{ACAD_REACTORS
330
47
102
}
330
47
100
AcDbScale
 70
     0
300
1:2
140
1.0
141
2.0
290
     0
  0
SCALE
  5
4A
102
{ACAD_REACTORS
330
47
102
}
330
47
100
AcDbScale
 70
     0
300
1:4
140
1.0
141
4.0
290
     0
  0
SCALE
  5
4B
102
{ACAD_REACTORS
330
47
102
}
330
47
100
AcDbScale
 70
     0
300
1:5
140
1.0
141
5.0
290
     0
  0
SCALE
  5
4C
102
{ACAD_REACTORS
330
47
102
}
330
47
100
AcDbScale
 70
     0
300
1:8
140
1.0
141
8.0
290
     0
  0
SCALE
  5
4D
102
{ACAD_REACTORS
330
47
102
}
330
47
100
AcDbScale
 70
     0
300
1:10
140
1.0
141
10.0
290
     0
  0
SCALE
  5
4E
102
{ACAD_REACTORS
330
47
102
}
330
47
100
AcDbScale
 70
     0
300
1:16
140
1.0
141
16.0
290
     0
  0
SCALE
  5
4F
102
{ACAD_REACTORS
330
47
102
}
330
47
100
AcDbScale
 70
     0
300
1:20
140
1.0
141
20.0
290
     0
  0
SCALE
  5
50
102
{ACAD_REACTORS
330
47
102
}
330
47
100
AcDbScale
 70
     0
300
1:30
140
1.0
141
30.0
290
     0
  0
SCALE
  5
51
102
{ACAD_REACTORS
330
47
102
}
330
47
100
AcDbScale
 70
     0
300
1:40
140
1.0
141
40.0
290
     0
  0
SCALE
  5
52
102
{ACAD_REACTORS
330
47
102
}
330
47
100
AcDbScale
 70
     0
300
1:50
140
1.0
141
50.0
290
     0
  0
SCALE
  5
53
102
{ACAD_REACTORS
330
47
102
}
330
47
100
AcDbScale
 70
     0
300
1:100
140
1.0
141
100.0
290
     0
  0
SCALE
  5
54
102
{ACAD_REACTORS
330
47
102
}
330
47
100
AcDbScale
 70
     0
300
2:1
140
2.0
141
1.0
290
     0
  0
SCALE
  5
55
102
{ACAD_REACTORS
330
47
102
}
330
47
100
AcDbScale
 70
     0
300
4:1
140
4.0
141
1.0
290
     0
  0
SCALE
  5
56
102
{ACAD_REACTORS
330
47
102
}
330
47
100
AcDbScale
 70
     0
300
8:1
140
8.0
141
1.0
290
     0
  0
SCALE
  5
57
102
{ACAD_REACTORS
330
47
102
}
330
47
100
AcDbScale
 70
     0
300
10:1
140
10.0
141
1.0
290
     0
  0
SCALE
  5
58
102
{ACAD_REACTORS
330
47
102
}
330
47
100
AcDbScale
 70
     0
300
100:1
140
100.0
141
1.0
290
     0
  0
SCALE
  5
59
102
{ACAD_REACTORS
330
47
102
}
330
47
100
AcDbScale
 70
     0
300
1/128" = 1'-0"
140
0.0078125
141
12.0
290
     0
  0
SCALE
  5
5A
102
{ACAD_REACTORS
330
47
102
}
330
47
100
AcDbScale
 70
     0
300
1/64" = 1'-0"
140
0.015625
141
12.0
290
     0
  0
SCALE
  5
5B
102
{ACAD_REACTORS
330
47
102
}
330
47
100
AcDbScale
 70
     0
300
1/32" = 1'-0"
140
0.03125
141
12.0
290
     0
  0
SCALE
  5
5C
102
{ACAD_REACTORS
330
47
102
}
330
47
100
AcDbScale
 70
     0
300
1/16" = 1'-0"
140
0.0625
141
12.0
290
     0
  0
SCALE
  5
5D
102
{ACAD_REACTORS
330
47
102
}
330
47
100
AcDbScale
 70
     0
300
3/32" = 1'-0"
140
0.09375
141
12.0
290
     0
  0
SCALE
  5
5E
102
{ACAD_REACTORS
330
47
102
}
330
47
100
AcDbScale
 70
     0
300
1/8" = 1'-0"
140
0.125
141
12.0
290
     0
  0
SCALE
  5
5F
102
{ACAD_REACTORS
330
47
102
}
330
47
100
AcDbScale
 70
     0
300
3/16" = 1'-0"
140
0.1875
141
12.0
290
     0
  0
SCALE
  5
60
102
{ACAD_REACTORS
330
47
102
}
330
47
100
AcDbScale
 70
     0
300
1/4" = 1'-0"
140
0.25
141
12.0
290
     0
  0
SCALE
  5
61
102
{ACAD_REACTORS
330
47
102
}
330
47
100
AcDbScale
 70
     0
300
3/8" = 1'-0"
140
0.375
141
12.0
290
     0
  0
SCALE
  5
62
102
{ACAD_REACTORS
330
47
102
}
330
47
100
AcDbScale
 70
     0
300
1/2" = 1'-0"
140
0.5
141
12.0
290
     0
  0
SCALE
  5
63
102
{ACAD_REACTORS
330
47
102
}
330
47
100
AcDbScale
 70
     0
300
3/4" = 1'-0"
140
0.75
141
12.0
290
     0
  0
SCALE
  5
64
102
{ACAD_REACTORS
330
47
102
}
330
47
100
AcDbScale
 70
     0
300
1" = 1'-0"
140
1.0
141
12.0
290
     0
  0
SCALE
  5
65
102
{ACAD_REACTORS
330
47
102
}
330
47
100
AcDbScale
 70
     0
300
1-1/2" = 1'-0"
140
1.5
141
12.0
290
     0
  0
SCALE
  5
66
102
{ACAD_REACTORS
330
47
102
}
330
47
100
AcDbScale
 70
     0
300
3" = 1'-0"
140
3.0
141
12.0
290
     0
  0
SCALE
  5
67
102
{ACAD_REACTORS
330
47
102
}
330
47
100
AcDbScale
 70
     0
300
6" = 1'-0"
140
6.0
141
12.0
290
     0
  0
SCALE
  5
68
102
{ACAD_REACTORS
330
47
102
}
330
47
100
AcDbScale
 70
     0
300
1'-0" = 1'-0"
140
12.0
141
12.0
290
     0
  0
ENDSEC
  0
EOF
