  0
SECTION
  2
HEADER
  9
$ACADVER
  1
AC1015
  9
$ACADMAINTVER
 70
     6
  9
$DWGCODEPAGE
  3
ANSI_949
  9
$INSBASE
 10
0.0
 20
0.0
 30
0.0
  9
$EXTMIN
 10
-105.4337421760937
 20
-49.97073246008785
 30
0.0
  9
$EXTMAX
 10
72.86125554032472
 20
30.16341044024269
 30
0.0
  9
$LIMMIN
 10
0.0
 20
0.0
  9
$LIMMAX
 10
420.0
 20
297.0
  9
$ORTHOMODE
 70
     0
  9
$REGENMODE
 70
     1
  9
$FILLMODE
 70
     1
  9
$QTEXTMODE
 70
     0
  9
$MIRRTEXT
 70
     1
  9
$LTSCALE
 40
1.0
  9
$ATTMODE
 70
     1
  9
$TEXTSIZE
 40
3.5
  9
$TRACEWID
 40
1.0
  9
$TEXTSTYLE
  7
Standard
  9
$CLAYER
  8
0
  9
$CELTYPE
  6
ByLayer
  9
$CECOLOR
 62
   256
  9
$CELTSCALE
 40
1.0
  9
$DISPSILH
 70
     0
  9
$DIMSCALE
 40
1.0
  9
$DIMASZ
 40
3.302
  9
$DIMEXO
 40
1.0
  9
$DIMDLI
 40
3.75
  9
$DIMRND
 40
0.0
  9
$DIMDLE
 40
0.0
  9
$DIMEXE
 40
1.0
  9
$DIMTP
 40
0.0
  9
$DIMTM
 40
0.0
  9
$DIMTXT
 40
3.5
  9
$DIMCEN
 40
2.5
  9
$DIMTSZ
 40
0.0
  9
$DIMTOL
 70
     0
  9
$DIMLIM
 70
     0
  9
$DIMTIH
 70
     1
  9
$DIMTOH
 70
     1
  9
$DIMSE1
 70
     0
  9
$DIMSE2
 70
     0
  9
$DIMTAD
 70
     1
  9
$DIMZIN
 70
     0
  9
$DIMBLK
  1

  9
$DIMASO
 70
     1
  9
$DIMSHO
 70
     1
  9
$DIMPOST
  1

  9
$DIMAPOST
  1

  9
$DIMALT
 70
     0
  9
$DIMALTD
 70
     3
  9
$DIMALTF
 40
0.0393700787401575
  9
$DIMLFAC
 40
1.0
  9
$DIMTOFL
 70
     1
  9
$DIMTVP
 40
0.0
  9
$DIMTIX
 70
     0
  9
$DIMSOXD
 70
     0
  9
$DIMSAH
 70
     0
  9
$DIMBLK1
  1

  9
$DIMBLK2
  1

  9
$DIMSTYLE
  2
ISO-25
  9
$DIMCLRD
 70
     0
  9
$DIMCLRE
 70
     0
  9
$DIMCLRT
 70
     0
  9
$DIMTFAC
 40
1.0
  9
$DIMGAP
 40
1.524
  9
$DIMJUST
 70
     0
  9
$DIMSD1
 70
     0
  9
$DIMSD2
 70
     0
  9
$DIMTOLJ
 70
     0
  9
$DIMTZIN
 70
     0
  9
$DIMALTZ
 70
     0
  9
$DIMALTTZ
 70
     0
  9
$DIMUPT
 70
     0
  9
$DIMDEC
 70
     2
  9
$DIMTDEC
 70
     2
  9
$DIMALTU
 70
     2
  9
$DIMALTTD
 70
     3
  9
$DIMTXSTY
  7
Standard
  9
$DIMAUNIT
 70
     0
  9
$DIMADEC
 70
     2
  9
$DIMALTRND
 40
0.0
  9
$DIMAZIN
 70
     0
  9
$DIMDSEP
 70
    44
  9
$DIMATFIT
 70
     3
  9
$DIMFRAC
 70
     0
  9
$DIMLDRBLK
  1

  9
$DIMLUNIT
 70
     2
  9
$DIMLWD
 70
    -2
  9
$DIMLWE
 70
    -2
  9
$DIMTMOVE
 70
     0
  9
$LUNITS
 70
     2
  9
$LUPREC
 70
     2
  9
$SKETCHINC
 40
1.0
  9
$FILLETRAD
 40
10.0
  9
$AUNITS
 70
     0
  9
$AUPREC
 70
     2
  9
$MENU
  1
.
  9
$ELEVATION
 40
0.0
  9
$PELEVATION
 40
0.0
  9
$THICKNESS
 40
0.0
  9
$LIMCHECK
 70
     0
  9
$CHAMFERA
 40
0.0
  9
$CHAMFERB
 40
0.0
  9
$CHAMFERC
 40
0.0
  9
$CHAMFERD
 40
0.0
  9
$SKPOLY
 70
     0
  9
$TDCREATE
 40
2458262.54604743
  9
$TDUCREATE
 40
2458262.17104743
  9
$TDUPDATE
 40
2458266.674855139
  9
$TDUUPDATE
 40
2458266.299855139
  9
$TDINDWG
 40
0.0011582986
  9
$TDUSRTIMER
 40
2458266.298696875
  9
$USRTIMER
 70
     1
  9
$ANGBASE
 50
0.0
  9
$ANGDIR
 70
     0
  9
$PDMODE
 70
     0
  9
$PDSIZE
 40
-1.0
  9
$PLINEWID
 40
0.0
  9
$SPLFRAME
 70
     0
  9
$SPLINETYPE
 70
     6
  9
$SPLINESEGS
 70
     8
  9
$HANDSEED
  5
14D
  9
$SURFTAB1
 70
     6
  9
$SURFTAB2
 70
     6
  9
$SURFTYPE
 70
     6
  9
$SURFU
 70
     6
  9
$SURFV
 70
     6
  9
$UCSBASE
  2

  9
$UCSNAME
  2

  9
$UCSORG
 10
0.0
 20
0.0
 30
0.0
  9
$UCSXDIR
 10
1.0
 20
0.0
 30
0.0
  9
$UCSYDIR
 10
0.0
 20
1.0
 30
0.0
  9
$UCSORTHOREF
  2

  9
$UCSORTHOVIEW
 70
     0
  9
$UCSORGTOP
 10
0.0
 20
0.0
 30
0.0
  9
$UCSORGBOTTOM
 10
0.0
 20
0.0
 30
0.0
  9
$UCSORGLEFT
 10
0.0
 20
0.0
 30
0.0
  9
$UCSORGRIGHT
 10
0.0
 20
0.0
 30
0.0
  9
$UCSORGFRONT
 10
0.0
 20
0.0
 30
0.0
  9
$UCSORGBACK
 10
0.0
 20
0.0
 30
0.0
  9
$PUCSBASE
  2

  9
$PUCSNAME
  2

  9
$PUCSORG
 10
0.0
 20
0.0
 30
0.0
  9
$PUCSXDIR
 10
1.0
 20
0.0
 30
0.0
  9
$PUCSYDIR
 10
0.0
 20
1.0
 30
0.0
  9
$PUCSORTHOREF
  2

  9
$PUCSORTHOVIEW
 70
     0
  9
$PUCSORGTOP
 10
0.0
 20
0.0
 30
0.0
  9
$PUCSORGBOTTOM
 10
0.0
 20
0.0
 30
0.0
  9
$PUCSORGLEFT
 10
0.0
 20
0.0
 30
0.0
  9
$PUCSORGRIGHT
 10
0.0
 20
0.0
 30
0.0
  9
$PUCSORGFRONT
 10
0.0
 20
0.0
 30
0.0
  9
$PUCSORGBACK
 10
0.0
 20
0.0
 30
0.0
  9
$USERI1
 70
     0
  9
$USERI2
 70
     0
  9
$USERI3
 70
     0
  9
$USERI4
 70
     0
  9
$USERI5
 70
     0
  9
$USERR1
 40
0.0
  9
$USERR2
 40
0.0
  9
$USERR3
 40
0.0
  9
$USERR4
 40
0.0
  9
$USERR5
 40
0.0
  9
$WORLDVIEW
 70
     1
  9
$SHADEDGE
 70
     3
  9
$SHADEDIF
 70
    70
  9
$TILEMODE
 70
     1
  9
$MAXACTVP
 70
    64
  9
$PINSBASE
 10
0.0
 20
0.0
 30
0.0
  9
$PLIMCHECK
 70
     0
  9
$PEXTMIN
 10
1.000000000000000E+20
 20
1.000000000000000E+20
 30
1.000000000000000E+20
  9
$PEXTMAX
 10
-1.000000000000000E+20
 20
-1.000000000000000E+20
 30
-1.000000000000000E+20
  9
$PLIMMIN
 10
0.0
 20
0.0
  9
$PLIMMAX
 10
0.0
 20
0.0
  9
$UNITMODE
 70
     0
  9
$VISRETAIN
 70
     1
  9
$PLINEGEN
 70
     0
  9
$PSLTSCALE
 70
     1
  9
$TREEDEPTH
 70
  3020
  9
$CMLSTYLE
  2
Standard
  9
$CMLJUST
 70
     0
  9
$CMLSCALE
 40
20.0
  9
$PROXYGRAPHICS
 70
     1
  9
$MEASUREMENT
 70
     1
  9
$CELWEIGHT
370
    -1
  9
$ENDCAPS
280
     0
  9
$JOINSTYLE
280
     0
  9
$LWDISPLAY
290
     1
  9
$INSUNITS
 70
     4
  9
$HYPERLINKBASE
  1

  9
$STYLESHEET
  1

  9
$XEDIT
290
     1
  9
$CEPSNTYPE
380
     0
  9
$PSTYLEMODE
290
     1
  9
$FINGERPRINTGUID
  2
{AECECD79-928A-4D44-BC14-9D757C8E48B5}
  9
$VERSIONGUID
  2
{FAEB1C32-E019-11D5-929B-00C0DF256EC4}
  9
$EXTNAMES
290
     1
  9
$PSVPSCALE
 40
0.0
  9
$OLESTARTUP
290
     0
  0
ENDSEC
  0
SECTION
  2
CLASSES
  0
CLASS
  1
ACDBDICTIONARYWDFLT
  2
AcDbDictionaryWithDefault
  3
ObjectDBX Classes
 90
        0
280
     0
281
     0
  0
CLASS
  1
VISUALSTYLE
  2
AcDbVisualStyle
  3
ObjectDBX Classes
 90
     4095
280
     0
281
     0
  0
CLASS
  1
MATERIAL
  2
AcDbMaterial
  3
ObjectDBX Classes
 90
     1153
280
     0
281
     0
  0
CLASS
  1
SCALE
  2
AcDbScale
  3
ObjectDBX Classes
 90
     1153
280
     0
281
     0
  0
CLASS
  1
SUN
  2
AcDbSun
  3
SCENEOE
 90
     1153
280
     0
281
     0
  0
CLASS
  1
ACDBPLACEHOLDER
  2
AcDbPlaceHolder
  3
ObjectDBX Classes
 90
        0
280
     0
281
     0
  0
CLASS
  1
LAYOUT
  2
AcDbLayout
  3
ObjectDBX Classes
 90
        0
280
     0
281
     0
  0
CLASS
  1
TABLESTYLE
  2
AcDbTableStyle
  3
ObjectDBX Classes
 90
     4095
280
     0
281
     0
  0
CLASS
  1
MLEADERSTYLE
  2
AcDbMLeaderStyle
  3
ACDB_MLEADERSTYLE_CLASS
 90
     4095
280
     0
281
     0
  0
CLASS
  1
RASTERVARIABLES
  2
AcDbRasterVariables
  3
ISM
 90
        0
280
     0
281
     0
  0
ENDSEC
  0
SECTION
  2
TABLES
  0
TABLE
  2
VPORT
  5
8
330
0
100
AcDbSymbolTable
 70
     1
  0
VPORT
  5
29
330
8
100
AcDbSymbolTableRecord
100
AcDbViewportTableRecord
  2
*Active
 70
     0
 10
0.0
 20
0.0
 11
1.0
 21
1.0
 12
-16.2862433178845
 22
-9.90366100992258
 13
0.0
 23
0.0
 14
10.0
 24
10.0
 15
10.0
 25
10.0
 16
0.0
 26
0.0
 36
1.0
 17
0.0
 27
0.0
 37
0.0
 40
157.8030659160964
 41
1.152454780361757
 42
50.0
 43
0.0
 44
0.0
 50
0.0
 51
0.0
 71
    16
 72
  2000
 73
     1
 74
     3
 75
     0
 76
     0
 77
     0
 78
     0
281
     0
 65
     1
110
0.0
120
0.0
130
0.0
111
1.0
121
0.0
131
0.0
112
0.0
122
1.0
132
0.0
 79
     0
146
0.0
  0
ENDTAB
  0
TABLE
  2
LTYPE
  5
5
330
0
100
AcDbSymbolTable
 70
     6
  0
LTYPE
  5
14
330
5
100
AcDbSymbolTableRecord
100
AcDbLinetypeTableRecord
  2
ByBlock
 70
     0
  3

 72
    65
 73
     0
 40
0.0
  0
LTYPE
  5
15
330
5
100
AcDbSymbolTableRecord
100
AcDbLinetypeTableRecord
  2
ByLayer
 70
     0
  3

 72
    65
 73
     0
 40
0.0
  0
LTYPE
  5
16
330
5
100
AcDbSymbolTableRecord
100
AcDbLinetypeTableRecord
  2
Continuous
 70
     0
  3
Solid line
 72
    65
 73
     0
 40
0.0
  0
LTYPE
  5
6A
330
5
100
AcDbSymbolTableRecord
100
AcDbLinetypeTableRecord
  2
HIDDEN
 70
     0
  3
Hidden __ __ __ __ __ __ __ __ __ __ __ __ __ __
 72
    65
 73
     2
 40
1.905
 49
1.27
 74
     0
 49
-0.635
 74
     0
  0
LTYPE
  5
6B
330
5
100
AcDbSymbolTableRecord
100
AcDbLinetypeTableRecord
  2
PHANTOM
 70
     0
  3
Phantom ______  __  __  ______  __  __  ______
 72
    65
 73
     6
 40
12.7
 49
6.35
 74
     0
 49
-1.27
 74
     0
 49
1.27
 74
     0
 49
-1.27
 74
     0
 49
1.27
 74
     0
 49
-1.27
 74
     0
  0
LTYPE
  5
6C
330
5
100
AcDbSymbolTableRecord
100
AcDbLinetypeTableRecord
  2
CENTER
 70
     0
  3
Center ____ _ ____ _ ____ _ ____ _ ____ _ ____
 72
    65
 73
     4
 40
10.16
 49
6.35
 74
     0
 49
-1.27
 74
     0
 49
1.27
 74
     0
 49
-1.27
 74
     0
  0
LTYPE
  5
6D
330
5
100
AcDbSymbolTableRecord
100
AcDbLinetypeTableRecord
  2
CENTERX2
 70
     0
  3
Center (2x) ________  __  ________  __  _____
 72
    65
 73
     4
 40
20.32
 49
12.7
 74
     0
 49
-2.54
 74
     0
 49
2.54
 74
     0
 49
-2.54
 74
     0
  0
LTYPE
  5
6E
330
5
100
AcDbSymbolTableRecord
100
AcDbLinetypeTableRecord
  2
DOT2
 70
     0
  3
Dot (.5x) ........................................
 72
    65
 73
     2
 40
0.635
 49
0.0
 74
     0
 49
-0.635
 74
     0
  0
ENDTAB
  0
TABLE
  2
LAYER
  5
2
330
0
100
AcDbSymbolTable
 70
    17
  0
LAYER
  5
10
330
2
100
AcDbSymbolTableRecord
100
AcDbLayerTableRecord
  2
0
 70
     0
 62
     7
  6
Continuous
370
    -3
390
F
  0
LAYER
  5
6F
330
2
100
AcDbSymbolTableRecord
100
AcDbLayerTableRecord
  2
FORMAT
 70
     0
 62
     2
  6
Continuous
370
    -3
390
F
  0
LAYER
  5
70
330
2
100
AcDbSymbolTableRecord
100
AcDbLayerTableRecord
  2
외형선
 70
     0
 62
   100
  6
Continuous
370
    30
390
F
  0
LAYER
  5
71
330
2
100
AcDbSymbolTableRecord
100
AcDbLayerTableRecord
  2
숨은선
 70
     0
 62
     2
  6
HIDDEN
370
    15
390
F
  0
LAYER
  5
72
330
2
100
AcDbSymbolTableRecord
100
AcDbLayerTableRecord
  2
중심선
 70
     0
 62
     1
  6
CENTERX2
370
    -3
390
F
  0
LAYER
  5
73
330
2
100
AcDbSymbolTableRecord
100
AcDbLayerTableRecord
  2
파단선
 70
     0
 62
     4
  6
Continuous
370
    -3
390
F
  0
LAYER
  5
74
330
2
100
AcDbSymbolTableRecord
100
AcDbLayerTableRecord
  2
해칭선
 70
     0
 62
     4
  6
Continuous
370
    -3
390
F
  0
LAYER
  5
75
330
2
100
AcDbSymbolTableRecord
100
AcDbLayerTableRecord
  2
가는실선
 70
     0
 62
     4
  6
Continuous
370
    -3
390
F
  0
LAYER
  5
76
330
2
100
AcDbSymbolTableRecord
100
AcDbLayerTableRecord
  2
치수_보조선
 70
     0
 62
     4
  6
Continuous
370
    -3
390
F
  0
LAYER
  5
77
330
2
100
AcDbSymbolTableRecord
100
AcDbLayerTableRecord
  2
치수문자_일반주서
 70
     0
 62
     7
  6
Continuous
370
    15
390
F
  0
LAYER
  5
78
330
2
100
AcDbSymbolTableRecord
100
AcDbLayerTableRecord
  2
개별주서
 70
     0
 62
   100
  6
Continuous
370
    30
390
F
  0
LAYER
  5
79
330
2
100
AcDbSymbolTableRecord
100
AcDbLayerTableRecord
  2
중간선
 70
     0
 62
     2
  6
Continuous
370
    15
390
F
  0
LAYER
  5
7A
330
2
100
AcDbSymbolTableRecord
100
AcDbLayerTableRecord
  2
윤곽선
 70
     0
 62
     3
  6
Continuous
370
    40
390
F
  0
LAYER
  5
7B
330
2
100
AcDbSymbolTableRecord
100
AcDbLayerTableRecord
  2
중심마크
 70
     0
 62
   100
  6
Continuous
370
    30
390
F
  0
LAYER
  5
7C
330
2
100
AcDbSymbolTableRecord
100
AcDbLayerTableRecord
  2
가상선
 70
     0
 62
     4
  6
PHANTOM
370
    -3
390
F
  0
LAYER
  5
7D
330
2
100
AcDbSymbolTableRecord
100
AcDbLayerTableRecord
  2
특수지정선
 70
     0
 62
     5
  6
CENTERX2
370
    60
390
F
  0
LAYER
  5
138
330
2
100
AcDbSymbolTableRecord
100
AcDbLayerTableRecord
  2
Defpoints
 70
     0
 62
     7
  6
Continuous
290
     0
370
    -3
390
F
  0
ENDTAB
  0
TABLE
  2
STYLE
  5
3
330
0
100
AcDbSymbolTable
 70
     2
  0
STYLE
  5
11
330
3
100
AcDbSymbolTableRecord
100
AcDbTextStyleTableRecord
  2
Standard
 70
     0
 40
0.0
 41
1.0
 50
0.0
 71
     0
 42
3.5
  3
txt
  4

  0
STYLE
  5
93
330
3
100
AcDbSymbolTableRecord
100
AcDbTextStyleTableRecord
  2
SLDTEXTSTYLE0
 70
     0
 40
0.0
 41
0.75
 50
0.0
 71
     0
 42
3.5
  3
TXT
  4

  0
ENDTAB
  0
TABLE
  2
VIEW
  5
6
330
0
100
AcDbSymbolTable
 70
     0
  0
ENDTAB
  0
TABLE
  2
UCS
  5
7
330
0
100
AcDbSymbolTable
 70
     0
  0
ENDTAB
  0
TABLE
  2
APPID
  5
9
330
0
100
AcDbSymbolTable
 70
     1
  0
APPID
  5
12
330
9
100
AcDbSymbolTableRecord
100
AcDbRegAppTableRecord
  2
ACAD
 70
     0
  0
ENDTAB
  0
TABLE
  2
DIMSTYLE
  5
A
330
0
100
AcDbSymbolTable
 70
     3
100
AcDbDimStyleTable
  0
DIMSTYLE
105
27
330
A
100
AcDbSymbolTableRecord
100
AcDbDimStyleTableRecord
  2
ISO-25
 70
     0
 41
2.5
 42
0.625
 43
3.75
 44
1.25
 73
     0
 74
     0
 77
     1
 78
     8
140
2.5
141
2.5
143
0.03937007874016
147
0.625
171
     3
172
     1
178
     0
271
     2
272
     2
274
     3
278
    44
283
     0
284
     8
340
11
  0
DIMSTYLE
105
DE
102
{ACAD_REACTORS
330
DD
330
100
102
}
330
A
100
AcDbSymbolTableRecord
100
AcDbDimStyleTableRecord
  2
SLDDIMSTYLE0
 70
     0
 41
3.302
 44
0.0
 45
0.000000001
 73
     0
 74
     0
 77
     1
 78
    12
 79
     3
140
3.5
147
0.875
172
     1
173
     1
178
     0
271
     2
272
     2
276
     2
284
    12
289
     0
340
93
  0
DIMSTYLE
105
EC
102
{ACAD_REACTORS
330
EB
330
F6
102
}
330
A
100
AcDbSymbolTableRecord
100
AcDbDimStyleTableRecord
  2
SLDDIMSTYLE1
 70
     0
 41
3.302
 44
0.0
 45
0.000000001
 73
     0
 74
     0
 77
     1
 78
    12
 79
     3
140
3.5
147
0.875
173
     1
178
     0
271
     2
272
     2
276
     2
284
    12
340
93
  0
ENDTAB
  0
TABLE
  2
BLOCK_RECORD
  5
1
330
0
100
AcDbSymbolTable
 70
     7
  0
BLOCK_RECORD
  5
1F
330
1
100
AcDbSymbolTableRecord
100
AcDbBlockTableRecord
  2
*Model_Space
340
22
  0
BLOCK_RECORD
  5
1B
330
1
100
AcDbSymbolTableRecord
100
AcDbBlockTableRecord
  2
*Paper_Space
340
1E
  0
BLOCK_RECORD
  5
23
330
1
100
AcDbSymbolTableRecord
100
AcDbBlockTableRecord
  2
*Paper_Space0
340
26
  0
BLOCK_RECORD
  5
7E
330
1
100
AcDbSymbolTableRecord
100
AcDbBlockTableRecord
  2
블럭10
340
0
102
{BLKREFS
331
D6
102
}
  0
BLOCK_RECORD
  5
DF
330
1
100
AcDbSymbolTableRecord
100
AcDbBlockTableRecord
  2
_D
340
0
  0
BLOCK_RECORD
  5
ED
330
1
100
AcDbSymbolTableRecord
100
AcDbBlockTableRecord
  2
_D_1
340
0
  0
BLOCK_RECORD
  5
F7
330
1
100
AcDbSymbolTableRecord
100
AcDbBlockTableRecord
  2
_D_2
340
0
  0
BLOCK_RECORD
  5
101
330
1
100
AcDbSymbolTableRecord
100
AcDbBlockTableRecord
  2
_D_3
340
0
  0
BLOCK_RECORD
  5
10D
330
1
100
AcDbSymbolTableRecord
100
AcDbBlockTableRecord
  2
SW_DOWELSYMBOL_0
340
0
102
{BLKREFS
331
113
102
}
  0
ENDTAB
  0
ENDSEC
  0
SECTION
  2
BLOCKS
  0
BLOCK
  5
20
330
1F
100
AcDbEntity
  8
0
100
AcDbBlockBegin
  2
*Model_Space
 70
     0
 10
0.0
 20
0.0
 30
0.0
  3
*Model_Space
  1

  0
ENDBLK
  5
21
330
1F
100
AcDbEntity
  8
0
100
AcDbBlockEnd
  0
BLOCK
  5
1C
330
1B
100
AcDbEntity
 67
     1
  8
0
100
AcDbBlockBegin
  2
*Paper_Space
 70
     0
 10
0.0
 20
0.0
 30
0.0
  3
*Paper_Space
  1

  0
ENDBLK
  5
1D
330
1B
100
AcDbEntity
 67
     1
  8
0
100
AcDbBlockEnd
  0
BLOCK
  5
24
330
23
100
AcDbEntity
  8
0
100
AcDbBlockBegin
  2
*Paper_Space0
 70
     0
 10
0.0
 20
0.0
 30
0.0
  3
*Paper_Space0
  1

  0
ENDBLK
  5
25
330
23
100
AcDbEntity
  8
0
100
AcDbBlockEnd
  0
BLOCK
  5
7F
330
7E
100
AcDbEntity
  8
0
100
AcDbBlockBegin
  2
블럭10
 70
     2
 10
0.0
 20
0.0
 30
0.0
  3
블럭10
  1

  0
ELLIPSE
  5
81
330
7E
100
AcDbEntity
  8
중심선
100
AcDbEllipse
 10
20.54032771741204
 20
12.0471743016438
 30
0.0
 11
6.600054785286829
 21
-1.261213355974178E-13
 31
0.0
210
0.0
220
0.0
230
1.0
 40
0.636358354079598
 41
0.9219305317359503
 42
6.513795318482858
  0
ELLIPSE
  5
82
330
7E
100
AcDbEntity
  8
중심선
100
AcDbEllipse
 10
20.54032771746488
 20
12.04717430159265
 30
0.0
 11
3.960054785062283
 21
1.540847449632565E-10
 31
0.0
210
0.0
220
0.0
230
1.0
 40
0.3939339440162632
 41
1.131841032648279
 42
5.62031148352944
  0
LINE
  5
83
330
7E
100
AcDbEntity
  8
중심선
100
AcDbLine
 10
2.268634060543552
 20
16.24717430164393
 30
0.0
 11
5.714909304380834
 21
16.24717430164393
 31
0.0
  0
LINE
  5
84
330
7E
100
AcDbEntity
  8
중심선
100
AcDbLine
 10
5.245725140726316
 20
7.84717430164391
 30
0.0
 11
8.692000384563599
 21
7.84717430164391
 31
0.0
  0
LINE
  5
85
330
7E
100
AcDbEntity
  8
중심선
100
AcDbLine
 10
15.74043728645272
 20
16.24717430164393
 30
0.0
 11
8.692000384563599
 21
7.84717430164391
 31
0.0
  0
LINE
  5
86
330
7E
100
AcDbEntity
  8
중심선
100
AcDbLine
 10
0.1404042013395286
 20
13.71084872107135
 30
0.0
 11
3.58671253028996
 21
13.71088815037384
 31
0.0
  0
LINE
  5
87
330
7E
100
AcDbEntity
  8
중심선
100
AcDbLine
 10
2.750260043222114
 20
10.84717430164391
 30
0.0
 11
6.196535287059397
 21
10.84717430164391
 31
0.0
  0
LINE
  5
88
330
7E
100
AcDbEntity
  8
중심선
100
AcDbLine
 10
12.29416204261559
 20
16.24717430164393
 30
0.0
 11
5.245725140726316
 21
7.84717430164391
 31
0.0
  0
LINE
  5
89
330
7E
100
AcDbEntity
  8
중심선
100
AcDbLine
 10
10.72767329541681
 20
16.24717430164393
 30
0.0
 11
6.196535287059397
 21
10.84717430164391
 31
0.0
  0
LINE
  5
8A
330
7E
100
AcDbEntity
  8
중심선
100
AcDbLine
 10
7.28139805157953
 20
16.24717430164393
 30
0.0
 11
2.750260043222114
 21
10.84717430164391
 31
0.0
  0
LINE
  5
8B
330
7E
100
AcDbEntity
  8
중심선
100
AcDbLine
 10
5.714909304380834
 20
16.24717430164393
 30
0.0
 11
3.58671253028996
 21
13.71088815037384
 31
0.0
  0
LINE
  5
8C
330
7E
100
AcDbEntity
  8
중심선
100
AcDbLine
 10
2.268634060543552
 20
16.24717430164393
 30
0.0
 11
0.1404042013395286
 21
13.71084872107135
 31
0.0
  0
LINE
  5
8D
330
7E
100
AcDbEntity
  8
중심선
100
AcDbLine
 10
7.28139805157953
 20
16.24717430164393
 30
0.0
 11
10.72767329541681
 21
16.24717430164393
 31
0.0
  0
LINE
  5
8E
330
7E
100
AcDbEntity
  8
중심선
100
AcDbLine
 10
12.29416204261559
 20
16.24717430164393
 30
0.0
 11
15.74043728645272
 21
16.24717430164393
 31
0.0
  0
LINE
  5
8F
330
7E
100
AcDbEntity
  8
중심선
100
AcDbLine
 10
19.22036997980202
 20
11.08717430171403
 30
0.0
 11
23.66174974927406
 21
11.08717430171406
 31
0.0
  0
LINE
  5
90
330
7E
100
AcDbEntity
  8
중심선
100
AcDbLine
 10
19.22039502424796
 20
13.00717430171391
 30
0.0
 11
19.22036997980202
 21
11.08717430171403
 31
0.0
  0
LINE
  5
91
330
7E
100
AcDbEntity
  8
중심선
100
AcDbLine
 10
19.22039502424796
 20
13.00717430171391
 30
0.0
 11
26.96566020931264
 21
13.00717430171391
 31
0.0
  0
LINE
  5
92
330
7E
100
AcDbEntity
  8
중심선
100
AcDbLine
 10
22.22332737316547
 20
13.45928029700563
 30
0.0
 11
24.52862924686651
 21
15.39360700705356
 31
0.0
  0
ATTDEF
  5
94
330
7E
100
AcDbEntity
  8
FORMAT
 62
     2
100
AcDbText
 10
-20.85824753159254
 20
2.075366912832191
 30
0.0
 40
4.233333333333333
  1
SEME7010050150E [ 2 FLUTE ]
 41
0.75
  7
SLDTEXTSTYLE0
 11
-20.85824753159254
 21
-0.0412997538344756
 31
0.0
100
AcDbAttributeDefinition
  3

  2
AUTOATTR0
 70
     0
 74
     1
  0
ENDBLK
  5
80
330
7E
100
AcDbEntity
  8
0
100
AcDbBlockEnd
  0
BLOCK
  5
E0
330
DF
100
AcDbEntity
  8
0
100
AcDbBlockBegin
  2
_D
 70
     0
 10
0.0
 20
0.0
 30
0.0
  3
_D
  1

  0
LINE
  5
E2
330
DF
100
AcDbEntity
  8
치수문자_일반주서
 62
     0
370
    -2
100
AcDbLine
 10
60.0624999999997
 20
-4.999999999999808
 30
0.0
 11
72.31092220699139
 21
-4.999999999999762
 31
0.0
  0
LINE
  5
E3
330
DF
100
AcDbEntity
  8
치수문자_일반주서
 62
     0
370
    -2
100
AcDbLine
 10
60.0624999999997
 20
5.000000000000187
 30
0.0
 11
72.31092220699136
 21
5.000000000000233
 31
0.0
  0
LINE
  5
E4
330
DF
100
AcDbEntity
  8
치수문자_일반주서
 62
     0
370
    -2
100
AcDbLine
 10
72.31092220699139
 20
-4.999999999999762
 30
0.0
 11
72.31092220699132
 21
19.04150000000023
 31
0.0
  0
LINE
  5
E5
330
DF
100
AcDbEntity
  8
치수문자_일반주서
 62
     0
370
    -2
100
AcDbLine
 10
72.31092220699139
 20
-4.999999999999762
 30
0.0
 11
72.31092220699136
 21
5.000000000000233
 31
0.0
  0
LINE
  5
E6
330
DF
100
AcDbEntity
  8
치수문자_일반주서
 62
     0
370
    -2
100
AcDbLine
 10
72.3109222069914
 20
-8.301999999999762
 30
0.0
 11
72.31092220699142
 21
-11.60399999999976
 31
0.0
  0
LINE
  5
E7
330
DF
100
AcDbEntity
  8
치수문자_일반주서
 62
     0
370
    -2
100
AcDbLine
 10
72.31092220699135
 20
8.302000000000232
 30
0.0
 11
72.31092220699134
 21
11.60400000000023
 31
0.0
  0
SOLID
  5
E8
330
DF
100
AcDbEntity
  8
치수문자_일반주서
 62
     0
100
AcDbTrace
 10
72.86125554032473
 20
-8.30199999999976
 30
0.0
 11
71.76058887365808
 21
-8.301999999999763
 31
0.0
 12
72.31092220699139
 22
-4.999999999999762
 32
0.0
 13
72.31092220699139
 23
-4.999999999999762
 33
0.0
  0
SOLID
  5
E9
330
DF
100
AcDbEntity
  8
치수문자_일반주서
 62
     0
100
AcDbTrace
 10
71.76058887365802
 20
8.30200000000023
 30
0.0
 11
72.86125554032468
 21
8.302000000000234
 31
0.0
 12
72.31092220699136
 22
5.000000000000233
 32
0.0
 13
72.31092220699136
 23
5.000000000000233
 33
0.0
  0
MTEXT
  5
EA
330
DF
100
AcDbEntity
  8
치수문자_일반주서
 62
     0
100
AcDbMText
 10
67.93592220699134
 20
15.32275000000022
 30
0.0
 40
3.5
 41
0.0
 71
     2
 72
     1
  1
\A1;%%c10
  7
SLDTEXTSTYLE0
 11
-2.842170943040402E-15
 21
1.0
 31
0.0
 73
     1
 44
1.0
  0
POINT
  5
148
330
DF
100
AcDbEntity
  8
Defpoints
 62
     0
100
AcDbPoint
 10
59.9999999999997
 20
-4.999999999999808
 30
0.0
  0
POINT
  5
149
330
DF
100
AcDbEntity
  8
Defpoints
 62
     0
100
AcDbPoint
 10
59.9999999999997
 20
5.000000000000187
 30
0.0
  0
POINT
  5
14A
330
DF
100
AcDbEntity
  8
Defpoints
 62
     0
100
AcDbPoint
 10
72.31092220699136
 20
5.000000000000233
 30
0.0
  0
ENDBLK
  5
E1
330
DF
100
AcDbEntity
  8
0
100
AcDbBlockEnd
  0
BLOCK
  5
EE
330
ED
100
AcDbEntity
  8
0
100
AcDbBlockBegin
  2
_D_1
 70
     0
 10
0.0
 20
0.0
 30
0.0
  3
_D_1
  1

  0
LINE
  5
F0
330
ED
100
AcDbEntity
  8
치수문자_일반주서
 62
     0
370
    -2
100
AcDbLine
 10
-90.00000000000003
 20
4.062499999999993
 30
0.0
 11
-90.00000000000001
 21
25.78841044024269
 31
0.0
  0
LINE
  5
F1
330
ED
100
AcDbEntity
  8
치수문자_일반주서
 62
     0
370
    -2
100
AcDbLine
 10
59.9999999999997
 20
5.062500000000187
 30
0.0
 11
59.99999999999972
 21
25.78841044024269
 31
0.0
  0
LINE
  5
F2
330
ED
100
AcDbEntity
  8
치수문자_일반주서
 62
     0
370
    -2
100
AcDbLine
 10
-86.69800000000001
 20
25.78841044024269
 30
0.0
 11
56.69799999999972
 21
25.78841044024269
 31
0.0
  0
SOLID
  5
F3
330
ED
100
AcDbEntity
  8
치수문자_일반주서
 62
     0
100
AcDbTrace
 10
-86.69800000000001
 20
26.33874377357603
 30
0.0
 11
-86.69800000000001
 21
25.23807710690936
 31
0.0
 12
-90.00000000000001
 22
25.78841044024269
 32
0.0
 13
-90.00000000000001
 23
25.78841044024269
 33
0.0
  0
SOLID
  5
F4
330
ED
100
AcDbEntity
  8
치수문자_일반주서
 62
     0
100
AcDbTrace
 10
56.69799999999972
 20
25.23807710690936
 30
0.0
 11
56.69799999999972
 21
26.33874377357603
 31
0.0
 12
59.99999999999972
 22
25.78841044024269
 32
0.0
 13
59.99999999999972
 23
25.78841044024269
 33
0.0
  0
MTEXT
  5
F5
330
ED
100
AcDbEntity
  8
치수문자_일반주서
 62
     0
100
AcDbMText
 10
-15.00000000000016
 20
30.16341044024269
 30
0.0
 40
3.5
 41
0.0
 71
     2
 72
     1
  1
\A1;150
  7
SLDTEXTSTYLE0
 73
     1
 44
1.0
  0
POINT
  5
13F
330
ED
100
AcDbEntity
  8
Defpoints
 62
     0
100
AcDbPoint
 10
-90.00000000000003
 20
3.999999999999993
 30
0.0
  0
POINT
  5
140
330
ED
100
AcDbEntity
  8
Defpoints
 62
     0
100
AcDbPoint
 10
59.9999999999997
 20
5.000000000000187
 30
0.0
  0
POINT
  5
141
330
ED
100
AcDbEntity
  8
Defpoints
 62
     0
100
AcDbPoint
 10
59.9999999999997
 20
25.78841044024269
 30
0.0
  0
ENDBLK
  5
EF
330
ED
100
AcDbEntity
  8
0
100
AcDbBlockEnd
  0
BLOCK
  5
F8
330
F7
100
AcDbEntity
  8
0
100
AcDbBlockBegin
  2
_D_2
 70
     0
 10
0.0
 20
0.0
 30
0.0
  3
_D_2
  1

  0
LINE
  5
FA
330
F7
100
AcDbEntity
  8
치수문자_일반주서
 62
     0
370
    -2
100
AcDbLine
 10
9.999999999999986
 20
4.97362004595352
 30
0.0
 11
9.999999999999986
 21
18.25811785212104
 31
0.0
  0
LINE
  5
FB
330
F7
100
AcDbEntity
  8
치수문자_일반주서
 62
     0
370
    -2
100
AcDbLine
 10
59.9999999999997
 20
5.062500000000187
 30
0.0
 11
59.9999999999997
 21
18.25811785212104
 31
0.0
  0
LINE
  5
FC
330
F7
100
AcDbEntity
  8
치수문자_일반주서
 62
     0
370
    -2
100
AcDbLine
 10
13.30199999999999
 20
18.25811785212104
 30
0.0
 11
56.6979999999997
 21
18.25811785212104
 31
0.0
  0
SOLID
  5
FD
330
F7
100
AcDbEntity
  8
치수문자_일반주서
 62
     0
100
AcDbTrace
 10
13.30199999999999
 20
18.80845118545438
 30
0.0
 11
13.30199999999999
 21
17.70778451878771
 31
0.0
 12
9.999999999999986
 22
18.25811785212104
 32
0.0
 13
9.999999999999986
 23
18.25811785212104
 33
0.0
  0
SOLID
  5
FE
330
F7
100
AcDbEntity
  8
치수문자_일반주서
 62
     0
100
AcDbTrace
 10
56.6979999999997
 20
17.70778451878771
 30
0.0
 11
56.6979999999997
 21
18.80845118545438
 31
0.0
 12
59.9999999999997
 22
18.25811785212104
 32
0.0
 13
59.9999999999997
 23
18.25811785212104
 33
0.0
  0
MTEXT
  5
FF
330
F7
100
AcDbEntity
  8
치수문자_일반주서
 62
     0
100
AcDbMText
 10
34.99999999999998
 20
22.63311785212104
 30
0.0
 40
3.5
 41
0.0
 71
     2
 72
     1
  1
\A1;50
  7
SLDTEXTSTYLE0
 73
     1
 44
1.0
  0
POINT
  5
142
330
F7
100
AcDbEntity
  8
Defpoints
 62
     0
100
AcDbPoint
 10
9.999999999999986
 20
4.91112004595352
 30
0.0
  0
POINT
  5
143
330
F7
100
AcDbEntity
  8
Defpoints
 62
     0
100
AcDbPoint
 10
59.9999999999997
 20
5.000000000000187
 30
0.0
  0
POINT
  5
144
330
F7
100
AcDbEntity
  8
Defpoints
 62
     0
100
AcDbPoint
 10
59.9999999999997
 20
18.25811785212104
 30
0.0
  0
ENDBLK
  5
F9
330
F7
100
AcDbEntity
  8
0
100
AcDbBlockEnd
  0
BLOCK
  5
102
330
101
100
AcDbEntity
  8
0
100
AcDbBlockBegin
  2
_D_3
 70
     0
 10
0.0
 20
0.0
 30
0.0
  3
_D_3
  1

  0
LINE
  5
104
330
101
100
AcDbEntity
  8
치수문자_일반주서
 62
     0
370
    -2
100
AcDbLine
 10
-89.06250000000003
 20
4.999999999999992
 30
0.0
 11
-101.0587421760937
 21
4.99999999999995
 31
0.0
  0
LINE
  5
105
330
101
100
AcDbEntity
  8
치수문자_일반주서
 62
     0
370
    -2
100
AcDbLine
 10
-89.06250000000003
 20
-4.999999999999994
 30
0.0
 11
-101.0587421760937
 21
-5.000000000000036
 31
0.0
  0
LINE
  5
106
330
101
100
AcDbEntity
  8
치수문자_일반주서
 62
     0
370
    -2
100
AcDbLine
 10
-101.0587421760937
 20
4.99999999999995
 30
0.0
 11
-101.0587421760937
 21
19.04149999999995
 31
0.0
  0
LINE
  5
107
330
101
100
AcDbEntity
  8
치수문자_일반주서
 62
     0
370
    -2
100
AcDbLine
 10
-101.0587421760937
 20
4.99999999999995
 30
0.0
 11
-101.0587421760937
 21
-5.000000000000036
 31
0.0
  0
LINE
  5
108
330
101
100
AcDbEntity
  8
치수문자_일반주서
 62
     0
370
    -2
100
AcDbLine
 10
-101.0587421760937
 20
8.30199999999995
 30
0.0
 11
-101.0587421760937
 21
11.60399999999995
 31
0.0
  0
LINE
  5
109
330
101
100
AcDbEntity
  8
치수문자_일반주서
 62
     0
370
    -2
100
AcDbLine
 10
-101.0587421760936
 20
-8.302000000000035
 30
0.0
 11
-101.0587421760936
 21
-11.60400000000003
 31
0.0
  0
SOLID
  5
10A
330
101
100
AcDbEntity
  8
치수문자_일반주서
 62
     0
100
AcDbTrace
 10
-101.609075509427
 20
8.301999999999948
 30
0.0
 11
-100.5084088427604
 21
8.301999999999952
 31
0.0
 12
-101.0587421760937
 22
4.99999999999995
 32
0.0
 13
-101.0587421760937
 23
4.99999999999995
 33
0.0
  0
SOLID
  5
10B
330
101
100
AcDbEntity
  8
치수문자_일반주서
 62
     0
100
AcDbTrace
 10
-100.5084088427603
 20
-8.302000000000033
 30
0.0
 11
-101.609075509427
 21
-8.302000000000037
 31
0.0
 12
-101.0587421760937
 22
-5.000000000000036
 32
0.0
 13
-101.0587421760937
 23
-5.000000000000036
 33
0.0
  0
MTEXT
  5
10C
330
101
100
AcDbEntity
  8
치수문자_일반주서
 62
     0
100
AcDbMText
 10
-105.4337421760937
 20
15.32274999999994
 30
0.0
 40
3.5
 41
0.0
 71
     2
 72
     1
  1
\A1;%%c10
  7
SLDTEXTSTYLE0
 11
-2.842170943040404E-15
 21
1.0
 31
0.0
 73
     1
 44
1.0
  0
POINT
  5
145
330
101
100
AcDbEntity
  8
Defpoints
 62
     0
100
AcDbPoint
 10
-89.00000000000003
 20
4.999999999999992
 30
0.0
  0
POINT
  5
146
330
101
100
AcDbEntity
  8
Defpoints
 62
     0
100
AcDbPoint
 10
-89.00000000000003
 20
-4.999999999999994
 30
0.0
  0
POINT
  5
147
330
101
100
AcDbEntity
  8
Defpoints
 62
     0
100
AcDbPoint
 10
-101.0587421760937
 20
-5.000000000000039
 30
0.0
  0
ENDBLK
  5
103
330
101
100
AcDbEntity
  8
0
100
AcDbBlockEnd
  0
BLOCK
  5
10E
330
10D
100
AcDbEntity
  8
0
100
AcDbBlockBegin
  2
SW_DOWELSYMBOL_0
 70
     0
 10
0.0
 20
0.0
 30
0.0
  3
SW_DOWELSYMBOL_0
  1

  0
CIRCLE
  5
110
330
10D
100
AcDbEntity
  8
외형선
 62
     0
100
AcDbCircle
 10
0.0
 20
0.0
 30
0.0
 40
3.000000000000004
  0
HATCH
  5
111
330
10D
100
AcDbEntity
  8
0
  6
Continuous
 62
     0
370
    30
100
AcDbHatch
 10
0.0
 20
0.0
 30
0.0
210
0.0
220
0.0
230
1.0
  2
SOLID
 70
     1
 71
     0
 91
        1
 92
        0
 93
        3
 72
     2
 10
0.0000000000000104
 20
0.0
 40
3.000000000000004
 50
0.0
 51
90.0
 73
     1
 72
     1
 10
0.0000000000000104
 20
3.000000000000004
 11
0.0000000000000104
 21
0.0
 72
     1
 10
0.0000000000000104
 20
0.0
 11
3.000000000000015
 21
0.0
 97
        0
 75
     0
 76
     1
 98
        1
 10
0.0
 20
0.0
  0
HATCH
  5
112
330
10D
100
AcDbEntity
  8
0
  6
Continuous
 62
     0
370
    30
100
AcDbHatch
 10
0.0
 20
0.0
 30
0.0
210
0.0
220
0.0
230
1.0
  2
SOLID
 70
     1
 71
     0
 91
        1
 92
        0
 93
        3
 72
     2
 10
0.0000000000000104
 20
0.0
 40
3.000000000000004
 50
180.0
 51
270.0000000000008
 73
     1
 72
     1
 10
0.0000000000000104
 20
-3.000000000000004
 11
0.0000000000000104
 21
0.0
 72
     1
 10
0.0000000000000104
 20
0.0
 11
-2.999999999999994
 21
0.0
 97
        0
 75
     0
 76
     1
 98
        1
 10
0.0
 20
0.0
  0
ENDBLK
  5
10F
330
10D
100
AcDbEntity
  8
0
100
AcDbBlockEnd
  0
ENDSEC
  0
SECTION
  2
ENTITIES
  0
SPLINE
  5
95
330
1F
100
AcDbEntity
  8
0
  6
Continuous
 62
     1
370
    15
100
AcDbSpline
210
0.0
220
0.0
230
1.0
 70
     8
 71
     3
 72
     9
 73
     5
 74
     0
 42
0.000000001
 43
0.00000001
 40
0.0
 40
0.0
 40
0.0
 40
0.0
 40
0.4369064673413931
 40
1.0
 40
1.0
 40
1.0
 40
1.0
 10
19.83811332167513
 20
1.28143450501563
 30
0.0
 10
19.63633242459474
 20
1.377489744233983
 30
0.0
 10
19.17449239208563
 20
1.597342839572341
 30
0.0
 10
18.71261951863909
 20
1.839007382454327
 30
0.0
 10
18.45254189069091
 20
1.975087123624071
 30
0.0
  0
LINE
  5
96
330
1F
100
AcDbEntity
  8
0
  6
Continuous
 62
     1
370
    15
100
AcDbLine
 10
45.71466230749689
 20
1.94662144843002
 30
0.0
 11
45.65965308487917
 21
1.975023199185058
 31
0.0
  0
SPLINE
  5
97
330
1F
100
AcDbEntity
  8
0
  6
Continuous
 62
     1
370
    15
100
AcDbSpline
210
0.0
220
0.0
230
1.0
 70
     8
 71
     3
 72
     9
 73
     5
 74
     0
 42
0.000000001
 43
0.00000001
 40
0.0
 40
0.0
 40
0.0
 40
0.0
 40
0.529469742921055
 40
1.0
 40
1.0
 40
1.0
 40
1.0
 10
47.04536211434964
 20
1.281313799705374
 30
0.0
 10
46.81053048826423
 20
1.393392449855949
 30
0.0
 10
46.36700821107074
 20
1.605073384695102
 30
0.0
 10
45.92339550712702
 20
1.837335225001175
 30
0.0
 10
45.71466230749689
 20
1.94662144843002
 30
0.0
  0
LINE
  5
98
330
1F
100
AcDbEntity
  8
0
  6
Continuous
 62
     1
370
    15
100
AcDbLine
 10
33.14968882785246
 20
-4.999999999999998
 30
0.0
 11
35.5737545812591
 21
-4.999999999999998
 31
0.0
  0
LINE
  5
99
330
1F
100
AcDbEntity
  8
0
  6
Continuous
 62
     1
370
    15
100
AcDbLine
 10
35.5737545812591
 20
5.000000000000009
 30
0.0
 11
33.14968882785244
 21
5.000000000000009
 31
0.0
  0
LINE
  5
9A
330
1F
100
AcDbEntity
  8
0
  6
Continuous
 62
     1
370
    15
100
AcDbLine
 10
44.34029814697953
 20
1.37573275579757
 30
0.0
 11
44.22801521961333
 21
1.43736255120352
 31
0.0
  0
LINE
  5
9B
330
1F
100
AcDbEntity
  8
0
  6
Continuous
 62
     1
370
    15
100
AcDbLine
 10
17.57816627843037
 20
1.131869241407734
 30
0.0
 11
17.02078699208479
 21
1.437494241642808
 31
0.0
  0
SPLINE
  5
9C
330
1F
100
AcDbEntity
  8
0
  6
Continuous
 62
     1
370
    15
100
AcDbSpline
210
0.0
220
0.0
230
1.0
 70
     8
 71
     3
 72
    12
 73
     8
 74
     0
 42
0.000000001
 43
0.00000001
 40
0.0
 40
0.0
 40
0.0
 40
0.0
 40
0.2086101832575691
 40
0.5009172584808628
 40
0.6984083851671882
 40
0.792028282671297
 40
1.0
 40
1.0
 40
1.0
 40
1.0
 10
37.87354269990028
 20
-4.160701867024544
 30
0.0
 10
38.39660279438723
 20
-4.112675955300163
 30
0.0
 10
39.65258092766776
 20
-3.997355563642591
 30
0.0
 10
41.40272070222305
 20
-3.915181282053006
 30
0.0
 10
42.86509359096395
 20
-3.900642346417978
 30
0.0
 10
44.11564575807201
 20
-3.916185423212601
 30
0.0
 10
44.87191548039581
 20
-3.949931587759339
 30
0.0
 10
45.39342438574973
 20
-3.973202287105317
 30
0.0
  0
SPLINE
  5
9D
330
1F
100
AcDbEntity
  8
0
  6
Continuous
 62
     1
370
    15
100
AcDbSpline
210
0.0
220
0.0
230
1.0
 70
     8
 71
     3
 72
    16
 73
    12
 74
     0
 42
0.000000001
 43
0.00000001
 40
0.0
 40
0.0
 40
0.0
 40
0.0
 40
0.2201366040076555
 40
0.3792596303433931
 40
0.4807467105619916
 40
0.5663867808197935
 40
0.650262997921898
 40
0.7340343310834911
 40
0.8222585168569699
 40
0.9140498932885857
 40
1.0
 40
1.0
 40
1.0
 40
1.0
 10
18.18630348562176
 20
3.97319533920688
 30
0.0
 10
17.883723990908
 20
3.958624516097354
 30
0.0
 10
17.36242864417576
 20
3.933521353398768
 30
0.0
 10
16.70288771200122
 20
3.915749087342256
 30
0.0
 10
16.22618910857797
 20
3.907835995673207
 30
0.0
 10
15.85368702260101
 20
3.904772909989633
 30
0.0
 10
15.50691741777093
 20
3.904494527511941
 30
0.0
 10
15.15766143311199
 20
3.906768154752703
 30
0.0
 10
14.79612826496345
 20
3.911879704686576
 30
0.0
 10
14.43097075593985
 20
3.919645727916052
 30
0.0
 10
14.18700258447062
 20
3.927294145847884
 30
0.0
 10
14.06902736562374
 20
3.930992676577965
 30
0.0
  0
SPLINE
  5
9E
330
1F
100
AcDbEntity
  8
0
  6
Continuous
 62
     1
370
    15
100
AcDbSpline
210
0.0
220
0.0
230
1.0
 70
     8
 71
     3
 72
    23
 73
    19
 74
     0
 42
0.000000001
 43
0.00000001
 40
0.0
 40
0.0
 40
0.0
 40
0.0
 40
0.115013637281013
 40
0.1958819721469291
 40
0.2468227696425478
 40
0.2951454135472062
 40
0.3453061916540074
 40
0.395700539447522
 40
0.4462768530369138
 40
0.4969423520488072
 40
0.5474607693353702
 40
0.5960159430884543
 40
0.642120439282188
 40
0.6882826595332289
 40
0.735415636223664
 40
0.7912701932309625
 40
0.8788453419740294
 40
1.0
 40
1.0
 40
1.0
 40
1.0
 10
10.71000278740781
 20
-4.156308969431535
 30
0.0
 10
10.99710269684155
 20
-4.128998689798186
 30
0.0
 10
11.48606816035158
 20
-4.082486019119021
 30
0.0
 10
12.10065595040408
 20
-4.035277107577431
 30
0.0
 10
12.54657618766289
 20
-4.004999859427184
 30
0.0
 10
12.91789593009354
 20
-3.982502984542765
 30
0.0
 10
13.28917502490393
 20
-3.962689503991116
 30
0.0
 10
13.6658899362035
 20
-3.94547066387693
 30
0.0
 10
14.04410182759063
 20
-3.931232888981983
 30
0.0
 10
14.42258285931319
 20
-3.919981474309574
 30
0.0
 10
14.79612857574813
 20
-3.911839333547145
 30
0.0
 10
15.15766135584078
 20
-3.906778192335408
 30
0.0
 10
15.50691743802526
 20
-3.904491896461001
 30
0.0
 10
15.85368701708082
 20
-3.904773627065442
 30
0.0
 10
16.22618911035488
 20
-3.907835764850917
 30
0.0
 10
16.70288771117314
 20
-3.915749194910659
 30
0.0
 10
17.36242864452914
 20
-3.933521307495313
 30
0.0
 10
17.88372399103778
 20
-3.958624499238665
 30
0.0
 10
18.18630348562176
 20
-3.97319533920687
 30
0.0
  0
SPLINE
  5
9F
330
1F
100
AcDbEntity
  8
0
  6
Continuous
 62
     1
370
    15
100
AcDbSpline
210
0.0
220
0.0
230
1.0
 70
     8
 71
     3
 72
    10
 73
     6
 74
     0
 42
0.000000001
 43
0.00000001
 40
0.0
 40
0.0
 40
0.0
 40
0.0
 40
0.3785376489650856
 40
0.9083703324331514
 40
1.0
 40
1.0
 40
1.0
 40
1.0
 10
45.39342438574973
 20
3.973202287105331
 30
0.0
 10
44.8719659007902
 20
3.950922896619894
 30
0.0
 10
43.62063087869187
 20
3.897459423707769
 30
0.0
 10
42.24383369387316
 20
3.893164066395046
 30
0.0
 10
41.38809386459373
 20
3.930284506869264
 30
0.0
 10
41.2619218511966
 20
3.935757619785797
 30
0.0
  0
SPLINE
  5
A0
330
1F
100
AcDbEntity
  8
0
  6
Continuous
 62
     1
370
    15
100
AcDbSpline
210
0.0
220
0.0
230
1.0
 70
     8
 71
     3
 72
    13
 73
     9
 74
     0
 42
0.000000001
 43
0.00000001
 40
0.0
 40
0.0
 40
0.0
 40
0.0
 40
0.2206810356631804
 40
0.3631344130725147
 40
0.5076534458964325
 40
0.6771315634415923
 40
0.8497302731243693
 40
1.0
 40
1.0
 40
1.0
 40
1.0
 10
49.40777191965979
 20
-3.760651778215213
 30
0.0
 10
49.67911780539564
 20
-3.719330939110552
 30
0.0
 10
50.12562209453953
 20
-3.651336792668188
 30
0.0
 10
50.76462908486185
 20
-3.567942154231203
 30
0.0
 10
51.33856731620661
 20
-3.500785301708186
 30
0.0
 10
51.94447492001414
 20
-3.439653061481808
 30
0.0
 10
52.55802564244856
 20
-3.387105898386611
 30
0.0
 10
52.96058691880338
 20
-3.36206903079317
 30
0.0
 10
53.14794736101127
 20
-3.350416348681559
 30
0.0
  0
SPLINE
  5
A1
330
1F
100
AcDbEntity
  8
0
  6
Continuous
 62
     1
370
    15
100
AcDbSpline
210
0.0
220
0.0
230
1.0
 70
     8
 71
     3
 72
    22
 73
    18
 74
     0
 42
0.000000001
 43
0.00000001
 40
0.0
 40
0.0
 40
0.0
 40
0.0
 40
0.0864339344682195
 40
0.1469145936088826
 40
0.1874725633686339
 40
0.2290947202795722
 40
0.2735852850830852
 40
0.3733023342692687
 40
0.4808065624293495
 40
0.5931777086531373
 40
0.6895618348361724
 40
0.7393472013379995
 40
0.7875417091126711
 40
0.8202975560508933
 40
0.8666528144685535
 40
0.9263847645933192
 40
1.0
 40
1.0
 40
1.0
 40
1.0
 10
30.93480982966797
 20
3.419767752707034
 30
0.0
 10
30.68340871659369
 20
3.39957990079472
 30
0.0
 10
30.25609399827885
 20
3.365265946700399
 30
0.0
 10
29.71102917788789
 20
3.334680717417524
 30
0.0
 10
29.29400422327544
 20
3.316039228032837
 30
0.0
 10
28.92473655386578
 20
3.303449921434177
 30
0.0
 10
28.38385372257331
 20
3.290966065167108
 30
0.0
 10
27.65058327953026
 20
3.287678382362256
 30
0.0
 10
26.72089764429596
 20
3.308351427083496
 30
0.0
 10
25.79975112673678
 20
3.354468291244142
 30
0.0
 10
25.04700785142415
 20
3.411909254796546
 30
0.0
 10
24.48122454863971
 20
3.465146096341617
 30
0.0
 10
24.10494841826761
 20
3.504701292749915
 30
0.0
 10
23.73604754112941
 20
3.546872933940761
 30
0.0
 10
23.33148794905513
 20
3.596926405545446
 30
0.0
 10
22.80694852745211
 20
3.66798228193096
 30
0.0
 10
22.41625151083946
 20
3.727711770383984
 30
0.0
 10
22.20056452250144
 20
3.760685847307062
 30
0.0
  0
SPLINE
  5
A2
330
1F
100
AcDbEntity
  8
0
  6
Continuous
 62
     1
370
    15
100
AcDbSpline
210
0.0
220
0.0
230
1.0
 70
     8
 71
     3
 72
    16
 73
    12
 74
     0
 42
0.000000001
 43
0.00000001
 40
0.0
 40
0.0
 40
0.0
 40
0.0
 40
0.1721852370109392
 40
0.3118976203584902
 40
0.4807749239977548
 40
0.5811736471558404
 40
0.6820309331928064
 40
0.7838996298264189
 40
0.8821293169149527
 40
0.9808992365133095
 40
0.9999999999999999
 40
0.9999999999999999
 40
0.9999999999999999
 40
0.9999999999999999
 10
22.20056452250144
 20
-3.760685847307052
 30
0.0
 10
22.41625979687004
 20
-3.727712920352487
 30
0.0
 10
22.8069718228602
 20
-3.667985514960989
 30
0.0
 10
23.40685058030904
 20
-3.586695783090967
 30
0.0
 10
23.91651312394338
 20
-3.525199564285511
 30
0.0
 10
24.37166872748838
 20
-3.476390274687332
 30
0.0
 10
24.74791612603864
 20
-3.439701242735593
 30
0.0
 10
25.1226322671006
 20
-3.406802818246936
 30
0.0
 10
25.49457283548196
 20
-3.378548303780928
 30
0.0
 10
25.76369740223511
 20
-3.359882639135807
 30
0.0
 10
25.91044758259915
 20
-3.351927686211642
 30
0.0
 10
25.93422822434482
 20
-3.350638598285999
 30
0.0
  0
SPLINE
  5
A3
330
1F
100
AcDbEntity
  8
0
  6
Continuous
 62
     1
370
    15
100
AcDbSpline
210
0.0
220
0.0
230
1.0
 70
     8
 71
     3
 72
    22
 73
    18
 74
     0
 42
0.000000001
 43
0.00000001
 40
0.0
 40
0.0
 40
0.0
 40
0.0
 40
0.0904461315613229
 40
0.1501080713997504
 40
0.1998901544447313
 40
0.2576899743209994
 40
0.3202237097440856
 40
0.3847282343425102
 40
0.4467467828216773
 40
0.5041711732294877
 40
0.6096762068323338
 40
0.707834316697152
 40
0.7373763156498427
 40
0.7645913598423383
 40
0.7986380060032405
 40
0.8808095298670278
 40
1.0
 40
1.0
 40
1.0
 40
1.0
 10
58.16921123193308
 20
3.422115944268886
 30
0.0
 10
57.90670296288462
 20
3.400855973310852
 30
0.0
 10
57.47103358362946
 20
3.365572062507422
 30
0.0
 10
56.88451596310632
 20
3.332790382682418
 30
0.0
 10
56.39069503341236
 20
3.311417969177195
 30
0.0
 10
55.89413857965783
 20
3.29681751361679
 30
0.0
 10
55.35457882710267
 20
3.289361044798619
 30
0.0
 10
54.80290655942844
 20
3.290735864004688
 30
0.0
 10
54.26460054305927
 20
3.300852838846189
 30
0.0
 10
53.5967341466288
 20
3.323644761949077
 30
0.0
 10
52.84308244729136
 20
3.365390680417594
 30
0.0
 10
52.16745568894176
 20
3.419717918243349
 30
0.0
 10
51.71496866312606
 20
3.463004961283005
 30
0.0
 10
51.4499970701387
 20
3.49008052292128
 30
0.0
 10
51.0317049144598
 20
3.535864421645749
 30
0.0
 10
50.3453177831466
 20
3.619376447403792
 30
0.0
 10
49.7563779818331
 20
3.708121615505914
 30
0.0
 10
49.40777191965979
 20
3.760651778215227
 30
0.0
  0
LINE
  5
A4
330
1F
100
AcDbEntity
  8
0
  6
Continuous
 62
   131
370
    15
100
AcDbLine
 10
8.479993814073097
 20
5.000000000000005
 30
0.0
 11
-89.00000000000003
 21
4.999999999999999
 31
0.0
  0
LINE
  5
A5
330
1F
100
AcDbEntity
  8
0
  6
Continuous
 62
   131
370
    15
100
AcDbLine
 10
-89.00000000000003
 20
-5.000000000000001
 30
0.0
 11
8.479993814073097
 21
-4.999999999999995
 31
0.0
  0
LINE
  5
A6
330
1F
100
AcDbEntity
  8
0
  6
Continuous
 62
   131
370
    15
100
AcDbLine
 10
-89.00000000000003
 20
4.999999999999992
 30
0.0
 11
-90.00000000000003
 21
3.999999999999993
 31
0.0
  0
LINE
  5
A7
330
1F
100
AcDbEntity
  8
0
  6
Continuous
 62
   131
370
    15
100
AcDbLine
 10
-90.00000000000003
 20
-3.999999999999996
 30
0.0
 11
-89.00000000000003
 21
-4.999999999999994
 31
0.0
  0
SPLINE
  5
A8
330
1F
100
AcDbEntity
  8
0
  6
Continuous
 62
     1
370
    15
100
AcDbSpline
210
0.0
220
0.0
230
1.0
 70
     8
 71
     3
 72
    22
 73
    18
 74
     0
 42
0.000000001
 43
0.00000001
 40
0.0
 40
0.0
 40
0.0
 40
0.0
 40
0.0183727747531614
 40
0.0870312860101407
 40
0.155702522025134
 40
0.2243887195555466
 40
0.2930854229785284
 40
0.3617881486599884
 40
0.4304923968784684
 40
0.4991936638417991
 40
0.567887453727267
 40
0.6365692906757698
 40
0.7092144562145672
 40
0.7818829146170312
 40
0.8545825981099625
 40
0.9272946181838366
 40
1.0
 40
1.0
 40
1.0
 40
1.0
 10
41.25360039291976
 20
-3.938895159441098
 30
0.0
 10
41.06220773588853
 20
-4.013099148118992
 30
0.0
 10
40.15558642810484
 20
-4.364601229240835
 30
0.0
 10
38.53374014043687
 20
-4.747610089105293
 30
0.0
 10
36.38764330406703
 20
-5.032207291926269
 30
0.0
 10
34.24106835701682
 20
-4.990999343326402
 30
0.0
 10
32.09409619244901
 20
-4.649577739276897
 30
0.0
 10
29.94689933047258
 20
-4.022580970744454
 30
0.0
 10
27.79964503406388
 20
-3.150000386459578
 30
0.0
 10
25.65250298984946
 20
-2.084766173159756
 30
0.0
 10
23.50563939120727
 20
-0.8921504801487573
 30
0.0
 10
21.31777179672702
 20
0.3789700538385533
 30
0.0
 10
19.08858227182444
 20
1.651291891819645
 30
0.0
 10
16.81735546237893
 20
2.835766535396947
 30
0.0
 10
14.54520545247752
 20
3.819831569272308
 30
0.0
 10
12.27259141106021
 20
4.566726616325174
 30
0.0
 10
10.75750741598645
 20
4.796325729786114
 30
0.0
 10
9.999999999998561
 20
4.911120045953675
 30
0.0
  0
SPLINE
  5
A9
330
1F
100
AcDbEntity
  8
0
  6
Continuous
 62
     1
370
    15
100
AcDbSpline
210
0.0
220
0.0
230
1.0
 70
     8
 71
     3
 72
    15
 73
    11
 74
     0
 42
0.000000001
 43
0.00000001
 40
0.0
 40
0.0
 40
0.0
 40
0.0
 40
0.0591593261025401
 40
0.2015831428984522
 40
0.3441730703062121
 40
0.4867021669785824
 40
0.629116956023078
 40
0.7717018311563751
 40
0.914243439634106
 40
1.0
 40
1.0
 40
1.0
 40
1.0
 10
37.88468760323943
 20
-4.115064329181306
 30
0.0
 10
37.52822960657156
 20
-4.161716127734486
 30
0.0
 10
36.31361260510258
 20
-4.320680348488379
 30
0.0
 10
34.24032684729465
 20
-4.200670099821488
 30
0.0
 10
31.66385622509796
 20
-3.764588363737257
 30
0.0
 10
29.08778016710664
 20
-2.976347855844835
 30
0.0
 10
26.51232037819809
 20
-1.930443854949585
 30
0.0
 10
23.93594046686124
 20
-0.7187185308238969
 30
0.0
 10
21.70103517730603
 20
0.3994043192283878
 30
0.0
 10
20.3258927684288
 20
1.044282543159773
 30
0.0
 10
19.80934248860875
 20
1.286520746905955
 30
0.0
  0
SPLINE
  5
AA
330
1F
100
AcDbEntity
  8
0
  6
Continuous
 62
     1
370
    15
100
AcDbSpline
210
0.0
220
0.0
230
1.0
 70
     8
 71
     3
 72
    19
 73
    15
 74
     0
 42
0.000000001
 43
0.00000001
 40
0.0
 40
0.0
 40
0.0
 40
0.0
 40
0.0878519313366558
 40
0.1757255059072066
 40
0.2636150435335355
 40
0.3515148215258935
 40
0.4394190898587253
 40
0.5273220865040028
 40
0.6152180528338419
 40
0.7031012490034872
 40
0.790965969225937
 40
0.8788118681616861
 40
0.9666740479311734
 40
1.0
 40
1.0
 40
1.0
 40
1.0
 10
60.00000000000001
 20
-4.74470434615949
 30
0.0
 10
59.28475509911647
 20
-4.586206155545868
 30
0.0
 10
57.85408908935442
 20
-4.26917072664649
 30
0.0
 10
55.70773072221125
 20
-3.455024505415827
 30
0.0
 10
53.56091440785374
 20
-2.450446200715641
 30
0.0
 10
51.41379562064797
 20
-1.290442182136918
 30
0.0
 10
49.26654596213879
 20
-0.0529895048627118
 30
0.0
 10
47.11933351176594
 20
1.187995250629708
 30
0.0
 10
44.97232648002712
 20
2.356582987778808
 30
0.0
 10
42.82569545968558
 20
3.37967187250926
 30
0.0
 10
40.67955474189849
 20
4.201373236049593
 30
0.0
 10
38.53373098958889
 20
4.746768321647336
 30
0.0
 10
36.83183200613396
 20
5.007135122109414
 30
0.0
 10
35.84509960625662
 20
4.973220598620278
 30
0.0
 10
35.5737545812591
 20
4.963894324115578
 30
0.0
  0
SPLINE
  5
AB
330
1F
100
AcDbEntity
  8
0
  6
Continuous
 62
     1
370
    15
100
AcDbSpline
210
0.0
220
0.0
230
1.0
 70
     8
 71
     3
 72
     9
 73
     5
 74
     0
 42
0.000000001
 43
0.00000001
 40
0.0
 40
0.0
 40
0.0
 40
0.0
 40
0.4414994033654478
 40
1.0
 40
1.0
 40
1.0
 40
1.0
 10
14.06902736562374
 20
-3.930992676577954
 30
0.0
 10
13.47019447104452
 20
-4.138456792349541
 30
0.0
 10
12.11383274096186
 20
-4.608364824365299
 30
0.0
 10
10.75750811360661
 20
-4.802625399075466
 30
0.0
 10
9.999999999998561
 20
-4.911120045953666
 30
0.0
  0
SPLINE
  5
AC
330
1F
100
AcDbEntity
  8
0
  6
Continuous
 62
   131
370
    15
100
AcDbSpline
210
0.0
220
0.0
230
1.0
 70
    24
 71
     3
 72
     8
 73
     4
 74
     0
 42
0.000000001
 43
0.00000001
 40
0.0
 40
0.0
 40
0.0
 40
0.0
 40
1.0
 40
1.0
 40
1.0
 40
1.0
 10
9.999999999999986
 20
-4.214946505395343
 30
0.0
 10
9.999999999999986
 20
-4.456226518910895
 30
0.0
 10
9.999999999999986
 20
-4.68981673038254
 30
0.0
 10
9.999999999999986
 20
-4.911120045945466
 30
0.0
  0
SPLINE
  5
AD
330
1F
100
AcDbEntity
  8
0
  6
Continuous
 62
     1
370
    15
100
AcDbSpline
210
0.0
220
0.0
230
1.0
 70
     8
 71
     3
 72
    13
 73
     9
 74
     0
 42
0.000000001
 43
0.00000001
 40
0.0
 40
0.0
 40
0.0
 40
0.0
 40
0.1981610386283459
 40
0.3965042621022336
 40
0.5946896652673065
 40
0.7928272812333577
 40
0.9911687472685896
 40
1.0
 40
1.0
 40
1.0
 40
1.0
 10
60.00000000000001
 20
-3.94486132184107
 30
0.0
 10
59.14168419734599
 20
-3.754150474058356
 30
0.0
 10
57.42426347560512
 20
-3.372553443186923
 30
0.0
 10
54.84775372076809
 20
-2.41314190771718
 30
0.0
 10
52.27191012276437
 20
-1.261571800486104
 30
0.0
 10
49.69630737129774
 20
-0.0084261320789765
 30
0.0
 10
47.94018857970543
 20
0.885594565016772
 30
0.0
 10
47.04277231011397
 20
1.280514982281512
 30
0.0
 10
47.00451770820875
 20
1.297349447912034
 30
0.0
  0
LINE
  5
AE
330
1F
100
AcDbEntity
  8
0
  6
Continuous
 62
     1
370
    15
100
AcDbLine
 10
10.71778368557842
 20
-4.124770721430453
 30
0.0
 11
9.999999999999986
 21
-4.214946505395343
 31
0.0
  0
LINE
  5
AF
330
1F
100
AcDbEntity
  8
0
  6
Continuous
 62
   131
370
    15
100
AcDbLine
 10
59.99999999999994
 20
-4.74470434615948
 30
0.0
 11
59.99999999999999
 21
-3.944861321841069
 31
0.0
  0
SPLINE
  5
B0
330
1F
100
AcDbEntity
  8
0
  6
Continuous
 62
     1
370
    15
100
AcDbSpline
210
0.0
220
0.0
230
1.0
 70
     8
 71
     3
 72
    18
 73
    14
 74
     0
 42
0.000000001
 43
0.00000001
 40
0.0
 40
0.0
 40
0.0
 40
0.0
 40
0.0981593055861312
 40
0.1963275734363888
 40
0.2944791854655356
 40
0.3925886401434019
 40
0.4906666480531499
 40
0.5833937276867331
 40
0.6761369447573177
 40
0.7688902564475403
 40
0.8616475929877274
 40
0.9544028738490521
 40
1.0
 40
1.0
 40
1.0
 40
1.0
 10
9.999999999999986
 20
4.460892535609198
 30
0.0
 10
10.75750774017342
 20
4.233676646191914
 30
0.0
 10
12.2725923834428
 20
3.779224121807011
 30
0.0
 10
14.5452073953741
 20
2.757240412891101
 30
0.0
 10
16.81735836847099
 20
1.5685989936161
 30
0.0
 10
19.08858614111799
 20
0.2668038253324755
 30
0.0
 10
21.31777621379516
 20
-1.027757064079681
 30
0.0
 10
23.50564400345805
 20
-2.230829458584203
 30
0.0
 10
25.6525071814033
 20
-3.273722277024969
 30
0.0
 10
27.79964955453732
 20
-4.120843819709044
 30
0.0
 10
29.94690136155021
 20
-4.69987226510048
 30
0.0
 10
31.73027080861535
 20
-4.992278441730729
 30
0.0
 10
32.79784568168554
 20
-4.969245425643876
 30
0.0
 10
33.14968882785246
 20
-4.961654380696925
 30
0.0
  0
SPLINE
  5
B1
330
1F
100
AcDbEntity
  8
0
  6
Continuous
 62
     1
370
    15
100
AcDbSpline
210
0.0
220
0.0
230
1.0
 70
     8
 71
     3
 72
    11
 73
     7
 74
     0
 42
0.000000001
 43
0.00000001
 40
0.0
 40
0.0
 40
0.0
 40
0.0
 40
0.0596905599268123
 40
0.3731907334199182
 40
0.6866339671110586
 40
1.0
 40
1.0
 40
1.0
 40
1.0
 10
53.15221731067344
 20
3.352355364550782
 30
0.0
 10
53.28847502740137
 20
3.415178161228385
 30
0.0
 10
54.1403704913101
 20
3.807951919697913
 30
0.0
 10
55.7077290252204
 20
4.326240521143655
 30
0.0
 10
57.8540899170765
 20
4.858501038283534
 30
0.0
 10
59.28475537487329
 20
4.950020154169461
 30
0.0
 10
59.9999999999997
 20
5.000000000000187
 30
0.0
  0
LINE
  5
B2
330
1F
100
AcDbEntity
  8
0
  6
Continuous
 62
   131
370
    15
100
AcDbLine
 10
9.999999999999986
 20
4.460892535609197
 30
0.0
 11
9.999999999999986
 21
4.911120045946602
 31
0.0
  0
SPLINE
  5
B3
330
1F
100
AcDbEntity
  8
0
  6
Continuous
 62
     1
370
    15
100
AcDbSpline
210
0.0
220
0.0
230
1.0
 70
     8
 71
     3
 72
    23
 73
    19
 74
     0
 42
0.000000001
 43
0.00000001
 40
0.0
 40
0.0
 40
0.0
 40
0.0
 40
0.0546476065950274
 40
0.1176858838126514
 40
0.1807227639822485
 40
0.2437541184859656
 40
0.306775833466721
 40
0.3697838207686543
 40
0.4327801329634823
 40
0.4957899424717743
 40
0.5588130014295967
 40
0.6218452181014651
 40
0.684882476328525
 40
0.747920646482266
 40
0.8109555964959427
 40
0.8739832029100715
 40
0.9369993618682464
 40
1.0
 40
1.0
 40
1.0
 40
1.0
 10
25.93815576685471
 20
3.352166135916526
 30
0.0
 10
26.55864285041929
 20
3.607225040411878
 30
0.0
 10
27.89488747984603
 20
4.156504953478619
 30
0.0
 10
29.94690372682049
 20
4.706594403929607
 30
0.0
 10
32.09409964373449
 20
5.014918114055917
 30
0.0
 10
34.24107120996262
 20
5.011174667234849
 30
0.0
 10
36.38764784700976
 20
4.702582199306431
 30
0.0
 10
38.53373686929748
 20
4.106208508945008
 30
0.0
 10
40.67955630065374
 20
3.258861949991343
 30
0.0
 10
42.82569784088798
 20
2.212413676810724
 30
0.0
 10
44.97232830538762
 20
1.03066180304459
 30
0.0
 10
47.11933514799668
 20
-0.2141355261836325
 30
0.0
 10
49.26654730839292
 20
-1.445994934106509
 30
0.0
 10
51.41379670222906
 20
-2.589035699465793
 30
0.0
 10
53.56091521710847
 20
-3.575346417997704
 30
0.0
 10
55.70773126117557
 20
-4.337170134712315
 30
0.0
 10
57.85408935829065
 20
-4.85576962678005
 30
0.0
 10
59.28475518862664
 20
-4.949109758429934
 30
0.0
 10
60.0
 20
-4.999999999999808
 30
0.0
  0
LINE
  5
B4
330
1F
100
AcDbEntity
  8
0
  6
Continuous
 62
   131
370
    15
100
AcDbLine
 10
60.0
 20
-4.999999999999808
 30
0.0
 11
59.99999999999994
 21
-4.74470434615948
 31
0.0
  0
SPLINE
  5
B5
330
1F
100
AcDbEntity
  8
0
  6
Continuous
 62
     1
370
    15
100
AcDbSpline
210
0.0
220
0.0
230
1.0
 70
     8
 71
     3
 72
    15
 73
    11
 74
     0
 42
0.000000001
 43
0.00000001
 40
0.0
 40
0.0
 40
0.0
 40
0.0
 40
0.0381877539521143
 40
0.1951042501994888
 40
0.3431414208676435
 40
0.4912728158569868
 40
0.6393442828070638
 40
0.7872805107101997
 40
0.9353578785284336
 40
1.0
 40
1.0
 40
1.0
 40
1.0
 10
47.56815338328016
 20
-0.4668067732937501
 30
0.0
 10
47.35627501706168
 20
-0.383754462674659
 30
0.0
 10
46.27377171439602
 20
0.0405663499866905
 30
0.0
 10
44.37029776486028
 20
0.8264490580756865
 30
0.0
 10
41.85681408520738
 20
1.775369256171615
 30
0.0
 10
39.3921609098243
 20
2.565789969922277
 30
0.0
 10
36.92817144344493
 20
3.153183171669849
 30
0.0
 10
34.46492011110411
 20
3.4717338741422
 30
0.0
 10
32.46405652484053
 20
3.551637763674987
 30
0.0
 10
31.28391124969522
 20
3.423857652151685
 30
0.0
 10
30.92528358241032
 20
3.385027277378236
 30
0.0
  0
SPLINE
  5
B6
330
1F
100
AcDbEntity
  8
0
  6
Continuous
 62
   131
370
    15
100
AcDbSpline
210
0.0
220
0.0
230
1.0
 70
    24
 71
     3
 72
    10
 73
     6
 74
     0
 42
0.000000001
 43
0.00000001
 40
0.0
 40
0.0
 40
0.0
 40
0.0
 40
0.5
 40
0.5
 40
1.0
 40
1.0
 40
1.0
 40
1.0
 10
59.99999999999999
 20
3.500000000000011
 30
0.0
 10
60.00000000000001
 20
3.71216128403658
 30
0.0
 10
60.00000000000001
 20
3.958712344335597
 30
0.0
 10
60.00000000000001
 20
4.47597580480429
 30
0.0
 10
60.00000000000001
 20
4.745367179007378
 30
0.0
 10
59.9999999999997
 20
5.000000000000187
 30
0.0
  0
LINE
  5
B7
330
1F
100
AcDbEntity
  8
0
  6
Continuous
 62
     1
370
    15
100
AcDbLine
 10
59.99999999999999
 20
3.50000000000001
 30
0.0
 11
58.16079533395722
 21
3.38868785823178
 31
0.0
  0
SPLINE
  5
B8
330
1F
100
AcDbEntity
  8
0
  6
Continuous
 62
     1
370
    15
100
AcDbSpline
210
0.0
220
0.0
230
1.0
 70
     8
 71
     3
 72
    12
 73
     8
 74
     0
 42
0.000000001
 43
0.00000001
 40
0.0
 40
0.0
 40
0.0
 40
0.0
 40
0.0660273565233795
 40
0.2994292331356966
 40
0.5328134185339303
 40
0.7664000695477988
 40
1.0
 40
1.0
 40
1.0
 40
1.0
 10
20.36410447640496
 20
-0.4684431908571458
 30
0.0
 10
20.13598305350102
 20
-0.3787134329344441
 30
0.0
 10
19.10146908355636
 20
0.0282044571484756
 30
0.0
 10
17.26092310252391
 20
0.7861809968652438
 30
0.0
 10
14.84151888468
 20
1.703318139805218
 30
0.0
 10
12.42110162746573
 20
2.508500181896715
 30
0.0
 10
10.80704916857712
 20
2.872831556767624
 30
0.0
 10
9.999999999999986
 20
3.055002422130075
 30
0.0
  0
SPLINE
  5
B9
330
1F
100
AcDbEntity
  8
0
  6
Continuous
 62
   131
370
    15
100
AcDbSpline
210
0.0
220
0.0
230
1.0
 70
    24
 71
     3
 72
    10
 73
     6
 74
     0
 42
0.000000001
 43
0.00000001
 40
0.0
 40
0.0
 40
0.0
 40
0.0
 40
0.4999999999999996
 40
0.4999999999999996
 40
1.0
 40
1.0
 40
1.0
 40
1.0
 10
9.999999999999986
 20
4.460892535609198
 30
0.0
 10
9.999999999999986
 20
4.273588612271418
 30
0.0
 10
9.999999999999986
 20
4.04586441875291
 30
0.0
 10
9.999999999999986
 20
3.558332478014814
 30
0.0
 10
9.999999999999986
 20
3.299961739335501
 30
0.0
 10
9.999999999999986
 20
3.055002422130076
 30
0.0
  0
SPLINE
  5
BA
330
1F
100
AcDbEntity
  8
0
  6
Continuous
 62
     1
370
    15
100
AcDbSpline
210
0.0
220
0.0
230
1.0
 70
     8
 71
     3
 72
     8
 73
     4
 74
     0
 42
0.000000001
 43
0.00000001
 40
0.0
 40
0.0
 40
0.0
 40
0.0
 40
1.0
 40
1.0
 40
1.0
 40
1.0
 10
56.90623807966212
 20
1.398590784794528
 30
0.0
 10
56.68214042923199
 20
1.664076176022792
 30
0.0
 10
56.48755699161192
 20
1.91788240449736
 30
0.0
 10
56.33398001936777
 20
2.153947629457782
 30
0.0
  0
LINE
  5
BB
330
1F
100
AcDbEntity
  8
0
  6
Continuous
 62
     1
370
    15
100
AcDbLine
 10
56.33398001936777
 20
2.153947629457785
 30
0.0
 11
59.99999999999999
 21
0.0000000000000111
 31
0.0
  0
LINE
  5
BC
330
1F
100
AcDbEntity
  8
0
  6
Continuous
 62
   131
370
    15
100
AcDbLine
 10
59.99999999999999
 20
0.0000000000000111
 30
0.0
 11
59.99999999999999
 21
-1.336214730148213
 31
0.0
  0
SPLINE
  5
BD
330
1F
100
AcDbEntity
  8
0
  6
Continuous
 62
     1
370
    15
100
AcDbSpline
210
0.0
220
0.0
230
1.0
 70
     8
 71
     3
 72
    12
 73
     8
 74
     0
 42
0.000000001
 43
0.00000001
 40
0.0
 40
0.0
 40
0.0
 40
0.0
 40
0.5
 40
0.5
 40
0.75
 40
0.75
 40
1.0
 40
1.0
 40
1.0
 40
1.0
 10
60.00000000000001
 20
-1.336214730148218
 30
0.0
 10
59.46446038354475
 20
-0.9151902182568659
 30
0.0
 10
58.93786580922747
 20
-0.4769025407149404
 30
0.0
 10
58.16173639957132
 20
0.20708932957468
 30
0.0
 10
57.90536026588239
 20
0.4395904021068335
 30
0.0
 10
57.39784408881693
 20
0.9146977532763602
 30
0.0
 10
57.14808896088164
 20
1.156071134681107
 30
0.0
 10
56.90623807966235
 20
1.398590784794262
 30
0.0
  0
SPLINE
  5
BE
330
1F
100
AcDbEntity
  8
0
  6
Continuous
 62
     1
370
    15
100
AcDbSpline
210
0.0
220
0.0
230
1.0
 70
     8
 71
     3
 72
    20
 73
    16
 74
     0
 42
0.000000001
 43
0.00000001
 40
0.0
 40
0.0
 40
0.0
 40
0.0
 40
0.0734110176439942
 40
0.1558873866580746
 40
0.2383256897190196
 40
0.3208568748422634
 40
0.4033420577228034
 40
0.4857735335341409
 40
0.5683024944718906
 40
0.6507957562537432
 40
0.7332219339595247
 40
0.8157479297883168
 40
0.8982485344081537
 40
0.9709586359046466
 40
1.0
 40
1.0
 40
1.0
 40
1.0
 10
49.4119713155324
 20
-3.750882469748883
 30
0.0
 10
48.64774368853156
 20
-3.849384208893654
 30
0.0
 10
47.02491578873595
 20
-4.05855143187125
 30
0.0
 10
44.54384598919601
 20
-3.962434434648835
 30
0.0
 10
41.96827292284848
 20
-3.541097180229596
 30
0.0
 10
39.39182866106912
 20
-2.802293080864834
 30
0.0
 10
36.81582650396111
 20
-1.819051864546631
 30
0.0
 10
34.24028432096943
 20
-0.6745150638397744
 30
0.0
 10
31.66387308042291
 20
0.5274239495314487
 30
0.0
 10
29.08780030793162
 20
1.684091173809127
 30
0.0
 10
26.5122959119738
 20
2.692285534496039
 30
0.0
 10
23.93594722521729
 20
3.4681203682385
 30
0.0
 10
21.46081119585593
 20
3.902019655360382
 30
0.0
 10
19.54333891961461
 20
4.049954505397499
 30
0.0
 10
18.48425514094312
 20
3.964625178639451
 30
0.0
 10
18.18197706126162
 20
3.940270934383824
 30
0.0
  0
SPLINE
  5
BF
330
1F
100
AcDbEntity
  8
0
  6
Continuous
 62
   131
370
    15
100
AcDbSpline
210
0.0
220
0.0
230
1.0
 70
    24
 71
     3
 72
    14
 73
    10
 74
     0
 42
0.000000001
 43
0.00000001
 40
0.0
 40
0.0
 40
0.0
 40
0.0
 40
0.25
 40
0.25
 40
0.5
 40
0.5
 40
0.75
 40
0.75
 40
1.0
 40
1.0
 40
1.0
 40
1.0
 10
9.999999999999986
 20
-1.951898358270219
 30
0.0
 10
9.999999999999986
 20
-2.264476756066668
 30
0.0
 10
9.999999999999986
 20
-2.560464782699135
 30
0.0
 10
9.999999999999986
 20
-3.093718374005083
 30
0.0
 10
9.999999999999986
 20
-3.330776843616357
 30
0.0
 10
9.999999999999986
 20
-3.726300577216478
 30
0.0
 10
9.999999999999986
 20
-3.884651625957619
 30
0.0
 10
9.999999999999986
 20
-4.114158197362564
 30
0.0
 10
9.999999999999986
 20
-4.185345808058973
 30
0.0
 10
9.999999999999986
 20
-4.214946505395342
 30
0.0
  0
SPLINE
  5
C0
330
1F
100
AcDbEntity
  8
0
  6
Continuous
 62
     1
370
    15
100
AcDbSpline
210
0.0
220
0.0
230
1.0
 70
     8
 71
     3
 72
    12
 73
     8
 74
     0
 42
0.000000001
 43
0.00000001
 40
0.0
 40
0.0
 40
0.0
 40
0.0
 40
0.2124606332181734
 40
0.4247242175253479
 40
0.6371569688210775
 40
0.8496891436199508
 40
1.0
 40
1.0
 40
1.0
 40
1.0
 10
56.90623807966202
 20
1.398590784794604
 30
0.0
 10
56.09045973992731
 20
1.740485347844332
 30
0.0
 10
54.45965966289776
 20
2.423957380135374
 30
0.0
 10
52.01376400902773
 20
3.231413122689951
 30
0.0
 10
49.56709547735178
 20
3.777537110641362
 30
0.0
 10
47.35817785960533
 20
4.040228936221686
 30
0.0
 10
45.96500706164461
 20
3.965214588344897
 30
0.0
 10
45.38787403791049
 20
3.934139247491538
 30
0.0
  0
SPLINE
  5
C1
330
1F
100
AcDbEntity
  8
0
  6
Continuous
 62
     1
370
    15
100
AcDbSpline
210
0.0
220
0.0
230
1.0
 70
     8
 71
     3
 72
    13
 73
     9
 74
     0
 42
0.000000001
 43
0.00000001
 40
0.0
 40
0.0
 40
0.0
 40
0.0
 40
0.0704120490742746
 40
0.256218614063025
 40
0.4420882889465952
 40
0.6280425699206224
 40
0.8140302785173439
 40
1.0
 40
1.0
 40
1.0
 40
1.0
 10
22.21962004036698
 20
-3.721118576899668
 30
0.0
 10
21.93276059945282
 20
-3.776731181020693
 30
0.0
 10
20.88892322576143
 20
-3.979096891714527
 30
0.0
 10
19.0886214664512
 20
-4.033654362932284
 30
0.0
 10
16.81731065195006
 20
-3.898845070306842
 30
0.0
 10
14.54519943782972
 20
-3.475530506996331
 30
0.0
 10
12.27259911540621
 20
-2.829110117293491
 30
0.0
 10
10.75750861622448
 20
-2.244292851081939
 30
0.0
 10
9.999999999999986
 20
-1.951898358270219
 30
0.0
  0
LINE
  5
C2
330
1F
100
AcDbEntity
  8
0
  6
Continuous
 62
   131
370
    15
100
AcDbLine
 10
59.99999999999999
 20
-3.944861321841068
 30
0.0
 11
60.00000000000001
 21
-1.336214730148217
 31
0.0
  0
SPLINE
  5
C3
330
1F
100
AcDbEntity
  8
0
  6
Continuous
 62
   131
370
    15
100
AcDbSpline
210
0.0
220
0.0
230
1.0
 70
    24
 71
     3
 72
    14
 73
    10
 74
     0
 42
0.000000001
 43
0.00000001
 40
0.0
 40
0.0
 40
0.0
 40
0.0
 40
0.25
 40
0.25
 40
0.5
 40
0.5
 40
0.75
 40
0.75
 40
1.0
 40
1.0
 40
1.0
 40
1.0
 10
9.999999999999986
 20
3.055002422130075
 30
0.0
 10
9.999999999999986
 20
2.761515152266401
 30
0.0
 10
9.99999999999999
 20
2.41794120506609
 30
0.0
 10
9.99999999999999
 20
1.650190934944771
 30
0.0
 10
9.999999999999993
 20
1.226231109411253
 30
0.0
 10
9.999999999999993
 20
0.336360486226533
 30
0.0
 10
9.999999999999993
 20
-0.1290761511527309
 30
0.0
 10
9.99999999999999
 20
-1.054866475832273
 30
0.0
 10
9.99999999999999
 20
-1.514781689960987
 30
0.0
 10
9.999999999999986
 20
-1.951898358270219
 30
0.0
  0
SPLINE
  5
C4
330
1F
100
AcDbEntity
  8
0
  6
Continuous
 62
     1
370
    15
100
AcDbSpline
210
0.0
220
0.0
230
1.0
 70
     8
 71
     3
 72
    10
 73
     6
 74
     0
 42
0.000000001
 43
0.00000001
 40
0.0
 40
0.0
 40
0.0
 40
0.0
 40
0.5
 40
0.5
 40
1.0
 40
1.0
 40
1.0
 40
1.0
 10
59.99999999999999
 20
3.50000000000001
 30
0.0
 10
59.3777848682106
 20
3.331216419726824
 30
0.0
 10
58.76026279451116
 20
3.137623633046196
 30
0.0
 10
57.53581778859241
 20
2.694407155383059
 30
0.0
 10
56.92880705278055
 20
2.445160530077928
 30
0.0
 10
56.33398001936776
 20
2.153947629457782
 30
0.0
  0
LINE
  5
C5
330
1F
100
AcDbEntity
  8
0
  6
Continuous
 62
   131
370
    15
100
AcDbLine
 10
59.99999999999999
 20
0.0000000000000111
 30
0.0
 11
59.99999999999999
 21
3.50000000000001
 31
0.0
  0
SPLINE
  5
C6
330
1F
100
AcDbEntity
  8
0
  6
Continuous
 62
   131
370
    15
100
AcDbSpline
210
0.0
220
0.0
230
1.0
 70
     8
 71
     3
 72
    10
 73
     6
 74
     0
 42
0.000000001
 43
0.00000001
 40
0.0
 40
0.0
 40
0.0
 40
0.0
 40
0.5
 40
0.5
 40
1.0
 40
1.0
 40
1.0
 40
1.0
 10
9.999999999999986
 20
-4.91112004595351
 30
0.0
 10
9.746191940168353
 20
-4.938605102971539
 30
0.0
 10
9.494478322279171
 20
-4.959711293141607
 30
0.0
 10
8.98864067221713
 20
-4.989231224164825
 30
0.0
 10
8.734294530672495
 20
-4.99762263222729
 30
0.0
 10
8.479987329272717
 20
-4.999561979277974
 30
0.0
  0
LINE
  5
C7
330
1F
100
AcDbEntity
  8
0
  6
Continuous
 62
   131
370
    15
100
AcDbLine
 10
8.479993814073097
 20
4.999564811047353
 30
0.0
 11
8.479993814073097
 21
5.000000000000005
 31
0.0
  0
SPLINE
  5
C8
330
1F
100
AcDbEntity
  8
0
  6
Continuous
 62
   131
370
    15
100
AcDbSpline
210
0.0
220
0.0
230
1.0
 70
     8
 71
     3
 72
    10
 73
     6
 74
     0
 42
0.000000001
 43
0.00000001
 40
0.0
 40
0.0
 40
0.0
 40
0.0
 40
0.5
 40
0.5
 40
1.0
 40
1.0
 40
1.0
 40
1.0
 10
9.999999999999986
 20
4.91112004595352
 30
0.0
 10
9.746191940168353
 20
4.938605102971549
 30
0.0
 10
9.494478322279171
 20
4.959711293141618
 30
0.0
 10
8.98864067221713
 20
4.989231224164835
 30
0.0
 10
8.734294530672491
 20
4.997622632227301
 30
0.0
 10
8.479987329272717
 20
4.999561979277985
 30
0.0
  0
SPLINE
  5
C9
330
1F
100
AcDbEntity
  8
0
  6
Continuous
 62
   131
370
    15
100
AcDbSpline
210
0.0
220
0.0
230
1.0
 70
     8
 71
     3
 72
    10
 73
     6
 74
     0
 42
0.000000001
 43
0.00000001
 40
0.0
 40
0.0
 40
0.0
 40
0.0
 40
0.5
 40
0.5
 40
1.0
 40
1.0
 40
1.0
 40
1.0
 10
9.999999999999986
 20
4.460892535609194
 30
0.0
 10
9.746193018847071
 20
4.527028127521437
 30
0.0
 10
9.49448045996893
 20
4.587256324332473
 30
0.0
 10
8.98864498392417
 20
4.695998123925423
 30
0.0
 10
8.734299935364621
 20
4.74450291255029
 30
0.0
 10
8.479993814073097
 20
4.786828361164408
 30
0.0
  0
LINE
  5
CA
330
1F
100
AcDbEntity
  8
0
  6
Continuous
 62
   131
370
    15
100
AcDbLine
 10
8.479993814073097
 20
-4.999999999999995
 30
0.0
 11
8.479993814073097
 21
4.786827399025054
 31
0.0
  0
LINE
  5
CB
330
1F
100
AcDbEntity
  8
0
  6
Continuous
 62
   131
370
    15
100
AcDbLine
 10
-89.00000000000003
 20
4.999999999999992
 30
0.0
 11
-89.00000000000003
 21
-5.000000000000001
 31
0.0
  0
LINE
  5
CC
330
1F
100
AcDbEntity
  8
0
  6
Continuous
 62
   131
370
    15
100
AcDbLine
 10
-90.00000000000003
 20
3.999999999999993
 30
0.0
 11
-90.00000000000003
 21
-3.999999999999996
 31
0.0
  0
SPLINE
  5
CD
330
1F
100
AcDbEntity
  8
0
  6
Continuous
 62
   131
370
    15
100
AcDbSpline
210
0.0
220
0.0
230
1.0
 70
    24
 71
     3
 72
    14
 73
    10
 74
     0
 42
0.000000001
 43
0.00000001
 40
0.0
 40
0.0
 40
0.0
 40
0.0
 40
0.25
 40
0.25
 40
0.5
 40
0.5
 40
0.75
 40
0.75
 40
1.0
 40
1.0
 40
1.0
 40
1.0
 10
9.999999999999986
 20
3.055002422130075
 30
0.0
 10
9.999999999999986
 20
2.761515152266401
 30
0.0
 10
9.99999999999999
 20
2.41794120506609
 30
0.0
 10
9.99999999999999
 20
1.650190934944771
 30
0.0
 10
9.999999999999993
 20
1.226231109411253
 30
0.0
 10
9.999999999999993
 20
0.336360486226533
 30
0.0
 10
9.999999999999993
 20
-0.1290761511527309
 30
0.0
 10
9.99999999999999
 20
-1.054866475832273
 30
0.0
 10
9.99999999999999
 20
-1.514781689960987
 30
0.0
 10
9.999999999999986
 20
-1.951898358270219
 30
0.0
  0
SPLINE
  5
CE
330
1F
100
AcDbEntity
  8
0
  6
Continuous
 62
   131
370
    15
100
AcDbSpline
210
0.0
220
0.0
230
1.0
 70
     8
 71
     3
 72
    10
 73
     6
 74
     0
 42
0.000000001
 43
0.00000001
 40
0.0
 40
0.0
 40
0.0
 40
0.0
 40
0.5
 40
0.5
 40
1.0
 40
1.0
 40
1.0
 40
1.0
 10
9.999999999999986
 20
-1.951898358270219
 30
0.0
 10
9.74619262506599
 20
-1.849654860757807
 30
0.0
 10
9.494479679586636
 20
-1.745187732323652
 30
0.0
 10
8.988643409897904
 20
-1.531719743488827
 30
0.0
 10
8.734297962334608
 20
-1.42267847911685
 30
0.0
 10
8.479991446740115
 20
-1.311949260356631
 30
0.0
  0
SPLINE
  5
CF
330
1F
100
AcDbEntity
  8
0
  6
Continuous
 62
   131
370
    15
100
AcDbSpline
210
0.0
220
0.0
230
1.0
 70
     8
 71
     3
 72
    10
 73
     6
 74
     0
 42
0.000000001
 43
0.00000001
 40
0.0
 40
0.0
 40
0.0
 40
0.0
 40
0.5
 40
0.5
 40
1.0
 40
1.0
 40
1.0
 40
1.0
 10
9.999999999999986
 20
3.055002422130075
 30
0.0
 10
9.746192759052175
 20
3.105017069821211
 30
0.0
 10
9.494479945116016
 20
3.150973079955016
 30
0.0
 10
8.988643945469025
 20
3.234841134704812
 30
0.0
 10
8.734298633668951
 20
3.272748458307456
 30
0.0
 10
8.479992252238214
 20
3.306387338075948
 30
0.0
  0
SPLINE
  5
D0
330
1F
100
AcDbEntity
  8
0
  6
Continuous
 62
   131
370
    15
100
AcDbSpline
210
0.0
220
0.0
230
1.0
 70
     8
 71
     3
 72
    10
 73
     6
 74
     0
 42
0.000000001
 43
0.00000001
 40
0.0
 40
0.0
 40
0.0
 40
0.0
 40
0.5
 40
0.5
 40
1.0
 40
1.0
 40
1.0
 40
1.0
 10
9.999999999999986
 20
-4.214946505395343
 30
0.0
 10
9.746191940168353
 20
-4.230898358168207
 30
0.0
 10
9.494478322279171
 20
-4.241396605867155
 30
0.0
 10
8.98864067221713
 20
-4.251534334588847
 30
0.0
 10
8.734294530672495
 20
-4.251152521070543
 30
0.0
 10
8.479987329272717
 20
-4.245292397445684
 30
0.0
  0
SPLINE
  5
D1
330
1F
100
AcDbEntity
  8
0
  6
Continuous
 62
   131
370
    15
100
AcDbSpline
210
0.0
220
0.0
230
1.0
 70
    24
 71
     3
 72
    14
 73
    10
 74
     0
 42
0.000000001
 43
0.00000001
 40
0.0
 40
0.0
 40
0.0
 40
0.0
 40
0.25
 40
0.25
 40
0.5
 40
0.5
 40
0.75
 40
0.75
 40
1.0
 40
1.0
 40
1.0
 40
1.0
 10
9.999999999999986
 20
-1.951898358270219
 30
0.0
 10
9.999999999999986
 20
-2.264476756066668
 30
0.0
 10
9.999999999999986
 20
-2.560464782699135
 30
0.0
 10
9.999999999999986
 20
-3.093718374005083
 30
0.0
 10
9.999999999999986
 20
-3.330776843616357
 30
0.0
 10
9.999999999999986
 20
-3.726300577216478
 30
0.0
 10
9.999999999999986
 20
-3.884651625957619
 30
0.0
 10
9.999999999999986
 20
-4.114158197362564
 30
0.0
 10
9.999999999999986
 20
-4.185345808058973
 30
0.0
 10
9.999999999999986
 20
-4.214946505395342
 30
0.0
  0
SPLINE
  5
D2
330
1F
100
AcDbEntity
  8
0
  6
Continuous
 62
   131
370
    15
100
AcDbSpline
210
0.0
220
0.0
230
1.0
 70
    24
 71
     3
 72
    10
 73
     6
 74
     0
 42
0.000000001
 43
0.00000001
 40
0.0
 40
0.0
 40
0.0
 40
0.0
 40
0.5
 40
0.5
 40
1.0
 40
1.0
 40
1.0
 40
1.0
 10
9.999999999999986
 20
4.460892535609195
 30
0.0
 10
9.999999999999986
 20
4.273588612271414
 30
0.0
 10
9.999999999999986
 20
4.045864418752908
 30
0.0
 10
9.999999999999986
 20
3.558332478014814
 30
0.0
 10
9.999999999999986
 20
3.299961739335498
 30
0.0
 10
9.999999999999986
 20
3.055002422130076
 30
0.0
  0
SPLINE
  5
D3
330
1F
100
AcDbEntity
  8
0
  6
Continuous
 62
   131
370
    15
100
AcDbSpline
210
0.0
220
0.0
230
1.0
 70
    24
 71
     3
 72
     8
 73
     4
 74
     0
 42
0.000000001
 43
0.00000001
 40
0.0
 40
0.0
 40
0.0
 40
0.0
 40
1.0
 40
1.0
 40
1.0
 40
1.0
 10
9.999999999999986
 20
-4.214946505395343
 30
0.0
 10
9.999999999999986
 20
-4.456226518913409
 30
0.0
 10
9.999999999999986
 20
-4.689816730387409
 30
0.0
 10
9.999999999999986
 20
-4.911120045952386
 30
0.0
  0
LINE
  5
D4
330
1F
100
AcDbEntity
  8
중심선
100
AcDbLine
 10
-93.00000000000003
 20
-0.0000000000000004
 30
0.0
 11
63.0
 21
0.0000000000000113
 31
0.0
  0
CIRCLE
  5
D5
330
1F
100
AcDbEntity
  8
외형선
100
AcDbCircle
 10
0.0000000000000104
 20
0.0
 30
0.0
 40
3.000000000000005
  0
INSERT
  5
D6
330
1F
100
AcDbEntity
  8
0
  6
Continuous
 62
     7
100
AcDbBlockReference
 66
     1
  2
블럭10
 10
-22.93944368806589
 20
-52.04609937292004
 30
0.0
  0
ATTRIB
  5
D7
330
D6
100
AcDbEntity
  8
FORMAT
 62
     2
100
AcDbText
 10
-43.79769121965843
 20
-49.97073246008785
 30
0.0
 40
4.233333333333333
  1
SEME7010050150E [ 2 FLUTE ]
 41
0.75
  7
SLDTEXTSTYLE0
 11
-43.79769121965843
 21
-52.08739912675452
 31
0.0
100
AcDbAttribute
  2
AUTOATTR0
 70
     0
 74
     1
  0
SEQEND
  5
D8
330
D6
100
AcDbEntity
  8
0
  6
Continuous
 62
     7
  0
HATCH
  5
D9
330
1F
100
AcDbEntity
  8
중심선
100
AcDbHatch
 10
0.0
 20
0.0
 30
0.0
210
0.0
220
0.0
230
1.0
  2
SOLID
 70
     1
 71
     0
 91
        1
 92
        0
 93
        4
 72
     1
 10
-17.22453438368504
 20
-35.7989250712761
 11
-20.67080962752232
 21
-35.7989250712761
 72
     1
 10
-20.67080962752232
 20
-35.7989250712761
 11
-22.79903948672635
 21
-38.3352506518487
 72
     1
 10
-22.79903948672635
 20
-38.3352506518487
 11
-19.35273115777591
 21
-38.33521122254621
 72
     1
 10
-19.35273115777591
 20
-38.33521122254621
 11
-17.22453438368504
 21
-35.7989250712761
 97
        0
 75
     0
 76
     1
 98
        1
 10
0.0
 20
0.0
  0
HATCH
  5
DA
330
1F
100
AcDbEntity
  8
중심선
100
AcDbHatch
 10
0.0
 20
0.0
 30
0.0
210
0.0
220
0.0
230
1.0
  2
SOLID
 70
     1
 71
     0
 91
        1
 92
        0
 93
        4
 72
     1
 10
-12.21177039264909
 20
-35.7989250712761
 11
-15.65804563648637
 21
-35.7989250712761
 72
     1
 10
-15.65804563648637
 20
-35.7989250712761
 11
-20.18918364484376
 21
-41.19892507127612
 72
     1
 10
-20.18918364484376
 20
-41.19892507127612
 11
-16.74290840100648
 21
-41.19892507127612
 72
     1
 10
-16.74290840100648
 20
-41.19892507127612
 11
-12.21177039264909
 21
-35.7989250712761
 97
        0
 75
     0
 76
     1
 98
        1
 10
0.0
 20
0.0
  0
HATCH
  5
DB
330
1F
100
AcDbEntity
  8
중심선
100
AcDbHatch
 10
0.0
 20
0.0
 30
0.0
210
0.0
220
0.0
230
1.0
  2
SOLID
 70
     1
 71
     0
 91
        1
 92
        0
 93
        4
 72
     1
 10
-7.199006401613195
 20
-35.79892507127613
 11
-10.64528164545031
 21
-35.7989250712761
 72
     1
 10
-10.64528164545031
 20
-35.7989250712761
 11
-17.69371854733956
 21
-44.19892507127612
 72
     1
 10
-17.69371854733956
 20
-44.19892507127612
 11
-14.24744330350228
 21
-44.19892507127612
 72
     1
 10
-14.24744330350228
 20
-44.19892507127612
 11
-7.199006401613195
 21
-35.79892507127613
 97
        0
 75
     0
 76
     1
 98
        1
 10
0.0
 20
0.0
  0
HATCH
  5
DC
330
1F
100
AcDbEntity
  8
중심선
100
AcDbHatch
 10
0.0
 20
0.0
 30
0.0
210
0.0
220
0.0
230
1.0
  2
SOLID
 70
     1
 71
     0
 91
        1
 92
        0
 93
        6
 72
     3
 10
-2.399115970600996
 20
-39.99892507132738
 11
3.960054785062284
 21
1.540850780301639E-10
 40
0.3939339440162633
 50
17.09539180608433
 51
320.0019657685079
 73
     0
 72
     1
 10
-0.7161163149004002
 20
-38.58681907591441
 11
1.589185558800638
 21
-36.65249236586649
 72
     3
 10
-2.399115970653842
 20
-39.99892507127625
 11
6.600054785286829
 21
-1.249000902703301E-13
 40
0.6363583540795982
 50
39.99873849337408
 51
368.4976242363725
 73
     1
 72
     1
 10
4.026216521246767
 20
-39.03892507120613
 11
-3.71904866381792
 21
-39.0389250712061
 72
     1
 10
-3.71904866381792
 20
-39.0389250712061
 11
-3.719073708263854
 21
-40.95892507120602
 72
     1
 10
-3.719073708263854
 20
-40.95892507120602
 11
0.7223060612081831
 21
-40.95892507120599
 97
        0
 75
     0
 76
     1
 98
        1
 10
0.0
 20
0.0
  0
DIMENSION
  5
DD
330
1F
100
AcDbEntity
  8
치수문자_일반주서
100
AcDbDimension
  2
_D
 10
72.31092220699136
 20
5.000000000000233
 30
0.0
 11
72.31092220699134
 21
15.32275000000023
 31
0.0
 70
   160
  1
%%c<>
 71
     2
 42
9.999999999999995
 52
-270.0
  3
SLDDIMSTYLE0
100
AcDbAlignedDimension
 13
59.9999999999997
 23
-4.999999999999808
 33
0.0
 14
59.9999999999997
 24
5.000000000000187
 34
0.0
 50
90.0000000000002
100
AcDbRotatedDimension
  0
DIMENSION
  5
EB
330
1F
100
AcDbEntity
  8
치수문자_일반주서
100
AcDbDimension
  2
_D_1
 10
59.99999999999972
 20
25.78841044024269
 30
0.0
 11
-15.00000000000016
 21
25.78841044024269
 31
0.0
 70
   160
  1
<>
 71
     2
 42
149.9999999999997
  3
SLDDIMSTYLE1
100
AcDbAlignedDimension
 13
-90.00000000000003
 23
3.999999999999993
 33
0.0
 14
59.9999999999997
 24
5.000000000000187
 34
0.0
 50
-0.0000000000000041
100
AcDbRotatedDimension
  0
DIMENSION
  5
F6
330
1F
100
AcDbEntity
  8
치수문자_일반주서
100
AcDbDimension
  2
_D_2
 10
59.9999999999997
 20
18.25811785212104
 30
0.0
 11
34.99999999999998
 21
18.25811785212104
 31
0.0
 70
   160
  1
<>
 71
     2
 42
49.99999999999972
  3
SLDDIMSTYLE1
100
AcDbAlignedDimension
 13
9.999999999999986
 23
4.91112004595352
 33
0.0
 14
59.9999999999997
 24
5.000000000000187
 34
0.0
 50
-0.0000000000000041
100
AcDbRotatedDimension
  0
DIMENSION
  5
100
330
1F
100
AcDbEntity
  8
치수문자_일반주서
100
AcDbDimension
  2
_D_3
 10
-101.0587421760937
 20
-5.000000000000036
 30
0.0
 11
-101.0587421760937
 21
15.32274999999995
 31
0.0
 70
   160
  1
%%c<>
 71
     2
 42
9.999999999999986
 52
-270.0
  3
SLDDIMSTYLE0
100
AcDbAlignedDimension
 13
-89.00000000000003
 23
4.999999999999992
 33
0.0
 14
-89.00000000000003
 24
-4.999999999999994
 34
0.0
 50
90.0000000000002
100
AcDbRotatedDimension
  0
INSERT
  5
113
330
1F
100
AcDbEntity
  8
외형선
100
AcDbBlockReference
  2
SW_DOWELSYMBOL_0
 10
0.0000000000000104
 20
0.0
 30
0.0
  0
ENDSEC
  0
SECTION
  2
OBJECTS
  0
DICTIONARY
  5
C
330
0
100
AcDbDictionary
281
     1
  3
ACAD_GROUP
350
D
  3
ACAD_IMAGE_VARS
350
137
  3
ACAD_LAYOUT
350
1A
  3
ACAD_MLINESTYLE
350
17
  3
ACAD_PLOTSETTINGS
350
19
  3
ACAD_PLOTSTYLENAME
350
E
  3
ACAD_SCALELIST
350
47
  3
APPDATA
350
135
  3
DWGPROPS
350
14C
  0
DICTIONARY
  5
D
102
{ACAD_REACTORS
330
C
102
}
330
C
100
AcDbDictionary
281
     1
  0
RASTERVARIABLES
  5
137
102
{ACAD_REACTORS
330
C
102
}
330
C
100
AcDbRasterVariables
 90
        0
 70
     1
 71
     1
 72
     1
  0
DICTIONARY
  5
1A
102
{ACAD_REACTORS
330
C
102
}
330
C
100
AcDbDictionary
281
     1
  3
Layout1
350
1E
  3
Layout2
350
26
  3
Model
350
22
  0
DICTIONARY
  5
17
102
{ACAD_REACTORS
330
C
102
}
330
C
100
AcDbDictionary
281
     1
  3
Standard
350
18
  0
DICTIONARY
  5
19
102
{ACAD_REACTORS
330
C
102
}
330
C
100
AcDbDictionary
281
     1
  0
ACDBDICTIONARYWDFLT
  5
E
102
{ACAD_REACTORS
330
C
102
}
330
C
100
AcDbDictionary
281
     1
  3
Normal
350
F
100
AcDbDictionaryWithDefault
340
F
  0
DICTIONARY
  5
47
102
{ACAD_REACTORS
330
C
102
}
330
C
100
AcDbDictionary
281
     1
  3
A0
350
48
  3
A1
350
49
  3
A2
350
4A
  3
A3
350
4B
  3
A4
350
4C
  3
A5
350
4D
  3
A6
350
4E
  3
A7
350
4F
  3
A8
350
50
  3
A9
350
51
  3
B0
350
52
  3
B1
350
53
  3
B2
350
54
  3
B3
350
55
  3
B4
350
56
  3
B5
350
57
  3
B6
350
58
  3
B7
350
59
  3
B8
350
5A
  3
B9
350
5B
  3
C0
350
5C
  3
C1
350
5D
  3
C2
350
5E
  3
C3
350
5F
  3
C4
350
60
  3
C5
350
61
  3
C6
350
62
  3
C7
350
63
  3
C8
350
64
  3
C9
350
65
  3
D0
350
66
  3
D1
350
67
  3
D2
350
68
  0
DICTIONARY
  5
135
102
{ACAD_REACTORS
330
C
102
}
330
C
100
AcDbDictionary
281
     1
  0
XRECORD
  5
14C
102
{ACAD_REACTORS
330
C
102
}
330
C
100
AcDbXrecord
280
     1
  1
DWGPROPS COOKIE
  2

  3

  4

  6

  7

  8
12014102
  9

300
=
301
=
302
=
303
=
304
=
305
=
306
=
307
=
308
=
309
=
 40
0.0
 41
2458262.17104743
 42
2458266.299855139
  1

 90
        0
  0
LAYOUT
  5
1E
102
{ACAD_REACTORS
330
1A
102
}
330
1A
100
AcDbPlotSettings
  1

  2
none_device
  4

  6

 40
0.0
 41
0.0
 42
0.0
 43
0.0
 44
0.0
 45
0.0
 46
0.0
 47
0.0
 48
0.0
 49
0.0
140
0.0
141
0.0
142
1.0
143
1.0
 70
   688
 72
     1
 73
     0
 74
     5
  7

 75
    16
147
1.0
148
0.0
149
0.0
100
AcDbLayout
  1
Layout1
 70
     1
 71
     1
 10
0.0
 20
0.0
 11
420.0
 21
297.0
 12
0.0
 22
0.0
 32
0.0
 14
1.000000000000000E+20
 24
1.000000000000000E+20
 34
1.000000000000000E+20
 15
-1.000000000000000E+20
 25
-1.000000000000000E+20
 35
-1.000000000000000E+20
146
0.0
 13
0.0
 23
0.0
 33
0.0
 16
1.0
 26
0.0
 36
0.0
 17
0.0
 27
1.0
 37
0.0
 76
     0
330
1B
  0
LAYOUT
  5
26
102
{ACAD_REACTORS
330
1A
102
}
330
1A
100
AcDbPlotSettings
  1

  2
none_device
  4

  6

 40
0.0
 41
0.0
 42
0.0
 43
0.0
 44
0.0
 45
0.0
 46
0.0
 47
0.0
 48
0.0
 49
0.0
140
0.0
141
0.0
142
1.0
143
1.0
 70
   688
 72
     1
 73
     0
 74
     5
  7

 75
    16
147
1.0
148
0.0
149
0.0
100
AcDbLayout
  1
Layout2
 70
     1
 71
     2
 10
0.0
 20
0.0
 11
0.0
 21
0.0
 12
0.0
 22
0.0
 32
0.0
 14
0.0
 24
0.0
 34
0.0
 15
0.0
 25
0.0
 35
0.0
146
0.0
 13
0.0
 23
0.0
 33
0.0
 16
1.0
 26
0.0
 36
0.0
 17
0.0
 27
1.0
 37
0.0
 76
     0
330
23
  0
LAYOUT
  5
22
102
{ACAD_REACTORS
330
1A
102
}
330
1A
100
AcDbPlotSettings
  1

  2
none_device
  4
ANSI_A_(11.00_x_8.50_Inches)
  6

 40
6.35
 41
19.05
 42
6.35000508
 43
19.05000254
 44
279.4
 45
215.9
 46
163.3857224710441
 47
105.9011827209095
 48
0.0
 49
0.0
140
0.0
141
0.0
142
0.065578048070227
143
1.0
 70
  1696
 72
     0
 73
     0
 74
     0
  7

 75
     0
147
0.0235690232323232
148
0.0
149
0.0
100
AcDbLayout
  1
Model
 70
     1
 71
     0
 10
0.0
 20
0.0
 11
420.0
 21
297.0
 12
0.0
 22
0.0
 32
0.0
 14
-105.4337421760937
 24
-49.97073246008785
 34
0.0
 15
72.86125554032472
 25
30.16341044024269
 35
0.0
146
0.0
 13
0.0
 23
0.0
 33
0.0
 16
1.0
 26
0.0
 36
0.0
 17
0.0
 27
1.0
 37
0.0
 76
     0
330
1F
331
29
  0
MLINESTYLE
  5
18
102
{ACAD_REACTORS
330
17
102
}
330
17
100
AcDbMlineStyle
  2
Standard
 70
     0
  3

 62
   256
 51
90.0
 52
90.0
 71
     2
 49
0.5
 62
   256
  6
BYLAYER
 49
-0.5
 62
   256
  6
BYLAYER
  0
ACDBPLACEHOLDER
  5
F
102
{ACAD_REACTORS
330
E
102
}
330
E
  0
SCALE
  5
48
102
{ACAD_REACTORS
330
47
102
}
330
47
100
AcDbScale
 70
     0
300
1:1
140
1.0
141
1.0
290
     1
  0
SCALE
  5
49
102
{ACAD_REACTORS
330
47
102
}
330
47
100
AcDbScale
 70
     0
300
1:2
140
1.0
141
2.0
290
     0
  0
SCALE
  5
4A
102
{ACAD_REACTORS
330
47
102
}
330
47
100
AcDbScale
 70
     0
300
1:4
140
1.0
141
4.0
290
     0
  0
SCALE
  5
4B
102
{ACAD_REACTORS
330
47
102
}
330
47
100
AcDbScale
 70
     0
300
1:5
140
1.0
141
5.0
290
     0
  0
SCALE
  5
4C
102
{ACAD_REACTORS
330
47
102
}
330
47
100
AcDbScale
 70
     0
300
1:8
140
1.0
141
8.0
290
     0
  0
SCALE
  5
4D
102
{ACAD_REACTORS
330
47
102
}
330
47
100
AcDbScale
 70
     0
300
1:10
140
1.0
141
10.0
290
     0
  0
SCALE
  5
4E
102
{ACAD_REACTORS
330
47
102
}
330
47
100
AcDbScale
 70
     0
300
1:16
140
1.0
141
16.0
290
     0
  0
SCALE
  5
4F
102
{ACAD_REACTORS
330
47
102
}
330
47
100
AcDbScale
 70
     0
300
1:20
140
1.0
141
20.0
290
     0
  0
SCALE
  5
50
102
{ACAD_REACTORS
330
47
102
}
330
47
100
AcDbScale
 70
     0
300
1:30
140
1.0
141
30.0
290
     0
  0
SCALE
  5
51
102
{ACAD_REACTORS
330
47
102
}
330
47
100
AcDbScale
 70
     0
300
1:40
140
1.0
141
40.0
290
     0
  0
SCALE
  5
52
102
{ACAD_REACTORS
330
47
102
}
330
47
100
AcDbScale
 70
     0
300
1:50
140
1.0
141
50.0
290
     0
  0
SCALE
  5
53
102
{ACAD_REACTORS
330
47
102
}
330
47
100
AcDbScale
 70
     0
300
1:100
140
1.0
141
100.0
290
     0
  0
SCALE
  5
54
102
{ACAD_REACTORS
330
47
102
}
330
47
100
AcDbScale
 70
     0
300
2:1
140
2.0
141
1.0
290
     0
  0
SCALE
  5
55
102
{ACAD_REACTORS
330
47
102
}
330
47
100
AcDbScale
 70
     0
300
4:1
140
4.0
141
1.0
290
     0
  0
SCALE
  5
56
102
{ACAD_REACTORS
330
47
102
}
330
47
100
AcDbScale
 70
     0
300
8:1
140
8.0
141
1.0
290
     0
  0
SCALE
  5
57
102
{ACAD_REACTORS
330
47
102
}
330
47
100
AcDbScale
 70
     0
300
10:1
140
10.0
141
1.0
290
     0
  0
SCALE
  5
58
102
{ACAD_REACTORS
330
47
102
}
330
47
100
AcDbScale
 70
     0
300
100:1
140
100.0
141
1.0
290
     0
  0
SCALE
  5
59
102
{ACAD_REACTORS
330
47
102
}
330
47
100
AcDbScale
 70
     0
300
1/128" = 1'-0"
140
0.0078125
141
12.0
290
     0
  0
SCALE
  5
5A
102
{ACAD_REACTORS
330
47
102
}
330
47
100
AcDbScale
 70
     0
300
1/64" = 1'-0"
140
0.015625
141
12.0
290
     0
  0
SCALE
  5
5B
102
{ACAD_REACTORS
330
47
102
}
330
47
100
AcDbScale
 70
     0
300
1/32" = 1'-0"
140
0.03125
141
12.0
290
     0
  0
SCALE
  5
5C
102
{ACAD_REACTORS
330
47
102
}
330
47
100
AcDbScale
 70
     0
300
1/16" = 1'-0"
140
0.0625
141
12.0
290
     0
  0
SCALE
  5
5D
102
{ACAD_REACTORS
330
47
102
}
330
47
100
AcDbScale
 70
     0
300
3/32" = 1'-0"
140
0.09375
141
12.0
290
     0
  0
SCALE
  5
5E
102
{ACAD_REACTORS
330
47
102
}
330
47
100
AcDbScale
 70
     0
300
1/8" = 1'-0"
140
0.125
141
12.0
290
     0
  0
SCALE
  5
5F
102
{ACAD_REACTORS
330
47
102
}
330
47
100
AcDbScale
 70
     0
300
3/16" = 1'-0"
140
0.1875
141
12.0
290
     0
  0
SCALE
  5
60
102
{ACAD_REACTORS
330
47
102
}
330
47
100
AcDbScale
 70
     0
300
1/4" = 1'-0"
140
0.25
141
12.0
290
     0
  0
SCALE
  5
61
102
{ACAD_REACTORS
330
47
102
}
330
47
100
AcDbScale
 70
     0
300
3/8" = 1'-0"
140
0.375
141
12.0
290
     0
  0
SCALE
  5
62
102
{ACAD_REACTORS
330
47
102
}
330
47
100
AcDbScale
 70
     0
300
1/2" = 1'-0"
140
0.5
141
12.0
290
     0
  0
SCALE
  5
63
102
{ACAD_REACTORS
330
47
102
}
330
47
100
AcDbScale
 70
     0
300
3/4" = 1'-0"
140
0.75
141
12.0
290
     0
  0
SCALE
  5
64
102
{ACAD_REACTORS
330
47
102
}
330
47
100
AcDbScale
 70
     0
300
1" = 1'-0"
140
1.0
141
12.0
290
     0
  0
SCALE
  5
65
102
{ACAD_REACTORS
330
47
102
}
330
47
100
AcDbScale
 70
     0
300
1-1/2" = 1'-0"
140
1.5
141
12.0
290
     0
  0
SCALE
  5
66
102
{ACAD_REACTORS
330
47
102
}
330
47
100
AcDbScale
 70
     0
300
3" = 1'-0"
140
3.0
141
12.0
290
     0
  0
SCALE
  5
67
102
{ACAD_REACTORS
330
47
102
}
330
47
100
AcDbScale
 70
     0
300
6" = 1'-0"
140
6.0
141
12.0
290
     0
  0
SCALE
  5
68
102
{ACAD_REACTORS
330
47
102
}
330
47
100
AcDbScale
 70
     0
300
1'-0" = 1'-0"
140
12.0
141
12.0
290
     0
  0
ENDSEC
  0
EOF
