  0
SECTION
  2
HEADER
  9
$ACADVER
  1
AC1015
  9
$ACADMAINTVER
 70
     6
  9
$DWGCODEPAGE
  3
ANSI_949
  9
$INSBASE
 10
0.0
 20
0.0
 30
0.0
  9
$EXTMIN
 10
-74.57828976141316
 20
-49.97073246008785
 30
0.0
  9
$EXTMAX
 10
56.84123333058086
 20
30.16341044024269
 30
0.0
  9
$LIMMIN
 10
0.0
 20
0.0
  9
$LIMMAX
 10
420.0
 20
297.0
  9
$ORTHOMODE
 70
     0
  9
$REGENMODE
 70
     1
  9
$FILLMODE
 70
     1
  9
$QTEXTMODE
 70
     0
  9
$MIRRTEXT
 70
     1
  9
$LTSCALE
 40
1.0
  9
$ATTMODE
 70
     1
  9
$TEXTSIZE
 40
3.5
  9
$TRACEWID
 40
1.0
  9
$TEXTSTYLE
  7
Standard
  9
$CLAYER
  8
0
  9
$CELTYPE
  6
ByLayer
  9
$CECOLOR
 62
   256
  9
$CELTSCALE
 40
1.0
  9
$DISPSILH
 70
     0
  9
$DIMSCALE
 40
1.0
  9
$DIMASZ
 40
3.302
  9
$DIMEXO
 40
1.0
  9
$DIMDLI
 40
3.75
  9
$DIMRND
 40
0.0
  9
$DIMDLE
 40
0.0
  9
$DIMEXE
 40
1.0
  9
$DIMTP
 40
0.0
  9
$DIMTM
 40
0.0
  9
$DIMTXT
 40
3.5
  9
$DIMCEN
 40
2.5
  9
$DIMTSZ
 40
0.0
  9
$DIMTOL
 70
     0
  9
$DIMLIM
 70
     0
  9
$DIMTIH
 70
     1
  9
$DIMTOH
 70
     1
  9
$DIMSE1
 70
     0
  9
$DIMSE2
 70
     0
  9
$DIMTAD
 70
     1
  9
$DIMZIN
 70
     0
  9
$DIMBLK
  1

  9
$DIMASO
 70
     1
  9
$DIMSHO
 70
     1
  9
$DIMPOST
  1

  9
$DIMAPOST
  1

  9
$DIMALT
 70
     0
  9
$DIMALTD
 70
     3
  9
$DIMALTF
 40
0.0393700787401575
  9
$DIMLFAC
 40
1.0
  9
$DIMTOFL
 70
     1
  9
$DIMTVP
 40
0.0
  9
$DIMTIX
 70
     0
  9
$DIMSOXD
 70
     0
  9
$DIMSAH
 70
     0
  9
$DIMBLK1
  1

  9
$DIMBLK2
  1

  9
$DIMSTYLE
  2
ISO-25
  9
$DIMCLRD
 70
     0
  9
$DIMCLRE
 70
     0
  9
$DIMCLRT
 70
     0
  9
$DIMTFAC
 40
1.0
  9
$DIMGAP
 40
1.524
  9
$DIMJUST
 70
     0
  9
$DIMSD1
 70
     0
  9
$DIMSD2
 70
     0
  9
$DIMTOLJ
 70
     0
  9
$DIMTZIN
 70
     0
  9
$DIMALTZ
 70
     0
  9
$DIMALTTZ
 70
     0
  9
$DIMUPT
 70
     0
  9
$DIMDEC
 70
     2
  9
$DIMTDEC
 70
     2
  9
$DIMALTU
 70
     2
  9
$DIMALTTD
 70
     3
  9
$DIMTXSTY
  7
Standard
  9
$DIMAUNIT
 70
     0
  9
$DIMADEC
 70
     2
  9
$DIMALTRND
 40
0.0
  9
$DIMAZIN
 70
     0
  9
$DIMDSEP
 70
    44
  9
$DIMATFIT
 70
     3
  9
$DIMFRAC
 70
     0
  9
$DIMLDRBLK
  1

  9
$DIMLUNIT
 70
     2
  9
$DIMLWD
 70
    -2
  9
$DIMLWE
 70
    -2
  9
$DIMTMOVE
 70
     0
  9
$LUNITS
 70
     2
  9
$LUPREC
 70
     2
  9
$SKETCHINC
 40
1.0
  9
$FILLETRAD
 40
10.0
  9
$AUNITS
 70
     0
  9
$AUPREC
 70
     2
  9
$MENU
  1
.
  9
$ELEVATION
 40
0.0
  9
$PELEVATION
 40
0.0
  9
$THICKNESS
 40
0.0
  9
$LIMCHECK
 70
     0
  9
$CHAMFERA
 40
0.0
  9
$CHAMFERB
 40
0.0
  9
$CHAMFERC
 40
0.0
  9
$CHAMFERD
 40
0.0
  9
$SKPOLY
 70
     0
  9
$TDCREATE
 40
2458262.544920648
  9
$TDUCREATE
 40
2458262.169920648
  9
$TDUPDATE
 40
2458266.672402859
  9
$TDUUPDATE
 40
2458266.297402859
  9
$TDINDWG
 40
0.0012511458
  9
$TDUSRTIMER
 40
2458266.296151747
  9
$USRTIMER
 70
     1
  9
$ANGBASE
 50
0.0
  9
$ANGDIR
 70
     0
  9
$PDMODE
 70
     0
  9
$PDSIZE
 40
-1.0
  9
$PLINEWID
 40
0.0
  9
$SPLFRAME
 70
     0
  9
$SPLINETYPE
 70
     6
  9
$SPLINESEGS
 70
     8
  9
$HANDSEED
  5
13D
  9
$SURFTAB1
 70
     6
  9
$SURFTAB2
 70
     6
  9
$SURFTYPE
 70
     6
  9
$SURFU
 70
     6
  9
$SURFV
 70
     6
  9
$UCSBASE
  2

  9
$UCSNAME
  2

  9
$UCSORG
 10
0.0
 20
0.0
 30
0.0
  9
$UCSXDIR
 10
1.0
 20
0.0
 30
0.0
  9
$UCSYDIR
 10
0.0
 20
1.0
 30
0.0
  9
$UCSORTHOREF
  2

  9
$UCSORTHOVIEW
 70
     0
  9
$UCSORGTOP
 10
0.0
 20
0.0
 30
0.0
  9
$UCSORGBOTTOM
 10
0.0
 20
0.0
 30
0.0
  9
$UCSORGLEFT
 10
0.0
 20
0.0
 30
0.0
  9
$UCSORGRIGHT
 10
0.0
 20
0.0
 30
0.0
  9
$UCSORGFRONT
 10
0.0
 20
0.0
 30
0.0
  9
$UCSORGBACK
 10
0.0
 20
0.0
 30
0.0
  9
$PUCSBASE
  2

  9
$PUCSNAME
  2

  9
$PUCSORG
 10
0.0
 20
0.0
 30
0.0
  9
$PUCSXDIR
 10
1.0
 20
0.0
 30
0.0
  9
$PUCSYDIR
 10
0.0
 20
1.0
 30
0.0
  9
$PUCSORTHOREF
  2

  9
$PUCSORTHOVIEW
 70
     0
  9
$PUCSORGTOP
 10
0.0
 20
0.0
 30
0.0
  9
$PUCSORGBOTTOM
 10
0.0
 20
0.0
 30
0.0
  9
$PUCSORGLEFT
 10
0.0
 20
0.0
 30
0.0
  9
$PUCSORGRIGHT
 10
0.0
 20
0.0
 30
0.0
  9
$PUCSORGFRONT
 10
0.0
 20
0.0
 30
0.0
  9
$PUCSORGBACK
 10
0.0
 20
0.0
 30
0.0
  9
$USERI1
 70
     0
  9
$USERI2
 70
     0
  9
$USERI3
 70
     0
  9
$USERI4
 70
     0
  9
$USERI5
 70
     0
  9
$USERR1
 40
0.0
  9
$USERR2
 40
0.0
  9
$USERR3
 40
0.0
  9
$USERR4
 40
0.0
  9
$USERR5
 40
0.0
  9
$WORLDVIEW
 70
     1
  9
$SHADEDGE
 70
     3
  9
$SHADEDIF
 70
    70
  9
$TILEMODE
 70
     1
  9
$MAXACTVP
 70
    64
  9
$PINSBASE
 10
0.0
 20
0.0
 30
0.0
  9
$PLIMCHECK
 70
     0
  9
$PEXTMIN
 10
1.000000000000000E+20
 20
1.000000000000000E+20
 30
1.000000000000000E+20
  9
$PEXTMAX
 10
-1.000000000000000E+20
 20
-1.000000000000000E+20
 30
-1.000000000000000E+20
  9
$PLIMMIN
 10
0.0
 20
0.0
  9
$PLIMMAX
 10
0.0
 20
0.0
  9
$UNITMODE
 70
     0
  9
$VISRETAIN
 70
     1
  9
$PLINEGEN
 70
     0
  9
$PSLTSCALE
 70
     1
  9
$TREEDEPTH
 70
  3020
  9
$CMLSTYLE
  2
Standard
  9
$CMLJUST
 70
     0
  9
$CMLSCALE
 40
20.0
  9
$PROXYGRAPHICS
 70
     1
  9
$MEASUREMENT
 70
     1
  9
$CELWEIGHT
370
    -1
  9
$ENDCAPS
280
     0
  9
$JOINSTYLE
280
     0
  9
$LWDISPLAY
290
     1
  9
$INSUNITS
 70
     4
  9
$HYPERLINKBASE
  1

  9
$STYLESHEET
  1

  9
$XEDIT
290
     1
  9
$CEPSNTYPE
380
     0
  9
$PSTYLEMODE
290
     1
  9
$FINGERPRINTGUID
  2
{16428CE1-853F-44C6-B9C6-2C1023E1BFEA}
  9
$VERSIONGUID
  2
{FAEB1C32-E019-11D5-929B-00C0DF256EC4}
  9
$EXTNAMES
290
     1
  9
$PSVPSCALE
 40
0.0
  9
$OLESTARTUP
290
     0
  0
ENDSEC
  0
SECTION
  2
CLASSES
  0
CLASS
  1
ACDBDICTIONARYWDFLT
  2
AcDbDictionaryWithDefault
  3
ObjectDBX Classes
 90
        0
280
     0
281
     0
  0
CLASS
  1
VISUALSTYLE
  2
AcDbVisualStyle
  3
ObjectDBX Classes
 90
     4095
280
     0
281
     0
  0
CLASS
  1
MATERIAL
  2
AcDbMaterial
  3
ObjectDBX Classes
 90
     1153
280
     0
281
     0
  0
CLASS
  1
SCALE
  2
AcDbScale
  3
ObjectDBX Classes
 90
     1153
280
     0
281
     0
  0
CLASS
  1
SUN
  2
AcDbSun
  3
SCENEOE
 90
     1153
280
     0
281
     0
  0
CLASS
  1
ACDBPLACEHOLDER
  2
AcDbPlaceHolder
  3
ObjectDBX Classes
 90
        0
280
     0
281
     0
  0
CLASS
  1
LAYOUT
  2
AcDbLayout
  3
ObjectDBX Classes
 90
        0
280
     0
281
     0
  0
CLASS
  1
TABLESTYLE
  2
AcDbTableStyle
  3
ObjectDBX Classes
 90
     4095
280
     0
281
     0
  0
CLASS
  1
MLEADERSTYLE
  2
AcDbMLeaderStyle
  3
ACDB_MLEADERSTYLE_CLASS
 90
     4095
280
     0
281
     0
  0
CLASS
  1
RASTERVARIABLES
  2
AcDbRasterVariables
  3
ISM
 90
        0
280
     0
281
     0
  0
ENDSEC
  0
SECTION
  2
TABLES
  0
TABLE
  2
VPORT
  5
8
330
0
100
AcDbSymbolTable
 70
     1
  0
VPORT
  5
29
330
8
100
AcDbSymbolTableRecord
100
AcDbViewportTableRecord
  2
*Active
 70
     0
 10
0.0
 20
0.0
 11
1.0
 21
1.0
 12
-8.868528215416163
 22
-9.903661009922573
 13
0.0
 23
0.0
 14
10.0
 24
10.0
 15
10.0
 25
10.0
 16
0.0
 26
0.0
 36
1.0
 17
0.0
 27
0.0
 37
0.0
 40
116.3151178146496
 41
1.152454780361757
 42
50.0
 43
0.0
 44
0.0
 50
0.0
 51
0.0
 71
    16
 72
  2000
 73
     1
 74
     3
 75
     0
 76
     0
 77
     0
 78
     0
281
     0
 65
     1
110
0.0
120
0.0
130
0.0
111
1.0
121
0.0
131
0.0
112
0.0
122
1.0
132
0.0
 79
     0
146
0.0
  0
ENDTAB
  0
TABLE
  2
LTYPE
  5
5
330
0
100
AcDbSymbolTable
 70
     6
  0
LTYPE
  5
14
330
5
100
AcDbSymbolTableRecord
100
AcDbLinetypeTableRecord
  2
ByBlock
 70
     0
  3

 72
    65
 73
     0
 40
0.0
  0
LTYPE
  5
15
330
5
100
AcDbSymbolTableRecord
100
AcDbLinetypeTableRecord
  2
ByLayer
 70
     0
  3

 72
    65
 73
     0
 40
0.0
  0
LTYPE
  5
16
330
5
100
AcDbSymbolTableRecord
100
AcDbLinetypeTableRecord
  2
Continuous
 70
     0
  3
Solid line
 72
    65
 73
     0
 40
0.0
  0
LTYPE
  5
6A
330
5
100
AcDbSymbolTableRecord
100
AcDbLinetypeTableRecord
  2
HIDDEN
 70
     0
  3
Hidden __ __ __ __ __ __ __ __ __ __ __ __ __ __
 72
    65
 73
     2
 40
1.905
 49
1.27
 74
     0
 49
-0.635
 74
     0
  0
LTYPE
  5
6B
330
5
100
AcDbSymbolTableRecord
100
AcDbLinetypeTableRecord
  2
PHANTOM
 70
     0
  3
Phantom ______  __  __  ______  __  __  ______
 72
    65
 73
     6
 40
12.7
 49
6.35
 74
     0
 49
-1.27
 74
     0
 49
1.27
 74
     0
 49
-1.27
 74
     0
 49
1.27
 74
     0
 49
-1.27
 74
     0
  0
LTYPE
  5
6C
330
5
100
AcDbSymbolTableRecord
100
AcDbLinetypeTableRecord
  2
CENTER
 70
     0
  3
Center ____ _ ____ _ ____ _ ____ _ ____ _ ____
 72
    65
 73
     4
 40
10.16
 49
6.35
 74
     0
 49
-1.27
 74
     0
 49
1.27
 74
     0
 49
-1.27
 74
     0
  0
LTYPE
  5
6D
330
5
100
AcDbSymbolTableRecord
100
AcDbLinetypeTableRecord
  2
CENTERX2
 70
     0
  3
Center (2x) ________  __  ________  __  _____
 72
    65
 73
     4
 40
20.32
 49
12.7
 74
     0
 49
-2.54
 74
     0
 49
2.54
 74
     0
 49
-2.54
 74
     0
  0
LTYPE
  5
6E
330
5
100
AcDbSymbolTableRecord
100
AcDbLinetypeTableRecord
  2
DOT2
 70
     0
  3
Dot (.5x) ........................................
 72
    65
 73
     2
 40
0.635
 49
0.0
 74
     0
 49
-0.635
 74
     0
  0
ENDTAB
  0
TABLE
  2
LAYER
  5
2
330
0
100
AcDbSymbolTable
 70
    17
  0
LAYER
  5
10
330
2
100
AcDbSymbolTableRecord
100
AcDbLayerTableRecord
  2
0
 70
     0
 62
     7
  6
Continuous
370
    -3
390
F
  0
LAYER
  5
6F
330
2
100
AcDbSymbolTableRecord
100
AcDbLayerTableRecord
  2
FORMAT
 70
     0
 62
     2
  6
Continuous
370
    -3
390
F
  0
LAYER
  5
70
330
2
100
AcDbSymbolTableRecord
100
AcDbLayerTableRecord
  2
외형선
 70
     0
 62
   100
  6
Continuous
370
    30
390
F
  0
LAYER
  5
71
330
2
100
AcDbSymbolTableRecord
100
AcDbLayerTableRecord
  2
숨은선
 70
     0
 62
     2
  6
HIDDEN
370
    15
390
F
  0
LAYER
  5
72
330
2
100
AcDbSymbolTableRecord
100
AcDbLayerTableRecord
  2
중심선
 70
     0
 62
     1
  6
CENTERX2
370
    -3
390
F
  0
LAYER
  5
73
330
2
100
AcDbSymbolTableRecord
100
AcDbLayerTableRecord
  2
파단선
 70
     0
 62
     4
  6
Continuous
370
    -3
390
F
  0
LAYER
  5
74
330
2
100
AcDbSymbolTableRecord
100
AcDbLayerTableRecord
  2
해칭선
 70
     0
 62
     4
  6
Continuous
370
    -3
390
F
  0
LAYER
  5
75
330
2
100
AcDbSymbolTableRecord
100
AcDbLayerTableRecord
  2
가는실선
 70
     0
 62
     4
  6
Continuous
370
    -3
390
F
  0
LAYER
  5
76
330
2
100
AcDbSymbolTableRecord
100
AcDbLayerTableRecord
  2
치수_보조선
 70
     0
 62
     4
  6
Continuous
370
    -3
390
F
  0
LAYER
  5
77
330
2
100
AcDbSymbolTableRecord
100
AcDbLayerTableRecord
  2
치수문자_일반주서
 70
     0
 62
     7
  6
Continuous
370
    15
390
F
  0
LAYER
  5
78
330
2
100
AcDbSymbolTableRecord
100
AcDbLayerTableRecord
  2
개별주서
 70
     0
 62
   100
  6
Continuous
370
    30
390
F
  0
LAYER
  5
79
330
2
100
AcDbSymbolTableRecord
100
AcDbLayerTableRecord
  2
중간선
 70
     0
 62
     2
  6
Continuous
370
    15
390
F
  0
LAYER
  5
7A
330
2
100
AcDbSymbolTableRecord
100
AcDbLayerTableRecord
  2
윤곽선
 70
     0
 62
     3
  6
Continuous
370
    40
390
F
  0
LAYER
  5
7B
330
2
100
AcDbSymbolTableRecord
100
AcDbLayerTableRecord
  2
중심마크
 70
     0
 62
   100
  6
Continuous
370
    30
390
F
  0
LAYER
  5
7C
330
2
100
AcDbSymbolTableRecord
100
AcDbLayerTableRecord
  2
가상선
 70
     0
 62
     4
  6
PHANTOM
370
    -3
390
F
  0
LAYER
  5
7D
330
2
100
AcDbSymbolTableRecord
100
AcDbLayerTableRecord
  2
특수지정선
 70
     0
 62
     5
  6
CENTERX2
370
    60
390
F
  0
LAYER
  5
12E
330
2
100
AcDbSymbolTableRecord
100
AcDbLayerTableRecord
  2
Defpoints
 70
     0
 62
     7
  6
Continuous
290
     0
370
    -3
390
F
  0
ENDTAB
  0
TABLE
  2
STYLE
  5
3
330
0
100
AcDbSymbolTable
 70
     2
  0
STYLE
  5
11
330
3
100
AcDbSymbolTableRecord
100
AcDbTextStyleTableRecord
  2
Standard
 70
     0
 40
0.0
 41
1.0
 50
0.0
 71
     0
 42
3.5
  3
txt
  4

  0
STYLE
  5
93
330
3
100
AcDbSymbolTableRecord
100
AcDbTextStyleTableRecord
  2
SLDTEXTSTYLE0
 70
     0
 40
0.0
 41
0.75
 50
0.0
 71
     0
 42
3.5
  3
TXT
  4

  0
ENDTAB
  0
TABLE
  2
VIEW
  5
6
330
0
100
AcDbSymbolTable
 70
     0
  0
ENDTAB
  0
TABLE
  2
UCS
  5
7
330
0
100
AcDbSymbolTable
 70
     0
  0
ENDTAB
  0
TABLE
  2
APPID
  5
9
330
0
100
AcDbSymbolTable
 70
     1
  0
APPID
  5
12
330
9
100
AcDbSymbolTableRecord
100
AcDbRegAppTableRecord
  2
ACAD
 70
     0
  0
ENDTAB
  0
TABLE
  2
DIMSTYLE
  5
A
330
0
100
AcDbSymbolTable
 70
     3
100
AcDbDimStyleTable
  0
DIMSTYLE
105
27
330
A
100
AcDbSymbolTableRecord
100
AcDbDimStyleTableRecord
  2
ISO-25
 70
     0
 41
2.5
 42
0.625
 43
3.75
 44
1.25
 73
     0
 74
     0
 77
     1
 78
     8
140
2.5
141
2.5
143
0.03937007874016
147
0.625
171
     3
172
     1
178
     0
271
     2
272
     2
274
     3
278
    44
283
     0
284
     8
340
11
  0
DIMSTYLE
105
D4
102
{ACAD_REACTORS
330
D3
330
F6
102
}
330
A
100
AcDbSymbolTableRecord
100
AcDbDimStyleTableRecord
  2
SLDDIMSTYLE0
 70
     0
 41
3.302
 44
0.0
 45
0.000000001
 73
     0
 74
     0
 77
     1
 78
    12
 79
     3
140
3.5
147
0.875
172
     1
173
     1
178
     0
271
     2
272
     2
276
     2
284
    12
289
     0
340
93
  0
DIMSTYLE
105
E2
102
{ACAD_REACTORS
330
E1
330
EC
102
}
330
A
100
AcDbSymbolTableRecord
100
AcDbDimStyleTableRecord
  2
SLDDIMSTYLE1
 70
     0
 41
3.302
 44
0.0
 45
0.000000001
 73
     0
 74
     0
 77
     1
 78
    12
 79
     3
140
3.5
147
0.875
173
     1
178
     0
271
     2
272
     2
276
     2
284
    12
340
93
  0
ENDTAB
  0
TABLE
  2
BLOCK_RECORD
  5
1
330
0
100
AcDbSymbolTable
 70
     7
  0
BLOCK_RECORD
  5
1F
330
1
100
AcDbSymbolTableRecord
100
AcDbBlockTableRecord
  2
*Model_Space
340
22
  0
BLOCK_RECORD
  5
1B
330
1
100
AcDbSymbolTableRecord
100
AcDbBlockTableRecord
  2
*Paper_Space
340
1E
  0
BLOCK_RECORD
  5
23
330
1
100
AcDbSymbolTableRecord
100
AcDbBlockTableRecord
  2
*Paper_Space0
340
26
  0
BLOCK_RECORD
  5
7E
330
1
100
AcDbSymbolTableRecord
100
AcDbBlockTableRecord
  2
블럭10
340
0
102
{BLKREFS
331
CC
102
}
  0
BLOCK_RECORD
  5
D5
330
1
100
AcDbSymbolTableRecord
100
AcDbBlockTableRecord
  2
_D
340
0
  0
BLOCK_RECORD
  5
E3
330
1
100
AcDbSymbolTableRecord
100
AcDbBlockTableRecord
  2
_D_1
340
0
  0
BLOCK_RECORD
  5
ED
330
1
100
AcDbSymbolTableRecord
100
AcDbBlockTableRecord
  2
_D_2
340
0
  0
BLOCK_RECORD
  5
F7
330
1
100
AcDbSymbolTableRecord
100
AcDbBlockTableRecord
  2
_D_3
340
0
  0
BLOCK_RECORD
  5
103
330
1
100
AcDbSymbolTableRecord
100
AcDbBlockTableRecord
  2
SW_DOWELSYMBOL_0
340
0
102
{BLKREFS
331
109
102
}
  0
ENDTAB
  0
ENDSEC
  0
SECTION
  2
BLOCKS
  0
BLOCK
  5
20
330
1F
100
AcDbEntity
  8
0
100
AcDbBlockBegin
  2
*Model_Space
 70
     0
 10
0.0
 20
0.0
 30
0.0
  3
*Model_Space
  1

  0
ENDBLK
  5
21
330
1F
100
AcDbEntity
  8
0
100
AcDbBlockEnd
  0
BLOCK
  5
1C
330
1B
100
AcDbEntity
 67
     1
  8
0
100
AcDbBlockBegin
  2
*Paper_Space
 70
     0
 10
0.0
 20
0.0
 30
0.0
  3
*Paper_Space
  1

  0
ENDBLK
  5
1D
330
1B
100
AcDbEntity
 67
     1
  8
0
100
AcDbBlockEnd
  0
BLOCK
  5
24
330
23
100
AcDbEntity
  8
0
100
AcDbBlockBegin
  2
*Paper_Space0
 70
     0
 10
0.0
 20
0.0
 30
0.0
  3
*Paper_Space0
  1

  0
ENDBLK
  5
25
330
23
100
AcDbEntity
  8
0
100
AcDbBlockEnd
  0
BLOCK
  5
7F
330
7E
100
AcDbEntity
  8
0
100
AcDbBlockBegin
  2
블럭10
 70
     2
 10
0.0
 20
0.0
 30
0.0
  3
블럭10
  1

  0
ELLIPSE
  5
81
330
7E
100
AcDbEntity
  8
중심선
100
AcDbEllipse
 10
20.54032771741204
 20
12.0471743016438
 30
0.0
 11
6.600054785286829
 21
-1.261213355974178E-13
 31
0.0
210
0.0
220
0.0
230
1.0
 40
0.636358354079598
 41
0.9219305317359503
 42
6.513795318482858
  0
ELLIPSE
  5
82
330
7E
100
AcDbEntity
  8
중심선
100
AcDbEllipse
 10
20.54032771746488
 20
12.04717430159265
 30
0.0
 11
3.960054785062283
 21
1.540847449632565E-10
 31
0.0
210
0.0
220
0.0
230
1.0
 40
0.3939339440162632
 41
1.131841032648279
 42
5.62031148352944
  0
LINE
  5
83
330
7E
100
AcDbEntity
  8
중심선
100
AcDbLine
 10
2.268634060543552
 20
16.24717430164393
 30
0.0
 11
5.714909304380834
 21
16.24717430164393
 31
0.0
  0
LINE
  5
84
330
7E
100
AcDbEntity
  8
중심선
100
AcDbLine
 10
5.245725140726316
 20
7.84717430164391
 30
0.0
 11
8.692000384563599
 21
7.84717430164391
 31
0.0
  0
LINE
  5
85
330
7E
100
AcDbEntity
  8
중심선
100
AcDbLine
 10
15.74043728645272
 20
16.24717430164393
 30
0.0
 11
8.692000384563599
 21
7.84717430164391
 31
0.0
  0
LINE
  5
86
330
7E
100
AcDbEntity
  8
중심선
100
AcDbLine
 10
0.1404042013395286
 20
13.71084872107135
 30
0.0
 11
3.58671253028996
 21
13.71088815037384
 31
0.0
  0
LINE
  5
87
330
7E
100
AcDbEntity
  8
중심선
100
AcDbLine
 10
2.750260043222114
 20
10.84717430164391
 30
0.0
 11
6.196535287059397
 21
10.84717430164391
 31
0.0
  0
LINE
  5
88
330
7E
100
AcDbEntity
  8
중심선
100
AcDbLine
 10
12.29416204261559
 20
16.24717430164393
 30
0.0
 11
5.245725140726316
 21
7.84717430164391
 31
0.0
  0
LINE
  5
89
330
7E
100
AcDbEntity
  8
중심선
100
AcDbLine
 10
10.72767329541681
 20
16.24717430164393
 30
0.0
 11
6.196535287059397
 21
10.84717430164391
 31
0.0
  0
LINE
  5
8A
330
7E
100
AcDbEntity
  8
중심선
100
AcDbLine
 10
7.28139805157953
 20
16.24717430164393
 30
0.0
 11
2.750260043222114
 21
10.84717430164391
 31
0.0
  0
LINE
  5
8B
330
7E
100
AcDbEntity
  8
중심선
100
AcDbLine
 10
5.714909304380834
 20
16.24717430164393
 30
0.0
 11
3.58671253028996
 21
13.71088815037384
 31
0.0
  0
LINE
  5
8C
330
7E
100
AcDbEntity
  8
중심선
100
AcDbLine
 10
2.268634060543552
 20
16.24717430164393
 30
0.0
 11
0.1404042013395286
 21
13.71084872107135
 31
0.0
  0
LINE
  5
8D
330
7E
100
AcDbEntity
  8
중심선
100
AcDbLine
 10
7.28139805157953
 20
16.24717430164393
 30
0.0
 11
10.72767329541681
 21
16.24717430164393
 31
0.0
  0
LINE
  5
8E
330
7E
100
AcDbEntity
  8
중심선
100
AcDbLine
 10
12.29416204261559
 20
16.24717430164393
 30
0.0
 11
15.74043728645272
 21
16.24717430164393
 31
0.0
  0
LINE
  5
8F
330
7E
100
AcDbEntity
  8
중심선
100
AcDbLine
 10
19.22036997980202
 20
11.08717430171403
 30
0.0
 11
23.66174974927406
 21
11.08717430171406
 31
0.0
  0
LINE
  5
90
330
7E
100
AcDbEntity
  8
중심선
100
AcDbLine
 10
19.22039502424796
 20
13.00717430171391
 30
0.0
 11
19.22036997980202
 21
11.08717430171403
 31
0.0
  0
LINE
  5
91
330
7E
100
AcDbEntity
  8
중심선
100
AcDbLine
 10
19.22039502424796
 20
13.00717430171391
 30
0.0
 11
26.96566020931264
 21
13.00717430171391
 31
0.0
  0
LINE
  5
92
330
7E
100
AcDbEntity
  8
중심선
100
AcDbLine
 10
22.22332737316547
 20
13.45928029700563
 30
0.0
 11
24.52862924686651
 21
15.39360700705356
 31
0.0
  0
ATTDEF
  5
94
330
7E
100
AcDbEntity
  8
FORMAT
 62
     2
100
AcDbText
 10
-20.85824753159254
 20
2.075366912832191
 30
0.0
 40
4.233333333333333
  1
SEME7010030100E [ 2 FLUTE ]
 41
0.75
  7
SLDTEXTSTYLE0
 11
-20.85824753159254
 21
-0.0412997538344756
 31
0.0
100
AcDbAttributeDefinition
  3

  2
AUTOATTR0
 70
     0
 74
     1
  0
ENDBLK
  5
80
330
7E
100
AcDbEntity
  8
0
100
AcDbBlockEnd
  0
BLOCK
  5
D6
330
D5
100
AcDbEntity
  8
0
100
AcDbBlockBegin
  2
_D
 70
     0
 10
0.0
 20
0.0
 30
0.0
  3
_D
  1

  0
LINE
  5
D8
330
D5
100
AcDbEntity
  8
치수문자_일반주서
 62
     0
370
    -2
100
AcDbLine
 10
40.06249999999987
 20
-4.999999999999882
 30
0.0
 11
56.29089999724751
 21
-4.999999999999822
 31
0.0
  0
LINE
  5
D9
330
D5
100
AcDbEntity
  8
치수문자_일반주서
 62
     0
370
    -2
100
AcDbLine
 10
40.06249999999987
 20
5.000000000000113
 30
0.0
 11
56.29089999724747
 21
5.000000000000172
 31
0.0
  0
LINE
  5
DA
330
D5
100
AcDbEntity
  8
치수문자_일반주서
 62
     0
370
    -2
100
AcDbLine
 10
56.29089999724751
 20
-4.999999999999822
 30
0.0
 11
56.29089999724742
 21
19.04150000000017
 31
0.0
  0
LINE
  5
DB
330
D5
100
AcDbEntity
  8
치수문자_일반주서
 62
     0
370
    -2
100
AcDbLine
 10
56.29089999724751
 20
-4.999999999999822
 30
0.0
 11
56.29089999724747
 21
5.000000000000172
 31
0.0
  0
LINE
  5
DC
330
D5
100
AcDbEntity
  8
치수문자_일반주서
 62
     0
370
    -2
100
AcDbLine
 10
56.29089999724752
 20
-8.301999999999822
 30
0.0
 11
56.29089999724754
 21
-11.60399999999982
 31
0.0
  0
LINE
  5
DD
330
D5
100
AcDbEntity
  8
치수문자_일반주서
 62
     0
370
    -2
100
AcDbLine
 10
56.29089999724746
 20
8.302000000000172
 30
0.0
 11
56.29089999724744
 21
11.60400000000017
 31
0.0
  0
SOLID
  5
DE
330
D5
100
AcDbEntity
  8
치수문자_일반주서
 62
     0
100
AcDbTrace
 10
56.84123333058086
 20
-8.30199999999982
 30
0.0
 11
55.74056666391419
 21
-8.301999999999824
 31
0.0
 12
56.29089999724751
 22
-4.999999999999822
 32
0.0
 13
56.29089999724751
 23
-4.999999999999822
 33
0.0
  0
SOLID
  5
DF
330
D5
100
AcDbEntity
  8
치수문자_일반주서
 62
     0
100
AcDbTrace
 10
55.74056666391412
 20
8.30200000000017
 30
0.0
 11
56.84123333058079
 21
8.302000000000174
 31
0.0
 12
56.29089999724747
 22
5.000000000000172
 32
0.0
 13
56.29089999724747
 23
5.000000000000172
 33
0.0
  0
MTEXT
  5
E0
330
D5
100
AcDbEntity
  8
치수문자_일반주서
 62
     0
100
AcDbMText
 10
51.91589999724744
 20
15.32275000000016
 30
0.0
 40
3.5
 41
0.0
 71
     2
 72
     1
  1
\A1;%%c10
  7
SLDTEXTSTYLE0
 11
-3.552713678800503E-15
 21
1.0
 31
0.0
 73
     1
 44
1.0
  0
POINT
  5
138
330
D5
100
AcDbEntity
  8
Defpoints
 62
     0
100
AcDbPoint
 10
39.99999999999987
 20
-4.999999999999882
 30
0.0
  0
POINT
  5
139
330
D5
100
AcDbEntity
  8
Defpoints
 62
     0
100
AcDbPoint
 10
39.99999999999987
 20
5.000000000000113
 30
0.0
  0
POINT
  5
13A
330
D5
100
AcDbEntity
  8
Defpoints
 62
     0
100
AcDbPoint
 10
56.29089999724747
 20
5.000000000000174
 30
0.0
  0
ENDBLK
  5
D7
330
D5
100
AcDbEntity
  8
0
100
AcDbBlockEnd
  0
BLOCK
  5
E4
330
E3
100
AcDbEntity
  8
0
100
AcDbBlockBegin
  2
_D_1
 70
     0
 10
0.0
 20
0.0
 30
0.0
  3
_D_1
  1

  0
LINE
  5
E6
330
E3
100
AcDbEntity
  8
치수문자_일반주서
 62
     0
370
    -2
100
AcDbLine
 10
-59.99999999999999
 20
4.062499999999995
 30
0.0
 11
-59.99999999999999
 21
25.78841044024269
 31
0.0
  0
LINE
  5
E7
330
E3
100
AcDbEntity
  8
치수문자_일반주서
 62
     0
370
    -2
100
AcDbLine
 10
39.99999999999987
 20
5.062500000000113
 30
0.0
 11
39.99999999999988
 21
25.78841044024269
 31
0.0
  0
LINE
  5
E8
330
E3
100
AcDbEntity
  8
치수문자_일반주서
 62
     0
370
    -2
100
AcDbLine
 10
-56.69799999999999
 20
25.78841044024269
 30
0.0
 11
36.69799999999988
 21
25.78841044024269
 31
0.0
  0
SOLID
  5
E9
330
E3
100
AcDbEntity
  8
치수문자_일반주서
 62
     0
100
AcDbTrace
 10
-56.69799999999999
 20
26.33874377357603
 30
0.0
 11
-56.69799999999999
 21
25.23807710690936
 31
0.0
 12
-59.99999999999999
 22
25.78841044024269
 32
0.0
 13
-59.99999999999999
 23
25.78841044024269
 33
0.0
  0
SOLID
  5
EA
330
E3
100
AcDbEntity
  8
치수문자_일반주서
 62
     0
100
AcDbTrace
 10
36.69799999999988
 20
25.23807710690936
 30
0.0
 11
36.69799999999988
 21
26.33874377357603
 31
0.0
 12
39.99999999999988
 22
25.78841044024269
 32
0.0
 13
39.99999999999988
 23
25.78841044024269
 33
0.0
  0
MTEXT
  5
EB
330
E3
100
AcDbEntity
  8
치수문자_일반주서
 62
     0
100
AcDbMText
 10
-10.00000000000006
 20
30.16341044024269
 30
0.0
 40
3.5
 41
0.0
 71
     2
 72
     1
  1
\A1;100
  7
SLDTEXTSTYLE0
 73
     1
 44
1.0
  0
POINT
  5
12F
330
E3
100
AcDbEntity
  8
Defpoints
 62
     0
100
AcDbPoint
 10
-59.99999999999999
 20
3.999999999999995
 30
0.0
  0
POINT
  5
130
330
E3
100
AcDbEntity
  8
Defpoints
 62
     0
100
AcDbPoint
 10
39.99999999999987
 20
5.000000000000113
 30
0.0
  0
POINT
  5
131
330
E3
100
AcDbEntity
  8
Defpoints
 62
     0
100
AcDbPoint
 10
39.99999999999987
 20
25.78841044024269
 30
0.0
  0
ENDBLK
  5
E5
330
E3
100
AcDbEntity
  8
0
100
AcDbBlockEnd
  0
BLOCK
  5
EE
330
ED
100
AcDbEntity
  8
0
100
AcDbBlockBegin
  2
_D_2
 70
     0
 10
0.0
 20
0.0
 30
0.0
  3
_D_2
  1

  0
LINE
  5
F0
330
ED
100
AcDbEntity
  8
치수문자_일반주서
 62
     0
370
    -2
100
AcDbLine
 10
10.00000000000001
 20
4.73551498800906
 30
0.0
 11
10.00000000000001
 21
16.69856209795246
 31
0.0
  0
LINE
  5
F1
330
ED
100
AcDbEntity
  8
치수문자_일반주서
 62
     0
370
    -2
100
AcDbLine
 10
39.99999999999987
 20
5.062500000000113
 30
0.0
 11
39.99999999999987
 21
16.69856209795246
 31
0.0
  0
LINE
  5
F2
330
ED
100
AcDbEntity
  8
치수문자_일반주서
 62
     0
370
    -2
100
AcDbLine
 10
13.30200000000001
 20
16.69856209795246
 30
0.0
 11
36.69799999999987
 21
16.69856209795246
 31
0.0
  0
SOLID
  5
F3
330
ED
100
AcDbEntity
  8
치수문자_일반주서
 62
     0
100
AcDbTrace
 10
13.30200000000001
 20
17.2488954312858
 30
0.0
 11
13.30200000000001
 21
16.14822876461913
 31
0.0
 12
10.00000000000001
 22
16.69856209795246
 32
0.0
 13
10.00000000000001
 23
16.69856209795246
 33
0.0
  0
SOLID
  5
F4
330
ED
100
AcDbEntity
  8
치수문자_일반주서
 62
     0
100
AcDbTrace
 10
36.69799999999987
 20
16.14822876461913
 30
0.0
 11
36.69799999999987
 21
17.2488954312858
 31
0.0
 12
39.99999999999987
 22
16.69856209795246
 32
0.0
 13
39.99999999999987
 23
16.69856209795246
 33
0.0
  0
MTEXT
  5
F5
330
ED
100
AcDbEntity
  8
치수문자_일반주서
 62
     0
100
AcDbMText
 10
25.0
 20
21.07356209795246
 30
0.0
 40
3.5
 41
0.0
 71
     2
 72
     1
  1
\A1;30
  7
SLDTEXTSTYLE0
 73
     1
 44
1.0
  0
POINT
  5
132
330
ED
100
AcDbEntity
  8
Defpoints
 62
     0
100
AcDbPoint
 10
10.00000000000001
 20
4.67301498800906
 30
0.0
  0
POINT
  5
133
330
ED
100
AcDbEntity
  8
Defpoints
 62
     0
100
AcDbPoint
 10
39.99999999999987
 20
5.000000000000113
 30
0.0
  0
POINT
  5
134
330
ED
100
AcDbEntity
  8
Defpoints
 62
     0
100
AcDbPoint
 10
39.99999999999987
 20
16.69856209795246
 30
0.0
  0
ENDBLK
  5
EF
330
ED
100
AcDbEntity
  8
0
100
AcDbBlockEnd
  0
BLOCK
  5
F8
330
F7
100
AcDbEntity
  8
0
100
AcDbBlockBegin
  2
_D_3
 70
     0
 10
0.0
 20
0.0
 30
0.0
  3
_D_3
  1

  0
LINE
  5
FA
330
F7
100
AcDbEntity
  8
치수문자_일반주서
 62
     0
370
    -2
100
AcDbLine
 10
-59.06249999999999
 20
4.999999999999996
 30
0.0
 11
-70.20328976141313
 21
4.999999999999954
 31
0.0
  0
LINE
  5
FB
330
F7
100
AcDbEntity
  8
치수문자_일반주서
 62
     0
370
    -2
100
AcDbLine
 10
-59.06249999999999
 20
-4.999999999999994
 30
0.0
 11
-70.2032897614131
 21
-5.000000000000036
 31
0.0
  0
LINE
  5
FC
330
F7
100
AcDbEntity
  8
치수문자_일반주서
 62
     0
370
    -2
100
AcDbLine
 10
-70.20328976141313
 20
4.999999999999954
 30
0.0
 11
-70.20328976141317
 21
19.04149999999995
 31
0.0
  0
LINE
  5
FD
330
F7
100
AcDbEntity
  8
치수문자_일반주서
 62
     0
370
    -2
100
AcDbLine
 10
-70.20328976141313
 20
4.999999999999954
 30
0.0
 11
-70.2032897614131
 21
-5.000000000000036
 31
0.0
  0
LINE
  5
FE
330
F7
100
AcDbEntity
  8
치수문자_일반주서
 62
     0
370
    -2
100
AcDbLine
 10
-70.20328976141315
 20
8.301999999999953
 30
0.0
 11
-70.20328976141316
 21
11.60399999999995
 31
0.0
  0
LINE
  5
FF
330
F7
100
AcDbEntity
  8
치수문자_일반주서
 62
     0
370
    -2
100
AcDbLine
 10
-70.20328976141309
 20
-8.302000000000035
 30
0.0
 11
-70.20328976141307
 21
-11.60400000000003
 31
0.0
  0
SOLID
  5
100
330
F7
100
AcDbEntity
  8
치수문자_일반주서
 62
     0
100
AcDbTrace
 10
-70.75362309474647
 20
8.301999999999952
 30
0.0
 11
-69.65295642807982
 21
8.301999999999955
 31
0.0
 12
-70.20328976141313
 22
4.999999999999954
 32
0.0
 13
-70.20328976141313
 23
4.999999999999954
 33
0.0
  0
SOLID
  5
101
330
F7
100
AcDbEntity
  8
치수문자_일반주서
 62
     0
100
AcDbTrace
 10
-69.65295642807976
 20
-8.302000000000033
 30
0.0
 11
-70.75362309474642
 21
-8.302000000000037
 31
0.0
 12
-70.2032897614131
 22
-5.000000000000036
 32
0.0
 13
-70.2032897614131
 23
-5.000000000000036
 33
0.0
  0
MTEXT
  5
102
330
F7
100
AcDbEntity
  8
치수문자_일반주서
 62
     0
100
AcDbMText
 10
-74.57828976141316
 20
15.32274999999994
 30
0.0
 40
3.5
 41
0.0
 71
     2
 72
     1
  1
\A1;%%c10
  7
SLDTEXTSTYLE0
 11
-2.842170943040404E-15
 21
1.0
 31
0.0
 73
     1
 44
1.0
  0
POINT
  5
135
330
F7
100
AcDbEntity
  8
Defpoints
 62
     0
100
AcDbPoint
 10
-58.99999999999999
 20
4.999999999999996
 30
0.0
  0
POINT
  5
136
330
F7
100
AcDbEntity
  8
Defpoints
 62
     0
100
AcDbPoint
 10
-58.99999999999999
 20
-4.999999999999994
 30
0.0
  0
POINT
  5
137
330
F7
100
AcDbEntity
  8
Defpoints
 62
     0
100
AcDbPoint
 10
-70.2032897614131
 20
-5.000000000000036
 30
0.0
  0
ENDBLK
  5
F9
330
F7
100
AcDbEntity
  8
0
100
AcDbBlockEnd
  0
BLOCK
  5
104
330
103
100
AcDbEntity
  8
0
100
AcDbBlockBegin
  2
SW_DOWELSYMBOL_0
 70
     0
 10
0.0
 20
0.0
 30
0.0
  3
SW_DOWELSYMBOL_0
  1

  0
CIRCLE
  5
106
330
103
100
AcDbEntity
  8
외형선
 62
     0
100
AcDbCircle
 10
0.0
 20
0.0
 30
0.0
 40
3.000000000000004
  0
HATCH
  5
107
330
103
100
AcDbEntity
  8
0
  6
Continuous
 62
     0
370
    30
100
AcDbHatch
 10
0.0
 20
0.0
 30
0.0
210
0.0
220
0.0
230
1.0
  2
SOLID
 70
     1
 71
     0
 91
        1
 92
        0
 93
        3
 72
     2
 10
0.0000000000000104
 20
0.0
 40
3.000000000000004
 50
0.0
 51
90.0
 73
     1
 72
     1
 10
0.0000000000000104
 20
3.000000000000004
 11
0.0000000000000104
 21
0.0
 72
     1
 10
0.0000000000000104
 20
0.0
 11
3.000000000000015
 21
0.0
 97
        0
 75
     0
 76
     1
 98
        1
 10
0.0
 20
0.0
  0
HATCH
  5
108
330
103
100
AcDbEntity
  8
0
  6
Continuous
 62
     0
370
    30
100
AcDbHatch
 10
0.0
 20
0.0
 30
0.0
210
0.0
220
0.0
230
1.0
  2
SOLID
 70
     1
 71
     0
 91
        1
 92
        0
 93
        3
 72
     2
 10
0.0000000000000104
 20
0.0
 40
3.000000000000004
 50
180.0
 51
270.0000000000008
 73
     1
 72
     1
 10
0.0000000000000104
 20
-3.000000000000004
 11
0.0000000000000104
 21
0.0
 72
     1
 10
0.0000000000000104
 20
0.0
 11
-2.999999999999994
 21
0.0
 97
        0
 75
     0
 76
     1
 98
        1
 10
0.0
 20
0.0
  0
ENDBLK
  5
105
330
103
100
AcDbEntity
  8
0
100
AcDbBlockEnd
  0
ENDSEC
  0
SECTION
  2
ENTITIES
  0
SPLINE
  5
95
330
1F
100
AcDbEntity
  8
0
  6
Continuous
 62
     1
370
    15
100
AcDbSpline
210
0.0
220
0.0
230
1.0
 70
     8
 71
     3
 72
     9
 73
     5
 74
     0
 42
0.000000001
 43
0.00000001
 40
0.0
 40
0.0
 40
0.0
 40
0.0
 40
0.5189441717253158
 40
1.0
 40
1.0
 40
1.0
 40
1.0
 10
27.04549969878187
 20
1.281249512432303
 30
0.0
 10
26.80619020497218
 20
1.395584205867482
 30
0.0
 10
26.34504330931656
 20
1.61590596621225
 30
0.0
 10
25.88237123638205
 20
1.858327192568897
 30
0.0
 10
25.65980013911697
 20
1.974945336405258
 30
0.0
  0
LINE
  5
96
330
1F
100
AcDbEntity
  8
0
  6
Continuous
 62
     1
370
    15
100
AcDbLine
 10
15.57257679430943
 20
5.000000000000007
 30
0.0
 11
13.14969773313483
 21
5.000000000000007
 31
0.0
  0
LINE
  5
97
330
1F
100
AcDbEntity
  8
0
  6
Continuous
 62
     1
370
    15
100
AcDbLine
 10
24.31190550460966
 20
1.391179913396579
 30
0.0
 11
24.22794470606689
 21
1.437401606712448
 31
0.0
  0
SPLINE
  5
98
330
1F
100
AcDbEntity
  8
0
  6
Continuous
 62
     1
370
    15
100
AcDbSpline
210
0.0
220
0.0
230
1.0
 70
     8
 71
     3
 72
    16
 73
    12
 74
     0
 42
0.000000001
 43
0.00000001
 40
0.0
 40
0.0
 40
0.0
 40
0.0
 40
0.1878219594724861
 40
0.3218342105924211
 40
0.4420947295771343
 40
0.5453201815941129
 40
0.6479770960366843
 40
0.7819545731632749
 40
0.9034447314021534
 40
0.9937100934555944
 40
1.0
 40
1.0
 40
1.0
 40
1.0
 10
25.39325234102037
 20
3.973193122700453
 30
0.0
 10
25.14463350012946
 20
3.960848612015342
 30
0.0
 10
24.71862341791513
 20
3.939696208629442
 30
0.0
 10
24.11118359330511
 20
3.920820804259819
 30
0.0
 10
23.62683765295707
 20
3.910453184200661
 30
0.0
 10
23.18671869336758
 20
3.905357371889768
 30
0.0
 10
22.72737474652028
 20
3.904078636690932
 30
0.0
 10
22.24385945210745
 20
3.907588260564239
 30
0.0
 10
21.77686880826785
 20
3.916512268472633
 30
0.0
 10
21.48231269781941
 20
3.923928143386706
 30
0.0
 10
21.35188257246938
 20
3.928499977038918
 30
0.0
 10
21.34338595378725
 20
3.92879780031492
 30
0.0
  0
SPLINE
  5
99
330
1F
100
AcDbEntity
  8
0
  6
Continuous
 62
     1
370
    15
100
AcDbSpline
210
0.0
220
0.0
230
1.0
 70
     8
 71
     3
 72
    26
 73
    22
 74
     0
 42
0.000000001
 43
0.00000001
 40
0.0
 40
0.0
 40
0.0
 40
0.0
 40
0.0724069738930447
 40
0.1245853985198239
 40
0.1590686064825485
 40
0.1947372589632021
 40
0.2360566356031447
 40
0.2777036148036796
 40
0.3116761900692998
 40
0.3639219064261769
 40
0.4254070263650046
 40
0.5000091891375134
 40
0.5627539310097559
 40
0.6130530992006
 40
0.6733663459109741
 40
0.7429087124592182
 40
0.784280215521589
 40
0.8156572573504748
 40
0.8510900830697727
 40
0.9122777209100522
 40
0.9999999999999999
 40
0.9999999999999999
 40
0.9999999999999999
 40
0.9999999999999999
 10
17.87359281726142
 20
-4.160696860554054
 30
0.0
 10
18.05432423406808
 20
-4.143123464266872
 30
0.0
 10
18.36529560018498
 20
-4.112886203101677
 30
0.0
 10
18.76268061741728
 20
-4.07847367685382
 30
0.0
 10
19.07133090555698
 20
-4.053669208042932
 30
0.0
 10
19.35198264819087
 20
-4.032589697610979
 30
0.0
 10
19.64973003532338
 20
-4.011919692363534
 30
0.0
 10
19.94272146633088
 20
-3.993381826959675
 30
0.0
 10
20.26317557761985
 20
-3.974909744105454
 30
0.0
 10
20.63335726434416
 20
-3.955922250903036
 30
0.0
 10
21.10546803596967
 20
-3.93593778896667
 30
0.0
 10
21.60389422514825
 20
-3.920218523055593
 30
0.0
 10
22.07431138785559
 20
-3.91046161235289
 30
0.0
 10
22.508853706762
 20
-3.905336279310402
 30
0.0
 10
22.96023692323137
 20
-3.904031021771561
 30
0.0
 10
23.38948895331824
 20
-3.907239641816149
 30
0.0
 10
23.74623339143693
 20
-3.913058765604031
 30
0.0
 10
24.01531679582722
 20
-3.918975967358893
 30
0.0
 10
24.33409519934462
 20
-3.927689125517305
 30
0.0
 10
24.79729076912596
 20
-3.94366987613667
 30
0.0
 10
25.1723225258225
 20
-3.96224851533819
 30
0.0
 10
25.39325234102037
 20
-3.973193122700442
 30
0.0
  0
SPLINE
  5
9A
330
1F
100
AcDbEntity
  8
0
  6
Continuous
 62
     1
370
    15
100
AcDbSpline
210
0.0
220
0.0
230
1.0
 70
     8
 71
     3
 72
    26
 73
    22
 74
     0
 42
0.000000001
 43
0.00000001
 40
0.0
 40
0.0
 40
0.0
 40
0.0
 40
0.071778976974865
 40
0.125167442104759
 40
0.1765464746934456
 40
0.2213390465282938
 40
0.2776568701947522
 40
0.3218858956807472
 40
0.3628294163716547
 40
0.4194204480732323
 40
0.4747004897533421
 40
0.522267044428544
 40
0.5668835098492239
 40
0.6351229277411539
 40
0.7008714164222513
 40
0.7517750280567509
 40
0.7925332024533741
 40
0.8271340404063572
 40
0.8745348327864357
 40
0.9341479120522396
 40
0.9999999999999999
 40
0.9999999999999999
 40
0.9999999999999999
 40
0.9999999999999999
 10
38.1417240780333
 20
3.419761174520951
 30
0.0
 10
37.93193636622055
 20
3.402629389824201
 30
0.0
 10
37.56611071114317
 20
3.372755159798149
 30
0.0
 10
37.04508151809694
 20
3.341902922966681
 30
0.0
 10
36.66124713271524
 20
3.32098755914916
 30
0.0
 10
36.21474941759795
 20
3.303058204636025
 30
0.0
 10
35.77293918287847
 20
3.294963925971702
 30
0.0
 10
35.34812262674384
 20
3.290100734176649
 30
0.0
 10
34.93574988294045
 20
3.29022220845685
 30
0.0
 10
34.48792452717588
 20
3.295833316661466
 30
0.0
 10
34.02220731412159
 20
3.308523216739194
 30
0.0
 10
33.59089494067486
 20
3.325908136729622
 30
0.0
 10
33.12182638374009
 20
3.350256757396705
 30
0.0
 10
32.59941839848769
 20
3.384728181250699
 30
0.0
 10
32.05947184644069
 20
3.429614482436144
 30
0.0
 10
31.59769556076105
 20
3.474315098631403
 30
0.0
 10
31.23348340953694
 20
3.513570549181595
 30
0.0
 10
30.89101800793352
 20
3.552551151640527
 30
0.0
 10
30.46098175268391
 20
3.607437882040039
 30
0.0
 10
29.93898983395356
 20
3.678034189947474
 30
0.0
 10
29.59056188823214
 20
3.732223482400886
 30
0.0
 10
29.40768477393276
 20
3.760665464599777
 30
0.0
  0
SPLINE
  5
9B
330
1F
100
AcDbEntity
  8
0
  6
Continuous
 62
     1
370
    15
100
AcDbSpline
210
0.0
220
0.0
230
1.0
 70
     8
 71
     3
 72
    15
 73
    11
 74
     0
 42
0.000000001
 43
0.00000001
 40
0.0
 40
0.0
 40
0.0
 40
0.0
 40
0.1730391549404744
 40
0.3266251874694661
 40
0.4374112727100655
 40
0.5319774107584986
 40
0.65232790810756
 40
0.8117913725927389
 40
0.9943667272606866
 40
1.0
 40
1.0
 40
1.0
 40
1.0
 10
29.40768477393276
 20
-3.760665464599766
 30
0.0
 10
29.61496277056639
 20
-3.728584544861922
 30
0.0
 10
30.00621649884567
 20
-3.668029253620638
 30
0.0
 10
30.57550520495634
 20
-3.592167596498852
 30
0.0
 10
31.03667509042578
 20
-3.535319514976488
 30
0.0
 10
31.42271851952907
 20
-3.492788419569214
 30
0.0
 10
31.89650367830931
 20
-3.444342766095287
 30
0.0
 10
32.47458189959301
 20
-3.394525922399896
 30
0.0
 10
32.91094524581025
 20
-3.36243113552384
 30
0.0
 10
33.14695527608731
 20
-3.350037796377231
 30
0.0
 10
33.15401929269526
 20
-3.349666851322664
 30
0.0
  0
SPLINE
  5
9C
330
1F
100
AcDbEntity
  8
0
  6
Continuous
 62
     1
370
    15
100
AcDbSpline
210
0.0
220
0.0
230
1.0
 70
     8
 71
     3
 72
     9
 73
     5
 74
     0
 42
0.000000001
 43
0.00000001
 40
0.0
 40
0.0
 40
0.0
 40
0.0
 40
0.498258075651771
 40
0.9999999999999999
 40
0.9999999999999999
 40
0.9999999999999999
 40
0.9999999999999999
 10
10.93475175715185
 20
3.419762740449702
 30
0.0
 10
10.77929857890138
 20
3.406850736229606
 30
0.0
 10
10.46730528497008
 20
3.380936446324311
 30
0.0
 10
10.15612979110289
 20
3.361327503869373
 30
0.0
 10
9.999999999999963
 20
3.351488875347598
 30
0.0
  0
LINE
  5
9D
330
1F
100
AcDbEntity
  8
0
  6
Continuous
 62
     1
370
    15
100
AcDbLine
 10
13.14969773313482
 20
-4.999999999999996
 30
0.0
 11
15.57257679430942
 21
-4.999999999999996
 31
0.0
  0
LINE
  5
9E
330
1F
100
AcDbEntity
  8
0
  6
Continuous
 62
   131
370
    15
100
AcDbLine
 10
8.480110163293231
 20
5.000000000000005
 30
0.0
 11
-58.99999999999999
 21
5.000000000000001
 31
0.0
  0
LINE
  5
9F
330
1F
100
AcDbEntity
  8
0
  6
Continuous
 62
   131
370
    15
100
AcDbLine
 10
-58.99999999999999
 20
-4.999999999999999
 30
0.0
 11
8.480110163293231
 21
-4.999999999999995
 31
0.0
  0
LINE
  5
A0
330
1F
100
AcDbEntity
  8
0
  6
Continuous
 62
   131
370
    15
100
AcDbLine
 10
-58.99999999999999
 20
4.999999999999996
 30
0.0
 11
-59.99999999999999
 21
3.999999999999994
 31
0.0
  0
LINE
  5
A1
330
1F
100
AcDbEntity
  8
0
  6
Continuous
 62
   131
370
    15
100
AcDbLine
 10
-59.99999999999999
 20
-3.999999999999995
 30
0.0
 11
-58.99999999999999
 21
-4.999999999999994
 31
0.0
  0
SPLINE
  5
A2
330
1F
100
AcDbEntity
  8
0
  6
Continuous
 62
   131
370
    15
100
AcDbSpline
210
0.0
220
0.0
230
1.0
 70
     8
 71
     3
 72
     9
 73
     5
 74
     0
 42
0.000000001
 43
0.00000001
 40
0.0
 40
0.0
 40
0.0
 40
0.0
 40
0.4697728046002972
 40
1.0
 40
1.0
 40
1.0
 40
1.0
 10
10.00000000000001
 20
3.351488875347601
 30
0.0
 10
9.7608431385067
 20
3.338509702555259
 30
0.0
 10
9.251752660830379
 20
3.310881085774461
 30
0.0
 10
8.747504203934955
 20
3.300088425286618
 30
0.0
 10
8.480137958850667
 20
3.294365863185246
 30
0.0
  0
SPLINE
  5
A3
330
1F
100
AcDbEntity
  8
0
  6
Continuous
 62
     1
370
    15
100
AcDbSpline
210
0.0
220
0.0
230
1.0
 70
     8
 71
     3
 72
    21
 73
    17
 74
     0
 42
0.000000001
 43
0.00000001
 40
0.0
 40
0.0
 40
0.0
 40
0.0
 40
0.0770408929148815
 40
0.1540794283421598
 40
0.2311157636811668
 40
0.3081500568627931
 40
0.3851824663119333
 40
0.4608392640148524
 40
0.5364925353721117
 40
0.6121428694839017
 40
0.6877908571499135
 40
0.7649830691413095
 40
0.8421747712237808
 40
0.9193660944309303
 40
0.9965571698767965
 40
1.0
 40
1.0
 40
1.0
 40
1.0
 10
40.00000000000002
 20
-4.744704346159493
 30
0.0
 10
39.37267390747648
 20
-4.608827416094315
 30
0.0
 10
38.11804091890324
 20
-4.337077713862009
 30
0.0
 10
36.23613396070276
 20
-3.665707483073688
 30
0.0
 10
34.35428963531417
 20
-2.837982244241796
 30
0.0
 10
32.47250896667051
 20
-1.87252342586649
 30
0.0
 10
30.60195711828535
 20
-0.826414073360808
 30
0.0
 10
28.74270750224607
 20
0.2514372002018111
 30
0.0
 10
26.8947204073639
 20
1.311359787665599
 30
0.0
 10
25.04681550198007
 20
2.311661193063325
 30
0.0
 10
23.18641542920011
 20
3.213698332549633
 30
0.0
 10
21.31338132727688
 20
3.970906688471513
 30
0.0
 10
19.42780683754524
 20
4.552886091864307
 30
0.0
 10
17.54223710575154
 20
4.892966691788119
 30
0.0
 10
16.25716239487667
 20
5.035667662111352
 30
0.0
 10
15.60060966104881
 20
4.996633362786774
 30
0.0
 10
15.57257679430942
 20
4.994966713247669
 30
0.0
  0
SPLINE
  5
A4
330
1F
100
AcDbEntity
  8
0
  6
Continuous
 62
     1
370
    15
100
AcDbSpline
210
0.0
220
0.0
230
1.0
 70
     8
 71
     3
 72
    14
 73
    10
 74
     0
 42
0.000000001
 43
0.00000001
 40
0.0
 40
0.0
 40
0.0
 40
0.0
 40
0.1518381139863542
 40
0.3036771283667453
 40
0.4555170181677456
 40
0.607357758375834
 40
0.7591993239385124
 40
0.911041689765436
 40
1.0
 40
1.0
 40
1.0
 40
1.0
 10
40.00000000000001
 20
-3.944861321841072
 30
0.0
 10
39.34336732783353
 20
-3.805234272500251
 30
0.0
 10
38.03009808969469
 20
-3.525979345835705
 30
0.0
 10
36.06018629221052
 20
-2.870915299621852
 30
0.0
 10
34.09026157645763
 20
-2.082731202149994
 30
0.0
 10
32.1203241753328
 20
-1.182547310403184
 30
0.0
 10
30.15037442131148
 20
-0.2253856153352826
 30
0.0
 10
28.45236321774176
 20
0.6192418360988418
 30
0.0
 10
27.41100138841125
 20
1.103945550518563
 30
0.0
 10
27.02629404375097
 20
1.283008267884792
 30
0.0
  0
LINE
  5
A5
330
1F
100
AcDbEntity
  8
0
  6
Continuous
 62
     1
370
    15
100
AcDbLine
 10
39.99999999999987
 20
-4.744704346159494
 30
0.0
 11
40.00000000000001
 21
-3.944861321841072
 31
0.0
  0
SPLINE
  5
A6
330
1F
100
AcDbEntity
  8
0
  6
Continuous
 62
     1
370
    15
100
AcDbSpline
210
0.0
220
0.0
230
1.0
 70
     8
 71
     3
 72
    60
 73
    56
 74
     0
 42
0.000000001
 43
0.00000001
 40
0.0
 40
0.0
 40
0.0
 40
0.0
 40
0.0624999999999997
 40
0.0624999999999997
 40
0.1249999999999995
 40
0.1249999999999995
 40
0.1562499999999995
 40
0.1562499999999995
 40
0.1874999999999995
 40
0.1874999999999995
 40
0.2187499999999995
 40
0.2187499999999995
 40
0.2499999999999995
 40
0.2499999999999995
 40
0.2812499999999996
 40
0.2812499999999996
 40
0.3124999999999996
 40
0.3124999999999996
 40
0.3437499999999996
 40
0.3437499999999996
 40
0.3749999999999996
 40
0.3749999999999996
 40
0.4062499999999997
 40
0.4062499999999997
 40
0.4374999999999997
 40
0.4374999999999997
 40
0.4687499999999997
 40
0.4687499999999997
 40
0.4999999999999997
 40
0.4999999999999997
 40
0.5312499999999997
 40
0.5312499999999997
 40
0.5624999999999997
 40
0.5624999999999997
 40
0.5937499999999996
 40
0.5937499999999996
 40
0.6249999999999996
 40
0.6249999999999996
 40
0.6562499999999996
 40
0.6562499999999996
 40
0.6874999999999996
 40
0.6874999999999996
 40
0.7187499999999996
 40
0.7187499999999996
 40
0.7499999999999994
 40
0.7499999999999994
 40
0.7812499999999994
 40
0.7812499999999994
 40
0.8124999999999996
 40
0.8124999999999996
 40
0.8749999999999998
 40
0.8749999999999998
 40
0.9374999999999999
 40
0.9374999999999999
 40
1.0
 40
1.0
 40
1.0
 40
1.0
 10
40.00000000000001
 20
-4.999999999999883
 30
0.0
 10
39.3789220511699
 20
-4.980972351783256
 30
0.0
 10
38.74646595146029
 20
-4.926759386381621
 30
0.0
 10
37.50271571412025
 20
-4.743178232795667
 30
0.0
 10
36.87188090148797
 20
-4.612929797480232
 30
0.0
 10
35.93795810292892
 20
-4.366103908688671
 30
0.0
 10
35.62636091136521
 20
-4.275137179998383
 30
0.0
 10
34.99956521800556
 20
-4.076479804299066
 30
0.0
 10
34.68566733526131
 20
-3.968903720061598
 30
0.0
 10
34.06236937404559
 20
-3.739230748220225
 30
0.0
 10
33.75143572075102
 20
-3.616976501859944
 30
0.0
 10
33.12481596816346
 20
-3.35818137741231
 30
0.0
 10
32.81080410797536
 20
-3.221844774444375
 30
0.0
 10
32.18688091407972
 20
-2.937740307544693
 30
0.0
 10
31.87645881164424
 20
-2.789924784349751
 30
0.0
 10
31.25007356140875
 20
-2.483094652441072
 30
0.0
 10
30.93597722271578
 20
-2.324361011728021
 30
0.0
 10
30.31148651938444
 20
-1.999070153604082
 30
0.0
 10
30.00142382180626
 20
-1.832594123637535
 30
0.0
 10
29.37533156242262
 20
-1.492075760009611
 30
0.0
 10
29.06118027071151
 20
-1.318357340396684
 30
0.0
 10
28.43617995725487
 20
-0.9670602634401071
 30
0.0
 10
28.12632440707286
 20
-0.7896813094366405
 30
0.0
 10
27.50058353578034
 20
-0.4313930310608823
 30
0.0
 10
27.18640683381174
 20
-0.250803849421173
 30
0.0
 10
26.56095496781042
 20
0.110094464679939
 30
0.0
 10
26.25115424330902
 20
0.2901184144405021
 30
0.0
 10
25.6258230479656
 20
0.6494327477929467
 30
0.0
 10
25.31165048648896
 20
0.8284568787613062
 30
0.0
 10
24.68580526589476
 20
1.182094693879022
 30
0.0
 10
24.37590702835045
 20
1.356384447832661
 30
0.0
 10
23.75104366938371
 20
1.699939895556814
 30
0.0
 10
23.43690479784664
 20
1.869036436720494
 30
0.0
 10
22.81072454299191
 20
2.198885067930754
 30
0.0
 10
22.50057648393101
 20
2.359324728567641
 30
0.0
 10
21.87623897637191
 20
2.671081356176167
 30
0.0
 10
21.5621633336306
 20
2.822352672568067
 30
0.0
 10
20.93570646915787
 20
3.112990960941182
 30
0.0
 10
20.62515635759439
 20
3.252100574254437
 30
0.0
 10
20.00140255320607
 20
3.517514263595374
 30
0.0
 10
19.68741965824262
 20
3.643897431996599
 30
0.0
 10
19.06074469496595
 20
3.88173451486945
 30
0.0
 10
18.74964042458937
 20
3.99301395829947
 30
0.0
 10
18.12652799410193
 20
4.199716712258568
 30
0.0
 10
17.8126673367549
 20
4.295314148187113
 30
0.0
 10
17.18583285346496
 20
4.46922657124233
 30
0.0
 10
16.87402248974673
 20
4.547455105067153
 30
0.0
 10
16.25160890520991
 20
4.685832947565616
 30
0.0
 10
15.93789993692407
 20
4.746188337269424
 30
0.0
 10
14.99749687476107
 20
4.898968191191296
 30
0.0
 10
14.37659983433731
 20
4.962952515788345
 30
0.0
 10
13.12264462180211
 20
5.013012249128093
 30
0.0
 10
12.5017747810497
 20
4.998925785550682
 30
0.0
 10
11.24785245186149
 20
4.892997891061516
 30
0.0
 10
10.62688605488338
 20
4.801494588309998
 30
0.0
 10
10.00000000000001
 20
4.67301498800906
 30
0.0
  0
LINE
  5
A7
330
1F
100
AcDbEntity
  8
0
  6
Continuous
 62
     1
370
    15
100
AcDbLine
 10
40.00000000000001
 20
-4.999999999999883
 30
0.0
 11
39.99999999999984
 21
-4.744704346159486
 31
0.0
  0
SPLINE
  5
A8
330
1F
100
AcDbEntity
  8
0
  6
Continuous
 62
     1
370
    15
100
AcDbSpline
210
0.0
220
0.0
230
1.0
 70
     8
 71
     3
 72
    16
 73
    12
 74
     0
 42
0.000000001
 43
0.00000001
 40
0.0
 40
0.0
 40
0.0
 40
0.0
 40
0.0823239997661578
 40
0.200621183548998
 40
0.3189189553788018
 40
0.4372172947817154
 40
0.5555161812575445
 40
0.6738155942806929
 40
0.8011057766788818
 40
0.9284121003756245
 40
1.0
 40
1.0
 40
1.0
 40
1.0
 10
27.58133621799981
 20
-0.4750930852447671
 30
0.0
 10
27.12435900843322
 20
-0.2917775799251657
 30
0.0
 10
26.01071889256687
 20
0.1549569536806657
 30
0.0
 10
24.24041156753117
 20
0.8706223645917868
 30
0.0
 10
22.27041037100459
 20
1.619149894661779
 30
0.0
 10
20.30040160114998
 20
2.285210809391055
 30
0.0
 10
18.33037200510237
 20
2.832696631801343
 30
0.0
 10
16.31046907808903
 20
3.246822017541666
 30
0.0
 10
14.24040209916258
 20
3.479913327953459
 30
0.0
 10
12.42965576203365
 20
3.537083290876109
 30
0.0
 10
11.32551985057095
 20
3.431789877663236
 30
0.0
 10
10.92810875696748
 20
3.393891671419099
 30
0.0
  0
SPLINE
  5
A9
330
1F
100
AcDbEntity
  8
0
  6
Continuous
 62
   131
370
    15
100
AcDbSpline
210
0.0
220
0.0
230
1.0
 70
    24
 71
     3
 72
    10
 73
     6
 74
     0
 42
0.000000001
 43
0.00000001
 40
0.0
 40
0.0
 40
0.0
 40
0.0
 40
0.1910756895106616
 40
0.6385107954699659
 40
1.0
 40
1.0
 40
1.0
 40
1.0
 10
10.00000000000001
 20
4.673014988009059
 30
0.0
 10
10.00000000000001
 20
4.578126172917199
 30
0.0
 10
10.00000000000001
 20
4.261039614388125
 30
0.0
 10
10.00000000000001
 20
3.779234212321433
 30
0.0
 10
10.00000000000001
 20
3.483600577425429
 30
0.0
 10
10.00000000000001
 20
3.351488875347601
 30
0.0
  0
SPLINE
  5
AA
330
1F
100
AcDbEntity
  8
0
  6
Continuous
 62
     1
370
    15
100
AcDbSpline
210
0.0
220
0.0
230
1.0
 70
     8
 71
     3
 72
     8
 73
     4
 74
     0
 42
0.000000001
 43
0.00000001
 40
0.0
 40
0.0
 40
0.0
 40
0.0
 40
1.0
 40
1.0
 40
1.0
 40
1.0
 10
36.90623807966205
 20
1.398590784794592
 30
0.0
 10
36.68214042923194
 20
1.664076176022835
 30
0.0
 10
36.48755699161193
 20
1.917882404497379
 30
0.0
 10
36.33398001936781
 20
2.15394762945778
 30
0.0
  0
LINE
  5
AB
330
1F
100
AcDbEntity
  8
0
  6
Continuous
 62
     1
370
    15
100
AcDbLine
 10
36.33398001936781
 20
2.15394762945778
 30
0.0
 11
40.00000000000001
 21
0.0000000000000086
 31
0.0
  0
LINE
  5
AC
330
1F
100
AcDbEntity
  8
0
  6
Continuous
 62
     1
370
    15
100
AcDbLine
 10
40.00000000000001
 20
0.0000000000000086
 30
0.0
 11
40.00000000000001
 21
-1.336214730148215
 31
0.0
  0
SPLINE
  5
AD
330
1F
100
AcDbEntity
  8
0
  6
Continuous
 62
     1
370
    15
100
AcDbSpline
210
0.0
220
0.0
230
1.0
 70
     8
 71
     3
 72
    12
 73
     8
 74
     0
 42
0.000000001
 43
0.00000001
 40
0.0
 40
0.0
 40
0.0
 40
0.0
 40
0.4999999999999991
 40
0.4999999999999991
 40
0.7499999999999996
 40
0.7499999999999996
 40
1.0
 40
1.0
 40
1.0
 40
1.0
 10
40.00000000000001
 20
-1.336214730148215
 30
0.0
 10
39.46446038354473
 20
-0.9151902182568152
 30
0.0
 10
38.93786580922739
 20
-0.476902540714837
 30
0.0
 10
38.16173639957112
 20
0.2070893295748679
 30
0.0
 10
37.90536026588217
 20
0.4395904021070481
 30
0.0
 10
37.39784408881667
 20
0.9146977532766359
 30
0.0
 10
37.14808896088135
 20
1.156071134681417
 30
0.0
 10
36.90623807966204
 20
1.3985907847946
 30
0.0
  0
SPLINE
  5
AE
330
1F
100
AcDbEntity
  8
0
  6
Continuous
 62
     1
370
    15
100
AcDbSpline
210
0.0
220
0.0
230
1.0
 70
     8
 71
     3
 72
    14
 73
    10
 74
     0
 42
0.000000001
 43
0.00000001
 40
0.0
 40
0.0
 40
0.0
 40
0.0
 40
0.1384903888646125
 40
0.277012324448581
 40
0.4156302729461361
 40
0.5866836464841082
 40
0.7577379344201789
 40
0.9287931080392574
 40
1.0
 40
1.0
 40
1.0
 40
1.0
 10
36.90623807966203
 20
1.398590784794605
 30
0.0
 10
36.37470035405394
 20
1.624115531814749
 30
0.0
 10
35.31150382388353
 20
2.075216398126863
 30
0.0
 10
33.71625203552919
 20
2.669240792436644
 30
0.0
 10
31.99582668440953
 20
3.214908360472577
 30
0.0
 10
30.15034211481206
 20
3.663671049569948
 30
0.0
 10
28.18038795871338
 20
3.941673240629941
 30
0.0
 10
26.59371583857512
 20
4.039046666974087
 30
0.0
 10
25.6637017441163
 20
3.968751608887692
 30
0.0
 10
25.39034729637146
 20
3.948090129780132
 30
0.0
  0
SPLINE
  5
AF
330
1F
100
AcDbEntity
  8
0
  6
Continuous
 62
     1
370
    15
100
AcDbSpline
210
0.0
220
0.0
230
1.0
 70
    24
 71
     3
 72
    10
 73
     6
 74
     0
 42
0.000000001
 43
0.00000001
 40
0.0
 40
0.0
 40
0.0
 40
0.0
 40
0.5
 40
0.5
 40
1.0
 40
1.0
 40
1.0
 40
1.0
 10
40.00000000000001
 20
-3.944861321841071
 30
0.0
 10
40.00000000000001
 20
-3.642456945019016
 30
0.0
 10
40.00000000000002
 20
-3.260357419532335
 30
0.0
 10
40.00000000000001
 20
-2.372012795753391
 30
0.0
 10
40.00000000000003
 20
-1.86653721525654
 30
0.0
 10
40.00000000000002
 20
-1.336214730148375
 30
0.0
  0
SPLINE
  5
B0
330
1F
100
AcDbEntity
  8
0
  6
Continuous
 62
     1
370
    15
100
AcDbSpline
210
0.0
220
0.0
230
1.0
 70
     8
 71
     3
 72
    11
 73
     7
 74
     0
 42
0.000000001
 43
0.00000001
 40
0.0
 40
0.0
 40
0.0
 40
0.0
 40
0.192771832578141
 40
0.4618191603660962
 40
0.7308992694738244
 40
1.0
 40
1.0
 40
1.0
 40
1.0
 10
17.87920219175144
 20
-4.141031900501289
 30
0.0
 10
17.37294746859597
 20
-4.187152064050268
 30
0.0
 10
16.16012437067653
 20
-4.297641106568982
 30
0.0
 10
14.24044860739041
 20
-4.187457830847252
 30
0.0
 10
12.12031456473734
 20
-3.858279572209828
 30
0.0
 10
10.70678957554175
 20
-3.446233382363748
 30
0.0
 10
10.00000000000001
 20
-3.240202393275518
 30
0.0
  0
SPLINE
  5
B1
330
1F
100
AcDbEntity
  8
0
  6
Continuous
 62
     1
370
    15
100
AcDbSpline
210
0.0
220
0.0
230
1.0
 70
     8
 71
     3
 72
    17
 73
    13
 74
     0
 42
0.000000001
 43
0.00000001
 40
0.0
 40
0.0
 40
0.0
 40
0.0
 40
0.0636806047349556
 40
0.1651405435083381
 40
0.2666009905608374
 40
0.3680619288127113
 40
0.4695233411615648
 40
0.5709852104831296
 40
0.6724475196320441
 40
0.7816198628848428
 40
0.890805690213314
 40
1.0
 40
1.0
 40
1.0
 40
1.0
 10
29.41683023355538
 20
-3.736405463452915
 30
0.0
 10
29.00468306408081
 20
-3.803045643223763
 30
0.0
 10
27.93587714027188
 20
-3.975861142584283
 30
0.0
 10
26.21040757848357
 20
-4.028624426826878
 30
0.0
 10
24.24041890664375
 20
-3.911542680691723
 30
0.0
 10
22.2704184086094
 20
-3.584819240432355
 30
0.0
 10
20.3004111076989
 20
-3.075537071797057
 30
0.0
 10
18.33038029311482
 20
-2.407289090615301
 30
0.0
 10
16.31049348499811
 20
-1.594773119029428
 30
0.0
 10
14.24041160577143
 20
-0.6726429038013377
 30
0.0
 10
12.12029470283894
 20
0.3172005260145008
 30
0.0
 10
10.70678320244632
 20
0.9509912892024566
 30
0.0
 10
10.00000000000001
 20
1.267898979845546
 30
0.0
  0
SPLINE
  5
B2
330
1F
100
AcDbEntity
  8
0
  6
Continuous
 62
   131
370
    15
100
AcDbSpline
210
0.0
220
0.0
230
1.0
 70
    24
 71
     3
 72
    14
 73
    10
 74
     0
 42
0.000000001
 43
0.00000001
 40
0.0
 40
0.0
 40
0.0
 40
0.0
 40
0.25
 40
0.25
 40
0.5
 40
0.5
 40
0.75
 40
0.75
 40
1.0
 40
1.0
 40
1.0
 40
1.0
 10
10.0
 20
1.267898979845549
 30
0.0
 10
10.0
 20
0.8904987461070295
 30
0.0
 10
10.0
 20
0.4957221456514961
 30
0.0
 10
10.0
 20
-0.3032719303233447
 30
0.0
 10
10.0
 20
-0.707284174520744
 30
0.0
 10
10.0
 20
-1.495186583406652
 30
0.0
 10
10.0
 20
-1.878849225797119
 30
0.0
 10
10.0
 20
-2.59931028878928
 30
0.0
 10
10.0
 20
-2.935965318244802
 30
0.0
 10
10.0
 20
-3.240202393275514
 30
0.0
  0
LINE
  5
B3
330
1F
100
AcDbEntity
  8
0
  6
Continuous
 62
     1
370
    15
100
AcDbLine
 10
40.00000000000001
 20
3.500000000000008
 30
0.0
 11
38.14061646596971
 21
3.414893137346281
 31
0.0
  0
SPLINE
  5
B4
330
1F
100
AcDbEntity
  8
0
  6
Continuous
 62
     1
370
    15
100
AcDbSpline
210
0.0
220
0.0
230
1.0
 70
     8
 71
     3
 72
    10
 73
     6
 74
     0
 42
0.000000001
 43
0.00000001
 40
0.0
 40
0.0
 40
0.0
 40
0.0
 40
0.5
 40
0.5
 40
1.0
 40
1.0
 40
1.0
 40
1.0
 10
40.00000000000001
 20
3.500000000000008
 30
0.0
 10
39.37778486821062
 20
3.331216419726823
 30
0.0
 10
38.76026279451121
 20
3.137623633046193
 30
0.0
 10
37.53581778859246
 20
2.694407155383058
 30
0.0
 10
36.92880705278059
 20
2.445160530077927
 30
0.0
 10
36.33398001936781
 20
2.15394762945778
 30
0.0
  0
SPLINE
  5
B5
330
1F
100
AcDbEntity
  8
0
  6
Continuous
 62
   131
370
    15
100
AcDbSpline
210
0.0
220
0.0
230
1.0
 70
    24
 71
     3
 72
    13
 73
     9
 74
     0
 42
0.000000001
 43
0.00000001
 40
0.0
 40
0.0
 40
0.0
 40
0.0
 40
0.0600384200263934
 40
0.2509671783597393
 40
0.4365150362445229
 40
0.6274437945778717
 40
0.8111149950367972
 40
1.0
 40
1.0
 40
1.0
 40
1.0
 10
10.00000000000001
 20
3.334881691159709
 30
0.0
 10
10.00000000000001
 20
3.339074508080472
 30
0.0
 10
10.00000000000002
 20
3.356600942512293
 30
0.0
 10
10.00000000000001
 20
3.228149308032524
 30
0.0
 10
10.00000000000001
 20
2.949578350513856
 30
0.0
 10
10.00000000000001
 20
2.518241774046288
 30
0.0
 10
10.00000000000001
 20
1.962886810829688
 30
0.0
 10
10.00000000000001
 20
1.501712917042476
 30
0.0
 10
10.00000000000001
 20
1.267898979845543
 30
0.0
  0
LINE
  5
B6
330
1F
100
AcDbEntity
  8
0
  6
Continuous
 62
     1
370
    15
100
AcDbLine
 10
40.00000000000001
 20
0.0000000000000086
 30
0.0
 11
40.00000000000001
 21
3.500000000000008
 31
0.0
  0
SPLINE
  5
B7
330
1F
100
AcDbEntity
  8
0
  6
Continuous
 62
     1
370
    15
100
AcDbSpline
210
0.0
220
0.0
230
1.0
 70
     8
 71
     3
 72
    14
 73
    10
 74
     0
 42
0.000000001
 43
0.00000001
 40
0.0
 40
0.0
 40
0.0
 40
0.0
 40
0.0024697729231644
 40
0.1687259092930761
 40
0.334981229638137
 40
0.5012360163528649
 40
0.6674905519450901
 40
0.8337451189759739
 40
0.9999999999999999
 40
0.9999999999999999
 40
0.9999999999999999
 40
0.9999999999999999
 10
21.34139228237226
 20
-3.929599055205463
 30
0.0
 10
21.33205536981362
 20
-3.933357476688901
 30
0.0
 10
20.69419144043371
 20
-4.190119171803469
 30
0.0
 10
19.42780598374495
 20
-4.535206498200139
 30
0.0
 10
17.54223732736091
 20
-4.91320165496295
 30
0.0
 10
15.65667626797976
 20
-5.039088461570943
 30
0.0
 10
13.77111851243363
 20
-4.929019862674085
 30
0.0
 10
11.88556044958852
 20
-4.598243548614702
 30
0.0
 10
10.62852054554059
 20
-4.199470682450415
 30
0.0
 10
9.999999999996778
 20
-4.000084061084983
 30
0.0
  0
SPLINE
  5
B8
330
1F
100
AcDbEntity
  8
0
  6
Continuous
 62
   131
370
    15
100
AcDbSpline
210
0.0
220
0.0
230
1.0
 70
    24
 71
     3
 72
     8
 73
     4
 74
     0
 42
0.000000001
 43
0.00000001
 40
0.0
 40
0.0
 40
0.0
 40
0.0
 40
1.0
 40
1.0
 40
1.0
 40
1.0
 10
10.00000000000001
 20
-3.240202393275518
 30
0.0
 10
10.00000000000001
 20
-3.485483965842123
 30
0.0
 10
10.00000000000001
 20
-3.740370229503979
 30
0.0
 10
10.00000000000001
 20
-4.000084061076201
 30
0.0
  0
SPLINE
  5
B9
330
1F
100
AcDbEntity
  8
0
  6
Continuous
 62
     1
370
    15
100
AcDbSpline
210
0.0
220
0.0
230
1.0
 70
     8
 71
     3
 72
     9
 73
     5
 74
     0
 42
0.000000001
 43
0.00000001
 40
0.0
 40
0.0
 40
0.0
 40
0.0
 40
0.5973379521897187
 40
0.9999999999999999
 40
0.9999999999999999
 40
0.9999999999999999
 40
0.9999999999999999
 10
10.00000000000001
 20
-4.673014988009051
 30
0.0
 10
10.62714484352869
 20
-4.787337674126857
 30
0.0
 10
11.67704438737936
 20
-4.978724619655298
 30
0.0
 10
12.72694329072137
 20
-4.975434182228066
 30
0.0
 10
13.14969773313482
 20
-4.974109247955425
 30
0.0
  0
SPLINE
  5
BA
330
1F
100
AcDbEntity
  8
0
  6
Continuous
 62
     1
370
    15
100
AcDbSpline
210
0.0
220
0.0
230
1.0
 70
     8
 71
     3
 72
    11
 73
     7
 74
     0
 42
0.000000001
 43
0.00000001
 40
0.0
 40
0.0
 40
0.0
 40
0.0
 40
0.173484995177462
 40
0.4489829400536597
 40
0.7244877894867897
 40
1.0
 40
1.0
 40
1.0
 40
1.0
 10
33.15436584579082
 20
3.349810543423145
 30
0.0
 10
33.55023393991379
 20
3.520166417330247
 30
0.0
 10
34.57474917589116
 20
3.961051123491612
 30
0.0
 10
36.22793728318941
 20
4.470925891487947
 30
0.0
 10
38.11394574340587
 20
4.883417390317754
 30
0.0
 10
39.37130964872765
 20
4.958321513988048
 30
0.0
 10
39.99999999999987
 20
5.000000000000113
 30
0.0
  0
LINE
  5
BB
330
1F
100
AcDbEntity
  8
0
  6
Continuous
 62
   131
370
    15
100
AcDbLine
 10
10.00000000000001
 20
-4.673014988009048
 30
0.0
 11
10.00000000000001
 21
-4.000084061067726
 31
0.0
  0
SPLINE
  5
BC
330
1F
100
AcDbEntity
  8
0
  6
Continuous
 62
     1
370
    15
100
AcDbSpline
210
0.0
220
0.0
230
1.0
 70
    24
 71
     3
 72
    10
 73
     6
 74
     0
 42
0.000000001
 43
0.00000001
 40
0.0
 40
0.0
 40
0.0
 40
0.0
 40
0.5
 40
0.5
 40
1.0
 40
1.0
 40
1.0
 40
1.0
 10
40.00000000000001
 20
3.500000000000009
 30
0.0
 10
40.00000000000001
 20
3.712161284036577
 30
0.0
 10
40.00000000000001
 20
3.958712344335594
 30
0.0
 10
40.0
 20
4.475975804804285
 30
0.0
 10
40.00000000000001
 20
4.745367179007373
 30
0.0
 10
39.99999999999987
 20
5.000000000000113
 30
0.0
  0
SPLINE
  5
BD
330
1F
100
AcDbEntity
  8
0
  6
Continuous
 62
   131
370
    15
100
AcDbSpline
210
0.0
220
0.0
230
1.0
 70
     8
 71
     3
 72
    10
 73
     6
 74
     0
 42
0.000000001
 43
0.00000001
 40
0.0
 40
0.0
 40
0.0
 40
0.0
 40
0.5
 40
0.5
 40
1.0
 40
1.0
 40
1.0
 40
1.0
 10
10.00000000000001
 20
4.673014988009058
 30
0.0
 10
9.74579020177907
 20
4.62091497236254
 30
0.0
 10
9.491345919288507
 20
4.562772042325572
 30
0.0
 10
8.98492489443537
 20
4.435118348511191
 30
0.0
 10
8.733604040021332
 20
4.36569062091456
 30
0.0
 10
8.480110163293231
 20
4.290551509839368
 30
0.0
  0
LINE
  5
BE
330
1F
100
AcDbEntity
  8
0
  6
Continuous
 62
   131
370
    15
100
AcDbLine
 10
8.480110163293231
 20
-3.414519301012605
 30
0.0
 11
8.480110163293231
 21
5.000000000000005
 31
0.0
  0
SPLINE
  5
BF
330
1F
100
AcDbEntity
  8
0
  6
Continuous
 62
   131
370
    15
100
AcDbSpline
210
0.0
220
0.0
230
1.0
 70
     8
 71
     3
 72
    10
 73
     6
 74
     0
 42
0.000000001
 43
0.00000001
 40
0.0
 40
0.0
 40
0.0
 40
0.0
 40
0.5
 40
0.5
 40
1.0
 40
1.0
 40
1.0
 40
1.0
 10
10.00000000000001
 20
-4.0000840610861
 30
0.0
 10
9.745809482202812
 20
-3.912209111560545
 30
0.0
 10
9.49138451538831
 20
-3.819149109207637
 30
0.0
 10
8.985001526178332
 20
-3.623772817088324
 30
0.0
 10
8.733699851718095
 20
-3.521563966547537
 30
0.0
 10
8.48022551997073
 20
-3.414675835521672
 30
0.0
  0
SPLINE
  5
C0
330
1F
100
AcDbEntity
  8
0
  6
Continuous
 62
   131
370
    15
100
AcDbSpline
210
0.0
220
0.0
230
1.0
 70
     8
 71
     3
 72
    10
 73
     6
 74
     0
 42
0.000000001
 43
0.00000001
 40
0.0
 40
0.0
 40
0.0
 40
0.0
 40
0.5
 40
0.5
 40
1.0
 40
1.0
 40
1.0
 40
1.0
 10
10.00000000000001
 20
-4.673014988009047
 30
0.0
 10
9.74579020177907
 20
-4.620914972362529
 30
0.0
 10
9.491345919288507
 20
-4.562772042325562
 30
0.0
 10
8.98492489443537
 20
-4.43511834851118
 30
0.0
 10
8.733604040021335
 20
-4.365690620914549
 30
0.0
 10
8.480110163293231
 20
-4.290551509839357
 30
0.0
  0
LINE
  5
C1
330
1F
100
AcDbEntity
  8
0
  6
Continuous
 62
   131
370
    15
100
AcDbLine
 10
8.480110163293231
 20
-4.999999999999995
 30
0.0
 11
8.480110163293231
 21
-4.290553219983621
 31
0.0
  0
LINE
  5
C2
330
1F
100
AcDbEntity
  8
0
  6
Continuous
 62
   131
370
    15
100
AcDbLine
 10
-58.99999999999999
 20
4.999999999999996
 30
0.0
 11
-58.99999999999999
 21
-4.999999999999999
 31
0.0
  0
LINE
  5
C3
330
1F
100
AcDbEntity
  8
0
  6
Continuous
 62
   131
370
    15
100
AcDbLine
 10
-59.99999999999999
 20
3.999999999999995
 30
0.0
 11
-59.99999999999999
 21
-3.999999999999995
 31
0.0
  0
SPLINE
  5
C4
330
1F
100
AcDbEntity
  8
0
  6
Continuous
 62
   131
370
    15
100
AcDbSpline
210
0.0
220
0.0
230
1.0
 70
     8
 71
     3
 72
    10
 73
     6
 74
     0
 42
0.000000001
 43
0.00000001
 40
0.0
 40
0.0
 40
0.0
 40
0.0
 40
0.5
 40
0.5
 40
1.0
 40
1.0
 40
1.0
 40
1.0
 10
10.00000000000001
 20
-3.240202393275517
 30
0.0
 10
9.745809482202805
 20
-3.159641549718373
 30
0.0
 10
9.491384515388303
 20
-3.074877794847819
 30
0.0
 10
8.985001526178324
 20
-2.897954907597234
 30
0.0
 10
8.733699851718095
 20
-2.805890677937746
 30
0.0
 10
8.48022551997073
 20
-2.710081349529546
 30
0.0
  0
SPLINE
  5
C5
330
1F
100
AcDbEntity
  8
0
  6
Continuous
 62
   131
370
    15
100
AcDbSpline
210
0.0
220
0.0
230
1.0
 70
     8
 71
     3
 72
    10
 73
     6
 74
     0
 42
0.000000001
 43
0.00000001
 40
0.0
 40
0.0
 40
0.0
 40
0.0
 40
0.5
 40
0.5
 40
1.0
 40
1.0
 40
1.0
 40
1.0
 10
10.0
 20
1.267898979845549
 30
0.0
 10
9.74579724294254
 20
1.37903326660336
 30
0.0
 10
9.491360014489816
 20
1.488566051836596
 30
0.0
 10
8.984952880149873
 20
1.703177936698977
 30
0.0
 10
8.733639030237091
 20
1.808174465224921
 30
0.0
 10
8.480152291285867
 20
1.911016664285392
 30
0.0
  0
SPLINE
  5
C6
330
1F
100
AcDbEntity
  8
0
  6
Continuous
 62
   131
370
    15
100
AcDbSpline
210
0.0
220
0.0
230
1.0
 70
    24
 71
     3
 72
    14
 73
    10
 74
     0
 42
0.000000001
 43
0.00000001
 40
0.0
 40
0.0
 40
0.0
 40
0.0
 40
0.25
 40
0.25
 40
0.5
 40
0.5
 40
0.75
 40
0.75
 40
1.0
 40
1.0
 40
1.0
 40
1.0
 10
10.0
 20
1.267898979845549
 30
0.0
 10
10.0
 20
0.8904987461070295
 30
0.0
 10
10.0
 20
0.4957221456514961
 30
0.0
 10
10.0
 20
-0.3032719303233447
 30
0.0
 10
10.0
 20
-0.707284174520744
 30
0.0
 10
10.0
 20
-1.495186583406652
 30
0.0
 10
10.0
 20
-1.878849225797119
 30
0.0
 10
10.0
 20
-2.59931028878928
 30
0.0
 10
10.0
 20
-2.935965318244802
 30
0.0
 10
10.0
 20
-3.240202393275514
 30
0.0
  0
SPLINE
  5
C7
330
1F
100
AcDbEntity
  8
0
  6
Continuous
 62
   131
370
    15
100
AcDbSpline
210
0.0
220
0.0
230
1.0
 70
    24
 71
     3
 72
    13
 73
     9
 74
     0
 42
0.000000001
 43
0.00000001
 40
0.0
 40
0.0
 40
0.0
 40
0.0
 40
0.0591617295277471
 40
0.2502685647441437
 40
0.4359894808129188
 40
0.6270963160293184
 40
0.8109388243371474
 40
1.0
 40
1.0
 40
1.0
 40
1.0
 10
10.00000000000001
 20
3.334995748803225
 30
0.0
 10
10.00000000000001
 20
3.33910388045976
 30
0.0
 10
10.00000000000002
 20
3.356482280680105
 30
0.0
 10
10.00000000000001
 20
3.228092291915207
 30
0.0
 10
10.00000000000001
 20
2.949593944905337
 30
0.0
 10
10.00000000000001
 20
2.518237747404022
 30
0.0
 10
10.00000000000001
 20
1.962887834095211
 30
0.0
 10
10.00000000000001
 20
1.50171326129849
 30
0.0
 10
10.00000000000001
 20
1.267898979845543
 30
0.0
  0
SPLINE
  5
C8
330
1F
100
AcDbEntity
  8
0
  6
Continuous
 62
   131
370
    15
100
AcDbSpline
210
0.0
220
0.0
230
1.0
 70
    24
 71
     3
 72
     8
 73
     4
 74
     0
 42
0.000000001
 43
0.00000001
 40
0.0
 40
0.0
 40
0.0
 40
0.0
 40
1.0
 40
1.0
 40
1.0
 40
1.0
 10
10.00000000000001
 20
-3.240202393275518
 30
0.0
 10
10.00000000000001
 20
-3.485483965842127
 30
0.0
 10
10.00000000000001
 20
-3.740370229503985
 30
0.0
 10
10.00000000000001
 20
-4.00008406107621
 30
0.0
  0
SPLINE
  5
C9
330
1F
100
AcDbEntity
  8
0
  6
Continuous
 62
   131
370
    15
100
AcDbSpline
210
0.0
220
0.0
230
1.0
 70
    24
 71
     3
 72
    10
 73
     6
 74
     0
 42
0.000000001
 43
0.00000001
 40
0.0
 40
0.0
 40
0.0
 40
0.0
 40
0.1910756895106587
 40
0.6385107954699621
 40
1.0
 40
1.0
 40
1.0
 40
1.0
 10
10.00000000000001
 20
4.673014988009059
 30
0.0
 10
10.00000000000001
 20
4.5781261729172
 30
0.0
 10
10.00000000000001
 20
4.261039614388126
 30
0.0
 10
10.00000000000001
 20
3.779234212321438
 30
0.0
 10
10.00000000000001
 20
3.48360057742543
 30
0.0
 10
10.00000000000001
 20
3.351488875347601
 30
0.0
  0
LINE
  5
CA
330
1F
100
AcDbEntity
  8
중심선
100
AcDbLine
 10
-62.99999999999999
 20
-0.0000000000000004
 30
0.0
 11
43.00000000000001
 21
0.0000000000000089
 31
0.0
  0
CIRCLE
  5
CB
330
1F
100
AcDbEntity
  8
외형선
100
AcDbCircle
 10
0.0000000000000104
 20
0.0
 30
0.0
 40
3.000000000000005
  0
INSERT
  5
CC
330
1F
100
AcDbEntity
  8
0
  6
Continuous
 62
     7
100
AcDbBlockReference
 66
     1
  2
블럭10
 10
-22.93944368806589
 20
-52.04609937292004
 30
0.0
  0
ATTRIB
  5
CD
330
CC
100
AcDbEntity
  8
FORMAT
 62
     2
100
AcDbText
 10
-43.79769121965843
 20
-49.97073246008785
 30
0.0
 40
4.233333333333333
  1
SEME7010030100E [ 2 FLUTE ]
 41
0.75
  7
SLDTEXTSTYLE0
 11
-43.79769121965843
 21
-52.08739912675452
 31
0.0
100
AcDbAttribute
  2
AUTOATTR0
 70
     0
 74
     1
  0
SEQEND
  5
CE
330
CC
100
AcDbEntity
  8
0
  6
Continuous
 62
     7
  0
HATCH
  5
CF
330
1F
100
AcDbEntity
  8
중심선
100
AcDbHatch
 10
0.0
 20
0.0
 30
0.0
210
0.0
220
0.0
230
1.0
  2
SOLID
 70
     1
 71
     0
 91
        1
 92
        0
 93
        4
 72
     1
 10
-17.22453438368504
 20
-35.7989250712761
 11
-20.67080962752232
 21
-35.7989250712761
 72
     1
 10
-20.67080962752232
 20
-35.7989250712761
 11
-22.79903948672635
 21
-38.3352506518487
 72
     1
 10
-22.79903948672635
 20
-38.3352506518487
 11
-19.35273115777591
 21
-38.33521122254621
 72
     1
 10
-19.35273115777591
 20
-38.33521122254621
 11
-17.22453438368504
 21
-35.7989250712761
 97
        0
 75
     0
 76
     1
 98
        1
 10
0.0
 20
0.0
  0
HATCH
  5
D0
330
1F
100
AcDbEntity
  8
중심선
100
AcDbHatch
 10
0.0
 20
0.0
 30
0.0
210
0.0
220
0.0
230
1.0
  2
SOLID
 70
     1
 71
     0
 91
        1
 92
        0
 93
        4
 72
     1
 10
-12.21177039264909
 20
-35.7989250712761
 11
-15.65804563648637
 21
-35.7989250712761
 72
     1
 10
-15.65804563648637
 20
-35.7989250712761
 11
-20.18918364484376
 21
-41.19892507127612
 72
     1
 10
-20.18918364484376
 20
-41.19892507127612
 11
-16.74290840100648
 21
-41.19892507127612
 72
     1
 10
-16.74290840100648
 20
-41.19892507127612
 11
-12.21177039264909
 21
-35.7989250712761
 97
        0
 75
     0
 76
     1
 98
        1
 10
0.0
 20
0.0
  0
HATCH
  5
D1
330
1F
100
AcDbEntity
  8
중심선
100
AcDbHatch
 10
0.0
 20
0.0
 30
0.0
210
0.0
220
0.0
230
1.0
  2
SOLID
 70
     1
 71
     0
 91
        1
 92
        0
 93
        4
 72
     1
 10
-7.199006401613195
 20
-35.79892507127613
 11
-10.64528164545031
 21
-35.7989250712761
 72
     1
 10
-10.64528164545031
 20
-35.7989250712761
 11
-17.69371854733956
 21
-44.19892507127612
 72
     1
 10
-17.69371854733956
 20
-44.19892507127612
 11
-14.24744330350228
 21
-44.19892507127612
 72
     1
 10
-14.24744330350228
 20
-44.19892507127612
 11
-7.199006401613195
 21
-35.79892507127613
 97
        0
 75
     0
 76
     1
 98
        1
 10
0.0
 20
0.0
  0
HATCH
  5
D2
330
1F
100
AcDbEntity
  8
중심선
100
AcDbHatch
 10
0.0
 20
0.0
 30
0.0
210
0.0
220
0.0
230
1.0
  2
SOLID
 70
     1
 71
     0
 91
        1
 92
        0
 93
        6
 72
     3
 10
-2.399115970600996
 20
-39.99892507132738
 11
3.960054785062284
 21
1.540850780301639E-10
 40
0.3939339440162633
 50
17.09539180608433
 51
320.0019657685079
 73
     0
 72
     1
 10
-0.7161163149004002
 20
-38.58681907591441
 11
1.589185558800638
 21
-36.65249236586649
 72
     3
 10
-2.399115970653842
 20
-39.99892507127625
 11
6.600054785286829
 21
-1.249000902703301E-13
 40
0.6363583540795982
 50
39.99873849337408
 51
368.4976242363725
 73
     1
 72
     1
 10
4.026216521246767
 20
-39.03892507120613
 11
-3.71904866381792
 21
-39.0389250712061
 72
     1
 10
-3.71904866381792
 20
-39.0389250712061
 11
-3.719073708263854
 21
-40.95892507120602
 72
     1
 10
-3.719073708263854
 20
-40.95892507120602
 11
0.7223060612081831
 21
-40.95892507120599
 97
        0
 75
     0
 76
     1
 98
        1
 10
0.0
 20
0.0
  0
DIMENSION
  5
D3
330
1F
100
AcDbEntity
  8
치수문자_일반주서
100
AcDbDimension
  2
_D
 10
56.29089999724747
 20
5.000000000000172
 30
0.0
 11
56.29089999724744
 21
15.32275000000017
 31
0.0
 70
   160
  1
%%c<>
 71
     2
 42
9.999999999999995
 52
-270.0
  3
SLDDIMSTYLE0
100
AcDbAlignedDimension
 13
39.99999999999987
 23
-4.999999999999882
 33
0.0
 14
39.99999999999987
 24
5.000000000000113
 34
0.0
 50
90.0000000000002
100
AcDbRotatedDimension
  0
DIMENSION
  5
E1
330
1F
100
AcDbEntity
  8
치수문자_일반주서
100
AcDbDimension
  2
_D_1
 10
39.99999999999988
 20
25.78841044024269
 30
0.0
 11
-10.00000000000006
 21
25.78841044024269
 31
0.0
 70
   160
  1
<>
 71
     2
 42
99.99999999999986
  3
SLDDIMSTYLE1
100
AcDbAlignedDimension
 13
-59.99999999999999
 23
3.999999999999995
 33
0.0
 14
39.99999999999987
 24
5.000000000000113
 34
0.0
 50
-0.0000000000000041
100
AcDbRotatedDimension
  0
DIMENSION
  5
EC
330
1F
100
AcDbEntity
  8
치수문자_일반주서
100
AcDbDimension
  2
_D_2
 10
39.99999999999987
 20
16.69856209795246
 30
0.0
 11
25.0
 21
16.69856209795246
 31
0.0
 70
   160
  1
<>
 71
     2
 42
29.99999999999986
  3
SLDDIMSTYLE1
100
AcDbAlignedDimension
 13
10.00000000000001
 23
4.67301498800906
 33
0.0
 14
39.99999999999987
 24
5.000000000000113
 34
0.0
 50
0.0000000000000271
100
AcDbRotatedDimension
  0
DIMENSION
  5
F6
330
1F
100
AcDbEntity
  8
치수문자_일반주서
100
AcDbDimension
  2
_D_3
 10
-70.2032897614131
 20
-5.000000000000036
 30
0.0
 11
-70.20328976141316
 21
15.32274999999995
 31
0.0
 70
   160
  1
%%c<>
 71
     2
 42
9.99999999999999
 52
-270.0
  3
SLDDIMSTYLE0
100
AcDbAlignedDimension
 13
-58.99999999999999
 23
4.999999999999996
 33
0.0
 14
-58.99999999999999
 24
-4.999999999999994
 34
0.0
 50
90.0000000000002
100
AcDbRotatedDimension
  0
INSERT
  5
109
330
1F
100
AcDbEntity
  8
외형선
100
AcDbBlockReference
  2
SW_DOWELSYMBOL_0
 10
0.0000000000000104
 20
0.0
 30
0.0
  0
ENDSEC
  0
SECTION
  2
OBJECTS
  0
DICTIONARY
  5
C
330
0
100
AcDbDictionary
281
     1
  3
ACAD_GROUP
350
D
  3
ACAD_IMAGE_VARS
350
12D
  3
ACAD_LAYOUT
350
1A
  3
ACAD_MLINESTYLE
350
17
  3
ACAD_PLOTSETTINGS
350
19
  3
ACAD_PLOTSTYLENAME
350
E
  3
ACAD_SCALELIST
350
47
  3
APPDATA
350
12B
  3
DWGPROPS
350
13C
  0
DICTIONARY
  5
D
102
{ACAD_REACTORS
330
C
102
}
330
C
100
AcDbDictionary
281
     1
  0
RASTERVARIABLES
  5
12D
102
{ACAD_REACTORS
330
C
102
}
330
C
100
AcDbRasterVariables
 90
        0
 70
     1
 71
     1
 72
     1
  0
DICTIONARY
  5
1A
102
{ACAD_REACTORS
330
C
102
}
330
C
100
AcDbDictionary
281
     1
  3
Layout1
350
1E
  3
Layout2
350
26
  3
Model
350
22
  0
DICTIONARY
  5
17
102
{ACAD_REACTORS
330
C
102
}
330
C
100
AcDbDictionary
281
     1
  3
Standard
350
18
  0
DICTIONARY
  5
19
102
{ACAD_REACTORS
330
C
102
}
330
C
100
AcDbDictionary
281
     1
  0
ACDBDICTIONARYWDFLT
  5
E
102
{ACAD_REACTORS
330
C
102
}
330
C
100
AcDbDictionary
281
     1
  3
Normal
350
F
100
AcDbDictionaryWithDefault
340
F
  0
DICTIONARY
  5
47
102
{ACAD_REACTORS
330
C
102
}
330
C
100
AcDbDictionary
281
     1
  3
A0
350
48
  3
A1
350
49
  3
A2
350
4A
  3
A3
350
4B
  3
A4
350
4C
  3
A5
350
4D
  3
A6
350
4E
  3
A7
350
4F
  3
A8
350
50
  3
A9
350
51
  3
B0
350
52
  3
B1
350
53
  3
B2
350
54
  3
B3
350
55
  3
B4
350
56
  3
B5
350
57
  3
B6
350
58
  3
B7
350
59
  3
B8
350
5A
  3
B9
350
5B
  3
C0
350
5C
  3
C1
350
5D
  3
C2
350
5E
  3
C3
350
5F
  3
C4
350
60
  3
C5
350
61
  3
C6
350
62
  3
C7
350
63
  3
C8
350
64
  3
C9
350
65
  3
D0
350
66
  3
D1
350
67
  3
D2
350
68
  0
DICTIONARY
  5
12B
102
{ACAD_REACTORS
330
C
102
}
330
C
100
AcDbDictionary
281
     1
  0
XRECORD
  5
13C
102
{ACAD_REACTORS
330
C
102
}
330
C
100
AcDbXrecord
280
     1
  1
DWGPROPS COOKIE
  2

  3

  4

  6

  7

  8
12014102
  9

300
=
301
=
302
=
303
=
304
=
305
=
306
=
307
=
308
=
309
=
 40
0.0
 41
2458262.169920648
 42
2458266.297402859
  1

 90
        0
  0
LAYOUT
  5
1E
102
{ACAD_REACTORS
330
1A
102
}
330
1A
100
AcDbPlotSettings
  1

  2
none_device
  4

  6

 40
0.0
 41
0.0
 42
0.0
 43
0.0
 44
0.0
 45
0.0
 46
0.0
 47
0.0
 48
0.0
 49
0.0
140
0.0
141
0.0
142
1.0
143
1.0
 70
   688
 72
     1
 73
     0
 74
     5
  7

 75
    16
147
1.0
148
0.0
149
0.0
100
AcDbLayout
  1
Layout1
 70
     1
 71
     1
 10
0.0
 20
0.0
 11
420.0
 21
297.0
 12
0.0
 22
0.0
 32
0.0
 14
1.000000000000000E+20
 24
1.000000000000000E+20
 34
1.000000000000000E+20
 15
-1.000000000000000E+20
 25
-1.000000000000000E+20
 35
-1.000000000000000E+20
146
0.0
 13
0.0
 23
0.0
 33
0.0
 16
1.0
 26
0.0
 36
0.0
 17
0.0
 27
1.0
 37
0.0
 76
     0
330
1B
  0
LAYOUT
  5
26
102
{ACAD_REACTORS
330
1A
102
}
330
1A
100
AcDbPlotSettings
  1

  2
none_device
  4

  6

 40
0.0
 41
0.0
 42
0.0
 43
0.0
 44
0.0
 45
0.0
 46
0.0
 47
0.0
 48
0.0
 49
0.0
140
0.0
141
0.0
142
1.0
143
1.0
 70
   688
 72
     1
 73
     0
 74
     5
  7

 75
    16
147
1.0
148
0.0
149
0.0
100
AcDbLayout
  1
Layout2
 70
     1
 71
     2
 10
0.0
 20
0.0
 11
0.0
 21
0.0
 12
0.0
 22
0.0
 32
0.0
 14
0.0
 24
0.0
 34
0.0
 15
0.0
 25
0.0
 35
0.0
146
0.0
 13
0.0
 23
0.0
 33
0.0
 16
1.0
 26
0.0
 36
0.0
 17
0.0
 27
1.0
 37
0.0
 76
     0
330
23
  0
LAYOUT
  5
22
102
{ACAD_REACTORS
330
1A
102
}
330
1A
100
AcDbPlotSettings
  1

  2
none_device
  4
ANSI_A_(11.00_x_8.50_Inches)
  6

 40
6.35
 41
19.05
 42
6.35000508
 43
19.05000254
 44
279.4
 45
215.9
 46
164.4089392947182
 47
113.2253856159098
 48
0.0
 49
0.0
140
0.0
141
0.0
142
0.0938294292552811
143
1.0
 70
  1696
 72
     0
 73
     0
 74
     0
  7

 75
     0
147
0.0235690232323232
148
0.0
149
0.0
100
AcDbLayout
  1
Model
 70
     1
 71
     0
 10
0.0
 20
0.0
 11
420.0
 21
297.0
 12
0.0
 22
0.0
 32
0.0
 14
-74.57828976141316
 24
-49.97073246008785
 34
0.0
 15
56.84123333058086
 25
30.16341044024269
 35
0.0
146
0.0
 13
0.0
 23
0.0
 33
0.0
 16
1.0
 26
0.0
 36
0.0
 17
0.0
 27
1.0
 37
0.0
 76
     0
330
1F
331
29
  0
MLINESTYLE
  5
18
102
{ACAD_REACTORS
330
17
102
}
330
17
100
AcDbMlineStyle
  2
Standard
 70
     0
  3

 62
   256
 51
90.0
 52
90.0
 71
     2
 49
0.5
 62
   256
  6
BYLAYER
 49
-0.5
 62
   256
  6
BYLAYER
  0
ACDBPLACEHOLDER
  5
F
102
{ACAD_REACTORS
330
E
102
}
330
E
  0
SCALE
  5
48
102
{ACAD_REACTORS
330
47
102
}
330
47
100
AcDbScale
 70
     0
300
1:1
140
1.0
141
1.0
290
     1
  0
SCALE
  5
49
102
{ACAD_REACTORS
330
47
102
}
330
47
100
AcDbScale
 70
     0
300
1:2
140
1.0
141
2.0
290
     0
  0
SCALE
  5
4A
102
{ACAD_REACTORS
330
47
102
}
330
47
100
AcDbScale
 70
     0
300
1:4
140
1.0
141
4.0
290
     0
  0
SCALE
  5
4B
102
{ACAD_REACTORS
330
47
102
}
330
47
100
AcDbScale
 70
     0
300
1:5
140
1.0
141
5.0
290
     0
  0
SCALE
  5
4C
102
{ACAD_REACTORS
330
47
102
}
330
47
100
AcDbScale
 70
     0
300
1:8
140
1.0
141
8.0
290
     0
  0
SCALE
  5
4D
102
{ACAD_REACTORS
330
47
102
}
330
47
100
AcDbScale
 70
     0
300
1:10
140
1.0
141
10.0
290
     0
  0
SCALE
  5
4E
102
{ACAD_REACTORS
330
47
102
}
330
47
100
AcDbScale
 70
     0
300
1:16
140
1.0
141
16.0
290
     0
  0
SCALE
  5
4F
102
{ACAD_REACTORS
330
47
102
}
330
47
100
AcDbScale
 70
     0
300
1:20
140
1.0
141
20.0
290
     0
  0
SCALE
  5
50
102
{ACAD_REACTORS
330
47
102
}
330
47
100
AcDbScale
 70
     0
300
1:30
140
1.0
141
30.0
290
     0
  0
SCALE
  5
51
102
{ACAD_REACTORS
330
47
102
}
330
47
100
AcDbScale
 70
     0
300
1:40
140
1.0
141
40.0
290
     0
  0
SCALE
  5
52
102
{ACAD_REACTORS
330
47
102
}
330
47
100
AcDbScale
 70
     0
300
1:50
140
1.0
141
50.0
290
     0
  0
SCALE
  5
53
102
{ACAD_REACTORS
330
47
102
}
330
47
100
AcDbScale
 70
     0
300
1:100
140
1.0
141
100.0
290
     0
  0
SCALE
  5
54
102
{ACAD_REACTORS
330
47
102
}
330
47
100
AcDbScale
 70
     0
300
2:1
140
2.0
141
1.0
290
     0
  0
SCALE
  5
55
102
{ACAD_REACTORS
330
47
102
}
330
47
100
AcDbScale
 70
     0
300
4:1
140
4.0
141
1.0
290
     0
  0
SCALE
  5
56
102
{ACAD_REACTORS
330
47
102
}
330
47
100
AcDbScale
 70
     0
300
8:1
140
8.0
141
1.0
290
     0
  0
SCALE
  5
57
102
{ACAD_REACTORS
330
47
102
}
330
47
100
AcDbScale
 70
     0
300
10:1
140
10.0
141
1.0
290
     0
  0
SCALE
  5
58
102
{ACAD_REACTORS
330
47
102
}
330
47
100
AcDbScale
 70
     0
300
100:1
140
100.0
141
1.0
290
     0
  0
SCALE
  5
59
102
{ACAD_REACTORS
330
47
102
}
330
47
100
AcDbScale
 70
     0
300
1/128" = 1'-0"
140
0.0078125
141
12.0
290
     0
  0
SCALE
  5
5A
102
{ACAD_REACTORS
330
47
102
}
330
47
100
AcDbScale
 70
     0
300
1/64" = 1'-0"
140
0.015625
141
12.0
290
     0
  0
SCALE
  5
5B
102
{ACAD_REACTORS
330
47
102
}
330
47
100
AcDbScale
 70
     0
300
1/32" = 1'-0"
140
0.03125
141
12.0
290
     0
  0
SCALE
  5
5C
102
{ACAD_REACTORS
330
47
102
}
330
47
100
AcDbScale
 70
     0
300
1/16" = 1'-0"
140
0.0625
141
12.0
290
     0
  0
SCALE
  5
5D
102
{ACAD_REACTORS
330
47
102
}
330
47
100
AcDbScale
 70
     0
300
3/32" = 1'-0"
140
0.09375
141
12.0
290
     0
  0
SCALE
  5
5E
102
{ACAD_REACTORS
330
47
102
}
330
47
100
AcDbScale
 70
     0
300
1/8" = 1'-0"
140
0.125
141
12.0
290
     0
  0
SCALE
  5
5F
102
{ACAD_REACTORS
330
47
102
}
330
47
100
AcDbScale
 70
     0
300
3/16" = 1'-0"
140
0.1875
141
12.0
290
     0
  0
SCALE
  5
60
102
{ACAD_REACTORS
330
47
102
}
330
47
100
AcDbScale
 70
     0
300
1/4" = 1'-0"
140
0.25
141
12.0
290
     0
  0
SCALE
  5
61
102
{ACAD_REACTORS
330
47
102
}
330
47
100
AcDbScale
 70
     0
300
3/8" = 1'-0"
140
0.375
141
12.0
290
     0
  0
SCALE
  5
62
102
{ACAD_REACTORS
330
47
102
}
330
47
100
AcDbScale
 70
     0
300
1/2" = 1'-0"
140
0.5
141
12.0
290
     0
  0
SCALE
  5
63
102
{ACAD_REACTORS
330
47
102
}
330
47
100
AcDbScale
 70
     0
300
3/4" = 1'-0"
140
0.75
141
12.0
290
     0
  0
SCALE
  5
64
102
{ACAD_REACTORS
330
47
102
}
330
47
100
AcDbScale
 70
     0
300
1" = 1'-0"
140
1.0
141
12.0
290
     0
  0
SCALE
  5
65
102
{ACAD_REACTORS
330
47
102
}
330
47
100
AcDbScale
 70
     0
300
1-1/2" = 1'-0"
140
1.5
141
12.0
290
     0
  0
SCALE
  5
66
102
{ACAD_REACTORS
330
47
102
}
330
47
100
AcDbScale
 70
     0
300
3" = 1'-0"
140
3.0
141
12.0
290
     0
  0
SCALE
  5
67
102
{ACAD_REACTORS
330
47
102
}
330
47
100
AcDbScale
 70
     0
300
6" = 1'-0"
140
6.0
141
12.0
290
     0
  0
SCALE
  5
68
102
{ACAD_REACTORS
330
47
102
}
330
47
100
AcDbScale
 70
     0
300
1'-0" = 1'-0"
140
12.0
141
12.0
290
     0
  0
ENDSEC
  0
EOF
