  0
SECTION
  2
HEADER
  9
$ACADVER
  1
AC1015
  9
$ACADMAINTVER
 70
     6
  9
$DWGCODEPAGE
  3
ANSI_949
  9
$INSBASE
 10
0.0
 20
0.0
 30
0.0
  9
$EXTMIN
 10
-54.14415845157323
 20
-49.97073246008785
 30
0.0
  9
$EXTMAX
 10
74.3668399361351
 20
29.3534104402427
 30
0.0
  9
$LIMMIN
 10
0.0
 20
0.0
  9
$LIMMAX
 10
420.0
 20
297.0
  9
$ORTHOMODE
 70
     0
  9
$REGENMODE
 70
     1
  9
$FILLMODE
 70
     1
  9
$QTEXTMODE
 70
     0
  9
$MIRRTEXT
 70
     1
  9
$LTSCALE
 40
1.0
  9
$ATTMODE
 70
     1
  9
$TEXTSIZE
 40
3.5
  9
$TRACEWID
 40
1.0
  9
$TEXTSTYLE
  7
Standard
  9
$CLAYER
  8
0
  9
$CELTYPE
  6
ByLayer
  9
$CECOLOR
 62
   256
  9
$CELTSCALE
 40
1.0
  9
$DISPSILH
 70
     0
  9
$DIMSCALE
 40
1.0
  9
$DIMASZ
 40
3.302
  9
$DIMEXO
 40
1.0
  9
$DIMDLI
 40
3.75
  9
$DIMRND
 40
0.0
  9
$DIMDLE
 40
0.0
  9
$DIMEXE
 40
1.0
  9
$DIMTP
 40
0.0
  9
$DIMTM
 40
0.0
  9
$DIMTXT
 40
3.5
  9
$DIMCEN
 40
2.5
  9
$DIMTSZ
 40
0.0
  9
$DIMTOL
 70
     0
  9
$DIMLIM
 70
     0
  9
$DIMTIH
 70
     1
  9
$DIMTOH
 70
     1
  9
$DIMSE1
 70
     0
  9
$DIMSE2
 70
     0
  9
$DIMTAD
 70
     1
  9
$DIMZIN
 70
     0
  9
$DIMBLK
  1

  9
$DIMASO
 70
     1
  9
$DIMSHO
 70
     1
  9
$DIMPOST
  1

  9
$DIMAPOST
  1

  9
$DIMALT
 70
     0
  9
$DIMALTD
 70
     3
  9
$DIMALTF
 40
0.0393700787401575
  9
$DIMLFAC
 40
1.0
  9
$DIMTOFL
 70
     1
  9
$DIMTVP
 40
0.0
  9
$DIMTIX
 70
     0
  9
$DIMSOXD
 70
     0
  9
$DIMSAH
 70
     0
  9
$DIMBLK1
  1

  9
$DIMBLK2
  1

  9
$DIMSTYLE
  2
ISO-25
  9
$DIMCLRD
 70
     0
  9
$DIMCLRE
 70
     0
  9
$DIMCLRT
 70
     0
  9
$DIMTFAC
 40
1.0
  9
$DIMGAP
 40
1.524
  9
$DIMJUST
 70
     0
  9
$DIMSD1
 70
     0
  9
$DIMSD2
 70
     0
  9
$DIMTOLJ
 70
     0
  9
$DIMTZIN
 70
     0
  9
$DIMALTZ
 70
     0
  9
$DIMALTTZ
 70
     0
  9
$DIMUPT
 70
     0
  9
$DIMDEC
 70
     2
  9
$DIMTDEC
 70
     2
  9
$DIMALTU
 70
     2
  9
$DIMALTTD
 70
     3
  9
$DIMTXSTY
  7
Standard
  9
$DIMAUNIT
 70
     0
  9
$DIMADEC
 70
     2
  9
$DIMALTRND
 40
0.0
  9
$DIMAZIN
 70
     0
  9
$DIMDSEP
 70
    44
  9
$DIMATFIT
 70
     3
  9
$DIMFRAC
 70
     0
  9
$DIMLDRBLK
  1

  9
$DIMLUNIT
 70
     2
  9
$DIMLWD
 70
    -2
  9
$DIMLWE
 70
    -2
  9
$DIMTMOVE
 70
     0
  9
$LUNITS
 70
     2
  9
$LUPREC
 70
     2
  9
$SKETCHINC
 40
1.0
  9
$FILLETRAD
 40
10.0
  9
$AUNITS
 70
     0
  9
$AUPREC
 70
     2
  9
$MENU
  1
.
  9
$ELEVATION
 40
0.0
  9
$PELEVATION
 40
0.0
  9
$THICKNESS
 40
0.0
  9
$LIMCHECK
 70
     0
  9
$CHAMFERA
 40
0.0
  9
$CHAMFERB
 40
0.0
  9
$CHAMFERC
 40
0.0
  9
$CHAMFERD
 40
0.0
  9
$SKPOLY
 70
     0
  9
$TDCREATE
 40
2458262.544733461
  9
$TDUCREATE
 40
2458262.169733461
  9
$TDUPDATE
 40
2458266.418712581
  9
$TDUUPDATE
 40
2458266.043712581
  9
$TDINDWG
 40
0.001403831
  9
$TDUSRTIMER
 40
2458266.042308808
  9
$USRTIMER
 70
     1
  9
$ANGBASE
 50
0.0
  9
$ANGDIR
 70
     0
  9
$PDMODE
 70
     0
  9
$PDSIZE
 40
-1.0
  9
$PLINEWID
 40
0.0
  9
$SPLFRAME
 70
     0
  9
$SPLINETYPE
 70
     6
  9
$SPLINESEGS
 70
     8
  9
$HANDSEED
  5
14A
  9
$SURFTAB1
 70
     6
  9
$SURFTAB2
 70
     6
  9
$SURFTYPE
 70
     6
  9
$SURFU
 70
     6
  9
$SURFV
 70
     6
  9
$UCSBASE
  2

  9
$UCSNAME
  2

  9
$UCSORG
 10
0.0
 20
0.0
 30
0.0
  9
$UCSXDIR
 10
1.0
 20
0.0
 30
0.0
  9
$UCSYDIR
 10
0.0
 20
1.0
 30
0.0
  9
$UCSORTHOREF
  2

  9
$UCSORTHOVIEW
 70
     0
  9
$UCSORGTOP
 10
0.0
 20
0.0
 30
0.0
  9
$UCSORGBOTTOM
 10
0.0
 20
0.0
 30
0.0
  9
$UCSORGLEFT
 10
0.0
 20
0.0
 30
0.0
  9
$UCSORGRIGHT
 10
0.0
 20
0.0
 30
0.0
  9
$UCSORGFRONT
 10
0.0
 20
0.0
 30
0.0
  9
$UCSORGBACK
 10
0.0
 20
0.0
 30
0.0
  9
$PUCSBASE
  2

  9
$PUCSNAME
  2

  9
$PUCSORG
 10
0.0
 20
0.0
 30
0.0
  9
$PUCSXDIR
 10
1.0
 20
0.0
 30
0.0
  9
$PUCSYDIR
 10
0.0
 20
1.0
 30
0.0
  9
$PUCSORTHOREF
  2

  9
$PUCSORTHOVIEW
 70
     0
  9
$PUCSORGTOP
 10
0.0
 20
0.0
 30
0.0
  9
$PUCSORGBOTTOM
 10
0.0
 20
0.0
 30
0.0
  9
$PUCSORGLEFT
 10
0.0
 20
0.0
 30
0.0
  9
$PUCSORGRIGHT
 10
0.0
 20
0.0
 30
0.0
  9
$PUCSORGFRONT
 10
0.0
 20
0.0
 30
0.0
  9
$PUCSORGBACK
 10
0.0
 20
0.0
 30
0.0
  9
$USERI1
 70
     0
  9
$USERI2
 70
     0
  9
$USERI3
 70
     0
  9
$USERI4
 70
     0
  9
$USERI5
 70
     0
  9
$USERR1
 40
0.0
  9
$USERR2
 40
0.0
  9
$USERR3
 40
0.0
  9
$USERR4
 40
0.0
  9
$USERR5
 40
0.0
  9
$WORLDVIEW
 70
     1
  9
$SHADEDGE
 70
     3
  9
$SHADEDIF
 70
    70
  9
$TILEMODE
 70
     1
  9
$MAXACTVP
 70
    64
  9
$PINSBASE
 10
0.0
 20
0.0
 30
0.0
  9
$PLIMCHECK
 70
     0
  9
$PEXTMIN
 10
1.000000000000000E+20
 20
1.000000000000000E+20
 30
1.000000000000000E+20
  9
$PEXTMAX
 10
-1.000000000000000E+20
 20
-1.000000000000000E+20
 30
-1.000000000000000E+20
  9
$PLIMMIN
 10
0.0
 20
0.0
  9
$PLIMMAX
 10
0.0
 20
0.0
  9
$UNITMODE
 70
     0
  9
$VISRETAIN
 70
     1
  9
$PLINEGEN
 70
     0
  9
$PSLTSCALE
 70
     1
  9
$TREEDEPTH
 70
  3020
  9
$CMLSTYLE
  2
Standard
  9
$CMLJUST
 70
     0
  9
$CMLSCALE
 40
20.0
  9
$PROXYGRAPHICS
 70
     1
  9
$MEASUREMENT
 70
     1
  9
$CELWEIGHT
370
    -1
  9
$ENDCAPS
280
     0
  9
$JOINSTYLE
280
     0
  9
$LWDISPLAY
290
     1
  9
$INSUNITS
 70
     4
  9
$HYPERLINKBASE
  1

  9
$STYLESHEET
  1

  9
$XEDIT
290
     1
  9
$CEPSNTYPE
380
     0
  9
$PSTYLEMODE
290
     1
  9
$FINGERPRINTGUID
  2
{447FC4F4-BEB7-45FE-9ED1-91677262F11C}
  9
$VERSIONGUID
  2
{FAEB1C32-E019-11D5-929B-00C0DF256EC4}
  9
$EXTNAMES
290
     1
  9
$PSVPSCALE
 40
0.0
  9
$OLESTARTUP
290
     0
  0
ENDSEC
  0
SECTION
  2
CLASSES
  0
CLASS
  1
ACDBDICTIONARYWDFLT
  2
AcDbDictionaryWithDefault
  3
ObjectDBX Classes
 90
        0
280
     0
281
     0
  0
CLASS
  1
VISUALSTYLE
  2
AcDbVisualStyle
  3
ObjectDBX Classes
 90
     4095
280
     0
281
     0
  0
CLASS
  1
MATERIAL
  2
AcDbMaterial
  3
ObjectDBX Classes
 90
     1153
280
     0
281
     0
  0
CLASS
  1
SCALE
  2
AcDbScale
  3
ObjectDBX Classes
 90
     1153
280
     0
281
     0
  0
CLASS
  1
SUN
  2
AcDbSun
  3
SCENEOE
 90
     1153
280
     0
281
     0
  0
CLASS
  1
ACDBPLACEHOLDER
  2
AcDbPlaceHolder
  3
ObjectDBX Classes
 90
        0
280
     0
281
     0
  0
CLASS
  1
LAYOUT
  2
AcDbLayout
  3
ObjectDBX Classes
 90
        0
280
     0
281
     0
  0
CLASS
  1
TABLESTYLE
  2
AcDbTableStyle
  3
ObjectDBX Classes
 90
     4095
280
     0
281
     0
  0
CLASS
  1
MLEADERSTYLE
  2
AcDbMLeaderStyle
  3
ACDB_MLEADERSTYLE_CLASS
 90
     4095
280
     0
281
     0
  0
CLASS
  1
RASTERVARIABLES
  2
AcDbRasterVariables
  3
ISM
 90
        0
280
     0
281
     0
  0
ENDSEC
  0
SECTION
  2
TABLES
  0
TABLE
  2
VPORT
  5
8
330
0
100
AcDbSymbolTable
 70
     1
  0
VPORT
  5
29
330
8
100
AcDbSymbolTableRecord
100
AcDbViewportTableRecord
  2
*Active
 70
     0
 10
0.0
 20
0.0
 11
1.0
 21
1.0
 12
10.11134074228093
 22
-10.30866100992258
 13
0.0
 23
0.0
 14
10.0
 24
10.0
 15
10.0
 25
10.0
 16
0.0
 26
0.0
 36
1.0
 17
0.0
 27
0.0
 37
0.0
 40
113.7408778106816
 41
1.152454780361757
 42
50.0
 43
0.0
 44
0.0
 50
0.0
 51
0.0
 71
    16
 72
  2000
 73
     1
 74
     3
 75
     0
 76
     0
 77
     0
 78
     0
281
     0
 65
     1
110
0.0
120
0.0
130
0.0
111
1.0
121
0.0
131
0.0
112
0.0
122
1.0
132
0.0
 79
     0
146
0.0
  0
ENDTAB
  0
TABLE
  2
LTYPE
  5
5
330
0
100
AcDbSymbolTable
 70
     6
  0
LTYPE
  5
14
330
5
100
AcDbSymbolTableRecord
100
AcDbLinetypeTableRecord
  2
ByBlock
 70
     0
  3

 72
    65
 73
     0
 40
0.0
  0
LTYPE
  5
15
330
5
100
AcDbSymbolTableRecord
100
AcDbLinetypeTableRecord
  2
ByLayer
 70
     0
  3

 72
    65
 73
     0
 40
0.0
  0
LTYPE
  5
16
330
5
100
AcDbSymbolTableRecord
100
AcDbLinetypeTableRecord
  2
Continuous
 70
     0
  3
Solid line
 72
    65
 73
     0
 40
0.0
  0
LTYPE
  5
6A
330
5
100
AcDbSymbolTableRecord
100
AcDbLinetypeTableRecord
  2
HIDDEN
 70
     0
  3
Hidden __ __ __ __ __ __ __ __ __ __ __ __ __ __
 72
    65
 73
     2
 40
1.905
 49
1.27
 74
     0
 49
-0.635
 74
     0
  0
LTYPE
  5
6B
330
5
100
AcDbSymbolTableRecord
100
AcDbLinetypeTableRecord
  2
PHANTOM
 70
     0
  3
Phantom ______  __  __  ______  __  __  ______
 72
    65
 73
     6
 40
12.7
 49
6.35
 74
     0
 49
-1.27
 74
     0
 49
1.27
 74
     0
 49
-1.27
 74
     0
 49
1.27
 74
     0
 49
-1.27
 74
     0
  0
LTYPE
  5
6C
330
5
100
AcDbSymbolTableRecord
100
AcDbLinetypeTableRecord
  2
CENTER
 70
     0
  3
Center ____ _ ____ _ ____ _ ____ _ ____ _ ____
 72
    65
 73
     4
 40
10.16
 49
6.35
 74
     0
 49
-1.27
 74
     0
 49
1.27
 74
     0
 49
-1.27
 74
     0
  0
LTYPE
  5
6D
330
5
100
AcDbSymbolTableRecord
100
AcDbLinetypeTableRecord
  2
CENTERX2
 70
     0
  3
Center (2x) ________  __  ________  __  _____
 72
    65
 73
     4
 40
20.32
 49
12.7
 74
     0
 49
-2.54
 74
     0
 49
2.54
 74
     0
 49
-2.54
 74
     0
  0
LTYPE
  5
6E
330
5
100
AcDbSymbolTableRecord
100
AcDbLinetypeTableRecord
  2
DOT2
 70
     0
  3
Dot (.5x) ........................................
 72
    65
 73
     2
 40
0.635
 49
0.0
 74
     0
 49
-0.635
 74
     0
  0
ENDTAB
  0
TABLE
  2
LAYER
  5
2
330
0
100
AcDbSymbolTable
 70
    17
  0
LAYER
  5
10
330
2
100
AcDbSymbolTableRecord
100
AcDbLayerTableRecord
  2
0
 70
     0
 62
     7
  6
Continuous
370
    -3
390
F
  0
LAYER
  5
6F
330
2
100
AcDbSymbolTableRecord
100
AcDbLayerTableRecord
  2
FORMAT
 70
     0
 62
     2
  6
Continuous
370
    -3
390
F
  0
LAYER
  5
70
330
2
100
AcDbSymbolTableRecord
100
AcDbLayerTableRecord
  2
외형선
 70
     0
 62
   100
  6
Continuous
370
    30
390
F
  0
LAYER
  5
71
330
2
100
AcDbSymbolTableRecord
100
AcDbLayerTableRecord
  2
숨은선
 70
     0
 62
     2
  6
HIDDEN
370
    15
390
F
  0
LAYER
  5
72
330
2
100
AcDbSymbolTableRecord
100
AcDbLayerTableRecord
  2
중심선
 70
     0
 62
     1
  6
CENTERX2
370
    -3
390
F
  0
LAYER
  5
73
330
2
100
AcDbSymbolTableRecord
100
AcDbLayerTableRecord
  2
파단선
 70
     0
 62
     4
  6
Continuous
370
    -3
390
F
  0
LAYER
  5
74
330
2
100
AcDbSymbolTableRecord
100
AcDbLayerTableRecord
  2
해칭선
 70
     0
 62
     4
  6
Continuous
370
    -3
390
F
  0
LAYER
  5
75
330
2
100
AcDbSymbolTableRecord
100
AcDbLayerTableRecord
  2
가는실선
 70
     0
 62
     4
  6
Continuous
370
    -3
390
F
  0
LAYER
  5
76
330
2
100
AcDbSymbolTableRecord
100
AcDbLayerTableRecord
  2
치수_보조선
 70
     0
 62
     4
  6
Continuous
370
    -3
390
F
  0
LAYER
  5
77
330
2
100
AcDbSymbolTableRecord
100
AcDbLayerTableRecord
  2
치수문자_일반주서
 70
     0
 62
     7
  6
Continuous
370
    15
390
F
  0
LAYER
  5
78
330
2
100
AcDbSymbolTableRecord
100
AcDbLayerTableRecord
  2
개별주서
 70
     0
 62
   100
  6
Continuous
370
    30
390
F
  0
LAYER
  5
79
330
2
100
AcDbSymbolTableRecord
100
AcDbLayerTableRecord
  2
중간선
 70
     0
 62
     2
  6
Continuous
370
    15
390
F
  0
LAYER
  5
7A
330
2
100
AcDbSymbolTableRecord
100
AcDbLayerTableRecord
  2
윤곽선
 70
     0
 62
     3
  6
Continuous
370
    40
390
F
  0
LAYER
  5
7B
330
2
100
AcDbSymbolTableRecord
100
AcDbLayerTableRecord
  2
중심마크
 70
     0
 62
   100
  6
Continuous
370
    30
390
F
  0
LAYER
  5
7C
330
2
100
AcDbSymbolTableRecord
100
AcDbLayerTableRecord
  2
가상선
 70
     0
 62
     4
  6
PHANTOM
370
    -3
390
F
  0
LAYER
  5
7D
330
2
100
AcDbSymbolTableRecord
100
AcDbLayerTableRecord
  2
특수지정선
 70
     0
 62
     5
  6
CENTERX2
370
    60
390
F
  0
LAYER
  5
13B
330
2
100
AcDbSymbolTableRecord
100
AcDbLayerTableRecord
  2
Defpoints
 70
     0
 62
     7
  6
Continuous
290
     0
370
    -3
390
F
  0
ENDTAB
  0
TABLE
  2
STYLE
  5
3
330
0
100
AcDbSymbolTable
 70
     2
  0
STYLE
  5
11
330
3
100
AcDbSymbolTableRecord
100
AcDbTextStyleTableRecord
  2
Standard
 70
     0
 40
0.0
 41
1.0
 50
0.0
 71
     0
 42
3.5
  3
txt
  4

  0
STYLE
  5
93
330
3
100
AcDbSymbolTableRecord
100
AcDbTextStyleTableRecord
  2
SLDTEXTSTYLE0
 70
     0
 40
0.0
 41
0.75
 50
0.0
 71
     0
 42
3.5
  3
TXT
  4

  0
ENDTAB
  0
TABLE
  2
VIEW
  5
6
330
0
100
AcDbSymbolTable
 70
     0
  0
ENDTAB
  0
TABLE
  2
UCS
  5
7
330
0
100
AcDbSymbolTable
 70
     0
  0
ENDTAB
  0
TABLE
  2
APPID
  5
9
330
0
100
AcDbSymbolTable
 70
     1
  0
APPID
  5
12
330
9
100
AcDbSymbolTableRecord
100
AcDbRegAppTableRecord
  2
ACAD
 70
     0
  0
ENDTAB
  0
TABLE
  2
DIMSTYLE
  5
A
330
0
100
AcDbSymbolTable
 70
     3
100
AcDbDimStyleTable
  0
DIMSTYLE
105
27
330
A
100
AcDbSymbolTableRecord
100
AcDbDimStyleTableRecord
  2
ISO-25
 70
     0
 41
2.5
 42
0.625
 43
3.75
 44
1.25
 73
     0
 74
     0
 77
     1
 78
     8
140
2.5
141
2.5
143
0.03937007874016
147
0.625
171
     3
172
     1
178
     0
271
     2
272
     2
274
     3
278
    44
283
     0
284
     8
340
11
  0
DIMSTYLE
105
E1
102
{ACAD_REACTORS
330
E0
330
103
102
}
330
A
100
AcDbSymbolTableRecord
100
AcDbDimStyleTableRecord
  2
SLDDIMSTYLE0
 70
     0
 41
3.302
 44
0.0
 45
0.000000001
 73
     0
 74
     0
 77
     1
 78
    12
 79
     3
140
3.5
147
0.875
172
     1
173
     1
178
     0
271
     2
272
     2
276
     2
284
    12
289
     0
340
93
  0
DIMSTYLE
105
EF
102
{ACAD_REACTORS
330
EE
330
F9
102
}
330
A
100
AcDbSymbolTableRecord
100
AcDbDimStyleTableRecord
  2
SLDDIMSTYLE1
 70
     0
 41
3.302
 44
0.0
 45
0.000000001
 73
     0
 74
     0
 77
     1
 78
    12
 79
     3
140
3.5
147
0.875
173
     1
178
     0
271
     2
272
     2
276
     2
284
    12
340
93
  0
ENDTAB
  0
TABLE
  2
BLOCK_RECORD
  5
1
330
0
100
AcDbSymbolTable
 70
     7
  0
BLOCK_RECORD
  5
1F
330
1
100
AcDbSymbolTableRecord
100
AcDbBlockTableRecord
  2
*Model_Space
340
22
  0
BLOCK_RECORD
  5
1B
330
1
100
AcDbSymbolTableRecord
100
AcDbBlockTableRecord
  2
*Paper_Space
340
1E
  0
BLOCK_RECORD
  5
23
330
1
100
AcDbSymbolTableRecord
100
AcDbBlockTableRecord
  2
*Paper_Space0
340
26
  0
BLOCK_RECORD
  5
7E
330
1
100
AcDbSymbolTableRecord
100
AcDbBlockTableRecord
  2
블럭10
340
0
102
{BLKREFS
331
D9
102
}
  0
BLOCK_RECORD
  5
E2
330
1
100
AcDbSymbolTableRecord
100
AcDbBlockTableRecord
  2
_D
340
0
  0
BLOCK_RECORD
  5
F0
330
1
100
AcDbSymbolTableRecord
100
AcDbBlockTableRecord
  2
_D_1
340
0
  0
BLOCK_RECORD
  5
FA
330
1
100
AcDbSymbolTableRecord
100
AcDbBlockTableRecord
  2
_D_2
340
0
  0
BLOCK_RECORD
  5
104
330
1
100
AcDbSymbolTableRecord
100
AcDbBlockTableRecord
  2
_D_3
340
0
  0
BLOCK_RECORD
  5
110
330
1
100
AcDbSymbolTableRecord
100
AcDbBlockTableRecord
  2
SW_DOWELSYMBOL_0
340
0
102
{BLKREFS
331
116
102
}
  0
ENDTAB
  0
ENDSEC
  0
SECTION
  2
BLOCKS
  0
BLOCK
  5
20
330
1F
100
AcDbEntity
  8
0
100
AcDbBlockBegin
  2
*Model_Space
 70
     0
 10
0.0
 20
0.0
 30
0.0
  3
*Model_Space
  1

  0
ENDBLK
  5
21
330
1F
100
AcDbEntity
  8
0
100
AcDbBlockEnd
  0
BLOCK
  5
1C
330
1B
100
AcDbEntity
 67
     1
  8
0
100
AcDbBlockBegin
  2
*Paper_Space
 70
     0
 10
0.0
 20
0.0
 30
0.0
  3
*Paper_Space
  1

  0
ENDBLK
  5
1D
330
1B
100
AcDbEntity
 67
     1
  8
0
100
AcDbBlockEnd
  0
BLOCK
  5
24
330
23
100
AcDbEntity
  8
0
100
AcDbBlockBegin
  2
*Paper_Space0
 70
     0
 10
0.0
 20
0.0
 30
0.0
  3
*Paper_Space0
  1

  0
ENDBLK
  5
25
330
23
100
AcDbEntity
  8
0
100
AcDbBlockEnd
  0
BLOCK
  5
7F
330
7E
100
AcDbEntity
  8
0
100
AcDbBlockBegin
  2
블럭10
 70
     2
 10
0.0
 20
0.0
 30
0.0
  3
블럭10
  1

  0
ELLIPSE
  5
81
330
7E
100
AcDbEntity
  8
중심선
100
AcDbEllipse
 10
20.54032771741204
 20
12.0471743016438
 30
0.0
 11
6.600054785286829
 21
-1.261213355974178E-13
 31
0.0
210
0.0
220
0.0
230
1.0
 40
0.636358354079598
 41
0.9219305317359503
 42
6.513795318482858
  0
ELLIPSE
  5
82
330
7E
100
AcDbEntity
  8
중심선
100
AcDbEllipse
 10
20.54032771746488
 20
12.04717430159265
 30
0.0
 11
3.960054785062283
 21
1.540847449632565E-10
 31
0.0
210
0.0
220
0.0
230
1.0
 40
0.3939339440162632
 41
1.131841032648279
 42
5.62031148352944
  0
LINE
  5
83
330
7E
100
AcDbEntity
  8
중심선
100
AcDbLine
 10
2.268634060543552
 20
16.24717430164393
 30
0.0
 11
5.714909304380834
 21
16.24717430164393
 31
0.0
  0
LINE
  5
84
330
7E
100
AcDbEntity
  8
중심선
100
AcDbLine
 10
5.245725140726316
 20
7.84717430164391
 30
0.0
 11
8.692000384563599
 21
7.84717430164391
 31
0.0
  0
LINE
  5
85
330
7E
100
AcDbEntity
  8
중심선
100
AcDbLine
 10
15.74043728645272
 20
16.24717430164393
 30
0.0
 11
8.692000384563599
 21
7.84717430164391
 31
0.0
  0
LINE
  5
86
330
7E
100
AcDbEntity
  8
중심선
100
AcDbLine
 10
0.1404042013395286
 20
13.71084872107135
 30
0.0
 11
3.58671253028996
 21
13.71088815037384
 31
0.0
  0
LINE
  5
87
330
7E
100
AcDbEntity
  8
중심선
100
AcDbLine
 10
2.750260043222114
 20
10.84717430164391
 30
0.0
 11
6.196535287059397
 21
10.84717430164391
 31
0.0
  0
LINE
  5
88
330
7E
100
AcDbEntity
  8
중심선
100
AcDbLine
 10
12.29416204261559
 20
16.24717430164393
 30
0.0
 11
5.245725140726316
 21
7.84717430164391
 31
0.0
  0
LINE
  5
89
330
7E
100
AcDbEntity
  8
중심선
100
AcDbLine
 10
10.72767329541681
 20
16.24717430164393
 30
0.0
 11
6.196535287059397
 21
10.84717430164391
 31
0.0
  0
LINE
  5
8A
330
7E
100
AcDbEntity
  8
중심선
100
AcDbLine
 10
7.28139805157953
 20
16.24717430164393
 30
0.0
 11
2.750260043222114
 21
10.84717430164391
 31
0.0
  0
LINE
  5
8B
330
7E
100
AcDbEntity
  8
중심선
100
AcDbLine
 10
5.714909304380834
 20
16.24717430164393
 30
0.0
 11
3.58671253028996
 21
13.71088815037384
 31
0.0
  0
LINE
  5
8C
330
7E
100
AcDbEntity
  8
중심선
100
AcDbLine
 10
2.268634060543552
 20
16.24717430164393
 30
0.0
 11
0.1404042013395286
 21
13.71084872107135
 31
0.0
  0
LINE
  5
8D
330
7E
100
AcDbEntity
  8
중심선
100
AcDbLine
 10
7.28139805157953
 20
16.24717430164393
 30
0.0
 11
10.72767329541681
 21
16.24717430164393
 31
0.0
  0
LINE
  5
8E
330
7E
100
AcDbEntity
  8
중심선
100
AcDbLine
 10
12.29416204261559
 20
16.24717430164393
 30
0.0
 11
15.74043728645272
 21
16.24717430164393
 31
0.0
  0
LINE
  5
8F
330
7E
100
AcDbEntity
  8
중심선
100
AcDbLine
 10
19.22036997980202
 20
11.08717430171403
 30
0.0
 11
23.66174974927406
 21
11.08717430171406
 31
0.0
  0
LINE
  5
90
330
7E
100
AcDbEntity
  8
중심선
100
AcDbLine
 10
19.22039502424796
 20
13.00717430171391
 30
0.0
 11
19.22036997980202
 21
11.08717430171403
 31
0.0
  0
LINE
  5
91
330
7E
100
AcDbEntity
  8
중심선
100
AcDbLine
 10
19.22039502424796
 20
13.00717430171391
 30
0.0
 11
26.96566020931264
 21
13.00717430171391
 31
0.0
  0
LINE
  5
92
330
7E
100
AcDbEntity
  8
중심선
100
AcDbLine
 10
22.22332737316547
 20
13.45928029700563
 30
0.0
 11
24.52862924686651
 21
15.39360700705356
 31
0.0
  0
ATTDEF
  5
94
330
7E
100
AcDbEntity
  8
FORMAT
 62
     2
100
AcDbText
 10
-16.11926103943555
 20
2.075366912832191
 30
0.0
 40
4.233333333333333
  1
SEME7008050E [ 2 FLUTE ]
 41
0.75
  7
SLDTEXTSTYLE0
 11
-16.11926103943555
 21
-0.0412997538344756
 31
0.0
100
AcDbAttributeDefinition
  3

  2
AUTOATTR0
 70
     0
 74
     1
  0
ENDBLK
  5
80
330
7E
100
AcDbEntity
  8
0
100
AcDbBlockEnd
  0
BLOCK
  5
E3
330
E2
100
AcDbEntity
  8
0
100
AcDbBlockBegin
  2
_D
 70
     0
 10
0.0
 20
0.0
 30
0.0
  3
_D
  1

  0
LINE
  5
E5
330
E2
100
AcDbEntity
  8
치수문자_일반주서
 62
     0
370
    -2
100
AcDbLine
 10
60.06249999999982
 20
-3.999999999999805
 30
0.0
 11
73.81650660280175
 21
-3.999999999999757
 31
0.0
  0
LINE
  5
E6
330
E2
100
AcDbEntity
  8
치수문자_일반주서
 62
     0
370
    -2
100
AcDbLine
 10
60.06249999999971
 20
4.000000000000185
 30
0.0
 11
73.81650660280172
 21
4.000000000000236
 31
0.0
  0
LINE
  5
E7
330
E2
100
AcDbEntity
  8
치수문자_일반주서
 62
     0
370
    -2
100
AcDbLine
 10
73.81650660280175
 20
-3.999999999999757
 30
0.0
 11
73.81650660280168
 21
16.72900000000023
 31
0.0
  0
LINE
  5
E8
330
E2
100
AcDbEntity
  8
치수문자_일반주서
 62
     0
370
    -2
100
AcDbLine
 10
73.81650660280175
 20
-3.999999999999757
 30
0.0
 11
73.81650660280172
 21
4.000000000000236
 31
0.0
  0
LINE
  5
E9
330
E2
100
AcDbEntity
  8
치수문자_일반주서
 62
     0
370
    -2
100
AcDbLine
 10
73.81650660280177
 20
-7.301999999999756
 30
0.0
 11
73.81650660280178
 21
-10.60399999999976
 31
0.0
  0
LINE
  5
EA
330
E2
100
AcDbEntity
  8
치수문자_일반주서
 62
     0
370
    -2
100
AcDbLine
 10
73.81650660280171
 20
7.302000000000236
 30
0.0
 11
73.8165066028017
 21
10.60400000000024
 31
0.0
  0
SOLID
  5
EB
330
E2
100
AcDbEntity
  8
치수문자_일반주서
 62
     0
100
AcDbTrace
 10
74.3668399361351
 20
-7.301999999999754
 30
0.0
 11
73.26617326946844
 21
-7.301999999999758
 31
0.0
 12
73.81650660280175
 22
-3.999999999999757
 32
0.0
 13
73.81650660280175
 23
-3.999999999999757
 33
0.0
  0
SOLID
  5
EC
330
E2
100
AcDbEntity
  8
치수문자_일반주서
 62
     0
100
AcDbTrace
 10
73.26617326946838
 20
7.302000000000234
 30
0.0
 11
74.36683993613504
 21
7.302000000000238
 31
0.0
 12
73.81650660280172
 22
4.000000000000236
 32
0.0
 13
73.81650660280172
 23
4.000000000000236
 33
0.0
  0
MTEXT
  5
ED
330
E2
100
AcDbEntity
  8
치수문자_일반주서
 62
     0
100
AcDbMText
 10
69.4415066028017
 20
13.66650000000022
 30
0.0
 40
3.5
 41
0.0
 71
     2
 72
     1
  1
\A1;%%c8
  7
SLDTEXTSTYLE0
 11
-3.552713678800506E-15
 21
1.0
 31
0.0
 73
     1
 44
1.0
  0
POINT
  5
145
330
E2
100
AcDbEntity
  8
Defpoints
 62
     0
100
AcDbPoint
 10
59.99999999999982
 20
-3.999999999999805
 30
0.0
  0
POINT
  5
146
330
E2
100
AcDbEntity
  8
Defpoints
 62
     0
100
AcDbPoint
 10
59.99999999999971
 20
4.000000000000185
 30
0.0
  0
POINT
  5
147
330
E2
100
AcDbEntity
  8
Defpoints
 62
     0
100
AcDbPoint
 10
73.81650660280172
 20
4.000000000000236
 30
0.0
  0
ENDBLK
  5
E4
330
E2
100
AcDbEntity
  8
0
100
AcDbBlockEnd
  0
BLOCK
  5
F1
330
F0
100
AcDbEntity
  8
0
100
AcDbBlockBegin
  2
_D_1
 70
     0
 10
0.0
 20
0.0
 30
0.0
  3
_D_1
  1

  0
LINE
  5
F3
330
F0
100
AcDbEntity
  8
치수문자_일반주서
 62
     0
370
    -2
100
AcDbLine
 10
-40.0
 20
3.252499999999999
 30
0.0
 11
-40.00000000000001
 21
24.9784104402427
 31
0.0
  0
LINE
  5
F4
330
F0
100
AcDbEntity
  8
치수문자_일반주서
 62
     0
370
    -2
100
AcDbLine
 10
59.99999999999971
 20
4.062500000000185
 30
0.0
 11
59.9999999999997
 21
24.9784104402427
 31
0.0
  0
LINE
  5
F5
330
F0
100
AcDbEntity
  8
치수문자_일반주서
 62
     0
370
    -2
100
AcDbLine
 10
-36.69800000000001
 20
24.9784104402427
 30
0.0
 11
56.6979999999997
 21
24.9784104402427
 31
0.0
  0
SOLID
  5
F6
330
F0
100
AcDbEntity
  8
치수문자_일반주서
 62
     0
100
AcDbTrace
 10
-36.69800000000001
 20
25.52874377357603
 30
0.0
 11
-36.69800000000001
 21
24.42807710690936
 31
0.0
 12
-40.00000000000001
 22
24.9784104402427
 32
0.0
 13
-40.00000000000001
 23
24.9784104402427
 33
0.0
  0
SOLID
  5
F7
330
F0
100
AcDbEntity
  8
치수문자_일반주서
 62
     0
100
AcDbTrace
 10
56.6979999999997
 20
24.42807710690936
 30
0.0
 11
56.6979999999997
 21
25.52874377357603
 31
0.0
 12
59.9999999999997
 22
24.9784104402427
 32
0.0
 13
59.9999999999997
 23
24.9784104402427
 33
0.0
  0
MTEXT
  5
F8
330
F0
100
AcDbEntity
  8
치수문자_일반주서
 62
     0
100
AcDbMText
 10
9.99999999999986
 20
29.3534104402427
 30
0.0
 40
3.5
 41
0.0
 71
     2
 72
     1
  1
\A1;100
  7
SLDTEXTSTYLE0
 73
     1
 44
1.0
  0
POINT
  5
13C
330
F0
100
AcDbEntity
  8
Defpoints
 62
     0
100
AcDbPoint
 10
-40.0
 20
3.189999999999999
 30
0.0
  0
POINT
  5
13D
330
F0
100
AcDbEntity
  8
Defpoints
 62
     0
100
AcDbPoint
 10
59.99999999999971
 20
4.000000000000185
 30
0.0
  0
POINT
  5
13E
330
F0
100
AcDbEntity
  8
Defpoints
 62
     0
100
AcDbPoint
 10
59.99999999999971
 20
24.9784104402427
 30
0.0
  0
ENDBLK
  5
F2
330
F0
100
AcDbEntity
  8
0
100
AcDbBlockEnd
  0
BLOCK
  5
FB
330
FA
100
AcDbEntity
  8
0
100
AcDbBlockBegin
  2
_D_2
 70
     0
 10
0.0
 20
0.0
 30
0.0
  3
_D_2
  1

  0
LINE
  5
FD
330
FA
100
AcDbEntity
  8
치수문자_일반주서
 62
     0
370
    -2
100
AcDbLine
 10
9.999999999999995
 20
2.634539092221
 30
0.0
 11
9.999999999999993
 21
15.91903689838852
 31
0.0
  0
LINE
  5
FE
330
FA
100
AcDbEntity
  8
치수문자_일반주서
 62
     0
370
    -2
100
AcDbLine
 10
59.99999999999971
 20
4.062500000000185
 30
0.0
 11
59.99999999999971
 21
15.91903689838852
 31
0.0
  0
LINE
  5
FF
330
FA
100
AcDbEntity
  8
치수문자_일반주서
 62
     0
370
    -2
100
AcDbLine
 10
13.30199999999999
 20
15.91903689838852
 30
0.0
 11
56.69799999999971
 21
15.91903689838852
 31
0.0
  0
SOLID
  5
100
330
FA
100
AcDbEntity
  8
치수문자_일반주서
 62
     0
100
AcDbTrace
 10
13.30199999999999
 20
16.46937023172185
 30
0.0
 11
13.30199999999999
 21
15.36870356505519
 31
0.0
 12
9.999999999999993
 22
15.91903689838852
 32
0.0
 13
9.999999999999993
 23
15.91903689838852
 33
0.0
  0
SOLID
  5
101
330
FA
100
AcDbEntity
  8
치수문자_일반주서
 62
     0
100
AcDbTrace
 10
56.69799999999971
 20
15.36870356505519
 30
0.0
 11
56.69799999999971
 21
16.46937023172185
 31
0.0
 12
59.99999999999971
 22
15.91903689838852
 32
0.0
 13
59.99999999999971
 23
15.91903689838852
 33
0.0
  0
MTEXT
  5
102
330
FA
100
AcDbEntity
  8
치수문자_일반주서
 62
     0
100
AcDbMText
 10
35.0
 20
20.29403689838852
 30
0.0
 40
3.5
 41
0.0
 71
     2
 72
     1
  1
\A1;50
  7
SLDTEXTSTYLE0
 73
     1
 44
1.0
  0
POINT
  5
13F
330
FA
100
AcDbEntity
  8
Defpoints
 62
     0
100
AcDbPoint
 10
9.999999999999995
 20
2.572039092221
 30
0.0
  0
POINT
  5
140
330
FA
100
AcDbEntity
  8
Defpoints
 62
     0
100
AcDbPoint
 10
59.99999999999971
 20
4.000000000000185
 30
0.0
  0
POINT
  5
141
330
FA
100
AcDbEntity
  8
Defpoints
 62
     0
100
AcDbPoint
 10
59.99999999999971
 20
15.91903689838852
 30
0.0
  0
ENDBLK
  5
FC
330
FA
100
AcDbEntity
  8
0
100
AcDbBlockEnd
  0
BLOCK
  5
105
330
104
100
AcDbEntity
  8
0
100
AcDbBlockBegin
  2
_D_3
 70
     0
 10
0.0
 20
0.0
 30
0.0
  3
_D_3
  1

  0
LINE
  5
107
330
104
100
AcDbEntity
  8
치수문자_일반주서
 62
     0
370
    -2
100
AcDbLine
 10
-39.25250000000001
 20
3.999999999999998
 30
0.0
 11
-49.76915845157319
 21
3.999999999999959
 31
0.0
  0
LINE
  5
108
330
104
100
AcDbEntity
  8
치수문자_일반주서
 62
     0
370
    -2
100
AcDbLine
 10
-39.25250000000001
 20
-3.999999999999995
 30
0.0
 11
-49.76915845157316
 21
-4.000000000000034
 31
0.0
  0
LINE
  5
109
330
104
100
AcDbEntity
  8
치수문자_일반주서
 62
     0
370
    -2
100
AcDbLine
 10
-49.76915845157319
 20
3.999999999999959
 30
0.0
 11
-49.76915845157324
 21
16.72899999999996
 31
0.0
  0
LINE
  5
10A
330
104
100
AcDbEntity
  8
치수문자_일반주서
 62
     0
370
    -2
100
AcDbLine
 10
-49.76915845157319
 20
3.999999999999959
 30
0.0
 11
-49.76915845157316
 21
-4.000000000000034
 31
0.0
  0
LINE
  5
10B
330
104
100
AcDbEntity
  8
치수문자_일반주서
 62
     0
370
    -2
100
AcDbLine
 10
-49.7691584515732
 20
7.301999999999959
 30
0.0
 11
-49.76915845157322
 21
10.60399999999996
 31
0.0
  0
LINE
  5
10C
330
104
100
AcDbEntity
  8
치수문자_일반주서
 62
     0
370
    -2
100
AcDbLine
 10
-49.76915845157315
 20
-7.302000000000033
 30
0.0
 11
-49.76915845157313
 21
-10.60400000000003
 31
0.0
  0
SOLID
  5
10D
330
104
100
AcDbEntity
  8
치수문자_일반주서
 62
     0
100
AcDbTrace
 10
-50.31949178490654
 20
7.301999999999957
 30
0.0
 11
-49.21882511823987
 21
7.301999999999961
 31
0.0
 12
-49.76915845157319
 22
3.999999999999959
 32
0.0
 13
-49.76915845157319
 23
3.999999999999959
 33
0.0
  0
SOLID
  5
10E
330
104
100
AcDbEntity
  8
치수문자_일반주서
 62
     0
100
AcDbTrace
 10
-49.21882511823981
 20
-7.302000000000032
 30
0.0
 11
-50.31949178490648
 21
-7.302000000000035
 31
0.0
 12
-49.76915845157316
 22
-4.000000000000034
 32
0.0
 13
-49.76915845157316
 23
-4.000000000000034
 33
0.0
  0
MTEXT
  5
10F
330
104
100
AcDbEntity
  8
치수문자_일반주서
 62
     0
100
AcDbMText
 10
-54.14415845157323
 20
13.66649999999994
 30
0.0
 40
3.5
 41
0.0
 71
     2
 72
     1
  1
\A1;%%c8
  7
SLDTEXTSTYLE0
 11
-3.552713678800504E-15
 21
1.0
 31
0.0
 73
     1
 44
1.0
  0
POINT
  5
142
330
104
100
AcDbEntity
  8
Defpoints
 62
     0
100
AcDbPoint
 10
-39.19000000000001
 20
3.999999999999999
 30
0.0
  0
POINT
  5
143
330
104
100
AcDbEntity
  8
Defpoints
 62
     0
100
AcDbPoint
 10
-39.19000000000001
 20
-3.999999999999995
 30
0.0
  0
POINT
  5
144
330
104
100
AcDbEntity
  8
Defpoints
 62
     0
100
AcDbPoint
 10
-49.76915845157316
 20
-4.000000000000035
 30
0.0
  0
ENDBLK
  5
106
330
104
100
AcDbEntity
  8
0
100
AcDbBlockEnd
  0
BLOCK
  5
111
330
110
100
AcDbEntity
  8
0
100
AcDbBlockBegin
  2
SW_DOWELSYMBOL_0
 70
     0
 10
0.0
 20
0.0
 30
0.0
  3
SW_DOWELSYMBOL_0
  1

  0
CIRCLE
  5
113
330
110
100
AcDbEntity
  8
외형선
 62
     0
100
AcDbCircle
 10
0.0
 20
0.0
 30
0.0
 40
3.000000000000004
  0
HATCH
  5
114
330
110
100
AcDbEntity
  8
0
  6
Continuous
 62
     0
370
    30
100
AcDbHatch
 10
0.0
 20
0.0
 30
0.0
210
0.0
220
0.0
230
1.0
  2
SOLID
 70
     1
 71
     0
 91
        1
 92
        0
 93
        3
 72
     2
 10
0.0000000000000104
 20
0.0
 40
3.000000000000004
 50
0.0
 51
90.0
 73
     1
 72
     1
 10
0.0000000000000104
 20
3.000000000000004
 11
0.0000000000000104
 21
0.0
 72
     1
 10
0.0000000000000104
 20
0.0
 11
3.000000000000015
 21
0.0
 97
        0
 75
     0
 76
     1
 98
        1
 10
0.0
 20
0.0
  0
HATCH
  5
115
330
110
100
AcDbEntity
  8
0
  6
Continuous
 62
     0
370
    30
100
AcDbHatch
 10
0.0
 20
0.0
 30
0.0
210
0.0
220
0.0
230
1.0
  2
SOLID
 70
     1
 71
     0
 91
        1
 92
        0
 93
        3
 72
     2
 10
0.0000000000000104
 20
0.0
 40
3.000000000000004
 50
180.0
 51
270.0000000000008
 73
     1
 72
     1
 10
0.0000000000000104
 20
-3.000000000000004
 11
0.0000000000000104
 21
0.0
 72
     1
 10
0.0000000000000104
 20
0.0
 11
-2.999999999999994
 21
0.0
 97
        0
 75
     0
 76
     1
 98
        1
 10
0.0
 20
0.0
  0
ENDBLK
  5
112
330
110
100
AcDbEntity
  8
0
100
AcDbBlockEnd
  0
ENDSEC
  0
SECTION
  2
ENTITIES
  0
LINE
  5
95
330
1F
100
AcDbEntity
  8
0
  6
Continuous
 62
     1
370
    15
100
AcDbLine
 10
26.80205352130238
 20
1.558884076920461
 30
0.0
 11
26.76105565549551
 21
1.580007792016772
 31
0.0
  0
SPLINE
  5
96
330
1F
100
AcDbEntity
  8
0
  6
Continuous
 62
     1
370
    15
100
AcDbSpline
210
0.0
220
0.0
230
1.0
 70
     8
 71
     3
 72
     9
 73
     5
 74
     0
 42
0.000000001
 43
0.00000001
 40
0.0
 40
0.0
 40
0.0
 40
0.0
 40
0.5184610664987511
 40
1.0
 40
1.0
 40
1.0
 40
1.0
 10
27.87214172643316
 20
1.024964921127781
 30
0.0
 10
27.68721626578604
 20
1.112928651584558
 30
0.0
 10
27.33053478554307
 20
1.282591787624473
 30
0.0
 10
26.9738237654744
 20
1.469081850793478
 30
0.0
 10
26.80205352130238
 20
1.558884076920461
 30
0.0
  0
SPLINE
  5
97
330
1F
100
AcDbEntity
  8
0
  6
Continuous
 62
     1
370
    15
100
AcDbSpline
210
0.0
220
0.0
230
1.0
 70
     8
 71
     3
 72
     9
 73
     5
 74
     0
 42
0.000000001
 43
0.00000001
 40
0.0
 40
0.0
 40
0.0
 40
0.0
 40
0.4383433468143333
 40
0.9999999999999999
 40
0.9999999999999999
 40
0.9999999999999999
 40
0.9999999999999999
 10
49.63783211991984
 20
1.024919036943565
 30
0.0
 10
49.47530925718712
 20
1.102122055442063
 30
0.0
 10
49.10454313534714
 20
1.278246591287244
 30
0.0
 10
48.73438779198138
 20
1.471532613439906
 30
0.0
 10
48.52648758066776
 20
1.580092993749741
 30
0.0
  0
LINE
  5
98
330
1F
100
AcDbEntity
  8
0
  6
Continuous
 62
     1
370
    15
100
AcDbLine
 10
16.75384642784211
 20
-4.0
 30
0.0
 11
18.69202848181381
 21
-4.0
 31
0.0
  0
LINE
  5
99
330
1F
100
AcDbEntity
  8
0
  6
Continuous
 62
     1
370
    15
100
AcDbLine
 10
40.45839842675697
 20
4.000000000000011
 30
0.0
 11
38.51968818846292
 21
4.000000000000011
 31
0.0
  0
LINE
  5
9A
330
1F
100
AcDbEntity
  8
0
  6
Continuous
 62
     1
370
    15
100
AcDbLine
 10
38.51968818846291
 20
-4.0
 30
0.0
 11
40.45839842675693
 21
-4.0
 31
0.0
  0
LINE
  5
9B
330
1F
100
AcDbEntity
  8
0
  6
Continuous
 62
     1
370
    15
100
AcDbLine
 10
18.69202848181384
 20
4.000000000000011
 30
0.0
 11
16.75384642784216
 21
4.000000000000011
 31
0.0
  0
SPLINE
  5
9C
330
1F
100
AcDbEntity
  8
0
  6
Continuous
 62
     1
370
    15
100
AcDbSpline
210
0.0
220
0.0
230
1.0
 70
     8
 71
     3
 72
    20
 73
    16
 74
     0
 42
0.000000001
 43
0.00000001
 40
0.0
 40
0.0
 40
0.0
 40
0.0
 40
0.1041576741436831
 40
0.1849675771103091
 40
0.2500699685492799
 40
0.3183939397177606
 40
0.3891514692372096
 40
0.4595126994982107
 40
0.5200233786738736
 40
0.5807572170857291
 40
0.6400549260818094
 40
0.6956392394556122
 40
0.7594139902555472
 40
0.8607550596249411
 40
1.0
 40
1.0
 40
1.0
 40
1.0
 10
20.53259327122463
 20
-3.328562000588446
 30
0.0
 10
20.7420515687429
 20
-3.308488061725891
 30
0.0
 10
21.11401642026367
 20
-3.272839917074109
 30
0.0
 10
21.61520959696248
 20
-3.232932175157233
 30
0.0
 10
22.04361035361543
 20
-3.203213591915088
 30
0.0
 10
22.45294398442364
 20
-3.179027564868639
 30
0.0
 10
22.87306990183272
 20
-3.158611352965505
 30
0.0
 10
23.27719501717802
 20
-3.143302210522231
 30
0.0
 10
23.66140780635946
 20
-3.132796188490799
 30
0.0
 10
24.02351096968451
 20
-3.126388598391815
 30
0.0
 10
24.37573841361446
 20
-3.123517131057507
 30
0.0
 10
24.73399340164293
 20
-3.123849885798637
 30
0.0
 10
25.17614603546074
 20
-3.128645574376113
 30
0.0
 10
25.78612944216306
 20
-3.142408748249911
 30
0.0
 10
26.26916372710289
 20
-3.16529770210719
 30
0.0
 10
26.54873143877905
 20
-3.17854523474007
 30
0.0
  0
SPLINE
  5
9D
330
1F
100
AcDbEntity
  8
0
  6
Continuous
 62
     1
370
    15
100
AcDbSpline
210
0.0
220
0.0
230
1.0
 70
     8
 71
     3
 72
    14
 73
    10
 74
     0
 42
0.000000001
 43
0.00000001
 40
0.0
 40
0.0
 40
0.0
 40
0.0
 40
0.2093879618041714
 40
0.3652596057463007
 40
0.4667967307304384
 40
0.5490145033927524
 40
0.6323958655778431
 40
0.9651733990318936
 40
1.0
 40
1.0
 40
1.0
 40
1.0
 10
48.31446148521138
 20
3.178552616937806
 30
0.0
 10
48.0842060780768
 20
3.167389778624444
 30
0.0
 10
47.68254497728445
 20
3.147917150464656
 30
0.0
 10
47.1699634255006
 20
3.133635730974176
 30
0.0
 10
46.79708351716067
 20
3.126976111569275
 30
0.0
 10
46.50380569441599
 20
3.124113748662687
 30
0.0
 10
45.95651984964488
 20
3.123035413935629
 30
0.0
 10
45.46090165417534
 20
3.128703841937019
 30
0.0
 10
45.0572806731314
 20
3.143913258497856
 30
0.0
 10
45.01904185715271
 20
3.145354189738617
 30
0.0
  0
SPLINE
  5
9E
330
1F
100
AcDbEntity
  8
0
  6
Continuous
 62
     1
370
    15
100
AcDbSpline
210
0.0
220
0.0
230
1.0
 70
     8
 71
     3
 72
    20
 73
    16
 74
     0
 42
0.000000001
 43
0.00000001
 40
0.0
 40
0.0
 40
0.0
 40
0.0
 40
0.1162794905386944
 40
0.2025071467563386
 40
0.2681567591618392
 40
0.3365519290351811
 40
0.4072176371031762
 40
0.4775574112129354
 40
0.5381560844060551
 40
0.5989075714548541
 40
0.6581565428858295
 40
0.7136368415328004
 40
0.7761304590200918
 40
0.871523821803388
 40
1.0
 40
1.0
 40
1.0
 40
1.0
 10
42.2983815332808
 20
-3.328542441027407
 30
0.0
 10
42.53263106752559
 20
-3.306185061074723
 30
0.0
 10
42.94058955263027
 20
-3.267248450652795
 30
0.0
 10
43.47832566726601
 20
-3.22563952105598
 30
0.0
 10
43.91719295520984
 20
-3.196439383731568
 30
0.0
 10
44.32734066817686
 20
-3.17331817229673
 30
0.0
 10
44.74741985378679
 20
-3.154054182839445
 30
0.0
 10
45.15147493634714
 20
-3.139897320142832
 30
0.0
 10
45.53592961238702
 20
-3.130502087870803
 30
0.0
 10
45.89815760661854
 20
-3.125133267533342
 30
0.0
 10
46.25012072590549
 20
-3.123276941817044
 30
0.0
 10
46.60542707244436
 20
-3.124640645891122
 30
0.0
 10
47.03300307108458
 20
-3.130460139074831
 30
0.0
 10
47.60704030980941
 20
-3.144692800573729
 30
0.0
 10
48.05651378201971
 20
-3.166206277634846
 30
0.0
 10
48.31446148521138
 20
-3.178552616937792
 30
0.0
  0
SPLINE
  5
9F
330
1F
100
AcDbEntity
  8
0
  6
Continuous
 62
     1
370
    15
100
AcDbSpline
210
0.0
220
0.0
230
1.0
 70
     8
 71
     3
 72
    14
 73
    10
 74
     0
 42
0.000000001
 43
0.00000001
 40
0.0
 40
0.0
 40
0.0
 40
0.0
 40
0.2106818886361257
 40
0.367522024564568
 40
0.4696985924995855
 40
0.5524380244197117
 40
0.63633359339764
 40
0.9711467625255643
 40
1.0
 40
1.0
 40
1.0
 40
1.0
 10
26.54873143877905
 20
3.178545234740082
 30
0.0
 10
26.31849283335485
 20
3.167383977729926
 30
0.0
 10
25.91685527947581
 20
3.147913828683833
 30
0.0
 10
25.40429030184405
 20
3.133633618359839
 30
0.0
 10
25.03139335315405
 20
3.126975068405554
 30
0.0
 10
24.7381010512207
 20
3.124111816750043
 30
0.0
 10
24.19086247241487
 20
3.12304717586536
 30
0.0
 10
23.702056992197
 20
3.128523683216165
 30
0.0
 10
23.30523344084914
 20
3.143423991174728
 30
0.0
 10
23.27374952054575
 20
3.144606179345441
 30
0.0
  0
SPLINE
  5
A0
330
1F
100
AcDbEntity
  8
0
  6
Continuous
 62
     1
370
    15
100
AcDbSpline
210
0.0
220
0.0
230
1.0
 70
     8
 71
     3
 72
     9
 73
     5
 74
     0
 42
0.000000001
 43
0.00000001
 40
0.0
 40
0.0
 40
0.0
 40
0.0
 40
0.681512483974209
 40
1.0
 40
1.0
 40
1.0
 40
1.0
 10
9.999999999999984
 20
-2.755176151671651
 30
0.0
 10
10.22179725566115
 20
-2.735441153998313
 30
0.0
 10
10.54724581438419
 20
-2.706483507385216
 30
0.0
 10
10.87431332507843
 20
-2.687562618580619
 30
0.0
 10
10.97848024413218
 20
-2.681536551704243
 30
0.0
  0
SPLINE
  5
A1
330
1F
100
AcDbEntity
  8
0
  6
Continuous
 62
     1
370
    15
100
AcDbSpline
210
0.0
220
0.0
230
1.0
 70
     8
 71
     3
 72
    12
 73
     8
 74
     0
 42
0.000000001
 43
0.00000001
 40
0.0
 40
0.0
 40
0.0
 40
0.0
 40
0.2608169679846605
 40
0.4478017630247371
 40
0.5769287957274664
 40
0.7074908623247654
 40
1.0
 40
1.0
 40
1.0
 40
1.0
 10
51.52631794149869
 20
-3.008545318760867
 30
0.0
 10
51.78819476059449
 20
-2.968933292441225
 30
0.0
 10
52.23781620275963
 20
-2.900922628257899
 30
0.0
 10
52.81469820256348
 20
-2.829767994476397
 30
0.0
 10
53.2560549128127
 20
-2.781633515468111
 30
0.0
 10
53.80572377669094
 20
-2.727137234038111
 30
0.0
 10
54.22855561446559
 20
-2.702821768602034
 30
0.0
 10
54.52089925544152
 20
-2.686010187584345
 30
0.0
  0
SPLINE
  5
A2
330
1F
100
AcDbEntity
  8
0
  6
Continuous
 62
     1
370
    15
100
AcDbSpline
210
0.0
220
0.0
230
1.0
 70
     8
 71
     3
 72
    22
 73
    18
 74
     0
 42
0.000000001
 43
0.00000001
 40
0.0
 40
0.0
 40
0.0
 40
0.0
 40
0.1093946329943609
 40
0.1919493939672257
 40
0.2467092124824053
 40
0.2886327194325018
 40
0.3316276396067475
 40
0.4196807520367751
 40
0.5132123549956745
 40
0.566998957800958
 40
0.6210398152721037
 40
0.675162178714415
 40
0.7287188695254204
 40
0.7798837722731718
 40
0.8323141184986813
 40
0.9049386994998017
 40
0.9999999999999999
 40
0.9999999999999999
 40
0.9999999999999999
 40
0.9999999999999999
 10
36.74719650269486
 20
2.735790817146796
 30
0.0
 10
36.49178826262157
 20
2.715691277585574
 30
0.0
 10
36.04363595793917
 20
2.680423601903569
 30
0.0
 10
35.4680269860353
 20
2.653328962673928
 30
0.0
 10
35.04739405536492
 20
2.640056711171631
 30
0.0
 10
34.71914466690833
 20
2.633850522564027
 30
0.0
 10
34.31734218611777
 20
2.630893602627552
 30
0.0
 10
33.80359881893587
 20
2.635674048876647
 30
0.0
 10
33.25447082689159
 20
2.653265539721837
 30
0.0
 10
32.78584700502346
 20
2.677209504886836
 30
0.0
 10
32.40843835627311
 20
2.701463240477312
 30
0.0
 10
32.03169335743362
 20
2.730687989974447
 30
0.0
 10
31.66165814330673
 20
2.764309249357542
 30
0.0
 10
31.29684133550283
 20
2.802180704820239
 30
0.0
 10
30.88844583722114
 20
2.84929502244023
 30
0.0
 10
30.37520007991094
 20
2.914964706985648
 30
0.0
 10
29.98309131719163
 20
2.974680130205736
 30
0.0
 10
29.7608044520847
 20
3.008532865691858
 30
0.0
  0
SPLINE
  5
A3
330
1F
100
AcDbEntity
  8
0
  6
Continuous
 62
     1
370
    15
100
AcDbSpline
210
0.0
220
0.0
230
1.0
 70
     8
 71
     3
 72
    14
 73
    10
 74
     0
 42
0.000000001
 43
0.00000001
 40
0.0
 40
0.0
 40
0.0
 40
0.0
 40
0.2225041174780602
 40
0.3924919907539432
 40
0.5152124653802218
 40
0.6349709945801841
 40
0.7603278344429354
 40
0.8870087093120235
 40
1.0
 40
1.0
 40
1.0
 40
1.0
 10
29.7608044520847
 20
-3.008532865691846
 30
0.0
 10
29.98309129545406
 20
-2.974680407719384
 30
0.0
 10
30.37520001982883
 20
-2.914965474026816
 30
0.0
 10
30.88844599316787
 20
-2.849293031538974
 30
0.0
 10
31.29684093001334
 20
-2.802185881521454
 30
0.0
 10
31.66165966245947
 20
-2.764289855020027
 30
0.0
 10
32.03168735504103
 20
-2.730764619811239
 30
0.0
 10
32.39502472336878
 20
-2.702229705765274
 30
0.0
 10
32.63358181648317
 20
-2.687528700166224
 30
0.0
 10
32.7460474162791
 20
-2.680598043061394
 30
0.0
  0
SPLINE
  5
A4
330
1F
100
AcDbEntity
  8
0
  6
Continuous
 62
     1
370
    15
100
AcDbSpline
210
0.0
220
0.0
230
1.0
 70
     8
 71
     3
 72
    19
 73
    15
 74
     0
 42
0.000000001
 43
0.00000001
 40
0.0
 40
0.0
 40
0.0
 40
0.0
 40
0.1080975627157402
 40
0.1894513118749988
 40
0.243248194271843
 40
0.2863597074525404
 40
0.3314012010926399
 40
0.5139582619622391
 40
0.6301855430221583
 40
0.7448810833897253
 40
0.7872620613691347
 40
0.8384321789493107
 40
0.909549687706761
 40
1.0
 40
1.0
 40
1.0
 40
1.0
 10
58.51295393172933
 20
2.735805048108768
 30
0.0
 10
58.26010905563186
 20
2.715881919913383
 30
0.0
 10
57.81697424043251
 20
2.68096473326788
 30
0.0
 10
57.24981293259169
 20
2.654030808777156
 30
0.0
 10
56.83606780682008
 20
2.640724186492716
 30
0.0
 10
56.50728686265069
 20
2.634293968209798
 30
0.0
 10
55.87762301893672
 20
2.629104392430282
 30
0.0
 10
55.07611676622811
 20
2.646013906806464
 30
0.0
 10
54.11351416150836
 20
2.702833509270235
 30
0.0
 10
53.47593382846448
 20
2.758592878225536
 30
0.0
 10
52.99536404913756
 20
2.809709369238551
 30
0.0
 10
52.61354579490784
 20
2.854269528138336
 30
0.0
 10
52.11669155045894
 20
2.91845937726318
 30
0.0
 10
51.7382053822618
 20
2.976213115384954
 30
0.0
 10
51.52631794149869
 20
3.008545318760882
 30
0.0
  0
SPLINE
  5
A5
330
1F
100
AcDbEntity
  8
0
  6
Continuous
 62
     1
370
    15
100
AcDbSpline
210
0.0
220
0.0
230
1.0
 70
     8
 71
     3
 72
    19
 73
    15
 74
     0
 42
0.000000001
 43
0.00000001
 40
0.0
 40
0.0
 40
0.0
 40
0.0
 40
0.1310485217550451
 40
0.2349954111041645
 40
0.3225389175064187
 40
0.3793770948847001
 40
0.4335256184489564
 40
0.4867042182643179
 40
0.5387331780960795
 40
0.605081637421913
 40
0.6675091982562197
 40
0.7380953230531258
 40
0.8485033824905905
 40
1.0
 40
1.0
 40
1.0
 40
1.0
 10
14.98148293555598
 20
2.735780366849408
 30
0.0
 10
14.76345350147373
 20
2.71837992903095
 30
0.0
 10
14.37248444811242
 20
2.687177569906411
 30
0.0
 10
13.83692939823598
 20
2.659148649252388
 30
0.0
 10
13.42509856810987
 20
2.644022364999142
 30
0.0
 10
13.09563153096867
 20
2.636328935804182
 30
0.0
 10
12.82325717803397
 20
2.632744398809816
 30
0.0
 10
12.5587196777461
 20
2.631881675819376
 30
0.0
 10
12.27383282793676
 20
2.63368687000717
 30
0.0
 10
11.97363172492348
 20
2.638838137499241
 30
0.0
 10
11.64266719668312
 20
2.648376253732931
 30
0.0
 10
11.23887317632219
 20
2.665144062085604
 30
0.0
 10
10.68694970694149
 20
2.696051340860858
 30
0.0
 10
10.25174221367059
 20
2.733509047652306
 30
0.0
 10
9.999999999999984
 20
2.755176151671661
 30
0.0
  0
LINE
  5
A6
330
1F
100
AcDbEntity
  8
0
  6
Continuous
 62
   131
370
    15
100
AcDbLine
 10
8.479890380589493
 20
4.000000000000005
 30
0.0
 11
-39.19000000000001
 21
4.000000000000003
 31
0.0
  0
LINE
  5
A7
330
1F
100
AcDbEntity
  8
0
  6
Continuous
 62
   131
370
    15
100
AcDbLine
 10
-39.19000000000001
 20
-3.999999999999998
 30
0.0
 11
8.479890380589493
 21
-3.999999999999996
 31
0.0
  0
LINE
  5
A8
330
1F
100
AcDbEntity
  8
0
  6
Continuous
 62
   131
370
    15
100
AcDbLine
 10
-39.19000000000001
 20
3.999999999999999
 30
0.0
 11
-40.0
 21
3.189999999999998
 31
0.0
  0
LINE
  5
A9
330
1F
100
AcDbEntity
  8
0
  6
Continuous
 62
   131
370
    15
100
AcDbLine
 10
-40.0
 20
-3.189999999999996
 30
0.0
 11
-39.19000000000001
 21
-3.999999999999995
 31
0.0
  0
SPLINE
  5
AA
330
1F
100
AcDbEntity
  8
0
  6
Continuous
 62
   131
370
    15
100
AcDbSpline
210
0.0
220
0.0
230
1.0
 70
     8
 71
     3
 72
     9
 73
     5
 74
     0
 42
0.000000001
 43
0.00000001
 40
0.0
 40
0.0
 40
0.0
 40
0.0
 40
0.5127686486487362
 40
1.0
 40
1.0
 40
1.0
 40
1.0
 10
8.470724347202435
 20
-2.935727734746041
 30
0.0
 10
8.734085238432012
 20
-2.90013477513355
 30
0.0
 10
9.247690919909598
 20
-2.830721483766601
 30
0.0
 10
9.75353628109492
 20
-2.779925531928769
 30
0.0
 10
10.00000000000001
 20
-2.755176151671649
 30
0.0
  0
SPLINE
  5
AB
330
1F
100
AcDbEntity
  8
0
  6
Continuous
 62
   131
370
    15
100
AcDbSpline
210
0.0
220
0.0
230
1.0
 70
     8
 71
     3
 72
     9
 73
     5
 74
     0
 42
0.000000001
 43
0.00000001
 40
0.0
 40
0.0
 40
0.0
 40
0.0
 40
0.4927454157091374
 40
1.0
 40
1.0
 40
1.0
 40
1.0
 10
10.00000000000001
 20
2.755176151671659
 30
0.0
 10
9.753543230785164
 20
2.779908859325331
 30
0.0
 10
9.253372632830109
 20
2.830102543254542
 30
0.0
 10
8.745528556396364
 20
2.898705229496404
 30
0.0
 10
8.487922320520385
 20
2.933504256587256
 30
0.0
  0
SPLINE
  5
AC
330
1F
100
AcDbEntity
  8
0
  6
Continuous
 62
     1
370
    15
100
AcDbSpline
210
0.0
220
0.0
230
1.0
 70
     8
 71
     3
 72
    32
 73
    28
 74
     0
 42
0.000000001
 43
0.00000001
 40
0.0
 40
0.0
 40
0.0
 40
0.0
 40
0.0099761710484386
 40
0.0558613797524913
 40
0.097643022506611
 40
0.1397142867863709
 40
0.1814591710740111
 40
0.2234943450583389
 40
0.2652389766123124
 40
0.3072718922047605
 40
0.3490143153198651
 40
0.391046243819838
 40
0.4327885797279006
 40
0.4748201620271186
 40
0.517744153948073
 40
0.5609818610631012
 40
0.6030261773102199
 40
0.6453670972988103
 40
0.6871981954406424
 40
0.7293195186944844
 40
0.7710612728176723
 40
0.8130922296128893
 40
0.8548339849835178
 40
0.8968653573514782
 40
0.9386070529125541
 40
0.9806369511688968
 40
1.0
 40
1.0
 40
1.0
 40
1.0
 10
10.97893173331678
 20
2.681737684698891
 30
0.0
 10
11.07054574790254
 20
2.723059491782964
 30
0.0
 10
11.58353667744622
 20
2.954440163422899
 30
0.0
 10
12.47994562922691
 20
3.275093862842159
 30
0.0
 10
13.67046581515105
 20
3.628492738516969
 30
0.0
 10
14.82368448971438
 20
3.863345243213814
 30
0.0
 10
15.97940617127722
 20
3.993457848189382
 30
0.0
 10
17.13126740173217
 20
4.012570870771419
 30
0.0
 10
18.2861682322516
 20
3.92045532833996
 30
0.0
 10
19.43908771506249
 20
3.720724946812139
 30
0.0
 10
20.59358311020197
 20
3.416932962028011
 30
0.0
 10
21.74557278113967
 20
3.019210878313762
 30
0.0
 10
22.90119405226801
 20
2.538303705800319
 30
0.0
 10
24.06398966623629
 20
1.98190884168339
 30
0.0
 10
25.24046654209097
 20
1.361826803877156
 30
0.0
 10
26.41795402388061
 20
0.7035813643010538
 30
0.0
 10
27.58961112513214
 20
0.0277067626832582
 30
0.0
 10
28.74784248998575
 20
-0.6424869372781326
 30
0.0
 10
29.90739755101696
 20
-1.293926061146822
 30
0.0
 10
31.06172370717785
 20
-1.906131333972829
 30
0.0
 10
32.2169609342386
 20
-2.467725301757245
 30
0.0
 10
33.36910409563532
 20
-2.958892463081333
 30
0.0
 10
34.52464114747679
 20
-3.368099575759781
 30
0.0
 10
35.67649103703673
 20
-3.686095029135107
 30
0.0
 10
36.83104428116044
 20
-3.896140242862526
 30
0.0
 10
37.77849657740971
 20
-3.998590350066403
 30
0.0
 10
38.34197098994677
 20
-3.989249470749805
 30
0.0
 10
38.51968818846292
 20
-3.986303401031484
 30
0.0
  0
SPLINE
  5
AD
330
1F
100
AcDbEntity
  8
0
  6
Continuous
 62
     1
370
    15
100
AcDbSpline
210
0.0
220
0.0
230
1.0
 70
     8
 71
     3
 72
    13
 73
     9
 74
     0
 42
0.000000001
 43
0.00000001
 40
0.0
 40
0.0
 40
0.0
 40
0.0
 40
0.1542030560226817
 40
0.3670622115283647
 40
0.5237585767820133
 40
0.6810614567413252
 40
0.8402126716571124
 40
1.0
 40
1.0
 40
1.0
 40
1.0
 10
54.51392194460067
 20
2.683136952819765
 30
0.0
 10
54.79583189951595
 20
2.802910252091381
 30
0.0
 10
55.46688534146485
 20
3.088016483100327
 30
0.0
 10
56.42550327545305
 20
3.405935871968585
 30
0.0
 10
57.38833090056215
 20
3.665586787045091
 30
0.0
 10
58.25394026524116
 20
3.83842805383577
 30
0.0
 10
59.1245155102872
 20
3.957438613293622
 30
0.0
 10
59.70778406617362
 20
3.983541691106465
 30
0.0
 10
59.99999999999971
 20
4.000000000000185
 30
0.0
  0
SPLINE
  5
AE
330
1F
100
AcDbEntity
  8
0
  6
Continuous
 62
     1
370
    15
100
AcDbSpline
210
0.0
220
0.0
230
1.0
 70
    24
 71
     3
 72
    10
 73
     6
 74
     0
 42
0.000000001
 43
0.00000001
 40
0.0
 40
0.0
 40
0.0
 40
0.0
 40
0.5
 40
0.5
 40
1.0
 40
1.0
 40
1.0
 40
1.0
 10
60.0
 20
2.80000000000001
 30
0.0
 10
60.00000000000001
 20
2.969729027229267
 30
0.0
 10
60.00000000000001
 20
3.166969875468481
 30
0.0
 10
60.00000000000001
 20
3.580780643843438
 30
0.0
 10
60.0
 20
3.796293743205908
 30
0.0
 10
59.99999999999971
 20
4.000000000000185
 30
0.0
  0
LINE
  5
AF
330
1F
100
AcDbEntity
  8
0
  6
Continuous
 62
     1
370
    15
100
AcDbLine
 10
60.0
 20
2.800000000000012
 30
0.0
 11
58.51170183796272
 21
2.730433372573407
 31
0.0
  0
SPLINE
  5
B0
330
1F
100
AcDbEntity
  8
0
  6
Continuous
 62
     1
370
    15
100
AcDbSpline
210
0.0
220
0.0
230
1.0
 70
     8
 71
     3
 72
    16
 73
    12
 74
     0
 42
0.000000001
 43
0.00000001
 40
0.0
 40
0.0
 40
0.0
 40
0.0
 40
0.0364505356931019
 40
0.1574476093395493
 40
0.2784492095855005
 40
0.3994558974298589
 40
0.520468231737927
 40
0.6414867690105703
 40
0.7625120631554795
 40
0.8835378421469978
 40
0.9999999999999999
 40
0.9999999999999999
 40
0.9999999999999999
 40
0.9999999999999999
 10
28.28681812901624
 20
-0.3738840755506159
 30
0.0
 10
28.12515053332039
 20
-0.3099331249759253
 30
0.0
 10
27.42682948080425
 20
-0.0336978353836731
 30
0.0
 10
26.19182955874767
 20
0.4721850386276959
 30
0.0
 10
24.58179469911288
 20
1.099650692741084
 30
0.0
 10
22.97168484039775
 20
1.669843028243778
 30
0.0
 10
21.36149206160553
 20
2.149572651170902
 30
0.0
 10
19.75120881782192
 20
2.514701678307865
 30
0.0
 10
18.14085449377136
 20
2.741487347268556
 30
0.0
 10
16.55070769790566
 20
2.831336064681914
 30
0.0
 10
15.49736496600133
 20
2.765357104481927
 30
0.0
 10
14.9808142344302
 20
2.733001557586008
 30
0.0
  0
SPLINE
  5
B1
330
1F
100
AcDbEntity
  8
0
  6
Continuous
 62
     1
370
    15
100
AcDbSpline
210
0.0
220
0.0
230
1.0
 70
     8
 71
     3
 72
    13
 73
     9
 74
     0
 42
0.000000001
 43
0.00000001
 40
0.0
 40
0.0
 40
0.0
 40
0.0
 40
0.1855870185011766
 40
0.3727044394146631
 40
0.5430877384011412
 40
0.7146520984408301
 40
0.8848854983718472
 40
0.9999999999999999
 40
0.9999999999999999
 40
0.9999999999999999
 40
0.9999999999999999
 10
9.999999999999995
 20
-2.245635386388459
 30
0.0
 10
10.4179431681736
 20
-2.438003946705025
 30
0.0
 10
11.25727598066956
 20
-2.82432739223921
 30
0.0
 10
12.47995613476885
 20
-3.2781471660399
 30
0.0
 10
13.67046369886734
 20
-3.628359626811631
 30
0.0
 10
14.82368275183352
 20
-3.860887546003211
 30
0.0
 10
15.85262455198514
 20
-3.987724304299638
 30
0.0
 10
16.49478663528742
 20
-3.987689126819402
 30
0.0
 10
16.75384642784211
 20
-3.987674935587983
 30
0.0
  0
SPLINE
  5
B2
330
1F
100
AcDbEntity
  8
0
  6
Continuous
 62
     1
370
    15
100
AcDbSpline
210
0.0
220
0.0
230
1.0
 70
     8
 71
     3
 72
    30
 73
    26
 74
     0
 42
0.000000001
 43
0.00000001
 40
0.0
 40
0.0
 40
0.0
 40
0.0
 40
0.0229652393892894
 40
0.0651482664469183
 40
0.1076239721790862
 40
0.1498069387948879
 40
0.1922811548319123
 40
0.2344642145074823
 40
0.2769401816709774
 40
0.3191230699470177
 40
0.3615978197174484
 40
0.4037808301391889
 40
0.4462555006181394
 40
0.4884307175147284
 40
0.5308991925334313
 40
0.57307411624462
 40
0.6155402081362121
 40
0.6578611924539352
 40
0.7001819920838108
 40
0.7437072179885508
 40
0.7872327771041852
 40
0.829786440254017
 40
0.8726392807666443
 40
0.9358231828116683
 40
1.0
 40
1.0
 40
1.0
 40
1.0
 10
32.7460474162791
 20
2.680598043061407
 30
0.0
 10
32.95464069245253
 20
2.771292023398813
 30
0.0
 10
33.54638241588169
 20
3.028574584054748
 30
0.0
 10
34.52465958819288
 20
3.366065453984426
 30
0.0
 10
35.67648110117926
 20
3.685678165199602
 30
0.0
 10
36.83106556680733
 20
3.899808892597126
 30
0.0
 10
37.98400455919085
 20
4.006483055002747
 30
0.0
 10
39.13861794631448
 20
4.002546310444952
 30
0.0
 10
40.29044507328227
 20
3.887690680831267
 30
0.0
 10
41.44595306607098
 20
3.66546990101351
 30
0.0
 10
42.59813301737181
 20
3.342252655126318
 30
0.0
 10
43.75252489922447
 20
2.925105275733011
 30
0.0
 10
44.90507107089525
 20
2.429088217946074
 30
0.0
 10
46.06005142504256
 20
1.864727460965851
 30
0.0
 10
47.21159760632767
 20
1.248964333504076
 30
0.0
 10
48.36636635777619
 20
0.598190967704507
 30
0.0
 10
49.5200957832205
 20
-0.0678988478165633
 30
0.0
 10
50.67479547782875
 20
-0.7333764379423506
 30
0.0
 10
51.8386449169552
 20
-1.384929162212402
 30
0.0
 10
53.01349123213978
 20
-2.002668348632906
 30
0.0
 10
54.19176410406835
 20
-2.561874208289337
 30
0.0
 10
55.36229315236076
 20
-3.047467132176737
 30
0.0
 10
56.71276782345652
 20
-3.502825832595743
 30
0.0
 10
58.25945185329968
 20
-3.882015628052486
 30
0.0
 10
59.41680966402129
 20
-3.958220017966142
 30
0.0
 10
59.99999999999982
 20
-3.999999999999805
 30
0.0
  0
SPLINE
  5
B3
330
1F
100
AcDbEntity
  8
0
  6
Continuous
 62
     1
370
    15
100
AcDbSpline
210
0.0
220
0.0
230
1.0
 70
     8
 71
     3
 72
    16
 73
    12
 74
     0
 42
0.000000001
 43
0.00000001
 40
0.0
 40
0.0
 40
0.0
 40
0.0
 40
0.1006304429800163
 40
0.2214199602828374
 40
0.3422066293337041
 40
0.462991016346091
 40
0.5837736884953786
 40
0.7045552136801857
 40
0.8253361602830493
 40
0.9461170969306754
 40
0.9999999999999999
 40
0.9999999999999999
 40
0.9999999999999999
 40
0.9999999999999999
 10
50.07030112374174
 20
-0.3833829683988508
 30
0.0
 10
49.62323837849894
 20
-0.2033784402059916
 30
0.0
 10
48.63955379593922
 20
0.1926905256347797
 30
0.0
 10
47.11926588398315
 20
0.8035675443195712
 30
0.0
 10
45.50944537927403
 20
1.405329061450595
 30
0.0
 10
43.89965857400149
 20
1.932205808730718
 30
0.0
 10
42.28989693567387
 20
2.354480234685525
 30
0.0
 10
40.68015218814578
 20
2.652482720617824
 30
0.0
 10
39.07041587830135
 20
2.799488521095183
 30
0.0
 10
37.75788165725749
 20
2.822247836229152
 30
0.0
 10
36.981924690376
 20
2.741908197721339
 30
0.0
 10
36.7425459265735
 20
2.717123829294787
 30
0.0
  0
SPLINE
  5
B4
330
1F
100
AcDbEntity
  8
0
  6
Continuous
 62
     1
370
    15
100
AcDbSpline
210
0.0
220
0.0
230
1.0
 70
     8
 71
     3
 72
    24
 73
    20
 74
     0
 42
0.000000001
 43
0.00000001
 40
0.0
 40
0.0
 40
0.0
 40
0.0
 40
0.042523785248775
 40
0.1036693863757359
 40
0.1648144536231261
 40
0.2259592514858959
 40
0.2871040445702685
 40
0.3482490974844422
 40
0.4093946747292865
 40
0.4705410405891351
 40
0.5316884590227688
 40
0.5928371935546874
 40
0.653987507166764
 40
0.7151396621903773
 40
0.7762939201991186
 40
0.8374505419021611
 40
0.8986097870383932
 40
0.9602567757837505
 40
1.0
 40
1.0
 40
1.0
 40
1.0
 10
45.01913795210218
 20
-3.145322339031606
 30
0.0
 10
44.6459664646132
 20
-3.276526112659008
 30
0.0
 10
43.73620598833907
 20
-3.596389798889188
 30
0.0
 10
42.28986639842874
 20
-3.89185744974289
 30
0.0
 10
40.68011905516313
 20
-4.035145198166728
 30
0.0
 10
39.07038040929807
 20
-3.955200540836203
 30
0.0
 10
37.46064186416497
 20
-3.664350718062332
 30
0.0
 10
35.85089512435111
 20
-3.176077058851873
 30
0.0
 10
34.24113181730047
 20
-2.517200143350683
 30
0.0
 10
32.63134359903215
 20
-1.722977979116346
 30
0.0
 10
31.021522131293
 20
-0.8361449693613375
 30
0.0
 10
29.41165908881762
 20
0.0956571960556654
 30
0.0
 10
27.80174617466776
 20
1.022281415619328
 30
0.0
 10
26.19177507306543
 20
1.894129717837929
 30
0.0
 10
24.58173764408593
 20
2.663538113741601
 30
0.0
 10
22.97162521325658
 20
3.292101999563809
 30
0.0
 10
21.35717611861519
 20
3.736137147197446
 30
0.0
 10
19.93063215297521
 20
3.978820958446867
 30
0.0
 10
19.0408196995605
 20
3.976001926505625
 30
0.0
 10
18.69202848181382
 20
3.974896914342805
 30
0.0
  0
SPLINE
  5
B5
330
1F
100
AcDbEntity
  8
0
  6
Continuous
 62
     1
370
    15
100
AcDbSpline
210
0.0
220
0.0
230
1.0
 70
     8
 71
     3
 72
    17
 73
    13
 74
     0
 42
0.000000001
 43
0.00000001
 40
0.0
 40
0.0
 40
0.0
 40
0.0
 40
0.0005971191542937
 40
0.1119094058165847
 40
0.2232211801147627
 40
0.3345329453245194
 40
0.4458452047253421
 40
0.5571584613902556
 40
0.6684732179757432
 40
0.7797899765120415
 40
0.8911092381939874
 40
1.0
 40
1.0
 40
1.0
 40
1.0
 10
42.2984973290352
 20
-3.328059130596124
 30
0.0
 10
42.29561890781721
 20
-3.328503746389205
 30
0.0
 10
41.75615805502474
 20
-3.411831653160576
 30
0.0
 10
40.68011944000985
 20
-3.415882972150585
 30
0.0
 10
39.0703803516646
 20
-3.318528036264011
 30
0.0
 10
37.46064172675142
 20
-3.021310580303116
 30
0.0
 10
35.85089481277396
 20
-2.56742551559118
 30
0.0
 10
34.24113134688412
 20
-1.974069629919988
 30
0.0
 10
32.6313430038535
 20
-1.274710750450243
 30
0.0
 10
31.02152126120356
 20
-0.5078353685051783
 30
0.0
 10
29.42337969595406
 20
0.2846840193287841
 30
0.0
 10
28.36184058986062
 20
0.7907351374743349
 30
0.0
 10
27.83692442065768
 20
1.040970303407491
 30
0.0
  0
SPLINE
  5
B6
330
1F
100
AcDbEntity
  8
0
  6
Continuous
 62
     1
370
    15
100
AcDbSpline
210
0.0
220
0.0
230
1.0
 70
     8
 71
     3
 72
    20
 73
    16
 74
     0
 42
0.000000001
 43
0.00000001
 40
0.0
 40
0.0
 40
0.0
 40
0.0
 40
0.082404728344995
 40
0.1648052144104131
 40
0.2472018050304397
 40
0.3295948486332132
 40
0.4119846951006571
 40
0.4943716956270385
 40
0.5767562025763749
 40
0.6591385693388135
 40
0.7415191501861105
 40
0.823898300126334
 40
0.9062763747579162
 40
0.9886537301231847
 40
1.0
 40
1.0
 40
1.0
 40
1.0
 10
60.00000000000001
 20
-3.795763476927594
 30
0.0
 10
59.46320319514585
 20
-3.678202287871088
 30
0.0
 10
58.38963722028529
 20
-3.443085961928157
 30
0.0
 10
56.77934877571039
 20
-2.85060654948187
 30
0.0
 10
55.1691503550303
 20
-2.11953287510611
 30
0.0
 10
53.55903542348648
 20
-1.270595509852102
 30
0.0
 10
51.94899534812558
 20
-0.3544243282331341
 30
0.0
 10
50.33902201629371
 20
0.5810976858702963
 30
0.0
 10
48.72910713934094
 20
1.485187582351277
 30
0.0
 10
47.11924244041572
 20
2.309851031196479
 30
0.0
 10
45.50941962064219
 20
3.008843896969075
 30
0.0
 10
43.89963032786227
 20
3.551667271121008
 30
0.0
 10
42.28986633683665
 20
3.882783472523406
 30
0.0
 10
41.14279198488076
 20
4.0252953802667
 30
0.0
 10
40.53230460134331
 20
3.99132422361432
 30
0.0
 10
40.45839842675697
 20
3.987211643564093
 30
0.0
  0
SPLINE
  5
B7
330
1F
100
AcDbEntity
  8
0
  6
Continuous
 62
     1
370
    15
100
AcDbSpline
210
0.0
220
0.0
230
1.0
 70
     8
 71
     3
 72
    16
 73
    12
 74
     0
 42
0.000000001
 43
0.00000001
 40
0.0
 40
0.0
 40
0.0
 40
0.0
 40
0.0228395604509475
 40
0.1441374823853274
 40
0.2664027525283365
 40
0.3886719461908983
 40
0.5109444247855895
 40
0.6332139762869416
 40
0.7554795812624393
 40
0.8777415015614853
 40
0.9999999999999999
 40
0.9999999999999999
 40
0.9999999999999999
 40
0.9999999999999999
 10
23.27483176618957
 20
-3.144188709685976
 30
0.0
 10
23.17376995004014
 20
-3.183923110042211
 30
0.0
 10
22.53598203041917
 20
-3.43468172003117
 30
0.0
 10
21.35717570702685
 20
-3.732435335741489
 30
0.0
 10
19.7383851448925
 20
-3.993321208733437
 30
0.0
 10
18.11527468264086
 20
-4.022101431479197
 30
0.0
 10
16.49213095121687
 20
-3.835039352775118
 30
0.0
 10
14.86901575501615
 20
-3.437797013328911
 30
0.0
 10
13.24595747295817
 20
-2.85175951416152
 30
0.0
 10
11.62295737172165
 20
-2.114773510618984
 30
0.0
 10
10.54098074345013
 20
-1.534316459640868
 30
0.0
 10
9.999999999997295
 20
-1.2440919956594
 30
0.0
  0
SPLINE
  5
B8
330
1F
100
AcDbEntity
  8
0
  6
Continuous
 62
   131
370
    15
100
AcDbSpline
210
0.0
220
0.0
230
1.0
 70
    24
 71
     3
 72
     8
 73
     4
 74
     0
 42
0.000000001
 43
0.00000001
 40
0.0
 40
0.0
 40
0.0
 40
0.0
 40
1.0
 40
1.0
 40
1.0
 40
1.0
 10
10.00000000000004
 20
-0.8607948653109223
 30
0.0
 10
10.00000000000004
 20
-0.9742388485897547
 30
0.0
 10
10.00000000000004
 20
-1.102762162759166
 30
0.0
 10
10.00000000000004
 20
-1.24409199565253
 30
0.0
  0
SPLINE
  5
B9
330
1F
100
AcDbEntity
  8
0
  6
Continuous
 62
     1
370
    15
100
AcDbSpline
210
0.0
220
0.0
230
1.0
 70
     8
 71
     3
 72
    14
 73
    10
 74
     0
 42
0.000000001
 43
0.00000001
 40
0.0
 40
0.0
 40
0.0
 40
0.0
 40
0.1551315703956373
 40
0.3102547979066707
 40
0.4653703644801186
 40
0.6204789552334139
 40
0.775581258175651
 40
0.9306779639262961
 40
0.9999999999999999
 40
0.9999999999999999
 40
0.9999999999999999
 40
0.9999999999999999
 10
60.0
 20
-3.155889057472855
 30
0.0
 10
59.46320346076338
 20
-3.041420623034445
 30
0.0
 10
58.38963925089232
 20
-2.812489910202698
 30
0.0
 10
56.77935042323574
 20
-2.272352864040799
 30
0.0
 10
55.16915193478431
 20
-1.622470439374051
 30
0.0
 10
53.55903674896093
 20
-0.8812413918826071
 30
0.0
 10
51.94899684511456
 20
-0.0967637584768516
 30
0.0
 10
50.63579817511238
 20
0.557395486899439
 30
0.0
 10
49.85928090918532
 20
0.9152187188687462
 30
0.0
 10
49.61941788579048
 20
1.025748859056415
 30
0.0
  0
SPLINE
  5
BA
330
1F
100
AcDbEntity
  8
0
  6
Continuous
 62
     1
370
    15
100
AcDbSpline
210
0.0
220
0.0
230
1.0
 70
     8
 71
     3
 72
    14
 73
    10
 74
     0
 42
0.000000001
 43
0.00000001
 40
0.0
 40
0.0
 40
0.0
 40
0.0
 40
0.0748157559321755
 40
0.2276070688759469
 40
0.3803989879146369
 40
0.5331826773040936
 40
0.6859587969981775
 40
0.8387280216722431
 40
1.0
 40
1.0
 40
1.0
 40
1.0
 10
20.53970274656146
 20
-3.305493008344203
 30
0.0
 10
20.27685858139712
 20
-3.336378324286541
 30
0.0
 10
19.47722501145186
 20
-3.430338695940285
 30
0.0
 10
18.14078387199218
 20
-3.391259668359606
 30
0.0
 10
16.53042149928589
 20
-3.197257084113681
 30
0.0
 10
14.9201307272811
 20
-2.82209266139906
 30
0.0
 10
13.30992340188693
 20
-2.296834065890026
 30
0.0
 10
11.66993349392428
 20
-1.638875933183144
 30
0.0
 10
10.56660216636032
 20
-1.124794851097375
 30
0.0
 10
10.00000000000001
 20
-0.8607948653109087
 30
0.0
  0
LINE
  5
BB
330
1F
100
AcDbEntity
  8
0
  6
Continuous
 62
     1
370
    15
100
AcDbLine
 10
59.9999999999997
 20
-3.795763476927597
 30
0.0
 11
60.0
 21
-3.155889057472855
 31
0.0
  0
LINE
  5
BC
330
1F
100
AcDbEntity
  8
0
  6
Continuous
 62
   131
370
    15
100
AcDbLine
 10
9.999999999999995
 20
-2.245635386388456
 30
0.0
 11
9.999999999999995
 21
-1.244091995650449
 31
0.0
  0
LINE
  5
BD
330
1F
100
AcDbEntity
  8
0
  6
Continuous
 62
     1
370
    15
100
AcDbLine
 10
59.99999999999982
 20
-3.999999999999805
 30
0.0
 11
59.99999999999994
 21
-3.795763476927583
 31
0.0
  0
SPLINE
  5
BE
330
1F
100
AcDbEntity
  8
0
  6
Continuous
 62
     1
370
    15
100
AcDbSpline
210
0.0
220
0.0
230
1.0
 70
     8
 71
     3
 72
     8
 73
     4
 74
     0
 42
0.000000001
 43
0.00000001
 40
0.0
 40
0.0
 40
0.0
 40
0.0
 40
1.0
 40
1.0
 40
1.0
 40
1.0
 10
57.52471855126645
 20
1.119153604316255
 30
0.0
 10
57.34554341134239
 20
1.331446846975084
 30
0.0
 10
57.19000160100912
 20
1.534373798641816
 30
0.0
 10
57.0672227005149
 20
1.723135374418817
 30
0.0
  0
LINE
  5
BF
330
1F
100
AcDbEntity
  8
0
  6
Continuous
 62
     1
370
    15
100
AcDbLine
 10
57.06722270051489
 20
1.72313537441882
 30
0.0
 11
60.0
 21
0.0000000000000111
 31
0.0
  0
LINE
  5
C0
330
1F
100
AcDbEntity
  8
0
  6
Continuous
 62
     1
370
    15
100
AcDbLine
 10
60.0
 20
0.0000000000000111
 30
0.0
 11
60.0
 21
-1.068971784118568
 31
0.0
  0
SPLINE
  5
C1
330
1F
100
AcDbEntity
  8
0
  6
Continuous
 62
     1
370
    15
100
AcDbSpline
210
0.0
220
0.0
230
1.0
 70
     8
 71
     3
 72
    10
 73
     6
 74
     0
 42
0.000000001
 43
0.00000001
 40
0.0
 40
0.0
 40
0.0
 40
0.0
 40
0.5
 40
0.5
 40
1.0
 40
1.0
 40
1.0
 40
1.0
 10
60.0
 20
-1.068971784118569
 30
0.0
 10
59.57151703976611
 20
-0.7321110804059818
 30
0.0
 10
59.15019312186777
 20
-0.3814365541725905
 30
0.0
 10
58.32222625634824
 20
0.3482403539400285
 30
0.0
 10
57.91171971060778
 20
0.7310712194783435
 30
0.0
 10
57.52471855127824
 20
1.119153604304421
 30
0.0
  0
SPLINE
  5
C2
330
1F
100
AcDbEntity
  8
0
  6
Continuous
 62
     1
370
    15
100
AcDbSpline
210
0.0
220
0.0
230
1.0
 70
     8
 71
     3
 72
    13
 73
     9
 74
     0
 42
0.000000001
 43
0.00000001
 40
0.0
 40
0.0
 40
0.0
 40
0.0
 40
0.215231673926838
 40
0.4303858051446188
 40
0.6051596191143336
 40
0.7799270375111312
 40
0.9546888521481557
 40
1.0
 40
1.0
 40
1.0
 40
1.0
 10
57.52471855126645
 20
1.119153604316254
 30
0.0
 10
56.86363736132468
 20
1.396290433301211
 30
0.0
 10
55.54171315282849
 20
1.950464245648466
 30
0.0
 10
53.68293184240635
 20
2.557076138068812
 30
0.0
 10
51.9490299508915
 20
2.965229336223462
 30
0.0
 10
50.33903138946755
 20
3.170335596593933
 30
0.0
 10
49.12661015038765
 20
3.234277307321065
 30
0.0
 10
48.45083990162888
 20
3.174388190096159
 30
0.0
 10
48.31170456528817
 20
3.162057531142852
 30
0.0
  0
SPLINE
  5
C3
330
1F
100
AcDbEntity
  8
0
  6
Continuous
 62
     1
370
    15
100
AcDbSpline
210
0.0
220
0.0
230
1.0
 70
     8
 71
     3
 72
    20
 73
    16
 74
     0
 42
0.000000001
 43
0.00000001
 40
0.0
 40
0.0
 40
0.0
 40
0.0
 40
0.0180311226093227
 40
0.0994723306338521
 40
0.1809161370770463
 40
0.2623629109751782
 40
0.3438130201264794
 40
0.4252668309395476
 40
0.5067247082829858
 40
0.5881870153363982
 40
0.6696496418618495
 40
0.7511078191319595
 40
0.8340729715893116
 40
0.9170370133590112
 40
1.0
 40
1.0
 40
1.0
 40
1.0
 10
29.76814811638285
 20
-2.993677189989318
 30
0.0
 10
29.64933706801132
 20
-3.01663856369978
 30
0.0
 10
28.99389191672293
 20
-3.143309620573055
 30
0.0
 10
27.80178999162655
 20
-3.213756117277069
 30
0.0
 10
26.19182130366384
 20
-3.185978528250624
 30
0.0
 10
24.58178570971648
 20
-2.973569302805109
 30
0.0
 10
22.97167562721597
 20
-2.604876989465521
 30
0.0
 10
21.36148246315425
 20
-2.09517243971505
 30
0.0
 10
19.75119898107518
 20
-1.473082073472879
 30
0.0
 10
18.14084320681254
 20
-0.7716764628312661
 30
0.0
 10
16.53048264853998
 20
-0.0289918613844541
 30
0.0
 10
14.91023964517867
 20
0.7205749720115979
 30
0.0
 10
13.2800940085837
 20
1.432723114553303
 30
0.0
 10
11.64003855041861
 20
2.079587291036298
 30
0.0
 10
10.54667719924736
 20
2.407889187715854
 30
0.0
 10
9.999999999999995
 20
2.572039092221001
 30
0.0
  0
SPLINE
  5
C4
330
1F
100
AcDbEntity
  8
0
  6
Continuous
 62
     1
370
    15
100
AcDbSpline
210
0.0
220
0.0
230
1.0
 70
    24
 71
     3
 72
    10
 73
     6
 74
     0
 42
0.000000001
 43
0.00000001
 40
0.0
 40
0.0
 40
0.0
 40
0.0
 40
0.5
 40
0.5
 40
1.0
 40
1.0
 40
1.0
 40
1.0
 10
60.0
 20
-3.155889057472853
 30
0.0
 10
59.99999999999999
 20
-2.91396555601521
 30
0.0
 10
59.99999999999999
 20
-2.608285935625864
 30
0.0
 10
59.99999999999999
 20
-1.897610236602709
 30
0.0
 10
60.0
 20
-1.493229772205229
 30
0.0
 10
60.0
 20
-1.068971784118697
 30
0.0
  0
SPLINE
  5
C5
330
1F
100
AcDbEntity
  8
0
  6
Continuous
 62
   131
370
    15
100
AcDbSpline
210
0.0
220
0.0
230
1.0
 70
    24
 71
     3
 72
    14
 73
    10
 74
     0
 42
0.000000001
 43
0.00000001
 40
0.0
 40
0.0
 40
0.0
 40
0.0
 40
0.2499999999999998
 40
0.2499999999999998
 40
0.4999999999999999
 40
0.4999999999999999
 40
0.75
 40
0.75
 40
1.0
 40
1.0
 40
1.0
 40
1.0
 10
9.999999999999995
 20
2.572039092221001
 30
0.0
 10
9.999999999999995
 20
2.361077362825728
 30
0.0
 10
9.999999999999995
 20
2.121172407718237
 30
0.0
 10
9.999999999999995
 20
1.594783934659763
 30
0.0
 10
9.999999999999995
 20
1.308392102308769
 30
0.0
 10
9.999999999999995
 20
0.7084193154119698
 30
0.0
 10
9.999999999999995
 20
0.3950116147941865
 30
0.0
 10
9.999999999999995
 20
-0.2356362709772862
 30
0.0
 10
9.999999999999995
 20
-0.5527026723131896
 30
0.0
 10
9.999999999999995
 20
-0.860794865310899
 30
0.0
  0
SPLINE
  5
C6
330
1F
100
AcDbEntity
  8
0
  6
Continuous
 62
     1
370
    15
100
AcDbSpline
210
0.0
220
0.0
230
1.0
 70
     8
 71
     3
 72
    23
 73
    19
 74
     0
 42
0.000000001
 43
0.00000001
 40
0.0
 40
0.0
 40
0.0
 40
0.0
 40
0.0478061902575994
 40
0.1122370865400036
 40
0.1766662096248219
 40
0.2410938530407317
 40
0.305520310935615
 40
0.3699458779538156
 40
0.4343708491129595
 40
0.4987955196804401
 40
0.5632201850496775
 40
0.6276451406162735
 40
0.6920706816541571
 40
0.7564971031918427
 40
0.820924699888905
 40
0.885353765912785
 40
0.9497845948160286
 40
1.0
 40
1.0
 40
1.0
 40
1.0
 10
51.53354139196504
 20
-2.991491464583389
 30
0.0
 10
51.13536763074339
 20
-3.052008515801
 30
0.0
 10
50.20055432193575
 20
-3.194087553642279
 30
0.0
 10
48.72912449408928
 20
-3.220448087110658
 30
0.0
 10
47.11926168325317
 20
-3.096604284674132
 30
0.0
 10
45.50944099904972
 20
-2.800830795698624
 30
0.0
 10
43.89965379681487
 20
-2.355971191179141
 30
0.0
 10
42.2898918246287
 20
-1.784080336287129
 30
0.0
 10
40.68014671062066
 20
-1.116397205383621
 30
0.0
 10
39.0704101047377
 20
-0.3886799621094071
 30
0.0
 10
37.46067364594327
 20
0.3599295669722213
 30
0.0
 10
35.85092897328646
 20
1.089167700768393
 30
0.0
 10
34.24116773607635
 20
1.759964938713475
 30
0.0
 10
32.6313815637655
 20
2.335777523772423
 30
0.0
 10
31.02156219787585
 20
2.787470875647053
 30
0.0
 10
29.41170101599123
 20
3.083975010678675
 30
0.0
 10
27.92020634541796
 20
3.223593483363191
 30
0.0
 10
26.965327584368
 20
3.18187850284714
 30
0.0
 10
26.54708773314692
 20
3.163607212337403
 30
0.0
  0
SPLINE
  5
C7
330
1F
100
AcDbEntity
  8
0
  6
Continuous
 62
   131
370
    15
100
AcDbSpline
210
0.0
220
0.0
230
1.0
 70
    24
 71
     3
 72
    11
 73
     7
 74
     0
 42
0.000000001
 43
0.00000001
 40
0.0
 40
0.0
 40
0.0
 40
0.0
 40
0.1411847589234704
 40
0.5153247221373475
 40
0.9003147696304703
 40
0.9999999999999999
 40
0.9999999999999999
 40
0.9999999999999999
 40
0.9999999999999999
 10
9.999999999999995
 20
-2.314340196838983
 30
0.0
 10
9.999999999999995
 20
-2.357550481309375
 30
0.0
 10
9.999999999999995
 20
-2.515268127378031
 30
0.0
 10
9.999999999999995
 20
-2.66448076738852
 30
0.0
 10
9.999999999999995
 20
-2.763952801480281
 30
0.0
 10
9.999999999999995
 20
-2.746959516945017
 30
0.0
 10
9.999999999999995
 20
-2.743464435679261
 30
0.0
  0
SPLINE
  5
C8
330
1F
100
AcDbEntity
  8
0
  6
Continuous
 62
     1
370
    15
100
AcDbSpline
210
0.0
220
0.0
230
1.0
 70
     8
 71
     3
 72
    10
 73
     6
 74
     0
 42
0.000000001
 43
0.00000001
 40
0.0
 40
0.0
 40
0.0
 40
0.0
 40
0.5
 40
0.5
 40
1.0
 40
1.0
 40
1.0
 40
1.0
 10
60.0
 20
2.800000000000012
 30
0.0
 10
59.50223746009662
 20
2.664946022532469
 30
0.0
 10
59.00821511501303
 20
2.510120649931901
 30
0.0
 10
58.02867820086084
 20
2.155496150848272
 30
0.0
 10
57.54303221981856
 20
1.956264825614537
 30
0.0
 10
57.06722270051287
 20
1.723135374420449
 30
0.0
  0
SPLINE
  5
C9
330
1F
100
AcDbEntity
  8
0
  6
Continuous
 62
   131
370
    15
100
AcDbSpline
210
0.0
220
0.0
230
1.0
 70
    24
 71
     3
 72
     9
 73
     5
 74
     0
 42
0.000000001
 43
0.00000001
 40
0.0
 40
0.0
 40
0.0
 40
0.0
 40
0.4154172359434924
 40
1.0
 40
1.0
 40
1.0
 40
1.0
 10
9.999999999999995
 20
2.743463188459188
 30
0.0
 10
9.999999999999995
 20
2.742830792609842
 30
0.0
 10
9.999999999999995
 20
2.741308477706586
 30
0.0
 10
9.999999999999991
 20
2.63448579269122
 30
0.0
 10
9.999999999999991
 20
2.572039092221
 30
0.0
  0
LINE
  5
CA
330
1F
100
AcDbEntity
  8
0
  6
Continuous
 62
     1
370
    15
100
AcDbLine
 10
60.0
 20
0.0000000000000111
 30
0.0
 11
60.0
 21
2.80000000000001
 31
0.0
  0
SPLINE
  5
CB
330
1F
100
AcDbEntity
  8
0
  6
Continuous
 62
   131
370
    15
100
AcDbSpline
210
0.0
220
0.0
230
1.0
 70
     8
 71
     3
 72
    10
 73
     6
 74
     0
 42
0.000000001
 43
0.00000001
 40
0.0
 40
0.0
 40
0.0
 40
0.0
 40
0.5
 40
0.5
 40
1.0
 40
1.0
 40
1.0
 40
1.0
 10
9.999999999999995
 20
-1.244091995660882
 30
0.0
 10
9.747189140346949
 20
-1.105173327986753
 30
0.0
 10
9.49587242348252
 20
-0.9640415450229224
 30
0.0
 10
8.988064844852957
 20
-0.6775142005549135
 30
0.0
 10
8.733234945565911
 20
-0.5324237366081174
 30
0.0
 10
8.479775583016465
 20
-0.3868163709397635
 30
0.0
  0
SPLINE
  5
CC
330
1F
100
AcDbEntity
  8
0
  6
Continuous
 62
   131
370
    15
100
AcDbSpline
210
0.0
220
0.0
230
1.0
 70
     8
 71
     3
 72
    10
 73
     6
 74
     0
 42
0.000000001
 43
0.00000001
 40
0.0
 40
0.0
 40
0.0
 40
0.0
 40
0.5000000000000001
 40
0.5000000000000001
 40
1.0
 40
1.0
 40
1.0
 40
1.0
 10
8.479890380589493
 20
-1.471378493160493
 30
0.0
 10
8.733331023288777
 20
-1.607404310494443
 30
0.0
 10
8.988141650499676
 20
-1.740713746562077
 30
0.0
 10
9.49591061657454
 20
-1.999485339842428
 30
0.0
 10
9.74720822430659
 20
-2.124684638391047
 30
0.0
 10
9.999999999999995
 20
-2.245635386388451
 30
0.0
  0
LINE
  5
CD
330
1F
100
AcDbEntity
  8
0
  6
Continuous
 62
   131
370
    15
100
AcDbLine
 10
8.479890380589493
 20
-3.999999999999996
 30
0.0
 11
8.479890380589493
 21
-1.471382355499294
 31
0.0
  0
LINE
  5
CE
330
1F
100
AcDbEntity
  8
0
  6
Continuous
 62
   131
370
    15
100
AcDbLine
 10
8.479890380589493
 20
-0.3866457452935728
 30
0.0
 11
8.479890380589493
 21
4.000000000000005
 31
0.0
  0
LINE
  5
CF
330
1F
100
AcDbEntity
  8
0
  6
Continuous
 62
   131
370
    15
100
AcDbLine
 10
-39.19000000000001
 20
3.999999999999999
 30
0.0
 11
-39.19000000000001
 21
-3.999999999999998
 31
0.0
  0
LINE
  5
D0
330
1F
100
AcDbEntity
  8
0
  6
Continuous
 62
   131
370
    15
100
AcDbLine
 10
-40.0
 20
3.189999999999999
 30
0.0
 11
-40.0
 21
-3.189999999999998
 31
0.0
  0
SPLINE
  5
D1
330
1F
100
AcDbEntity
  8
0
  6
Continuous
 62
   131
370
    15
100
AcDbSpline
210
0.0
220
0.0
230
1.0
 70
    24
 71
     3
 72
     8
 73
     4
 74
     0
 42
0.000000001
 43
0.00000001
 40
0.0
 40
0.0
 40
0.0
 40
0.0
 40
1.0
 40
1.0
 40
1.0
 40
1.0
 10
10.00000000000004
 20
-0.8607948653109223
 30
0.0
 10
10.00000000000004
 20
-0.9742388485897435
 30
0.0
 10
10.00000000000004
 20
-1.102762162759141
 30
0.0
 10
10.00000000000004
 20
-1.244091995652488
 30
0.0
  0
SPLINE
  5
D2
330
1F
100
AcDbEntity
  8
0
  6
Continuous
 62
   131
370
    15
100
AcDbSpline
210
0.0
220
0.0
230
1.0
 70
     8
 71
     3
 72
    10
 73
     6
 74
     0
 42
0.000000001
 43
0.00000001
 40
0.0
 40
0.0
 40
0.0
 40
0.0
 40
0.5000000000000001
 40
0.5000000000000001
 40
1.0
 40
1.0
 40
1.0
 40
1.0
 10
10.00000000000001
 20
-0.8607948653109088
 30
0.0
 10
9.747189140346965
 20
-0.7405996147422503
 30
0.0
 10
9.495872423482531
 20
-0.618920300446307
 30
0.0
 10
8.988064844852964
 20
-0.372737267730024
 30
0.0
 10
8.733234945565915
 20
-0.2484980377920358
 30
0.0
 10
8.479775583016465
 20
-0.1242320108713155
 30
0.0
  0
SPLINE
  5
D3
330
1F
100
AcDbEntity
  8
0
  6
Continuous
 62
   131
370
    15
100
AcDbSpline
210
0.0
220
0.0
230
1.0
 70
     8
 71
     3
 72
    10
 73
     6
 74
     0
 42
0.000000001
 43
0.00000001
 40
0.0
 40
0.0
 40
0.0
 40
0.0
 40
0.5
 40
0.5
 40
1.0
 40
1.0
 40
1.0
 40
1.0
 10
9.999999999999995
 20
2.572039092220998
 30
0.0
 10
9.747201255143457
 20
2.641606084102892
 30
0.0
 10
9.49589666905984
 20
2.705898685509038
 30
0.0
 10
8.988113602283676
 20
2.823806930138995
 30
0.0
 10
8.73329593720692
 20
2.877262209744528
 30
0.0
 10
8.479848458292325
 20
2.924746850592568
 30
0.0
  0
SPLINE
  5
D4
330
1F
100
AcDbEntity
  8
0
  6
Continuous
 62
   131
370
    15
100
AcDbSpline
210
0.0
220
0.0
230
1.0
 70
    24
 71
     3
 72
    14
 73
    10
 74
     0
 42
0.000000001
 43
0.00000001
 40
0.0
 40
0.0
 40
0.0
 40
0.0
 40
0.2499999999999998
 40
0.2499999999999998
 40
0.4999999999999999
 40
0.4999999999999999
 40
0.75
 40
0.75
 40
1.0
 40
1.0
 40
1.0
 40
1.0
 10
9.999999999999995
 20
2.572039092221001
 30
0.0
 10
9.999999999999995
 20
2.361077362825728
 30
0.0
 10
9.999999999999995
 20
2.121172407718237
 30
0.0
 10
9.999999999999995
 20
1.594783934659763
 30
0.0
 10
9.999999999999995
 20
1.308392102308769
 30
0.0
 10
9.999999999999995
 20
0.7084193154119698
 30
0.0
 10
9.999999999999995
 20
0.3950116147941865
 30
0.0
 10
9.999999999999995
 20
-0.2356362709772862
 30
0.0
 10
9.999999999999995
 20
-0.5527026723131896
 30
0.0
 10
9.999999999999995
 20
-0.860794865310899
 30
0.0
  0
SPLINE
  5
D5
330
1F
100
AcDbEntity
  8
0
  6
Continuous
 62
   131
370
    15
100
AcDbSpline
210
0.0
220
0.0
230
1.0
 70
    24
 71
     3
 72
    11
 73
     7
 74
     0
 42
0.000000001
 43
0.00000001
 40
0.0
 40
0.0
 40
0.0
 40
0.0
 40
0.1408310036024631
 40
0.5140034689994302
 40
0.8979979611734092
 40
1.0
 40
1.0
 40
1.0
 40
1.0
 10
9.999999999999995
 20
-2.314330196838983
 30
0.0
 10
9.999999999999995
 20
-2.357542816781187
 30
0.0
 10
9.999999999999995
 20
-2.515259768210039
 30
0.0
 10
9.999999999999991
 20
-2.664554223505239
 30
0.0
 10
9.999999999999995
 20
-2.764063060504103
 30
0.0
 10
9.999999999999995
 20
-2.746879548562563
 30
0.0
 10
9.999999999999995
 20
-2.743273034646446
 30
0.0
  0
SPLINE
  5
D6
330
1F
100
AcDbEntity
  8
0
  6
Continuous
 62
   131
370
    15
100
AcDbSpline
210
0.0
220
0.0
230
1.0
 70
    24
 71
     3
 72
    10
 73
     6
 74
     0
 42
0.000000001
 43
0.00000001
 40
0.0
 40
0.0
 40
0.0
 40
0.0
 40
0.1265237262414213
 40
0.7052356855287073
 40
1.0
 40
1.0
 40
1.0
 40
1.0
 10
9.999999999999995
 20
2.751519549409236
 30
0.0
 10
9.999999999999991
 20
2.752158119926768
 30
0.0
 10
9.999999999999991
 20
2.755717473812938
 30
0.0
 10
9.999999999999995
 20
2.699759032576109
 30
0.0
 10
9.999999999999995
 20
2.604264715129831
 30
0.0
 10
9.999999999999995
 20
2.572039092221
 30
0.0
  0
LINE
  5
D7
330
1F
100
AcDbEntity
  8
중심선
 62
     1
100
AcDbLine
 10
-43.00000000000001
 20
0.0
 30
0.0
 11
63.0
 21
0.0000000000000114
 31
0.0
  0
CIRCLE
  5
D8
330
1F
100
AcDbEntity
  8
외형선
100
AcDbCircle
 10
0.0000000000000104
 20
0.0
 30
0.0
 40
3.000000000000005
  0
INSERT
  5
D9
330
1F
100
AcDbEntity
  8
0
  6
Continuous
 62
     7
100
AcDbBlockReference
 66
     1
  2
블럭10
 10
-22.93944368806589
 20
-52.04609937292004
 30
0.0
  0
ATTRIB
  5
DA
330
D9
100
AcDbEntity
  8
FORMAT
 62
     2
100
AcDbText
 10
-39.05870472750145
 20
-49.97073246008785
 30
0.0
 40
4.233333333333333
  1
SEME7008050E [ 2 FLUTE ]
 41
0.75
  7
SLDTEXTSTYLE0
 11
-39.05870472750145
 21
-52.08739912675452
 31
0.0
100
AcDbAttribute
  2
AUTOATTR0
 70
     0
 74
     1
  0
SEQEND
  5
DB
330
D9
100
AcDbEntity
  8
0
  6
Continuous
 62
     7
  0
HATCH
  5
DC
330
1F
100
AcDbEntity
  8
중심선
100
AcDbHatch
 10
0.0
 20
0.0
 30
0.0
210
0.0
220
0.0
230
1.0
  2
SOLID
 70
     1
 71
     0
 91
        1
 92
        0
 93
        4
 72
     1
 10
-17.22453438368504
 20
-35.7989250712761
 11
-20.67080962752232
 21
-35.7989250712761
 72
     1
 10
-20.67080962752232
 20
-35.7989250712761
 11
-22.79903948672635
 21
-38.3352506518487
 72
     1
 10
-22.79903948672635
 20
-38.3352506518487
 11
-19.35273115777591
 21
-38.33521122254621
 72
     1
 10
-19.35273115777591
 20
-38.33521122254621
 11
-17.22453438368504
 21
-35.7989250712761
 97
        0
 75
     0
 76
     1
 98
        1
 10
0.0
 20
0.0
  0
HATCH
  5
DD
330
1F
100
AcDbEntity
  8
중심선
100
AcDbHatch
 10
0.0
 20
0.0
 30
0.0
210
0.0
220
0.0
230
1.0
  2
SOLID
 70
     1
 71
     0
 91
        1
 92
        0
 93
        4
 72
     1
 10
-12.21177039264909
 20
-35.7989250712761
 11
-15.65804563648637
 21
-35.7989250712761
 72
     1
 10
-15.65804563648637
 20
-35.7989250712761
 11
-20.18918364484376
 21
-41.19892507127612
 72
     1
 10
-20.18918364484376
 20
-41.19892507127612
 11
-16.74290840100648
 21
-41.19892507127612
 72
     1
 10
-16.74290840100648
 20
-41.19892507127612
 11
-12.21177039264909
 21
-35.7989250712761
 97
        0
 75
     0
 76
     1
 98
        1
 10
0.0
 20
0.0
  0
HATCH
  5
DE
330
1F
100
AcDbEntity
  8
중심선
100
AcDbHatch
 10
0.0
 20
0.0
 30
0.0
210
0.0
220
0.0
230
1.0
  2
SOLID
 70
     1
 71
     0
 91
        1
 92
        0
 93
        4
 72
     1
 10
-7.199006401613195
 20
-35.79892507127613
 11
-10.64528164545031
 21
-35.7989250712761
 72
     1
 10
-10.64528164545031
 20
-35.7989250712761
 11
-17.69371854733956
 21
-44.19892507127612
 72
     1
 10
-17.69371854733956
 20
-44.19892507127612
 11
-14.24744330350228
 21
-44.19892507127612
 72
     1
 10
-14.24744330350228
 20
-44.19892507127612
 11
-7.199006401613195
 21
-35.79892507127613
 97
        0
 75
     0
 76
     1
 98
        1
 10
0.0
 20
0.0
  0
HATCH
  5
DF
330
1F
100
AcDbEntity
  8
중심선
100
AcDbHatch
 10
0.0
 20
0.0
 30
0.0
210
0.0
220
0.0
230
1.0
  2
SOLID
 70
     1
 71
     0
 91
        1
 92
        0
 93
        6
 72
     3
 10
-2.399115970600996
 20
-39.99892507132738
 11
3.960054785062284
 21
1.540850780301639E-10
 40
0.3939339440162633
 50
17.09539180608433
 51
320.0019657685079
 73
     0
 72
     1
 10
-0.7161163149004002
 20
-38.58681907591441
 11
1.589185558800638
 21
-36.65249236586649
 72
     3
 10
-2.399115970653842
 20
-39.99892507127625
 11
6.600054785286829
 21
-1.249000902703301E-13
 40
0.6363583540795982
 50
39.99873849337408
 51
368.4976242363725
 73
     1
 72
     1
 10
4.026216521246767
 20
-39.03892507120613
 11
-3.71904866381792
 21
-39.0389250712061
 72
     1
 10
-3.71904866381792
 20
-39.0389250712061
 11
-3.719073708263854
 21
-40.95892507120602
 72
     1
 10
-3.719073708263854
 20
-40.95892507120602
 11
0.7223060612081831
 21
-40.95892507120599
 97
        0
 75
     0
 76
     1
 98
        1
 10
0.0
 20
0.0
  0
DIMENSION
  5
E0
330
1F
100
AcDbEntity
  8
치수문자_일반주서
100
AcDbDimension
  2
_D
 10
73.81650660280172
 20
4.000000000000236
 30
0.0
 11
73.8165066028017
 21
13.66650000000024
 31
0.0
 70
   160
  1
%%c<>
 71
     2
 42
7.999999999999989
 52
-270.0
  3
SLDDIMSTYLE0
100
AcDbAlignedDimension
 13
59.99999999999982
 23
-3.999999999999805
 33
0.0
 14
59.99999999999971
 24
4.000000000000185
 34
0.0
 50
90.0000000000002
100
AcDbRotatedDimension
  0
DIMENSION
  5
EE
330
1F
100
AcDbEntity
  8
치수문자_일반주서
100
AcDbDimension
  2
_D_1
 10
59.9999999999997
 20
24.9784104402427
 30
0.0
 11
9.99999999999986
 21
24.9784104402427
 31
0.0
 70
   160
  1
<>
 71
     2
 42
99.99999999999972
  3
SLDDIMSTYLE1
100
AcDbAlignedDimension
 13
-40.0
 23
3.189999999999999
 33
0.0
 14
59.99999999999971
 24
4.000000000000185
 34
0.0
 50
-0.0000000000000041
100
AcDbRotatedDimension
  0
DIMENSION
  5
F9
330
1F
100
AcDbEntity
  8
치수문자_일반주서
100
AcDbDimension
  2
_D_2
 10
59.99999999999971
 20
15.91903689838852
 30
0.0
 11
35.0
 21
15.91903689838852
 31
0.0
 70
   160
  1
<>
 71
     2
 42
49.99999999999972
  3
SLDDIMSTYLE1
100
AcDbAlignedDimension
 13
9.999999999999995
 23
2.572039092221
 33
0.0
 14
59.99999999999971
 24
4.000000000000185
 34
0.0
 50
-0.000000000000002
100
AcDbRotatedDimension
  0
DIMENSION
  5
103
330
1F
100
AcDbEntity
  8
치수문자_일반주서
100
AcDbDimension
  2
_D_3
 10
-49.76915845157316
 20
-4.000000000000034
 30
0.0
 11
-49.76915845157323
 21
13.66649999999996
 31
0.0
 70
   160
  1
%%c<>
 71
     2
 42
7.999999999999993
 52
-270.0
  3
SLDDIMSTYLE0
100
AcDbAlignedDimension
 13
-39.19000000000001
 23
3.999999999999999
 33
0.0
 14
-39.19000000000001
 24
-3.999999999999995
 34
0.0
 50
90.0000000000002
100
AcDbRotatedDimension
  0
INSERT
  5
116
330
1F
100
AcDbEntity
  8
외형선
100
AcDbBlockReference
  2
SW_DOWELSYMBOL_0
 10
0.0000000000000104
 20
0.0
 30
0.0
  0
ENDSEC
  0
SECTION
  2
OBJECTS
  0
DICTIONARY
  5
C
330
0
100
AcDbDictionary
281
     1
  3
ACAD_GROUP
350
D
  3
ACAD_IMAGE_VARS
350
13A
  3
ACAD_LAYOUT
350
1A
  3
ACAD_MLINESTYLE
350
17
  3
ACAD_PLOTSETTINGS
350
19
  3
ACAD_PLOTSTYLENAME
350
E
  3
ACAD_SCALELIST
350
47
  3
APPDATA
350
138
  3
DWGPROPS
350
149
  0
DICTIONARY
  5
D
102
{ACAD_REACTORS
330
C
102
}
330
C
100
AcDbDictionary
281
     1
  0
RASTERVARIABLES
  5
13A
102
{ACAD_REACTORS
330
C
102
}
330
C
100
AcDbRasterVariables
 90
        0
 70
     1
 71
     1
 72
     1
  0
DICTIONARY
  5
1A
102
{ACAD_REACTORS
330
C
102
}
330
C
100
AcDbDictionary
281
     1
  3
Layout1
350
1E
  3
Layout2
350
26
  3
Model
350
22
  0
DICTIONARY
  5
17
102
{ACAD_REACTORS
330
C
102
}
330
C
100
AcDbDictionary
281
     1
  3
Standard
350
18
  0
DICTIONARY
  5
19
102
{ACAD_REACTORS
330
C
102
}
330
C
100
AcDbDictionary
281
     1
  0
ACDBDICTIONARYWDFLT
  5
E
102
{ACAD_REACTORS
330
C
102
}
330
C
100
AcDbDictionary
281
     1
  3
Normal
350
F
100
AcDbDictionaryWithDefault
340
F
  0
DICTIONARY
  5
47
102
{ACAD_REACTORS
330
C
102
}
330
C
100
AcDbDictionary
281
     1
  3
A0
350
48
  3
A1
350
49
  3
A2
350
4A
  3
A3
350
4B
  3
A4
350
4C
  3
A5
350
4D
  3
A6
350
4E
  3
A7
350
4F
  3
A8
350
50
  3
A9
350
51
  3
B0
350
52
  3
B1
350
53
  3
B2
350
54
  3
B3
350
55
  3
B4
350
56
  3
B5
350
57
  3
B6
350
58
  3
B7
350
59
  3
B8
350
5A
  3
B9
350
5B
  3
C0
350
5C
  3
C1
350
5D
  3
C2
350
5E
  3
C3
350
5F
  3
C4
350
60
  3
C5
350
61
  3
C6
350
62
  3
C7
350
63
  3
C8
350
64
  3
C9
350
65
  3
D0
350
66
  3
D1
350
67
  3
D2
350
68
  0
DICTIONARY
  5
138
102
{ACAD_REACTORS
330
C
102
}
330
C
100
AcDbDictionary
281
     1
  0
XRECORD
  5
149
102
{ACAD_REACTORS
330
C
102
}
330
C
100
AcDbXrecord
280
     1
  1
DWGPROPS COOKIE
  2

  3

  4

  6

  7

  8
12014102
  9

300
=
301
=
302
=
303
=
304
=
305
=
306
=
307
=
308
=
309
=
 40
0.0
 41
2458262.169733461
 42
2458266.043712581
  1

 90
        0
  0
LAYOUT
  5
1E
102
{ACAD_REACTORS
330
1A
102
}
330
1A
100
AcDbPlotSettings
  1

  2
none_device
  4

  6

 40
0.0
 41
0.0
 42
0.0
 43
0.0
 44
0.0
 45
0.0
 46
0.0
 47
0.0
 48
0.0
 49
0.0
140
0.0
141
0.0
142
1.0
143
1.0
 70
   688
 72
     1
 73
     0
 74
     5
  7

 75
    16
147
1.0
148
0.0
149
0.0
100
AcDbLayout
  1
Layout1
 70
     1
 71
     1
 10
0.0
 20
0.0
 11
420.0
 21
297.0
 12
0.0
 22
0.0
 32
0.0
 14
1.000000000000000E+20
 24
1.000000000000000E+20
 34
1.000000000000000E+20
 15
-1.000000000000000E+20
 25
-1.000000000000000E+20
 35
-1.000000000000000E+20
146
0.0
 13
0.0
 23
0.0
 33
0.0
 16
1.0
 26
0.0
 36
0.0
 17
0.0
 27
1.0
 37
0.0
 76
     0
330
1B
  0
LAYOUT
  5
26
102
{ACAD_REACTORS
330
1A
102
}
330
1A
100
AcDbPlotSettings
  1

  2
none_device
  4

  6

 40
0.0
 41
0.0
 42
0.0
 43
0.0
 44
0.0
 45
0.0
 46
0.0
 47
0.0
 48
0.0
 49
0.0
140
0.0
141
0.0
142
1.0
143
1.0
 70
   688
 72
     1
 73
     0
 74
     5
  7

 75
    16
147
1.0
148
0.0
149
0.0
100
AcDbLayout
  1
Layout2
 70
     1
 71
     2
 10
0.0
 20
0.0
 11
0.0
 21
0.0
 12
0.0
 22
0.0
 32
0.0
 14
0.0
 24
0.0
 34
0.0
 15
0.0
 25
0.0
 35
0.0
146
0.0
 13
0.0
 23
0.0
 33
0.0
 16
1.0
 26
0.0
 36
0.0
 17
0.0
 27
1.0
 37
0.0
 76
     0
330
23
  0
LAYOUT
  5
22
102
{ACAD_REACTORS
330
1A
102
}
330
1A
100
AcDbPlotSettings
  1

  2
none_device
  4
ANSI_A_(11.00_x_8.50_Inches)
  6

 40
6.35
 41
19.05
 42
6.35000508
 43
19.05000254
 44
279.4
 45
215.9
 46
116.9967708711992
 47
114.1492743565855
 48
0.0
 49
0.0
140
0.0
141
0.0
142
0.0936760758284058
143
1.0
 70
  1696
 72
     0
 73
     0
 74
     0
  7

 75
     0
147
0.0235690232323232
148
0.0
149
0.0
100
AcDbLayout
  1
Model
 70
     1
 71
     0
 10
0.0
 20
0.0
 11
420.0
 21
297.0
 12
0.0
 22
0.0
 32
0.0
 14
-54.14415845157323
 24
-49.97073246008785
 34
0.0
 15
74.3668399361351
 25
29.3534104402427
 35
0.0
146
0.0
 13
0.0
 23
0.0
 33
0.0
 16
1.0
 26
0.0
 36
0.0
 17
0.0
 27
1.0
 37
0.0
 76
     0
330
1F
331
29
  0
MLINESTYLE
  5
18
102
{ACAD_REACTORS
330
17
102
}
330
17
100
AcDbMlineStyle
  2
Standard
 70
     0
  3

 62
   256
 51
90.0
 52
90.0
 71
     2
 49
0.5
 62
   256
  6
BYLAYER
 49
-0.5
 62
   256
  6
BYLAYER
  0
ACDBPLACEHOLDER
  5
F
102
{ACAD_REACTORS
330
E
102
}
330
E
  0
SCALE
  5
48
102
{ACAD_REACTORS
330
47
102
}
330
47
100
AcDbScale
 70
     0
300
1:1
140
1.0
141
1.0
290
     1
  0
SCALE
  5
49
102
{ACAD_REACTORS
330
47
102
}
330
47
100
AcDbScale
 70
     0
300
1:2
140
1.0
141
2.0
290
     0
  0
SCALE
  5
4A
102
{ACAD_REACTORS
330
47
102
}
330
47
100
AcDbScale
 70
     0
300
1:4
140
1.0
141
4.0
290
     0
  0
SCALE
  5
4B
102
{ACAD_REACTORS
330
47
102
}
330
47
100
AcDbScale
 70
     0
300
1:5
140
1.0
141
5.0
290
     0
  0
SCALE
  5
4C
102
{ACAD_REACTORS
330
47
102
}
330
47
100
AcDbScale
 70
     0
300
1:8
140
1.0
141
8.0
290
     0
  0
SCALE
  5
4D
102
{ACAD_REACTORS
330
47
102
}
330
47
100
AcDbScale
 70
     0
300
1:10
140
1.0
141
10.0
290
     0
  0
SCALE
  5
4E
102
{ACAD_REACTORS
330
47
102
}
330
47
100
AcDbScale
 70
     0
300
1:16
140
1.0
141
16.0
290
     0
  0
SCALE
  5
4F
102
{ACAD_REACTORS
330
47
102
}
330
47
100
AcDbScale
 70
     0
300
1:20
140
1.0
141
20.0
290
     0
  0
SCALE
  5
50
102
{ACAD_REACTORS
330
47
102
}
330
47
100
AcDbScale
 70
     0
300
1:30
140
1.0
141
30.0
290
     0
  0
SCALE
  5
51
102
{ACAD_REACTORS
330
47
102
}
330
47
100
AcDbScale
 70
     0
300
1:40
140
1.0
141
40.0
290
     0
  0
SCALE
  5
52
102
{ACAD_REACTORS
330
47
102
}
330
47
100
AcDbScale
 70
     0
300
1:50
140
1.0
141
50.0
290
     0
  0
SCALE
  5
53
102
{ACAD_REACTORS
330
47
102
}
330
47
100
AcDbScale
 70
     0
300
1:100
140
1.0
141
100.0
290
     0
  0
SCALE
  5
54
102
{ACAD_REACTORS
330
47
102
}
330
47
100
AcDbScale
 70
     0
300
2:1
140
2.0
141
1.0
290
     0
  0
SCALE
  5
55
102
{ACAD_REACTORS
330
47
102
}
330
47
100
AcDbScale
 70
     0
300
4:1
140
4.0
141
1.0
290
     0
  0
SCALE
  5
56
102
{ACAD_REACTORS
330
47
102
}
330
47
100
AcDbScale
 70
     0
300
8:1
140
8.0
141
1.0
290
     0
  0
SCALE
  5
57
102
{ACAD_REACTORS
330
47
102
}
330
47
100
AcDbScale
 70
     0
300
10:1
140
10.0
141
1.0
290
     0
  0
SCALE
  5
58
102
{ACAD_REACTORS
330
47
102
}
330
47
100
AcDbScale
 70
     0
300
100:1
140
100.0
141
1.0
290
     0
  0
SCALE
  5
59
102
{ACAD_REACTORS
330
47
102
}
330
47
100
AcDbScale
 70
     0
300
1/128" = 1'-0"
140
0.0078125
141
12.0
290
     0
  0
SCALE
  5
5A
102
{ACAD_REACTORS
330
47
102
}
330
47
100
AcDbScale
 70
     0
300
1/64" = 1'-0"
140
0.015625
141
12.0
290
     0
  0
SCALE
  5
5B
102
{ACAD_REACTORS
330
47
102
}
330
47
100
AcDbScale
 70
     0
300
1/32" = 1'-0"
140
0.03125
141
12.0
290
     0
  0
SCALE
  5
5C
102
{ACAD_REACTORS
330
47
102
}
330
47
100
AcDbScale
 70
     0
300
1/16" = 1'-0"
140
0.0625
141
12.0
290
     0
  0
SCALE
  5
5D
102
{ACAD_REACTORS
330
47
102
}
330
47
100
AcDbScale
 70
     0
300
3/32" = 1'-0"
140
0.09375
141
12.0
290
     0
  0
SCALE
  5
5E
102
{ACAD_REACTORS
330
47
102
}
330
47
100
AcDbScale
 70
     0
300
1/8" = 1'-0"
140
0.125
141
12.0
290
     0
  0
SCALE
  5
5F
102
{ACAD_REACTORS
330
47
102
}
330
47
100
AcDbScale
 70
     0
300
3/16" = 1'-0"
140
0.1875
141
12.0
290
     0
  0
SCALE
  5
60
102
{ACAD_REACTORS
330
47
102
}
330
47
100
AcDbScale
 70
     0
300
1/4" = 1'-0"
140
0.25
141
12.0
290
     0
  0
SCALE
  5
61
102
{ACAD_REACTORS
330
47
102
}
330
47
100
AcDbScale
 70
     0
300
3/8" = 1'-0"
140
0.375
141
12.0
290
     0
  0
SCALE
  5
62
102
{ACAD_REACTORS
330
47
102
}
330
47
100
AcDbScale
 70
     0
300
1/2" = 1'-0"
140
0.5
141
12.0
290
     0
  0
SCALE
  5
63
102
{ACAD_REACTORS
330
47
102
}
330
47
100
AcDbScale
 70
     0
300
3/4" = 1'-0"
140
0.75
141
12.0
290
     0
  0
SCALE
  5
64
102
{ACAD_REACTORS
330
47
102
}
330
47
100
AcDbScale
 70
     0
300
1" = 1'-0"
140
1.0
141
12.0
290
     0
  0
SCALE
  5
65
102
{ACAD_REACTORS
330
47
102
}
330
47
100
AcDbScale
 70
     0
300
1-1/2" = 1'-0"
140
1.5
141
12.0
290
     0
  0
SCALE
  5
66
102
{ACAD_REACTORS
330
47
102
}
330
47
100
AcDbScale
 70
     0
300
3" = 1'-0"
140
3.0
141
12.0
290
     0
  0
SCALE
  5
67
102
{ACAD_REACTORS
330
47
102
}
330
47
100
AcDbScale
 70
     0
300
6" = 1'-0"
140
6.0
141
12.0
290
     0
  0
SCALE
  5
68
102
{ACAD_REACTORS
330
47
102
}
330
47
100
AcDbScale
 70
     0
300
1'-0" = 1'-0"
140
12.0
141
12.0
290
     0
  0
ENDSEC
  0
EOF
