  0
SECTION
  2
HEADER
  9
$ACADVER
  1
AC1015
  9
$ACADMAINTVER
 70
     6
  9
$DWGCODEPAGE
  3
ANSI_949
  9
$INSBASE
 10
0.0
 20
0.0
 30
0.0
  9
$EXTMIN
 10
-84.67549590607167
 20
-49.97073246008785
 30
0.0
  9
$EXTMAX
 10
68.74903349197602
 20
29.3534104402427
 30
0.0
  9
$LIMMIN
 10
0.0
 20
0.0
  9
$LIMMAX
 10
420.0
 20
297.0
  9
$ORTHOMODE
 70
     0
  9
$REGENMODE
 70
     1
  9
$FILLMODE
 70
     1
  9
$QTEXTMODE
 70
     0
  9
$MIRRTEXT
 70
     1
  9
$LTSCALE
 40
1.0
  9
$ATTMODE
 70
     1
  9
$TEXTSIZE
 40
3.5
  9
$TRACEWID
 40
1.0
  9
$TEXTSTYLE
  7
Standard
  9
$CLAYER
  8
0
  9
$CELTYPE
  6
ByLayer
  9
$CECOLOR
 62
   256
  9
$CELTSCALE
 40
1.0
  9
$DISPSILH
 70
     0
  9
$DIMSCALE
 40
1.0
  9
$DIMASZ
 40
3.302
  9
$DIMEXO
 40
1.0
  9
$DIMDLI
 40
3.75
  9
$DIMRND
 40
0.0
  9
$DIMDLE
 40
0.0
  9
$DIMEXE
 40
1.0
  9
$DIMTP
 40
0.0
  9
$DIMTM
 40
0.0
  9
$DIMTXT
 40
3.5
  9
$DIMCEN
 40
2.5
  9
$DIMTSZ
 40
0.0
  9
$DIMTOL
 70
     0
  9
$DIMLIM
 70
     0
  9
$DIMTIH
 70
     1
  9
$DIMTOH
 70
     1
  9
$DIMSE1
 70
     0
  9
$DIMSE2
 70
     0
  9
$DIMTAD
 70
     1
  9
$DIMZIN
 70
     0
  9
$DIMBLK
  1

  9
$DIMASO
 70
     1
  9
$DIMSHO
 70
     1
  9
$DIMPOST
  1

  9
$DIMAPOST
  1

  9
$DIMALT
 70
     0
  9
$DIMALTD
 70
     3
  9
$DIMALTF
 40
0.0393700787401575
  9
$DIMLFAC
 40
1.0
  9
$DIMTOFL
 70
     1
  9
$DIMTVP
 40
0.0
  9
$DIMTIX
 70
     0
  9
$DIMSOXD
 70
     0
  9
$DIMSAH
 70
     0
  9
$DIMBLK1
  1

  9
$DIMBLK2
  1

  9
$DIMSTYLE
  2
ISO-25
  9
$DIMCLRD
 70
     0
  9
$DIMCLRE
 70
     0
  9
$DIMCLRT
 70
     0
  9
$DIMTFAC
 40
1.0
  9
$DIMGAP
 40
1.524
  9
$DIMJUST
 70
     0
  9
$DIMSD1
 70
     0
  9
$DIMSD2
 70
     0
  9
$DIMTOLJ
 70
     0
  9
$DIMTZIN
 70
     0
  9
$DIMALTZ
 70
     0
  9
$DIMALTTZ
 70
     0
  9
$DIMUPT
 70
     0
  9
$DIMDEC
 70
     2
  9
$DIMTDEC
 70
     2
  9
$DIMALTU
 70
     2
  9
$DIMALTTD
 70
     3
  9
$DIMTXSTY
  7
Standard
  9
$DIMAUNIT
 70
     0
  9
$DIMADEC
 70
     2
  9
$DIMALTRND
 40
0.0
  9
$DIMAZIN
 70
     0
  9
$DIMDSEP
 70
    44
  9
$DIMATFIT
 70
     3
  9
$DIMFRAC
 70
     0
  9
$DIMLDRBLK
  1

  9
$DIMLUNIT
 70
     2
  9
$DIMLWD
 70
    -2
  9
$DIMLWE
 70
    -2
  9
$DIMTMOVE
 70
     0
  9
$LUNITS
 70
     2
  9
$LUPREC
 70
     2
  9
$SKETCHINC
 40
1.0
  9
$FILLETRAD
 40
10.0
  9
$AUNITS
 70
     0
  9
$AUPREC
 70
     2
  9
$MENU
  1
.
  9
$ELEVATION
 40
0.0
  9
$PELEVATION
 40
0.0
  9
$THICKNESS
 40
0.0
  9
$LIMCHECK
 70
     0
  9
$CHAMFERA
 40
0.0
  9
$CHAMFERB
 40
0.0
  9
$CHAMFERC
 40
0.0
  9
$CHAMFERD
 40
0.0
  9
$SKPOLY
 70
     0
  9
$TDCREATE
 40
2458262.543794606
  9
$TDUCREATE
 40
2458262.168794606
  9
$TDUPDATE
 40
2458266.668222697
  9
$TDUUPDATE
 40
2458266.293222697
  9
$TDINDWG
 40
0.001614375
  9
$TDUSRTIMER
 40
2458266.291608356
  9
$USRTIMER
 70
     1
  9
$ANGBASE
 50
0.0
  9
$ANGDIR
 70
     0
  9
$PDMODE
 70
     0
  9
$PDSIZE
 40
-1.0
  9
$PLINEWID
 40
0.0
  9
$SPLFRAME
 70
     0
  9
$SPLINETYPE
 70
     6
  9
$SPLINESEGS
 70
     8
  9
$HANDSEED
  5
144
  9
$SURFTAB1
 70
     6
  9
$SURFTAB2
 70
     6
  9
$SURFTYPE
 70
     6
  9
$SURFU
 70
     6
  9
$SURFV
 70
     6
  9
$UCSBASE
  2

  9
$UCSNAME
  2

  9
$UCSORG
 10
0.0
 20
0.0
 30
0.0
  9
$UCSXDIR
 10
1.0
 20
0.0
 30
0.0
  9
$UCSYDIR
 10
0.0
 20
1.0
 30
0.0
  9
$UCSORTHOREF
  2

  9
$UCSORTHOVIEW
 70
     0
  9
$UCSORGTOP
 10
0.0
 20
0.0
 30
0.0
  9
$UCSORGBOTTOM
 10
0.0
 20
0.0
 30
0.0
  9
$UCSORGLEFT
 10
0.0
 20
0.0
 30
0.0
  9
$UCSORGRIGHT
 10
0.0
 20
0.0
 30
0.0
  9
$UCSORGFRONT
 10
0.0
 20
0.0
 30
0.0
  9
$UCSORGBACK
 10
0.0
 20
0.0
 30
0.0
  9
$PUCSBASE
  2

  9
$PUCSNAME
  2

  9
$PUCSORG
 10
0.0
 20
0.0
 30
0.0
  9
$PUCSXDIR
 10
1.0
 20
0.0
 30
0.0
  9
$PUCSYDIR
 10
0.0
 20
1.0
 30
0.0
  9
$PUCSORTHOREF
  2

  9
$PUCSORTHOVIEW
 70
     0
  9
$PUCSORGTOP
 10
0.0
 20
0.0
 30
0.0
  9
$PUCSORGBOTTOM
 10
0.0
 20
0.0
 30
0.0
  9
$PUCSORGLEFT
 10
0.0
 20
0.0
 30
0.0
  9
$PUCSORGRIGHT
 10
0.0
 20
0.0
 30
0.0
  9
$PUCSORGFRONT
 10
0.0
 20
0.0
 30
0.0
  9
$PUCSORGBACK
 10
0.0
 20
0.0
 30
0.0
  9
$USERI1
 70
     0
  9
$USERI2
 70
     0
  9
$USERI3
 70
     0
  9
$USERI4
 70
     0
  9
$USERI5
 70
     0
  9
$USERR1
 40
0.0
  9
$USERR2
 40
0.0
  9
$USERR3
 40
0.0
  9
$USERR4
 40
0.0
  9
$USERR5
 40
0.0
  9
$WORLDVIEW
 70
     1
  9
$SHADEDGE
 70
     3
  9
$SHADEDIF
 70
    70
  9
$TILEMODE
 70
     1
  9
$MAXACTVP
 70
    64
  9
$PINSBASE
 10
0.0
 20
0.0
 30
0.0
  9
$PLIMCHECK
 70
     0
  9
$PEXTMIN
 10
1.000000000000000E+20
 20
1.000000000000000E+20
 30
1.000000000000000E+20
  9
$PEXTMAX
 10
-1.000000000000000E+20
 20
-1.000000000000000E+20
 30
-1.000000000000000E+20
  9
$PLIMMIN
 10
0.0
 20
0.0
  9
$PLIMMAX
 10
0.0
 20
0.0
  9
$UNITMODE
 70
     0
  9
$VISRETAIN
 70
     1
  9
$PLINEGEN
 70
     0
  9
$PSLTSCALE
 70
     1
  9
$TREEDEPTH
 70
  3020
  9
$CMLSTYLE
  2
Standard
  9
$CMLJUST
 70
     0
  9
$CMLSCALE
 40
20.0
  9
$PROXYGRAPHICS
 70
     1
  9
$MEASUREMENT
 70
     1
  9
$CELWEIGHT
370
    -1
  9
$ENDCAPS
280
     0
  9
$JOINSTYLE
280
     0
  9
$LWDISPLAY
290
     1
  9
$INSUNITS
 70
     4
  9
$HYPERLINKBASE
  1

  9
$STYLESHEET
  1

  9
$XEDIT
290
     1
  9
$CEPSNTYPE
380
     0
  9
$PSTYLEMODE
290
     1
  9
$FINGERPRINTGUID
  2
{AA52732D-DDB1-4FCA-B641-EB4F6BF89B8B}
  9
$VERSIONGUID
  2
{FAEB1C32-E019-11D5-929B-00C0DF256EC4}
  9
$EXTNAMES
290
     1
  9
$PSVPSCALE
 40
0.0
  9
$OLESTARTUP
290
     0
  0
ENDSEC
  0
SECTION
  2
CLASSES
  0
CLASS
  1
ACDBDICTIONARYWDFLT
  2
AcDbDictionaryWithDefault
  3
ObjectDBX Classes
 90
        0
280
     0
281
     0
  0
CLASS
  1
VISUALSTYLE
  2
AcDbVisualStyle
  3
ObjectDBX Classes
 90
     4095
280
     0
281
     0
  0
CLASS
  1
MATERIAL
  2
AcDbMaterial
  3
ObjectDBX Classes
 90
     1153
280
     0
281
     0
  0
CLASS
  1
SCALE
  2
AcDbScale
  3
ObjectDBX Classes
 90
     1153
280
     0
281
     0
  0
CLASS
  1
SUN
  2
AcDbSun
  3
SCENEOE
 90
     1153
280
     0
281
     0
  0
CLASS
  1
ACDBPLACEHOLDER
  2
AcDbPlaceHolder
  3
ObjectDBX Classes
 90
        0
280
     0
281
     0
  0
CLASS
  1
LAYOUT
  2
AcDbLayout
  3
ObjectDBX Classes
 90
        0
280
     0
281
     0
  0
CLASS
  1
TABLESTYLE
  2
AcDbTableStyle
  3
ObjectDBX Classes
 90
     4095
280
     0
281
     0
  0
CLASS
  1
MLEADERSTYLE
  2
AcDbMLeaderStyle
  3
ACDB_MLEADERSTYLE_CLASS
 90
     4095
280
     0
281
     0
  0
CLASS
  1
RASTERVARIABLES
  2
AcDbRasterVariables
  3
ISM
 90
        0
280
     0
281
     0
  0
ENDSEC
  0
SECTION
  2
TABLES
  0
TABLE
  2
VPORT
  5
8
330
0
100
AcDbSymbolTable
 70
     1
  0
VPORT
  5
29
330
8
100
AcDbSymbolTableRecord
100
AcDbViewportTableRecord
  2
*Active
 70
     0
 10
0.0
 20
0.0
 11
1.0
 21
1.0
 12
-7.963231207047826
 22
-10.30866100992258
 13
0.0
 23
0.0
 14
10.0
 24
10.0
 15
10.0
 25
10.0
 16
0.0
 26
0.0
 36
1.0
 17
0.0
 27
0.0
 37
0.0
 40
135.7910285528819
 41
1.152454780361757
 42
50.0
 43
0.0
 44
0.0
 50
0.0
 51
0.0
 71
    16
 72
  2000
 73
     1
 74
     3
 75
     0
 76
     0
 77
     0
 78
     0
281
     0
 65
     1
110
0.0
120
0.0
130
0.0
111
1.0
121
0.0
131
0.0
112
0.0
122
1.0
132
0.0
 79
     0
146
0.0
  0
ENDTAB
  0
TABLE
  2
LTYPE
  5
5
330
0
100
AcDbSymbolTable
 70
     6
  0
LTYPE
  5
14
330
5
100
AcDbSymbolTableRecord
100
AcDbLinetypeTableRecord
  2
ByBlock
 70
     0
  3

 72
    65
 73
     0
 40
0.0
  0
LTYPE
  5
15
330
5
100
AcDbSymbolTableRecord
100
AcDbLinetypeTableRecord
  2
ByLayer
 70
     0
  3

 72
    65
 73
     0
 40
0.0
  0
LTYPE
  5
16
330
5
100
AcDbSymbolTableRecord
100
AcDbLinetypeTableRecord
  2
Continuous
 70
     0
  3
Solid line
 72
    65
 73
     0
 40
0.0
  0
LTYPE
  5
6A
330
5
100
AcDbSymbolTableRecord
100
AcDbLinetypeTableRecord
  2
HIDDEN
 70
     0
  3
Hidden __ __ __ __ __ __ __ __ __ __ __ __ __ __
 72
    65
 73
     2
 40
1.905
 49
1.27
 74
     0
 49
-0.635
 74
     0
  0
LTYPE
  5
6B
330
5
100
AcDbSymbolTableRecord
100
AcDbLinetypeTableRecord
  2
PHANTOM
 70
     0
  3
Phantom ______  __  __  ______  __  __  ______
 72
    65
 73
     6
 40
12.7
 49
6.35
 74
     0
 49
-1.27
 74
     0
 49
1.27
 74
     0
 49
-1.27
 74
     0
 49
1.27
 74
     0
 49
-1.27
 74
     0
  0
LTYPE
  5
6C
330
5
100
AcDbSymbolTableRecord
100
AcDbLinetypeTableRecord
  2
CENTER
 70
     0
  3
Center ____ _ ____ _ ____ _ ____ _ ____ _ ____
 72
    65
 73
     4
 40
10.16
 49
6.35
 74
     0
 49
-1.27
 74
     0
 49
1.27
 74
     0
 49
-1.27
 74
     0
  0
LTYPE
  5
6D
330
5
100
AcDbSymbolTableRecord
100
AcDbLinetypeTableRecord
  2
CENTERX2
 70
     0
  3
Center (2x) ________  __  ________  __  _____
 72
    65
 73
     4
 40
20.32
 49
12.7
 74
     0
 49
-2.54
 74
     0
 49
2.54
 74
     0
 49
-2.54
 74
     0
  0
LTYPE
  5
6E
330
5
100
AcDbSymbolTableRecord
100
AcDbLinetypeTableRecord
  2
DOT2
 70
     0
  3
Dot (.5x) ........................................
 72
    65
 73
     2
 40
0.635
 49
0.0
 74
     0
 49
-0.635
 74
     0
  0
ENDTAB
  0
TABLE
  2
LAYER
  5
2
330
0
100
AcDbSymbolTable
 70
    17
  0
LAYER
  5
10
330
2
100
AcDbSymbolTableRecord
100
AcDbLayerTableRecord
  2
0
 70
     0
 62
     7
  6
Continuous
370
    -3
390
F
  0
LAYER
  5
6F
330
2
100
AcDbSymbolTableRecord
100
AcDbLayerTableRecord
  2
FORMAT
 70
     0
 62
     2
  6
Continuous
370
    -3
390
F
  0
LAYER
  5
70
330
2
100
AcDbSymbolTableRecord
100
AcDbLayerTableRecord
  2
외형선
 70
     0
 62
   100
  6
Continuous
370
    30
390
F
  0
LAYER
  5
71
330
2
100
AcDbSymbolTableRecord
100
AcDbLayerTableRecord
  2
숨은선
 70
     0
 62
     2
  6
HIDDEN
370
    15
390
F
  0
LAYER
  5
72
330
2
100
AcDbSymbolTableRecord
100
AcDbLayerTableRecord
  2
중심선
 70
     0
 62
     1
  6
CENTERX2
370
    -3
390
F
  0
LAYER
  5
73
330
2
100
AcDbSymbolTableRecord
100
AcDbLayerTableRecord
  2
파단선
 70
     0
 62
     4
  6
Continuous
370
    -3
390
F
  0
LAYER
  5
74
330
2
100
AcDbSymbolTableRecord
100
AcDbLayerTableRecord
  2
해칭선
 70
     0
 62
     4
  6
Continuous
370
    -3
390
F
  0
LAYER
  5
75
330
2
100
AcDbSymbolTableRecord
100
AcDbLayerTableRecord
  2
가는실선
 70
     0
 62
     4
  6
Continuous
370
    -3
390
F
  0
LAYER
  5
76
330
2
100
AcDbSymbolTableRecord
100
AcDbLayerTableRecord
  2
치수_보조선
 70
     0
 62
     4
  6
Continuous
370
    -3
390
F
  0
LAYER
  5
77
330
2
100
AcDbSymbolTableRecord
100
AcDbLayerTableRecord
  2
치수문자_일반주서
 70
     0
 62
     7
  6
Continuous
370
    15
390
F
  0
LAYER
  5
78
330
2
100
AcDbSymbolTableRecord
100
AcDbLayerTableRecord
  2
개별주서
 70
     0
 62
   100
  6
Continuous
370
    30
390
F
  0
LAYER
  5
79
330
2
100
AcDbSymbolTableRecord
100
AcDbLayerTableRecord
  2
중간선
 70
     0
 62
     2
  6
Continuous
370
    15
390
F
  0
LAYER
  5
7A
330
2
100
AcDbSymbolTableRecord
100
AcDbLayerTableRecord
  2
윤곽선
 70
     0
 62
     3
  6
Continuous
370
    40
390
F
  0
LAYER
  5
7B
330
2
100
AcDbSymbolTableRecord
100
AcDbLayerTableRecord
  2
중심마크
 70
     0
 62
   100
  6
Continuous
370
    30
390
F
  0
LAYER
  5
7C
330
2
100
AcDbSymbolTableRecord
100
AcDbLayerTableRecord
  2
가상선
 70
     0
 62
     4
  6
PHANTOM
370
    -3
390
F
  0
LAYER
  5
7D
330
2
100
AcDbSymbolTableRecord
100
AcDbLayerTableRecord
  2
특수지정선
 70
     0
 62
     5
  6
CENTERX2
370
    60
390
F
  0
LAYER
  5
135
330
2
100
AcDbSymbolTableRecord
100
AcDbLayerTableRecord
  2
Defpoints
 70
     0
 62
     7
  6
Continuous
290
     0
370
    -3
390
F
  0
ENDTAB
  0
TABLE
  2
STYLE
  5
3
330
0
100
AcDbSymbolTable
 70
     2
  0
STYLE
  5
11
330
3
100
AcDbSymbolTableRecord
100
AcDbTextStyleTableRecord
  2
Standard
 70
     0
 40
0.0
 41
1.0
 50
0.0
 71
     0
 42
3.5
  3
txt
  4

  0
STYLE
  5
93
330
3
100
AcDbSymbolTableRecord
100
AcDbTextStyleTableRecord
  2
SLDTEXTSTYLE0
 70
     0
 40
0.0
 41
0.75
 50
0.0
 71
     0
 42
3.5
  3
TXT
  4

  0
ENDTAB
  0
TABLE
  2
VIEW
  5
6
330
0
100
AcDbSymbolTable
 70
     0
  0
ENDTAB
  0
TABLE
  2
UCS
  5
7
330
0
100
AcDbSymbolTable
 70
     0
  0
ENDTAB
  0
TABLE
  2
APPID
  5
9
330
0
100
AcDbSymbolTable
 70
     1
  0
APPID
  5
12
330
9
100
AcDbSymbolTableRecord
100
AcDbRegAppTableRecord
  2
ACAD
 70
     0
  0
ENDTAB
  0
TABLE
  2
DIMSTYLE
  5
A
330
0
100
AcDbSymbolTable
 70
     3
100
AcDbDimStyleTable
  0
DIMSTYLE
105
27
330
A
100
AcDbSymbolTableRecord
100
AcDbDimStyleTableRecord
  2
ISO-25
 70
     0
 41
2.5
 42
0.625
 43
3.75
 44
1.25
 73
     0
 74
     0
 77
     1
 78
     8
140
2.5
141
2.5
143
0.03937007874016
147
0.625
171
     3
172
     1
178
     0
271
     2
272
     2
274
     3
278
    44
283
     0
284
     8
340
11
  0
DIMSTYLE
105
DB
102
{ACAD_REACTORS
330
DA
330
FD
102
}
330
A
100
AcDbSymbolTableRecord
100
AcDbDimStyleTableRecord
  2
SLDDIMSTYLE0
 70
     0
 41
3.302
 44
0.0
 45
0.000000001
 73
     0
 74
     0
 77
     1
 78
    12
 79
     3
140
3.5
147
0.875
172
     1
173
     1
178
     0
271
     2
272
     2
276
     2
284
    12
289
     0
340
93
  0
DIMSTYLE
105
E9
102
{ACAD_REACTORS
330
E8
330
F3
102
}
330
A
100
AcDbSymbolTableRecord
100
AcDbDimStyleTableRecord
  2
SLDDIMSTYLE1
 70
     0
 41
3.302
 44
0.0
 45
0.000000001
 73
     0
 74
     0
 77
     1
 78
    12
 79
     3
140
3.5
147
0.875
173
     1
178
     0
271
     2
272
     2
276
     2
284
    12
340
93
  0
ENDTAB
  0
TABLE
  2
BLOCK_RECORD
  5
1
330
0
100
AcDbSymbolTable
 70
     7
  0
BLOCK_RECORD
  5
1F
330
1
100
AcDbSymbolTableRecord
100
AcDbBlockTableRecord
  2
*Model_Space
340
22
  0
BLOCK_RECORD
  5
1B
330
1
100
AcDbSymbolTableRecord
100
AcDbBlockTableRecord
  2
*Paper_Space
340
1E
  0
BLOCK_RECORD
  5
23
330
1
100
AcDbSymbolTableRecord
100
AcDbBlockTableRecord
  2
*Paper_Space0
340
26
  0
BLOCK_RECORD
  5
7E
330
1
100
AcDbSymbolTableRecord
100
AcDbBlockTableRecord
  2
블럭10
340
0
102
{BLKREFS
331
D3
102
}
  0
BLOCK_RECORD
  5
DC
330
1
100
AcDbSymbolTableRecord
100
AcDbBlockTableRecord
  2
_D
340
0
  0
BLOCK_RECORD
  5
EA
330
1
100
AcDbSymbolTableRecord
100
AcDbBlockTableRecord
  2
_D_1
340
0
  0
BLOCK_RECORD
  5
F4
330
1
100
AcDbSymbolTableRecord
100
AcDbBlockTableRecord
  2
_D_2
340
0
  0
BLOCK_RECORD
  5
FE
330
1
100
AcDbSymbolTableRecord
100
AcDbBlockTableRecord
  2
_D_3
340
0
  0
BLOCK_RECORD
  5
10A
330
1
100
AcDbSymbolTableRecord
100
AcDbBlockTableRecord
  2
SW_DOWELSYMBOL_0
340
0
102
{BLKREFS
331
110
102
}
  0
ENDTAB
  0
ENDSEC
  0
SECTION
  2
BLOCKS
  0
BLOCK
  5
20
330
1F
100
AcDbEntity
  8
0
100
AcDbBlockBegin
  2
*Model_Space
 70
     0
 10
0.0
 20
0.0
 30
0.0
  3
*Model_Space
  1

  0
ENDBLK
  5
21
330
1F
100
AcDbEntity
  8
0
100
AcDbBlockEnd
  0
BLOCK
  5
1C
330
1B
100
AcDbEntity
 67
     1
  8
0
100
AcDbBlockBegin
  2
*Paper_Space
 70
     0
 10
0.0
 20
0.0
 30
0.0
  3
*Paper_Space
  1

  0
ENDBLK
  5
1D
330
1B
100
AcDbEntity
 67
     1
  8
0
100
AcDbBlockEnd
  0
BLOCK
  5
24
330
23
100
AcDbEntity
  8
0
100
AcDbBlockBegin
  2
*Paper_Space0
 70
     0
 10
0.0
 20
0.0
 30
0.0
  3
*Paper_Space0
  1

  0
ENDBLK
  5
25
330
23
100
AcDbEntity
  8
0
100
AcDbBlockEnd
  0
BLOCK
  5
7F
330
7E
100
AcDbEntity
  8
0
100
AcDbBlockBegin
  2
블럭10
 70
     2
 10
0.0
 20
0.0
 30
0.0
  3
블럭10
  1

  0
ELLIPSE
  5
81
330
7E
100
AcDbEntity
  8
중심선
100
AcDbEllipse
 10
20.54032771741204
 20
12.0471743016438
 30
0.0
 11
6.600054785286829
 21
-1.261213355974178E-13
 31
0.0
210
0.0
220
0.0
230
1.0
 40
0.636358354079598
 41
0.9219305317359503
 42
6.513795318482858
  0
ELLIPSE
  5
82
330
7E
100
AcDbEntity
  8
중심선
100
AcDbEllipse
 10
20.54032771746488
 20
12.04717430159265
 30
0.0
 11
3.960054785062283
 21
1.540847449632565E-10
 31
0.0
210
0.0
220
0.0
230
1.0
 40
0.3939339440162632
 41
1.131841032648279
 42
5.62031148352944
  0
LINE
  5
83
330
7E
100
AcDbEntity
  8
중심선
100
AcDbLine
 10
2.268634060543552
 20
16.24717430164393
 30
0.0
 11
5.714909304380834
 21
16.24717430164393
 31
0.0
  0
LINE
  5
84
330
7E
100
AcDbEntity
  8
중심선
100
AcDbLine
 10
5.245725140726316
 20
7.84717430164391
 30
0.0
 11
8.692000384563599
 21
7.84717430164391
 31
0.0
  0
LINE
  5
85
330
7E
100
AcDbEntity
  8
중심선
100
AcDbLine
 10
15.74043728645272
 20
16.24717430164393
 30
0.0
 11
8.692000384563599
 21
7.84717430164391
 31
0.0
  0
LINE
  5
86
330
7E
100
AcDbEntity
  8
중심선
100
AcDbLine
 10
0.1404042013395286
 20
13.71084872107135
 30
0.0
 11
3.58671253028996
 21
13.71088815037384
 31
0.0
  0
LINE
  5
87
330
7E
100
AcDbEntity
  8
중심선
100
AcDbLine
 10
2.750260043222114
 20
10.84717430164391
 30
0.0
 11
6.196535287059397
 21
10.84717430164391
 31
0.0
  0
LINE
  5
88
330
7E
100
AcDbEntity
  8
중심선
100
AcDbLine
 10
12.29416204261559
 20
16.24717430164393
 30
0.0
 11
5.245725140726316
 21
7.84717430164391
 31
0.0
  0
LINE
  5
89
330
7E
100
AcDbEntity
  8
중심선
100
AcDbLine
 10
10.72767329541681
 20
16.24717430164393
 30
0.0
 11
6.196535287059397
 21
10.84717430164391
 31
0.0
  0
LINE
  5
8A
330
7E
100
AcDbEntity
  8
중심선
100
AcDbLine
 10
7.28139805157953
 20
16.24717430164393
 30
0.0
 11
2.750260043222114
 21
10.84717430164391
 31
0.0
  0
LINE
  5
8B
330
7E
100
AcDbEntity
  8
중심선
100
AcDbLine
 10
5.714909304380834
 20
16.24717430164393
 30
0.0
 11
3.58671253028996
 21
13.71088815037384
 31
0.0
  0
LINE
  5
8C
330
7E
100
AcDbEntity
  8
중심선
100
AcDbLine
 10
2.268634060543552
 20
16.24717430164393
 30
0.0
 11
0.1404042013395286
 21
13.71084872107135
 31
0.0
  0
LINE
  5
8D
330
7E
100
AcDbEntity
  8
중심선
100
AcDbLine
 10
7.28139805157953
 20
16.24717430164393
 30
0.0
 11
10.72767329541681
 21
16.24717430164393
 31
0.0
  0
LINE
  5
8E
330
7E
100
AcDbEntity
  8
중심선
100
AcDbLine
 10
12.29416204261559
 20
16.24717430164393
 30
0.0
 11
15.74043728645272
 21
16.24717430164393
 31
0.0
  0
LINE
  5
8F
330
7E
100
AcDbEntity
  8
중심선
100
AcDbLine
 10
19.22036997980202
 20
11.08717430171403
 30
0.0
 11
23.66174974927406
 21
11.08717430171406
 31
0.0
  0
LINE
  5
90
330
7E
100
AcDbEntity
  8
중심선
100
AcDbLine
 10
19.22039502424796
 20
13.00717430171391
 30
0.0
 11
19.22036997980202
 21
11.08717430171403
 31
0.0
  0
LINE
  5
91
330
7E
100
AcDbEntity
  8
중심선
100
AcDbLine
 10
19.22039502424796
 20
13.00717430171391
 30
0.0
 11
26.96566020931264
 21
13.00717430171391
 31
0.0
  0
LINE
  5
92
330
7E
100
AcDbEntity
  8
중심선
100
AcDbLine
 10
22.22332737316547
 20
13.45928029700563
 30
0.0
 11
24.52862924686651
 21
15.39360700705356
 31
0.0
  0
ATTDEF
  5
94
330
7E
100
AcDbEntity
  8
FORMAT
 62
     2
100
AcDbText
 10
-20.85824753159254
 20
2.075366912832191
 30
0.0
 40
4.233333333333333
  1
SEME7008040120E [ 2 FLUTE ]
 41
0.75
  7
SLDTEXTSTYLE0
 11
-20.85824753159254
 21
-0.0412997538344756
 31
0.0
100
AcDbAttributeDefinition
  3

  2
AUTOATTR0
 70
     0
 74
     1
  0
ENDBLK
  5
80
330
7E
100
AcDbEntity
  8
0
100
AcDbBlockEnd
  0
BLOCK
  5
DD
330
DC
100
AcDbEntity
  8
0
100
AcDbBlockBegin
  2
_D
 70
     0
 10
0.0
 20
0.0
 30
0.0
  3
_D
  1

  0
LINE
  5
DF
330
DC
100
AcDbEntity
  8
치수문자_일반주서
 62
     0
370
    -2
100
AcDbLine
 10
50.06249999999999
 20
-3.999999999999842
 30
0.0
 11
68.19870015864267
 21
-3.999999999999774
 31
0.0
  0
LINE
  5
E0
330
DC
100
AcDbEntity
  8
치수문자_일반주서
 62
     0
370
    -2
100
AcDbLine
 10
50.06249999999999
 20
4.000000000000147
 30
0.0
 11
68.19870015864264
 21
4.000000000000215
 31
0.0
  0
LINE
  5
E1
330
DC
100
AcDbEntity
  8
치수문자_일반주서
 62
     0
370
    -2
100
AcDbLine
 10
68.19870015864267
 20
-3.999999999999774
 30
0.0
 11
68.1987001586426
 21
16.72900000000021
 31
0.0
  0
LINE
  5
E2
330
DC
100
AcDbEntity
  8
치수문자_일반주서
 62
     0
370
    -2
100
AcDbLine
 10
68.19870015864267
 20
-3.999999999999774
 30
0.0
 11
68.19870015864264
 21
4.000000000000215
 31
0.0
  0
LINE
  5
E3
330
DC
100
AcDbEntity
  8
치수문자_일반주서
 62
     0
370
    -2
100
AcDbLine
 10
68.19870015864268
 20
-7.301999999999774
 30
0.0
 11
68.1987001586427
 21
-10.60399999999977
 31
0.0
  0
LINE
  5
E4
330
DC
100
AcDbEntity
  8
치수문자_일반주서
 62
     0
370
    -2
100
AcDbLine
 10
68.19870015864262
 20
7.302000000000215
 30
0.0
 11
68.19870015864261
 21
10.60400000000021
 31
0.0
  0
SOLID
  5
E5
330
DC
100
AcDbEntity
  8
치수문자_일반주서
 62
     0
100
AcDbTrace
 10
68.74903349197601
 20
-7.301999999999772
 30
0.0
 11
67.64836682530935
 21
-7.301999999999776
 31
0.0
 12
68.19870015864267
 22
-3.999999999999774
 32
0.0
 13
68.19870015864267
 23
-3.999999999999774
 33
0.0
  0
SOLID
  5
E6
330
DC
100
AcDbEntity
  8
치수문자_일반주서
 62
     0
100
AcDbTrace
 10
67.6483668253093
 20
7.302000000000213
 30
0.0
 11
68.74903349197595
 21
7.302000000000216
 31
0.0
 12
68.19870015864264
 22
4.000000000000215
 32
0.0
 13
68.19870015864264
 23
4.000000000000215
 33
0.0
  0
MTEXT
  5
E7
330
DC
100
AcDbEntity
  8
치수문자_일반주서
 62
     0
100
AcDbMText
 10
63.82370015864261
 20
13.6665000000002
 30
0.0
 40
3.5
 41
0.0
 71
     2
 72
     1
  1
\A1;%%c8
  7
SLDTEXTSTYLE0
 11
-3.552713678800506E-15
 21
1.0
 31
0.0
 73
     1
 44
1.0
  0
POINT
  5
13F
330
DC
100
AcDbEntity
  8
Defpoints
 62
     0
100
AcDbPoint
 10
49.99999999999999
 20
-3.999999999999842
 30
0.0
  0
POINT
  5
140
330
DC
100
AcDbEntity
  8
Defpoints
 62
     0
100
AcDbPoint
 10
49.99999999999999
 20
4.000000000000147
 30
0.0
  0
POINT
  5
141
330
DC
100
AcDbEntity
  8
Defpoints
 62
     0
100
AcDbPoint
 10
68.19870015864264
 20
4.000000000000216
 30
0.0
  0
ENDBLK
  5
DE
330
DC
100
AcDbEntity
  8
0
100
AcDbBlockEnd
  0
BLOCK
  5
EB
330
EA
100
AcDbEntity
  8
0
100
AcDbBlockBegin
  2
_D_1
 70
     0
 10
0.0
 20
0.0
 30
0.0
  3
_D_1
  1

  0
LINE
  5
ED
330
EA
100
AcDbEntity
  8
치수문자_일반주서
 62
     0
370
    -2
100
AcDbLine
 10
-69.99999999999999
 20
3.252499999999996
 30
0.0
 11
-69.99999999999999
 21
24.97841044024269
 31
0.0
  0
LINE
  5
EE
330
EA
100
AcDbEntity
  8
치수문자_일반주서
 62
     0
370
    -2
100
AcDbLine
 10
49.99999999999999
 20
4.062500000000147
 30
0.0
 11
49.99999999999999
 21
24.97841044024269
 31
0.0
  0
LINE
  5
EF
330
EA
100
AcDbEntity
  8
치수문자_일반주서
 62
     0
370
    -2
100
AcDbLine
 10
-66.69799999999998
 20
24.97841044024269
 30
0.0
 11
46.69799999999999
 21
24.97841044024269
 31
0.0
  0
SOLID
  5
F0
330
EA
100
AcDbEntity
  8
치수문자_일반주서
 62
     0
100
AcDbTrace
 10
-66.69799999999998
 20
25.52874377357603
 30
0.0
 11
-66.69799999999998
 21
24.42807710690936
 31
0.0
 12
-69.99999999999999
 22
24.97841044024269
 32
0.0
 13
-69.99999999999999
 23
24.97841044024269
 33
0.0
  0
SOLID
  5
F1
330
EA
100
AcDbEntity
  8
치수문자_일반주서
 62
     0
100
AcDbTrace
 10
46.69799999999999
 20
24.42807710690936
 30
0.0
 11
46.69799999999999
 21
25.52874377357603
 31
0.0
 12
49.99999999999999
 22
24.97841044024269
 32
0.0
 13
49.99999999999999
 23
24.97841044024269
 33
0.0
  0
MTEXT
  5
F2
330
EA
100
AcDbEntity
  8
치수문자_일반주서
 62
     0
100
AcDbMText
 10
-9.999999999999988
 20
29.35341044024269
 30
0.0
 40
3.5
 41
0.0
 71
     2
 72
     1
  1
\A1;120
  7
SLDTEXTSTYLE0
 73
     1
 44
1.0
  0
POINT
  5
136
330
EA
100
AcDbEntity
  8
Defpoints
 62
     0
100
AcDbPoint
 10
-69.99999999999999
 20
3.189999999999996
 30
0.0
  0
POINT
  5
137
330
EA
100
AcDbEntity
  8
Defpoints
 62
     0
100
AcDbPoint
 10
49.99999999999999
 20
4.000000000000147
 30
0.0
  0
POINT
  5
138
330
EA
100
AcDbEntity
  8
Defpoints
 62
     0
100
AcDbPoint
 10
49.99999999999999
 20
24.97841044024269
 30
0.0
  0
ENDBLK
  5
EC
330
EA
100
AcDbEntity
  8
0
100
AcDbBlockEnd
  0
BLOCK
  5
F5
330
F4
100
AcDbEntity
  8
0
100
AcDbBlockBegin
  2
_D_2
 70
     0
 10
0.0
 20
0.0
 30
0.0
  3
_D_2
  1

  0
LINE
  5
F7
330
F4
100
AcDbEntity
  8
치수문자_일반주서
 62
     0
370
    -2
100
AcDbLine
 10
10.0
 20
3.991392686883455
 30
0.0
 11
10.0
 21
17.27589049305128
 31
0.0
  0
LINE
  5
F8
330
F4
100
AcDbEntity
  8
치수문자_일반주서
 62
     0
370
    -2
100
AcDbLine
 10
49.99999999999999
 20
4.062500000000147
 30
0.0
 11
49.99999999999999
 21
17.27589049305128
 31
0.0
  0
LINE
  5
F9
330
F4
100
AcDbEntity
  8
치수문자_일반주서
 62
     0
370
    -2
100
AcDbLine
 10
13.302
 20
17.27589049305128
 30
0.0
 11
46.69799999999999
 21
17.27589049305128
 31
0.0
  0
SOLID
  5
FA
330
F4
100
AcDbEntity
  8
치수문자_일반주서
 62
     0
100
AcDbTrace
 10
13.302
 20
17.82622382638462
 30
0.0
 11
13.302
 21
16.72555715971795
 31
0.0
 12
10.0
 22
17.27589049305128
 32
0.0
 13
10.0
 23
17.27589049305128
 33
0.0
  0
SOLID
  5
FB
330
F4
100
AcDbEntity
  8
치수문자_일반주서
 62
     0
100
AcDbTrace
 10
46.69799999999999
 20
16.72555715971795
 30
0.0
 11
46.69799999999999
 21
17.82622382638462
 31
0.0
 12
49.99999999999999
 22
17.27589049305128
 32
0.0
 13
49.99999999999999
 23
17.27589049305128
 33
0.0
  0
MTEXT
  5
FC
330
F4
100
AcDbEntity
  8
치수문자_일반주서
 62
     0
100
AcDbMText
 10
29.99999999999974
 20
21.65089049305128
 30
0.0
 40
3.5
 41
0.0
 71
     2
 72
     1
  1
\A1;40
  7
SLDTEXTSTYLE0
 73
     1
 44
1.0
  0
POINT
  5
139
330
F4
100
AcDbEntity
  8
Defpoints
 62
     0
100
AcDbPoint
 10
10.0
 20
3.928892686883455
 30
0.0
  0
POINT
  5
13A
330
F4
100
AcDbEntity
  8
Defpoints
 62
     0
100
AcDbPoint
 10
49.99999999999999
 20
4.000000000000147
 30
0.0
  0
POINT
  5
13B
330
F4
100
AcDbEntity
  8
Defpoints
 62
     0
100
AcDbPoint
 10
49.99999999999999
 20
17.27589049305128
 30
0.0
  0
ENDBLK
  5
F6
330
F4
100
AcDbEntity
  8
0
100
AcDbBlockEnd
  0
BLOCK
  5
FF
330
FE
100
AcDbEntity
  8
0
100
AcDbBlockBegin
  2
_D_3
 70
     0
 10
0.0
 20
0.0
 30
0.0
  3
_D_3
  1

  0
LINE
  5
101
330
FE
100
AcDbEntity
  8
치수문자_일반주서
 62
     0
370
    -2
100
AcDbLine
 10
-69.25249999999997
 20
3.999999999999996
 30
0.0
 11
-80.30049590607165
 21
3.999999999999956
 31
0.0
  0
LINE
  5
102
330
FE
100
AcDbEntity
  8
치수문자_일반주서
 62
     0
370
    -2
100
AcDbLine
 10
-69.25249999999997
 20
-3.999999999999998
 30
0.0
 11
-80.30049590607162
 21
-4.000000000000039
 31
0.0
  0
LINE
  5
103
330
FE
100
AcDbEntity
  8
치수문자_일반주서
 62
     0
370
    -2
100
AcDbLine
 10
-80.30049590607165
 20
3.999999999999956
 30
0.0
 11
-80.30049590607169
 21
16.72899999999996
 31
0.0
  0
LINE
  5
104
330
FE
100
AcDbEntity
  8
치수문자_일반주서
 62
     0
370
    -2
100
AcDbLine
 10
-80.30049590607165
 20
3.999999999999956
 30
0.0
 11
-80.30049590607162
 21
-4.000000000000039
 31
0.0
  0
LINE
  5
105
330
FE
100
AcDbEntity
  8
치수문자_일반주서
 62
     0
370
    -2
100
AcDbLine
 10
-80.30049590607166
 20
7.301999999999955
 30
0.0
 11
-80.30049590607167
 21
10.60399999999995
 31
0.0
  0
LINE
  5
106
330
FE
100
AcDbEntity
  8
치수문자_일반주서
 62
     0
370
    -2
100
AcDbLine
 10
-80.3004959060716
 20
-7.302000000000039
 30
0.0
 11
-80.30049590607159
 21
-10.60400000000004
 31
0.0
  0
SOLID
  5
107
330
FE
100
AcDbEntity
  8
치수문자_일반주서
 62
     0
100
AcDbTrace
 10
-80.85082923940499
 20
7.301999999999953
 30
0.0
 11
-79.75016257273833
 21
7.301999999999957
 31
0.0
 12
-80.30049590607165
 22
3.999999999999956
 32
0.0
 13
-80.30049590607165
 23
3.999999999999956
 33
0.0
  0
SOLID
  5
108
330
FE
100
AcDbEntity
  8
치수문자_일반주서
 62
     0
100
AcDbTrace
 10
-79.75016257273828
 20
-7.302000000000037
 30
0.0
 11
-80.85082923940493
 21
-7.30200000000004
 31
0.0
 12
-80.30049590607162
 22
-4.000000000000039
 32
0.0
 13
-80.30049590607162
 23
-4.000000000000039
 33
0.0
  0
MTEXT
  5
109
330
FE
100
AcDbEntity
  8
치수문자_일반주서
 62
     0
100
AcDbMText
 10
-84.67549590607167
 20
13.66649999999994
 30
0.0
 40
3.5
 41
0.0
 71
     2
 72
     1
  1
\A1;%%c8
  7
SLDTEXTSTYLE0
 11
-3.552713678800504E-15
 21
1.0
 31
0.0
 73
     1
 44
1.0
  0
POINT
  5
13C
330
FE
100
AcDbEntity
  8
Defpoints
 62
     0
100
AcDbPoint
 10
-69.18999999999997
 20
3.999999999999996
 30
0.0
  0
POINT
  5
13D
330
FE
100
AcDbEntity
  8
Defpoints
 62
     0
100
AcDbPoint
 10
-69.18999999999997
 20
-3.999999999999997
 30
0.0
  0
POINT
  5
13E
330
FE
100
AcDbEntity
  8
Defpoints
 62
     0
100
AcDbPoint
 10
-80.30049590607162
 20
-4.000000000000039
 30
0.0
  0
ENDBLK
  5
100
330
FE
100
AcDbEntity
  8
0
100
AcDbBlockEnd
  0
BLOCK
  5
10B
330
10A
100
AcDbEntity
  8
0
100
AcDbBlockBegin
  2
SW_DOWELSYMBOL_0
 70
     0
 10
0.0
 20
0.0
 30
0.0
  3
SW_DOWELSYMBOL_0
  1

  0
CIRCLE
  5
10D
330
10A
100
AcDbEntity
  8
외형선
 62
     0
100
AcDbCircle
 10
0.0
 20
0.0
 30
0.0
 40
3.000000000000004
  0
HATCH
  5
10E
330
10A
100
AcDbEntity
  8
0
  6
Continuous
 62
     0
370
    30
100
AcDbHatch
 10
0.0
 20
0.0
 30
0.0
210
0.0
220
0.0
230
1.0
  2
SOLID
 70
     1
 71
     0
 91
        1
 92
        0
 93
        3
 72
     2
 10
0.0000000000000104
 20
0.0
 40
3.000000000000004
 50
0.0
 51
90.0
 73
     1
 72
     1
 10
0.0000000000000104
 20
3.000000000000004
 11
0.0000000000000104
 21
0.0
 72
     1
 10
0.0000000000000104
 20
0.0
 11
3.000000000000015
 21
0.0
 97
        0
 75
     0
 76
     1
 98
        1
 10
0.0
 20
0.0
  0
HATCH
  5
10F
330
10A
100
AcDbEntity
  8
0
  6
Continuous
 62
     0
370
    30
100
AcDbHatch
 10
0.0
 20
0.0
 30
0.0
210
0.0
220
0.0
230
1.0
  2
SOLID
 70
     1
 71
     0
 91
        1
 92
        0
 93
        3
 72
     2
 10
0.0000000000000104
 20
0.0
 40
3.000000000000004
 50
180.0
 51
270.0000000000008
 73
     1
 72
     1
 10
0.0000000000000104
 20
-3.000000000000004
 11
0.0000000000000104
 21
0.0
 72
     1
 10
0.0000000000000104
 20
0.0
 11
-2.999999999999994
 21
0.0
 97
        0
 75
     0
 76
     1
 98
        1
 10
0.0
 20
0.0
  0
ENDBLK
  5
10C
330
10A
100
AcDbEntity
  8
0
100
AcDbBlockEnd
  0
ENDSEC
  0
SECTION
  2
ENTITIES
  0
SPLINE
  5
95
330
1F
100
AcDbEntity
  8
0
  6
Continuous
 62
     1
370
    15
100
AcDbSpline
210
0.0
220
0.0
230
1.0
 70
     8
 71
     3
 72
     9
 73
     5
 74
     0
 42
0.000000001
 43
0.00000001
 40
0.0
 40
0.0
 40
0.0
 40
0.0
 40
0.4371742797380724
 40
1.0
 40
1.0
 40
1.0
 40
1.0
 10
17.87242449410888
 20
1.024832557552652
 30
0.0
 10
17.71043798789687
 20
1.101773874982212
 30
0.0
 10
17.33990725514408
 20
1.277770773691942
 30
0.0
 10
16.96947666449272
 20
1.4711848675443
 30
0.0
 10
16.76098880050233
 20
1.580043294225562
 30
0.0
  0
LINE
  5
96
330
1F
100
AcDbEntity
  8
0
  6
Continuous
 62
     1
370
    15
100
AcDbLine
 10
38.57436294644842
 20
1.555412991721318
 30
0.0
 11
38.52635214594761
 21
1.5801649133604
 31
0.0
  0
SPLINE
  5
97
330
1F
100
AcDbEntity
  8
0
  6
Continuous
 62
     1
370
    15
100
AcDbSpline
210
0.0
220
0.0
230
1.0
 70
     8
 71
     3
 72
     9
 73
     5
 74
     0
 42
0.000000001
 43
0.00000001
 40
0.0
 40
0.0
 40
0.0
 40
0.0
 40
0.5317986595060653
 40
1.0
 40
1.0
 40
1.0
 40
1.0
 10
39.63808184866683
 20
1.024802138355668
 30
0.0
 10
39.44947053880833
 20
1.114534410426052
 30
0.0
 10
39.09480377444741
 20
1.283267953593926
 30
0.0
 10
38.7403286669503
 20
1.468627434355493
 30
0.0
 10
38.57436294644842
 20
1.555412991721318
 30
0.0
  0
LINE
  5
98
330
1F
100
AcDbEntity
  8
0
  6
Continuous
 62
     1
370
    15
100
AcDbLine
 10
30.45915056854991
 20
4.000000000000009
 30
0.0
 11
28.51888615003764
 21
4.000000000000009
 31
0.0
  0
LINE
  5
99
330
1F
100
AcDbEntity
  8
0
  6
Continuous
 62
     1
370
    15
100
AcDbLine
 10
28.51888615003764
 20
-3.999999999999999
 30
0.0
 11
30.45915056854989
 21
-3.999999999999999
 31
0.0
  0
SPLINE
  5
9A
330
1F
100
AcDbEntity
  8
0
  6
Continuous
 62
     1
370
    15
100
AcDbSpline
210
0.0
220
0.0
230
1.0
 70
     8
 71
     3
 72
    23
 73
    19
 74
     0
 42
0.000000001
 43
0.00000001
 40
0.0
 40
0.0
 40
0.0
 40
0.0
 40
0.1153910397226578
 40
0.19589073684708
 40
0.2467060698072923
 40
0.2950809529869454
 40
0.3454812168770455
 40
0.3960763568501317
 40
0.4463771783788593
 40
0.496785284109522
 40
0.5472875224228069
 40
0.596061166245716
 40
0.6424842169082418
 40
0.6886361473141175
 40
0.7354300290004553
 40
0.7910994593089229
 40
0.8790544217256622
 40
1.0
 40
1.0
 40
1.0
 40
1.0
 10
10.56725628643731
 20
-3.325059848543193
 30
0.0
 10
10.79778760257667
 20
-3.303217416125311
 30
0.0
 10
11.18914337416351
 20
-3.266137152431048
 30
0.0
 10
11.68038940321124
 20
-3.228200803674366
 30
0.0
 10
12.03623372436173
 20
-3.204002396485314
 30
0.0
 10
12.33367610438457
 20
-3.185994543983719
 30
0.0
 10
12.63178662375547
 20
-3.17014907883854
 30
0.0
 10
12.93363832364303
 20
-3.156414920447622
 30
0.0
 10
13.23542409540407
 20
-3.144981690432201
 30
0.0
 10
13.53704285413626
 20
-3.135983562448817
 30
0.0
 10
13.83578980521539
 20
-3.129470107719292
 30
0.0
 10
14.12614329819412
 20
-3.12541936153537
 30
0.0
 10
14.40676381714074
 20
-3.123595172645346
 30
0.0
 10
14.68410123626866
 20
-3.123817287552117
 30
0.0
 10
14.98091356196345
 20
-3.126273180695795
 30
0.0
 10
15.36197518855797
 20
-3.132633852093507
 30
0.0
 10
15.88991159447464
 20
-3.146765938565403
 30
0.0
 10
16.30722584494544
 20
-3.166896155162755
 30
0.0
 10
16.54883514465497
 20
-3.178550795591642
 30
0.0
  0
SPLINE
  5
9B
330
1F
100
AcDbEntity
  8
0
  6
Continuous
 62
     1
370
    15
100
AcDbSpline
210
0.0
220
0.0
230
1.0
 70
     8
 71
     3
 72
    10
 73
     6
 74
     0
 42
0.000000001
 43
0.00000001
 40
0.0
 40
0.0
 40
0.0
 40
0.0
 40
0.3780321477192372
 40
0.906568844835568
 40
1.0
 40
1.0
 40
1.0
 40
1.0
 10
38.3143427153251
 20
3.178546248545862
 30
0.0
 10
37.89683721107379
 20
3.160723694348565
 30
0.0
 10
36.89560627083453
 20
3.117982957963724
 30
0.0
 10
35.79191644114484
 20
3.114576221427692
 30
0.0
 10
35.10535320810774
 20
3.14439484916339
 30
0.0
 10
35.00221862370622
 20
3.148874162402087
 30
0.0
  0
SPLINE
  5
9C
330
1F
100
AcDbEntity
  8
0
  6
Continuous
 62
     1
370
    15
100
AcDbSpline
210
0.0
220
0.0
230
1.0
 70
     8
 71
     3
 72
    12
 73
     8
 74
     0
 42
0.000000001
 43
0.00000001
 40
0.0
 40
0.0
 40
0.0
 40
0.0
 40
0.2086097683880695
 40
0.5008960871766287
 40
0.6987608742557054
 40
0.7918845561582145
 40
1.0
 40
1.0
 40
1.0
 40
1.0
 10
32.29809672356494
 20
-3.328570878145197
 30
0.0
 10
32.71657196957043
 20
-3.290152068187887
 30
0.0
 10
33.72137924644967
 20
-3.197904079369832
 30
0.0
 10
35.12206666539893
 20
-3.13210750134778
 30
0.0
 10
36.29220422766554
 20
-3.120489595894128
 30
0.0
 10
37.29226944504368
 20
-3.133004840677002
 30
0.0
 10
37.89673728880209
 20
-3.159938640255406
 30
0.0
 10
38.3143427153251
 20
-3.17854624854585
 30
0.0
  0
SPLINE
  5
9D
330
1F
100
AcDbEntity
  8
0
  6
Continuous
 62
     1
370
    15
100
AcDbSpline
210
0.0
220
0.0
230
1.0
 70
     8
 71
     3
 72
    16
 73
    12
 74
     0
 42
0.000000001
 43
0.00000001
 40
0.0
 40
0.0
 40
0.0
 40
0.0
 40
0.2206568720691078
 40
0.3811246391983111
 40
0.4826896780943375
 40
0.5680618902264578
 40
0.6522629064902534
 40
0.7369585629768701
 40
0.8259427146832189
 40
0.9180805679036242
 40
1.0
 40
1.0
 40
1.0
 40
1.0
 10
16.54883514465497
 20
3.178550795591653
 30
0.0
 10
16.30722584523484
 20
3.166896170245314
 30
0.0
 10
15.88991159526391
 20
3.146765979698955
 30
0.0
 10
15.36197518669989
 20
3.132633755259691
 30
0.0
 10
14.98091356591076
 20
3.126273386411294
 30
0.0
 10
14.68410122402186
 20
3.123816649305929
 30
0.0
 10
14.4067638625715
 20
3.123597540283848
 30
0.0
 10
14.12614312371386
 20
3.125410268441608
 30
0.0
 10
13.83579050346094
 20
3.129506497004812
 30
0.0
 10
13.5480309266286
 20
3.135609632005461
 30
0.0
 10
13.35773214925633
 20
3.141593565870703
 30
0.0
 10
13.26816871763899
 20
3.14440988271174
 30
0.0
  0
SPLINE
  5
9E
330
1F
100
AcDbEntity
  8
0
  6
Continuous
 62
     1
370
    15
100
AcDbSpline
210
0.0
220
0.0
230
1.0
 70
     8
 71
     3
 72
    13
 73
     9
 74
     0
 42
0.000000001
 43
0.00000001
 40
0.0
 40
0.0
 40
0.0
 40
0.0
 40
0.2208662954746563
 40
0.3645390808094736
 40
0.5093896937377667
 40
0.6784753905443636
 40
0.8522335321429121
 40
1.0
 40
1.0
 40
1.0
 40
1.0
 10
41.52653757396411
 20
-3.008510644195709
 30
0.0
 10
41.74315362976984
 20
-2.975409540812019
 30
0.0
 10
42.10067770424346
 20
-2.92077628056134
 30
0.0
 10
42.61268709659656
 20
-2.854427693234413
 30
0.0
 10
43.07182012838229
 20
-2.80062531664911
 30
0.0
 10
43.55600388574732
 20
-2.751452839564287
 30
0.0
 10
44.04433289685771
 20
-2.709929251674716
 30
0.0
 10
44.36418389333269
 20
-2.69001066081704
 30
0.0
 10
44.51118120115835
 20
-2.680856463193682
 30
0.0
  0
SPLINE
  5
9F
330
1F
100
AcDbEntity
  8
0
  6
Continuous
 62
     1
370
    15
100
AcDbSpline
210
0.0
220
0.0
230
1.0
 70
     8
 71
     3
 72
    22
 73
    18
 74
     0
 42
0.000000001
 43
0.00000001
 40
0.0
 40
0.0
 40
0.0
 40
0.0
 40
0.0863198979369046
 40
0.1468080820114386
 40
0.1874505992954196
 40
0.22922727090508
 40
0.2736982771824298
 40
0.3732543945954178
 40
0.4811035295650561
 40
0.5930722313651656
 40
0.6898504199896427
 40
0.7395826005086155
 40
0.7874878668597962
 40
0.8202032242580144
 40
0.8666609346691329
 40
0.9267388894042723
 40
1.0
 40
1.0
 40
1.0
 40
1.0
 10
26.74737759256242
 20
2.735806430237539
 30
0.0
 10
26.54658194902969
 20
2.719661143051348
 30
0.0
 10
26.20507988510418
 20
2.692202136472575
 30
0.0
 10
25.76914135242466
 20
2.667737605226939
 30
0.0
 10
25.43496859284124
 20
2.652816478653634
 30
0.0
 10
25.13894200028678
 20
2.642762325082368
 30
0.0
 10
24.70641287912712
 20
2.632760585959938
 30
0.0
 10
24.11978564685688
 20
2.630179740447848
 30
0.0
 10
23.37601288808337
 20
2.646598313597754
 30
0.0
 10
22.63912688954226
 20
2.683777367128796
 30
0.0
 10
22.03665822798682
 20
2.729488155875875
 30
0.0
 10
21.5839927860614
 20
2.772101478124148
 30
0.0
 10
21.28419283762647
 20
2.803832237635012
 30
0.0
 10
20.98966058110318
 20
2.83753878079892
 30
0.0
 10
20.66506008006034
 20
2.877671043129814
 30
0.0
 10
20.24492053881809
 20
2.934145689930623
 30
0.0
 10
19.93261218454354
 20
2.982133050181848
 30
0.0
 10
19.76101913470698
 20
3.008498971510593
 30
0.0
  0
SPLINE
  5
A0
330
1F
100
AcDbEntity
  8
0
  6
Continuous
 62
     1
370
    15
100
AcDbSpline
210
0.0
220
0.0
230
1.0
 70
     8
 71
     3
 72
    16
 73
    12
 74
     0
 42
0.000000001
 43
0.00000001
 40
0.0
 40
0.0
 40
0.0
 40
0.0
 40
0.1719911577105686
 40
0.3130329314941942
 40
0.4827137160154087
 40
0.5829878289119677
 40
0.6837667897221527
 40
0.7864995435144994
 40
0.8855456511579899
 40
0.9847628032269935
 40
1.0
 40
1.0
 40
1.0
 40
1.0
 10
19.76101913470698
 20
-3.008498971510583
 30
0.0
 10
19.93262008900877
 20
-2.982134747164084
 30
0.0
 10
20.24494282982482
 20
-2.934150475509589
 30
0.0
 10
20.72531653601776
 20
-2.869544682213158
 30
0.0
 10
21.13353532131407
 20
-2.820268503926149
 30
0.0
 10
21.4966282418885
 20
-2.78115898860013
 30
0.0
 10
21.79691460933734
 20
-2.75172156315556
 30
0.0
 10
22.09735558408291
 20
-2.725485296189636
 30
0.0
 10
22.39599521379591
 20
-2.702881488771193
 30
0.0
 10
22.60792048008818
 20
-2.688156793210223
 30
0.0
 10
22.72144898165092
 20
-2.681971970807772
 30
0.0
 10
22.73656292127103
 20
-2.68114859138265
 30
0.0
  0
SPLINE
  5
A1
330
1F
100
AcDbEntity
  8
0
  6
Continuous
 62
     1
370
    15
100
AcDbSpline
210
0.0
220
0.0
230
1.0
 70
     8
 71
     3
 72
    21
 73
    17
 74
     0
 42
0.000000001
 43
0.00000001
 40
0.0
 40
0.0
 40
0.0
 40
0.0
 40
0.0903132011649052
 40
0.1499774385192593
 40
0.1998586456234235
 40
0.2578097500276082
 40
0.320113969557657
 40
0.3845831038099137
 40
0.4467966775049112
 40
0.5042382967309963
 40
0.6215073122492055
 40
0.729475243645098
 40
0.7655638168073122
 40
0.8147261846839585
 40
0.8931543926782535
 40
1.0
 40
1.0
 40
1.0
 40
1.0
 10
48.5348859996644
 20
2.737681838136083
 30
0.0
 10
48.32524485391402
 20
2.720682685324713
 30
0.0
 10
47.97710702198761
 20
2.692453264124242
 30
0.0
 10
47.50802761439409
 20
2.666228504535924
 30
0.0
 10
47.11238020337835
 20
2.64913056965664
 30
0.0
 10
46.7149157229527
 20
2.63747528338009
 30
0.0
 10
46.28387712627941
 20
2.631481306365424
 30
0.0
 10
45.84274261232976
 20
2.632597434386535
 30
0.0
 10
45.41158939617804
 20
2.640666787399126
 30
0.0
 10
44.84870571082291
 20
2.659848360389692
 30
0.0
 10
44.19902407577058
 20
2.69706066990126
 30
0.0
 10
43.58959833978766
 20
2.748119929124536
 30
0.0
 10
43.13874770764188
 20
2.794129496991178
 30
0.0
 10
42.75713969419554
 20
2.836798432014922
 30
0.0
 10
42.20987952066182
 20
2.904957209023591
 30
0.0
 10
41.77647674145957
 20
2.970634937160184
 30
0.0
 10
41.52653757396412
 20
3.008510644195723
 30
0.0
  0
LINE
  5
A2
330
1F
100
AcDbEntity
  8
0
  6
Continuous
 62
   131
370
    15
100
AcDbLine
 10
8.691029261094636
 20
4.000000000000005
 30
0.0
 11
-69.18999999999997
 21
4.0
 31
0.0
  0
LINE
  5
A3
330
1F
100
AcDbEntity
  8
0
  6
Continuous
 62
   131
370
    15
100
AcDbLine
 10
-69.18999999999997
 20
-4.0
 30
0.0
 11
8.691029261094657
 21
-3.999999999999996
 31
0.0
  0
LINE
  5
A4
330
1F
100
AcDbEntity
  8
0
  6
Continuous
 62
   131
370
    15
100
AcDbLine
 10
-69.18999999999997
 20
3.999999999999996
 30
0.0
 11
-69.99999999999999
 21
3.189999999999996
 31
0.0
  0
LINE
  5
A5
330
1F
100
AcDbEntity
  8
0
  6
Continuous
 62
   131
370
    15
100
AcDbLine
 10
-69.99999999999999
 20
-3.189999999999996
 30
0.0
 11
-69.18999999999997
 21
-3.999999999999997
 31
0.0
  0
SPLINE
  5
A6
330
1F
100
AcDbEntity
  8
0
  6
Continuous
 62
     1
370
    15
100
AcDbSpline
210
0.0
220
0.0
230
1.0
 70
     8
 71
     3
 72
    23
 73
    19
 74
     0
 42
0.000000001
 43
0.00000001
 40
0.0
 40
0.0
 40
0.0
 40
0.0
 40
0.067809515210279
 40
0.1361806906733425
 40
0.1983163794475398
 40
0.2608825661518061
 40
0.3229473730054129
 40
0.385443766220383
 40
0.4475081227358615
 40
0.510000916733131
 40
0.5720654403682482
 40
0.6345600376934092
 40
0.6966244847529162
 40
0.7591190478314601
 40
0.8211834979670305
 40
0.8836763575359075
 40
0.9457409532613739
 40
1.0
 40
1.0
 40
1.0
 40
1.0
 10
10.0
 20
3.568705967904258
 30
0.0
 10
10.4187387743818
 20
3.44836327288226
 30
0.0
 10
11.25968469959876
 20
3.20668109487573
 30
0.0
 10
12.48391549658653
 20
2.720862893198507
 30
0.0
 10
13.67521177984863
 20
2.174243363208801
 30
0.0
 10
14.82844277866653
 20
1.584431073386434
 30
0.0
 10
15.98382258574241
 20
0.9501968952009981
 30
0.0
 10
17.13536175497261
 20
0.2899173836693275
 30
0.0
 10
18.2900385415366
 20
-0.378938803749309
 30
0.0
 10
19.44259109315677
 20
-1.034957733472287
 30
0.0
 10
20.59677496495226
 20
-1.665514268278508
 30
0.0
 10
21.74857919119432
 20
-2.2481118232265
 30
0.0
 10
22.90392507915897
 20
-2.768676888938199
 30
0.0
 10
24.05558609049224
 20
-3.212853826305614
 30
0.0
 10
25.20985057239719
 20
-3.569562599289454
 30
0.0
 10
26.36254670789894
 20
-3.823307156127342
 30
0.0
 10
27.4661260307645
 20
-3.976240945270801
 30
0.0
 10
28.18402356355139
 20
-3.988088788211931
 30
0.0
 10
28.51888615003764
 20
-3.993615202707533
 30
0.0
  0
SPLINE
  5
A7
330
1F
100
AcDbEntity
  8
0
  6
Continuous
 62
     1
370
    15
100
AcDbSpline
210
0.0
220
0.0
230
1.0
 70
     8
 71
     3
 72
    12
 73
     8
 74
     0
 42
0.000000001
 43
0.00000001
 40
0.0
 40
0.0
 40
0.0
 40
0.0
 40
0.0671673804018163
 40
0.2955204137429278
 40
0.5257589361445452
 40
0.7618428742182719
 40
1.0
 40
1.0
 40
1.0
 40
1.0
 10
44.51587753583624
 20
2.682921211982852
 30
0.0
 10
44.63861469586454
 20
2.737740445104254
 30
0.0
 10
45.17862885297789
 20
2.978931963311336
 30
0.0
 10
46.14012534477418
 20
3.319751979776787
 30
0.0
 10
47.40964847988952
 20
3.680827521171552
 30
0.0
 10
48.69736319978788
 20
3.92455607930806
 30
0.0
 10
49.56452410914449
 20
3.972528295421058
 30
0.0
 10
49.99999999999999
 20
4.000000000000147
 30
0.0
  0
SPLINE
  5
A8
330
1F
100
AcDbEntity
  8
0
  6
Continuous
 62
     1
370
    15
100
AcDbSpline
210
0.0
220
0.0
230
1.0
 70
    24
 71
     3
 72
    10
 73
     6
 74
     0
 42
0.000000001
 43
0.00000001
 40
0.0
 40
0.0
 40
0.0
 40
0.0
 40
0.5
 40
0.5
 40
1.0
 40
1.0
 40
1.0
 40
1.0
 10
50.00000000000001
 20
2.80000000000001
 30
0.0
 10
49.99999999999999
 20
2.969729027229264
 30
0.0
 10
50.00000000000001
 20
3.166969875468479
 30
0.0
 10
49.99999999999999
 20
3.580780643843432
 30
0.0
 10
50.00000000000001
 20
3.796293743205902
 30
0.0
 10
49.99999999999999
 20
4.000000000000147
 30
0.0
  0
LINE
  5
A9
330
1F
100
AcDbEntity
  8
0
  6
Continuous
 62
     1
370
    15
100
AcDbLine
 10
50.00000000000001
 20
2.800000000000011
 30
0.0
 11
48.53242179762579
 21
2.726328990145134
 31
0.0
  0
SPLINE
  5
AA
330
1F
100
AcDbEntity
  8
0
  6
Continuous
 62
     1
370
    15
100
AcDbSpline
210
0.0
220
0.0
230
1.0
 70
     8
 71
     3
 72
    12
 73
     8
 74
     0
 42
0.000000001
 43
0.00000001
 40
0.0
 40
0.0
 40
0.0
 40
0.0
 40
0.1394536428962188
 40
0.3482682703307914
 40
0.5570799532525554
 40
0.7785617749879546
 40
1.0
 40
1.0
 40
1.0
 40
1.0
 10
18.28549621294457
 20
-0.3743895028469456
 30
0.0
 10
17.90035438305047
 20
-0.2199809773241952
 30
0.0
 10
16.93851017343685
 20
0.1656352675533651
 30
0.0
 10
15.39996465962655
 20
0.7872557835756255
 30
0.0
 10
13.63491810298486
 20
1.444498908733997
 30
0.0
 10
11.83484709080061
 20
2.032365496804482
 30
0.0
 10
10.61157556129969
 20
2.306794730942535
 30
0.0
 10
10.0
 20
2.443995841944848
 30
0.0
  0
SPLINE
  5
AB
330
1F
100
AcDbEntity
  8
0
  6
Continuous
 62
   131
370
    15
100
AcDbSpline
210
0.0
220
0.0
230
1.0
 70
    24
 71
     3
 72
    10
 73
     6
 74
     0
 42
0.000000001
 43
0.00000001
 40
0.0
 40
0.0
 40
0.0
 40
0.0
 40
0.5
 40
0.5
 40
1.0
 40
1.0
 40
1.0
 40
1.0
 10
10.0
 20
3.568705967904254
 30
0.0
 10
10.0
 20
3.418863464960593
 30
0.0
 10
10.0
 20
3.236684626676434
 30
0.0
 10
10.0
 20
2.846659744924174
 30
0.0
 10
10.0
 20
2.639963307800263
 30
0.0
 10
10.0
 20
2.443995841944847
 30
0.0
  0
SPLINE
  5
AC
330
1F
100
AcDbEntity
  8
0
  6
Continuous
 62
     1
370
    15
100
AcDbSpline
210
0.0
220
0.0
230
1.0
 70
     8
 71
     3
 72
    31
 73
    27
 74
     0
 42
0.000000001
 43
0.00000001
 40
0.0
 40
0.0
 40
0.0
 40
0.0
 40
0.0059377541228577
 40
0.048391799485063
 40
0.090553658879524
 40
0.133006547007034
 40
0.1751685053041795
 40
0.2176232387014169
 40
0.259784998716678
 40
0.3022382042365793
 40
0.3444000995035006
 40
0.3868535592694572
 40
0.4290156296205152
 40
0.4714707524129078
 40
0.5136325592790941
 40
0.556085373933366
 40
0.5982472868853338
 40
0.6407014673102567
 40
0.6830089275884512
 40
0.7253166430912774
 40
0.768829869369927
 40
0.8123426266371105
 40
0.8582802681131342
 40
0.9045972122820154
 40
0.9520900751829351
 40
1.0
 40
1.0
 40
1.0
 40
1.0
 10
22.73918096086058
 20
2.682324015141238
 30
0.0
 10
22.79315494256676
 20
2.70674213940896
 30
0.0
 10
23.23303474326128
 20
2.905746164990987
 30
0.0
 10
24.05556577381548
 20
3.208745926466596
 30
0.0
 10
25.20985893658081
 20
3.57022097505795
 30
0.0
 10
26.36253360920202
 20
3.824813714936515
 30
0.0
 10
27.51700221000052
 20
3.97664243907632
 30
0.0
 10
28.66855788191095
 20
4.017538793628441
 30
0.0
 10
29.82373580365748
 20
3.947530445243582
 30
0.0
 10
30.97579803746456
 20
3.768763050117308
 30
0.0
 10
32.12994712834312
 20
3.484741653597764
 30
0.0
 10
33.28217727562957
 20
3.105607004049486
 30
0.0
 10
34.4372172528338
 20
2.640072775063584
 30
0.0
 10
35.58875885354001
 20
2.101491999780137
 30
0.0
 10
36.74334466192757
 20
1.504014550726674
 30
0.0
 10
37.89597751033968
 20
0.8675665998015823
 30
0.0
 10
39.05011528849526
 20
0.203776895847383
 30
0.0
 10
40.20345538654724
 20
-0.4641211545091278
 30
0.0
 10
41.35779623742422
 20
-1.120275635989004
 30
0.0
 10
42.52251061766506
 20
-1.749632295628015
 30
0.0
 10
43.69856565129486
 20
-2.334409546501533
 30
0.0
 10
44.90590980164411
 20
-2.868714664689076
 30
0.0
 10
46.14012264481194
 20
-3.323493357340536
 30
0.0
 10
47.40964922267001
 20
-3.67979823924588
 30
0.0
 10
48.69736301023526
 20
-3.924818745183284
 30
0.0
 10
49.5645240457764
 20
-3.97261610551208
 30
0.0
 10
49.99999999999983
 20
-3.999999999999842
 30
0.0
  0
SPLINE
  5
AD
330
1F
100
AcDbEntity
  8
0
  6
Continuous
 62
     1
370
    15
100
AcDbSpline
210
0.0
220
0.0
230
1.0
 70
     8
 71
     3
 72
    16
 73
    12
 74
     0
 42
0.000000001
 43
0.00000001
 40
0.0
 40
0.0
 40
0.0
 40
0.0
 40
0.0318478487287775
 40
0.1618898550686305
 40
0.2919348226586982
 40
0.4219823850087543
 40
0.5520321748067512
 40
0.6820838240346044
 40
0.8121369640844549
 40
0.9421912258753272
 40
1.0
 40
1.0
 40
1.0
 40
1.0
 10
40.04510811182492
 20
-0.3707503998555298
 30
0.0
 10
39.90388338308132
 20
-0.315083815969023
 30
0.0
 10
39.18600598222095
 20
-0.0321179153740072
 30
0.0
 10
37.8914581469402
 20
0.4997739457987869
 30
0.0
 10
36.1614535522866
 20
1.170591366699608
 30
0.0
 10
34.43141049754705
 20
1.771384964734935
 30
0.0
 10
32.70133485769904
 20
2.260967545688982
 30
0.0
 10
30.97123191702239
 20
2.613083422074702
 30
0.0
 10
29.24110706138455
 20
2.793347390885457
 30
0.0
 10
27.83133555337778
 20
2.828612419513805
 30
0.0
 10
26.99827275227972
 20
2.741181841377164
 30
0.0
 10
26.74192461510815
 20
2.714277908315193
 30
0.0
  0
SPLINE
  5
AE
330
1F
100
AcDbEntity
  8
0
  6
Continuous
 62
     1
370
    15
100
AcDbSpline
210
0.0
220
0.0
230
1.0
 70
     8
 71
     3
 72
    22
 73
    18
 74
     0
 42
0.000000001
 43
0.00000001
 40
0.0
 40
0.0
 40
0.0
 40
0.0
 40
0.0225599597760599
 40
0.0917771863548064
 40
0.1609953227986153
 40
0.2302141886967433
 40
0.2994336034111578
 40
0.3686533861327497
 40
0.437873355937659
 40
0.5070933318436812
 40
0.5763131328667079
 40
0.6455325780771728
 40
0.7164332546233831
 40
0.7873313053674423
 40
0.858225758212857
 40
0.9291156445143098
 40
0.9999999999999999
 40
0.9999999999999999
 40
0.9999999999999999
 40
0.9999999999999999
 10
34.99527022497176
 20
-3.151446462529879
 30
0.0
 10
34.80730921960397
 20
-3.223397638827173
 30
0.0
 10
34.04265660548974
 20
-3.516105453071231
 30
0.0
 10
32.70129905313022
 20
-3.82334008221607
 30
0.0
 10
30.97119256158338
 20
-4.033001097675967
 30
0.0
 10
29.24106379476682
 20
-3.978952749691641
 30
0.0
 10
27.51091863210584
 20
-3.681718509210934
 30
0.0
 10
25.78076258017927
 20
-3.155132023212144
 30
0.0
 10
24.05060026536191
 20
-2.433092560821652
 30
0.0
 10
22.32044022913606
 20
-1.560050169118244
 30
0.0
 10
20.5902762436795
 20
-0.590281858921
 30
0.0
 10
18.84614547136002
 20
0.4243502995897648
 30
0.0
 10
17.0879032823451
 20
1.420204715134919
 30
0.0
 10
15.31575504230291
 20
2.332907697483123
 30
0.0
 10
13.5437052670743
 20
3.088894063551007
 30
0.0
 10
11.7717927556338
 20
3.662260576577508
 30
0.0
 10
10.59058222497208
 20
3.840017628300586
 30
0.0
 10
9.999999999996582
 20
3.928892686883826
 30
0.0
  0
SPLINE
  5
AF
330
1F
100
AcDbEntity
  8
0
  6
Continuous
 62
     1
370
    15
100
AcDbSpline
210
0.0
220
0.0
230
1.0
 70
     8
 71
     3
 72
    16
 73
    12
 74
     0
 42
0.000000001
 43
0.00000001
 40
0.0
 40
0.0
 40
0.0
 40
0.0
 40
0.0922018862437048
 40
0.2119036398593514
 40
0.3316063850326966
 40
0.4513097950939376
 40
0.5710135431638874
 40
0.6907173022568955
 40
0.8104207453838392
 40
0.930123545655119
 40
1.0
 40
1.0
 40
1.0
 40
1.0
 10
32.30385173073834
 20
-3.309593891420285
 30
0.0
 10
31.85963395074072
 20
-3.349705078544117
 30
0.0
 10
30.83870728311339
 20
-3.44189089921327
 30
0.0
 10
29.24106343230658
 20
-3.336140119676046
 30
0.0
 10
27.5109184688113
 20
-3.039298744408792
 30
0.0
 10
25.7807623607539
 20
-2.547280498631091
 30
0.0
 10
24.05060067847012
 20
-1.899220345148691
 30
0.0
 10
22.32043877565382
 20
-1.132125561461683
 30
0.0
 10
20.59028223141472
 20
-0.2977361711122619
 30
0.0
 10
19.10018955182778
 20
0.4458307541028494
 30
0.0
 10
18.18681744557427
 20
0.8706140662671568
 30
0.0
 10
17.85016033395236
 20
1.027183685548623
 30
0.0
  0
SPLINE
  5
B0
330
1F
100
AcDbEntity
  8
0
  6
Continuous
 62
     1
370
    15
100
AcDbSpline
210
0.0
220
0.0
230
1.0
 70
     8
 71
     3
 72
    19
 73
    15
 74
     0
 42
0.000000001
 43
0.00000001
 40
0.0
 40
0.0
 40
0.0
 40
0.0
 40
0.0885142871516933
 40
0.177031790144952
 40
0.2655522840223948
 40
0.3540755429032654
 40
0.4426013400518821
 40
0.5311294479466574
 40
0.6196596383496387
 40
0.7081916823765279
 40
0.7967253505671281
 40
0.8852604129561816
 40
0.9737966391445385
 40
0.9999999999999999
 40
0.9999999999999999
 40
0.9999999999999999
 40
0.9999999999999999
 10
50.00000000000001
 20
-3.795763476927592
 30
0.0
 10
49.42346961316559
 20
-3.667859474509564
 30
0.0
 10
48.27038789338241
 20
-3.412046822751293
 30
0.0
 10
46.54071922755956
 20
-2.753643435089734
 30
0.0
 10
44.81098142197019
 20
-1.941349905434509
 30
0.0
 10
43.08117854690625
 20
-1.004117724454215
 30
0.0
 10
41.3513162418554
 20
-0.00578434076362
 30
0.0
 10
39.62139974864564
 20
0.9931492741124106
 30
0.0
 10
37.89143444520113
 20
1.930756780100027
 30
0.0
 10
36.16142566731245
 20
2.74732245369069
 30
0.0
 10
34.43137887756308
 20
3.398384128130259
 30
0.0
 10
32.70129915756394
 20
3.820344168118401
 30
0.0
 10
31.37721962087852
 20
4.014219753618625
 30
0.0
 10
30.6298330682915
 20
3.981530909396435
 30
0.0
 10
30.45915056854991
 20
3.974065677882444
 30
0.0
  0
SPLINE
  5
B1
330
1F
100
AcDbEntity
  8
0
  6
Continuous
 62
     1
370
    15
100
AcDbSpline
210
0.0
220
0.0
230
1.0
 70
     8
 71
     3
 72
     9
 73
     5
 74
     0
 42
0.000000001
 43
0.00000001
 40
0.0
 40
0.0
 40
0.0
 40
0.0
 40
0.4578721580860384
 40
1.0
 40
1.0
 40
1.0
 40
1.0
 10
13.26816871763899
 20
-3.14440988271173
 30
0.0
 10
12.76936156971681
 20
-3.315130104930773
 30
0.0
 10
11.67995890761294
 20
-3.687985757330942
 30
0.0
 10
10.59058170946098
 20
-3.84420298070581
 30
0.0
 10
9.999999999996582
 20
-3.928892686883817
 30
0.0
  0
SPLINE
  5
B2
330
1F
100
AcDbEntity
  8
0
  6
Continuous
 62
   131
370
    15
100
AcDbSpline
210
0.0
220
0.0
230
1.0
 70
    24
 71
     3
 72
     8
 73
     4
 74
     0
 42
0.000000001
 43
0.00000001
 40
0.0
 40
0.0
 40
0.0
 40
0.0
 40
1.0
 40
1.0
 40
1.0
 40
1.0
 10
10.00000000000009
 20
-3.371955260093234
 30
0.0
 10
10.00000000000009
 20
-3.564978870988183
 30
0.0
 10
10.00000000000009
 20
-3.751850568906542
 30
0.0
 10
10.00000000000009
 20
-3.928892686876998
 30
0.0
  0
SPLINE
  5
B3
330
1F
100
AcDbEntity
  8
0
  6
Continuous
 62
     1
370
    15
100
AcDbSpline
210
0.0
220
0.0
230
1.0
 70
     8
 71
     3
 72
    13
 73
     9
 74
     0
 42
0.000000001
 43
0.00000001
 40
0.0
 40
0.0
 40
0.0
 40
0.0
 40
0.166786152103178
 40
0.3335786344297236
 40
0.5003770042448547
 40
0.6671808169780321
 40
0.8339896263590312
 40
1.0
 40
1.0
 40
1.0
 40
1.0
 10
50.00000000000001
 20
-3.155889057472856
 30
0.0
 10
49.42346941300483
 20
-3.031569305308393
 30
0.0
 10
48.27038635729741
 20
-2.78292508253138
 30
0.0
 10
46.54071795240372
 20
-2.185007490148343
 30
0.0
 10
44.81098022546043
 20
-1.465289654529387
 30
0.0
 10
43.08117736446171
 20
-0.6521558141114786
 30
0.0
 10
41.35409125669587
 20
0.2036761989728552
 30
0.0
 10
40.20360321875105
 20
0.7540617235915015
 30
0.0
 10
39.62973921453565
 20
1.028594296380406
 30
0.0
  0
LINE
  5
B4
330
1F
100
AcDbEntity
  8
0
  6
Continuous
 62
     1
370
    15
100
AcDbLine
 10
10.57388278957085
 20
-3.299500701960262
 30
0.0
 11
10.00000000000011
 21
-3.371955260093232
 31
0.0
  0
LINE
  5
B5
330
1F
100
AcDbEntity
  8
0
  6
Continuous
 62
     1
370
    15
100
AcDbLine
 10
50.00000000000001
 20
-3.795763476927595
 30
0.0
 11
50.00000000000001
 21
-3.155889057472856
 31
0.0
  0
LINE
  5
B6
330
1F
100
AcDbEntity
  8
0
  6
Continuous
 62
     1
370
    15
100
AcDbLine
 10
49.99999999999983
 20
-3.999999999999842
 30
0.0
 11
49.99999999999999
 21
-3.795763476927599
 31
0.0
  0
LINE
  5
B7
330
1F
100
AcDbEntity
  8
0
  6
Continuous
 62
   131
370
    15
100
AcDbLine
 10
10.0
 20
3.568705967904254
 30
0.0
 11
10.0
 21
3.928892686866902
 31
0.0
  0
SPLINE
  5
B8
330
1F
100
AcDbEntity
  8
0
  6
Continuous
 62
     1
370
    15
100
AcDbSpline
210
0.0
220
0.0
230
1.0
 70
     8
 71
     3
 72
     8
 73
     4
 74
     0
 42
0.000000001
 43
0.00000001
 40
0.0
 40
0.0
 40
0.0
 40
0.0
 40
1.0
 40
1.0
 40
1.0
 40
1.0
 10
47.52471855126646
 20
1.119153604316241
 30
0.0
 10
47.34554341134241
 20
1.331446846975075
 30
0.0
 10
47.19000160100912
 20
1.534373798641812
 30
0.0
 10
47.0672227005149
 20
1.723135374418817
 30
0.0
  0
LINE
  5
B9
330
1F
100
AcDbEntity
  8
0
  6
Continuous
 62
     1
370
    15
100
AcDbLine
 10
47.0672227005149
 20
1.723135374418818
 30
0.0
 11
50.00000000000001
 21
0.0000000000000098
 31
0.0
  0
LINE
  5
BA
330
1F
100
AcDbEntity
  8
0
  6
Continuous
 62
     1
370
    15
100
AcDbLine
 10
50.00000000000001
 20
0.0000000000000098
 30
0.0
 11
50.00000000000001
 21
-1.06897178411857
 31
0.0
  0
SPLINE
  5
BB
330
1F
100
AcDbEntity
  8
0
  6
Continuous
 62
     1
370
    15
100
AcDbSpline
210
0.0
220
0.0
230
1.0
 70
     8
 71
     3
 72
    10
 73
     6
 74
     0
 42
0.000000001
 43
0.00000001
 40
0.0
 40
0.0
 40
0.0
 40
0.0
 40
0.5
 40
0.5
 40
1.0
 40
1.0
 40
1.0
 40
1.0
 10
50.00000000000001
 20
-1.068971784118574
 30
0.0
 10
49.57151703976395
 20
-0.732111080404268
 30
0.0
 10
49.15019312186347
 20
-0.3814365541690239
 30
0.0
 10
48.32222625633987
 20
0.3482403539476162
 30
0.0
 10
47.91171971059742
 20
0.7310712194881251
 30
0.0
 10
47.52471855126642
 20
1.11915360431626
 30
0.0
  0
SPLINE
  5
BC
330
1F
100
AcDbEntity
  8
0
  6
Continuous
 62
   131
370
    15
100
AcDbSpline
210
0.0
220
0.0
230
1.0
 70
    24
 71
     3
 72
    14
 73
    10
 74
     0
 42
0.000000001
 43
0.00000001
 40
0.0
 40
0.0
 40
0.0
 40
0.0
 40
0.2499999999999998
 40
0.2499999999999998
 40
0.4999999999999999
 40
0.4999999999999999
 40
0.75
 40
0.75
 40
1.0
 40
1.0
 40
1.0
 40
1.0
 10
10.0
 20
-1.561531147928562
 30
0.0
 10
10.0
 20
-1.811593060231264
 30
0.0
 10
10.0
 20
-2.048382537833037
 30
0.0
 10
10.0
 20
-2.474983287110937
 30
0.0
 10
10.0
 20
-2.664628883054983
 30
0.0
 10
10.0
 20
-2.981045352210849
 30
0.0
 10
10.0
 20
-3.107724853951547
 30
0.0
 10
10.0
 20
-3.291327379458017
 30
0.0
 10
10.0
 20
-3.348276074446207
 30
0.0
 10
10.0
 20
-3.371955260093237
 30
0.0
  0
SPLINE
  5
BD
330
1F
100
AcDbEntity
  8
0
  6
Continuous
 62
     1
370
    15
100
AcDbSpline
210
0.0
220
0.0
230
1.0
 70
     8
 71
     3
 72
    13
 73
     9
 74
     0
 42
0.000000001
 43
0.00000001
 40
0.0
 40
0.0
 40
0.0
 40
0.0
 40
0.1472561344110559
 40
0.2946188811575713
 40
0.4823808059651518
 40
0.6701484333203841
 40
0.857921252178892
 40
0.9999999999999999
 40
0.9999999999999999
 40
0.9999999999999999
 40
0.9999999999999999
 10
47.52471855126642
 20
1.119153604316259
 30
0.0
 10
47.07262595974751
 20
1.310758429605051
 30
0.0
 10
46.16811346506851
 20
1.694106800637242
 30
0.0
 10
44.68700722596663
 20
2.237860080366641
 30
0.0
 10
43.08117112451341
 20
2.719960518699763
 30
0.0
 10
41.35133490560287
 20
3.062754401813991
 30
0.0
 10
39.76175424282111
 20
3.225666692681416
 30
0.0
 10
38.74879795661193
 20
3.179841261570437
 30
0.0
 10
38.31248182147618
 20
3.160102625989134
 30
0.0
  0
SPLINE
  5
BE
330
1F
100
AcDbEntity
  8
0
  6
Continuous
 62
     1
370
    15
100
AcDbSpline
210
0.0
220
0.0
230
1.0
 70
     8
 71
     3
 72
    13
 73
     9
 74
     0
 42
0.000000001
 43
0.00000001
 40
0.0
 40
0.0
 40
0.0
 40
0.0
 40
0.0933958481895155
 40
0.2704313471132817
 40
0.4474649033089461
 40
0.6244960280083798
 40
0.8122660123066906
 40
1.0
 40
1.0
 40
1.0
 40
1.0
 10
19.7729246334219
 20
-2.983134440705667
 30
0.0
 10
19.46867861527316
 20
-3.035273429260755
 30
0.0
 10
18.5877223186414
 20
-3.186243918692627
 30
0.0
 10
17.13006694421146
 20
-3.225862447544376
 30
0.0
 10
15.39995064473502
 20
-3.107941259326735
 30
0.0
 10
13.63492154580699
 20
-2.779563825912244
 30
0.0
 10
11.83483355249045
 20
-2.269641882390458
 30
0.0
 10
10.61157209601995
 20
-1.797552974268769
 30
0.0
 10
10.0
 20
-1.561531147928561
 30
0.0
  0
SPLINE
  5
BF
330
1F
100
AcDbEntity
  8
0
  6
Continuous
 62
     1
370
    15
100
AcDbSpline
210
0.0
220
0.0
230
1.0
 70
    24
 71
     3
 72
    10
 73
     6
 74
     0
 42
0.000000001
 43
0.00000001
 40
0.0
 40
0.0
 40
0.0
 40
0.0
 40
0.5
 40
0.5
 40
1.0
 40
1.0
 40
1.0
 40
1.0
 10
50.00000000000001
 20
-3.155889057472854
 30
0.0
 10
49.99999999999999
 20
-2.91396555601521
 30
0.0
 10
50.00000000000001
 20
-2.608285935625867
 30
0.0
 10
49.99999999999999
 20
-1.897610236602713
 30
0.0
 10
50.00000000000001
 20
-1.493229772205234
 30
0.0
 10
50.00000000000001
 20
-1.068971784118702
 30
0.0
  0
SPLINE
  5
C0
330
1F
100
AcDbEntity
  8
0
  6
Continuous
 62
     1
370
    15
100
AcDbSpline
210
0.0
220
0.0
230
1.0
 70
     8
 71
     3
 72
    23
 73
    19
 74
     0
 42
0.000000001
 43
0.00000001
 40
0.0
 40
0.0
 40
0.0
 40
0.0
 40
0.0071805334798124
 40
0.0764184632740469
 40
0.1456581183042099
 40
0.2148993089881938
 40
0.2841418452606347
 40
0.353385536632342
 40
0.4226301922500136
 40
0.4918756209561948
 40
0.5611216313494443
 40
0.6303680318446621
 40
0.6996146307335418
 40
0.768861236245107
 40
0.83810765660629
 40
0.9073537001025094
 40
0.976599175138211
 40
1.0
 40
1.0
 40
1.0
 40
1.0
 10
41.53075051083145
 20
-2.999424889348968
 30
0.0
 10
41.47094868718231
 20
-3.011609824820454
 30
0.0
 10
40.83451081287946
 20
-3.141287382406145
 30
0.0
 10
39.62141640885688
 20
-3.213158335617007
 30
0.0
 10
37.89145483352188
 20
-3.186033031301471
 30
0.0
 10
36.16144912711442
 20
-2.942617316729172
 30
0.0
 10
34.43140552728423
 20
-2.521679771864402
 30
0.0
 10
32.70132919309579
 20
-1.942983786455288
 30
0.0
 10
30.97122558644965
 20
-1.244121333560448
 30
0.0
 10
29.24110009985382
 20
-0.4679923911758264
 30
0.0
 10
27.51095815344894
 20
0.3371614719913473
 30
0.0
 10
25.7808051686801
 20
1.121340103692402
 30
0.0
 10
24.05064656608865
 20
1.836220652895832
 30
0.0
 10
22.32048778995793
 20
2.436229593512161
 30
0.0
 10
20.59033420140868
 20
2.88873991871934
 30
0.0
 10
18.86019147083217
 20
3.148542121568328
 30
0.0
 10
17.51187409392425
 20
3.238123546046943
 30
0.0
 10
16.74027266024941
 20
3.172818402295388
 30
0.0
 10
16.54537971760077
 20
3.156323472296079
 30
0.0
  0
SPLINE
  5
C1
330
1F
100
AcDbEntity
  8
0
  6
Continuous
 62
   131
370
    15
100
AcDbSpline
210
0.0
220
0.0
230
1.0
 70
    24
 71
     3
 72
    14
 73
    10
 74
     0
 42
0.000000001
 43
0.00000001
 40
0.0
 40
0.0
 40
0.0
 40
0.0
 40
0.2499999999999998
 40
0.2499999999999998
 40
0.4999999999999999
 40
0.4999999999999999
 40
0.75
 40
0.75
 40
1.0
 40
1.0
 40
1.0
 40
1.0
 10
9.999999999999993
 20
2.443995841944851
 30
0.0
 10
9.999999999999993
 20
2.209204842067674
 30
0.0
 10
9.999999999999993
 20
1.934344590698277
 30
0.0
 10
9.999999999999993
 20
1.320142506302562
 30
0.0
 10
9.999999999999993
 20
0.9809738727146479
 30
0.0
 10
9.999999999999993
 20
0.2690762428245462
 30
0.0
 10
9.999999999999993
 20
-0.1032734246572617
 30
0.0
 10
9.999999999999993
 20
-0.843905969195173
 30
0.0
 10
9.999999999999993
 20
-1.211838068409733
 30
0.0
 10
9.999999999999993
 20
-1.561531147928557
 30
0.0
  0
SPLINE
  5
C2
330
1F
100
AcDbEntity
  8
0
  6
Continuous
 62
     1
370
    15
100
AcDbSpline
210
0.0
220
0.0
230
1.0
 70
     8
 71
     3
 72
    10
 73
     6
 74
     0
 42
0.000000001
 43
0.00000001
 40
0.0
 40
0.0
 40
0.0
 40
0.0
 40
0.5
 40
0.5
 40
1.0
 40
1.0
 40
1.0
 40
1.0
 10
50.00000000000001
 20
2.800000000000011
 30
0.0
 10
49.50223746009664
 20
2.664946022532468
 30
0.0
 10
49.00821511501303
 20
2.5101206499319
 30
0.0
 10
48.02867820086083
 20
2.155496150848269
 30
0.0
 10
47.54303221981856
 20
1.956264825614537
 30
0.0
 10
47.06722270051286
 20
1.723135374420448
 30
0.0
  0
LINE
  5
C3
330
1F
100
AcDbEntity
  8
0
  6
Continuous
 62
     1
370
    15
100
AcDbLine
 10
50.00000000000001
 20
0.0000000000000098
 30
0.0
 11
50.00000000000001
 21
2.80000000000001
 31
0.0
  0
SPLINE
  5
C4
330
1F
100
AcDbEntity
  8
0
  6
Continuous
 62
   131
370
    15
100
AcDbSpline
210
0.0
220
0.0
230
1.0
 70
     8
 71
     3
 72
    10
 73
     6
 74
     0
 42
0.000000001
 43
0.00000001
 40
0.0
 40
0.0
 40
0.0
 40
0.0
 40
0.5
 40
0.5
 40
1.0
 40
1.0
 40
1.0
 40
1.0
 10
10.0
 20
-3.928892686883446
 30
0.0
 10
9.74743767797754
 20
-3.956320500612483
 30
0.0
 10
9.495788645182076
 20
-3.975866526082454
 30
0.0
 10
8.987815378112767
 20
-3.999038159301205
 30
0.0
 10
8.733041257474685
 20
-4.002601083974149
 30
0.0
 10
8.479774692646828
 20
-3.99813171716822
 30
0.0
  0
LINE
  5
C5
330
1F
100
AcDbEntity
  8
0
  6
Continuous
 62
   131
370
    15
100
AcDbLine
 10
10.0
 20
3.928892686883455
 30
0.0
 11
8.691029261094636
 21
3.988510076618105
 31
0.0
  0
SPLINE
  5
C6
330
1F
100
AcDbEntity
  8
0
  6
Continuous
 62
   131
370
    15
100
AcDbSpline
210
0.0
220
0.0
230
1.0
 70
     8
 71
     3
 72
    10
 73
     6
 74
     0
 42
0.000000001
 43
0.00000001
 40
0.0
 40
0.0
 40
0.0
 40
0.0
 40
0.4999999999999999
 40
0.4999999999999999
 40
1.0
 40
1.0
 40
1.0
 40
1.0
 10
8.479889931341138
 20
3.876371306446867
 30
0.0
 10
8.733137746053739
 20
3.840295132938651
 30
0.0
 10
8.987892541792935
 20
3.796352543853341
 30
0.0
 10
9.495827047703004
 20
3.693483034290152
 30
0.0
 10
9.74745683100314
 20
3.634698135348738
 30
0.0
 10
10.0
 20
3.568705967904251
 30
0.0
  0
LINE
  5
C7
330
1F
100
AcDbEntity
  8
0
  6
Continuous
 62
   131
370
    15
100
AcDbLine
 10
8.479889931341141
 20
-3.998126474606841
 30
0.0
 11
8.479889931341138
 21
3.876370281777448
 31
0.0
  0
LINE
  5
C8
330
1F
100
AcDbEntity
  8
0
  6
Continuous
 62
   131
370
    15
100
AcDbLine
 10
-69.18999999999997
 20
3.999999999999996
 30
0.0
 11
-69.18999999999997
 21
-4.0
 31
0.0
  0
LINE
  5
C9
330
1F
100
AcDbEntity
  8
0
  6
Continuous
 62
   131
370
    15
100
AcDbLine
 10
-69.99999999999999
 20
3.189999999999996
 30
0.0
 11
-69.99999999999999
 21
-3.189999999999996
 31
0.0
  0
SPLINE
  5
CA
330
1F
100
AcDbEntity
  8
0
  6
Continuous
 62
   131
370
    15
100
AcDbSpline
210
0.0
220
0.0
230
1.0
 70
    24
 71
     3
 72
    14
 73
    10
 74
     0
 42
0.000000001
 43
0.00000001
 40
0.0
 40
0.0
 40
0.0
 40
0.0
 40
0.25
 40
0.25
 40
0.5
 40
0.5
 40
0.75
 40
0.75
 40
1.0
 40
1.0
 40
1.0
 40
1.0
 10
10.0
 20
-1.56153114792856
 30
0.0
 10
10.0
 20
-1.811593060231262
 30
0.0
 10
10.0
 20
-2.048382537833036
 30
0.0
 10
10.0
 20
-2.474983287110936
 30
0.0
 10
10.0
 20
-2.664628883054982
 30
0.0
 10
10.0
 20
-2.981045352210848
 30
0.0
 10
10.0
 20
-3.107724853951545
 30
0.0
 10
10.0
 20
-3.291327379458017
 30
0.0
 10
10.0
 20
-3.348276074446205
 30
0.0
 10
10.0
 20
-3.371955260093237
 30
0.0
  0
SPLINE
  5
CB
330
1F
100
AcDbEntity
  8
0
  6
Continuous
 62
   131
370
    15
100
AcDbSpline
210
0.0
220
0.0
230
1.0
 70
     8
 71
     3
 72
    10
 73
     6
 74
     0
 42
0.000000001
 43
0.00000001
 40
0.0
 40
0.0
 40
0.0
 40
0.0
 40
0.5
 40
0.5
 40
1.0
 40
1.0
 40
1.0
 40
1.0
 10
10.0000000000001
 20
-3.371955260093233
 30
0.0
 10
9.747437677977624
 20
-3.387874067758664
 30
0.0
 10
9.495788645182143
 20
-3.397037477963504
 30
0.0
 10
8.9878153781128
 20
-3.401745507170939
 30
0.0
 10
8.733041257474703
 20
-3.397252115020622
 30
0.0
 10
8.479774692646828
 20
-3.385971097969316
 30
0.0
  0
SPLINE
  5
CC
330
1F
100
AcDbEntity
  8
0
  6
Continuous
 62
   131
370
    15
100
AcDbSpline
210
0.0
220
0.0
230
1.0
 70
     8
 71
     3
 72
    10
 73
     6
 74
     0
 42
0.000000001
 43
0.00000001
 40
0.0
 40
0.0
 40
0.0
 40
0.0
 40
0.5
 40
0.5
 40
1.0
 40
1.0
 40
1.0
 40
1.0
 10
10.0
 20
-1.561531147928563
 30
0.0
 10
9.747449835997267
 20
-1.459507866019122
 30
0.0
 10
9.495813022463013
 20
-1.354487335795339
 30
0.0
 10
8.987864360326215
 20
-1.13878361166221
 30
0.0
 10
8.733102506804013
 20
-1.028309412715484
 30
0.0
 10
8.479847844215021
 20
-0.9162143899237328
 30
0.0
  0
SPLINE
  5
CD
330
1F
100
AcDbEntity
  8
0
  6
Continuous
 62
   131
370
    15
100
AcDbSpline
210
0.0
220
0.0
230
1.0
 70
    24
 71
     3
 72
    14
 73
    10
 74
     0
 42
0.000000001
 43
0.00000001
 40
0.0
 40
0.0
 40
0.0
 40
0.0
 40
0.25
 40
0.25
 40
0.5
 40
0.5
 40
0.75
 40
0.75
 40
1.0
 40
1.0
 40
1.0
 40
1.0
 10
9.99999999999999
 20
2.443995841944851
 30
0.0
 10
9.99999999999999
 20
2.209204842067675
 30
0.0
 10
9.99999999999999
 20
1.934344590698277
 30
0.0
 10
9.99999999999999
 20
1.320142506302564
 30
0.0
 10
9.99999999999999
 20
0.9809738727146491
 30
0.0
 10
9.99999999999999
 20
0.269076242824548
 30
0.0
 10
9.99999999999999
 20
-0.10327342465726
 30
0.0
 10
9.99999999999999
 20
-0.8439059691951711
 30
0.0
 10
9.99999999999999
 20
-1.211838068409731
 30
0.0
 10
9.99999999999999
 20
-1.561531147928555
 30
0.0
  0
SPLINE
  5
CE
330
1F
100
AcDbEntity
  8
0
  6
Continuous
 62
   131
370
    15
100
AcDbSpline
210
0.0
220
0.0
230
1.0
 70
     8
 71
     3
 72
    10
 73
     6
 74
     0
 42
0.000000001
 43
0.00000001
 40
0.0
 40
0.0
 40
0.0
 40
0.0
 40
0.5
 40
0.5
 40
1.0
 40
1.0
 40
1.0
 40
1.0
 10
10.0
 20
2.443995841944848
 30
0.0
 10
9.747452215783698
 20
2.493902845161892
 30
0.0
 10
9.495817794021482
 20
2.53886820303533
 30
0.0
 10
8.987873948005658
 20
2.61870345972706
 30
0.0
 10
8.733114495626637
 20
2.653466333271395
 30
0.0
 10
8.479862162766226
 20
2.682776195416719
 30
0.0
  0
SPLINE
  5
CF
330
1F
100
AcDbEntity
  8
0
  6
Continuous
 62
   131
370
    15
100
AcDbSpline
210
0.0
220
0.0
230
1.0
 70
    24
 71
     3
 72
    10
 73
     6
 74
     0
 42
0.000000001
 43
0.00000001
 40
0.0
 40
0.0
 40
0.0
 40
0.0
 40
0.5
 40
0.5
 40
1.0
 40
1.0
 40
1.0
 40
1.0
 10
10.0
 20
3.568705967904254
 30
0.0
 10
10.0
 20
3.418863464960593
 30
0.0
 10
10.0
 20
3.236684626676434
 30
0.0
 10
10.0
 20
2.846659744924174
 30
0.0
 10
10.0
 20
2.639963307800262
 30
0.0
 10
10.0
 20
2.443995841944847
 30
0.0
  0
SPLINE
  5
D0
330
1F
100
AcDbEntity
  8
0
  6
Continuous
 62
   131
370
    15
100
AcDbSpline
210
0.0
220
0.0
230
1.0
 70
    24
 71
     3
 72
     8
 73
     4
 74
     0
 42
0.000000001
 43
0.00000001
 40
0.0
 40
0.0
 40
0.0
 40
0.0
 40
1.0
 40
1.0
 40
1.0
 40
1.0
 10
10.00000000000009
 20
-3.371955260093234
 30
0.0
 10
10.00000000000009
 20
-3.564978870988183
 30
0.0
 10
10.00000000000009
 20
-3.751850568906542
 30
0.0
 10
10.00000000000009
 20
-3.928892686876998
 30
0.0
  0
LINE
  5
D1
330
1F
100
AcDbEntity
  8
중심선
100
AcDbLine
 10
-72.99999999999999
 20
0.0
 30
0.0
 11
53.00000000000001
 21
0.0000000000000101
 31
0.0
  0
CIRCLE
  5
D2
330
1F
100
AcDbEntity
  8
외형선
100
AcDbCircle
 10
0.0000000000000104
 20
0.0
 30
0.0
 40
3.000000000000005
  0
INSERT
  5
D3
330
1F
100
AcDbEntity
  8
0
  6
Continuous
 62
     7
100
AcDbBlockReference
 66
     1
  2
블럭10
 10
-22.93944368806589
 20
-52.04609937292004
 30
0.0
  0
ATTRIB
  5
D4
330
D3
100
AcDbEntity
  8
FORMAT
 62
     2
100
AcDbText
 10
-43.79769121965843
 20
-49.97073246008785
 30
0.0
 40
4.233333333333333
  1
SEME7008040120E [ 2 FLUTE ]
 41
0.75
  7
SLDTEXTSTYLE0
 11
-43.79769121965843
 21
-52.08739912675452
 31
0.0
100
AcDbAttribute
  2
AUTOATTR0
 70
     0
 74
     1
  0
SEQEND
  5
D5
330
D3
100
AcDbEntity
  8
0
  6
Continuous
 62
     7
  0
HATCH
  5
D6
330
1F
100
AcDbEntity
  8
중심선
100
AcDbHatch
 10
0.0
 20
0.0
 30
0.0
210
0.0
220
0.0
230
1.0
  2
SOLID
 70
     1
 71
     0
 91
        1
 92
        0
 93
        4
 72
     1
 10
-17.22453438368504
 20
-35.7989250712761
 11
-20.67080962752232
 21
-35.7989250712761
 72
     1
 10
-20.67080962752232
 20
-35.7989250712761
 11
-22.79903948672635
 21
-38.3352506518487
 72
     1
 10
-22.79903948672635
 20
-38.3352506518487
 11
-19.35273115777591
 21
-38.33521122254621
 72
     1
 10
-19.35273115777591
 20
-38.33521122254621
 11
-17.22453438368504
 21
-35.7989250712761
 97
        0
 75
     0
 76
     1
 98
        1
 10
0.0
 20
0.0
  0
HATCH
  5
D7
330
1F
100
AcDbEntity
  8
중심선
100
AcDbHatch
 10
0.0
 20
0.0
 30
0.0
210
0.0
220
0.0
230
1.0
  2
SOLID
 70
     1
 71
     0
 91
        1
 92
        0
 93
        4
 72
     1
 10
-12.21177039264909
 20
-35.7989250712761
 11
-15.65804563648637
 21
-35.7989250712761
 72
     1
 10
-15.65804563648637
 20
-35.7989250712761
 11
-20.18918364484376
 21
-41.19892507127612
 72
     1
 10
-20.18918364484376
 20
-41.19892507127612
 11
-16.74290840100648
 21
-41.19892507127612
 72
     1
 10
-16.74290840100648
 20
-41.19892507127612
 11
-12.21177039264909
 21
-35.7989250712761
 97
        0
 75
     0
 76
     1
 98
        1
 10
0.0
 20
0.0
  0
HATCH
  5
D8
330
1F
100
AcDbEntity
  8
중심선
100
AcDbHatch
 10
0.0
 20
0.0
 30
0.0
210
0.0
220
0.0
230
1.0
  2
SOLID
 70
     1
 71
     0
 91
        1
 92
        0
 93
        4
 72
     1
 10
-7.199006401613195
 20
-35.79892507127613
 11
-10.64528164545031
 21
-35.7989250712761
 72
     1
 10
-10.64528164545031
 20
-35.7989250712761
 11
-17.69371854733956
 21
-44.19892507127612
 72
     1
 10
-17.69371854733956
 20
-44.19892507127612
 11
-14.24744330350228
 21
-44.19892507127612
 72
     1
 10
-14.24744330350228
 20
-44.19892507127612
 11
-7.199006401613195
 21
-35.79892507127613
 97
        0
 75
     0
 76
     1
 98
        1
 10
0.0
 20
0.0
  0
HATCH
  5
D9
330
1F
100
AcDbEntity
  8
중심선
100
AcDbHatch
 10
0.0
 20
0.0
 30
0.0
210
0.0
220
0.0
230
1.0
  2
SOLID
 70
     1
 71
     0
 91
        1
 92
        0
 93
        6
 72
     3
 10
-2.399115970600996
 20
-39.99892507132738
 11
3.960054785062284
 21
1.540850780301639E-10
 40
0.3939339440162633
 50
17.09539180608433
 51
320.0019657685079
 73
     0
 72
     1
 10
-0.7161163149004002
 20
-38.58681907591441
 11
1.589185558800638
 21
-36.65249236586649
 72
     3
 10
-2.399115970653842
 20
-39.99892507127625
 11
6.600054785286829
 21
-1.249000902703301E-13
 40
0.6363583540795982
 50
39.99873849337408
 51
368.4976242363725
 73
     1
 72
     1
 10
4.026216521246767
 20
-39.03892507120613
 11
-3.71904866381792
 21
-39.0389250712061
 72
     1
 10
-3.71904866381792
 20
-39.0389250712061
 11
-3.719073708263854
 21
-40.95892507120602
 72
     1
 10
-3.719073708263854
 20
-40.95892507120602
 11
0.7223060612081831
 21
-40.95892507120599
 97
        0
 75
     0
 76
     1
 98
        1
 10
0.0
 20
0.0
  0
DIMENSION
  5
DA
330
1F
100
AcDbEntity
  8
치수문자_일반주서
100
AcDbDimension
  2
_D
 10
68.19870015864264
 20
4.000000000000215
 30
0.0
 11
68.19870015864261
 21
13.66650000000021
 31
0.0
 70
   160
  1
%%c<>
 71
     2
 42
7.999999999999989
 52
-270.0
  3
SLDDIMSTYLE0
100
AcDbAlignedDimension
 13
49.99999999999999
 23
-3.999999999999842
 33
0.0
 14
49.99999999999999
 24
4.000000000000147
 34
0.0
 50
90.0000000000002
100
AcDbRotatedDimension
  0
DIMENSION
  5
E8
330
1F
100
AcDbEntity
  8
치수문자_일반주서
100
AcDbDimension
  2
_D_1
 10
49.99999999999999
 20
24.97841044024269
 30
0.0
 11
-9.999999999999988
 21
24.97841044024269
 31
0.0
 70
   160
  1
<>
 71
     2
 42
120.0
  3
SLDDIMSTYLE1
100
AcDbAlignedDimension
 13
-69.99999999999999
 23
3.189999999999996
 33
0.0
 14
49.99999999999999
 24
4.000000000000147
 34
0.0
 50
-0.0000000000000034
100
AcDbRotatedDimension
  0
DIMENSION
  5
F3
330
1F
100
AcDbEntity
  8
치수문자_일반주서
100
AcDbDimension
  2
_D_2
 10
49.99999999999999
 20
17.27589049305128
 30
0.0
 11
29.99999999999974
 21
17.27589049305128
 31
0.0
 70
   160
  1
<>
 71
     2
 42
39.99999999999999
  3
SLDDIMSTYLE1
100
AcDbAlignedDimension
 13
10.0
 23
3.928892686883455
 33
0.0
 14
49.99999999999999
 24
4.000000000000147
 34
0.0
 50
0.0000000000008651
100
AcDbRotatedDimension
  0
DIMENSION
  5
FD
330
1F
100
AcDbEntity
  8
치수문자_일반주서
100
AcDbDimension
  2
_D_3
 10
-80.30049590607162
 20
-4.000000000000039
 30
0.0
 11
-80.30049590607167
 21
13.66649999999995
 31
0.0
 70
   160
  1
%%c<>
 71
     2
 42
7.999999999999993
 52
-270.0
  3
SLDDIMSTYLE0
100
AcDbAlignedDimension
 13
-69.18999999999997
 23
3.999999999999996
 33
0.0
 14
-69.18999999999997
 24
-3.999999999999997
 34
0.0
 50
90.0000000000002
100
AcDbRotatedDimension
  0
INSERT
  5
110
330
1F
100
AcDbEntity
  8
외형선
100
AcDbBlockReference
  2
SW_DOWELSYMBOL_0
 10
0.0000000000000104
 20
0.0
 30
0.0
  0
ENDSEC
  0
SECTION
  2
OBJECTS
  0
DICTIONARY
  5
C
330
0
100
AcDbDictionary
281
     1
  3
ACAD_GROUP
350
D
  3
ACAD_IMAGE_VARS
350
134
  3
ACAD_LAYOUT
350
1A
  3
ACAD_MLINESTYLE
350
17
  3
ACAD_PLOTSETTINGS
350
19
  3
ACAD_PLOTSTYLENAME
350
E
  3
ACAD_SCALELIST
350
47
  3
APPDATA
350
132
  3
DWGPROPS
350
143
  0
DICTIONARY
  5
D
102
{ACAD_REACTORS
330
C
102
}
330
C
100
AcDbDictionary
281
     1
  0
RASTERVARIABLES
  5
134
102
{ACAD_REACTORS
330
C
102
}
330
C
100
AcDbRasterVariables
 90
        0
 70
     1
 71
     1
 72
     1
  0
DICTIONARY
  5
1A
102
{ACAD_REACTORS
330
C
102
}
330
C
100
AcDbDictionary
281
     1
  3
Layout1
350
1E
  3
Layout2
350
26
  3
Model
350
22
  0
DICTIONARY
  5
17
102
{ACAD_REACTORS
330
C
102
}
330
C
100
AcDbDictionary
281
     1
  3
Standard
350
18
  0
DICTIONARY
  5
19
102
{ACAD_REACTORS
330
C
102
}
330
C
100
AcDbDictionary
281
     1
  0
ACDBDICTIONARYWDFLT
  5
E
102
{ACAD_REACTORS
330
C
102
}
330
C
100
AcDbDictionary
281
     1
  3
Normal
350
F
100
AcDbDictionaryWithDefault
340
F
  0
DICTIONARY
  5
47
102
{ACAD_REACTORS
330
C
102
}
330
C
100
AcDbDictionary
281
     1
  3
A0
350
48
  3
A1
350
49
  3
A2
350
4A
  3
A3
350
4B
  3
A4
350
4C
  3
A5
350
4D
  3
A6
350
4E
  3
A7
350
4F
  3
A8
350
50
  3
A9
350
51
  3
B0
350
52
  3
B1
350
53
  3
B2
350
54
  3
B3
350
55
  3
B4
350
56
  3
B5
350
57
  3
B6
350
58
  3
B7
350
59
  3
B8
350
5A
  3
B9
350
5B
  3
C0
350
5C
  3
C1
350
5D
  3
C2
350
5E
  3
C3
350
5F
  3
C4
350
60
  3
C5
350
61
  3
C6
350
62
  3
C7
350
63
  3
C8
350
64
  3
C9
350
65
  3
D0
350
66
  3
D1
350
67
  3
D2
350
68
  0
DICTIONARY
  5
132
102
{ACAD_REACTORS
330
C
102
}
330
C
100
AcDbDictionary
281
     1
  0
XRECORD
  5
143
102
{ACAD_REACTORS
330
C
102
}
330
C
100
AcDbXrecord
280
     1
  1
DWGPROPS COOKIE
  2

  3

  4

  6

  7

  8
12014102
  9

300
=
301
=
302
=
303
=
304
=
305
=
306
=
307
=
308
=
309
=
 40
0.0
 41
2458262.168794606
 42
2458266.293222697
  1

 90
        0
  0
LAYOUT
  5
1E
102
{ACAD_REACTORS
330
1A
102
}
330
1A
100
AcDbPlotSettings
  1

  2
none_device
  4

  6

 40
0.0
 41
0.0
 42
0.0
 43
0.0
 44
0.0
 45
0.0
 46
0.0
 47
0.0
 48
0.0
 49
0.0
140
0.0
141
0.0
142
1.0
143
1.0
 70
   688
 72
     1
 73
     0
 74
     5
  7

 75
    16
147
1.0
148
0.0
149
0.0
100
AcDbLayout
  1
Layout1
 70
     1
 71
     1
 10
0.0
 20
0.0
 11
420.0
 21
297.0
 12
0.0
 22
0.0
 32
0.0
 14
1.000000000000000E+20
 24
1.000000000000000E+20
 34
1.000000000000000E+20
 15
-1.000000000000000E+20
 25
-1.000000000000000E+20
 35
-1.000000000000000E+20
146
0.0
 13
0.0
 23
0.0
 33
0.0
 16
1.0
 26
0.0
 36
0.0
 17
0.0
 27
1.0
 37
0.0
 76
     0
330
1B
  0
LAYOUT
  5
26
102
{ACAD_REACTORS
330
1A
102
}
330
1A
100
AcDbPlotSettings
  1

  2
none_device
  4

  6

 40
0.0
 41
0.0
 42
0.0
 43
0.0
 44
0.0
 45
0.0
 46
0.0
 47
0.0
 48
0.0
 49
0.0
140
0.0
141
0.0
142
1.0
143
1.0
 70
   688
 72
     1
 73
     0
 74
     5
  7

 75
    16
147
1.0
148
0.0
149
0.0
100
AcDbLayout
  1
Layout2
 70
     1
 71
     2
 10
0.0
 20
0.0
 11
0.0
 21
0.0
 12
0.0
 22
0.0
 32
0.0
 14
0.0
 24
0.0
 34
0.0
 15
0.0
 25
0.0
 35
0.0
146
0.0
 13
0.0
 23
0.0
 33
0.0
 16
1.0
 26
0.0
 36
0.0
 17
0.0
 27
1.0
 37
0.0
 76
     0
330
23
  0
LAYOUT
  5
22
102
{ACAD_REACTORS
330
1A
102
}
330
1A
100
AcDbPlotSettings
  1

  2
none_device
  4
ANSI_A_(11.00_x_8.50_Inches)
  6

 40
6.35
 41
19.05
 42
6.35000508
 43
19.05000254
 44
279.4
 45
215.9
 46
159.999433872848
 47
110.4430040218067
 48
0.0
 49
0.0
140
0.0
141
0.0
142
0.0799256274568991
143
1.0
 70
  1696
 72
     0
 73
     0
 74
     0
  7

 75
     0
147
0.0235690232323232
148
0.0
149
0.0
100
AcDbLayout
  1
Model
 70
     1
 71
     0
 10
0.0
 20
0.0
 11
420.0
 21
297.0
 12
0.0
 22
0.0
 32
0.0
 14
-84.67549590607167
 24
-49.97073246008785
 34
0.0
 15
68.74903349197602
 25
29.3534104402427
 35
0.0
146
0.0
 13
0.0
 23
0.0
 33
0.0
 16
1.0
 26
0.0
 36
0.0
 17
0.0
 27
1.0
 37
0.0
 76
     0
330
1F
331
29
  0
MLINESTYLE
  5
18
102
{ACAD_REACTORS
330
17
102
}
330
17
100
AcDbMlineStyle
  2
Standard
 70
     0
  3

 62
   256
 51
90.0
 52
90.0
 71
     2
 49
0.5
 62
   256
  6
BYLAYER
 49
-0.5
 62
   256
  6
BYLAYER
  0
ACDBPLACEHOLDER
  5
F
102
{ACAD_REACTORS
330
E
102
}
330
E
  0
SCALE
  5
48
102
{ACAD_REACTORS
330
47
102
}
330
47
100
AcDbScale
 70
     0
300
1:1
140
1.0
141
1.0
290
     1
  0
SCALE
  5
49
102
{ACAD_REACTORS
330
47
102
}
330
47
100
AcDbScale
 70
     0
300
1:2
140
1.0
141
2.0
290
     0
  0
SCALE
  5
4A
102
{ACAD_REACTORS
330
47
102
}
330
47
100
AcDbScale
 70
     0
300
1:4
140
1.0
141
4.0
290
     0
  0
SCALE
  5
4B
102
{ACAD_REACTORS
330
47
102
}
330
47
100
AcDbScale
 70
     0
300
1:5
140
1.0
141
5.0
290
     0
  0
SCALE
  5
4C
102
{ACAD_REACTORS
330
47
102
}
330
47
100
AcDbScale
 70
     0
300
1:8
140
1.0
141
8.0
290
     0
  0
SCALE
  5
4D
102
{ACAD_REACTORS
330
47
102
}
330
47
100
AcDbScale
 70
     0
300
1:10
140
1.0
141
10.0
290
     0
  0
SCALE
  5
4E
102
{ACAD_REACTORS
330
47
102
}
330
47
100
AcDbScale
 70
     0
300
1:16
140
1.0
141
16.0
290
     0
  0
SCALE
  5
4F
102
{ACAD_REACTORS
330
47
102
}
330
47
100
AcDbScale
 70
     0
300
1:20
140
1.0
141
20.0
290
     0
  0
SCALE
  5
50
102
{ACAD_REACTORS
330
47
102
}
330
47
100
AcDbScale
 70
     0
300
1:30
140
1.0
141
30.0
290
     0
  0
SCALE
  5
51
102
{ACAD_REACTORS
330
47
102
}
330
47
100
AcDbScale
 70
     0
300
1:40
140
1.0
141
40.0
290
     0
  0
SCALE
  5
52
102
{ACAD_REACTORS
330
47
102
}
330
47
100
AcDbScale
 70
     0
300
1:50
140
1.0
141
50.0
290
     0
  0
SCALE
  5
53
102
{ACAD_REACTORS
330
47
102
}
330
47
100
AcDbScale
 70
     0
300
1:100
140
1.0
141
100.0
290
     0
  0
SCALE
  5
54
102
{ACAD_REACTORS
330
47
102
}
330
47
100
AcDbScale
 70
     0
300
2:1
140
2.0
141
1.0
290
     0
  0
SCALE
  5
55
102
{ACAD_REACTORS
330
47
102
}
330
47
100
AcDbScale
 70
     0
300
4:1
140
4.0
141
1.0
290
     0
  0
SCALE
  5
56
102
{ACAD_REACTORS
330
47
102
}
330
47
100
AcDbScale
 70
     0
300
8:1
140
8.0
141
1.0
290
     0
  0
SCALE
  5
57
102
{ACAD_REACTORS
330
47
102
}
330
47
100
AcDbScale
 70
     0
300
10:1
140
10.0
141
1.0
290
     0
  0
SCALE
  5
58
102
{ACAD_REACTORS
330
47
102
}
330
47
100
AcDbScale
 70
     0
300
100:1
140
100.0
141
1.0
290
     0
  0
SCALE
  5
59
102
{ACAD_REACTORS
330
47
102
}
330
47
100
AcDbScale
 70
     0
300
1/128" = 1'-0"
140
0.0078125
141
12.0
290
     0
  0
SCALE
  5
5A
102
{ACAD_REACTORS
330
47
102
}
330
47
100
AcDbScale
 70
     0
300
1/64" = 1'-0"
140
0.015625
141
12.0
290
     0
  0
SCALE
  5
5B
102
{ACAD_REACTORS
330
47
102
}
330
47
100
AcDbScale
 70
     0
300
1/32" = 1'-0"
140
0.03125
141
12.0
290
     0
  0
SCALE
  5
5C
102
{ACAD_REACTORS
330
47
102
}
330
47
100
AcDbScale
 70
     0
300
1/16" = 1'-0"
140
0.0625
141
12.0
290
     0
  0
SCALE
  5
5D
102
{ACAD_REACTORS
330
47
102
}
330
47
100
AcDbScale
 70
     0
300
3/32" = 1'-0"
140
0.09375
141
12.0
290
     0
  0
SCALE
  5
5E
102
{ACAD_REACTORS
330
47
102
}
330
47
100
AcDbScale
 70
     0
300
1/8" = 1'-0"
140
0.125
141
12.0
290
     0
  0
SCALE
  5
5F
102
{ACAD_REACTORS
330
47
102
}
330
47
100
AcDbScale
 70
     0
300
3/16" = 1'-0"
140
0.1875
141
12.0
290
     0
  0
SCALE
  5
60
102
{ACAD_REACTORS
330
47
102
}
330
47
100
AcDbScale
 70
     0
300
1/4" = 1'-0"
140
0.25
141
12.0
290
     0
  0
SCALE
  5
61
102
{ACAD_REACTORS
330
47
102
}
330
47
100
AcDbScale
 70
     0
300
3/8" = 1'-0"
140
0.375
141
12.0
290
     0
  0
SCALE
  5
62
102
{ACAD_REACTORS
330
47
102
}
330
47
100
AcDbScale
 70
     0
300
1/2" = 1'-0"
140
0.5
141
12.0
290
     0
  0
SCALE
  5
63
102
{ACAD_REACTORS
330
47
102
}
330
47
100
AcDbScale
 70
     0
300
3/4" = 1'-0"
140
0.75
141
12.0
290
     0
  0
SCALE
  5
64
102
{ACAD_REACTORS
330
47
102
}
330
47
100
AcDbScale
 70
     0
300
1" = 1'-0"
140
1.0
141
12.0
290
     0
  0
SCALE
  5
65
102
{ACAD_REACTORS
330
47
102
}
330
47
100
AcDbScale
 70
     0
300
1-1/2" = 1'-0"
140
1.5
141
12.0
290
     0
  0
SCALE
  5
66
102
{ACAD_REACTORS
330
47
102
}
330
47
100
AcDbScale
 70
     0
300
3" = 1'-0"
140
3.0
141
12.0
290
     0
  0
SCALE
  5
67
102
{ACAD_REACTORS
330
47
102
}
330
47
100
AcDbScale
 70
     0
300
6" = 1'-0"
140
6.0
141
12.0
290
     0
  0
SCALE
  5
68
102
{ACAD_REACTORS
330
47
102
}
330
47
100
AcDbScale
 70
     0
300
1'-0" = 1'-0"
140
12.0
141
12.0
290
     0
  0
ENDSEC
  0
EOF
