  0
SECTION
  2
HEADER
  9
$ACADVER
  1
AC1015
  9
$ACADMAINTVER
 70
     6
  9
$DWGCODEPAGE
  3
ANSI_949
  9
$INSBASE
 10
0.0
 20
0.0
 30
0.0
  9
$EXTMIN
 10
-74.52538056229068
 20
-49.97073246008785
 30
0.0
  9
$EXTMAX
 10
50.37151602382755
 20
29.35712527881329
 30
0.0
  9
$LIMMIN
 10
0.0
 20
0.0
  9
$LIMMAX
 10
420.0
 20
297.0
  9
$ORTHOMODE
 70
     0
  9
$REGENMODE
 70
     1
  9
$FILLMODE
 70
     1
  9
$QTEXTMODE
 70
     0
  9
$MIRRTEXT
 70
     1
  9
$LTSCALE
 40
1.0
  9
$ATTMODE
 70
     1
  9
$TEXTSIZE
 40
3.5
  9
$TRACEWID
 40
1.0
  9
$TEXTSTYLE
  7
Standard
  9
$CLAYER
  8
0
  9
$CELTYPE
  6
ByLayer
  9
$CECOLOR
 62
   256
  9
$CELTSCALE
 40
1.0
  9
$DISPSILH
 70
     0
  9
$DIMSCALE
 40
1.0
  9
$DIMASZ
 40
3.302
  9
$DIMEXO
 40
1.0
  9
$DIMDLI
 40
3.75
  9
$DIMRND
 40
0.0
  9
$DIMDLE
 40
0.0
  9
$DIMEXE
 40
1.0
  9
$DIMTP
 40
0.0
  9
$DIMTM
 40
0.0
  9
$DIMTXT
 40
3.5
  9
$DIMCEN
 40
2.5
  9
$DIMTSZ
 40
0.0
  9
$DIMTOL
 70
     0
  9
$DIMLIM
 70
     0
  9
$DIMTIH
 70
     1
  9
$DIMTOH
 70
     1
  9
$DIMSE1
 70
     0
  9
$DIMSE2
 70
     0
  9
$DIMTAD
 70
     1
  9
$DIMZIN
 70
     0
  9
$DIMBLK
  1

  9
$DIMASO
 70
     1
  9
$DIMSHO
 70
     1
  9
$DIMPOST
  1

  9
$DIMAPOST
  1

  9
$DIMALT
 70
     0
  9
$DIMALTD
 70
     3
  9
$DIMALTF
 40
0.0393700787401575
  9
$DIMLFAC
 40
1.0
  9
$DIMTOFL
 70
     1
  9
$DIMTVP
 40
0.0
  9
$DIMTIX
 70
     0
  9
$DIMSOXD
 70
     0
  9
$DIMSAH
 70
     0
  9
$DIMBLK1
  1

  9
$DIMBLK2
  1

  9
$DIMSTYLE
  2
ISO-25
  9
$DIMCLRD
 70
     0
  9
$DIMCLRE
 70
     0
  9
$DIMCLRT
 70
     0
  9
$DIMTFAC
 40
1.0
  9
$DIMGAP
 40
1.524
  9
$DIMJUST
 70
     0
  9
$DIMSD1
 70
     0
  9
$DIMSD2
 70
     0
  9
$DIMTOLJ
 70
     0
  9
$DIMTZIN
 70
     0
  9
$DIMALTZ
 70
     0
  9
$DIMALTTZ
 70
     0
  9
$DIMUPT
 70
     0
  9
$DIMDEC
 70
     2
  9
$DIMTDEC
 70
     2
  9
$DIMALTU
 70
     2
  9
$DIMALTTD
 70
     3
  9
$DIMTXSTY
  7
Standard
  9
$DIMAUNIT
 70
     0
  9
$DIMADEC
 70
     2
  9
$DIMALTRND
 40
0.0
  9
$DIMAZIN
 70
     0
  9
$DIMDSEP
 70
    44
  9
$DIMATFIT
 70
     3
  9
$DIMFRAC
 70
     0
  9
$DIMLDRBLK
  1

  9
$DIMLUNIT
 70
     2
  9
$DIMLWD
 70
    -2
  9
$DIMLWE
 70
    -2
  9
$DIMTMOVE
 70
     0
  9
$LUNITS
 70
     2
  9
$LUPREC
 70
     2
  9
$SKETCHINC
 40
1.0
  9
$FILLETRAD
 40
10.0
  9
$AUNITS
 70
     0
  9
$AUPREC
 70
     2
  9
$MENU
  1
.
  9
$ELEVATION
 40
0.0
  9
$PELEVATION
 40
0.0
  9
$THICKNESS
 40
0.0
  9
$LIMCHECK
 70
     0
  9
$CHAMFERA
 40
0.0
  9
$CHAMFERB
 40
0.0
  9
$CHAMFERC
 40
0.0
  9
$CHAMFERD
 40
0.0
  9
$SKPOLY
 70
     0
  9
$TDCREATE
 40
2458262.543231597
  9
$TDUCREATE
 40
2458262.168231597
  9
$TDUPDATE
 40
2458266.666501979
  9
$TDUUPDATE
 40
2458266.291501979
  9
$TDINDWG
 40
0.0017301736
  9
$TDUSRTIMER
 40
2458266.289771852
  9
$USRTIMER
 70
     1
  9
$ANGBASE
 50
0.0
  9
$ANGDIR
 70
     0
  9
$PDMODE
 70
     0
  9
$PDSIZE
 40
-1.0
  9
$PLINEWID
 40
0.0
  9
$SPLFRAME
 70
     0
  9
$SPLINETYPE
 70
     6
  9
$SPLINESEGS
 70
     8
  9
$HANDSEED
  5
13C
  9
$SURFTAB1
 70
     6
  9
$SURFTAB2
 70
     6
  9
$SURFTYPE
 70
     6
  9
$SURFU
 70
     6
  9
$SURFV
 70
     6
  9
$UCSBASE
  2

  9
$UCSNAME
  2

  9
$UCSORG
 10
0.0
 20
0.0
 30
0.0
  9
$UCSXDIR
 10
1.0
 20
0.0
 30
0.0
  9
$UCSYDIR
 10
0.0
 20
1.0
 30
0.0
  9
$UCSORTHOREF
  2

  9
$UCSORTHOVIEW
 70
     0
  9
$UCSORGTOP
 10
0.0
 20
0.0
 30
0.0
  9
$UCSORGBOTTOM
 10
0.0
 20
0.0
 30
0.0
  9
$UCSORGLEFT
 10
0.0
 20
0.0
 30
0.0
  9
$UCSORGRIGHT
 10
0.0
 20
0.0
 30
0.0
  9
$UCSORGFRONT
 10
0.0
 20
0.0
 30
0.0
  9
$UCSORGBACK
 10
0.0
 20
0.0
 30
0.0
  9
$PUCSBASE
  2

  9
$PUCSNAME
  2

  9
$PUCSORG
 10
0.0
 20
0.0
 30
0.0
  9
$PUCSXDIR
 10
1.0
 20
0.0
 30
0.0
  9
$PUCSYDIR
 10
0.0
 20
1.0
 30
0.0
  9
$PUCSORTHOREF
  2

  9
$PUCSORTHOVIEW
 70
     0
  9
$PUCSORGTOP
 10
0.0
 20
0.0
 30
0.0
  9
$PUCSORGBOTTOM
 10
0.0
 20
0.0
 30
0.0
  9
$PUCSORGLEFT
 10
0.0
 20
0.0
 30
0.0
  9
$PUCSORGRIGHT
 10
0.0
 20
0.0
 30
0.0
  9
$PUCSORGFRONT
 10
0.0
 20
0.0
 30
0.0
  9
$PUCSORGBACK
 10
0.0
 20
0.0
 30
0.0
  9
$USERI1
 70
     0
  9
$USERI2
 70
     0
  9
$USERI3
 70
     0
  9
$USERI4
 70
     0
  9
$USERI5
 70
     0
  9
$USERR1
 40
0.0
  9
$USERR2
 40
0.0
  9
$USERR3
 40
0.0
  9
$USERR4
 40
0.0
  9
$USERR5
 40
0.0
  9
$WORLDVIEW
 70
     1
  9
$SHADEDGE
 70
     3
  9
$SHADEDIF
 70
    70
  9
$TILEMODE
 70
     1
  9
$MAXACTVP
 70
    64
  9
$PINSBASE
 10
0.0
 20
0.0
 30
0.0
  9
$PLIMCHECK
 70
     0
  9
$PEXTMIN
 10
1.000000000000000E+20
 20
1.000000000000000E+20
 30
1.000000000000000E+20
  9
$PEXTMAX
 10
-1.000000000000000E+20
 20
-1.000000000000000E+20
 30
-1.000000000000000E+20
  9
$PLIMMIN
 10
0.0
 20
0.0
  9
$PLIMMAX
 10
0.0
 20
0.0
  9
$UNITMODE
 70
     0
  9
$VISRETAIN
 70
     1
  9
$PLINEGEN
 70
     0
  9
$PSLTSCALE
 70
     1
  9
$TREEDEPTH
 70
  3020
  9
$CMLSTYLE
  2
Standard
  9
$CMLJUST
 70
     0
  9
$CMLSCALE
 40
20.0
  9
$PROXYGRAPHICS
 70
     1
  9
$MEASUREMENT
 70
     1
  9
$CELWEIGHT
370
    -1
  9
$ENDCAPS
280
     0
  9
$JOINSTYLE
280
     0
  9
$LWDISPLAY
290
     1
  9
$INSUNITS
 70
     4
  9
$HYPERLINKBASE
  1

  9
$STYLESHEET
  1

  9
$XEDIT
290
     1
  9
$CEPSNTYPE
380
     0
  9
$PSTYLEMODE
290
     1
  9
$FINGERPRINTGUID
  2
{323146B3-0176-4A70-B90B-E6D3306D4037}
  9
$VERSIONGUID
  2
{FAEB1C32-E019-11D5-929B-00C0DF256EC4}
  9
$EXTNAMES
290
     1
  9
$PSVPSCALE
 40
0.0
  9
$OLESTARTUP
290
     0
  0
ENDSEC
  0
SECTION
  2
CLASSES
  0
CLASS
  1
ACDBDICTIONARYWDFLT
  2
AcDbDictionaryWithDefault
  3
ObjectDBX Classes
 90
        0
280
     0
281
     0
  0
CLASS
  1
VISUALSTYLE
  2
AcDbVisualStyle
  3
ObjectDBX Classes
 90
     4095
280
     0
281
     0
  0
CLASS
  1
MATERIAL
  2
AcDbMaterial
  3
ObjectDBX Classes
 90
     1153
280
     0
281
     0
  0
CLASS
  1
SCALE
  2
AcDbScale
  3
ObjectDBX Classes
 90
     1153
280
     0
281
     0
  0
CLASS
  1
SUN
  2
AcDbSun
  3
SCENEOE
 90
     1153
280
     0
281
     0
  0
CLASS
  1
ACDBPLACEHOLDER
  2
AcDbPlaceHolder
  3
ObjectDBX Classes
 90
        0
280
     0
281
     0
  0
CLASS
  1
LAYOUT
  2
AcDbLayout
  3
ObjectDBX Classes
 90
        0
280
     0
281
     0
  0
CLASS
  1
TABLESTYLE
  2
AcDbTableStyle
  3
ObjectDBX Classes
 90
     4095
280
     0
281
     0
  0
CLASS
  1
MLEADERSTYLE
  2
AcDbMLeaderStyle
  3
ACDB_MLEADERSTYLE_CLASS
 90
     4095
280
     0
281
     0
  0
CLASS
  1
RASTERVARIABLES
  2
AcDbRasterVariables
  3
ISM
 90
        0
280
     0
281
     0
  0
ENDSEC
  0
SECTION
  2
TABLES
  0
TABLE
  2
VPORT
  5
8
330
0
100
AcDbSymbolTable
 70
     1
  0
VPORT
  5
29
330
8
100
AcDbSymbolTableRecord
100
AcDbViewportTableRecord
  2
*Active
 70
     0
 10
0.0
 20
0.0
 11
1.0
 21
1.0
 12
-12.07693226923156
 22
-10.30680359063728
 13
0.0
 23
0.0
 14
10.0
 24
10.0
 15
10.0
 25
10.0
 16
0.0
 26
0.0
 36
1.0
 17
0.0
 27
0.0
 37
0.0
 40
110.5421546152563
 41
1.152454780361757
 42
50.0
 43
0.0
 44
0.0
 50
0.0
 51
0.0
 71
    16
 72
  2000
 73
     1
 74
     3
 75
     0
 76
     0
 77
     0
 78
     0
281
     0
 65
     1
110
0.0
120
0.0
130
0.0
111
1.0
121
0.0
131
0.0
112
0.0
122
1.0
132
0.0
 79
     0
146
0.0
  0
ENDTAB
  0
TABLE
  2
LTYPE
  5
5
330
0
100
AcDbSymbolTable
 70
     6
  0
LTYPE
  5
14
330
5
100
AcDbSymbolTableRecord
100
AcDbLinetypeTableRecord
  2
ByBlock
 70
     0
  3

 72
    65
 73
     0
 40
0.0
  0
LTYPE
  5
15
330
5
100
AcDbSymbolTableRecord
100
AcDbLinetypeTableRecord
  2
ByLayer
 70
     0
  3

 72
    65
 73
     0
 40
0.0
  0
LTYPE
  5
16
330
5
100
AcDbSymbolTableRecord
100
AcDbLinetypeTableRecord
  2
Continuous
 70
     0
  3
Solid line
 72
    65
 73
     0
 40
0.0
  0
LTYPE
  5
6A
330
5
100
AcDbSymbolTableRecord
100
AcDbLinetypeTableRecord
  2
HIDDEN
 70
     0
  3
Hidden __ __ __ __ __ __ __ __ __ __ __ __ __ __
 72
    65
 73
     2
 40
1.905
 49
1.27
 74
     0
 49
-0.635
 74
     0
  0
LTYPE
  5
6B
330
5
100
AcDbSymbolTableRecord
100
AcDbLinetypeTableRecord
  2
PHANTOM
 70
     0
  3
Phantom ______  __  __  ______  __  __  ______
 72
    65
 73
     6
 40
12.7
 49
6.35
 74
     0
 49
-1.27
 74
     0
 49
1.27
 74
     0
 49
-1.27
 74
     0
 49
1.27
 74
     0
 49
-1.27
 74
     0
  0
LTYPE
  5
6C
330
5
100
AcDbSymbolTableRecord
100
AcDbLinetypeTableRecord
  2
CENTER
 70
     0
  3
Center ____ _ ____ _ ____ _ ____ _ ____ _ ____
 72
    65
 73
     4
 40
10.16
 49
6.35
 74
     0
 49
-1.27
 74
     0
 49
1.27
 74
     0
 49
-1.27
 74
     0
  0
LTYPE
  5
6D
330
5
100
AcDbSymbolTableRecord
100
AcDbLinetypeTableRecord
  2
CENTERX2
 70
     0
  3
Center (2x) ________  __  ________  __  _____
 72
    65
 73
     4
 40
20.32
 49
12.7
 74
     0
 49
-2.54
 74
     0
 49
2.54
 74
     0
 49
-2.54
 74
     0
  0
LTYPE
  5
6E
330
5
100
AcDbSymbolTableRecord
100
AcDbLinetypeTableRecord
  2
DOT2
 70
     0
  3
Dot (.5x) ........................................
 72
    65
 73
     2
 40
0.635
 49
0.0
 74
     0
 49
-0.635
 74
     0
  0
ENDTAB
  0
TABLE
  2
LAYER
  5
2
330
0
100
AcDbSymbolTable
 70
    17
  0
LAYER
  5
10
330
2
100
AcDbSymbolTableRecord
100
AcDbLayerTableRecord
  2
0
 70
     0
 62
     7
  6
Continuous
370
    -3
390
F
  0
LAYER
  5
6F
330
2
100
AcDbSymbolTableRecord
100
AcDbLayerTableRecord
  2
FORMAT
 70
     0
 62
     2
  6
Continuous
370
    -3
390
F
  0
LAYER
  5
70
330
2
100
AcDbSymbolTableRecord
100
AcDbLayerTableRecord
  2
외형선
 70
     0
 62
   100
  6
Continuous
370
    30
390
F
  0
LAYER
  5
71
330
2
100
AcDbSymbolTableRecord
100
AcDbLayerTableRecord
  2
숨은선
 70
     0
 62
     2
  6
HIDDEN
370
    15
390
F
  0
LAYER
  5
72
330
2
100
AcDbSymbolTableRecord
100
AcDbLayerTableRecord
  2
중심선
 70
     0
 62
     1
  6
CENTERX2
370
    -3
390
F
  0
LAYER
  5
73
330
2
100
AcDbSymbolTableRecord
100
AcDbLayerTableRecord
  2
파단선
 70
     0
 62
     4
  6
Continuous
370
    -3
390
F
  0
LAYER
  5
74
330
2
100
AcDbSymbolTableRecord
100
AcDbLayerTableRecord
  2
해칭선
 70
     0
 62
     4
  6
Continuous
370
    -3
390
F
  0
LAYER
  5
75
330
2
100
AcDbSymbolTableRecord
100
AcDbLayerTableRecord
  2
가는실선
 70
     0
 62
     4
  6
Continuous
370
    -3
390
F
  0
LAYER
  5
76
330
2
100
AcDbSymbolTableRecord
100
AcDbLayerTableRecord
  2
치수_보조선
 70
     0
 62
     4
  6
Continuous
370
    -3
390
F
  0
LAYER
  5
77
330
2
100
AcDbSymbolTableRecord
100
AcDbLayerTableRecord
  2
치수문자_일반주서
 70
     0
 62
     7
  6
Continuous
370
    15
390
F
  0
LAYER
  5
78
330
2
100
AcDbSymbolTableRecord
100
AcDbLayerTableRecord
  2
개별주서
 70
     0
 62
   100
  6
Continuous
370
    30
390
F
  0
LAYER
  5
79
330
2
100
AcDbSymbolTableRecord
100
AcDbLayerTableRecord
  2
중간선
 70
     0
 62
     2
  6
Continuous
370
    15
390
F
  0
LAYER
  5
7A
330
2
100
AcDbSymbolTableRecord
100
AcDbLayerTableRecord
  2
윤곽선
 70
     0
 62
     3
  6
Continuous
370
    40
390
F
  0
LAYER
  5
7B
330
2
100
AcDbSymbolTableRecord
100
AcDbLayerTableRecord
  2
중심마크
 70
     0
 62
   100
  6
Continuous
370
    30
390
F
  0
LAYER
  5
7C
330
2
100
AcDbSymbolTableRecord
100
AcDbLayerTableRecord
  2
가상선
 70
     0
 62
     4
  6
PHANTOM
370
    -3
390
F
  0
LAYER
  5
7D
330
2
100
AcDbSymbolTableRecord
100
AcDbLayerTableRecord
  2
특수지정선
 70
     0
 62
     5
  6
CENTERX2
370
    60
390
F
  0
LAYER
  5
12D
330
2
100
AcDbSymbolTableRecord
100
AcDbLayerTableRecord
  2
Defpoints
 70
     0
 62
     7
  6
Continuous
290
     0
370
    -3
390
F
  0
ENDTAB
  0
TABLE
  2
STYLE
  5
3
330
0
100
AcDbSymbolTable
 70
     2
  0
STYLE
  5
11
330
3
100
AcDbSymbolTableRecord
100
AcDbTextStyleTableRecord
  2
Standard
 70
     0
 40
0.0
 41
1.0
 50
0.0
 71
     0
 42
3.5
  3
txt
  4

  0
STYLE
  5
93
330
3
100
AcDbSymbolTableRecord
100
AcDbTextStyleTableRecord
  2
SLDTEXTSTYLE0
 70
     0
 40
0.0
 41
0.75
 50
0.0
 71
     0
 42
3.5
  3
TXT
  4

  0
ENDTAB
  0
TABLE
  2
VIEW
  5
6
330
0
100
AcDbSymbolTable
 70
     0
  0
ENDTAB
  0
TABLE
  2
UCS
  5
7
330
0
100
AcDbSymbolTable
 70
     0
  0
ENDTAB
  0
TABLE
  2
APPID
  5
9
330
0
100
AcDbSymbolTable
 70
     1
  0
APPID
  5
12
330
9
100
AcDbSymbolTableRecord
100
AcDbRegAppTableRecord
  2
ACAD
 70
     0
  0
ENDTAB
  0
TABLE
  2
DIMSTYLE
  5
A
330
0
100
AcDbSymbolTable
 70
     3
100
AcDbDimStyleTable
  0
DIMSTYLE
105
27
330
A
100
AcDbSymbolTableRecord
100
AcDbDimStyleTableRecord
  2
ISO-25
 70
     0
 41
2.5
 42
0.625
 43
3.75
 44
1.25
 73
     0
 74
     0
 77
     1
 78
     8
140
2.5
141
2.5
143
0.03937007874016
147
0.625
171
     3
172
     1
178
     0
271
     2
272
     2
274
     3
278
    44
283
     0
284
     8
340
11
  0
DIMSTYLE
105
D3
102
{ACAD_REACTORS
330
D2
330
F5
102
}
330
A
100
AcDbSymbolTableRecord
100
AcDbDimStyleTableRecord
  2
SLDDIMSTYLE0
 70
     0
 41
3.302
 44
0.0
 45
0.000000001
 73
     0
 74
     0
 77
     1
 78
    12
 79
     3
140
3.5
147
0.875
172
     1
173
     1
178
     0
271
     2
272
     2
276
     2
284
    12
289
     0
340
93
  0
DIMSTYLE
105
E1
102
{ACAD_REACTORS
330
E0
330
EB
102
}
330
A
100
AcDbSymbolTableRecord
100
AcDbDimStyleTableRecord
  2
SLDDIMSTYLE1
 70
     0
 41
3.302
 44
0.0
 45
0.000000001
 73
     0
 74
     0
 77
     1
 78
    12
 79
     3
140
3.5
147
0.875
173
     1
178
     0
271
     2
272
     2
276
     2
284
    12
340
93
  0
ENDTAB
  0
TABLE
  2
BLOCK_RECORD
  5
1
330
0
100
AcDbSymbolTable
 70
     7
  0
BLOCK_RECORD
  5
1F
330
1
100
AcDbSymbolTableRecord
100
AcDbBlockTableRecord
  2
*Model_Space
340
22
  0
BLOCK_RECORD
  5
1B
330
1
100
AcDbSymbolTableRecord
100
AcDbBlockTableRecord
  2
*Paper_Space
340
1E
  0
BLOCK_RECORD
  5
23
330
1
100
AcDbSymbolTableRecord
100
AcDbBlockTableRecord
  2
*Paper_Space0
340
26
  0
BLOCK_RECORD
  5
7E
330
1
100
AcDbSymbolTableRecord
100
AcDbBlockTableRecord
  2
블럭10
340
0
102
{BLKREFS
331
CB
102
}
  0
BLOCK_RECORD
  5
D4
330
1
100
AcDbSymbolTableRecord
100
AcDbBlockTableRecord
  2
_D
340
0
  0
BLOCK_RECORD
  5
E2
330
1
100
AcDbSymbolTableRecord
100
AcDbBlockTableRecord
  2
_D_1
340
0
  0
BLOCK_RECORD
  5
EC
330
1
100
AcDbSymbolTableRecord
100
AcDbBlockTableRecord
  2
_D_2
340
0
  0
BLOCK_RECORD
  5
F6
330
1
100
AcDbSymbolTableRecord
100
AcDbBlockTableRecord
  2
_D_3
340
0
  0
BLOCK_RECORD
  5
102
330
1
100
AcDbSymbolTableRecord
100
AcDbBlockTableRecord
  2
SW_DOWELSYMBOL_0
340
0
102
{BLKREFS
331
108
102
}
  0
ENDTAB
  0
ENDSEC
  0
SECTION
  2
BLOCKS
  0
BLOCK
  5
20
330
1F
100
AcDbEntity
  8
0
100
AcDbBlockBegin
  2
*Model_Space
 70
     0
 10
0.0
 20
0.0
 30
0.0
  3
*Model_Space
  1

  0
ENDBLK
  5
21
330
1F
100
AcDbEntity
  8
0
100
AcDbBlockEnd
  0
BLOCK
  5
1C
330
1B
100
AcDbEntity
 67
     1
  8
0
100
AcDbBlockBegin
  2
*Paper_Space
 70
     0
 10
0.0
 20
0.0
 30
0.0
  3
*Paper_Space
  1

  0
ENDBLK
  5
1D
330
1B
100
AcDbEntity
 67
     1
  8
0
100
AcDbBlockEnd
  0
BLOCK
  5
24
330
23
100
AcDbEntity
  8
0
100
AcDbBlockBegin
  2
*Paper_Space0
 70
     0
 10
0.0
 20
0.0
 30
0.0
  3
*Paper_Space0
  1

  0
ENDBLK
  5
25
330
23
100
AcDbEntity
  8
0
100
AcDbBlockEnd
  0
BLOCK
  5
7F
330
7E
100
AcDbEntity
  8
0
100
AcDbBlockBegin
  2
블럭10
 70
     2
 10
0.0
 20
0.0
 30
0.0
  3
블럭10
  1

  0
ELLIPSE
  5
81
330
7E
100
AcDbEntity
  8
중심선
100
AcDbEllipse
 10
20.54032771741204
 20
12.0471743016438
 30
0.0
 11
6.600054785286829
 21
-1.261213355974178E-13
 31
0.0
210
0.0
220
0.0
230
1.0
 40
0.636358354079598
 41
0.9219305317359503
 42
6.513795318482858
  0
ELLIPSE
  5
82
330
7E
100
AcDbEntity
  8
중심선
100
AcDbEllipse
 10
20.54032771746488
 20
12.04717430159265
 30
0.0
 11
3.960054785062283
 21
1.540847449632565E-10
 31
0.0
210
0.0
220
0.0
230
1.0
 40
0.3939339440162632
 41
1.131841032648279
 42
5.62031148352944
  0
LINE
  5
83
330
7E
100
AcDbEntity
  8
중심선
100
AcDbLine
 10
2.268634060543552
 20
16.24717430164393
 30
0.0
 11
5.714909304380834
 21
16.24717430164393
 31
0.0
  0
LINE
  5
84
330
7E
100
AcDbEntity
  8
중심선
100
AcDbLine
 10
5.245725140726316
 20
7.84717430164391
 30
0.0
 11
8.692000384563599
 21
7.84717430164391
 31
0.0
  0
LINE
  5
85
330
7E
100
AcDbEntity
  8
중심선
100
AcDbLine
 10
15.74043728645272
 20
16.24717430164393
 30
0.0
 11
8.692000384563599
 21
7.84717430164391
 31
0.0
  0
LINE
  5
86
330
7E
100
AcDbEntity
  8
중심선
100
AcDbLine
 10
0.1404042013395286
 20
13.71084872107135
 30
0.0
 11
3.58671253028996
 21
13.71088815037384
 31
0.0
  0
LINE
  5
87
330
7E
100
AcDbEntity
  8
중심선
100
AcDbLine
 10
2.750260043222114
 20
10.84717430164391
 30
0.0
 11
6.196535287059397
 21
10.84717430164391
 31
0.0
  0
LINE
  5
88
330
7E
100
AcDbEntity
  8
중심선
100
AcDbLine
 10
12.29416204261559
 20
16.24717430164393
 30
0.0
 11
5.245725140726316
 21
7.84717430164391
 31
0.0
  0
LINE
  5
89
330
7E
100
AcDbEntity
  8
중심선
100
AcDbLine
 10
10.72767329541681
 20
16.24717430164393
 30
0.0
 11
6.196535287059397
 21
10.84717430164391
 31
0.0
  0
LINE
  5
8A
330
7E
100
AcDbEntity
  8
중심선
100
AcDbLine
 10
7.28139805157953
 20
16.24717430164393
 30
0.0
 11
2.750260043222114
 21
10.84717430164391
 31
0.0
  0
LINE
  5
8B
330
7E
100
AcDbEntity
  8
중심선
100
AcDbLine
 10
5.714909304380834
 20
16.24717430164393
 30
0.0
 11
3.58671253028996
 21
13.71088815037384
 31
0.0
  0
LINE
  5
8C
330
7E
100
AcDbEntity
  8
중심선
100
AcDbLine
 10
2.268634060543552
 20
16.24717430164393
 30
0.0
 11
0.1404042013395286
 21
13.71084872107135
 31
0.0
  0
LINE
  5
8D
330
7E
100
AcDbEntity
  8
중심선
100
AcDbLine
 10
7.28139805157953
 20
16.24717430164393
 30
0.0
 11
10.72767329541681
 21
16.24717430164393
 31
0.0
  0
LINE
  5
8E
330
7E
100
AcDbEntity
  8
중심선
100
AcDbLine
 10
12.29416204261559
 20
16.24717430164393
 30
0.0
 11
15.74043728645272
 21
16.24717430164393
 31
0.0
  0
LINE
  5
8F
330
7E
100
AcDbEntity
  8
중심선
100
AcDbLine
 10
19.22036997980202
 20
11.08717430171403
 30
0.0
 11
23.66174974927406
 21
11.08717430171406
 31
0.0
  0
LINE
  5
90
330
7E
100
AcDbEntity
  8
중심선
100
AcDbLine
 10
19.22039502424796
 20
13.00717430171391
 30
0.0
 11
19.22036997980202
 21
11.08717430171403
 31
0.0
  0
LINE
  5
91
330
7E
100
AcDbEntity
  8
중심선
100
AcDbLine
 10
19.22039502424796
 20
13.00717430171391
 30
0.0
 11
26.96566020931264
 21
13.00717430171391
 31
0.0
  0
LINE
  5
92
330
7E
100
AcDbEntity
  8
중심선
100
AcDbLine
 10
22.22332737316547
 20
13.45928029700563
 30
0.0
 11
24.52862924686651
 21
15.39360700705356
 31
0.0
  0
ATTDEF
  5
94
330
7E
100
AcDbEntity
  8
FORMAT
 62
     2
100
AcDbText
 10
-20.85824753159254
 20
2.075366912832191
 30
0.0
 40
4.233333333333333
  1
SEME7008030100E [ 2 FLUTE ]
 41
0.75
  7
SLDTEXTSTYLE0
 11
-20.85824753159254
 21
-0.0412997538344756
 31
0.0
100
AcDbAttributeDefinition
  3

  2
AUTOATTR0
 70
     0
 74
     1
  0
ENDBLK
  5
80
330
7E
100
AcDbEntity
  8
0
100
AcDbBlockEnd
  0
BLOCK
  5
D5
330
D4
100
AcDbEntity
  8
0
100
AcDbBlockBegin
  2
_D
 70
     0
 10
0.0
 20
0.0
 30
0.0
  3
_D
  1

  0
LINE
  5
D7
330
D4
100
AcDbEntity
  8
치수문자_일반주서
 62
     0
370
    -2
100
AcDbLine
 10
40.06249999999972
 20
-3.996285161429291
 30
0.0
 11
49.8211826904942
 21
-3.996285161429256
 31
0.0
  0
LINE
  5
D8
330
D4
100
AcDbEntity
  8
치수문자_일반주서
 62
     0
370
    -2
100
AcDbLine
 10
40.06249999999972
 20
4.003714838570699
 30
0.0
 11
49.82118269049418
 21
4.003714838570733
 31
0.0
  0
LINE
  5
D9
330
D4
100
AcDbEntity
  8
치수문자_일반주서
 62
     0
370
    -2
100
AcDbLine
 10
49.8211826904942
 20
-3.996285161429256
 30
0.0
 11
49.82118269049413
 21
16.73271483857074
 31
0.0
  0
LINE
  5
DA
330
D4
100
AcDbEntity
  8
치수문자_일반주서
 62
     0
370
    -2
100
AcDbLine
 10
49.8211826904942
 20
-3.996285161429256
 30
0.0
 11
49.82118269049418
 21
4.003714838570733
 31
0.0
  0
LINE
  5
DB
330
D4
100
AcDbEntity
  8
치수문자_일반주서
 62
     0
370
    -2
100
AcDbLine
 10
49.82118269049422
 20
-7.298285161429256
 30
0.0
 11
49.82118269049423
 21
-10.60028516142926
 31
0.0
  0
LINE
  5
DC
330
D4
100
AcDbEntity
  8
치수문자_일반주서
 62
     0
370
    -2
100
AcDbLine
 10
49.82118269049416
 20
7.305714838570733
 30
0.0
 11
49.82118269049415
 21
10.60771483857073
 31
0.0
  0
SOLID
  5
DD
330
D4
100
AcDbEntity
  8
치수문자_일반주서
 62
     0
100
AcDbTrace
 10
50.37151602382755
 20
-7.298285161429254
 30
0.0
 11
49.27084935716088
 21
-7.298285161429257
 31
0.0
 12
49.8211826904942
 22
-3.996285161429256
 32
0.0
 13
49.8211826904942
 23
-3.996285161429256
 33
0.0
  0
SOLID
  5
DE
330
D4
100
AcDbEntity
  8
치수문자_일반주서
 62
     0
100
AcDbTrace
 10
49.27084935716083
 20
7.305714838570731
 30
0.0
 11
50.3715160238275
 21
7.305714838570735
 31
0.0
 12
49.82118269049418
 22
4.003714838570733
 32
0.0
 13
49.82118269049418
 23
4.003714838570733
 33
0.0
  0
MTEXT
  5
DF
330
D4
100
AcDbEntity
  8
치수문자_일반주서
 62
     0
100
AcDbMText
 10
45.44618269049414
 20
13.67021483857072
 30
0.0
 40
3.5
 41
0.0
 71
     2
 72
     1
  1
\A1;%%c8
  7
SLDTEXTSTYLE0
 11
-3.552713678800506E-15
 21
1.0
 31
0.0
 73
     1
 44
1.0
  0
POINT
  5
137
330
D4
100
AcDbEntity
  8
Defpoints
 62
     0
100
AcDbPoint
 10
39.99999999999972
 20
-3.996285161429291
 30
0.0
  0
POINT
  5
138
330
D4
100
AcDbEntity
  8
Defpoints
 62
     0
100
AcDbPoint
 10
39.99999999999972
 20
4.003714838570699
 30
0.0
  0
POINT
  5
139
330
D4
100
AcDbEntity
  8
Defpoints
 62
     0
100
AcDbPoint
 10
49.82118269049418
 20
4.003714838570735
 30
0.0
  0
ENDBLK
  5
D6
330
D4
100
AcDbEntity
  8
0
100
AcDbBlockEnd
  0
BLOCK
  5
E3
330
E2
100
AcDbEntity
  8
0
100
AcDbBlockBegin
  2
_D_1
 70
     0
 10
0.0
 20
0.0
 30
0.0
  3
_D_1
  1

  0
LINE
  5
E5
330
E2
100
AcDbEntity
  8
치수문자_일반주서
 62
     0
370
    -2
100
AcDbLine
 10
-60.00000000000014
 20
3.256214838570584
 30
0.0
 11
-60.00000000000014
 21
24.98212527881328
 31
0.0
  0
LINE
  5
E6
330
E2
100
AcDbEntity
  8
치수문자_일반주서
 62
     0
370
    -2
100
AcDbLine
 10
39.99999999999972
 20
4.066214838570699
 30
0.0
 11
39.99999999999972
 21
24.98212527881328
 31
0.0
  0
LINE
  5
E7
330
E2
100
AcDbEntity
  8
치수문자_일반주서
 62
     0
370
    -2
100
AcDbLine
 10
-56.69800000000014
 20
24.98212527881328
 30
0.0
 11
36.69799999999972
 21
24.98212527881328
 31
0.0
  0
SOLID
  5
E8
330
E2
100
AcDbEntity
  8
치수문자_일반주서
 62
     0
100
AcDbTrace
 10
-56.69800000000014
 20
25.53245861214662
 30
0.0
 11
-56.69800000000014
 21
24.43179194547995
 31
0.0
 12
-60.00000000000014
 22
24.98212527881328
 32
0.0
 13
-60.00000000000014
 23
24.98212527881328
 33
0.0
  0
SOLID
  5
E9
330
E2
100
AcDbEntity
  8
치수문자_일반주서
 62
     0
100
AcDbTrace
 10
36.69799999999972
 20
24.43179194547995
 30
0.0
 11
36.69799999999972
 21
25.53245861214662
 31
0.0
 12
39.99999999999972
 22
24.98212527881328
 32
0.0
 13
39.99999999999972
 23
24.98212527881328
 33
0.0
  0
MTEXT
  5
EA
330
E2
100
AcDbEntity
  8
치수문자_일반주서
 62
     0
100
AcDbMText
 10
-10.00000000000021
 20
29.35712527881328
 30
0.0
 40
3.5
 41
0.0
 71
     2
 72
     1
  1
\A1;100
  7
SLDTEXTSTYLE0
 73
     1
 44
1.0
  0
POINT
  5
12E
330
E2
100
AcDbEntity
  8
Defpoints
 62
     0
100
AcDbPoint
 10
-60.00000000000014
 20
3.193714838570584
 30
0.0
  0
POINT
  5
12F
330
E2
100
AcDbEntity
  8
Defpoints
 62
     0
100
AcDbPoint
 10
39.99999999999972
 20
4.003714838570699
 30
0.0
  0
POINT
  5
130
330
E2
100
AcDbEntity
  8
Defpoints
 62
     0
100
AcDbPoint
 10
39.99999999999972
 20
24.98212527881328
 30
0.0
  0
ENDBLK
  5
E4
330
E2
100
AcDbEntity
  8
0
100
AcDbBlockEnd
  0
BLOCK
  5
ED
330
EC
100
AcDbEntity
  8
0
100
AcDbBlockBegin
  2
_D_2
 70
     0
 10
0.0
 20
0.0
 30
0.0
  3
_D_2
  1

  0
LINE
  5
EF
330
EC
100
AcDbEntity
  8
치수문자_일반주서
 62
     0
370
    -2
100
AcDbLine
 10
9.999999999999863
 20
3.035160697542269
 30
0.0
 11
9.999999999999865
 21
16.31965850370979
 31
0.0
  0
LINE
  5
F0
330
EC
100
AcDbEntity
  8
치수문자_일반주서
 62
     0
370
    -2
100
AcDbLine
 10
39.99999999999972
 20
4.066214838570699
 30
0.0
 11
39.99999999999972
 21
16.31965850370979
 31
0.0
  0
LINE
  5
F1
330
EC
100
AcDbEntity
  8
치수문자_일반주서
 62
     0
370
    -2
100
AcDbLine
 10
13.30199999999986
 20
16.31965850370979
 30
0.0
 11
36.69799999999972
 21
16.31965850370979
 31
0.0
  0
SOLID
  5
F2
330
EC
100
AcDbEntity
  8
치수문자_일반주서
 62
     0
100
AcDbTrace
 10
13.30199999999986
 20
16.86999183704312
 30
0.0
 11
13.30199999999986
 21
15.76932517037646
 31
0.0
 12
9.999999999999865
 22
16.31965850370979
 32
0.0
 13
9.999999999999865
 23
16.31965850370979
 33
0.0
  0
SOLID
  5
F3
330
EC
100
AcDbEntity
  8
치수문자_일반주서
 62
     0
100
AcDbTrace
 10
36.69799999999972
 20
15.76932517037646
 30
0.0
 11
36.69799999999972
 21
16.86999183704312
 31
0.0
 12
39.99999999999972
 22
16.31965850370979
 32
0.0
 13
39.99999999999972
 23
16.31965850370979
 33
0.0
  0
MTEXT
  5
F4
330
EC
100
AcDbEntity
  8
치수문자_일반주서
 62
     0
100
AcDbMText
 10
24.99999999999986
 20
20.69465850370979
 30
0.0
 40
3.5
 41
0.0
 71
     2
 72
     1
  1
\A1;30
  7
SLDTEXTSTYLE0
 73
     1
 44
1.0
  0
POINT
  5
131
330
EC
100
AcDbEntity
  8
Defpoints
 62
     0
100
AcDbPoint
 10
9.999999999999863
 20
2.972660697542269
 30
0.0
  0
POINT
  5
132
330
EC
100
AcDbEntity
  8
Defpoints
 62
     0
100
AcDbPoint
 10
39.99999999999972
 20
4.003714838570699
 30
0.0
  0
POINT
  5
133
330
EC
100
AcDbEntity
  8
Defpoints
 62
     0
100
AcDbPoint
 10
39.99999999999972
 20
16.31965850370979
 30
0.0
  0
ENDBLK
  5
EE
330
EC
100
AcDbEntity
  8
0
100
AcDbBlockEnd
  0
BLOCK
  5
F7
330
F6
100
AcDbEntity
  8
0
100
AcDbBlockBegin
  2
_D_3
 70
     0
 10
0.0
 20
0.0
 30
0.0
  3
_D_3
  1

  0
LINE
  5
F9
330
F6
100
AcDbEntity
  8
치수문자_일반주서
 62
     0
370
    -2
100
AcDbLine
 10
-59.25250000000013
 20
4.003714838570584
 30
0.0
 11
-70.15038056229064
 21
4.003714838570543
 31
0.0
  0
LINE
  5
FA
330
F6
100
AcDbEntity
  8
치수문자_일반주서
 62
     0
370
    -2
100
AcDbLine
 10
-59.25250000000013
 20
-3.996285161429408
 30
0.0
 11
-70.15038056229061
 21
-3.99628516142945
 31
0.0
  0
LINE
  5
FB
330
F6
100
AcDbEntity
  8
치수문자_일반주서
 62
     0
370
    -2
100
AcDbLine
 10
-70.15038056229064
 20
4.003714838570543
 30
0.0
 11
-70.15038056229068
 21
16.73271483857054
 31
0.0
  0
LINE
  5
FC
330
F6
100
AcDbEntity
  8
치수문자_일반주서
 62
     0
370
    -2
100
AcDbLine
 10
-70.15038056229064
 20
4.003714838570543
 30
0.0
 11
-70.15038056229061
 21
-3.99628516142945
 31
0.0
  0
LINE
  5
FD
330
F6
100
AcDbEntity
  8
치수문자_일반주서
 62
     0
370
    -2
100
AcDbLine
 10
-70.15038056229065
 20
7.305714838570543
 30
0.0
 11
-70.15038056229066
 21
10.60771483857054
 31
0.0
  0
LINE
  5
FE
330
F6
100
AcDbEntity
  8
치수문자_일반주서
 62
     0
370
    -2
100
AcDbLine
 10
-70.1503805622906
 20
-7.298285161429449
 30
0.0
 11
-70.15038056229058
 21
-10.60028516142945
 31
0.0
  0
SOLID
  5
FF
330
F6
100
AcDbEntity
  8
치수문자_일반주서
 62
     0
100
AcDbTrace
 10
-70.70071389562398
 20
7.305714838570541
 30
0.0
 11
-69.60004722895732
 21
7.305714838570545
 31
0.0
 12
-70.15038056229064
 22
4.003714838570543
 32
0.0
 13
-70.15038056229064
 23
4.003714838570543
 33
0.0
  0
SOLID
  5
100
330
F6
100
AcDbEntity
  8
치수문자_일반주서
 62
     0
100
AcDbTrace
 10
-69.60004722895727
 20
-7.298285161429447
 30
0.0
 11
-70.70071389562392
 21
-7.298285161429451
 31
0.0
 12
-70.15038056229061
 22
-3.99628516142945
 32
0.0
 13
-70.15038056229061
 23
-3.99628516142945
 33
0.0
  0
MTEXT
  5
101
330
F6
100
AcDbEntity
  8
치수문자_일반주서
 62
     0
100
AcDbMText
 10
-74.52538056229066
 20
13.67021483857053
 30
0.0
 40
3.5
 41
0.0
 71
     2
 72
     1
  1
\A1;%%c8
  7
SLDTEXTSTYLE0
 11
-3.552713678800505E-15
 21
1.0
 31
0.0
 73
     1
 44
1.0
  0
POINT
  5
134
330
F6
100
AcDbEntity
  8
Defpoints
 62
     0
100
AcDbPoint
 10
-59.19000000000013
 20
4.003714838570584
 30
0.0
  0
POINT
  5
135
330
F6
100
AcDbEntity
  8
Defpoints
 62
     0
100
AcDbPoint
 10
-59.19000000000013
 20
-3.996285161429407
 30
0.0
  0
POINT
  5
136
330
F6
100
AcDbEntity
  8
Defpoints
 62
     0
100
AcDbPoint
 10
-70.1503805622906
 20
-3.996285161429448
 30
0.0
  0
ENDBLK
  5
F8
330
F6
100
AcDbEntity
  8
0
100
AcDbBlockEnd
  0
BLOCK
  5
103
330
102
100
AcDbEntity
  8
0
100
AcDbBlockBegin
  2
SW_DOWELSYMBOL_0
 70
     0
 10
0.0
 20
0.0
 30
0.0
  3
SW_DOWELSYMBOL_0
  1

  0
CIRCLE
  5
105
330
102
100
AcDbEntity
  8
외형선
 62
     0
100
AcDbCircle
 10
0.0
 20
0.0
 30
0.0
 40
3.000000000000004
  0
HATCH
  5
106
330
102
100
AcDbEntity
  8
0
  6
Continuous
 62
     0
370
    30
100
AcDbHatch
 10
0.0
 20
0.0
 30
0.0
210
0.0
220
0.0
230
1.0
  2
SOLID
 70
     1
 71
     0
 91
        1
 92
        0
 93
        3
 72
     2
 10
0.0000000000000104
 20
0.0
 40
3.000000000000004
 50
0.0
 51
90.0
 73
     1
 72
     1
 10
0.0000000000000104
 20
3.000000000000004
 11
0.0000000000000104
 21
0.0
 72
     1
 10
0.0000000000000104
 20
0.0
 11
3.000000000000015
 21
0.0
 97
        0
 75
     0
 76
     1
 98
        1
 10
0.0
 20
0.0
  0
HATCH
  5
107
330
102
100
AcDbEntity
  8
0
  6
Continuous
 62
     0
370
    30
100
AcDbHatch
 10
0.0
 20
0.0
 30
0.0
210
0.0
220
0.0
230
1.0
  2
SOLID
 70
     1
 71
     0
 91
        1
 92
        0
 93
        3
 72
     2
 10
0.0000000000000104
 20
0.0
 40
3.000000000000004
 50
180.0
 51
270.0000000000008
 73
     1
 72
     1
 10
0.0000000000000104
 20
-3.000000000000004
 11
0.0000000000000104
 21
0.0
 72
     1
 10
0.0000000000000104
 20
0.0
 11
-2.999999999999994
 21
0.0
 97
        0
 75
     0
 76
     1
 98
        1
 10
0.0
 20
0.0
  0
ENDBLK
  5
104
330
102
100
AcDbEntity
  8
0
100
AcDbBlockEnd
  0
ENDSEC
  0
SECTION
  2
ENTITIES
  0
SPLINE
  5
95
330
1F
100
AcDbEntity
  8
0
  6
Continuous
 62
     1
370
    15
100
AcDbSpline
210
0.0
220
0.0
230
1.0
 70
     8
 71
     3
 72
     9
 73
     5
 74
     0
 42
0.000000001
 43
0.00000001
 40
0.0
 40
0.0
 40
0.0
 40
0.0
 40
0.4370316599374531
 40
0.9999999999999999
 40
0.9999999999999999
 40
0.9999999999999999
 40
0.9999999999999999
 10
29.63769005777426
 20
1.028700374387716
 30
0.0
 10
29.47578473462119
 20
1.105605370342615
 30
0.0
 10
29.10531884394349
 20
1.281576593951233
 30
0.0
 10
28.73488996994583
 20
1.474993287986416
 30
0.0
 10
28.52635024164014
 20
1.583880763167788
 30
0.0
  0
LINE
  5
96
330
1F
100
AcDbEntity
  8
0
  6
Continuous
 62
     1
370
    15
100
AcDbLine
 10
20.45896438891375
 20
4.003714838570596
 30
0.0
 11
18.51895476212615
 21
4.003714838570596
 31
0.0
  0
LINE
  5
97
330
1F
100
AcDbEntity
  8
0
  6
Continuous
 62
     1
370
    15
100
AcDbLine
 10
18.51895476212614
 20
-3.99628516142941
 30
0.0
 11
20.45896438891373
 21
-3.99628516142941
 31
0.0
  0
SPLINE
  5
98
330
1F
100
AcDbEntity
  8
0
  6
Continuous
 62
     1
370
    15
100
AcDbSpline
210
0.0
220
0.0
230
1.0
 70
     8
 71
     3
 72
    16
 73
    12
 74
     0
 42
0.000000001
 43
0.00000001
 40
0.0
 40
0.0
 40
0.0
 40
0.0
 40
0.1615916468514703
 40
0.2698501004997715
 40
0.3366130692561465
 40
0.4069484862272891
 40
0.4846777606593491
 40
0.5670649393013416
 40
0.7709455682546859
 40
0.9338766415307358
 40
1.0
 40
1.0
 40
1.0
 40
1.0
 10
28.31447299538934
 20
3.182268072628602
 30
0.0
 10
28.13665398292367
 20
3.173430140679035
 30
0.0
 10
27.83970498017764
 20
3.158671229118507
 30
0.0
 10
27.47050398642163
 20
3.14604949128866
 30
0.0
 10
27.20485004847392
 20
3.138614938668412
 30
0.0
 10
26.96808693188219
 20
3.133495665127099
 30
0.0
 10
26.71220552256806
 20
3.129697555872222
 30
0.0
 10
26.30912264226431
 20
3.12642482362382
 30
0.0
 10
25.81449016803266
 20
3.129029286348058
 30
0.0
 10
25.33842266121118
 20
3.137914323700612
 30
0.0
 10
25.08641041631676
 20
3.146753506358553
 30
0.0
 10
25.01365960385343
 20
3.149305198718368
 30
0.0
  0
SPLINE
  5
99
330
1F
100
AcDbEntity
  8
0
  6
Continuous
 62
     1
370
    15
100
AcDbSpline
210
0.0
220
0.0
230
1.0
 70
     8
 71
     3
 72
    21
 73
    17
 74
     0
 42
0.000000001
 43
0.00000001
 40
0.0
 40
0.0
 40
0.0
 40
0.0
 40
0.0961672519560501
 40
0.1585525579445884
 40
0.2250311597188935
 40
0.3036192051921405
 40
0.3726030896772711
 40
0.4329240239085129
 40
0.4876073673392407
 40
0.5617851555187863
 40
0.6551054408213807
 40
0.746610435918985
 40
0.7951577444069172
 40
0.8379313676535017
 40
0.8985583533193778
 40
1.0
 40
1.0
 40
1.0
 40
1.0
 10
22.29830603457782
 20
-3.324835141245563
 30
0.0
 10
22.48940916053716
 20
-3.306412235843343
 30
0.0
 10
22.80448408298487
 20
-3.276038083344651
 30
0.0
 10
23.2587712509236
 20
-3.238756896259913
 30
0.0
 10
23.67683482880489
 20
-3.208062601628999
 30
0.0
 10
24.10570016215883
 20
-3.181458908180692
 30
0.0
 10
24.52276475002306
 20
-3.160196205478683
 30
0.0
 10
24.89164796730696
 20
-3.145014055241818
 30
0.0
 10
25.27101691702788
 20
-3.132825124479727
 30
0.0
 10
25.71633091834127
 20
-3.123145809906162
 30
0.0
 10
26.23564298115571
 20
-3.118719363847243
 30
0.0
 10
26.70652064554584
 20
-3.121700035121186
 30
0.0
 10
27.076444976918
 20
-3.128108446857071
 30
0.0
 10
27.37810811672541
 20
-3.135749791864856
 30
0.0
 10
27.78544273677631
 20
-3.148855186148557
 30
0.0
 10
28.11081604213608
 20
-3.164835827272192
 30
0.0
 10
28.31447299538934
 20
-3.174838395487413
 30
0.0
  0
SPLINE
  5
9A
330
1F
100
AcDbEntity
  8
0
  6
Continuous
 62
     1
370
    15
100
AcDbSpline
210
0.0
220
0.0
230
1.0
 70
     8
 71
     3
 72
    15
 73
    11
 74
     0
 42
0.000000001
 43
0.00000001
 40
0.0
 40
0.0
 40
0.0
 40
0.0
 40
0.1872655874153623
 40
0.3157411338321539
 40
0.4048054889126775
 40
0.5144050297080968
 40
0.6425032797619107
 40
0.7515671674849151
 40
0.8818036788371337
 40
1.0
 40
1.0
 40
1.0
 40
1.0
 10
31.52640340622395
 20
-3.004816987787466
 30
0.0
 10
31.7108128409049
 20
-2.976533821837704
 30
0.0
 10
32.02173832806536
 20
-2.928846689307938
 30
0.0
 10
32.42165847142644
 20
-2.875306985655255
 30
0.0
 10
32.74891071510262
 20
-2.834583204010393
 30
0.0
 10
33.07353293765463
 20
-2.797300480955252
 30
0.0
 10
33.41679082684709
 20
-2.761642241881872
 30
0.0
 10
33.78035304125736
 20
-2.728559150203458
 30
0.0
 10
34.13386921283342
 20
-2.70038059602255
 30
0.0
 10
34.37998725412999
 20
-2.685036704734079
 30
0.0
 10
34.49708227236312
 20
-2.677736576629997
 30
0.0
  0
SPLINE
  5
9B
330
1F
100
AcDbEntity
  8
0
  6
Continuous
 62
     1
370
    15
100
AcDbSpline
210
0.0
220
0.0
230
1.0
 70
     8
 71
     3
 72
    25
 73
    21
 74
     0
 42
0.000000001
 43
0.00000001
 40
0.0
 40
0.0
 40
0.0
 40
0.0
 40
0.0832275003331882
 40
0.1412373842087694
 40
0.1746204013183815
 40
0.2059045203005275
 40
0.24381283415879
 40
0.286104211838716
 40
0.3252912838268413
 40
0.3875693051185409
 40
0.4407898280210948
 40
0.4951625806056296
 40
0.5722886931625678
 40
0.6513391968962381
 40
0.7181113831679402
 40
0.7604242103469272
 40
0.8058645650680557
 40
0.8507298633411882
 40
0.9155047360888663
 40
0.9999999999999999
 40
0.9999999999999999
 40
0.9999999999999999
 40
0.9999999999999999
 10
16.74726093382353
 20
2.73951121101882
 30
0.0
 10
16.56027073572209
 20
2.724395193316073
 30
0.0
 10
16.24294765925337
 20
2.698743253855646
 30
0.0
 10
15.85141521023175
 20
2.675953335336542
 30
0.0
 10
15.57724900549436
 20
2.662697413026756
 30
0.0
 10
15.34776956269148
 20
2.653440038160248
 30
0.0
 10
15.09802798688827
 20
2.645445619169177
 30
0.0
 10
14.83067538647487
 20
2.639505704228273
 30
0.0
 10
14.50880642671723
 20
2.635634129099554
 30
0.0
 10
14.1623333035295
 20
2.635822025190539
 30
0.0
 10
13.78166562168321
 20
2.64143614347085
 30
0.0
 10
13.36765857013718
 20
2.653027149762532
 30
0.0
 10
12.8963523383898
 20
2.673977093712906
 30
0.0
 10
12.3966831190746
 20
2.705443937714325
 30
0.0
 10
11.97505621533467
 20
2.739250823691676
 30
0.0
 10
11.62846736905789
 20
2.771552209799748
 30
0.0
 10
11.33291257667815
 20
2.802166818431385
 30
0.0
 10
10.97926458635185
 20
2.842253157013821
 30
0.0
 10
10.53512962165819
 20
2.896935395734996
 30
0.0
 10
10.19342434123444
 20
2.944638207739167
 30
0.0
 10
9.999999999999815
 20
2.971640673066899
 30
0.0
  0
SPLINE
  5
9C
330
1F
100
AcDbEntity
  8
0
  6
Continuous
 62
     1
370
    15
100
AcDbSpline
210
0.0
220
0.0
230
1.0
 70
     8
 71
     3
 72
    13
 73
     9
 74
     0
 42
0.000000001
 43
0.00000001
 40
0.0
 40
0.0
 40
0.0
 40
0.0
 40
0.2092012462168129
 40
0.3695769107818914
 40
0.4806585960287681
 40
0.6461927562669528
 40
0.8174928911302016
 40
1.0
 40
1.0
 40
1.0
 40
1.0
 10
9.999999999999815
 20
-2.964210995925714
 30
0.0
 10
10.19341250661496
 20
-2.937208512357677
 30
0.0
 10
10.53509687988741
 20
-2.889505668130009
 30
0.0
 10
10.97934876163981
 20
-2.834823609609205
 30
0.0
 10
11.38150147104165
 20
-2.789200469587447
 30
0.0
 10
11.7842316758415
 20
-2.748626382457605
 30
0.0
 10
12.25526875939619
 20
-2.707945228242245
 30
0.0
 10
12.57535862120368
 20
-2.688050693087175
 30
0.0
 10
12.74047303390094
 20
-2.677788342166513
 30
0.0
  0
SPLINE
  5
9D
330
1F
100
AcDbEntity
  8
0
  6
Continuous
 62
     1
370
    15
100
AcDbSpline
210
0.0
220
0.0
230
1.0
 70
     8
 71
     3
 72
    22
 73
    18
 74
     0
 42
0.000000001
 43
0.00000001
 40
0.0
 40
0.0
 40
0.0
 40
0.0
 40
0.1016276486895696
 40
0.1707758287456599
 40
0.2428838774816059
 40
0.3081292142913276
 40
0.360022545010418
 40
0.4167864418053098
 40
0.4914931849620415
 40
0.5666234944260251
 40
0.6202983252601154
 40
0.6720405163448636
 40
0.7421579480597591
 40
0.8042408465461087
 40
0.8523959945093724
 40
0.9087802105207277
 40
1.0
 40
1.0
 40
1.0
 40
1.0
 10
38.51299111597619
 20
2.739523092404896
 30
0.0
 10
38.28121332355691
 20
2.720973205979855
 30
0.0
 10
37.89173226111347
 20
2.689801843971364
 30
0.0
 10
37.31494439070284
 20
2.660413234314905
 30
0.0
 10
36.83209473940484
 20
2.643618351702
 30
0.0
 10
36.39235892238253
 20
2.636206139475108
 30
0.0
 10
35.98706874271352
 20
2.635484128888622
 30
0.0
 10
35.5598813591251
 20
2.640670180286342
 30
0.0
 10
35.07868889374304
 20
2.654617856119284
 30
0.0
 10
34.60501306183484
 20
2.67751569111262
 30
0.0
 10
34.18412978384845
 20
2.70450912764548
 30
0.0
 10
33.77576909815485
 20
2.735975185855644
 30
0.0
 10
33.34760454346676
 20
2.775456957074103
 30
0.0
 10
32.92753953877654
 20
2.820854181060001
 30
0.0
 10
32.53606560124626
 20
2.867966577668408
 30
0.0
 10
32.07916812315784
 20
2.92782525115474
 30
0.0
 10
31.7375342992601
 20
2.980001537959754
 30
0.0
 10
31.52640340622395
 20
3.012246664928654
 30
0.0
  0
LINE
  5
9E
330
1F
100
AcDbEntity
  8
0
  6
Continuous
 62
   131
370
    15
100
AcDbLine
 10
8.479892531345273
 20
4.003714838570593
 30
0.0
 11
-59.19000000000013
 21
4.003714838570589
 31
0.0
  0
LINE
  5
9F
330
1F
100
AcDbEntity
  8
0
  6
Continuous
 62
   131
370
    15
100
AcDbLine
 10
-59.19000000000013
 20
-3.996285161429411
 30
0.0
 11
8.479892531345273
 21
-3.996285161429407
 31
0.0
  0
LINE
  5
A0
330
1F
100
AcDbEntity
  8
0
  6
Continuous
 62
   131
370
    15
100
AcDbLine
 10
-59.19000000000013
 20
4.003714838570584
 30
0.0
 11
-60.00000000000014
 21
3.193714838570584
 31
0.0
  0
LINE
  5
A1
330
1F
100
AcDbEntity
  8
0
  6
Continuous
 62
   131
370
    15
100
AcDbLine
 10
-60.00000000000014
 20
-3.186285161429408
 30
0.0
 11
-59.19000000000013
 21
-3.996285161429407
 31
0.0
  0
SPLINE
  5
A2
330
1F
100
AcDbEntity
  8
0
  6
Continuous
 62
   131
370
    15
100
AcDbSpline
210
0.0
220
0.0
230
1.0
 70
     8
 71
     3
 72
     9
 73
     5
 74
     0
 42
0.000000001
 43
0.00000001
 40
0.0
 40
0.0
 40
0.0
 40
0.0
 40
0.4984843576123827
 40
1.0
 40
1.0
 40
1.0
 40
1.0
 10
9.701963964085037
 20
-3.013994066114512
 30
0.0
 10
9.751731960680761
 20
-3.005815294964736
 30
0.0
 10
9.85157059319894
 20
-2.98940801753491
 30
0.0
 10
9.950423647147083
 20
-2.972626959184339
 30
0.0
 10
9.999999999999863
 20
-2.964210995925708
 30
0.0
  0
SPLINE
  5
A3
330
1F
100
AcDbEntity
  8
0
  6
Continuous
 62
   131
370
    15
100
AcDbSpline
210
0.0
220
0.0
230
1.0
 70
     8
 71
     3
 72
     9
 73
     5
 74
     0
 42
0.000000001
 43
0.00000001
 40
0.0
 40
0.0
 40
0.0
 40
0.0
 40
0.4600743502321474
 40
1.0
 40
1.0
 40
1.0
 40
1.0
 10
9.977200048558833
 20
2.975490310080489
 30
0.0
 10
9.935205250558727
 20
2.982616071813156
 30
0.0
 10
9.843926964823135
 20
2.998104354802789
 30
0.0
 10
9.751738747320882
 20
3.013247545940896
 30
0.0
 10
9.701963964085037
 20
3.021423743255697
 30
0.0
  0
SPLINE
  5
A4
330
1F
100
AcDbEntity
  8
0
  6
Continuous
 62
     1
370
    15
100
AcDbSpline
210
0.0
220
0.0
230
1.0
 70
     8
 71
     3
 72
    31
 73
    27
 74
     0
 42
0.000000001
 43
0.00000001
 40
0.0
 40
0.0
 40
0.0
 40
0.0
 40
0.0343681023155467
 40
0.0768718680834545
 40
0.1190386597609992
 40
0.1614986270565116
 40
0.2036651449259586
 40
0.2461228406375661
 40
0.2882894807970326
 40
0.3307482258866526
 40
0.3729148530940254
 40
0.415373903598252
 40
0.45754048706218
 40
0.499998131089942
 40
0.54216480818477
 40
0.5846242281256476
 40
0.6267907271444115
 40
0.6692488536575592
 40
0.7114154788874899
 40
0.7538736049036966
 40
0.7960376241761761
 40
0.8384948346098854
 40
0.8782472686876489
 40
0.9182435033532904
 40
0.9589902181963892
 40
1.0
 40
1.0
 40
1.0
 40
1.0
 10
12.74096866560698
 20
2.685419595107851
 30
0.0
 10
13.05314300423293
 20
2.816681511339881
 30
0.0
 10
13.75139001122693
 20
3.110277841341656
 30
0.0
 10
14.83343823585562
 20
3.465324514649188
 30
0.0
 10
15.9887368446
 20
3.757336173765273
 30
0.0
 10
17.14034555312957
 20
3.942949329609378
 30
0.0
 10
18.29519842275556
 20
4.020117896754366
 30
0.0
 10
19.44773605789736
 20
3.986301837896119
 30
0.0
 10
20.6019719118533
 20
3.841984848837431
 30
0.0
 10
21.7539224356892
 20
3.591817452296246
 30
0.0
 10
22.90930942168041
 20
3.24263203011339
 30
0.0
 10
24.06099870532074
 20
2.803784851572643
 30
0.0
 10
25.21539170316036
 20
2.286264551823217
 30
0.0
 10
26.3681645948695
 20
1.708430084599396
 30
0.0
 10
27.52263176965076
 20
1.080707462304314
 30
0.0
 10
28.67428386487052
 20
0.424215518908542
 30
0.0
 10
29.8296066906643
 20
-0.2435691470479163
 30
0.0
 10
30.98164766304746
 20
-0.9041527618818687
 30
0.0
 10
32.13587121562632
 20
-1.541786802737108
 30
0.0
 10
33.28826397232123
 20
-2.133933130219608
 30
0.0
 10
34.4432142309717
 20
-2.668525629493202
 30
0.0
 10
35.5728179795119
 20
-3.120163452724925
 30
0.0
 10
36.68333513968746
 20
-3.482511944548653
 30
0.0
 10
37.7785671237619
 20
-3.751702437386395
 30
0.0
 10
38.88420731400569
 20
-3.936535098345626
 30
0.0
 10
39.62727212090856
 20
-3.974074384434193
 30
0.0
 10
39.99999999999945
 20
-3.99628516142929
 30
0.0
  0
SPLINE
  5
A5
330
1F
100
AcDbEntity
  8
0
  6
Continuous
 62
     1
370
    15
100
AcDbSpline
210
0.0
220
0.0
230
1.0
 70
     8
 71
     3
 72
    14
 73
    10
 74
     0
 42
0.000000001
 43
0.00000001
 40
0.0
 40
0.0
 40
0.0
 40
0.0
 40
0.1418691672175735
 40
0.2896232146247417
 40
0.4374595062914764
 40
0.5853230831890177
 40
0.7331587410066785
 40
0.8809115264088188
 40
1.0
 40
1.0
 40
1.0
 40
1.0
 10
30.07182824803193
 20
-0.380898122785169
 30
0.0
 10
29.44155192889483
 20
-0.1257594589930979
 30
0.0
 10
28.15485477523928
 20
0.3951012849710599
 30
0.0
 10
26.21126510595554
 20
1.160282568747485
 30
0.0
 10
24.24090853035398
 20
1.840023244620759
 30
0.0
 10
22.27015882708312
 20
2.374715718001355
 30
0.0
 10
20.29981178981754
 20
2.712282274578039
 30
0.0
 10
18.45744364419007
 20
2.847438103239786
 30
0.0
 10
17.27195728134052
 20
2.760450285884156
 30
0.0
 10
16.74288706953175
 20
2.721628529349985
 30
0.0
  0
SPLINE
  5
A6
330
1F
100
AcDbEntity
  8
0
  6
Continuous
 62
     1
370
    15
100
AcDbSpline
210
0.0
220
0.0
230
1.0
 70
     8
 71
     3
 72
    20
 73
    16
 74
     0
 42
0.000000001
 43
0.00000001
 40
0.0
 40
0.0
 40
0.0
 40
0.0
 40
0.0806730921763818
 40
0.16133669546798
 40
0.2419920541555506
 40
0.3226404204026368
 40
0.4032830530730383
 40
0.4839212165346045
 40
0.5645561794517627
 40
0.6451892135692435
 40
0.7258215924894761
 40
0.8064545904461669
 40
0.8870894810765827
 40
0.9677275361950575
 40
1.0
 40
1.0
 40
1.0
 40
1.0
 10
39.99999999999987
 20
-3.792048638357005
 30
0.0
 10
39.47448077294972
 20
-3.677380993466336
 30
0.0
 10
38.42350413117446
 20
-3.448059191057818
 30
0.0
 10
36.84717196922684
 20
-2.873791275896082
 30
0.0
 10
35.27103004232328
 20
-2.165325119687344
 30
0.0
 10
33.69505281976018
 20
-1.341368920513218
 30
0.0
 10
32.11920978518159
 20
-0.4491526411309689
 30
0.0
 10
30.54347158130265
 20
0.4666611021590772
 30
0.0
 10
28.96780838924909
 20
1.358473690877082
 30
0.0
 10
27.39219044496905
 20
2.180754949372651
 30
0.0
 10
25.81658777312739
 20
2.88996709108752
 30
0.0
 10
24.24097091516074
 20
3.453924832738403
 30
0.0
 10
22.66530846369902
 20
3.827389726341237
 30
0.0
 10
21.4046377132705
 20
4.006713614244423
 30
0.0
 10
20.66917640934527
 20
3.985087139147292
 30
0.0
 10
20.45896438891375
 20
3.978905787387903
 30
0.0
  0
SPLINE
  5
A7
330
1F
100
AcDbEntity
  8
0
  6
Continuous
 62
     1
370
    15
100
AcDbSpline
210
0.0
220
0.0
230
1.0
 70
     8
 71
     3
 72
    15
 73
    11
 74
     0
 42
0.000000001
 43
0.00000001
 40
0.0
 40
0.0
 40
0.0
 40
0.0
 40
0.1264054537747682
 40
0.2526483716374624
 40
0.3788518357307936
 40
0.5051394366514901
 40
0.6315965181284179
 40
0.7579290403861842
 40
0.8841434086506141
 40
1.0
 40
1.0
 40
1.0
 40
1.0
 10
39.99999999999986
 20
-3.152174218902269
 30
0.0
 10
39.56182205666275
 20
-3.061293247962214
 30
0.0
 10
38.68602959228991
 20
-2.879648163551942
 30
0.0
 10
37.37313053542655
 20
-2.47333487335141
 30
0.0
 10
36.06066020183024
 20
-1.986443119559154
 30
0.0
 10
34.74736188715767
 20
-1.425960051281432
 30
0.0
 10
33.43315770594779
 20
-0.815274282687412
 30
0.0
 10
32.11955934464734
 20
-0.1753913534294849
 30
0.0
 10
30.84289828561539
 20
0.4562558035387862
 30
0.0
 10
30.00398827584085
 20
0.853713223556935
 30
0.0
 10
29.60248098914933
 20
1.043938692829606
 30
0.0
  0
LINE
  5
A8
330
1F
100
AcDbEntity
  8
0
  6
Continuous
 62
     1
370
    15
100
AcDbLine
 10
39.99999999999972
 20
-3.792048638357006
 30
0.0
 11
39.99999999999986
 21
-3.152174218902269
 31
0.0
  0
LINE
  5
A9
330
1F
100
AcDbEntity
  8
0
  6
Continuous
 62
     1
370
    15
100
AcDbLine
 10
39.99999999999945
 20
-3.99628516142929
 30
0.0
 11
39.9999999999997
 21
-3.792048638357
 31
0.0
  0
SPLINE
  5
AA
330
1F
100
AcDbEntity
  8
0
  6
Continuous
 62
     1
370
    15
100
AcDbSpline
210
0.0
220
0.0
230
1.0
 70
     8
 71
     3
 72
    17
 73
    13
 74
     0
 42
0.000000001
 43
0.00000001
 40
0.0
 40
0.0
 40
0.0
 40
0.0
 40
0.051528064400664
 40
0.1564744734500126
 40
0.261425001084451
 40
0.3663812986079389
 40
0.4713450117772172
 40
0.5763177792299128
 40
0.6822308573867923
 40
0.7881528099486749
 40
0.8940805270264045
 40
1.0
 40
1.0
 40
1.0
 40
1.0
 10
25.01461495819369
 20
-3.141538145204237
 30
0.0
 10
24.75673738887968
 20
-3.236610958265193
 30
0.0
 10
23.97364457640333
 20
-3.525317094157475
 30
0.0
 10
22.66530906781522
 20
-3.822546710651638
 30
0.0
 10
21.08957355633826
 20
-4.015660065676138
 30
0.0
 10
19.51373404960165
 20
-3.993067678920292
 30
0.0
 10
17.93776031546668
 20
-3.7668800447028
 30
0.0
 10
16.35697357257363
 20
-3.344539657800921
 30
0.0
 10
14.77134827757557
 20
-2.746767836886534
 30
0.0
 10
13.1809222861764
 20
-2.002680235787301
 30
0.0
 10
11.59043244214795
 20
-1.154334469624681
 30
0.0
 10
10.53013039337735
 20
-0.5459270883358425
 30
0.0
 10
9.999999999996172
 20
-0.2417352358796146
 30
0.0
  0
SPLINE
  5
AB
330
1F
100
AcDbEntity
  8
0
  6
Continuous
 62
     1
370
    15
100
AcDbSpline
210
0.0
220
0.0
230
1.0
 70
     8
 71
     3
 72
    15
 73
    11
 74
     0
 42
0.000000001
 43
0.00000001
 40
0.0
 40
0.0
 40
0.0
 40
0.0
 40
0.1476976777511931
 40
0.2966243446593418
 40
0.4316977617010448
 40
0.5677065765935423
 40
0.7026371000487582
 40
0.8385057631637141
 40
0.9734354104538604
 40
1.0
 40
1.0
 40
1.0
 40
1.0
 10
9.999999999999863
 20
-1.334829928067024
 30
0.0
 10
10.41955123391175
 20
-1.558552927070932
 30
0.0
 10
11.26214477840724
 20
-2.007860519276599
 30
0.0
 10
12.48797750481375
 20
-2.586382054972716
 30
0.0
 10
13.68008853980383
 20
-3.074530422710804
 30
0.0
 10
14.833439368882
 20
-3.458798279643994
 30
0.0
 10
15.98873859369777
 20
-3.751173589088003
 30
0.0
 10
17.14033736978453
 20
-3.929507842968062
 30
0.0
 10
17.98483214315699
 20
-4.006898753455863
 30
0.0
 10
18.44350630584698
 20
-3.9902643459684
 30
0.0
 10
18.51895476212614
 20
-3.987528110819058
 30
0.0
  0
SPLINE
  5
AC
330
1F
100
AcDbEntity
  8
0
  6
Continuous
 62
     1
370
    15
100
AcDbSpline
210
0.0
220
0.0
230
1.0
 70
     8
 71
     3
 72
    12
 73
     8
 74
     0
 42
0.000000001
 43
0.00000001
 40
0.0
 40
0.0
 40
0.0
 40
0.0
 40
0.1999777740044107
 40
0.3968930288373793
 40
0.5950159595272925
 40
0.7968564234656613
 40
1.0
 40
1.0
 40
1.0
 40
1.0
 10
34.49728520256217
 20
2.685246960476565
 30
0.0
 10
34.86399831037402
 20
2.836673814231371
 30
0.0
 10
35.59180857228144
 20
3.137208525817542
 30
0.0
 10
36.68332717029055
 20
3.489023559407156
 30
0.0
 10
37.77856929863687
 20
3.759382656782417
 30
0.0
 10
38.88420676195583
 20
3.94390118019263
 30
0.0
 10
39.62727193649763
 20
3.981482817719404
 30
0.0
 10
39.99999999999972
 20
4.003714838570699
 30
0.0
  0
LINE
  5
AD
330
1F
100
AcDbEntity
  8
0
  6
Continuous
 62
   131
370
    15
100
AcDbLine
 10
9.999999999999863
 20
-1.334829928067022
 30
0.0
 11
9.999999999999863
 21
-0.2417352358720313
 31
0.0
  0
SPLINE
  5
AE
330
1F
100
AcDbEntity
  8
0
  6
Continuous
 62
   131
370
    15
100
AcDbSpline
210
0.0
220
0.0
230
1.0
 70
    24
 71
     3
 72
     8
 73
     4
 74
     0
 42
0.000000001
 43
0.00000001
 40
0.0
 40
0.0
 40
0.0
 40
0.0
 40
1.0
 40
1.0
 40
1.0
 40
1.0
 10
10.0
 20
0.0
 30
0.0
 10
10.0
 20
-0.0643814117830164
 30
0.0
 10
10.0
 20
-0.145405832393438
 30
0.0
 10
10.0
 20
-0.2417352358767859
 30
0.0
  0
SPLINE
  5
AF
330
1F
100
AcDbEntity
  8
0
  6
Continuous
 62
     1
370
    15
100
AcDbSpline
210
0.0
220
0.0
230
1.0
 70
     8
 71
     3
 72
    17
 73
    13
 74
     0
 42
0.000000001
 43
0.00000001
 40
0.0
 40
0.0
 40
0.0
 40
0.0
 40
0.0560039639726242
 40
0.1628200132438418
 40
0.2695075529411818
 40
0.3761706956432791
 40
0.4829138683752284
 40
0.5897924375899951
 40
0.6965500366318389
 40
0.8032166811658619
 40
0.901504122409221
 40
1.0
 40
1.0
 40
1.0
 40
1.0
 10
22.30275470672389
 20
-3.30953030881265
 30
0.0
 10
22.07305692653282
 20
-3.335165187508095
 30
0.0
 10
21.40525784661284
 20
-3.409693327886459
 30
0.0
 10
20.29988079827973
 20
-3.401202774802208
 30
0.0
 10
18.98707862678533
 20
-3.29143082633951
 30
0.0
 10
17.6745816691632
 20
-3.057630885666402
 30
0.0
 10
16.36119211637261
 20
-2.715633598670517
 30
0.0
 10
15.04696672341732
 20
-2.276266425788527
 30
0.0
 10
13.73347639179628
 20
-1.754882249909895
 30
0.0
 10
12.45530149940387
 20
-1.185878967187392
 30
0.0
 10
11.21121115262588
 20
-0.5934816305795716
 30
0.0
 10
10.40402204716765
 20
-0.1979668555918697
 30
0.0
 10
9.999999999999934
 20
0.0000000000000332
 30
0.0
  0
SPLINE
  5
B0
330
1F
100
AcDbEntity
  8
0
  6
Continuous
 62
     1
370
    15
100
AcDbSpline
210
0.0
220
0.0
230
1.0
 70
    24
 71
     3
 72
    10
 73
     6
 74
     0
 42
0.000000001
 43
0.00000001
 40
0.0
 40
0.0
 40
0.0
 40
0.0
 40
0.5
 40
0.5
 40
1.0
 40
1.0
 40
1.0
 40
1.0
 10
39.99999999999986
 20
2.803714838570596
 30
0.0
 10
39.99999999999986
 20
2.973443865799851
 30
0.0
 10
39.99999999999986
 20
3.170684714039064
 30
0.0
 10
39.99999999999986
 20
3.584495482414018
 30
0.0
 10
39.99999999999986
 20
3.800008581776486
 30
0.0
 10
39.99999999999972
 20
4.003714838570699
 30
0.0
  0
LINE
  5
B1
330
1F
100
AcDbEntity
  8
0
  6
Continuous
 62
     1
370
    15
100
AcDbLine
 10
39.99999999999986
 20
2.803714838570598
 30
0.0
 11
38.50856716479125
 21
2.718581304678025
 31
0.0
  0
SPLINE
  5
B2
330
1F
100
AcDbEntity
  8
0
  6
Continuous
 62
     1
370
    15
100
AcDbSpline
210
0.0
220
0.0
230
1.0
 70
     8
 71
     3
 72
     8
 73
     4
 74
     0
 42
0.000000001
 43
0.00000001
 40
0.0
 40
0.0
 40
0.0
 40
0.0
 40
1.0
 40
1.0
 40
1.0
 40
1.0
 10
37.5247185512663
 20
1.122868442886844
 30
0.0
 10
37.34554341134226
 20
1.335161685545672
 30
0.0
 10
37.19000160100899
 20
1.538088637212405
 30
0.0
 10
37.06722270051477
 20
1.726850212989404
 30
0.0
  0
LINE
  5
B3
330
1F
100
AcDbEntity
  8
0
  6
Continuous
 62
     1
370
    15
100
AcDbLine
 10
37.06722270051475
 20
1.726850212989406
 30
0.0
 11
39.99999999999986
 21
0.0037148385705967
 31
0.0
  0
LINE
  5
B4
330
1F
100
AcDbEntity
  8
0
  6
Continuous
 62
     1
370
    15
100
AcDbLine
 10
39.99999999999986
 20
0.0037148385705967
 30
0.0
 11
39.99999999999986
 21
-1.065256945547983
 31
0.0
  0
SPLINE
  5
B5
330
1F
100
AcDbEntity
  8
0
  6
Continuous
 62
     1
370
    15
100
AcDbSpline
210
0.0
220
0.0
230
1.0
 70
     8
 71
     3
 72
    10
 73
     6
 74
     0
 42
0.000000001
 43
0.00000001
 40
0.0
 40
0.0
 40
0.0
 40
0.0
 40
0.5
 40
0.5
 40
1.0
 40
1.0
 40
1.0
 40
1.0
 10
39.99999999999986
 20
-1.065256945547983
 30
0.0
 10
39.5715170397638
 20
-0.72839624183368
 30
0.0
 10
39.15019312186332
 20
-0.3777217155984398
 30
0.0
 10
38.32222625633974
 20
0.351955192518193
 30
0.0
 10
37.91171971059731
 20
0.734786058058706
 30
0.0
 10
37.5247185512663
 20
1.122868442886837
 30
0.0
  0
SPLINE
  5
B6
330
1F
100
AcDbEntity
  8
0
  6
Continuous
 62
     1
370
    15
100
AcDbSpline
210
0.0
220
0.0
230
1.0
 70
     8
 71
     3
 72
    12
 73
     8
 74
     0
 42
0.000000001
 43
0.00000001
 40
0.0
 40
0.0
 40
0.0
 40
0.0
 40
0.1589550176951098
 40
0.3729038081733452
 40
0.5868394779279575
 40
0.8006843823976336
 40
1.0
 40
1.0
 40
1.0
 40
1.0
 10
37.52471855125323
 20
1.122868442892484
 30
0.0
 10
37.03683718042903
 20
1.329098699544175
 30
0.0
 10
35.8922817976846
 20
1.812908831373363
 30
0.0
 10
34.08998411108616
 20
2.446899493176476
 30
0.0
 10
32.11947914185318
 20
2.94378427797849
 30
0.0
 10
30.19391324383398
 20
3.218309321974108
 30
0.0
 10
28.92542713331526
 20
3.188482408935728
 30
0.0
 10
28.313487998206
 20
3.174093402058688
 30
0.0
  0
SPLINE
  5
B7
330
1F
100
AcDbEntity
  8
0
  6
Continuous
 62
     1
370
    15
100
AcDbSpline
210
0.0
220
0.0
230
1.0
 70
    24
 71
     3
 72
    10
 73
     6
 74
     0
 42
0.000000001
 43
0.00000001
 40
0.0
 40
0.0
 40
0.0
 40
0.0
 40
0.5
 40
0.5
 40
1.0
 40
1.0
 40
1.0
 40
1.0
 10
39.99999999999986
 20
-3.152174218902267
 30
0.0
 10
39.99999999999986
 20
-2.910250717444623
 30
0.0
 10
39.99999999999986
 20
-2.604571097055278
 30
0.0
 10
39.99999999999986
 20
-1.893895398032124
 30
0.0
 10
39.99999999999986
 20
-1.489514933634643
 30
0.0
 10
39.99999999999986
 20
-1.065256945548111
 30
0.0
  0
SPLINE
  5
B8
330
1F
100
AcDbEntity
  8
0
  6
Continuous
 62
     1
370
    15
100
AcDbSpline
210
0.0
220
0.0
230
1.0
 70
     8
 71
     3
 72
    19
 73
    15
 74
     0
 42
0.000000001
 43
0.00000001
 40
0.0
 40
0.0
 40
0.0
 40
0.0
 40
0.0644617690823162
 40
0.1558578510780323
 40
0.247295258633646
 40
0.3387822375766985
 40
0.4302856614907164
 40
0.5217722567180182
 40
0.6132089002747897
 40
0.7046052820123344
 40
0.7960630844111882
 40
0.887559323476085
 40
0.9437192866991654
 40
1.0
 40
1.0
 40
1.0
 40
1.0
 10
31.53775908563928
 20
-2.977275583416955
 30
0.0
 10
31.07494380195982
 20
-3.048971757930252
 30
0.0
 10
29.95593331578719
 20
-3.222321199765902
 30
0.0
 10
28.18071973668527
 20
-3.204558760018181
 30
0.0
 10
26.21126976511756
 20
-2.959849015300934
 30
0.0
 10
24.24090717626925
 20
-2.468447205585448
 30
0.0
 10
22.27014588339985
 20
-1.780811915640915
 30
0.0
 10
20.29978858183791
 20
-0.9493219936746307
 30
0.0
 10
18.3303630679579
 20
-0.0414357462289097
 30
0.0
 10
16.36130387126448
 20
0.8701919035414422
 30
0.0
 10
14.39170473913673
 20
1.712818974030434
 30
0.0
 10
12.67440739043679
 20
2.324238610836564
 30
0.0
 10
11.21125297722165
 20
2.738023030342251
 30
0.0
 10
10.40403994784886
 20
2.89439216685403
 30
0.0
 10
9.999999999999863
 20
2.97266069754227
 30
0.0
  0
SPLINE
  5
B9
330
1F
100
AcDbEntity
  8
0
  6
Continuous
 62
   131
370
    15
100
AcDbSpline
210
0.0
220
0.0
230
1.0
 70
    24
 71
     3
 72
    14
 73
    10
 74
     0
 42
0.000000001
 43
0.00000001
 40
0.0
 40
0.0
 40
0.0
 40
0.0
 40
0.2499999999999998
 40
0.2499999999999998
 40
0.4999999999999999
 40
0.4999999999999999
 40
0.75
 40
0.75
 40
1.0
 40
1.0
 40
1.0
 40
1.0
 10
9.999999999999778
 20
2.972660697542286
 30
0.0
 10
9.999999999999778
 20
2.82525951873164
 30
0.0
 10
9.999999999999778
 20
2.64554155787464
 30
0.0
 10
9.999999999999778
 20
2.227586233529844
 30
0.0
 10
9.999999999999778
 20
1.989398444333311
 30
0.0
 10
9.999999999999778
 20
1.469852335996263
 30
0.0
 10
9.999999999999778
 20
1.188644046000444
 30
0.0
 10
9.999999999999778
 20
0.6046643650197953
 30
0.0
 10
9.999999999999778
 20
0.302073282841571
 30
0.0
 10
9.999999999999778
 20
0.0000000000001092
 30
0.0
  0
SPLINE
  5
BA
330
1F
100
AcDbEntity
  8
0
  6
Continuous
 62
     1
370
    15
100
AcDbSpline
210
0.0
220
0.0
230
1.0
 70
     8
 71
     3
 72
    10
 73
     6
 74
     0
 42
0.000000001
 43
0.00000001
 40
0.0
 40
0.0
 40
0.0
 40
0.0
 40
0.5
 40
0.5
 40
1.0
 40
1.0
 40
1.0
 40
1.0
 10
39.99999999999986
 20
2.803714838570598
 30
0.0
 10
39.5022374600965
 20
2.668660861103056
 30
0.0
 10
39.0082151150129
 20
2.513835488502487
 30
0.0
 10
38.02867820086071
 20
2.159210989418856
 30
0.0
 10
37.54303221981844
 20
1.959979664185124
 30
0.0
 10
37.06722270051274
 20
1.726850212991035
 30
0.0
  0
SPLINE
  5
BB
330
1F
100
AcDbEntity
  8
0
  6
Continuous
 62
   131
370
    15
100
AcDbSpline
210
0.0
220
0.0
230
1.0
 70
    24
 71
     3
 72
    13
 73
     9
 74
     0
 42
0.000000001
 43
0.00000001
 40
0.0
 40
0.0
 40
0.0
 40
0.0
 40
0.0727533984343134
 40
0.2796392326928367
 40
0.4806944519718222
 40
0.6875802862303472
 40
0.8866020044247037
 40
1.0
 40
1.0
 40
1.0
 40
1.0
 10
9.999999999999844
 20
-1.403524735634096
 30
0.0
 10
9.99999999999985
 20
-1.47318876771901
 30
0.0
 10
9.999999999999885
 20
-1.740953530572022
 30
0.0
 10
9.999999999999861
 20
-2.115257326105924
 30
0.0
 10
9.999999999999867
 20
-2.513912701262351
 30
0.0
 10
9.999999999999863
 20
-2.785403328010289
 30
0.0
 10
9.999999999999867
 20
-2.936387297969307
 30
0.0
 10
9.999999999999863
 20
-2.945392596808967
 30
0.0
 10
9.999999999999863
 20
-2.948661221652299
 30
0.0
  0
LINE
  5
BC
330
1F
100
AcDbEntity
  8
0
  6
Continuous
 62
     1
370
    15
100
AcDbLine
 10
39.99999999999986
 20
0.0037148385705967
 30
0.0
 11
39.99999999999986
 21
2.803714838570597
 31
0.0
  0
SPLINE
  5
BD
330
1F
100
AcDbEntity
  8
0
  6
Continuous
 62
   131
370
    15
100
AcDbSpline
210
0.0
220
0.0
230
1.0
 70
    24
 71
     3
 72
     8
 73
     4
 74
     0
 42
0.000000001
 43
0.00000001
 40
0.0
 40
0.0
 40
0.0
 40
0.0
 40
1.0
 40
1.0
 40
1.0
 40
1.0
 10
10.0
 20
0.0
 30
0.0
 10
10.0
 20
-0.0643814117830179
 30
0.0
 10
10.0
 20
-0.1454058323934417
 30
0.0
 10
10.0
 20
-0.2417352358767925
 30
0.0
  0
SPLINE
  5
BE
330
1F
100
AcDbEntity
  8
0
  6
Continuous
 62
   131
370
    15
100
AcDbSpline
210
0.0
220
0.0
230
1.0
 70
     8
 71
     3
 72
    10
 73
     6
 74
     0
 42
0.000000001
 43
0.00000001
 40
0.0
 40
0.0
 40
0.0
 40
0.0
 40
0.5
 40
0.5
 40
1.0
 40
1.0
 40
1.0
 40
1.0
 10
9.999999999999863
 20
-0.2417352358817466
 30
0.0
 10
9.74770548282028
 20
-0.0959582464189145
 30
0.0
 10
9.495633711080778
 20
0.0502674467134599
 30
0.0
 10
8.987533373772298
 20
0.3427070470704291
 30
0.0
 10
8.732834587012997
 20
0.488661542960059
 30
0.0
 10
8.479780047013493
 20
0.6330393015739351
 30
0.0
  0
SPLINE
  5
BF
330
1F
100
AcDbEntity
  8
0
  6
Continuous
 62
   131
370
    15
100
AcDbSpline
210
0.0
220
0.0
230
1.0
 70
     8
 71
     3
 72
    10
 73
     6
 74
     0
 42
0.000000001
 43
0.00000001
 40
0.0
 40
0.0
 40
0.0
 40
0.0
 40
0.5
 40
0.5
 40
1.0
 40
1.0
 40
1.0
 40
1.0
 10
9.999999999999924
 20
0.0000000000000379
 30
0.0
 10
9.74770548282033
 20
0.1241443114426935
 30
0.0
 10
9.49563371108082
 20
0.2482605383244225
 30
0.0
 10
8.987533373772319
 20
0.4956594203882246
 30
0.0
 10
8.732834587013008
 20
0.6187209947102641
 30
0.0
 10
8.479780047013493
 20
0.7400405845646367
 30
0.0
  0
LINE
  5
C0
330
1F
100
AcDbEntity
  8
0
  6
Continuous
 62
   131
370
    15
100
AcDbLine
 10
8.479892531345273
 20
0.6332085947538634
 30
0.0
 11
8.479892531345273
 21
4.003714838570593
 31
0.0
  0
SPLINE
  5
C1
330
1F
100
AcDbEntity
  8
0
  6
Continuous
 62
   131
370
    15
100
AcDbSpline
210
0.0
220
0.0
230
1.0
 70
     8
 71
     3
 72
    10
 73
     6
 74
     0
 42
0.000000001
 43
0.00000001
 40
0.0
 40
0.0
 40
0.0
 40
0.0
 40
0.4999999999999999
 40
0.4999999999999999
 40
1.0
 40
1.0
 40
1.0
 40
1.0
 10
8.47989253134527
 20
-0.4824671099469857
 30
0.0
 10
8.732928810058887
 20
-0.6275710446358592
 30
0.0
 10
8.987608754596128
 20
-0.7720113315770568
 30
0.0
 10
9.495671257022048
 20
-1.056951908063785
 30
0.0
 10
9.747724173885135
 20
-1.197208196504235
 30
0.0
 10
9.999999999999863
 20
-1.334829928067019
 30
0.0
  0
LINE
  5
C2
330
1F
100
AcDbEntity
  8
0
  6
Continuous
 62
   131
370
    15
100
AcDbLine
 10
8.479892531345273
 20
-3.996285161429407
 30
0.0
 11
8.47989253134527
 21
-0.4824712327084821
 31
0.0
  0
LINE
  5
C3
330
1F
100
AcDbEntity
  8
0
  6
Continuous
 62
   131
370
    15
100
AcDbLine
 10
-59.19000000000013
 20
4.003714838570584
 30
0.0
 11
-59.19000000000013
 21
-3.996285161429411
 31
0.0
  0
LINE
  5
C4
330
1F
100
AcDbEntity
  8
0
  6
Continuous
 62
   131
370
    15
100
AcDbLine
 10
-60.00000000000014
 20
3.193714838570584
 30
0.0
 11
-60.00000000000014
 21
-3.18628516142941
 31
0.0
  0
SPLINE
  5
C5
330
1F
100
AcDbEntity
  8
0
  6
Continuous
 62
   131
370
    15
100
AcDbSpline
210
0.0
220
0.0
230
1.0
 70
     8
 71
     3
 72
    10
 73
     6
 74
     0
 42
0.000000001
 43
0.00000001
 40
0.0
 40
0.0
 40
0.0
 40
0.0
 40
0.5
 40
0.5
 40
1.0
 40
1.0
 40
1.0
 40
1.0
 10
9.999999999999863
 20
2.97266069754227
 30
0.0
 10
9.74771734695432
 20
3.016251021905126
 30
0.0
 10
9.495657543331822
 20
3.05389762017338
 30
0.0
 10
8.987581221673297
 20
3.116985187150722
 30
0.0
 10
8.732894394988524
 20
3.142346142416905
 30
0.0
 10
8.479851446301439
 20
3.16132037160456
 30
0.0
  0
SPLINE
  5
C6
330
1F
100
AcDbEntity
  8
0
  6
Continuous
 62
   131
370
    15
100
AcDbSpline
210
0.0
220
0.0
230
1.0
 70
    24
 71
     3
 72
    14
 73
    10
 74
     0
 42
0.000000001
 43
0.00000001
 40
0.0
 40
0.0
 40
0.0
 40
0.0
 40
0.2499999999999998
 40
0.2499999999999998
 40
0.4999999999999999
 40
0.4999999999999999
 40
0.75
 40
0.75
 40
1.0
 40
1.0
 40
1.0
 40
1.0
 10
9.999999999999778
 20
2.972660697542286
 30
0.0
 10
9.999999999999778
 20
2.82525951873164
 30
0.0
 10
9.999999999999778
 20
2.64554155787464
 30
0.0
 10
9.999999999999778
 20
2.227586233529844
 30
0.0
 10
9.999999999999778
 20
1.989398444333311
 30
0.0
 10
9.999999999999778
 20
1.469852335996263
 30
0.0
 10
9.999999999999778
 20
1.188644046000444
 30
0.0
 10
9.999999999999778
 20
0.6046643650197953
 30
0.0
 10
9.999999999999778
 20
0.302073282841571
 30
0.0
 10
9.999999999999778
 20
0.0000000000001092
 30
0.0
  0
LINE
  5
C7
330
1F
100
AcDbEntity
  8
0
  6
Continuous
 62
   131
370
    15
100
AcDbLine
 10
9.704083525492926
 20
-3.00195605328969
 30
0.0
 11
8.479851446301439
 21
-3.153890694463375
 31
0.0
  0
SPLINE
  5
C8
330
1F
100
AcDbEntity
  8
0
  6
Continuous
 62
   131
370
    15
100
AcDbSpline
210
0.0
220
0.0
230
1.0
 70
    24
 71
     3
 72
    13
 73
     9
 74
     0
 42
0.000000001
 43
0.00000001
 40
0.0
 40
0.0
 40
0.0
 40
0.0
 40
0.0725506238972359
 40
0.2788598365796452
 40
0.4793546850732552
 40
0.6856638977556664
 40
0.8841309128344601
 40
1.0
 40
1.0
 40
1.0
 40
1.0
 10
9.999999999999863
 20
-1.403524735634096
 30
0.0
 10
9.999999999999867
 20
-1.473188664706167
 30
0.0
 10
9.999999999999867
 20
-1.740953031612924
 30
0.0
 10
9.999999999999863
 20
-2.115263994781947
 30
0.0
 10
9.999999999999867
 20
-2.513888950518546
 30
0.0
 10
9.999999999999867
 20
-2.785493260816115
 30
0.0
 10
9.999999999999867
 20
-2.936935048149477
 30
0.0
 10
9.999999999999867
 20
-2.945873694673782
 30
0.0
 10
9.999999999999867
 20
-2.949168616274806
 30
0.0
  0
LINE
  5
C9
330
1F
100
AcDbEntity
  8
중심선
100
AcDbLine
 10
-63.00000000000014
 20
0.0037148385705881
 30
0.0
 11
42.99999999999986
 21
0.0037148385705969
 31
0.0
  0
CIRCLE
  5
CA
330
1F
100
AcDbEntity
  8
외형선
100
AcDbCircle
 10
0.0000000000000104
 20
0.0
 30
0.0
 40
3.000000000000005
  0
INSERT
  5
CB
330
1F
100
AcDbEntity
  8
0
  6
Continuous
 62
     7
100
AcDbBlockReference
 66
     1
  2
블럭10
 10
-22.93944368806589
 20
-52.04609937292004
 30
0.0
  0
ATTRIB
  5
CC
330
CB
100
AcDbEntity
  8
FORMAT
 62
     2
100
AcDbText
 10
-43.79769121965843
 20
-49.97073246008785
 30
0.0
 40
4.233333333333333
  1
SEME7008030100E [ 2 FLUTE ]
 41
0.75
  7
SLDTEXTSTYLE0
 11
-43.79769121965843
 21
-52.08739912675452
 31
0.0
100
AcDbAttribute
  2
AUTOATTR0
 70
     0
 74
     1
  0
SEQEND
  5
CD
330
CB
100
AcDbEntity
  8
0
  6
Continuous
 62
     7
  0
HATCH
  5
CE
330
1F
100
AcDbEntity
  8
중심선
100
AcDbHatch
 10
0.0
 20
0.0
 30
0.0
210
0.0
220
0.0
230
1.0
  2
SOLID
 70
     1
 71
     0
 91
        1
 92
        0
 93
        4
 72
     1
 10
-17.22453438368504
 20
-35.7989250712761
 11
-20.67080962752232
 21
-35.7989250712761
 72
     1
 10
-20.67080962752232
 20
-35.7989250712761
 11
-22.79903948672635
 21
-38.3352506518487
 72
     1
 10
-22.79903948672635
 20
-38.3352506518487
 11
-19.35273115777591
 21
-38.33521122254621
 72
     1
 10
-19.35273115777591
 20
-38.33521122254621
 11
-17.22453438368504
 21
-35.7989250712761
 97
        0
 75
     0
 76
     1
 98
        1
 10
0.0
 20
0.0
  0
HATCH
  5
CF
330
1F
100
AcDbEntity
  8
중심선
100
AcDbHatch
 10
0.0
 20
0.0
 30
0.0
210
0.0
220
0.0
230
1.0
  2
SOLID
 70
     1
 71
     0
 91
        1
 92
        0
 93
        4
 72
     1
 10
-12.21177039264909
 20
-35.7989250712761
 11
-15.65804563648637
 21
-35.7989250712761
 72
     1
 10
-15.65804563648637
 20
-35.7989250712761
 11
-20.18918364484376
 21
-41.19892507127612
 72
     1
 10
-20.18918364484376
 20
-41.19892507127612
 11
-16.74290840100648
 21
-41.19892507127612
 72
     1
 10
-16.74290840100648
 20
-41.19892507127612
 11
-12.21177039264909
 21
-35.7989250712761
 97
        0
 75
     0
 76
     1
 98
        1
 10
0.0
 20
0.0
  0
HATCH
  5
D0
330
1F
100
AcDbEntity
  8
중심선
100
AcDbHatch
 10
0.0
 20
0.0
 30
0.0
210
0.0
220
0.0
230
1.0
  2
SOLID
 70
     1
 71
     0
 91
        1
 92
        0
 93
        4
 72
     1
 10
-7.199006401613195
 20
-35.79892507127613
 11
-10.64528164545031
 21
-35.7989250712761
 72
     1
 10
-10.64528164545031
 20
-35.7989250712761
 11
-17.69371854733956
 21
-44.19892507127612
 72
     1
 10
-17.69371854733956
 20
-44.19892507127612
 11
-14.24744330350228
 21
-44.19892507127612
 72
     1
 10
-14.24744330350228
 20
-44.19892507127612
 11
-7.199006401613195
 21
-35.79892507127613
 97
        0
 75
     0
 76
     1
 98
        1
 10
0.0
 20
0.0
  0
HATCH
  5
D1
330
1F
100
AcDbEntity
  8
중심선
100
AcDbHatch
 10
0.0
 20
0.0
 30
0.0
210
0.0
220
0.0
230
1.0
  2
SOLID
 70
     1
 71
     0
 91
        1
 92
        0
 93
        6
 72
     3
 10
-2.399115970600996
 20
-39.99892507132738
 11
3.960054785062284
 21
1.540850780301639E-10
 40
0.3939339440162633
 50
17.09539180608433
 51
320.0019657685079
 73
     0
 72
     1
 10
-0.7161163149004002
 20
-38.58681907591441
 11
1.589185558800638
 21
-36.65249236586649
 72
     3
 10
-2.399115970653842
 20
-39.99892507127625
 11
6.600054785286829
 21
-1.249000902703301E-13
 40
0.6363583540795982
 50
39.99873849337408
 51
368.4976242363725
 73
     1
 72
     1
 10
4.026216521246767
 20
-39.03892507120613
 11
-3.71904866381792
 21
-39.0389250712061
 72
     1
 10
-3.71904866381792
 20
-39.0389250712061
 11
-3.719073708263854
 21
-40.95892507120602
 72
     1
 10
-3.719073708263854
 20
-40.95892507120602
 11
0.7223060612081831
 21
-40.95892507120599
 97
        0
 75
     0
 76
     1
 98
        1
 10
0.0
 20
0.0
  0
DIMENSION
  5
D2
330
1F
100
AcDbEntity
  8
치수문자_일반주서
100
AcDbDimension
  2
_D
 10
49.82118269049418
 20
4.003714838570733
 30
0.0
 11
49.82118269049414
 21
13.67021483857074
 31
0.0
 70
   160
  1
%%c<>
 71
     2
 42
7.999999999999989
 52
-270.0
  3
SLDDIMSTYLE0
100
AcDbAlignedDimension
 13
39.99999999999972
 23
-3.996285161429291
 33
0.0
 14
39.99999999999972
 24
4.003714838570699
 34
0.0
 50
90.0000000000002
100
AcDbRotatedDimension
  0
DIMENSION
  5
E0
330
1F
100
AcDbEntity
  8
치수문자_일반주서
100
AcDbDimension
  2
_D_1
 10
39.99999999999972
 20
24.98212527881328
 30
0.0
 11
-10.00000000000021
 21
24.98212527881328
 31
0.0
 70
   160
  1
<>
 71
     2
 42
99.99999999999986
  3
SLDDIMSTYLE1
100
AcDbAlignedDimension
 13
-60.00000000000014
 23
3.193714838570584
 33
0.0
 14
39.99999999999972
 24
4.003714838570699
 34
0.0
 50
-0.0000000000000041
100
AcDbRotatedDimension
  0
DIMENSION
  5
EB
330
1F
100
AcDbEntity
  8
치수문자_일반주서
100
AcDbDimension
  2
_D_2
 10
39.99999999999972
 20
16.31965850370979
 30
0.0
 11
24.99999999999986
 21
16.31965850370979
 31
0.0
 70
   160
  1
<>
 71
     2
 42
29.99999999999985
  3
SLDDIMSTYLE1
100
AcDbAlignedDimension
 13
9.999999999999863
 23
2.972660697542269
 33
0.0
 14
39.99999999999972
 24
4.003714838570699
 34
0.0
100
AcDbRotatedDimension
  0
DIMENSION
  5
F5
330
1F
100
AcDbEntity
  8
치수문자_일반주서
100
AcDbDimension
  2
_D_3
 10
-70.15038056229061
 20
-3.99628516142945
 30
0.0
 11
-70.15038056229066
 21
13.67021483857054
 31
0.0
 70
   160
  1
%%c<>
 71
     2
 42
7.999999999999991
 52
-270.0
  3
SLDDIMSTYLE0
100
AcDbAlignedDimension
 13
-59.19000000000013
 23
4.003714838570584
 33
0.0
 14
-59.19000000000013
 24
-3.996285161429407
 34
0.0
 50
90.0000000000002
100
AcDbRotatedDimension
  0
INSERT
  5
108
330
1F
100
AcDbEntity
  8
외형선
100
AcDbBlockReference
  2
SW_DOWELSYMBOL_0
 10
0.0000000000000104
 20
0.0
 30
0.0
  0
ENDSEC
  0
SECTION
  2
OBJECTS
  0
DICTIONARY
  5
C
330
0
100
AcDbDictionary
281
     1
  3
ACAD_GROUP
350
D
  3
ACAD_IMAGE_VARS
350
12C
  3
ACAD_LAYOUT
350
1A
  3
ACAD_MLINESTYLE
350
17
  3
ACAD_PLOTSETTINGS
350
19
  3
ACAD_PLOTSTYLENAME
350
E
  3
ACAD_SCALELIST
350
47
  3
APPDATA
350
12A
  3
DWGPROPS
350
13B
  0
DICTIONARY
  5
D
102
{ACAD_REACTORS
330
C
102
}
330
C
100
AcDbDictionary
281
     1
  0
RASTERVARIABLES
  5
12C
102
{ACAD_REACTORS
330
C
102
}
330
C
100
AcDbRasterVariables
 90
        0
 70
     1
 71
     1
 72
     1
  0
DICTIONARY
  5
1A
102
{ACAD_REACTORS
330
C
102
}
330
C
100
AcDbDictionary
281
     1
  3
Layout1
350
1E
  3
Layout2
350
26
  3
Model
350
22
  0
DICTIONARY
  5
17
102
{ACAD_REACTORS
330
C
102
}
330
C
100
AcDbDictionary
281
     1
  3
Standard
350
18
  0
DICTIONARY
  5
19
102
{ACAD_REACTORS
330
C
102
}
330
C
100
AcDbDictionary
281
     1
  0
ACDBDICTIONARYWDFLT
  5
E
102
{ACAD_REACTORS
330
C
102
}
330
C
100
AcDbDictionary
281
     1
  3
Normal
350
F
100
AcDbDictionaryWithDefault
340
F
  0
DICTIONARY
  5
47
102
{ACAD_REACTORS
330
C
102
}
330
C
100
AcDbDictionary
281
     1
  3
A0
350
48
  3
A1
350
49
  3
A2
350
4A
  3
A3
350
4B
  3
A4
350
4C
  3
A5
350
4D
  3
A6
350
4E
  3
A7
350
4F
  3
A8
350
50
  3
A9
350
51
  3
B0
350
52
  3
B1
350
53
  3
B2
350
54
  3
B3
350
55
  3
B4
350
56
  3
B5
350
57
  3
B6
350
58
  3
B7
350
59
  3
B8
350
5A
  3
B9
350
5B
  3
C0
350
5C
  3
C1
350
5D
  3
C2
350
5E
  3
C3
350
5F
  3
C4
350
60
  3
C5
350
61
  3
C6
350
62
  3
C7
350
63
  3
C8
350
64
  3
C9
350
65
  3
D0
350
66
  3
D1
350
67
  3
D2
350
68
  0
DICTIONARY
  5
12A
102
{ACAD_REACTORS
330
C
102
}
330
C
100
AcDbDictionary
281
     1
  0
XRECORD
  5
13B
102
{ACAD_REACTORS
330
C
102
}
330
C
100
AcDbXrecord
280
     1
  1
DWGPROPS COOKIE
  2

  3

  4

  6

  7

  8
12014102
  9

300
=
301
=
302
=
303
=
304
=
305
=
306
=
307
=
308
=
309
=
 40
0.0
 41
2458262.168231597
 42
2458266.291501979
  1

 90
        0
  0
LAYOUT
  5
1E
102
{ACAD_REACTORS
330
1A
102
}
330
1A
100
AcDbPlotSettings
  1

  2
none_device
  4

  6

 40
0.0
 41
0.0
 42
0.0
 43
0.0
 44
0.0
 45
0.0
 46
0.0
 47
0.0
 48
0.0
 49
0.0
140
0.0
141
0.0
142
1.0
143
1.0
 70
   688
 72
     1
 73
     0
 74
     5
  7

 75
    16
147
1.0
148
0.0
149
0.0
100
AcDbLayout
  1
Layout1
 70
     1
 71
     1
 10
0.0
 20
0.0
 11
420.0
 21
297.0
 12
0.0
 22
0.0
 32
0.0
 14
1.000000000000000E+20
 24
1.000000000000000E+20
 34
1.000000000000000E+20
 15
-1.000000000000000E+20
 25
-1.000000000000000E+20
 35
-1.000000000000000E+20
146
0.0
 13
0.0
 23
0.0
 33
0.0
 16
1.0
 26
0.0
 36
0.0
 17
0.0
 27
1.0
 37
0.0
 76
     0
330
1B
  0
LAYOUT
  5
26
102
{ACAD_REACTORS
330
1A
102
}
330
1A
100
AcDbPlotSettings
  1

  2
none_device
  4

  6

 40
0.0
 41
0.0
 42
0.0
 43
0.0
 44
0.0
 45
0.0
 46
0.0
 47
0.0
 48
0.0
 49
0.0
140
0.0
141
0.0
142
1.0
143
1.0
 70
   688
 72
     1
 73
     0
 74
     5
  7

 75
    16
147
1.0
148
0.0
149
0.0
100
AcDbLayout
  1
Layout2
 70
     1
 71
     2
 10
0.0
 20
0.0
 11
0.0
 21
0.0
 12
0.0
 22
0.0
 32
0.0
 14
0.0
 24
0.0
 34
0.0
 15
0.0
 25
0.0
 35
0.0
146
0.0
 13
0.0
 23
0.0
 33
0.0
 16
1.0
 26
0.0
 36
0.0
 17
0.0
 27
1.0
 37
0.0
 76
     0
330
23
  0
LAYOUT
  5
22
102
{ACAD_REACTORS
330
1A
102
}
330
1A
100
AcDbPlotSettings
  1

  2
none_device
  4
ANSI_A_(11.00_x_8.50_Inches)
  6

 40
6.35
 41
19.05
 42
6.35000508
 43
19.05000254
 44
279.4
 45
215.9
 46
164.5842173920294
 47
114.1492743565855
 48
0.0
 49
0.0
140
0.0
141
0.0
142
0.0936760758284058
143
1.0
 70
  1696
 72
     0
 73
     0
 74
     0
  7

 75
     0
147
0.0235690232323232
148
0.0
149
0.0
100
AcDbLayout
  1
Model
 70
     1
 71
     0
 10
0.0
 20
0.0
 11
420.0
 21
297.0
 12
0.0
 22
0.0
 32
0.0
 14
-74.52538056229068
 24
-49.97073246008785
 34
0.0
 15
50.37151602382755
 25
29.35712527881329
 35
0.0
146
0.0
 13
0.0
 23
0.0
 33
0.0
 16
1.0
 26
0.0
 36
0.0
 17
0.0
 27
1.0
 37
0.0
 76
     0
330
1F
331
29
  0
MLINESTYLE
  5
18
102
{ACAD_REACTORS
330
17
102
}
330
17
100
AcDbMlineStyle
  2
Standard
 70
     0
  3

 62
   256
 51
90.0
 52
90.0
 71
     2
 49
0.5
 62
   256
  6
BYLAYER
 49
-0.5
 62
   256
  6
BYLAYER
  0
ACDBPLACEHOLDER
  5
F
102
{ACAD_REACTORS
330
E
102
}
330
E
  0
SCALE
  5
48
102
{ACAD_REACTORS
330
47
102
}
330
47
100
AcDbScale
 70
     0
300
1:1
140
1.0
141
1.0
290
     1
  0
SCALE
  5
49
102
{ACAD_REACTORS
330
47
102
}
330
47
100
AcDbScale
 70
     0
300
1:2
140
1.0
141
2.0
290
     0
  0
SCALE
  5
4A
102
{ACAD_REACTORS
330
47
102
}
330
47
100
AcDbScale
 70
     0
300
1:4
140
1.0
141
4.0
290
     0
  0
SCALE
  5
4B
102
{ACAD_REACTORS
330
47
102
}
330
47
100
AcDbScale
 70
     0
300
1:5
140
1.0
141
5.0
290
     0
  0
SCALE
  5
4C
102
{ACAD_REACTORS
330
47
102
}
330
47
100
AcDbScale
 70
     0
300
1:8
140
1.0
141
8.0
290
     0
  0
SCALE
  5
4D
102
{ACAD_REACTORS
330
47
102
}
330
47
100
AcDbScale
 70
     0
300
1:10
140
1.0
141
10.0
290
     0
  0
SCALE
  5
4E
102
{ACAD_REACTORS
330
47
102
}
330
47
100
AcDbScale
 70
     0
300
1:16
140
1.0
141
16.0
290
     0
  0
SCALE
  5
4F
102
{ACAD_REACTORS
330
47
102
}
330
47
100
AcDbScale
 70
     0
300
1:20
140
1.0
141
20.0
290
     0
  0
SCALE
  5
50
102
{ACAD_REACTORS
330
47
102
}
330
47
100
AcDbScale
 70
     0
300
1:30
140
1.0
141
30.0
290
     0
  0
SCALE
  5
51
102
{ACAD_REACTORS
330
47
102
}
330
47
100
AcDbScale
 70
     0
300
1:40
140
1.0
141
40.0
290
     0
  0
SCALE
  5
52
102
{ACAD_REACTORS
330
47
102
}
330
47
100
AcDbScale
 70
     0
300
1:50
140
1.0
141
50.0
290
     0
  0
SCALE
  5
53
102
{ACAD_REACTORS
330
47
102
}
330
47
100
AcDbScale
 70
     0
300
1:100
140
1.0
141
100.0
290
     0
  0
SCALE
  5
54
102
{ACAD_REACTORS
330
47
102
}
330
47
100
AcDbScale
 70
     0
300
2:1
140
2.0
141
1.0
290
     0
  0
SCALE
  5
55
102
{ACAD_REACTORS
330
47
102
}
330
47
100
AcDbScale
 70
     0
300
4:1
140
4.0
141
1.0
290
     0
  0
SCALE
  5
56
102
{ACAD_REACTORS
330
47
102
}
330
47
100
AcDbScale
 70
     0
300
8:1
140
8.0
141
1.0
290
     0
  0
SCALE
  5
57
102
{ACAD_REACTORS
330
47
102
}
330
47
100
AcDbScale
 70
     0
300
10:1
140
10.0
141
1.0
290
     0
  0
SCALE
  5
58
102
{ACAD_REACTORS
330
47
102
}
330
47
100
AcDbScale
 70
     0
300
100:1
140
100.0
141
1.0
290
     0
  0
SCALE
  5
59
102
{ACAD_REACTORS
330
47
102
}
330
47
100
AcDbScale
 70
     0
300
1/128" = 1'-0"
140
0.0078125
141
12.0
290
     0
  0
SCALE
  5
5A
102
{ACAD_REACTORS
330
47
102
}
330
47
100
AcDbScale
 70
     0
300
1/64" = 1'-0"
140
0.015625
141
12.0
290
     0
  0
SCALE
  5
5B
102
{ACAD_REACTORS
330
47
102
}
330
47
100
AcDbScale
 70
     0
300
1/32" = 1'-0"
140
0.03125
141
12.0
290
     0
  0
SCALE
  5
5C
102
{ACAD_REACTORS
330
47
102
}
330
47
100
AcDbScale
 70
     0
300
1/16" = 1'-0"
140
0.0625
141
12.0
290
     0
  0
SCALE
  5
5D
102
{ACAD_REACTORS
330
47
102
}
330
47
100
AcDbScale
 70
     0
300
3/32" = 1'-0"
140
0.09375
141
12.0
290
     0
  0
SCALE
  5
5E
102
{ACAD_REACTORS
330
47
102
}
330
47
100
AcDbScale
 70
     0
300
1/8" = 1'-0"
140
0.125
141
12.0
290
     0
  0
SCALE
  5
5F
102
{ACAD_REACTORS
330
47
102
}
330
47
100
AcDbScale
 70
     0
300
3/16" = 1'-0"
140
0.1875
141
12.0
290
     0
  0
SCALE
  5
60
102
{ACAD_REACTORS
330
47
102
}
330
47
100
AcDbScale
 70
     0
300
1/4" = 1'-0"
140
0.25
141
12.0
290
     0
  0
SCALE
  5
61
102
{ACAD_REACTORS
330
47
102
}
330
47
100
AcDbScale
 70
     0
300
3/8" = 1'-0"
140
0.375
141
12.0
290
     0
  0
SCALE
  5
62
102
{ACAD_REACTORS
330
47
102
}
330
47
100
AcDbScale
 70
     0
300
1/2" = 1'-0"
140
0.5
141
12.0
290
     0
  0
SCALE
  5
63
102
{ACAD_REACTORS
330
47
102
}
330
47
100
AcDbScale
 70
     0
300
3/4" = 1'-0"
140
0.75
141
12.0
290
     0
  0
SCALE
  5
64
102
{ACAD_REACTORS
330
47
102
}
330
47
100
AcDbScale
 70
     0
300
1" = 1'-0"
140
1.0
141
12.0
290
     0
  0
SCALE
  5
65
102
{ACAD_REACTORS
330
47
102
}
330
47
100
AcDbScale
 70
     0
300
1-1/2" = 1'-0"
140
1.5
141
12.0
290
     0
  0
SCALE
  5
66
102
{ACAD_REACTORS
330
47
102
}
330
47
100
AcDbScale
 70
     0
300
3" = 1'-0"
140
3.0
141
12.0
290
     0
  0
SCALE
  5
67
102
{ACAD_REACTORS
330
47
102
}
330
47
100
AcDbScale
 70
     0
300
6" = 1'-0"
140
6.0
141
12.0
290
     0
  0
SCALE
  5
68
102
{ACAD_REACTORS
330
47
102
}
330
47
100
AcDbScale
 70
     0
300
1'-0" = 1'-0"
140
12.0
141
12.0
290
     0
  0
ENDSEC
  0
EOF
