  0
SECTION
  2
HEADER
  9
$ACADVER
  1
AC1015
  9
$ACADMAINTVER
 70
     6
  9
$DWGCODEPAGE
  3
ANSI_949
  9
$INSBASE
 10
0.0
 20
0.0
 30
0.0
  9
$EXTMIN
 10
-110.16626574583
 20
-49.97073246008785
 30
0.0
  9
$EXTMAX
 10
68.53003696664386
 20
28.65018433395264
 30
0.0
  9
$LIMMIN
 10
0.0
 20
0.0
  9
$LIMMAX
 10
420.0
 20
297.0
  9
$ORTHOMODE
 70
     0
  9
$REGENMODE
 70
     1
  9
$FILLMODE
 70
     1
  9
$QTEXTMODE
 70
     0
  9
$MIRRTEXT
 70
     1
  9
$LTSCALE
 40
1.0
  9
$ATTMODE
 70
     1
  9
$TEXTSIZE
 40
3.5
  9
$TRACEWID
 40
1.0
  9
$TEXTSTYLE
  7
Standard
  9
$CLAYER
  8
0
  9
$CELTYPE
  6
ByLayer
  9
$CECOLOR
 62
   256
  9
$CELTSCALE
 40
1.0
  9
$DISPSILH
 70
     0
  9
$DIMSCALE
 40
1.0
  9
$DIMASZ
 40
3.302
  9
$DIMEXO
 40
1.0
  9
$DIMDLI
 40
3.75
  9
$DIMRND
 40
0.0
  9
$DIMDLE
 40
0.0
  9
$DIMEXE
 40
1.0
  9
$DIMTP
 40
0.0
  9
$DIMTM
 40
0.0
  9
$DIMTXT
 40
3.5
  9
$DIMCEN
 40
2.5
  9
$DIMTSZ
 40
0.0
  9
$DIMTOL
 70
     0
  9
$DIMLIM
 70
     0
  9
$DIMTIH
 70
     1
  9
$DIMTOH
 70
     1
  9
$DIMSE1
 70
     0
  9
$DIMSE2
 70
     0
  9
$DIMTAD
 70
     1
  9
$DIMZIN
 70
     0
  9
$DIMBLK
  1

  9
$DIMASO
 70
     1
  9
$DIMSHO
 70
     1
  9
$DIMPOST
  1

  9
$DIMAPOST
  1

  9
$DIMALT
 70
     0
  9
$DIMALTD
 70
     3
  9
$DIMALTF
 40
0.0393700787401575
  9
$DIMLFAC
 40
1.0
  9
$DIMTOFL
 70
     1
  9
$DIMTVP
 40
0.0
  9
$DIMTIX
 70
     0
  9
$DIMSOXD
 70
     0
  9
$DIMSAH
 70
     0
  9
$DIMBLK1
  1

  9
$DIMBLK2
  1

  9
$DIMSTYLE
  2
ISO-25
  9
$DIMCLRD
 70
     0
  9
$DIMCLRE
 70
     0
  9
$DIMCLRT
 70
     0
  9
$DIMTFAC
 40
1.0
  9
$DIMGAP
 40
1.524
  9
$DIMJUST
 70
     0
  9
$DIMSD1
 70
     0
  9
$DIMSD2
 70
     0
  9
$DIMTOLJ
 70
     0
  9
$DIMTZIN
 70
     0
  9
$DIMALTZ
 70
     0
  9
$DIMALTTZ
 70
     0
  9
$DIMUPT
 70
     0
  9
$DIMDEC
 70
     2
  9
$DIMTDEC
 70
     2
  9
$DIMALTU
 70
     2
  9
$DIMALTTD
 70
     3
  9
$DIMTXSTY
  7
Standard
  9
$DIMAUNIT
 70
     0
  9
$DIMADEC
 70
     2
  9
$DIMALTRND
 40
0.0
  9
$DIMAZIN
 70
     0
  9
$DIMDSEP
 70
    44
  9
$DIMATFIT
 70
     3
  9
$DIMFRAC
 70
     0
  9
$DIMLDRBLK
  1

  9
$DIMLUNIT
 70
     2
  9
$DIMLWD
 70
    -2
  9
$DIMLWE
 70
    -2
  9
$DIMTMOVE
 70
     0
  9
$LUNITS
 70
     2
  9
$LUPREC
 70
     2
  9
$SKETCHINC
 40
1.0
  9
$FILLETRAD
 40
10.0
  9
$AUNITS
 70
     0
  9
$AUPREC
 70
     2
  9
$MENU
  1
.
  9
$ELEVATION
 40
0.0
  9
$PELEVATION
 40
0.0
  9
$THICKNESS
 40
0.0
  9
$LIMCHECK
 70
     0
  9
$CHAMFERA
 40
0.0
  9
$CHAMFERB
 40
0.0
  9
$CHAMFERC
 40
0.0
  9
$CHAMFERD
 40
0.0
  9
$SKPOLY
 70
     0
  9
$TDCREATE
 40
2458262.542856308
  9
$TDUCREATE
 40
2458262.167856308
  9
$TDUPDATE
 40
2458266.40882559
  9
$TDUUPDATE
 40
2458266.03382559
  9
$TDINDWG
 40
0.0014673958
  9
$TDUSRTIMER
 40
2458266.032358229
  9
$USRTIMER
 70
     1
  9
$ANGBASE
 50
0.0
  9
$ANGDIR
 70
     0
  9
$PDMODE
 70
     0
  9
$PDSIZE
 40
-1.0
  9
$PLINEWID
 40
0.0
  9
$SPLFRAME
 70
     0
  9
$SPLINETYPE
 70
     6
  9
$SPLINESEGS
 70
     8
  9
$HANDSEED
  5
152
  9
$SURFTAB1
 70
     6
  9
$SURFTAB2
 70
     6
  9
$SURFTYPE
 70
     6
  9
$SURFU
 70
     6
  9
$SURFV
 70
     6
  9
$UCSBASE
  2

  9
$UCSNAME
  2

  9
$UCSORG
 10
0.0
 20
0.0
 30
0.0
  9
$UCSXDIR
 10
1.0
 20
0.0
 30
0.0
  9
$UCSYDIR
 10
0.0
 20
1.0
 30
0.0
  9
$UCSORTHOREF
  2

  9
$UCSORTHOVIEW
 70
     0
  9
$UCSORGTOP
 10
0.0
 20
0.0
 30
0.0
  9
$UCSORGBOTTOM
 10
0.0
 20
0.0
 30
0.0
  9
$UCSORGLEFT
 10
0.0
 20
0.0
 30
0.0
  9
$UCSORGRIGHT
 10
0.0
 20
0.0
 30
0.0
  9
$UCSORGFRONT
 10
0.0
 20
0.0
 30
0.0
  9
$UCSORGBACK
 10
0.0
 20
0.0
 30
0.0
  9
$PUCSBASE
  2

  9
$PUCSNAME
  2

  9
$PUCSORG
 10
0.0
 20
0.0
 30
0.0
  9
$PUCSXDIR
 10
1.0
 20
0.0
 30
0.0
  9
$PUCSYDIR
 10
0.0
 20
1.0
 30
0.0
  9
$PUCSORTHOREF
  2

  9
$PUCSORTHOVIEW
 70
     0
  9
$PUCSORGTOP
 10
0.0
 20
0.0
 30
0.0
  9
$PUCSORGBOTTOM
 10
0.0
 20
0.0
 30
0.0
  9
$PUCSORGLEFT
 10
0.0
 20
0.0
 30
0.0
  9
$PUCSORGRIGHT
 10
0.0
 20
0.0
 30
0.0
  9
$PUCSORGFRONT
 10
0.0
 20
0.0
 30
0.0
  9
$PUCSORGBACK
 10
0.0
 20
0.0
 30
0.0
  9
$USERI1
 70
     0
  9
$USERI2
 70
     0
  9
$USERI3
 70
     0
  9
$USERI4
 70
     0
  9
$USERI5
 70
     0
  9
$USERR1
 40
0.0
  9
$USERR2
 40
0.0
  9
$USERR3
 40
0.0
  9
$USERR4
 40
0.0
  9
$USERR5
 40
0.0
  9
$WORLDVIEW
 70
     1
  9
$SHADEDGE
 70
     3
  9
$SHADEDIF
 70
    70
  9
$TILEMODE
 70
     1
  9
$MAXACTVP
 70
    64
  9
$PINSBASE
 10
0.0
 20
0.0
 30
0.0
  9
$PLIMCHECK
 70
     0
  9
$PEXTMIN
 10
1.000000000000000E+20
 20
1.000000000000000E+20
 30
1.000000000000000E+20
  9
$PEXTMAX
 10
-1.000000000000000E+20
 20
-1.000000000000000E+20
 30
-1.000000000000000E+20
  9
$PLIMMIN
 10
0.0
 20
0.0
  9
$PLIMMAX
 10
0.0
 20
0.0
  9
$UNITMODE
 70
     0
  9
$VISRETAIN
 70
     1
  9
$PLINEGEN
 70
     0
  9
$PSLTSCALE
 70
     1
  9
$TREEDEPTH
 70
  3020
  9
$CMLSTYLE
  2
Standard
  9
$CMLJUST
 70
     0
  9
$CMLSCALE
 40
20.0
  9
$PROXYGRAPHICS
 70
     1
  9
$MEASUREMENT
 70
     1
  9
$CELWEIGHT
370
    -1
  9
$ENDCAPS
280
     0
  9
$JOINSTYLE
280
     0
  9
$LWDISPLAY
290
     1
  9
$INSUNITS
 70
     4
  9
$HYPERLINKBASE
  1

  9
$STYLESHEET
  1

  9
$XEDIT
290
     1
  9
$CEPSNTYPE
380
     0
  9
$PSTYLEMODE
290
     1
  9
$FINGERPRINTGUID
  2
{75527581-AE68-4A44-929D-88F09BC83B50}
  9
$VERSIONGUID
  2
{FAEB1C32-E019-11D5-929B-00C0DF256EC4}
  9
$EXTNAMES
290
     1
  9
$PSVPSCALE
 40
0.0
  9
$OLESTARTUP
290
     0
  0
ENDSEC
  0
SECTION
  2
CLASSES
  0
CLASS
  1
ACDBDICTIONARYWDFLT
  2
AcDbDictionaryWithDefault
  3
ObjectDBX Classes
 90
        0
280
     0
281
     0
  0
CLASS
  1
VISUALSTYLE
  2
AcDbVisualStyle
  3
ObjectDBX Classes
 90
     4095
280
     0
281
     0
  0
CLASS
  1
MATERIAL
  2
AcDbMaterial
  3
ObjectDBX Classes
 90
     1153
280
     0
281
     0
  0
CLASS
  1
SCALE
  2
AcDbScale
  3
ObjectDBX Classes
 90
     1153
280
     0
281
     0
  0
CLASS
  1
SUN
  2
AcDbSun
  3
SCENEOE
 90
     1153
280
     0
281
     0
  0
CLASS
  1
ACDBPLACEHOLDER
  2
AcDbPlaceHolder
  3
ObjectDBX Classes
 90
        0
280
     0
281
     0
  0
CLASS
  1
LAYOUT
  2
AcDbLayout
  3
ObjectDBX Classes
 90
        0
280
     0
281
     0
  0
CLASS
  1
TABLESTYLE
  2
AcDbTableStyle
  3
ObjectDBX Classes
 90
     4095
280
     0
281
     0
  0
CLASS
  1
MLEADERSTYLE
  2
AcDbMLeaderStyle
  3
ACDB_MLEADERSTYLE_CLASS
 90
     4095
280
     0
281
     0
  0
CLASS
  1
RASTERVARIABLES
  2
AcDbRasterVariables
  3
ISM
 90
        0
280
     0
281
     0
  0
ENDSEC
  0
SECTION
  2
TABLES
  0
TABLE
  2
VPORT
  5
8
330
0
100
AcDbSymbolTable
 70
     1
  0
VPORT
  5
29
330
8
100
AcDbSymbolTableRecord
100
AcDbViewportTableRecord
  2
*Active
 70
     0
 10
0.0
 20
0.0
 11
1.0
 21
1.0
 12
-20.81811438959306
 22
-10.66027406306761
 13
0.0
 23
0.0
 14
10.0
 24
10.0
 15
10.0
 25
10.0
 16
0.0
 26
0.0
 36
1.0
 17
0.0
 27
0.0
 37
0.0
 40
158.1582478312151
 41
1.152454780361757
 42
50.0
 43
0.0
 44
0.0
 50
0.0
 51
0.0
 71
    16
 72
  2000
 73
     1
 74
     3
 75
     0
 76
     0
 77
     0
 78
     0
281
     0
 65
     1
110
0.0
120
0.0
130
0.0
111
1.0
121
0.0
131
0.0
112
0.0
122
1.0
132
0.0
 79
     0
146
0.0
  0
ENDTAB
  0
TABLE
  2
LTYPE
  5
5
330
0
100
AcDbSymbolTable
 70
     6
  0
LTYPE
  5
14
330
5
100
AcDbSymbolTableRecord
100
AcDbLinetypeTableRecord
  2
ByBlock
 70
     0
  3

 72
    65
 73
     0
 40
0.0
  0
LTYPE
  5
15
330
5
100
AcDbSymbolTableRecord
100
AcDbLinetypeTableRecord
  2
ByLayer
 70
     0
  3

 72
    65
 73
     0
 40
0.0
  0
LTYPE
  5
16
330
5
100
AcDbSymbolTableRecord
100
AcDbLinetypeTableRecord
  2
Continuous
 70
     0
  3
Solid line
 72
    65
 73
     0
 40
0.0
  0
LTYPE
  5
6A
330
5
100
AcDbSymbolTableRecord
100
AcDbLinetypeTableRecord
  2
HIDDEN
 70
     0
  3
Hidden __ __ __ __ __ __ __ __ __ __ __ __ __ __
 72
    65
 73
     2
 40
1.905
 49
1.27
 74
     0
 49
-0.635
 74
     0
  0
LTYPE
  5
6B
330
5
100
AcDbSymbolTableRecord
100
AcDbLinetypeTableRecord
  2
PHANTOM
 70
     0
  3
Phantom ______  __  __  ______  __  __  ______
 72
    65
 73
     6
 40
12.7
 49
6.35
 74
     0
 49
-1.27
 74
     0
 49
1.27
 74
     0
 49
-1.27
 74
     0
 49
1.27
 74
     0
 49
-1.27
 74
     0
  0
LTYPE
  5
6C
330
5
100
AcDbSymbolTableRecord
100
AcDbLinetypeTableRecord
  2
CENTER
 70
     0
  3
Center ____ _ ____ _ ____ _ ____ _ ____ _ ____
 72
    65
 73
     4
 40
10.16
 49
6.35
 74
     0
 49
-1.27
 74
     0
 49
1.27
 74
     0
 49
-1.27
 74
     0
  0
LTYPE
  5
6D
330
5
100
AcDbSymbolTableRecord
100
AcDbLinetypeTableRecord
  2
CENTERX2
 70
     0
  3
Center (2x) ________  __  ________  __  _____
 72
    65
 73
     4
 40
20.32
 49
12.7
 74
     0
 49
-2.54
 74
     0
 49
2.54
 74
     0
 49
-2.54
 74
     0
  0
LTYPE
  5
6E
330
5
100
AcDbSymbolTableRecord
100
AcDbLinetypeTableRecord
  2
DOT2
 70
     0
  3
Dot (.5x) ........................................
 72
    65
 73
     2
 40
0.635
 49
0.0
 74
     0
 49
-0.635
 74
     0
  0
ENDTAB
  0
TABLE
  2
LAYER
  5
2
330
0
100
AcDbSymbolTable
 70
    17
  0
LAYER
  5
10
330
2
100
AcDbSymbolTableRecord
100
AcDbLayerTableRecord
  2
0
 70
     0
 62
     7
  6
Continuous
370
    -3
390
F
  0
LAYER
  5
6F
330
2
100
AcDbSymbolTableRecord
100
AcDbLayerTableRecord
  2
FORMAT
 70
     0
 62
     2
  6
Continuous
370
    -3
390
F
  0
LAYER
  5
70
330
2
100
AcDbSymbolTableRecord
100
AcDbLayerTableRecord
  2
외형선
 70
     0
 62
   100
  6
Continuous
370
    30
390
F
  0
LAYER
  5
71
330
2
100
AcDbSymbolTableRecord
100
AcDbLayerTableRecord
  2
숨은선
 70
     0
 62
     2
  6
HIDDEN
370
    15
390
F
  0
LAYER
  5
72
330
2
100
AcDbSymbolTableRecord
100
AcDbLayerTableRecord
  2
중심선
 70
     0
 62
     1
  6
CENTERX2
370
    -3
390
F
  0
LAYER
  5
73
330
2
100
AcDbSymbolTableRecord
100
AcDbLayerTableRecord
  2
파단선
 70
     0
 62
     4
  6
Continuous
370
    -3
390
F
  0
LAYER
  5
74
330
2
100
AcDbSymbolTableRecord
100
AcDbLayerTableRecord
  2
해칭선
 70
     0
 62
     4
  6
Continuous
370
    -3
390
F
  0
LAYER
  5
75
330
2
100
AcDbSymbolTableRecord
100
AcDbLayerTableRecord
  2
가는실선
 70
     0
 62
     4
  6
Continuous
370
    -3
390
F
  0
LAYER
  5
76
330
2
100
AcDbSymbolTableRecord
100
AcDbLayerTableRecord
  2
치수_보조선
 70
     0
 62
     4
  6
Continuous
370
    -3
390
F
  0
LAYER
  5
77
330
2
100
AcDbSymbolTableRecord
100
AcDbLayerTableRecord
  2
치수문자_일반주서
 70
     0
 62
     7
  6
Continuous
370
    15
390
F
  0
LAYER
  5
78
330
2
100
AcDbSymbolTableRecord
100
AcDbLayerTableRecord
  2
개별주서
 70
     0
 62
   100
  6
Continuous
370
    30
390
F
  0
LAYER
  5
79
330
2
100
AcDbSymbolTableRecord
100
AcDbLayerTableRecord
  2
중간선
 70
     0
 62
     2
  6
Continuous
370
    15
390
F
  0
LAYER
  5
7A
330
2
100
AcDbSymbolTableRecord
100
AcDbLayerTableRecord
  2
윤곽선
 70
     0
 62
     3
  6
Continuous
370
    40
390
F
  0
LAYER
  5
7B
330
2
100
AcDbSymbolTableRecord
100
AcDbLayerTableRecord
  2
중심마크
 70
     0
 62
   100
  6
Continuous
370
    30
390
F
  0
LAYER
  5
7C
330
2
100
AcDbSymbolTableRecord
100
AcDbLayerTableRecord
  2
가상선
 70
     0
 62
     4
  6
PHANTOM
370
    -3
390
F
  0
LAYER
  5
7D
330
2
100
AcDbSymbolTableRecord
100
AcDbLayerTableRecord
  2
특수지정선
 70
     0
 62
     5
  6
CENTERX2
370
    60
390
F
  0
LAYER
  5
143
330
2
100
AcDbSymbolTableRecord
100
AcDbLayerTableRecord
  2
Defpoints
 70
     0
 62
     7
  6
Continuous
290
     0
370
    -3
390
F
  0
ENDTAB
  0
TABLE
  2
STYLE
  5
3
330
0
100
AcDbSymbolTable
 70
     2
  0
STYLE
  5
11
330
3
100
AcDbSymbolTableRecord
100
AcDbTextStyleTableRecord
  2
Standard
 70
     0
 40
0.0
 41
1.0
 50
0.0
 71
     0
 42
3.5
  3
txt
  4

  0
STYLE
  5
93
330
3
100
AcDbSymbolTableRecord
100
AcDbTextStyleTableRecord
  2
SLDTEXTSTYLE0
 70
     0
 40
0.0
 41
0.75
 50
0.0
 71
     0
 42
3.5
  3
TXT
  4

  0
ENDTAB
  0
TABLE
  2
VIEW
  5
6
330
0
100
AcDbSymbolTable
 70
     0
  0
ENDTAB
  0
TABLE
  2
UCS
  5
7
330
0
100
AcDbSymbolTable
 70
     0
  0
ENDTAB
  0
TABLE
  2
APPID
  5
9
330
0
100
AcDbSymbolTable
 70
     1
  0
APPID
  5
12
330
9
100
AcDbSymbolTableRecord
100
AcDbRegAppTableRecord
  2
ACAD
 70
     0
  0
ENDTAB
  0
TABLE
  2
DIMSTYLE
  5
A
330
0
100
AcDbSymbolTable
 70
     3
100
AcDbDimStyleTable
  0
DIMSTYLE
105
27
330
A
100
AcDbSymbolTableRecord
100
AcDbDimStyleTableRecord
  2
ISO-25
 70
     0
 41
2.5
 42
0.625
 43
3.75
 44
1.25
 73
     0
 74
     0
 77
     1
 78
     8
140
2.5
141
2.5
143
0.03937007874016
147
0.625
171
     3
172
     1
178
     0
271
     2
272
     2
274
     3
278
    44
283
     0
284
     8
340
11
  0
DIMSTYLE
105
E9
102
{ACAD_REACTORS
330
E8
330
10B
102
}
330
A
100
AcDbSymbolTableRecord
100
AcDbDimStyleTableRecord
  2
SLDDIMSTYLE0
 70
     0
 41
3.302
 44
0.0
 45
0.000000001
 73
     0
 74
     0
 77
     1
 78
    12
 79
     3
140
3.5
147
0.875
172
     1
173
     1
178
     0
271
     2
272
     2
276
     2
284
    12
289
     0
340
93
  0
DIMSTYLE
105
F7
102
{ACAD_REACTORS
330
F6
330
101
102
}
330
A
100
AcDbSymbolTableRecord
100
AcDbDimStyleTableRecord
  2
SLDDIMSTYLE1
 70
     0
 41
3.302
 44
0.0
 45
0.000000001
 73
     0
 74
     0
 77
     1
 78
    12
 79
     3
140
3.5
147
0.875
173
     1
178
     0
271
     2
272
     2
276
     2
284
    12
340
93
  0
ENDTAB
  0
TABLE
  2
BLOCK_RECORD
  5
1
330
0
100
AcDbSymbolTable
 70
     7
  0
BLOCK_RECORD
  5
1F
330
1
100
AcDbSymbolTableRecord
100
AcDbBlockTableRecord
  2
*Model_Space
340
22
  0
BLOCK_RECORD
  5
1B
330
1
100
AcDbSymbolTableRecord
100
AcDbBlockTableRecord
  2
*Paper_Space
340
1E
  0
BLOCK_RECORD
  5
23
330
1
100
AcDbSymbolTableRecord
100
AcDbBlockTableRecord
  2
*Paper_Space0
340
26
  0
BLOCK_RECORD
  5
7E
330
1
100
AcDbSymbolTableRecord
100
AcDbBlockTableRecord
  2
블럭10
340
0
102
{BLKREFS
331
E1
102
}
  0
BLOCK_RECORD
  5
EA
330
1
100
AcDbSymbolTableRecord
100
AcDbBlockTableRecord
  2
_D
340
0
  0
BLOCK_RECORD
  5
F8
330
1
100
AcDbSymbolTableRecord
100
AcDbBlockTableRecord
  2
_D_1
340
0
  0
BLOCK_RECORD
  5
102
330
1
100
AcDbSymbolTableRecord
100
AcDbBlockTableRecord
  2
_D_2
340
0
  0
BLOCK_RECORD
  5
10C
330
1
100
AcDbSymbolTableRecord
100
AcDbBlockTableRecord
  2
_D_3
340
0
  0
BLOCK_RECORD
  5
118
330
1
100
AcDbSymbolTableRecord
100
AcDbBlockTableRecord
  2
SW_DOWELSYMBOL_0
340
0
102
{BLKREFS
331
11E
102
}
  0
ENDTAB
  0
ENDSEC
  0
SECTION
  2
BLOCKS
  0
BLOCK
  5
20
330
1F
100
AcDbEntity
  8
0
100
AcDbBlockBegin
  2
*Model_Space
 70
     0
 10
0.0
 20
0.0
 30
0.0
  3
*Model_Space
  1

  0
ENDBLK
  5
21
330
1F
100
AcDbEntity
  8
0
100
AcDbBlockEnd
  0
BLOCK
  5
1C
330
1B
100
AcDbEntity
 67
     1
  8
0
100
AcDbBlockBegin
  2
*Paper_Space
 70
     0
 10
0.0
 20
0.0
 30
0.0
  3
*Paper_Space
  1

  0
ENDBLK
  5
1D
330
1B
100
AcDbEntity
 67
     1
  8
0
100
AcDbBlockEnd
  0
BLOCK
  5
24
330
23
100
AcDbEntity
  8
0
100
AcDbBlockBegin
  2
*Paper_Space0
 70
     0
 10
0.0
 20
0.0
 30
0.0
  3
*Paper_Space0
  1

  0
ENDBLK
  5
25
330
23
100
AcDbEntity
  8
0
100
AcDbBlockEnd
  0
BLOCK
  5
7F
330
7E
100
AcDbEntity
  8
0
100
AcDbBlockBegin
  2
블럭10
 70
     2
 10
0.0
 20
0.0
 30
0.0
  3
블럭10
  1

  0
ELLIPSE
  5
81
330
7E
100
AcDbEntity
  8
중심선
100
AcDbEllipse
 10
20.54032771741204
 20
12.0471743016438
 30
0.0
 11
6.600054785286829
 21
-1.261213355974178E-13
 31
0.0
210
0.0
220
0.0
230
1.0
 40
0.636358354079598
 41
0.9219305317359503
 42
6.513795318482858
  0
ELLIPSE
  5
82
330
7E
100
AcDbEntity
  8
중심선
100
AcDbEllipse
 10
20.54032771746488
 20
12.04717430159265
 30
0.0
 11
3.960054785062283
 21
1.540847449632565E-10
 31
0.0
210
0.0
220
0.0
230
1.0
 40
0.3939339440162632
 41
1.131841032648279
 42
5.62031148352944
  0
LINE
  5
83
330
7E
100
AcDbEntity
  8
중심선
100
AcDbLine
 10
2.268634060543552
 20
16.24717430164393
 30
0.0
 11
5.714909304380834
 21
16.24717430164393
 31
0.0
  0
LINE
  5
84
330
7E
100
AcDbEntity
  8
중심선
100
AcDbLine
 10
5.245725140726316
 20
7.84717430164391
 30
0.0
 11
8.692000384563599
 21
7.84717430164391
 31
0.0
  0
LINE
  5
85
330
7E
100
AcDbEntity
  8
중심선
100
AcDbLine
 10
15.74043728645272
 20
16.24717430164393
 30
0.0
 11
8.692000384563599
 21
7.84717430164391
 31
0.0
  0
LINE
  5
86
330
7E
100
AcDbEntity
  8
중심선
100
AcDbLine
 10
0.1404042013395286
 20
13.71084872107135
 30
0.0
 11
3.58671253028996
 21
13.71088815037384
 31
0.0
  0
LINE
  5
87
330
7E
100
AcDbEntity
  8
중심선
100
AcDbLine
 10
2.750260043222114
 20
10.84717430164391
 30
0.0
 11
6.196535287059397
 21
10.84717430164391
 31
0.0
  0
LINE
  5
88
330
7E
100
AcDbEntity
  8
중심선
100
AcDbLine
 10
12.29416204261559
 20
16.24717430164393
 30
0.0
 11
5.245725140726316
 21
7.84717430164391
 31
0.0
  0
LINE
  5
89
330
7E
100
AcDbEntity
  8
중심선
100
AcDbLine
 10
10.72767329541681
 20
16.24717430164393
 30
0.0
 11
6.196535287059397
 21
10.84717430164391
 31
0.0
  0
LINE
  5
8A
330
7E
100
AcDbEntity
  8
중심선
100
AcDbLine
 10
7.28139805157953
 20
16.24717430164393
 30
0.0
 11
2.750260043222114
 21
10.84717430164391
 31
0.0
  0
LINE
  5
8B
330
7E
100
AcDbEntity
  8
중심선
100
AcDbLine
 10
5.714909304380834
 20
16.24717430164393
 30
0.0
 11
3.58671253028996
 21
13.71088815037384
 31
0.0
  0
LINE
  5
8C
330
7E
100
AcDbEntity
  8
중심선
100
AcDbLine
 10
2.268634060543552
 20
16.24717430164393
 30
0.0
 11
0.1404042013395286
 21
13.71084872107135
 31
0.0
  0
LINE
  5
8D
330
7E
100
AcDbEntity
  8
중심선
100
AcDbLine
 10
7.28139805157953
 20
16.24717430164393
 30
0.0
 11
10.72767329541681
 21
16.24717430164393
 31
0.0
  0
LINE
  5
8E
330
7E
100
AcDbEntity
  8
중심선
100
AcDbLine
 10
12.29416204261559
 20
16.24717430164393
 30
0.0
 11
15.74043728645272
 21
16.24717430164393
 31
0.0
  0
LINE
  5
8F
330
7E
100
AcDbEntity
  8
중심선
100
AcDbLine
 10
19.22036997980202
 20
11.08717430171403
 30
0.0
 11
23.66174974927406
 21
11.08717430171406
 31
0.0
  0
LINE
  5
90
330
7E
100
AcDbEntity
  8
중심선
100
AcDbLine
 10
19.22039502424796
 20
13.00717430171391
 30
0.0
 11
19.22036997980202
 21
11.08717430171403
 31
0.0
  0
LINE
  5
91
330
7E
100
AcDbEntity
  8
중심선
100
AcDbLine
 10
19.22039502424796
 20
13.00717430171391
 30
0.0
 11
26.96566020931264
 21
13.00717430171391
 31
0.0
  0
LINE
  5
92
330
7E
100
AcDbEntity
  8
중심선
100
AcDbLine
 10
22.22332737316547
 20
13.45928029700563
 30
0.0
 11
24.52862924686651
 21
15.39360700705356
 31
0.0
  0
ATTDEF
  5
94
330
7E
100
AcDbEntity
  8
FORMAT
 62
     2
100
AcDbText
 10
-16.11926103943555
 20
2.075366912832191
 30
0.0
 40
4.233333333333333
  1
SEME7006045E [ 2 FLUTE ]
 41
0.75
  7
SLDTEXTSTYLE0
 11
-16.11926103943555
 21
-0.0412997538344756
 31
0.0
100
AcDbAttributeDefinition
  3

  2
AUTOATTR0
 70
     0
 74
     1
  0
ENDBLK
  5
80
330
7E
100
AcDbEntity
  8
0
100
AcDbBlockEnd
  0
BLOCK
  5
EB
330
EA
100
AcDbEntity
  8
0
100
AcDbBlockBegin
  2
_D
 70
     0
 10
0.0
 20
0.0
 30
0.0
  3
_D
  1

  0
LINE
  5
ED
330
EA
100
AcDbEntity
  8
치수문자_일반주서
 62
     0
370
    -2
100
AcDbLine
 10
55.06249999999984
 20
-2.963226106289881
 30
0.0
 11
67.97970363331052
 21
-2.963226106289833
 31
0.0
  0
LINE
  5
EE
330
EA
100
AcDbEntity
  8
치수문자_일반주서
 62
     0
370
    -2
100
AcDbLine
 10
55.06250000000002
 20
3.036773893710115
 30
0.0
 11
67.9797036333105
 21
3.036773893710162
 31
0.0
  0
LINE
  5
EF
330
EA
100
AcDbEntity
  8
치수문자_일반주서
 62
     0
370
    -2
100
AcDbLine
 10
67.97970363331052
 20
-2.963226106289833
 30
0.0
 11
67.97970363331046
 21
15.76577389371016
 31
0.0
  0
LINE
  5
F0
330
EA
100
AcDbEntity
  8
치수문자_일반주서
 62
     0
370
    -2
100
AcDbLine
 10
67.97970363331052
 20
-2.963226106289833
 30
0.0
 11
67.9797036333105
 21
3.036773893710162
 31
0.0
  0
LINE
  5
F1
330
EA
100
AcDbEntity
  8
치수문자_일반주서
 62
     0
370
    -2
100
AcDbLine
 10
67.97970363331054
 20
-6.265226106289832
 30
0.0
 11
67.97970363331055
 21
-9.567226106289832
 31
0.0
  0
LINE
  5
F2
330
EA
100
AcDbEntity
  8
치수문자_일반주서
 62
     0
370
    -2
100
AcDbLine
 10
67.97970363331049
 20
6.338773893710162
 30
0.0
 11
67.97970363331048
 21
9.640773893710161
 31
0.0
  0
SOLID
  5
F3
330
EA
100
AcDbEntity
  8
치수문자_일반주서
 62
     0
100
AcDbTrace
 10
68.53003696664386
 20
-6.265226106289831
 30
0.0
 11
67.42937029997721
 21
-6.265226106289833
 31
0.0
 12
67.97970363331052
 22
-2.963226106289833
 32
0.0
 13
67.97970363331052
 23
-2.963226106289833
 33
0.0
  0
SOLID
  5
F4
330
EA
100
AcDbEntity
  8
치수문자_일반주서
 62
     0
100
AcDbTrace
 10
67.42937029997717
 20
6.338773893710161
 30
0.0
 11
68.53003696664382
 21
6.338773893710163
 31
0.0
 12
67.9797036333105
 22
3.036773893710162
 32
0.0
 13
67.9797036333105
 23
3.036773893710162
 33
0.0
  0
MTEXT
  5
F5
330
EA
100
AcDbEntity
  8
치수문자_일반주서
 62
     0
100
AcDbMText
 10
63.60470363331048
 20
12.70327389371015
 30
0.0
 40
3.5
 41
0.0
 71
     2
 72
     1
  1
\A1;%%c6
  7
SLDTEXTSTYLE0
 11
-2.368475785867002E-15
 21
1.0
 31
0.0
 73
     1
 44
1.0
  0
POINT
  5
14A
330
EA
100
AcDbEntity
  8
Defpoints
 62
     0
100
AcDbPoint
 10
54.99999999999984
 20
-2.963226106289881
 30
0.0
  0
POINT
  5
14B
330
EA
100
AcDbEntity
  8
Defpoints
 62
     0
100
AcDbPoint
 10
55.00000000000002
 20
3.036773893710115
 30
0.0
  0
POINT
  5
14C
330
EA
100
AcDbEntity
  8
Defpoints
 62
     0
100
AcDbPoint
 10
67.9797036333105
 20
3.036773893710163
 30
0.0
  0
ENDBLK
  5
EC
330
EA
100
AcDbEntity
  8
0
100
AcDbBlockEnd
  0
BLOCK
  5
F9
330
F8
100
AcDbEntity
  8
0
100
AcDbBlockBegin
  2
_D_1
 70
     0
 10
0.0
 20
0.0
 30
0.0
  3
_D_1
  1

  0
LINE
  5
FB
330
F8
100
AcDbEntity
  8
치수문자_일반주서
 62
     0
370
    -2
100
AcDbLine
 10
-95.0
 20
2.549273893709938
 30
0.0
 11
-95.0
 21
24.27518433395263
 31
0.0
  0
LINE
  5
FC
330
F8
100
AcDbEntity
  8
치수문자_일반주서
 62
     0
370
    -2
100
AcDbLine
 10
55.00000000000002
 20
3.099273893710115
 30
0.0
 11
55.00000000000003
 21
24.27518433395263
 31
0.0
  0
LINE
  5
FD
330
F8
100
AcDbEntity
  8
치수문자_일반주서
 62
     0
370
    -2
100
AcDbLine
 10
-91.69800000000001
 20
24.27518433395263
 30
0.0
 11
51.69800000000003
 21
24.27518433395263
 31
0.0
  0
SOLID
  5
FE
330
F8
100
AcDbEntity
  8
치수문자_일반주서
 62
     0
100
AcDbTrace
 10
-91.69800000000001
 20
24.82551766728597
 30
0.0
 11
-91.69800000000001
 21
23.7248510006193
 31
0.0
 12
-95.0
 22
24.27518433395263
 32
0.0
 13
-95.0
 23
24.27518433395263
 33
0.0
  0
SOLID
  5
FF
330
F8
100
AcDbEntity
  8
치수문자_일반주서
 62
     0
100
AcDbTrace
 10
51.69800000000003
 20
23.7248510006193
 30
0.0
 11
51.69800000000003
 21
24.82551766728597
 31
0.0
 12
55.00000000000003
 22
24.27518433395263
 32
0.0
 13
55.00000000000003
 23
24.27518433395263
 33
0.0
  0
MTEXT
  5
100
330
F8
100
AcDbEntity
  8
치수문자_일반주서
 62
     0
100
AcDbMText
 10
-20.0
 20
28.65018433395263
 30
0.0
 40
3.5
 41
0.0
 71
     2
 72
     1
  1
\A1;150
  7
SLDTEXTSTYLE0
 73
     1
 44
1.0
  0
POINT
  5
144
330
F8
100
AcDbEntity
  8
Defpoints
 62
     0
100
AcDbPoint
 10
-95.0
 20
2.486773893709938
 30
0.0
  0
POINT
  5
145
330
F8
100
AcDbEntity
  8
Defpoints
 62
     0
100
AcDbPoint
 10
55.00000000000002
 20
3.036773893710115
 30
0.0
  0
POINT
  5
146
330
F8
100
AcDbEntity
  8
Defpoints
 62
     0
100
AcDbPoint
 10
55.00000000000002
 20
24.27518433395263
 30
0.0
  0
ENDBLK
  5
FA
330
F8
100
AcDbEntity
  8
0
100
AcDbBlockEnd
  0
BLOCK
  5
103
330
102
100
AcDbEntity
  8
0
100
AcDbBlockBegin
  2
_D_2
 70
     0
 10
0.0
 20
0.0
 30
0.0
  3
_D_2
  1

  0
LINE
  5
105
330
102
100
AcDbEntity
  8
치수문자_일반주서
 62
     0
370
    -2
100
AcDbLine
 10
10.0
 20
2.809044755466653
 30
0.0
 11
10.0
 21
16.09354256163417
 31
0.0
  0
LINE
  5
106
330
102
100
AcDbEntity
  8
치수문자_일반주서
 62
     0
370
    -2
100
AcDbLine
 10
55.00000000000002
 20
3.099273893710115
 30
0.0
 11
55.00000000000002
 21
16.09354256163417
 31
0.0
  0
LINE
  5
107
330
102
100
AcDbEntity
  8
치수문자_일반주서
 62
     0
370
    -2
100
AcDbLine
 10
13.302
 20
16.09354256163417
 30
0.0
 11
51.69800000000002
 21
16.09354256163417
 31
0.0
  0
SOLID
  5
108
330
102
100
AcDbEntity
  8
치수문자_일반주서
 62
     0
100
AcDbTrace
 10
13.302
 20
16.64387589496751
 30
0.0
 11
13.302
 21
15.54320922830084
 31
0.0
 12
10.0
 22
16.09354256163417
 32
0.0
 13
10.0
 23
16.09354256163417
 33
0.0
  0
SOLID
  5
109
330
102
100
AcDbEntity
  8
치수문자_일반주서
 62
     0
100
AcDbTrace
 10
51.69800000000002
 20
15.54320922830084
 30
0.0
 11
51.69800000000002
 21
16.64387589496751
 31
0.0
 12
55.00000000000002
 22
16.09354256163417
 32
0.0
 13
55.00000000000002
 23
16.09354256163417
 33
0.0
  0
MTEXT
  5
10A
330
102
100
AcDbEntity
  8
치수문자_일반주서
 62
     0
100
AcDbMText
 10
32.50000000000001
 20
20.46854256163417
 30
0.0
 40
3.5
 41
0.0
 71
     2
 72
     1
  1
\A1;45
  7
SLDTEXTSTYLE0
 73
     1
 44
1.0
  0
POINT
  5
147
330
102
100
AcDbEntity
  8
Defpoints
 62
     0
100
AcDbPoint
 10
10.0
 20
2.746544755466653
 30
0.0
  0
POINT
  5
148
330
102
100
AcDbEntity
  8
Defpoints
 62
     0
100
AcDbPoint
 10
55.00000000000002
 20
3.036773893710115
 30
0.0
  0
POINT
  5
149
330
102
100
AcDbEntity
  8
Defpoints
 62
     0
100
AcDbPoint
 10
55.00000000000002
 20
16.09354256163417
 30
0.0
  0
ENDBLK
  5
104
330
102
100
AcDbEntity
  8
0
100
AcDbBlockEnd
  0
BLOCK
  5
10D
330
10C
100
AcDbEntity
  8
0
100
AcDbBlockBegin
  2
_D_3
 70
     0
 10
0.0
 20
0.0
 30
0.0
  3
_D_3
  1

  0
LINE
  5
10F
330
10C
100
AcDbEntity
  8
치수문자_일반주서
 62
     0
370
    -2
100
AcDbLine
 10
-94.51250000000002
 20
3.036773893709937
 30
0.0
 11
-105.79126574583
 21
3.036773893709896
 31
0.0
  0
LINE
  5
110
330
10C
100
AcDbEntity
  8
치수문자_일반주서
 62
     0
370
    -2
100
AcDbLine
 10
-94.51250000000002
 20
-2.96322610629005
 30
0.0
 11
-105.7912657458299
 21
-2.963226106290092
 31
0.0
  0
LINE
  5
111
330
10C
100
AcDbEntity
  8
치수문자_일반주서
 62
     0
370
    -2
100
AcDbLine
 10
-105.79126574583
 20
3.036773893709896
 30
0.0
 11
-105.79126574583
 21
15.76577389370989
 31
0.0
  0
LINE
  5
112
330
10C
100
AcDbEntity
  8
치수문자_일반주서
 62
     0
370
    -2
100
AcDbLine
 10
-105.79126574583
 20
3.036773893709896
 30
0.0
 11
-105.7912657458299
 21
-2.963226106290092
 31
0.0
  0
LINE
  5
113
330
10C
100
AcDbEntity
  8
치수문자_일반주서
 62
     0
370
    -2
100
AcDbLine
 10
-105.79126574583
 20
6.338773893709895
 30
0.0
 11
-105.79126574583
 21
9.640773893709895
 31
0.0
  0
LINE
  5
114
330
10C
100
AcDbEntity
  8
치수문자_일반주서
 62
     0
370
    -2
100
AcDbLine
 10
-105.7912657458299
 20
-6.265226106290092
 30
0.0
 11
-105.7912657458299
 21
-9.567226106290091
 31
0.0
  0
SOLID
  5
115
330
10C
100
AcDbEntity
  8
치수문자_일반주서
 62
     0
100
AcDbTrace
 10
-106.3415990791633
 20
6.338773893709894
 30
0.0
 11
-105.2409324124966
 21
6.338773893709896
 31
0.0
 12
-105.79126574583
 22
3.036773893709896
 32
0.0
 13
-105.79126574583
 23
3.036773893709896
 33
0.0
  0
SOLID
  5
116
330
10C
100
AcDbEntity
  8
치수문자_일반주서
 62
     0
100
AcDbTrace
 10
-105.2409324124966
 20
-6.265226106290091
 30
0.0
 11
-106.3415990791633
 21
-6.265226106290092
 31
0.0
 12
-105.7912657458299
 22
-2.963226106290092
 32
0.0
 13
-105.7912657458299
 23
-2.963226106290092
 33
0.0
  0
MTEXT
  5
117
330
10C
100
AcDbEntity
  8
치수문자_일반주서
 62
     0
100
AcDbMText
 10
-110.16626574583
 20
12.70327389370988
 30
0.0
 40
3.5
 41
0.0
 71
     2
 72
     1
  1
\A1;%%c6
  7
SLDTEXTSTYLE0
 11
-2.368475785867006E-15
 21
1.0
 31
0.0
 73
     1
 44
1.0
  0
POINT
  5
14D
330
10C
100
AcDbEntity
  8
Defpoints
 62
     0
100
AcDbPoint
 10
-94.45000000000002
 20
3.036773893709938
 30
0.0
  0
POINT
  5
14E
330
10C
100
AcDbEntity
  8
Defpoints
 62
     0
100
AcDbPoint
 10
-94.45000000000002
 20
-2.963226106290049
 30
0.0
  0
POINT
  5
14F
330
10C
100
AcDbEntity
  8
Defpoints
 62
     0
100
AcDbPoint
 10
-105.79126574583
 20
-2.963226106290092
 30
0.0
  0
ENDBLK
  5
10E
330
10C
100
AcDbEntity
  8
0
100
AcDbBlockEnd
  0
BLOCK
  5
119
330
118
100
AcDbEntity
  8
0
100
AcDbBlockBegin
  2
SW_DOWELSYMBOL_0
 70
     0
 10
0.0
 20
0.0
 30
0.0
  3
SW_DOWELSYMBOL_0
  1

  0
CIRCLE
  5
11B
330
118
100
AcDbEntity
  8
외형선
 62
     0
100
AcDbCircle
 10
0.0
 20
0.0
 30
0.0
 40
3.000000000000004
  0
HATCH
  5
11C
330
118
100
AcDbEntity
  8
0
  6
Continuous
 62
     0
370
    30
100
AcDbHatch
 10
0.0
 20
0.0
 30
0.0
210
0.0
220
0.0
230
1.0
  2
SOLID
 70
     1
 71
     0
 91
        1
 92
        0
 93
        3
 72
     2
 10
0.0000000000000104
 20
0.0
 40
3.000000000000004
 50
0.0
 51
90.0
 73
     1
 72
     1
 10
0.0000000000000104
 20
3.000000000000004
 11
0.0000000000000104
 21
0.0
 72
     1
 10
0.0000000000000104
 20
0.0
 11
3.000000000000015
 21
0.0
 97
        0
 75
     0
 76
     1
 98
        1
 10
0.0
 20
0.0
  0
HATCH
  5
11D
330
118
100
AcDbEntity
  8
0
  6
Continuous
 62
     0
370
    30
100
AcDbHatch
 10
0.0
 20
0.0
 30
0.0
210
0.0
220
0.0
230
1.0
  2
SOLID
 70
     1
 71
     0
 91
        1
 92
        0
 93
        3
 72
     2
 10
0.0000000000000104
 20
0.0
 40
3.000000000000004
 50
180.0
 51
270.0000000000008
 73
     1
 72
     1
 10
0.0000000000000104
 20
-3.000000000000004
 11
0.0000000000000104
 21
0.0
 72
     1
 10
0.0000000000000104
 20
0.0
 11
-2.999999999999994
 21
0.0
 97
        0
 75
     0
 76
     1
 98
        1
 10
0.0
 20
0.0
  0
ENDBLK
  5
11A
330
118
100
AcDbEntity
  8
0
100
AcDbBlockEnd
  0
ENDSEC
  0
SECTION
  2
ENTITIES
  0
SPLINE
  5
95
330
1F
100
AcDbEntity
  8
0
  6
Continuous
 62
     1
370
    15
100
AcDbSpline
210
0.0
220
0.0
230
1.0
 70
     8
 71
     3
 72
     9
 73
     5
 74
     0
 42
0.000000001
 43
0.00000001
 40
0.0
 40
0.0
 40
0.0
 40
0.0
 40
0.499666059562832
 40
1.0
 40
1.0
 40
1.0
 40
1.0
 10
30.90211891694614
 20
0.8058360496394571
 30
0.0
 10
30.76391061366004
 20
0.8718840700031477
 30
0.0
 10
30.48730927034082
 20
1.004068394112489
 30
0.0
 10
30.21071231920964
 20
1.149039458126182
 30
0.0
 10
30.07232147673727
 20
1.221573401833521
 30
0.0
  0
SPLINE
  5
96
330
1F
100
AcDbEntity
  8
0
  6
Continuous
 62
     1
370
    15
100
AcDbSpline
210
0.0
220
0.0
230
1.0
 70
     8
 71
     3
 72
     9
 73
     5
 74
     0
 42
0.000000001
 43
0.00000001
 40
0.0
 40
0.0
 40
0.0
 40
0.0
 40
0.4996614782171685
 40
1.0
 40
1.0
 40
1.0
 40
1.0
 10
47.22689047861427
 20
0.80556628409039
 30
0.0
 10
47.0885044706313
 20
0.8716940519515428
 30
0.0
 10
46.81154494099787
 20
1.004039191098755
 30
0.0
 10
46.53459863941097
 20
1.149200080076461
 30
0.0
 10
46.39603173626175
 20
1.221829664688248
 30
0.0
  0
LINE
  5
97
330
1F
100
AcDbEntity
  8
0
  6
Continuous
 62
     1
370
    15
100
AcDbLine
 10
13.80096321257128
 20
1.194283789170476
 30
0.0
 11
13.74854971466208
 21
1.221349692137531
 31
0.0
  0
SPLINE
  5
98
330
1F
100
AcDbEntity
  8
0
  6
Continuous
 62
     1
370
    15
100
AcDbSpline
210
0.0
220
0.0
230
1.0
 70
     8
 71
     3
 72
     9
 73
     5
 74
     0
 42
0.000000001
 43
0.00000001
 40
0.0
 40
0.0
 40
0.0
 40
0.0
 40
0.5333753849023241
 40
1.0
 40
1.0
 40
1.0
 40
1.0
 10
14.57797515902061
 20
0.805812441786835
 30
0.0
 10
14.43982819273432
 20
0.871757998363584
 30
0.0
 10
14.18082305264599
 20
0.9953961684842875
 30
0.0
 10
13.92182028113625
 20
1.131005252525839
 30
0.0
 10
13.80096321257128
 20
1.194283789170476
 30
0.0
  0
LINE
  5
99
330
1F
100
AcDbEntity
  8
0
  6
Continuous
 62
     1
370
    15
100
AcDbLine
 10
22.56396310167523
 20
-2.963226106290053
 30
0.0
 11
24.01949829333429
 21
-2.963226106290053
 31
0.0
  0
LINE
  5
9A
330
1F
100
AcDbEntity
  8
0
  6
Continuous
 62
     1
370
    15
100
AcDbLine
 10
40.34410460552198
 20
3.036773893709955
 30
0.0
 11
38.89046527297518
 21
3.036773893709955
 31
0.0
  0
LINE
  5
9B
330
1F
100
AcDbEntity
  8
0
  6
Continuous
 62
     1
370
    15
100
AcDbLine
 10
38.88932000650785
 20
-2.963226106290053
 30
0.0
 11
40.34410460552201
 21
-2.963226106290053
 31
0.0
  0
LINE
  5
9C
330
1F
100
AcDbEntity
  8
0
  6
Continuous
 62
     1
370
    15
100
AcDbLine
 10
24.01949829333429
 20
3.036773893709955
 30
0.0
 11
22.56547443336126
 21
3.036773893709955
 31
0.0
  0
LINE
  5
9D
330
1F
100
AcDbEntity
  8
0
  6
Continuous
 62
     1
370
    15
100
AcDbLine
 10
13.3254378670946
 20
0.6607407146425857
 30
0.0
 11
12.88747354683381
 21
0.8993395462912065
 31
0.0
  0
LINE
  5
9E
330
1F
100
AcDbEntity
  8
0
  6
Continuous
 62
     1
370
    15
100
AcDbLine
 10
45.67445759309317
 20
0.824909197339597
 30
0.0
 11
45.53577732268161
 21
0.8993866300168734
 31
0.0
  0
SPLINE
  5
9F
330
1F
100
AcDbEntity
  8
0
  6
Continuous
 62
     1
370
    15
100
AcDbSpline
210
0.0
220
0.0
230
1.0
 70
     8
 71
     3
 72
    10
 73
     6
 74
     0
 42
0.000000001
 43
0.00000001
 40
0.0
 40
0.0
 40
0.0
 40
0.0
 40
0.2352255999737936
 40
0.530022564523779
 40
1.0
 40
1.0
 40
1.0
 40
1.0
 10
10.0
 20
-2.380331871128152
 30
0.0
 10
10.28115024405444
 20
-2.362732483507154
 30
0.0
 10
10.91465260683649
 20
-2.323076627333469
 30
0.0
 10
12.11105875784298
 20
-2.292741683751232
 30
0.0
 10
13.02584169886933
 20
-2.32644181706399
 30
0.0
 10
13.58800400533021
 20
-2.347151587460324
 30
0.0
  0
SPLINE
  5
A0
330
1F
100
AcDbEntity
  8
0
  6
Continuous
 62
     1
370
    15
100
AcDbSpline
210
0.0
220
0.0
230
1.0
 70
     8
 71
     3
 72
    17
 73
    13
 74
     0
 42
0.000000001
 43
0.00000001
 40
0.0
 40
0.0
 40
0.0
 40
0.0
 40
0.1523666550433992
 40
0.2456332804678363
 40
0.3079721153045686
 40
0.3711027718539636
 40
0.4346372435200254
 40
0.4981119952289921
 40
0.5953009256015501
 40
0.6990002595397681
 40
0.8191552153200702
 40
1.0
 40
1.0
 40
1.0
 40
1.0
 10
41.72320426824776
 20
-2.459639088198515
 30
0.0
 10
41.95270731355706
 20
-2.438053979579134
 30
0.0
 10
42.3226936854481
 20
-2.403256201561872
 30
0.0
 10
42.78544004392443
 20
-2.370187516509182
 30
0.0
 10
43.11448922546679
 20
-2.35022653382399
 30
0.0
 10
43.39881083322775
 20
-2.335834341583983
 30
0.0
 10
43.68485822917313
 20
-2.324124624751398
 30
0.0
 10
44.02212047265041
 20
-2.313641769574181
 30
0.0
 10
44.41957486010254
 20
-2.306281191949285
 30
0.0
 10
44.90248089354067
 20
-2.305376836121277
 30
0.0
 10
45.50724104626279
 20
-2.313907783294334
 30
0.0
 10
45.96263252434991
 20
-2.334669459276344
 30
0.0
 10
46.2362379888391
 20
-2.347143359808021
 30
0.0
  0
SPLINE
  5
A1
330
1F
100
AcDbEntity
  8
0
  6
Continuous
 62
     1
370
    15
100
AcDbSpline
210
0.0
220
0.0
230
1.0
 70
     8
 71
     3
 72
    13
 73
     9
 74
     0
 42
0.000000001
 43
0.00000001
 40
0.0
 40
0.0
 40
0.0
 40
0.0
 40
0.2796543261139421
 40
0.4552187222871937
 40
0.5809078533155746
 40
0.7151616571283032
 40
0.8578121204919882
 40
1.0
 40
1.0
 40
1.0
 40
1.0
 10
29.91235787041167
 20
2.420707867236373
 30
0.0
 10
29.68088486374391
 20
2.40988605323215
 30
0.0
 10
29.30409524706428
 20
2.392270404612343
 30
0.0
 10
28.82458633578868
 20
2.382278413947872
 30
0.0
 10
28.46450481525275
 20
2.379085474059048
 30
0.0
 10
28.13164301004038
 20
2.380136472540975
 30
0.0
 10
27.78538331267136
 20
2.384857807205925
 30
0.0
 10
27.54995920637775
 20
2.392488811753063
 30
0.0
 10
27.43243832024467
 20
2.396298117565385
 30
0.0
  0
SPLINE
  5
A2
330
1F
100
AcDbEntity
  8
0
  6
Continuous
 62
     1
370
    15
100
AcDbSpline
210
0.0
220
0.0
230
1.0
 70
     8
 71
     3
 72
    11
 73
     7
 74
     0
 42
0.000000001
 43
0.00000001
 40
0.0
 40
0.0
 40
0.0
 40
0.0
 40
0.4367551235734949
 40
0.6111450278429604
 40
0.7467761109369182
 40
1.0
 40
1.0
 40
1.0
 40
1.0
 10
25.39887367140788
 20
-2.459652722358409
 30
0.0
 10
26.05616546861174
 20
-2.404449069612304
 30
0.0
 10
26.97590422385845
 20
-2.327203409347314
 30
0.0
 10
28.0989727513942
 20
-2.305078690018748
 30
0.0
 10
28.94563340842303
 20
-2.305874676836222
 30
0.0
 10
29.53109983078085
 20
-2.330877889363525
 30
0.0
 10
29.91235787041167
 20
-2.347160079816468
 30
0.0
  0
SPLINE
  5
A3
330
1F
100
AcDbEntity
  8
0
  6
Continuous
 62
     1
370
    15
100
AcDbSpline
210
0.0
220
0.0
230
1.0
 70
     8
 71
     3
 72
    13
 73
     9
 74
     0
 42
0.000000001
 43
0.00000001
 40
0.0
 40
0.0
 40
0.0
 40
0.0
 40
0.2752034660056866
 40
0.4701537169737677
 40
0.6289549140593936
 40
0.7772006443013686
 40
0.9187156081087988
 40
1.0
 40
1.0
 40
1.0
 40
1.0
 10
46.2362379888391
 20
2.420691147227927
 30
0.0
 10
46.00878543599283
 20
2.410032252007473
 30
0.0
 10
45.62020870508191
 20
2.391822745857478
 30
0.0
 10
45.10520157018949
 20
2.381363461586135
 30
0.0
 10
44.69448416122258
 20
2.378740430182684
 30
0.0
 10
44.3255647066709
 20
2.381530768923589
 30
0.0
 10
44.02090534244933
 20
2.387279847197876
 30
0.0
 10
43.83779846704113
 20
2.393278038671204
 30
0.0
 10
43.77099517233686
 20
2.395466372406854
 30
0.0
  0
SPLINE
  5
A4
330
1F
100
AcDbEntity
  8
0
  6
Continuous
 62
     1
370
    15
100
AcDbSpline
210
0.0
220
0.0
230
1.0
 70
     8
 71
     3
 72
    10
 73
     6
 74
     0
 42
0.000000001
 43
0.00000001
 40
0.0
 40
0.0
 40
0.0
 40
0.0
 40
0.6711771544645062
 40
0.9006321516752954
 40
1.0
 40
1.0
 40
1.0
 40
1.0
 10
13.58800400533021
 20
2.420699374880226
 30
0.0
 10
13.02589333019979
 20
2.399811331443567
 30
0.0
 10
12.27161416045322
 20
2.371782303072278
 30
0.0
 10
11.4336553846314
 20
2.384690523240175
 30
0.0
 10
11.15835423682248
 20
2.394733837973245
 30
0.0
 10
11.07516025237002
 20
2.397768853905448
 30
0.0
  0
SPLINE
  5
A5
330
1F
100
AcDbEntity
  8
0
  6
Continuous
 62
     1
370
    15
100
AcDbSpline
210
0.0
220
0.0
230
1.0
 70
     8
 71
     3
 72
    13
 73
     9
 74
     0
 42
0.000000001
 43
0.00000001
 40
0.0
 40
0.0
 40
0.0
 40
0.0
 40
0.3063809472062541
 40
0.5150741751373824
 40
0.6463101088973717
 40
0.7719310104416586
 40
0.8989596744607606
 40
1.0
 40
1.0
 40
1.0
 40
1.0
 10
15.99513614436342
 20
-2.219684475546972
 30
0.0
 10
16.22784816543735
 20
-2.184939553146127
 30
0.0
 10
16.61907338160105
 20
-2.126527917536881
 30
0.0
 10
17.10769660941575
 20
-2.068640252977194
 30
0.0
 10
17.46044402316394
 20
-2.032675374968201
 30
0.0
 10
17.75133115856955
 20
-2.007091316710545
 30
0.0
 10
18.01938499758035
 20
-1.986611266658868
 30
0.0
 10
18.19203368539839
 20
-1.97637955656594
 30
0.0
 10
18.26852141682931
 20
-1.971846650445671
 30
0.0
  0
SPLINE
  5
A6
330
1F
100
AcDbEntity
  8
0
  6
Continuous
 62
     1
370
    15
100
AcDbSpline
210
0.0
220
0.0
230
1.0
 70
     8
 71
     3
 72
    13
 73
     9
 74
     0
 42
0.000000001
 43
0.00000001
 40
0.0
 40
0.0
 40
0.0
 40
0.0
 40
0.3052009651290373
 40
0.5131709791539454
 40
0.6440403115475878
 40
0.7692173366268105
 40
0.8956830281175321
 40
1.0
 40
1.0
 40
1.0
 40
1.0
 10
48.64382379530687
 20
-2.219637499303904
 30
0.0
 10
48.87644281246062
 20
-2.184908675647373
 30
0.0
 10
49.26757305922163
 20
-2.126514940119207
 30
0.0
 10
49.75618433925571
 20
-2.068627814775442
 30
0.0
 10
50.10907688678686
 20
-2.032652496983294
 30
0.0
 10
50.39995108459451
 20
-2.007068869334176
 30
0.0
 10
50.67061942110513
 20
-1.986410073449135
 30
0.0
 10
50.84593290913009
 20
-1.976027884462161
 30
0.0
 10
50.92517704269547
 20
-1.971334990720479
 30
0.0
  0
SPLINE
  5
A7
330
1F
100
AcDbEntity
  8
0
  6
Continuous
 62
     1
370
    15
100
AcDbSpline
210
0.0
220
0.0
230
1.0
 70
     8
 71
     3
 72
    19
 73
    15
 74
     0
 42
0.000000001
 43
0.00000001
 40
0.0
 40
0.0
 40
0.0
 40
0.0
 40
0.1500039859185888
 40
0.2441739817271577
 40
0.3068248138016439
 40
0.3704750936809668
 40
0.4351158870779622
 40
0.4998651339366598
 40
0.5642375148928861
 40
0.6284605548553902
 40
0.6924807611482937
 40
0.7555846844958891
 40
0.849118505640845
 40
1.0
 40
1.0
 40
1.0
 40
1.0
 10
37.56022049012956
 20
2.088624424163578
 30
0.0
 10
37.29775078005066
 20
2.068677404573173
 30
0.0
 10
36.87050697182598
 20
2.036207979396552
 30
0.0
 10
36.33507465076728
 20
2.017455725827248
 30
0.0
 10
35.95014473599752
 20
2.010810093752122
 30
0.0
 10
35.61684654516774
 20
2.010671962625944
 30
0.0
 10
35.27955868280804
 20
2.016037987365251
 30
0.0
 10
34.94103632764359
 20
2.026998540483131
 30
0.0
 10
34.60352844710884
 20
2.043538171192444
 30
0.0
 10
34.26729955778964
 20
2.06550675780115
 30
0.0
 10
33.93300693567407
 20
2.092445114502204
 30
0.0
 10
33.54735052098788
 20
2.129503002379812
 30
0.0
 10
33.01133562246441
 20
2.190523963208877
 30
0.0
 10
32.58343729139859
 20
2.254033404640655
 30
0.0
 10
32.31928878870826
 20
2.293238801443954
 30
0.0
  0
SPLINE
  5
A8
330
1F
100
AcDbEntity
  8
0
  6
Continuous
 62
     1
370
    15
100
AcDbSpline
210
0.0
220
0.0
230
1.0
 70
     8
 71
     3
 72
    13
 73
     9
 74
     0
 42
0.000000001
 43
0.00000001
 40
0.0
 40
0.0
 40
0.0
 40
0.0
 40
0.3113440725335309
 40
0.5234705183788101
 40
0.6569164006722041
 40
0.784593819355738
 40
0.9136344060745758
 40
1.0
 40
1.0
 40
1.0
 40
1.0
 10
32.31928878870826
 20
-2.219691014024049
 30
0.0
 10
32.55197673780893
 20
-2.184948809247561
 30
0.0
 10
32.94320076319363
 20
-2.126535877869167
 30
0.0
 10
33.43188558052745
 20
-2.06864249681308
 30
0.0
 10
33.7847629217079
 20
-2.032657423823002
 30
0.0
 10
34.07567333006318
 20
-2.007099379526016
 30
0.0
 10
34.3315002701553
 20
-1.987470277809147
 30
0.0
 10
34.49194800830543
 20
-1.97792513958117
 30
0.0
 10
34.55627840104477
 20
-1.974098083506484
 30
0.0
  0
SPLINE
  5
A9
330
1F
100
AcDbEntity
  8
0
  6
Continuous
 62
     1
370
    15
100
AcDbSpline
210
0.0
220
0.0
230
1.0
 70
     8
 71
     3
 72
    19
 73
    15
 74
     0
 42
0.000000001
 43
0.00000001
 40
0.0
 40
0.0
 40
0.0
 40
0.0
 40
0.1499722983565774
 40
0.2441572300826625
 40
0.3068404477060201
 40
0.3704757891587808
 40
0.4350958580363252
 40
0.4998682652408928
 40
0.5642661358186576
 40
0.6284760999867145
 40
0.6924808058799546
 40
0.7556003822920616
 40
0.8491389850287536
 40
1.0
 40
1.0
 40
1.0
 40
1.0
 10
53.88412145980486
 20
2.088599166279428
 30
0.0
 10
53.62175749529398
 20
2.068662736734942
 30
0.0
 10
53.19462488780293
 20
2.036205919918369
 30
0.0
 10
52.6592216050703
 20
2.01745365945965
 30
0.0
 10
52.27422823625554
 20
2.010808961635865
 30
0.0
 10
51.941002704366
 20
2.010673256827351
 30
0.0
 10
51.603805261599
 20
2.016036910063977
 30
0.0
 10
51.26524198709399
 20
2.026997320601572
 30
0.0
 10
50.92767751747859
 20
2.04354079771608
 30
0.0
 10
50.59151208943994
 20
2.065506176008279
 30
0.0
 10
50.25730078335594
 20
2.092436434326534
 30
0.0
 10
49.87165234798264
 20
2.1294914109336
 30
0.0
 10
49.33569828068624
 20
2.190503447348684
 30
0.0
 10
48.90789483721547
 20
2.253994218283106
 30
0.0
 10
48.64382379530687
 20
2.29318528672381
 30
0.0
  0
SPLINE
  5
AA
330
1F
100
AcDbEntity
  8
0
  6
Continuous
 62
     1
370
    15
100
AcDbSpline
210
0.0
220
0.0
230
1.0
 70
     8
 71
     3
 72
    19
 73
    15
 74
     0
 42
0.000000001
 43
0.00000001
 40
0.0
 40
0.0
 40
0.0
 40
0.0
 40
0.1499981024405163
 40
0.2441724999157123
 40
0.3068265385947089
 40
0.3704908723280151
 40
0.4351412055052479
 40
0.4998769208343029
 40
0.564240249739845
 40
0.6284860368800503
 40
0.692522175239062
 40
0.7555993497019943
 40
0.8491082951514386
 40
0.9999999999999999
 40
0.9999999999999999
 40
0.9999999999999999
 40
0.9999999999999999
 10
21.23608494595846
 20
2.088629481161101
 30
0.0
 10
20.97362257730363
 20
2.068682243291623
 30
0.0
 10
20.54637655455033
 20
2.036211386275713
 30
0.0
 10
20.01093957473083
 20
2.017457256156887
 30
0.0
 10
19.62597162577941
 20
2.010809987296876
 30
0.0
 10
19.29261023054409
 20
2.010671827388397
 30
0.0
 10
18.95529205546222
 20
2.016039796830384
 30
0.0
 10
18.61681149399829
 20
2.027000265796213
 30
0.0
 10
18.27931948790942
 20
2.043538762050304
 30
0.0
 10
17.94301041259253
 20
2.065512981937693
 30
0.0
 10
17.6086741201921
 20
2.092457609784649
 30
0.0
 10
17.22311895381361
 20
2.12950803870391
 30
0.0
 10
16.68719369390543
 20
2.190517318746413
 30
0.0
 10
16.25930959002743
 20
2.254023730737347
 30
0.0
 10
15.99513614436341
 20
2.293232262966876
 30
0.0
  0
LINE
  5
AB
330
1F
100
AcDbEntity
  8
0
  6
Continuous
 62
   131
370
    15
100
AcDbLine
 10
9.10990031410729
 20
3.036773893709951
 30
0.0
 11
-94.45000000000002
 21
3.036773893709944
 31
0.0
  0
LINE
  5
AC
330
1F
100
AcDbEntity
  8
0
  6
Continuous
 62
   131
370
    15
100
AcDbLine
 10
-94.45000000000002
 20
-2.963226106290056
 30
0.0
 11
9.10990031410729
 21
-2.963226106290049
 31
0.0
  0
LINE
  5
AD
330
1F
100
AcDbEntity
  8
0
  6
Continuous
 62
   131
370
    15
100
AcDbLine
 10
-94.45000000000002
 20
3.036773893709938
 30
0.0
 11
-95.0
 21
2.486773893709938
 31
0.0
  0
LINE
  5
AE
330
1F
100
AcDbEntity
  8
0
  6
Continuous
 62
   131
370
    15
100
AcDbLine
 10
-95.0
 20
-2.41322610629005
 30
0.0
 11
-94.45000000000002
 21
-2.963226106290049
 31
0.0
  0
SPLINE
  5
AF
330
1F
100
AcDbEntity
  8
0
  6
Continuous
 62
   131
370
    15
100
AcDbSpline
210
0.0
220
0.0
230
1.0
 70
     8
 71
     3
 72
     9
 73
     5
 74
     0
 42
0.000000001
 43
0.00000001
 40
0.0
 40
0.0
 40
0.0
 40
0.0
 40
0.5638876805935964
 40
1.0
 40
1.0
 40
1.0
 40
1.0
 10
9.104457476171497
 20
-2.452650437460098
 30
0.0
 10
9.272533239002406
 20
-2.438260457416542
 30
0.0
 10
9.570599269907675
 20
-2.412741226302276
 30
0.0
 10
9.869601460954827
 20
-2.390173802615305
 30
0.0
 10
10.0
 20
-2.380331871128152
 30
0.0
  0
SPLINE
  5
B0
330
1F
100
AcDbEntity
  8
0
  6
Continuous
 62
     1
370
    15
100
AcDbSpline
210
0.0
220
0.0
230
1.0
 70
     8
 71
     3
 72
    22
 73
    18
 74
     0
 42
0.000000001
 43
0.00000001
 40
0.0
 40
0.0
 40
0.0
 40
0.0
 40
0.0122971893001733
 40
0.0849137581065504
 40
0.1575305448144206
 40
0.2301466050143643
 40
0.3027609950037887
 40
0.3753727727042904
 40
0.4479809985756177
 40
0.5205847365243171
 40
0.5931830548051779
 40
0.6657750269136113
 40
0.7383597324671296
 40
0.8109387524210857
 40
0.8835240512064555
 40
0.9561165457762727
 40
1.0
 40
1.0
 40
1.0
 40
1.0
 10
43.77099517233685
 20
-2.321918584986949
 30
0.0
 10
43.69002947220964
 20
-2.354357317958025
 30
0.0
 10
43.13095034382444
 20
-2.578351163832235
 30
0.0
 10
42.09375115883765
 20
-2.820947171161488
 30
0.0
 10
40.65940680728664
 20
-2.998578564619295
 30
0.0
 10
39.22507911771631
 20
-2.930792049540178
 30
0.0
 10
37.79079115024208
 20
-2.642583588802441
 30
0.0
 10
36.35656503964533
 20
-2.150454484218383
 30
0.0
 10
34.92242308598189
 20
-1.493095774016152
 30
0.0
 10
33.4883874799073
 20
-0.7198737864503916
 30
0.0
 10
32.05448017707071
 20
0.1105146043950071
 30
0.0
 10
30.62072354245206
 20
0.9354879586209657
 30
0.0
 10
29.18712134600545
 20
1.691724750516562
 30
0.0
 10
27.75360001393123
 20
2.325393753001614
 30
0.0
 10
26.31998670185933
 20
2.776024982161814
 30
0.0
 10
25.07527255423996
 20
3.019156512502799
 30
0.0
 10
24.3084181856343
 20
3.012149183893162
 30
0.0
 10
24.01949829333429
 20
3.009509104224726
 30
0.0
  0
LINE
  5
B1
330
1F
100
AcDbEntity
  8
0
  6
Continuous
 62
     1
370
    15
100
AcDbLine
 10
11.06737210081116
 20
-2.326747498778261
 30
0.0
 11
9.999999999993218
 21
-2.672996968048438
 31
0.0
  0
SPLINE
  5
B2
330
1F
100
AcDbEntity
  8
0
  6
Continuous
 62
   131
370
    15
100
AcDbSpline
210
0.0
220
0.0
230
1.0
 70
    24
 71
     3
 72
    10
 73
     6
 74
     0
 42
0.000000001
 43
0.00000001
 40
0.0
 40
0.0
 40
0.0
 40
0.0
 40
0.3310786286361306
 40
0.8311560103475442
 40
1.0
 40
1.0
 40
1.0
 40
1.0
 10
9.999999999999998
 20
-2.380331871128152
 30
0.0
 10
9.999999999999998
 20
-2.414666074597298
 30
0.0
 10
9.999999999999998
 20
-2.500860341172078
 30
0.0
 10
9.999999999999998
 20
-2.596550306772749
 30
0.0
 10
9.999999999999998
 20
-2.657589838681008
 30
0.0
 10
9.999999999999998
 20
-2.672996968031497
 30
0.0
  0
SPLINE
  5
B3
330
1F
100
AcDbEntity
  8
0
  6
Continuous
 62
     1
370
    15
100
AcDbSpline
210
0.0
220
0.0
230
1.0
 70
     8
 71
     3
 72
    15
 73
    11
 74
     0
 42
0.000000001
 43
0.00000001
 40
0.0
 40
0.0
 40
0.0
 40
0.0
 40
0.0984354136362072
 40
0.230440074156904
 40
0.3624415626124987
 40
0.4944380898418111
 40
0.6264278715500801
 40
0.7584091300510799
 40
0.8903800959953864
 40
1.0
 40
1.0
 40
1.0
 40
1.0
 10
41.72898129436818
 20
-2.440984458904378
 30
0.0
 10
41.37245492622804
 20
-2.47385867023925
 30
0.0
 10
40.53781666263788
 20
-2.550818124342376
 30
0.0
 10
39.22507988900424
 20
-2.444461893919694
 30
0.0
 10
37.79079228945576
 20
-2.164012412420794
 30
0.0
 10
36.35656663752353
 20
-1.710780302313923
 30
0.0
 10
34.92242497042196
 20
-1.126567306382591
 30
0.0
 10
33.4883902376673
 20
-0.4554261801162195
 30
0.0
 10
32.13538891422689
 20
0.2183397844576938
 30
0.0
 10
31.26041212366539
 20
0.6326227776816868
 30
0.0
 10
30.86339847903596
 20
0.8206003364261875
 30
0.0
  0
SPLINE
  5
B4
330
1F
100
AcDbEntity
  8
0
  6
Continuous
 62
     1
370
    15
100
AcDbSpline
210
0.0
220
0.0
230
1.0
 70
     8
 71
     3
 72
    18
 73
    14
 74
     0
 42
0.000000001
 43
0.00000001
 40
0.0
 40
0.0
 40
0.0
 40
0.0
 40
0.0978170874739795
 40
0.1956445372874352
 40
0.2934811132487718
 40
0.3913255703731323
 40
0.4891766560627722
 40
0.5870331113032438
 40
0.6848936718729326
 40
0.7827570695634781
 40
0.8806220334085264
 40
0.9784872909182588
 40
1.0
 40
1.0
 40
1.0
 40
1.0
 10
55.0
 20
-2.810048713985748
 30
0.0
 10
54.52216770207477
 20
-2.702008789323835
 30
0.0
 10
53.56645248663818
 20
-2.485917494695257
 30
0.0
 10
52.13277038990701
 20
-1.913176415867937
 30
0.0
 10
50.69893032153058
 20
-1.20832746466581
 30
0.0
 10
49.2649510677664
 20
-0.4050554568646931
 30
0.0
 10
47.83085546767814
 20
0.4304691333179214
 30
0.0
 10
46.39666541772701
 20
1.236878521439025
 30
0.0
 10
44.96240323231555
 20
1.951020450377138
 30
0.0
 10
43.52809106550942
 20
2.525397842801143
 30
0.0
 10
42.09375173021554
 20
2.892375707593286
 30
0.0
 10
41.03241884024167
 20
3.056524006058114
 30
0.0
 10
40.44920385227903
 20
3.023236421819178
 30
0.0
 10
40.34410460552198
 20
3.017237776204642
 30
0.0
  0
SPLINE
  5
B5
330
1F
100
AcDbEntity
  8
0
  6
Continuous
 62
     1
370
    15
100
AcDbSpline
210
0.0
220
0.0
230
1.0
 70
     8
 71
     3
 72
    19
 73
    15
 74
     0
 42
0.000000001
 43
0.00000001
 40
0.0
 40
0.0
 40
0.0
 40
0.0
 40
0.0637948207072223
 40
0.1460516063852064
 40
0.2283155023434877
 40
0.3105854582373797
 40
0.392860417861486
 40
0.4751393201617509
 40
0.5574211002576174
 40
0.6397046904721858
 40
0.7219890213682251
 40
0.8147153078008158
 40
0.9073931448778375
 40
0.9999999999999999
 40
0.9999999999999999
 40
0.9999999999999999
 40
0.9999999999999999
 10
27.4319822601537
 20
-2.322894346606884
 30
0.0
 10
27.06133301563163
 20
-2.449594262642224
 30
0.0
 10
26.21277012341266
 20
-2.739660541702044
 30
0.0
 10
24.8862177741293
 20
-2.955796866311123
 30
0.0
 10
23.45230067734028
 20
-2.984405554510521
 30
0.0
 10
22.01825566050893
 20
-2.778616875372346
 30
0.0
 10
20.58410721150036
 20
-2.361274355188002
 30
0.0
 10
19.1498728019767
 20
-1.762027818436508
 30
0.0
 10
17.7155911203659
 20
-1.026648478978404
 30
0.0
 10
16.2812234984463
 20
-0.2110464194961782
 30
0.0
 10
14.78635042574354
 20
0.6597959174871574
 30
0.0
 10
13.2303159954064
 20
1.509601732429239
 30
0.0
 10
11.61467532475002
 20
2.269962403786802
 30
0.0
 10
10.53808762917962
 20
2.587724549451367
 30
0.0
 10
9.999999999993218
 20
2.74654475546834
 30
0.0
  0
SPLINE
  5
B6
330
1F
100
AcDbEntity
  8
0
  6
Continuous
 62
     1
370
    15
100
AcDbSpline
210
0.0
220
0.0
230
1.0
 70
     8
 71
     3
 72
    13
 73
     9
 74
     0
 42
0.000000001
 43
0.00000001
 40
0.0
 40
0.0
 40
0.0
 40
0.0
 40
0.1837755649603686
 40
0.3675714680508305
 40
0.5513852834319581
 40
0.7352145678402939
 40
0.9190568629270968
 40
1.0
 40
1.0
 40
1.0
 40
1.0
 10
55.0
 20
-2.330142899394692
 30
0.0
 10
54.5221672146133
 20
-2.225405112149056
 30
0.0
 10
53.56644876289592
 20
-2.015917946504505
 30
0.0
 10
52.13276746381396
 20
-1.498613996489423
 30
0.0
 10
50.69892782038595
 20
-0.8770278716410973
 30
0.0
 10
49.26494850856846
 20
-0.1863200161992936
 30
0.0
 10
48.09844461752633
 20
0.3991386599591948
 30
0.0
 10
47.40993287059871
 20
0.7149076999970759
 30
0.0
 10
47.19945943082786
 20
0.8114361852792613
 30
0.0
  0
SPLINE
  5
B7
330
1F
100
AcDbEntity
  8
0
  6
Continuous
 62
     1
370
    15
100
AcDbSpline
210
0.0
220
0.0
230
1.0
 70
     8
 71
     3
 72
    16
 73
    12
 74
     0
 42
0.000000001
 43
0.00000001
 40
0.0
 40
0.0
 40
0.0
 40
0.0
 40
0.0477464795154328
 40
0.179794316857983
 40
0.3118523164362899
 40
0.4439187071770523
 40
0.5759917097982081
 40
0.7080695385393859
 40
0.8401504029059492
 40
0.972232509422966
 40
1.0
 40
1.0
 40
1.0
 40
1.0
 10
25.40473342512923
 20
-2.437418865097177
 30
0.0
 10
25.23190775426816
 20
-2.460561616716141
 30
0.0
 10
24.58111477972134
 20
-2.547708046353969
 30
0.0
 10
23.45229726450083
 20
-2.5009462331677
 30
0.0
 10
22.01825413491626
 20
-2.295797671745339
 30
0.0
 10
20.58410502407708
 20
-1.901587522774603
 30
0.0
 10
19.14987385390024
 20
-1.364399502927858
 30
0.0
 10
17.71558236615065
 20
-0.7186974885389039
 30
0.0
 10
16.28125322811704
 20
-0.0218663167968126
 30
0.0
 10
15.22450908884347
 20
0.5108448987091179
 30
0.0
 10
14.64587851892948
 20
0.7704628837138147
 30
0.0
 10
14.5453645408541
 20
0.8155611516062571
 30
0.0
  0
LINE
  5
B8
330
1F
100
AcDbEntity
  8
0
  6
Continuous
 62
     1
370
    15
100
AcDbLine
 10
55.0
 20
-2.81004871398575
 30
0.0
 11
55.0
 21
-2.330142899394692
 31
0.0
  0
SPLINE
  5
B9
330
1F
100
AcDbEntity
  8
0
  6
Continuous
 62
     1
370
    15
100
AcDbSpline
210
0.0
220
0.0
230
1.0
 70
     8
 71
     3
 72
    15
 73
    11
 74
     0
 42
0.000000001
 43
0.00000001
 40
0.0
 40
0.0
 40
0.0
 40
0.0
 40
0.1499752302971877
 40
0.2880874353836198
 40
0.4260006430913916
 40
0.5636306091309851
 40
0.7012599763579439
 40
0.8388868249731101
 40
0.9765146006720963
 40
1.0
 40
1.0
 40
1.0
 40
1.0
 10
10.0
 20
2.285622558155048
 30
0.0
 10
10.6281067993085
 20
2.016721478566157
 30
0.0
 10
11.83463721503937
 20
1.50018936698251
 30
0.0
 10
13.61897166969259
 20
0.4934322354442827
 30
0.0
 10
15.35153306082557
 20
-0.5167442070335186
 30
0.0
 10
17.08125662743262
 20
-1.468895617117231
 30
0.0
 10
18.81053151799877
 20
-2.260560355238078
 30
0.0
 10
20.53995797748549
 20
-2.77077517635911
 30
0.0
 10
21.79102022438544
 20
-2.997980593007216
 30
0.0
 10
22.46562609016657
 20
-2.947220432575414
 30
0.0
 10
22.56396310167523
 20
-2.939821145474962
 30
0.0
  0
SPLINE
  5
BA
330
1F
100
AcDbEntity
  8
0
  6
Continuous
 62
     1
370
    15
100
AcDbSpline
210
0.0
220
0.0
230
1.0
 70
     8
 71
     3
 72
    19
 73
    15
 74
     0
 42
0.000000001
 43
0.00000001
 40
0.0
 40
0.0
 40
0.0
 40
0.0
 40
0.0748404729812512
 40
0.1594717936358473
 40
0.2441013946682986
 40
0.3287314228185386
 40
0.4133634247406225
 40
0.4979939479615669
 40
0.5826234703887099
 40
0.6672505110174138
 40
0.7518796937317608
 40
0.8365061455429913
 40
0.9172156602262351
 40
1.0
 40
1.0
 40
1.0
 40
1.0
 10
34.57156934402431
 20
2.046535346996578
 30
0.0
 10
35.08108744922495
 20
2.252085404382568
 30
0.0
 10
36.16678029548258
 20
2.690076173648645
 30
0.0
 10
37.82908605639727
 20
3.025637709269684
 30
0.0
 10
39.55831711177854
 20
3.068322683089218
 30
0.0
 10
41.28725354749742
 20
2.773049028988997
 30
0.0
 10
43.01563205529851
 20
2.178305818881465
 30
0.0
 10
44.74481016277324
 20
1.349110908427805
 30
0.0
 10
46.47400084181755
 20
0.3763211945405839
 30
0.0
 10
48.20258320154308
 20
-0.6343821199589315
 30
0.0
 10
49.93114168823954
 20
-1.572975467691346
 30
0.0
 10
51.63371502790078
 20
-2.316214334743413
 30
0.0
 10
53.32324357715709
 20
-2.829184378815874
 30
0.0
 10
54.43637245733406
 20
-2.916485859982251
 30
0.0
 10
54.99999999999984
 20
-2.963226106289881
 30
0.0
  0
LINE
  5
BB
330
1F
100
AcDbEntity
  8
0
  6
Continuous
 62
   131
370
    15
100
AcDbLine
 10
10.0
 20
2.285622558155046
 30
0.0
 11
9.999999999999998
 21
2.746544755451398
 31
0.0
  0
LINE
  5
BC
330
1F
100
AcDbEntity
  8
0
  6
Continuous
 62
     1
370
    15
100
AcDbLine
 10
54.99999999999984
 20
-2.963226106289881
 30
0.0
 11
54.99999999999971
 21
-2.810048713985756
 31
0.0
  0
SPLINE
  5
BD
330
1F
100
AcDbEntity
  8
0
  6
Continuous
 62
     1
370
    15
100
AcDbSpline
210
0.0
220
0.0
230
1.0
 70
     8
 71
     3
 72
    32
 73
    28
 74
     0
 42
0.000000001
 43
0.00000001
 40
0.0
 40
0.0
 40
0.0
 40
0.0
 40
0.0278802765291868
 40
0.0695938909440275
 40
0.111595050802809
 40
0.1533088254569676
 40
0.1953105470923654
 40
0.2370212677981718
 40
0.2790217574442657
 40
0.3207321726666316
 40
0.3627309674497929
 40
0.4044414813665216
 40
0.4464393250525922
 40
0.4881481645465897
 40
0.5301454808015323
 40
0.5718544823834076
 40
0.6138532645905885
 40
0.6555618735109783
 40
0.6975583650800411
 40
0.7392671609637221
 40
0.7812633429219725
 40
0.8229722007478405
 40
0.8649701626585707
 40
0.906678954955986
 40
0.9486768002007325
 40
0.9903854522821115
 40
0.9999999999999999
 40
0.9999999999999999
 40
0.9999999999999999
 40
0.9999999999999999
 10
18.23489994240463
 20
2.047348637564379
 30
0.0
 10
18.42677866422946
 20
2.12962075530931
 30
0.0
 10
18.90574044307613
 20
2.334985891629999
 30
0.0
 10
19.67409144710128
 20
2.594747792520595
 30
0.0
 10
20.53811656294186
 20
2.824284935945815
 30
0.0
 10
21.40292774567212
 20
2.975669897330424
 30
0.0
 10
22.26705209843138
 20
3.045625867135591
 30
0.0
 10
23.13251302555575
 20
3.032801559892303
 30
0.0
 10
23.99545644771159
 20
2.936920452904584
 30
0.0
 10
24.86173286324291
 20
2.761404815348783
 30
0.0
 10
25.72481288924994
 20
2.510441815834491
 30
0.0
 10
26.59000117015422
 20
2.190319780710849
 30
0.0
 10
27.45421604419756
 20
1.812945026704364
 30
0.0
 10
28.31900748066626
 20
1.383714027386626
 30
0.0
 10
29.18263210778996
 20
0.9193975395413686
 30
0.0
 10
30.0484912219936
 20
0.4301620515381102
 30
0.0
 10
30.91125853843813
 20
-0.0707720250028578
 30
0.0
 10
31.777320811297
 20
-0.5675471930019093
 30
0.0
 10
32.64068721762831
 20
-1.047812826515356
 30
0.0
 10
33.50556727001719
 20
-1.499764316472016
 30
0.0
 10
34.36982199055586
 20
-1.906372632750275
 30
0.0
 10
35.23480840709135
 20
-2.262102429298556
 30
0.0
 10
36.09803873544768
 20
-2.552575869843301
 30
0.0
 10
36.96420855576823
 20
-2.773382008666897
 30
0.0
 10
37.82698767873824
 20
-2.910162475690321
 30
0.0
 10
38.46970406095378
 20
-2.970121960484046
 30
0.0
 10
38.82311444926142
 20
-2.958112827777328
 30
0.0
 10
38.88932000650786
 20
-2.955863116537367
 30
0.0
  0
SPLINE
  5
BE
330
1F
100
AcDbEntity
  8
0
  6
Continuous
 62
     1
370
    15
100
AcDbSpline
210
0.0
220
0.0
230
1.0
 70
     8
 71
     3
 72
    12
 73
     8
 74
     0
 42
0.000000001
 43
0.00000001
 40
0.0
 40
0.0
 40
0.0
 40
0.0
 40
0.1902819180092873
 40
0.3895141465835974
 40
0.5899944599258413
 40
0.7943213090981426
 40
0.9999999999999999
 40
0.9999999999999999
 40
0.9999999999999999
 40
0.9999999999999999
 10
50.87554566483129
 20
2.047852173397023
 30
0.0
 10
51.13716400088602
 20
2.156430835266604
 30
0.0
 10
51.67270644214946
 20
2.378695384929463
 30
0.0
 10
52.4833172498556
 20
2.642866686721514
 30
0.0
 10
53.31462905602612
 20
2.849627522811609
 30
0.0
 10
54.15323396278581
 20
2.991175212298024
 30
0.0
 10
54.7171249135969
 20
3.019852446172091
 30
0.0
 10
55.00000000000002
 20
3.036773893710115
 30
0.0
  0
SPLINE
  5
BF
330
1F
100
AcDbEntity
  8
0
  6
Continuous
 62
     1
370
    15
100
AcDbSpline
210
0.0
220
0.0
230
1.0
 70
     8
 71
     3
 72
    15
 73
    11
 74
     0
 42
0.000000001
 43
0.00000001
 40
0.0
 40
0.0
 40
0.0
 40
0.0
 40
0.1159739798121645
 40
0.2594172859751752
 40
0.4028651156528636
 40
0.5463154427193353
 40
0.6897662385762784
 40
0.8332154741611408
 40
0.9766611219563203
 40
1.0
 40
1.0
 40
1.0
 40
1.0
 10
47.5562970587908
 20
-0.2513590481728585
 30
0.0
 10
47.16976452755787
 20
-0.0956433128674378
 30
0.0
 10
46.30514627132518
 20
0.2526706236033697
 30
0.0
 10
44.9624186190083
 20
0.7883294537919295
 30
0.0
 10
43.52811002290024
 20
1.301898953600432
 30
0.0
 10
42.09377368775983
 20
1.719230089596009
 30
0.0
 10
40.65943208468554
 20
2.012862406581554
 30
0.0
 10
39.22510828167307
 20
2.14279827025681
 30
0.0
 10
38.19111340275998
 20
2.159636179693458
 30
0.0
 10
37.6352314640356
 20
2.087941046684461
 30
0.0
 10
37.55744450682647
 20
2.077908437500807
 30
0.0
  0
SPLINE
  5
C0
330
1F
100
AcDbEntity
  8
0
  6
Continuous
 62
     1
370
    15
100
AcDbSpline
210
0.0
220
0.0
230
1.0
 70
     8
 71
     3
 72
    11
 73
     7
 74
     0
 42
0.000000001
 43
0.00000001
 40
0.0
 40
0.0
 40
0.0
 40
0.0
 40
0.0118336732312926
 40
0.3042942075208569
 40
0.5967493364329571
 40
1.0
 40
1.0
 40
1.0
 40
1.0
 10
14.90501307289039
 20
-0.2508179833429995
 30
0.0
 10
14.88566741006851
 20
-0.2433030518352731
 30
0.0
 10
14.38820791272652
 20
-0.0500621127775578
 30
0.0
 10
13.41261388387559
 20
0.3542338063566491
 30
0.0
 10
11.79731281271107
 20
0.9914944746228842
 30
0.0
 10
10.65950527919081
 20
1.346647195078331
 30
0.0
 10
10.0
 20
1.552503710489755
 30
0.0
  0
SPLINE
  5
C1
330
1F
100
AcDbEntity
  8
0
  6
Continuous
 62
   131
370
    15
100
AcDbSpline
210
0.0
220
0.0
230
1.0
 70
    24
 71
     3
 72
    10
 73
     6
 74
     0
 42
0.000000001
 43
0.00000001
 40
0.0
 40
0.0
 40
0.0
 40
0.0
 40
0.5
 40
0.5
 40
1.0
 40
1.0
 40
1.0
 40
1.0
 10
10.0
 20
2.285622558155047
 30
0.0
 10
10.0
 20
2.203787653941837
 30
0.0
 10
10.0
 20
2.09343481355647
 30
0.0
 10
10.0
 20
1.838759722501962
 30
0.0
 10
10.0
 20
1.695251201915616
 30
0.0
 10
10.0
 20
1.552503710489754
 30
0.0
  0
SPLINE
  5
C2
330
1F
100
AcDbEntity
  8
0
  6
Continuous
 62
     1
370
    15
100
AcDbSpline
210
0.0
220
0.0
230
1.0
 70
    24
 71
     3
 72
    10
 73
     6
 74
     0
 42
0.000000001
 43
0.00000001
 40
0.0
 40
0.0
 40
0.0
 40
0.0
 40
0.5
 40
0.5
 40
1.0
 40
1.0
 40
1.0
 40
1.0
 10
55.0
 20
2.136773893709956
 30
0.0
 10
55.0
 20
2.264070664131898
 30
0.0
 10
55.00000000000001
 20
2.412001300311309
 30
0.0
 10
54.99999999999999
 20
2.722359376592528
 30
0.0
 10
55.00000000000001
 20
2.883994201114381
 30
0.0
 10
55.00000000000002
 20
3.036773893710115
 30
0.0
  0
LINE
  5
C3
330
1F
100
AcDbEntity
  8
0
  6
Continuous
 62
     1
370
    15
100
AcDbLine
 10
55.0
 20
2.136773893709956
 30
0.0
 11
53.88116604662279
 21
2.074766068776527
 31
0.0
  0
SPLINE
  5
C4
330
1F
100
AcDbEntity
  8
0
  6
Continuous
 62
     1
370
    15
100
AcDbSpline
210
0.0
220
0.0
230
1.0
 70
     8
 71
     3
 72
    15
 73
    11
 74
     0
 42
0.000000001
 43
0.00000001
 40
0.0
 40
0.0
 40
0.0
 40
0.0
 40
0.0593224080584954
 40
0.2029549556489761
 40
0.3465752573869364
 40
0.4902090610523863
 40
0.6338583510933552
 40
0.777521146438089
 40
0.9211954527519777
 40
1.0
 40
1.0
 40
1.0
 40
1.0
 10
31.21282215306623
 20
-0.2422340744905309
 30
0.0
 10
31.01545520904932
 20
-0.1639314204706044
 30
0.0
 10
30.34021965000007
 20
0.1039591152295129
 30
0.0
 10
29.18717214472321
 20
0.574641718869897
 30
0.0
 10
27.75363987951511
 20
1.114043451510859
 30
0.0
 10
26.32003052002385
 20
1.572778933970523
 30
0.0
 10
24.88626489443418
 20
1.916913966523699
 30
0.0
 10
23.45234995995862
 20
2.111443120117431
 30
0.0
 10
22.23416830498192
 20
2.166870488438734
 30
0.0
 10
21.49395765525786
 20
2.094436819788456
 30
0.0
 10
21.23176660120589
 20
2.068779988264421
 30
0.0
  0
SPLINE
  5
C5
330
1F
100
AcDbEntity
  8
0
  6
Continuous
 62
     1
370
    15
100
AcDbSpline
210
0.0
220
0.0
230
1.0
 70
     8
 71
     3
 72
     8
 73
     4
 74
     0
 42
0.000000001
 43
0.00000001
 40
0.0
 40
0.0
 40
0.0
 40
0.0
 40
1.0
 40
1.0
 40
1.0
 40
1.0
 10
53.14323596820899
 20
0.8764521581614804
 30
0.0
 10
53.00894915072984
 20
1.035575778696486
 30
0.0
 10
52.89240403524029
 20
1.1876575431834
 30
0.0
 10
52.80039515848586
 20
1.329138272287663
 30
0.0
  0
LINE
  5
C6
330
1F
100
AcDbEntity
  8
0
  6
Continuous
 62
     1
370
    15
100
AcDbLine
 10
52.80039515848587
 20
1.329138272287662
 30
0.0
 11
55.0
 21
0.0367738937099564
 31
0.0
  0
LINE
  5
C7
330
1F
100
AcDbEntity
  8
0
  6
Continuous
 62
     1
370
    15
100
AcDbLine
 10
55.0
 20
0.0367738937099564
 30
0.0
 11
55.0
 21
-0.7649549443789778
 31
0.0
  0
SPLINE
  5
C8
330
1F
100
AcDbEntity
  8
0
  6
Continuous
 62
     1
370
    15
100
AcDbSpline
210
0.0
220
0.0
230
1.0
 70
     8
 71
     3
 72
    10
 73
     6
 74
     0
 42
0.000000001
 43
0.00000001
 40
0.0
 40
0.0
 40
0.0
 40
0.0
 40
0.5
 40
0.5
 40
1.0
 40
1.0
 40
1.0
 40
1.0
 10
55.00000000000001
 20
-0.7649549443789826
 30
0.0
 10
54.67858102588963
 20
-0.512264050448646
 30
0.0
 10
54.36253412376323
 20
-0.2492088595057305
 30
0.0
 10
53.74145243236299
 20
0.2981471067060175
 30
0.0
 10
53.43352622597775
 20
0.5853322810843198
 30
0.0
 10
53.14323596822352
 20
0.8764521581469211
 30
0.0
  0
SPLINE
  5
C9
330
1F
100
AcDbEntity
  8
0
  6
Continuous
 62
   131
370
    15
100
AcDbSpline
210
0.0
220
0.0
230
1.0
 70
    24
 71
     3
 72
    10
 73
     6
 74
     0
 42
0.000000001
 43
0.00000001
 40
0.0
 40
0.0
 40
0.0
 40
0.0
 40
0.3308929453138694
 40
0.8190202572306514
 40
1.0
 40
1.0
 40
1.0
 40
1.0
 10
10.0
 20
-1.624329992028651
 30
0.0
 10
9.999999999999998
 20
-1.768764363989477
 30
0.0
 10
9.999999999999998
 20
-2.126265719493128
 30
0.0
 10
10.0
 20
-2.384094549121063
 30
0.0
 10
9.999999999999998
 20
-2.352318530242018
 30
0.0
 10
9.999999999999998
 20
-2.343723768487995
 30
0.0
  0
SPLINE
  5
CA
330
1F
100
AcDbEntity
  8
0
  6
Continuous
 62
     1
370
    15
100
AcDbSpline
210
0.0
220
0.0
230
1.0
 70
     8
 71
     3
 72
    21
 73
    17
 74
     0
 42
0.000000001
 43
0.00000001
 40
0.0
 40
0.0
 40
0.0
 40
0.0
 40
0.0439620039327524
 40
0.1204673165681548
 40
0.1969760293039723
 40
0.2734870918999154
 40
0.3499994518030641
 40
0.4265120551829223
 40
0.5030238479691524
 40
0.5795337768898223
 40
0.6560407905079668
 40
0.7325438402542911
 40
0.8090418814538523
 40
0.8855338743445694
 40
0.9620187850854554
 40
1.0
 40
1.0
 40
1.0
 40
1.0
 10
48.65500912364077
 20
-2.197022066138709
 30
0.0
 10
48.38030290890582
 20
-2.243218667175468
 30
0.0
 10
47.6275364839645
 20
-2.369809360583823
 30
0.0
 10
46.39667572837502
 20
-2.380178395048256
 30
0.0
 10
44.96241661000143
 20
-2.238518838951329
 30
0.0
 10
43.52810703720765
 20
-1.916814330372258
 30
0.0
 10
42.09377008009719
 20
-1.449331201101397
 30
0.0
 10
40.65942791382874
 20
-0.8688017016047243
 30
0.0
 10
39.22510296367923
 20
-0.219866795039989
 30
0.0
 10
37.79081758066759
 20
0.448479087544849
 30
0.0
 10
36.35659405873342
 20
1.085824462668541
 30
0.0
 10
34.92245475538326
 20
1.643082531090509
 30
0.0
 10
33.48842145747145
 20
2.081287143935155
 30
0.0
 10
32.05451766348934
 20
2.355305011689329
 30
0.0
 10
30.86130235354459
 20
2.466665239336767
 30
0.0
 10
30.14606606863265
 20
2.415026639469163
 30
0.0
 10
29.90874220625526
 20
2.397892341018619
 30
0.0
  0
SPLINE
  5
CB
330
1F
100
AcDbEntity
  8
0
  6
Continuous
 62
     1
370
    15
100
AcDbSpline
210
0.0
220
0.0
230
1.0
 70
     8
 71
     3
 72
    11
 73
     7
 74
     0
 42
0.000000001
 43
0.00000001
 40
0.0
 40
0.0
 40
0.0
 40
0.0
 40
0.1924983480569376
 40
0.4314971990538425
 40
0.6704917472655012
 40
1.0
 40
1.0
 40
1.0
 40
1.0
 10
16.0022362869241
 20
-2.204983474796524
 30
0.0
 10
15.61714779617595
 20
-2.260608820772661
 30
0.0
 10
14.7539476346008
 20
-2.385296545251236
 30
0.0
 10
13.41259648929755
 20
-2.361820267122757
 30
0.0
 10
11.79738669553957
 20
-2.162246483729008
 30
0.0
 10
10.65951721541514
 20
-1.821708323365191
 30
0.0
 10
10.0
 20
-1.624329992028651
 30
0.0
  0
SPLINE
  5
CC
330
1F
100
AcDbEntity
  8
0
  6
Continuous
 62
     1
370
    15
100
AcDbSpline
210
0.0
220
0.0
230
1.0
 70
     8
 71
     3
 72
    13
 73
     9
 74
     0
 42
0.000000001
 43
0.00000001
 40
0.0
 40
0.0
 40
0.0
 40
0.0
 40
0.1463073098074786
 40
0.3538669983130159
 40
0.5614443975810112
 40
0.7690366932033776
 40
0.9766410561728635
 40
1.0
 40
1.0
 40
1.0
 40
1.0
 10
53.14323596820435
 20
0.8764521581634772
 30
0.0
 10
52.80645014325792
 20
1.019093614266249
 30
0.0
 10
51.99188121225244
 20
1.364094174884211
 30
0.0
 10
50.69889956790978
 20
1.825510711131807
 30
0.0
 10
49.26496559988941
 20
2.210441135184718
 30
0.0
 10
47.83086048015513
 20
2.411854284039511
 30
0.0
 10
46.82097291655604
 20
2.474656211574028
 30
0.0
 10
46.28911489158461
 20
2.417457482851911
 30
0.0
 10
46.2353243483956
 20
2.411672573076696
 30
0.0
  0
SPLINE
  5
CD
330
1F
100
AcDbEntity
  8
0
  6
Continuous
 62
     1
370
    15
100
AcDbSpline
210
0.0
220
0.0
230
1.0
 70
     8
 71
     3
 72
    21
 73
    17
 74
     0
 42
0.000000001
 43
0.00000001
 40
0.0
 40
0.0
 40
0.0
 40
0.0
 40
0.0144699732570975
 40
0.0909832502999384
 40
0.1674884152614805
 40
0.2439872279948511
 40
0.3204930463487656
 40
0.3970068988570659
 40
0.4735277576534827
 40
0.5500545880275609
 40
0.6265863494219163
 40
0.7031219964416964
 40
0.7796604798741668
 40
0.8562007477163067
 40
0.9327417462082661
 40
1.0
 40
1.0
 40
1.0
 40
1.0
 10
32.32562764620354
 20
-2.205826976602193
 30
0.0
 10
32.23524356688657
 20
-2.224114415521852
 30
0.0
 10
31.66693309626475
 20
-2.339100850051443
 30
0.0
 10
30.62076365030309
 20
-2.384052788103532
 30
0.0
 10
29.18716216828417
 20
-2.317618166772575
 30
0.0
 10
27.75363455489205
 20
-2.058241478255702
 30
0.0
 10
26.32002438225128
 20
-1.644306537591981
 30
0.0
 10
24.88625812627783
 20
-1.102090238380546
 30
0.0
 10
23.4523428076137
 20
-0.4739469829879434
 30
0.0
 10
22.01830090392529
 20
0.1929197292675227
 30
0.0
 10
20.58415434427075
 20
0.8480530876396449
 30
0.0
 10
19.14992535172365
 20
1.441470525243528
 30
0.0
 10
17.7156361517971
 20
1.929803998799084
 30
0.0
 10
16.2813091632942
 20
2.270259498510054
 30
0.0
 10
14.90494941127486
 20
2.451185870509414
 30
0.0
 10
14.0067026316865
 20
2.423762034562417
 30
0.0
 10
13.58657172759827
 20
2.410935268854157
 30
0.0
  0
SPLINE
  5
CE
330
1F
100
AcDbEntity
  8
0
  6
Continuous
 62
     1
370
    15
100
AcDbSpline
210
0.0
220
0.0
230
1.0
 70
    24
 71
     3
 72
    10
 73
     6
 74
     0
 42
0.000000001
 43
0.00000001
 40
0.0
 40
0.0
 40
0.0
 40
0.0
 40
0.5
 40
0.5
 40
1.0
 40
1.0
 40
1.0
 40
1.0
 10
55.0
 20
-2.330142899394691
 30
0.0
 10
55.0
 20
-2.148700273301458
 30
0.0
 10
55.00000000000001
 20
-1.919440558009451
 30
0.0
 10
54.99999999999999
 20
-1.386433783742086
 30
0.0
 10
55.00000000000001
 20
-1.083148435443977
 30
0.0
 10
55.0
 20
-0.7649549443790783
 30
0.0
  0
SPLINE
  5
CF
330
1F
100
AcDbEntity
  8
0
  6
Continuous
 62
   131
370
    15
100
AcDbSpline
210
0.0
220
0.0
230
1.0
 70
    24
 71
     3
 72
    14
 73
    10
 74
     0
 42
0.000000001
 43
0.00000001
 40
0.0
 40
0.0
 40
0.0
 40
0.0
 40
0.2499999999999998
 40
0.2499999999999998
 40
0.4999999999999999
 40
0.4999999999999999
 40
0.75
 40
0.75
 40
1.0
 40
1.0
 40
1.0
 40
1.0
 10
10.0
 20
1.552503710489754
 30
0.0
 10
10.0
 20
1.331948830084731
 30
0.0
 10
10.0
 20
1.086138622695458
 30
0.0
 10
10.0
 20
0.5612227242754835
 30
0.0
 10
10.0
 20
0.2823074702898615
 30
0.0
 10
10.0
 20
-0.2823074702898607
 30
0.0
 10
10.0
 20
-0.5677063064380742
 30
0.0
 10
10.0
 20
-1.117326747784815
 30
0.0
 10
10.0
 20
-1.381323217074726
 30
0.0
 10
10.0
 20
-1.62432999202865
 30
0.0
  0
SPLINE
  5
D0
330
1F
100
AcDbEntity
  8
0
  6
Continuous
 62
     1
370
    15
100
AcDbSpline
210
0.0
220
0.0
230
1.0
 70
     8
 71
     3
 72
    10
 73
     6
 74
     0
 42
0.000000001
 43
0.00000001
 40
0.0
 40
0.0
 40
0.0
 40
0.0
 40
0.5
 40
0.5
 40
1.0
 40
1.0
 40
1.0
 40
1.0
 10
55.0
 20
2.136773893709956
 30
0.0
 10
54.62668070767048
 20
2.035455987742767
 30
0.0
 10
54.25615379955178
 20
1.919377941592959
 30
0.0
 10
53.52150500180385
 20
1.653365845377545
 30
0.0
 10
53.15722935061073
 20
1.504071749112078
 30
0.0
 10
52.80039515848423
 20
1.329138272288962
 30
0.0
  0
LINE
  5
D1
330
1F
100
AcDbEntity
  8
0
  6
Continuous
 62
     1
370
    15
100
AcDbLine
 10
55.0
 20
0.0367738937099564
 30
0.0
 11
55.0
 21
2.136773893709956
 31
0.0
  0
SPLINE
  5
D2
330
1F
100
AcDbEntity
  8
0
  6
Continuous
 62
   131
370
    15
100
AcDbSpline
210
0.0
220
0.0
230
1.0
 70
     8
 71
     3
 72
     8
 73
     4
 74
     0
 42
0.000000001
 43
0.00000001
 40
0.0
 40
0.0
 40
0.0
 40
0.0
 40
1.0
 40
1.0
 40
1.0
 40
1.0
 10
9.999999999997177
 20
2.746544755467354
 30
0.0
 10
9.705276603954346
 20
2.819793669468073
 30
0.0
 10
9.406373333242977
 20
2.880129462885384
 30
0.0
 10
9.109795876676474
 20
2.926153116971935
 30
0.0
  0
SPLINE
  5
D3
330
1F
100
AcDbEntity
  8
0
  6
Continuous
 62
   131
370
    15
100
AcDbSpline
210
0.0
220
0.0
230
1.0
 70
     8
 71
     3
 72
     8
 73
     4
 74
     0
 42
0.000000001
 43
0.00000001
 40
0.0
 40
0.0
 40
0.0
 40
0.0
 40
1.0
 40
1.0
 40
1.0
 40
1.0
 10
9.10990031410729
 20
2.590822426266273
 30
0.0
 10
9.406443504881047
 20
2.501094856556672
 30
0.0
 10
9.705311198770337
 20
2.398593333858343
 30
0.0
 10
10.0
 20
2.285622558155046
 30
0.0
  0
SPLINE
  5
D4
330
1F
100
AcDbEntity
  8
0
  6
Continuous
 62
   131
370
    15
100
AcDbSpline
210
0.0
220
0.0
230
1.0
 70
     8
 71
     3
 72
     8
 73
     4
 74
     0
 42
0.000000001
 43
0.00000001
 40
0.0
 40
0.0
 40
0.0
 40
0.0
 40
1.0
 40
1.0
 40
1.0
 40
1.0
 10
9.999999999997177
 20
-2.672996968047452
 30
0.0
 10
9.705276603954346
 20
-2.746245882048172
 30
0.0
 10
9.406373333242977
 20
-2.806581675465482
 30
0.0
 10
9.109795876676474
 20
-2.852605329552033
 30
0.0
  0
LINE
  5
D5
330
1F
100
AcDbEntity
  8
0
  6
Continuous
 62
   131
370
    15
100
AcDbLine
 10
9.10990031410729
 20
2.926187706406011
 30
0.0
 11
9.10990031410729
 21
3.036773893709951
 31
0.0
  0
LINE
  5
D6
330
1F
100
AcDbEntity
  8
0
  6
Continuous
 62
   131
370
    15
100
AcDbLine
 10
-94.45000000000002
 20
3.036773893709938
 30
0.0
 11
-94.45000000000002
 21
-2.963226106290056
 31
0.0
  0
LINE
  5
D7
330
1F
100
AcDbEntity
  8
0
  6
Continuous
 62
   131
370
    15
100
AcDbLine
 10
9.10990031410729
 20
-2.963226106290049
 30
0.0
 11
9.10990031410729
 21
2.591237559365736
 31
0.0
  0
LINE
  5
D8
330
1F
100
AcDbEntity
  8
0
  6
Continuous
 62
   131
370
    15
100
AcDbLine
 10
-95.0
 20
2.486773893709938
 30
0.0
 11
-95.0
 21
-2.413226106290051
 31
0.0
  0
SPLINE
  5
D9
330
1F
100
AcDbEntity
  8
0
  6
Continuous
 62
   131
370
    15
100
AcDbSpline
210
0.0
220
0.0
230
1.0
 70
    24
 71
     3
 72
    14
 73
    10
 74
     0
 42
0.000000001
 43
0.00000001
 40
0.0
 40
0.0
 40
0.0
 40
0.0
 40
0.2499999999999998
 40
0.2499999999999998
 40
0.4999999999999999
 40
0.4999999999999999
 40
0.75
 40
0.75
 40
1.0
 40
1.0
 40
1.0
 40
1.0
 10
10.0
 20
1.552503710489754
 30
0.0
 10
10.0
 20
1.331948830084731
 30
0.0
 10
10.0
 20
1.086138622695458
 30
0.0
 10
10.0
 20
0.5612227242754835
 30
0.0
 10
10.0
 20
0.2823074702898615
 30
0.0
 10
10.0
 20
-0.2823074702898607
 30
0.0
 10
10.0
 20
-0.5677063064380742
 30
0.0
 10
10.0
 20
-1.117326747784815
 30
0.0
 10
10.0
 20
-1.381323217074726
 30
0.0
 10
10.0
 20
-1.62432999202865
 30
0.0
  0
SPLINE
  5
DA
330
1F
100
AcDbEntity
  8
0
  6
Continuous
 62
   131
370
    15
100
AcDbSpline
210
0.0
220
0.0
230
1.0
 70
     8
 71
     3
 72
     8
 73
     4
 74
     0
 42
0.000000001
 43
0.00000001
 40
0.0
 40
0.0
 40
0.0
 40
0.0
 40
1.0
 40
1.0
 40
1.0
 40
1.0
 10
10.0
 20
-1.624329992028651
 30
0.0
 10
9.70529856687673
 20
-1.525769532446053
 30
0.0
 10
9.40641788253794
 20
-1.418621341194954
 30
0.0
 10
9.109862179972977
 20
-1.305172950455569
 30
0.0
  0
SPLINE
  5
DB
330
1F
100
AcDbEntity
  8
0
  6
Continuous
 62
   131
370
    15
100
AcDbSpline
210
0.0
220
0.0
230
1.0
 70
     8
 71
     3
 72
     8
 73
     4
 74
     0
 42
0.000000001
 43
0.00000001
 40
0.0
 40
0.0
 40
0.0
 40
0.0
 40
1.0
 40
1.0
 40
1.0
 40
1.0
 10
9.999999999999991
 20
1.552503710489754
 30
0.0
 10
9.705302864755117
 20
1.635200279674976
 30
0.0
 10
9.40642660029157
 20
1.710870883516501
 30
0.0
 10
9.10987515473674
 20
1.777818398564574
 30
0.0
  0
SPLINE
  5
DC
330
1F
100
AcDbEntity
  8
0
  6
Continuous
 62
   131
370
    15
100
AcDbSpline
210
0.0
220
0.0
230
1.0
 70
    24
 71
     3
 72
    10
 73
     6
 74
     0
 42
0.000000001
 43
0.00000001
 40
0.0
 40
0.0
 40
0.0
 40
0.0
 40
0.330517023153569
 40
0.818089781471683
 40
1.0
 40
1.0
 40
1.0
 40
1.0
 10
10.0
 20
-1.624329992028651
 30
0.0
 10
10.0
 20
-1.768773810598223
 30
0.0
 10
9.999999999999998
 20
-2.12629854817766
 30
0.0
 10
9.999999999999998
 20
-2.384236975646164
 30
0.0
 10
9.999999999999998
 20
-2.352326332421489
 30
0.0
 10
9.999999999999998
 20
-2.343655653280814
 30
0.0
  0
SPLINE
  5
DD
330
1F
100
AcDbEntity
  8
0
  6
Continuous
 62
   131
370
    15
100
AcDbSpline
210
0.0
220
0.0
230
1.0
 70
    24
 71
     3
 72
    10
 73
     6
 74
     0
 42
0.000000001
 43
0.00000001
 40
0.0
 40
0.0
 40
0.0
 40
0.0
 40
0.4999999999999997
 40
0.4999999999999997
 40
1.0
 40
1.0
 40
1.0
 40
1.0
 10
10.0
 20
2.285622558155047
 30
0.0
 10
10.0
 20
2.203787653941837
 30
0.0
 10
10.0
 20
2.09343481355647
 30
0.0
 10
10.0
 20
1.838759722501961
 30
0.0
 10
10.0
 20
1.695251201915616
 30
0.0
 10
10.0
 20
1.552503710489754
 30
0.0
  0
SPLINE
  5
DE
330
1F
100
AcDbEntity
  8
0
  6
Continuous
 62
   131
370
    15
100
AcDbSpline
210
0.0
220
0.0
230
1.0
 70
    24
 71
     3
 72
    10
 73
     6
 74
     0
 42
0.000000001
 43
0.00000001
 40
0.0
 40
0.0
 40
0.0
 40
0.0
 40
0.3310786286361078
 40
0.8311560103474841
 40
1.0
 40
1.0
 40
1.0
 40
1.0
 10
9.999999999999998
 20
-2.380331871128152
 30
0.0
 10
9.999999999999998
 20
-2.414666074597298
 30
0.0
 10
9.999999999999998
 20
-2.500860341172078
 30
0.0
 10
9.999999999999998
 20
-2.596550306772755
 30
0.0
 10
9.999999999999998
 20
-2.657589838681021
 30
0.0
 10
10.0
 20
-2.672996968031516
 30
0.0
  0
LINE
  5
DF
330
1F
100
AcDbEntity
  8
중심선
 62
     1
100
AcDbLine
 10
-98.0
 20
0.036773893709946
 30
0.0
 11
58.0
 21
0.0367738937099566
 31
0.0
  0
CIRCLE
  5
E0
330
1F
100
AcDbEntity
  8
외형선
100
AcDbCircle
 10
0.0000000000000104
 20
0.0
 30
0.0
 40
3.000000000000005
  0
INSERT
  5
E1
330
1F
100
AcDbEntity
  8
0
  6
Continuous
 62
     7
100
AcDbBlockReference
 66
     1
  2
블럭10
 10
-22.93944368806589
 20
-52.04609937292004
 30
0.0
  0
ATTRIB
  5
E2
330
E1
100
AcDbEntity
  8
FORMAT
 62
     2
100
AcDbText
 10
-39.05870472750145
 20
-49.97073246008785
 30
0.0
 40
4.233333333333333
  1
SEME7006045E [ 2 FLUTE ]
 41
0.75
  7
SLDTEXTSTYLE0
 11
-39.05870472750145
 21
-52.08739912675452
 31
0.0
100
AcDbAttribute
  2
AUTOATTR0
 70
     0
 74
     1
  0
SEQEND
  5
E3
330
E1
100
AcDbEntity
  8
0
  6
Continuous
 62
     7
  0
HATCH
  5
E4
330
1F
100
AcDbEntity
  8
중심선
100
AcDbHatch
 10
0.0
 20
0.0
 30
0.0
210
0.0
220
0.0
230
1.0
  2
SOLID
 70
     1
 71
     0
 91
        1
 92
        0
 93
        4
 72
     1
 10
-17.22453438368504
 20
-35.7989250712761
 11
-20.67080962752232
 21
-35.7989250712761
 72
     1
 10
-20.67080962752232
 20
-35.7989250712761
 11
-22.79903948672635
 21
-38.3352506518487
 72
     1
 10
-22.79903948672635
 20
-38.3352506518487
 11
-19.35273115777591
 21
-38.33521122254621
 72
     1
 10
-19.35273115777591
 20
-38.33521122254621
 11
-17.22453438368504
 21
-35.7989250712761
 97
        0
 75
     0
 76
     1
 98
        1
 10
0.0
 20
0.0
  0
HATCH
  5
E5
330
1F
100
AcDbEntity
  8
중심선
100
AcDbHatch
 10
0.0
 20
0.0
 30
0.0
210
0.0
220
0.0
230
1.0
  2
SOLID
 70
     1
 71
     0
 91
        1
 92
        0
 93
        4
 72
     1
 10
-12.21177039264909
 20
-35.7989250712761
 11
-15.65804563648637
 21
-35.7989250712761
 72
     1
 10
-15.65804563648637
 20
-35.7989250712761
 11
-20.18918364484376
 21
-41.19892507127612
 72
     1
 10
-20.18918364484376
 20
-41.19892507127612
 11
-16.74290840100648
 21
-41.19892507127612
 72
     1
 10
-16.74290840100648
 20
-41.19892507127612
 11
-12.21177039264909
 21
-35.7989250712761
 97
        0
 75
     0
 76
     1
 98
        1
 10
0.0
 20
0.0
  0
HATCH
  5
E6
330
1F
100
AcDbEntity
  8
중심선
100
AcDbHatch
 10
0.0
 20
0.0
 30
0.0
210
0.0
220
0.0
230
1.0
  2
SOLID
 70
     1
 71
     0
 91
        1
 92
        0
 93
        4
 72
     1
 10
-7.199006401613195
 20
-35.79892507127613
 11
-10.64528164545031
 21
-35.7989250712761
 72
     1
 10
-10.64528164545031
 20
-35.7989250712761
 11
-17.69371854733956
 21
-44.19892507127612
 72
     1
 10
-17.69371854733956
 20
-44.19892507127612
 11
-14.24744330350228
 21
-44.19892507127612
 72
     1
 10
-14.24744330350228
 20
-44.19892507127612
 11
-7.199006401613195
 21
-35.79892507127613
 97
        0
 75
     0
 76
     1
 98
        1
 10
0.0
 20
0.0
  0
HATCH
  5
E7
330
1F
100
AcDbEntity
  8
중심선
100
AcDbHatch
 10
0.0
 20
0.0
 30
0.0
210
0.0
220
0.0
230
1.0
  2
SOLID
 70
     1
 71
     0
 91
        1
 92
        0
 93
        6
 72
     3
 10
-2.399115970600996
 20
-39.99892507132738
 11
3.960054785062284
 21
1.540850780301639E-10
 40
0.3939339440162633
 50
17.09539180608433
 51
320.0019657685079
 73
     0
 72
     1
 10
-0.7161163149004002
 20
-38.58681907591441
 11
1.589185558800638
 21
-36.65249236586649
 72
     3
 10
-2.399115970653842
 20
-39.99892507127625
 11
6.600054785286829
 21
-1.249000902703301E-13
 40
0.6363583540795982
 50
39.99873849337408
 51
368.4976242363725
 73
     1
 72
     1
 10
4.026216521246767
 20
-39.03892507120613
 11
-3.71904866381792
 21
-39.0389250712061
 72
     1
 10
-3.71904866381792
 20
-39.0389250712061
 11
-3.719073708263854
 21
-40.95892507120602
 72
     1
 10
-3.719073708263854
 20
-40.95892507120602
 11
0.7223060612081831
 21
-40.95892507120599
 97
        0
 75
     0
 76
     1
 98
        1
 10
0.0
 20
0.0
  0
DIMENSION
  5
E8
330
1F
100
AcDbEntity
  8
치수문자_일반주서
100
AcDbDimension
  2
_D
 10
67.9797036333105
 20
3.036773893710162
 30
0.0
 11
67.97970363331048
 21
12.70327389371016
 31
0.0
 70
   160
  1
%%c<>
 71
     2
 42
5.999999999999996
 52
-270.0
  3
SLDDIMSTYLE0
100
AcDbAlignedDimension
 13
54.99999999999984
 23
-2.963226106289881
 33
0.0
 14
55.00000000000002
 24
3.036773893710115
 34
0.0
 50
90.0000000000002
100
AcDbRotatedDimension
  0
DIMENSION
  5
F6
330
1F
100
AcDbEntity
  8
치수문자_일반주서
100
AcDbDimension
  2
_D_1
 10
55.00000000000003
 20
24.27518433395263
 30
0.0
 11
-20.0
 21
24.27518433395263
 31
0.0
 70
   160
  1
<>
 71
     2
 42
150.0
  3
SLDDIMSTYLE1
100
AcDbAlignedDimension
 13
-95.0
 23
2.486773893709938
 33
0.0
 14
55.00000000000002
 24
3.036773893710115
 34
0.0
 50
-0.0000000000000027
100
AcDbRotatedDimension
  0
DIMENSION
  5
101
330
1F
100
AcDbEntity
  8
치수문자_일반주서
100
AcDbDimension
  2
_D_2
 10
55.00000000000002
 20
16.09354256163417
 30
0.0
 11
32.50000000000001
 21
16.09354256163417
 31
0.0
 70
   160
  1
<>
 71
     2
 42
45.00000000000002
  3
SLDDIMSTYLE1
100
AcDbAlignedDimension
 13
10.0
 23
2.746544755466653
 33
0.0
 14
55.00000000000002
 24
3.036773893710115
 34
0.0
100
AcDbRotatedDimension
  0
DIMENSION
  5
10B
330
1F
100
AcDbEntity
  8
치수문자_일반주서
100
AcDbDimension
  2
_D_3
 10
-105.7912657458299
 20
-2.963226106290092
 30
0.0
 11
-105.79126574583
 21
12.70327389370989
 31
0.0
 70
   160
  1
%%c<>
 71
     2
 42
5.999999999999988
 52
-270.0
  3
SLDDIMSTYLE0
100
AcDbAlignedDimension
 13
-94.45000000000002
 23
3.036773893709938
 33
0.0
 14
-94.45000000000002
 24
-2.963226106290049
 34
0.0
 50
90.0000000000002
100
AcDbRotatedDimension
  0
INSERT
  5
11E
330
1F
100
AcDbEntity
  8
외형선
100
AcDbBlockReference
  2
SW_DOWELSYMBOL_0
 10
0.0000000000000104
 20
0.0
 30
0.0
  0
ENDSEC
  0
SECTION
  2
OBJECTS
  0
DICTIONARY
  5
C
330
0
100
AcDbDictionary
281
     1
  3
ACAD_GROUP
350
D
  3
ACAD_IMAGE_VARS
350
142
  3
ACAD_LAYOUT
350
1A
  3
ACAD_MLINESTYLE
350
17
  3
ACAD_PLOTSETTINGS
350
19
  3
ACAD_PLOTSTYLENAME
350
E
  3
ACAD_SCALELIST
350
47
  3
APPDATA
350
140
  3
DWGPROPS
350
151
  0
DICTIONARY
  5
D
102
{ACAD_REACTORS
330
C
102
}
330
C
100
AcDbDictionary
281
     1
  0
RASTERVARIABLES
  5
142
102
{ACAD_REACTORS
330
C
102
}
330
C
100
AcDbRasterVariables
 90
        0
 70
     1
 71
     1
 72
     1
  0
DICTIONARY
  5
1A
102
{ACAD_REACTORS
330
C
102
}
330
C
100
AcDbDictionary
281
     1
  3
Layout1
350
1E
  3
Layout2
350
26
  3
Model
350
22
  0
DICTIONARY
  5
17
102
{ACAD_REACTORS
330
C
102
}
330
C
100
AcDbDictionary
281
     1
  3
Standard
350
18
  0
DICTIONARY
  5
19
102
{ACAD_REACTORS
330
C
102
}
330
C
100
AcDbDictionary
281
     1
  0
ACDBDICTIONARYWDFLT
  5
E
102
{ACAD_REACTORS
330
C
102
}
330
C
100
AcDbDictionary
281
     1
  3
Normal
350
F
100
AcDbDictionaryWithDefault
340
F
  0
DICTIONARY
  5
47
102
{ACAD_REACTORS
330
C
102
}
330
C
100
AcDbDictionary
281
     1
  3
A0
350
48
  3
A1
350
49
  3
A2
350
4A
  3
A3
350
4B
  3
A4
350
4C
  3
A5
350
4D
  3
A6
350
4E
  3
A7
350
4F
  3
A8
350
50
  3
A9
350
51
  3
B0
350
52
  3
B1
350
53
  3
B2
350
54
  3
B3
350
55
  3
B4
350
56
  3
B5
350
57
  3
B6
350
58
  3
B7
350
59
  3
B8
350
5A
  3
B9
350
5B
  3
C0
350
5C
  3
C1
350
5D
  3
C2
350
5E
  3
C3
350
5F
  3
C4
350
60
  3
C5
350
61
  3
C6
350
62
  3
C7
350
63
  3
C8
350
64
  3
C9
350
65
  3
D0
350
66
  3
D1
350
67
  3
D2
350
68
  0
DICTIONARY
  5
140
102
{ACAD_REACTORS
330
C
102
}
330
C
100
AcDbDictionary
281
     1
  0
XRECORD
  5
151
102
{ACAD_REACTORS
330
C
102
}
330
C
100
AcDbXrecord
280
     1
  1
DWGPROPS COOKIE
  2

  3

  4

  6

  7

  8
12014102
  9

300
=
301
=
302
=
303
=
304
=
305
=
306
=
307
=
308
=
309
=
 40
0.0
 41
2458262.167856308
 42
2458266.03382559
  1

 90
        0
  0
LAYOUT
  5
1E
102
{ACAD_REACTORS
330
1A
102
}
330
1A
100
AcDbPlotSettings
  1

  2
none_device
  4

  6

 40
0.0
 41
0.0
 42
0.0
 43
0.0
 44
0.0
 45
0.0
 46
0.0
 47
0.0
 48
0.0
 49
0.0
140
0.0
141
0.0
142
1.0
143
1.0
 70
   688
 72
     1
 73
     0
 74
     5
  7

 75
    16
147
1.0
148
0.0
149
0.0
100
AcDbLayout
  1
Layout1
 70
     1
 71
     1
 10
0.0
 20
0.0
 11
420.0
 21
297.0
 12
0.0
 22
0.0
 32
0.0
 14
1.000000000000000E+20
 24
1.000000000000000E+20
 34
1.000000000000000E+20
 15
-1.000000000000000E+20
 25
-1.000000000000000E+20
 35
-1.000000000000000E+20
146
0.0
 13
0.0
 23
0.0
 33
0.0
 16
1.0
 26
0.0
 36
0.0
 17
0.0
 27
1.0
 37
0.0
 76
     0
330
1B
  0
LAYOUT
  5
26
102
{ACAD_REACTORS
330
1A
102
}
330
1A
100
AcDbPlotSettings
  1

  2
none_device
  4

  6

 40
0.0
 41
0.0
 42
0.0
 43
0.0
 44
0.0
 45
0.0
 46
0.0
 47
0.0
 48
0.0
 49
0.0
140
0.0
141
0.0
142
1.0
143
1.0
 70
   688
 72
     1
 73
     0
 74
     5
  7

 75
    16
147
1.0
148
0.0
149
0.0
100
AcDbLayout
  1
Layout2
 70
     1
 71
     2
 10
0.0
 20
0.0
 11
0.0
 21
0.0
 12
0.0
 22
0.0
 32
0.0
 14
0.0
 24
0.0
 34
0.0
 15
0.0
 25
0.0
 35
0.0
146
0.0
 13
0.0
 23
0.0
 33
0.0
 16
1.0
 26
0.0
 36
0.0
 17
0.0
 27
1.0
 37
0.0
 76
     0
330
23
  0
LAYOUT
  5
22
102
{ACAD_REACTORS
330
1A
102
}
330
1A
100
AcDbPlotSettings
  1

  2
none_device
  4
ANSI_A_(11.00_x_8.50_Inches)
  6

 40
6.35
 41
19.05
 42
6.35000508
 43
19.05000254
 44
279.4
 45
215.9
 46
171.984220684825
 47
107.1426519859262
 48
0.0
 49
0.0
140
0.0
141
0.0
142
0.065400822521337
143
1.0
 70
  1696
 72
     0
 73
     0
 74
     0
  7

 75
     0
147
0.0235690232323232
148
0.0
149
0.0
100
AcDbLayout
  1
Model
 70
     1
 71
     0
 10
0.0
 20
0.0
 11
420.0
 21
297.0
 12
0.0
 22
0.0
 32
0.0
 14
-110.16626574583
 24
-49.97073246008785
 34
0.0
 15
68.53003696664386
 25
28.65018433395264
 35
0.0
146
0.0
 13
0.0
 23
0.0
 33
0.0
 16
1.0
 26
0.0
 36
0.0
 17
0.0
 27
1.0
 37
0.0
 76
     0
330
1F
331
29
  0
MLINESTYLE
  5
18
102
{ACAD_REACTORS
330
17
102
}
330
17
100
AcDbMlineStyle
  2
Standard
 70
     0
  3

 62
   256
 51
90.0
 52
90.0
 71
     2
 49
0.5
 62
   256
  6
BYLAYER
 49
-0.5
 62
   256
  6
BYLAYER
  0
ACDBPLACEHOLDER
  5
F
102
{ACAD_REACTORS
330
E
102
}
330
E
  0
SCALE
  5
48
102
{ACAD_REACTORS
330
47
102
}
330
47
100
AcDbScale
 70
     0
300
1:1
140
1.0
141
1.0
290
     1
  0
SCALE
  5
49
102
{ACAD_REACTORS
330
47
102
}
330
47
100
AcDbScale
 70
     0
300
1:2
140
1.0
141
2.0
290
     0
  0
SCALE
  5
4A
102
{ACAD_REACTORS
330
47
102
}
330
47
100
AcDbScale
 70
     0
300
1:4
140
1.0
141
4.0
290
     0
  0
SCALE
  5
4B
102
{ACAD_REACTORS
330
47
102
}
330
47
100
AcDbScale
 70
     0
300
1:5
140
1.0
141
5.0
290
     0
  0
SCALE
  5
4C
102
{ACAD_REACTORS
330
47
102
}
330
47
100
AcDbScale
 70
     0
300
1:8
140
1.0
141
8.0
290
     0
  0
SCALE
  5
4D
102
{ACAD_REACTORS
330
47
102
}
330
47
100
AcDbScale
 70
     0
300
1:10
140
1.0
141
10.0
290
     0
  0
SCALE
  5
4E
102
{ACAD_REACTORS
330
47
102
}
330
47
100
AcDbScale
 70
     0
300
1:16
140
1.0
141
16.0
290
     0
  0
SCALE
  5
4F
102
{ACAD_REACTORS
330
47
102
}
330
47
100
AcDbScale
 70
     0
300
1:20
140
1.0
141
20.0
290
     0
  0
SCALE
  5
50
102
{ACAD_REACTORS
330
47
102
}
330
47
100
AcDbScale
 70
     0
300
1:30
140
1.0
141
30.0
290
     0
  0
SCALE
  5
51
102
{ACAD_REACTORS
330
47
102
}
330
47
100
AcDbScale
 70
     0
300
1:40
140
1.0
141
40.0
290
     0
  0
SCALE
  5
52
102
{ACAD_REACTORS
330
47
102
}
330
47
100
AcDbScale
 70
     0
300
1:50
140
1.0
141
50.0
290
     0
  0
SCALE
  5
53
102
{ACAD_REACTORS
330
47
102
}
330
47
100
AcDbScale
 70
     0
300
1:100
140
1.0
141
100.0
290
     0
  0
SCALE
  5
54
102
{ACAD_REACTORS
330
47
102
}
330
47
100
AcDbScale
 70
     0
300
2:1
140
2.0
141
1.0
290
     0
  0
SCALE
  5
55
102
{ACAD_REACTORS
330
47
102
}
330
47
100
AcDbScale
 70
     0
300
4:1
140
4.0
141
1.0
290
     0
  0
SCALE
  5
56
102
{ACAD_REACTORS
330
47
102
}
330
47
100
AcDbScale
 70
     0
300
8:1
140
8.0
141
1.0
290
     0
  0
SCALE
  5
57
102
{ACAD_REACTORS
330
47
102
}
330
47
100
AcDbScale
 70
     0
300
10:1
140
10.0
141
1.0
290
     0
  0
SCALE
  5
58
102
{ACAD_REACTORS
330
47
102
}
330
47
100
AcDbScale
 70
     0
300
100:1
140
100.0
141
1.0
290
     0
  0
SCALE
  5
59
102
{ACAD_REACTORS
330
47
102
}
330
47
100
AcDbScale
 70
     0
300
1/128" = 1'-0"
140
0.0078125
141
12.0
290
     0
  0
SCALE
  5
5A
102
{ACAD_REACTORS
330
47
102
}
330
47
100
AcDbScale
 70
     0
300
1/64" = 1'-0"
140
0.015625
141
12.0
290
     0
  0
SCALE
  5
5B
102
{ACAD_REACTORS
330
47
102
}
330
47
100
AcDbScale
 70
     0
300
1/32" = 1'-0"
140
0.03125
141
12.0
290
     0
  0
SCALE
  5
5C
102
{ACAD_REACTORS
330
47
102
}
330
47
100
AcDbScale
 70
     0
300
1/16" = 1'-0"
140
0.0625
141
12.0
290
     0
  0
SCALE
  5
5D
102
{ACAD_REACTORS
330
47
102
}
330
47
100
AcDbScale
 70
     0
300
3/32" = 1'-0"
140
0.09375
141
12.0
290
     0
  0
SCALE
  5
5E
102
{ACAD_REACTORS
330
47
102
}
330
47
100
AcDbScale
 70
     0
300
1/8" = 1'-0"
140
0.125
141
12.0
290
     0
  0
SCALE
  5
5F
102
{ACAD_REACTORS
330
47
102
}
330
47
100
AcDbScale
 70
     0
300
3/16" = 1'-0"
140
0.1875
141
12.0
290
     0
  0
SCALE
  5
60
102
{ACAD_REACTORS
330
47
102
}
330
47
100
AcDbScale
 70
     0
300
1/4" = 1'-0"
140
0.25
141
12.0
290
     0
  0
SCALE
  5
61
102
{ACAD_REACTORS
330
47
102
}
330
47
100
AcDbScale
 70
     0
300
3/8" = 1'-0"
140
0.375
141
12.0
290
     0
  0
SCALE
  5
62
102
{ACAD_REACTORS
330
47
102
}
330
47
100
AcDbScale
 70
     0
300
1/2" = 1'-0"
140
0.5
141
12.0
290
     0
  0
SCALE
  5
63
102
{ACAD_REACTORS
330
47
102
}
330
47
100
AcDbScale
 70
     0
300
3/4" = 1'-0"
140
0.75
141
12.0
290
     0
  0
SCALE
  5
64
102
{ACAD_REACTORS
330
47
102
}
330
47
100
AcDbScale
 70
     0
300
1" = 1'-0"
140
1.0
141
12.0
290
     0
  0
SCALE
  5
65
102
{ACAD_REACTORS
330
47
102
}
330
47
100
AcDbScale
 70
     0
300
1-1/2" = 1'-0"
140
1.5
141
12.0
290
     0
  0
SCALE
  5
66
102
{ACAD_REACTORS
330
47
102
}
330
47
100
AcDbScale
 70
     0
300
3" = 1'-0"
140
3.0
141
12.0
290
     0
  0
SCALE
  5
67
102
{ACAD_REACTORS
330
47
102
}
330
47
100
AcDbScale
 70
     0
300
6" = 1'-0"
140
6.0
141
12.0
290
     0
  0
SCALE
  5
68
102
{ACAD_REACTORS
330
47
102
}
330
47
100
AcDbScale
 70
     0
300
1'-0" = 1'-0"
140
12.0
141
12.0
290
     0
  0
ENDSEC
  0
EOF
