  0
SECTION
  2
HEADER
  9
$ACADVER
  1
AC1015
  9
$ACADMAINTVER
 70
     6
  9
$DWGCODEPAGE
  3
ANSI_949
  9
$INSBASE
 10
0.0
 20
0.0
 30
0.0
  9
$EXTMIN
 10
-85.74375424680997
 20
-49.97073246008785
 30
0.0
  9
$EXTMAX
 10
62.90672225882383
 20
28.61341044024269
 30
0.0
  9
$LIMMIN
 10
0.0
 20
0.0
  9
$LIMMAX
 10
420.0
 20
297.0
  9
$ORTHOMODE
 70
     0
  9
$REGENMODE
 70
     1
  9
$FILLMODE
 70
     1
  9
$QTEXTMODE
 70
     0
  9
$MIRRTEXT
 70
     1
  9
$LTSCALE
 40
1.0
  9
$ATTMODE
 70
     1
  9
$TEXTSIZE
 40
3.5
  9
$TRACEWID
 40
1.0
  9
$TEXTSTYLE
  7
Standard
  9
$CLAYER
  8
0
  9
$CELTYPE
  6
ByLayer
  9
$CECOLOR
 62
   256
  9
$CELTSCALE
 40
1.0
  9
$DISPSILH
 70
     0
  9
$DIMSCALE
 40
1.0
  9
$DIMASZ
 40
3.302
  9
$DIMEXO
 40
1.0
  9
$DIMDLI
 40
3.75
  9
$DIMRND
 40
0.0
  9
$DIMDLE
 40
0.0
  9
$DIMEXE
 40
1.0
  9
$DIMTP
 40
0.0
  9
$DIMTM
 40
0.0
  9
$DIMTXT
 40
3.5
  9
$DIMCEN
 40
2.5
  9
$DIMTSZ
 40
0.0
  9
$DIMTOL
 70
     0
  9
$DIMLIM
 70
     0
  9
$DIMTIH
 70
     1
  9
$DIMTOH
 70
     1
  9
$DIMSE1
 70
     0
  9
$DIMSE2
 70
     0
  9
$DIMTAD
 70
     1
  9
$DIMZIN
 70
     0
  9
$DIMBLK
  1

  9
$DIMASO
 70
     1
  9
$DIMSHO
 70
     1
  9
$DIMPOST
  1

  9
$DIMAPOST
  1

  9
$DIMALT
 70
     0
  9
$DIMALTD
 70
     3
  9
$DIMALTF
 40
0.0393700787401575
  9
$DIMLFAC
 40
1.0
  9
$DIMTOFL
 70
     1
  9
$DIMTVP
 40
0.0
  9
$DIMTIX
 70
     0
  9
$DIMSOXD
 70
     0
  9
$DIMSAH
 70
     0
  9
$DIMBLK1
  1

  9
$DIMBLK2
  1

  9
$DIMSTYLE
  2
ISO-25
  9
$DIMCLRD
 70
     0
  9
$DIMCLRE
 70
     0
  9
$DIMCLRT
 70
     0
  9
$DIMTFAC
 40
1.0
  9
$DIMGAP
 40
1.524
  9
$DIMJUST
 70
     0
  9
$DIMSD1
 70
     0
  9
$DIMSD2
 70
     0
  9
$DIMTOLJ
 70
     0
  9
$DIMTZIN
 70
     0
  9
$DIMALTZ
 70
     0
  9
$DIMALTTZ
 70
     0
  9
$DIMUPT
 70
     0
  9
$DIMDEC
 70
     2
  9
$DIMTDEC
 70
     2
  9
$DIMALTU
 70
     2
  9
$DIMALTTD
 70
     3
  9
$DIMTXSTY
  7
Standard
  9
$DIMAUNIT
 70
     0
  9
$DIMADEC
 70
     2
  9
$DIMALTRND
 40
0.0
  9
$DIMAZIN
 70
     0
  9
$DIMDSEP
 70
    44
  9
$DIMATFIT
 70
     3
  9
$DIMFRAC
 70
     0
  9
$DIMLDRBLK
  1

  9
$DIMLUNIT
 70
     2
  9
$DIMLWD
 70
    -2
  9
$DIMLWE
 70
    -2
  9
$DIMTMOVE
 70
     0
  9
$LUNITS
 70
     2
  9
$LUPREC
 70
     2
  9
$SKETCHINC
 40
1.0
  9
$FILLETRAD
 40
10.0
  9
$AUNITS
 70
     0
  9
$AUPREC
 70
     2
  9
$MENU
  1
.
  9
$ELEVATION
 40
0.0
  9
$PELEVATION
 40
0.0
  9
$THICKNESS
 40
0.0
  9
$LIMCHECK
 70
     0
  9
$CHAMFERA
 40
0.0
  9
$CHAMFERB
 40
0.0
  9
$CHAMFERC
 40
0.0
  9
$CHAMFERD
 40
0.0
  9
$SKPOLY
 70
     0
  9
$TDCREATE
 40
2458262.54248066
  9
$TDUCREATE
 40
2458262.16748066
  9
$TDUPDATE
 40
2458266.664676528
  9
$TDUUPDATE
 40
2458266.289676528
  9
$TDINDWG
 40
0.0013170255
  9
$TDUSRTIMER
 40
2458266.288359526
  9
$USRTIMER
 70
     1
  9
$ANGBASE
 50
0.0
  9
$ANGDIR
 70
     0
  9
$PDMODE
 70
     0
  9
$PDSIZE
 40
-1.0
  9
$PLINEWID
 40
0.0
  9
$SPLFRAME
 70
     0
  9
$SPLINETYPE
 70
     6
  9
$SPLINESEGS
 70
     8
  9
$HANDSEED
  5
14C
  9
$SURFTAB1
 70
     6
  9
$SURFTAB2
 70
     6
  9
$SURFTYPE
 70
     6
  9
$SURFU
 70
     6
  9
$SURFV
 70
     6
  9
$UCSBASE
  2

  9
$UCSNAME
  2

  9
$UCSORG
 10
0.0
 20
0.0
 30
0.0
  9
$UCSXDIR
 10
1.0
 20
0.0
 30
0.0
  9
$UCSYDIR
 10
0.0
 20
1.0
 30
0.0
  9
$UCSORTHOREF
  2

  9
$UCSORTHOVIEW
 70
     0
  9
$UCSORGTOP
 10
0.0
 20
0.0
 30
0.0
  9
$UCSORGBOTTOM
 10
0.0
 20
0.0
 30
0.0
  9
$UCSORGLEFT
 10
0.0
 20
0.0
 30
0.0
  9
$UCSORGRIGHT
 10
0.0
 20
0.0
 30
0.0
  9
$UCSORGFRONT
 10
0.0
 20
0.0
 30
0.0
  9
$UCSORGBACK
 10
0.0
 20
0.0
 30
0.0
  9
$PUCSBASE
  2

  9
$PUCSNAME
  2

  9
$PUCSORG
 10
0.0
 20
0.0
 30
0.0
  9
$PUCSXDIR
 10
1.0
 20
0.0
 30
0.0
  9
$PUCSYDIR
 10
0.0
 20
1.0
 30
0.0
  9
$PUCSORTHOREF
  2

  9
$PUCSORTHOVIEW
 70
     0
  9
$PUCSORGTOP
 10
0.0
 20
0.0
 30
0.0
  9
$PUCSORGBOTTOM
 10
0.0
 20
0.0
 30
0.0
  9
$PUCSORGLEFT
 10
0.0
 20
0.0
 30
0.0
  9
$PUCSORGRIGHT
 10
0.0
 20
0.0
 30
0.0
  9
$PUCSORGFRONT
 10
0.0
 20
0.0
 30
0.0
  9
$PUCSORGBACK
 10
0.0
 20
0.0
 30
0.0
  9
$USERI1
 70
     0
  9
$USERI2
 70
     0
  9
$USERI3
 70
     0
  9
$USERI4
 70
     0
  9
$USERI5
 70
     0
  9
$USERR1
 40
0.0
  9
$USERR2
 40
0.0
  9
$USERR3
 40
0.0
  9
$USERR4
 40
0.0
  9
$USERR5
 40
0.0
  9
$WORLDVIEW
 70
     1
  9
$SHADEDGE
 70
     3
  9
$SHADEDIF
 70
    70
  9
$TILEMODE
 70
     1
  9
$MAXACTVP
 70
    64
  9
$PINSBASE
 10
0.0
 20
0.0
 30
0.0
  9
$PLIMCHECK
 70
     0
  9
$PEXTMIN
 10
1.000000000000000E+20
 20
1.000000000000000E+20
 30
1.000000000000000E+20
  9
$PEXTMAX
 10
-1.000000000000000E+20
 20
-1.000000000000000E+20
 30
-1.000000000000000E+20
  9
$PLIMMIN
 10
0.0
 20
0.0
  9
$PLIMMAX
 10
0.0
 20
0.0
  9
$UNITMODE
 70
     0
  9
$VISRETAIN
 70
     1
  9
$PLINEGEN
 70
     0
  9
$PSLTSCALE
 70
     1
  9
$TREEDEPTH
 70
  3020
  9
$CMLSTYLE
  2
Standard
  9
$CMLJUST
 70
     0
  9
$CMLSCALE
 40
20.0
  9
$PROXYGRAPHICS
 70
     1
  9
$MEASUREMENT
 70
     1
  9
$CELWEIGHT
370
    -1
  9
$ENDCAPS
280
     0
  9
$JOINSTYLE
280
     0
  9
$LWDISPLAY
290
     1
  9
$INSUNITS
 70
     4
  9
$HYPERLINKBASE
  1

  9
$STYLESHEET
  1

  9
$XEDIT
290
     1
  9
$CEPSNTYPE
380
     0
  9
$PSTYLEMODE
290
     1
  9
$FINGERPRINTGUID
  2
{CF5E67DB-B2C4-4DFA-A051-0DFC7D7821AE}
  9
$VERSIONGUID
  2
{FAEB1C32-E019-11D5-929B-00C0DF256EC4}
  9
$EXTNAMES
290
     1
  9
$PSVPSCALE
 40
0.0
  9
$OLESTARTUP
290
     0
  0
ENDSEC
  0
SECTION
  2
CLASSES
  0
CLASS
  1
ACDBDICTIONARYWDFLT
  2
AcDbDictionaryWithDefault
  3
ObjectDBX Classes
 90
        0
280
     0
281
     0
  0
CLASS
  1
VISUALSTYLE
  2
AcDbVisualStyle
  3
ObjectDBX Classes
 90
     4095
280
     0
281
     0
  0
CLASS
  1
MATERIAL
  2
AcDbMaterial
  3
ObjectDBX Classes
 90
     1153
280
     0
281
     0
  0
CLASS
  1
SCALE
  2
AcDbScale
  3
ObjectDBX Classes
 90
     1153
280
     0
281
     0
  0
CLASS
  1
SUN
  2
AcDbSun
  3
SCENEOE
 90
     1153
280
     0
281
     0
  0
CLASS
  1
ACDBPLACEHOLDER
  2
AcDbPlaceHolder
  3
ObjectDBX Classes
 90
        0
280
     0
281
     0
  0
CLASS
  1
LAYOUT
  2
AcDbLayout
  3
ObjectDBX Classes
 90
        0
280
     0
281
     0
  0
CLASS
  1
TABLESTYLE
  2
AcDbTableStyle
  3
ObjectDBX Classes
 90
     4095
280
     0
281
     0
  0
CLASS
  1
MLEADERSTYLE
  2
AcDbMLeaderStyle
  3
ACDB_MLEADERSTYLE_CLASS
 90
     4095
280
     0
281
     0
  0
CLASS
  1
RASTERVARIABLES
  2
AcDbRasterVariables
  3
ISM
 90
        0
280
     0
281
     0
  0
ENDSEC
  0
SECTION
  2
TABLES
  0
TABLE
  2
VPORT
  5
8
330
0
100
AcDbSymbolTable
 70
     1
  0
VPORT
  5
29
330
8
100
AcDbSymbolTableRecord
100
AcDbViewportTableRecord
  2
*Active
 70
     0
 10
0.0
 20
0.0
 11
1.0
 21
1.0
 12
-11.41851599399307
 22
-10.67866100992259
 13
0.0
 23
0.0
 14
10.0
 24
10.0
 15
10.0
 25
10.0
 16
0.0
 26
0.0
 36
1.0
 17
0.0
 27
0.0
 37
0.0
 40
131.5656706184616
 41
1.152454780361757
 42
50.0
 43
0.0
 44
0.0
 50
0.0
 51
0.0
 71
    16
 72
  2000
 73
     1
 74
     3
 75
     0
 76
     0
 77
     0
 78
     0
281
     0
 65
     1
110
0.0
120
0.0
130
0.0
111
1.0
121
0.0
131
0.0
112
0.0
122
1.0
132
0.0
 79
     0
146
0.0
  0
ENDTAB
  0
TABLE
  2
LTYPE
  5
5
330
0
100
AcDbSymbolTable
 70
     6
  0
LTYPE
  5
14
330
5
100
AcDbSymbolTableRecord
100
AcDbLinetypeTableRecord
  2
ByBlock
 70
     0
  3

 72
    65
 73
     0
 40
0.0
  0
LTYPE
  5
15
330
5
100
AcDbSymbolTableRecord
100
AcDbLinetypeTableRecord
  2
ByLayer
 70
     0
  3

 72
    65
 73
     0
 40
0.0
  0
LTYPE
  5
16
330
5
100
AcDbSymbolTableRecord
100
AcDbLinetypeTableRecord
  2
Continuous
 70
     0
  3
Solid line
 72
    65
 73
     0
 40
0.0
  0
LTYPE
  5
6A
330
5
100
AcDbSymbolTableRecord
100
AcDbLinetypeTableRecord
  2
HIDDEN
 70
     0
  3
Hidden __ __ __ __ __ __ __ __ __ __ __ __ __ __
 72
    65
 73
     2
 40
1.905
 49
1.27
 74
     0
 49
-0.635
 74
     0
  0
LTYPE
  5
6B
330
5
100
AcDbSymbolTableRecord
100
AcDbLinetypeTableRecord
  2
PHANTOM
 70
     0
  3
Phantom ______  __  __  ______  __  __  ______
 72
    65
 73
     6
 40
12.7
 49
6.35
 74
     0
 49
-1.27
 74
     0
 49
1.27
 74
     0
 49
-1.27
 74
     0
 49
1.27
 74
     0
 49
-1.27
 74
     0
  0
LTYPE
  5
6C
330
5
100
AcDbSymbolTableRecord
100
AcDbLinetypeTableRecord
  2
CENTER
 70
     0
  3
Center ____ _ ____ _ ____ _ ____ _ ____ _ ____
 72
    65
 73
     4
 40
10.16
 49
6.35
 74
     0
 49
-1.27
 74
     0
 49
1.27
 74
     0
 49
-1.27
 74
     0
  0
LTYPE
  5
6D
330
5
100
AcDbSymbolTableRecord
100
AcDbLinetypeTableRecord
  2
CENTERX2
 70
     0
  3
Center (2x) ________  __  ________  __  _____
 72
    65
 73
     4
 40
20.32
 49
12.7
 74
     0
 49
-2.54
 74
     0
 49
2.54
 74
     0
 49
-2.54
 74
     0
  0
LTYPE
  5
6E
330
5
100
AcDbSymbolTableRecord
100
AcDbLinetypeTableRecord
  2
DOT2
 70
     0
  3
Dot (.5x) ........................................
 72
    65
 73
     2
 40
0.635
 49
0.0
 74
     0
 49
-0.635
 74
     0
  0
ENDTAB
  0
TABLE
  2
LAYER
  5
2
330
0
100
AcDbSymbolTable
 70
    17
  0
LAYER
  5
10
330
2
100
AcDbSymbolTableRecord
100
AcDbLayerTableRecord
  2
0
 70
     0
 62
     7
  6
Continuous
370
    -3
390
F
  0
LAYER
  5
6F
330
2
100
AcDbSymbolTableRecord
100
AcDbLayerTableRecord
  2
FORMAT
 70
     0
 62
     2
  6
Continuous
370
    -3
390
F
  0
LAYER
  5
70
330
2
100
AcDbSymbolTableRecord
100
AcDbLayerTableRecord
  2
외형선
 70
     0
 62
   100
  6
Continuous
370
    30
390
F
  0
LAYER
  5
71
330
2
100
AcDbSymbolTableRecord
100
AcDbLayerTableRecord
  2
숨은선
 70
     0
 62
     2
  6
HIDDEN
370
    15
390
F
  0
LAYER
  5
72
330
2
100
AcDbSymbolTableRecord
100
AcDbLayerTableRecord
  2
중심선
 70
     0
 62
     1
  6
CENTERX2
370
    -3
390
F
  0
LAYER
  5
73
330
2
100
AcDbSymbolTableRecord
100
AcDbLayerTableRecord
  2
파단선
 70
     0
 62
     4
  6
Continuous
370
    -3
390
F
  0
LAYER
  5
74
330
2
100
AcDbSymbolTableRecord
100
AcDbLayerTableRecord
  2
해칭선
 70
     0
 62
     4
  6
Continuous
370
    -3
390
F
  0
LAYER
  5
75
330
2
100
AcDbSymbolTableRecord
100
AcDbLayerTableRecord
  2
가는실선
 70
     0
 62
     4
  6
Continuous
370
    -3
390
F
  0
LAYER
  5
76
330
2
100
AcDbSymbolTableRecord
100
AcDbLayerTableRecord
  2
치수_보조선
 70
     0
 62
     4
  6
Continuous
370
    -3
390
F
  0
LAYER
  5
77
330
2
100
AcDbSymbolTableRecord
100
AcDbLayerTableRecord
  2
치수문자_일반주서
 70
     0
 62
     7
  6
Continuous
370
    15
390
F
  0
LAYER
  5
78
330
2
100
AcDbSymbolTableRecord
100
AcDbLayerTableRecord
  2
개별주서
 70
     0
 62
   100
  6
Continuous
370
    30
390
F
  0
LAYER
  5
79
330
2
100
AcDbSymbolTableRecord
100
AcDbLayerTableRecord
  2
중간선
 70
     0
 62
     2
  6
Continuous
370
    15
390
F
  0
LAYER
  5
7A
330
2
100
AcDbSymbolTableRecord
100
AcDbLayerTableRecord
  2
윤곽선
 70
     0
 62
     3
  6
Continuous
370
    40
390
F
  0
LAYER
  5
7B
330
2
100
AcDbSymbolTableRecord
100
AcDbLayerTableRecord
  2
중심마크
 70
     0
 62
   100
  6
Continuous
370
    30
390
F
  0
LAYER
  5
7C
330
2
100
AcDbSymbolTableRecord
100
AcDbLayerTableRecord
  2
가상선
 70
     0
 62
     4
  6
PHANTOM
370
    -3
390
F
  0
LAYER
  5
7D
330
2
100
AcDbSymbolTableRecord
100
AcDbLayerTableRecord
  2
특수지정선
 70
     0
 62
     5
  6
CENTERX2
370
    60
390
F
  0
LAYER
  5
13D
330
2
100
AcDbSymbolTableRecord
100
AcDbLayerTableRecord
  2
Defpoints
 70
     0
 62
     7
  6
Continuous
290
     0
370
    -3
390
F
  0
ENDTAB
  0
TABLE
  2
STYLE
  5
3
330
0
100
AcDbSymbolTable
 70
     2
  0
STYLE
  5
11
330
3
100
AcDbSymbolTableRecord
100
AcDbTextStyleTableRecord
  2
Standard
 70
     0
 40
0.0
 41
1.0
 50
0.0
 71
     0
 42
3.5
  3
txt
  4

  0
STYLE
  5
93
330
3
100
AcDbSymbolTableRecord
100
AcDbTextStyleTableRecord
  2
SLDTEXTSTYLE0
 70
     0
 40
0.0
 41
0.75
 50
0.0
 71
     0
 42
3.5
  3
TXT
  4

  0
ENDTAB
  0
TABLE
  2
VIEW
  5
6
330
0
100
AcDbSymbolTable
 70
     0
  0
ENDTAB
  0
TABLE
  2
UCS
  5
7
330
0
100
AcDbSymbolTable
 70
     0
  0
ENDTAB
  0
TABLE
  2
APPID
  5
9
330
0
100
AcDbSymbolTable
 70
     1
  0
APPID
  5
12
330
9
100
AcDbSymbolTableRecord
100
AcDbRegAppTableRecord
  2
ACAD
 70
     0
  0
ENDTAB
  0
TABLE
  2
DIMSTYLE
  5
A
330
0
100
AcDbSymbolTable
 70
     3
100
AcDbDimStyleTable
  0
DIMSTYLE
105
27
330
A
100
AcDbSymbolTableRecord
100
AcDbDimStyleTableRecord
  2
ISO-25
 70
     0
 41
2.5
 42
0.625
 43
3.75
 44
1.25
 73
     0
 74
     0
 77
     1
 78
     8
140
2.5
141
2.5
143
0.03937007874016
147
0.625
171
     3
172
     1
178
     0
271
     2
272
     2
274
     3
278
    44
283
     0
284
     8
340
11
  0
DIMSTYLE
105
E3
102
{ACAD_REACTORS
330
E2
330
105
102
}
330
A
100
AcDbSymbolTableRecord
100
AcDbDimStyleTableRecord
  2
SLDDIMSTYLE0
 70
     0
 41
3.302
 44
0.0
 45
0.000000001
 73
     0
 74
     0
 77
     1
 78
    12
 79
     3
140
3.5
147
0.875
172
     1
173
     1
178
     0
271
     2
272
     2
276
     2
284
    12
289
     0
340
93
  0
DIMSTYLE
105
F1
102
{ACAD_REACTORS
330
F0
330
FB
102
}
330
A
100
AcDbSymbolTableRecord
100
AcDbDimStyleTableRecord
  2
SLDDIMSTYLE1
 70
     0
 41
3.302
 44
0.0
 45
0.000000001
 73
     0
 74
     0
 77
     1
 78
    12
 79
     3
140
3.5
147
0.875
173
     1
178
     0
271
     2
272
     2
276
     2
284
    12
340
93
  0
ENDTAB
  0
TABLE
  2
BLOCK_RECORD
  5
1
330
0
100
AcDbSymbolTable
 70
     7
  0
BLOCK_RECORD
  5
1F
330
1
100
AcDbSymbolTableRecord
100
AcDbBlockTableRecord
  2
*Model_Space
340
22
  0
BLOCK_RECORD
  5
1B
330
1
100
AcDbSymbolTableRecord
100
AcDbBlockTableRecord
  2
*Paper_Space
340
1E
  0
BLOCK_RECORD
  5
23
330
1
100
AcDbSymbolTableRecord
100
AcDbBlockTableRecord
  2
*Paper_Space0
340
26
  0
BLOCK_RECORD
  5
7E
330
1
100
AcDbSymbolTableRecord
100
AcDbBlockTableRecord
  2
블럭10
340
0
102
{BLKREFS
331
DB
102
}
  0
BLOCK_RECORD
  5
E4
330
1
100
AcDbSymbolTableRecord
100
AcDbBlockTableRecord
  2
_D
340
0
  0
BLOCK_RECORD
  5
F2
330
1
100
AcDbSymbolTableRecord
100
AcDbBlockTableRecord
  2
_D_1
340
0
  0
BLOCK_RECORD
  5
FC
330
1
100
AcDbSymbolTableRecord
100
AcDbBlockTableRecord
  2
_D_2
340
0
  0
BLOCK_RECORD
  5
106
330
1
100
AcDbSymbolTableRecord
100
AcDbBlockTableRecord
  2
_D_3
340
0
  0
BLOCK_RECORD
  5
112
330
1
100
AcDbSymbolTableRecord
100
AcDbBlockTableRecord
  2
SW_DOWELSYMBOL_0
340
0
102
{BLKREFS
331
118
102
}
  0
ENDTAB
  0
ENDSEC
  0
SECTION
  2
BLOCKS
  0
BLOCK
  5
20
330
1F
100
AcDbEntity
  8
0
100
AcDbBlockBegin
  2
*Model_Space
 70
     0
 10
0.0
 20
0.0
 30
0.0
  3
*Model_Space
  1

  0
ENDBLK
  5
21
330
1F
100
AcDbEntity
  8
0
100
AcDbBlockEnd
  0
BLOCK
  5
1C
330
1B
100
AcDbEntity
 67
     1
  8
0
100
AcDbBlockBegin
  2
*Paper_Space
 70
     0
 10
0.0
 20
0.0
 30
0.0
  3
*Paper_Space
  1

  0
ENDBLK
  5
1D
330
1B
100
AcDbEntity
 67
     1
  8
0
100
AcDbBlockEnd
  0
BLOCK
  5
24
330
23
100
AcDbEntity
  8
0
100
AcDbBlockBegin
  2
*Paper_Space0
 70
     0
 10
0.0
 20
0.0
 30
0.0
  3
*Paper_Space0
  1

  0
ENDBLK
  5
25
330
23
100
AcDbEntity
  8
0
100
AcDbBlockEnd
  0
BLOCK
  5
7F
330
7E
100
AcDbEntity
  8
0
100
AcDbBlockBegin
  2
블럭10
 70
     2
 10
0.0
 20
0.0
 30
0.0
  3
블럭10
  1

  0
ELLIPSE
  5
81
330
7E
100
AcDbEntity
  8
중심선
100
AcDbEllipse
 10
20.54032771741204
 20
12.0471743016438
 30
0.0
 11
6.600054785286829
 21
-1.261213355974178E-13
 31
0.0
210
0.0
220
0.0
230
1.0
 40
0.636358354079598
 41
0.9219305317359503
 42
6.513795318482858
  0
ELLIPSE
  5
82
330
7E
100
AcDbEntity
  8
중심선
100
AcDbEllipse
 10
20.54032771746488
 20
12.04717430159265
 30
0.0
 11
3.960054785062283
 21
1.540847449632565E-10
 31
0.0
210
0.0
220
0.0
230
1.0
 40
0.3939339440162632
 41
1.131841032648279
 42
5.62031148352944
  0
LINE
  5
83
330
7E
100
AcDbEntity
  8
중심선
100
AcDbLine
 10
2.268634060543552
 20
16.24717430164393
 30
0.0
 11
5.714909304380834
 21
16.24717430164393
 31
0.0
  0
LINE
  5
84
330
7E
100
AcDbEntity
  8
중심선
100
AcDbLine
 10
5.245725140726316
 20
7.84717430164391
 30
0.0
 11
8.692000384563599
 21
7.84717430164391
 31
0.0
  0
LINE
  5
85
330
7E
100
AcDbEntity
  8
중심선
100
AcDbLine
 10
15.74043728645272
 20
16.24717430164393
 30
0.0
 11
8.692000384563599
 21
7.84717430164391
 31
0.0
  0
LINE
  5
86
330
7E
100
AcDbEntity
  8
중심선
100
AcDbLine
 10
0.1404042013395286
 20
13.71084872107135
 30
0.0
 11
3.58671253028996
 21
13.71088815037384
 31
0.0
  0
LINE
  5
87
330
7E
100
AcDbEntity
  8
중심선
100
AcDbLine
 10
2.750260043222114
 20
10.84717430164391
 30
0.0
 11
6.196535287059397
 21
10.84717430164391
 31
0.0
  0
LINE
  5
88
330
7E
100
AcDbEntity
  8
중심선
100
AcDbLine
 10
12.29416204261559
 20
16.24717430164393
 30
0.0
 11
5.245725140726316
 21
7.84717430164391
 31
0.0
  0
LINE
  5
89
330
7E
100
AcDbEntity
  8
중심선
100
AcDbLine
 10
10.72767329541681
 20
16.24717430164393
 30
0.0
 11
6.196535287059397
 21
10.84717430164391
 31
0.0
  0
LINE
  5
8A
330
7E
100
AcDbEntity
  8
중심선
100
AcDbLine
 10
7.28139805157953
 20
16.24717430164393
 30
0.0
 11
2.750260043222114
 21
10.84717430164391
 31
0.0
  0
LINE
  5
8B
330
7E
100
AcDbEntity
  8
중심선
100
AcDbLine
 10
5.714909304380834
 20
16.24717430164393
 30
0.0
 11
3.58671253028996
 21
13.71088815037384
 31
0.0
  0
LINE
  5
8C
330
7E
100
AcDbEntity
  8
중심선
100
AcDbLine
 10
2.268634060543552
 20
16.24717430164393
 30
0.0
 11
0.1404042013395286
 21
13.71084872107135
 31
0.0
  0
LINE
  5
8D
330
7E
100
AcDbEntity
  8
중심선
100
AcDbLine
 10
7.28139805157953
 20
16.24717430164393
 30
0.0
 11
10.72767329541681
 21
16.24717430164393
 31
0.0
  0
LINE
  5
8E
330
7E
100
AcDbEntity
  8
중심선
100
AcDbLine
 10
12.29416204261559
 20
16.24717430164393
 30
0.0
 11
15.74043728645272
 21
16.24717430164393
 31
0.0
  0
LINE
  5
8F
330
7E
100
AcDbEntity
  8
중심선
100
AcDbLine
 10
19.22036997980202
 20
11.08717430171403
 30
0.0
 11
23.66174974927406
 21
11.08717430171406
 31
0.0
  0
LINE
  5
90
330
7E
100
AcDbEntity
  8
중심선
100
AcDbLine
 10
19.22039502424796
 20
13.00717430171391
 30
0.0
 11
19.22036997980202
 21
11.08717430171403
 31
0.0
  0
LINE
  5
91
330
7E
100
AcDbEntity
  8
중심선
100
AcDbLine
 10
19.22039502424796
 20
13.00717430171391
 30
0.0
 11
26.96566020931264
 21
13.00717430171391
 31
0.0
  0
LINE
  5
92
330
7E
100
AcDbEntity
  8
중심선
100
AcDbLine
 10
22.22332737316547
 20
13.45928029700563
 30
0.0
 11
24.52862924686651
 21
15.39360700705356
 31
0.0
  0
ATTDEF
  5
94
330
7E
100
AcDbEntity
  8
FORMAT
 62
     2
100
AcDbText
 10
-20.85824753159254
 20
2.075366912832191
 30
0.0
 40
4.233333333333333
  1
SEME7006040120E [ 2 FLUTE ]
 41
0.75
  7
SLDTEXTSTYLE0
 11
-20.85824753159254
 21
-0.0412997538344756
 31
0.0
100
AcDbAttributeDefinition
  3

  2
AUTOATTR0
 70
     0
 74
     1
  0
ENDBLK
  5
80
330
7E
100
AcDbEntity
  8
0
100
AcDbBlockEnd
  0
BLOCK
  5
E5
330
E4
100
AcDbEntity
  8
0
100
AcDbBlockBegin
  2
_D
 70
     0
 10
0.0
 20
0.0
 30
0.0
  3
_D
  1

  0
LINE
  5
E7
330
E4
100
AcDbEntity
  8
치수문자_일반주서
 62
     0
370
    -2
100
AcDbLine
 10
50.0625
 20
-2.999999999999844
 30
0.0
 11
62.35638892549049
 21
-2.999999999999799
 31
0.0
  0
LINE
  5
E8
330
E4
100
AcDbEntity
  8
치수문자_일반주서
 62
     0
370
    -2
100
AcDbLine
 10
50.0625
 20
3.000000000000151
 30
0.0
 11
62.35638892549046
 21
3.000000000000197
 31
0.0
  0
LINE
  5
E9
330
E4
100
AcDbEntity
  8
치수문자_일반주서
 62
     0
370
    -2
100
AcDbLine
 10
62.35638892549049
 20
-2.999999999999799
 30
0.0
 11
62.35638892549041
 21
15.7290000000002
 31
0.0
  0
LINE
  5
EA
330
E4
100
AcDbEntity
  8
치수문자_일반주서
 62
     0
370
    -2
100
AcDbLine
 10
62.35638892549049
 20
-2.999999999999799
 30
0.0
 11
62.35638892549046
 21
3.000000000000197
 31
0.0
  0
LINE
  5
EB
330
E4
100
AcDbEntity
  8
치수문자_일반주서
 62
     0
370
    -2
100
AcDbLine
 10
62.3563889254905
 20
-6.301999999999799
 30
0.0
 11
62.35638892549051
 21
-9.603999999999798
 31
0.0
  0
LINE
  5
EC
330
E4
100
AcDbEntity
  8
치수문자_일반주서
 62
     0
370
    -2
100
AcDbLine
 10
62.35638892549045
 20
6.302000000000197
 30
0.0
 11
62.35638892549044
 21
9.604000000000196
 31
0.0
  0
SOLID
  5
ED
330
E4
100
AcDbEntity
  8
치수문자_일반주서
 62
     0
100
AcDbTrace
 10
62.90672225882383
 20
-6.301999999999797
 30
0.0
 11
61.80605559215716
 21
-6.301999999999801
 31
0.0
 12
62.35638892549049
 22
-2.999999999999799
 32
0.0
 13
62.35638892549049
 23
-2.999999999999799
 33
0.0
  0
SOLID
  5
EE
330
E4
100
AcDbEntity
  8
치수문자_일반주서
 62
     0
100
AcDbTrace
 10
61.80605559215712
 20
6.302000000000195
 30
0.0
 11
62.90672225882378
 21
6.302000000000199
 31
0.0
 12
62.35638892549046
 22
3.000000000000197
 32
0.0
 13
62.35638892549046
 23
3.000000000000197
 33
0.0
  0
MTEXT
  5
EF
330
E4
100
AcDbEntity
  8
치수문자_일반주서
 62
     0
100
AcDbMText
 10
57.98138892549043
 20
12.66650000000019
 30
0.0
 40
3.5
 41
0.0
 71
     2
 72
     1
  1
\A1;%%c6
  7
SLDTEXTSTYLE0
 11
-3.552713678800504E-15
 21
1.0
 31
0.0
 73
     1
 44
1.0
  0
POINT
  5
147
330
E4
100
AcDbEntity
  8
Defpoints
 62
     0
100
AcDbPoint
 10
50.0
 20
-2.999999999999845
 30
0.0
  0
POINT
  5
148
330
E4
100
AcDbEntity
  8
Defpoints
 62
     0
100
AcDbPoint
 10
50.0
 20
3.000000000000151
 30
0.0
  0
POINT
  5
149
330
E4
100
AcDbEntity
  8
Defpoints
 62
     0
100
AcDbPoint
 10
62.35638892549046
 20
3.000000000000197
 30
0.0
  0
ENDBLK
  5
E6
330
E4
100
AcDbEntity
  8
0
100
AcDbBlockEnd
  0
BLOCK
  5
F3
330
F2
100
AcDbEntity
  8
0
100
AcDbBlockBegin
  2
_D_1
 70
     0
 10
0.0
 20
0.0
 30
0.0
  3
_D_1
  1

  0
LINE
  5
F5
330
F2
100
AcDbEntity
  8
치수문자_일반주서
 62
     0
370
    -2
100
AcDbLine
 10
-70.0
 20
2.512499999999995
 30
0.0
 11
-70.0
 21
24.23841044024269
 31
0.0
  0
LINE
  5
F6
330
F2
100
AcDbEntity
  8
치수문자_일반주서
 62
     0
370
    -2
100
AcDbLine
 10
50.0
 20
3.062500000000151
 30
0.0
 11
50.0
 21
24.23841044024269
 31
0.0
  0
LINE
  5
F7
330
F2
100
AcDbEntity
  8
치수문자_일반주서
 62
     0
370
    -2
100
AcDbLine
 10
-66.69800000000001
 20
24.23841044024269
 30
0.0
 11
46.698
 21
24.23841044024269
 31
0.0
  0
SOLID
  5
F8
330
F2
100
AcDbEntity
  8
치수문자_일반주서
 62
     0
100
AcDbTrace
 10
-66.69800000000001
 20
24.78874377357603
 30
0.0
 11
-66.69800000000001
 21
23.68807710690936
 31
0.0
 12
-70.0
 22
24.23841044024269
 32
0.0
 13
-70.0
 23
24.23841044024269
 33
0.0
  0
SOLID
  5
F9
330
F2
100
AcDbEntity
  8
치수문자_일반주서
 62
     0
100
AcDbTrace
 10
46.698
 20
23.68807710690936
 30
0.0
 11
46.698
 21
24.78874377357603
 31
0.0
 12
50.0
 22
24.23841044024269
 32
0.0
 13
50.0
 23
24.23841044024269
 33
0.0
  0
MTEXT
  5
FA
330
F2
100
AcDbEntity
  8
치수문자_일반주서
 62
     0
100
AcDbMText
 10
-9.99999999999999
 20
28.61341044024269
 30
0.0
 40
3.5
 41
0.0
 71
     2
 72
     1
  1
\A1;120
  7
SLDTEXTSTYLE0
 73
     1
 44
1.0
  0
POINT
  5
13E
330
F2
100
AcDbEntity
  8
Defpoints
 62
     0
100
AcDbPoint
 10
-70.0
 20
2.449999999999995
 30
0.0
  0
POINT
  5
13F
330
F2
100
AcDbEntity
  8
Defpoints
 62
     0
100
AcDbPoint
 10
50.0
 20
3.000000000000151
 30
0.0
  0
POINT
  5
140
330
F2
100
AcDbEntity
  8
Defpoints
 62
     0
100
AcDbPoint
 10
50.0
 20
24.23841044024269
 30
0.0
  0
ENDBLK
  5
F4
330
F2
100
AcDbEntity
  8
0
100
AcDbBlockEnd
  0
BLOCK
  5
FD
330
FC
100
AcDbEntity
  8
0
100
AcDbBlockBegin
  2
_D_2
 70
     0
 10
0.0
 20
0.0
 30
0.0
  3
_D_2
  1

  0
LINE
  5
FF
330
FC
100
AcDbEntity
  8
치수문자_일반주서
 62
     0
370
    -2
100
AcDbLine
 10
10.0
 20
2.433389863347412
 30
0.0
 11
10.0
 21
15.71788766951493
 31
0.0
  0
LINE
  5
100
330
FC
100
AcDbEntity
  8
치수문자_일반주서
 62
     0
370
    -2
100
AcDbLine
 10
50.0
 20
3.062500000000151
 30
0.0
 11
50.0
 21
15.71788766951493
 31
0.0
  0
LINE
  5
101
330
FC
100
AcDbEntity
  8
치수문자_일반주서
 62
     0
370
    -2
100
AcDbLine
 10
13.302
 20
15.71788766951493
 30
0.0
 11
46.698
 21
15.71788766951493
 31
0.0
  0
SOLID
  5
102
330
FC
100
AcDbEntity
  8
치수문자_일반주서
 62
     0
100
AcDbTrace
 10
13.302
 20
16.26822100284827
 30
0.0
 11
13.302
 21
15.1675543361816
 31
0.0
 12
10.0
 22
15.71788766951493
 32
0.0
 13
10.0
 23
15.71788766951493
 33
0.0
  0
SOLID
  5
103
330
FC
100
AcDbEntity
  8
치수문자_일반주서
 62
     0
100
AcDbTrace
 10
46.698
 20
15.1675543361816
 30
0.0
 11
46.698
 21
16.26822100284827
 31
0.0
 12
50.0
 22
15.71788766951493
 32
0.0
 13
50.0
 23
15.71788766951493
 33
0.0
  0
MTEXT
  5
104
330
FC
100
AcDbEntity
  8
치수문자_일반주서
 62
     0
100
AcDbMText
 10
30.00000000000001
 20
20.09288766951493
 30
0.0
 40
3.5
 41
0.0
 71
     2
 72
     1
  1
\A1;40
  7
SLDTEXTSTYLE0
 73
     1
 44
1.0
  0
POINT
  5
141
330
FC
100
AcDbEntity
  8
Defpoints
 62
     0
100
AcDbPoint
 10
10.0
 20
2.370889863347412
 30
0.0
  0
POINT
  5
142
330
FC
100
AcDbEntity
  8
Defpoints
 62
     0
100
AcDbPoint
 10
50.0
 20
3.000000000000151
 30
0.0
  0
POINT
  5
143
330
FC
100
AcDbEntity
  8
Defpoints
 62
     0
100
AcDbPoint
 10
50.0
 20
15.71788766951493
 30
0.0
  0
ENDBLK
  5
FE
330
FC
100
AcDbEntity
  8
0
100
AcDbBlockEnd
  0
BLOCK
  5
107
330
106
100
AcDbEntity
  8
0
100
AcDbBlockBegin
  2
_D_3
 70
     0
 10
0.0
 20
0.0
 30
0.0
  3
_D_3
  1

  0
LINE
  5
109
330
106
100
AcDbEntity
  8
치수문자_일반주서
 62
     0
370
    -2
100
AcDbLine
 10
-69.51249999999999
 20
2.999999999999996
 30
0.0
 11
-81.36875424680994
 21
2.999999999999952
 31
0.0
  0
LINE
  5
10A
330
106
100
AcDbEntity
  8
치수문자_일반주서
 62
     0
370
    -2
100
AcDbLine
 10
-69.51249999999999
 20
-2.999999999999997
 30
0.0
 11
-81.36875424680993
 21
-3.000000000000041
 31
0.0
  0
LINE
  5
10B
330
106
100
AcDbEntity
  8
치수문자_일반주서
 62
     0
370
    -2
100
AcDbLine
 10
-81.36875424680994
 20
2.999999999999952
 30
0.0
 11
-81.36875424680998
 21
15.72899999999995
 31
0.0
  0
LINE
  5
10C
330
106
100
AcDbEntity
  8
치수문자_일반주서
 62
     0
370
    -2
100
AcDbLine
 10
-81.36875424680994
 20
2.999999999999952
 30
0.0
 11
-81.36875424680993
 21
-3.000000000000041
 31
0.0
  0
LINE
  5
10D
330
106
100
AcDbEntity
  8
치수문자_일반주서
 62
     0
370
    -2
100
AcDbLine
 10
-81.36875424680996
 20
6.301999999999952
 30
0.0
 11
-81.36875424680997
 21
9.603999999999951
 31
0.0
  0
LINE
  5
10E
330
106
100
AcDbEntity
  8
치수문자_일반주서
 62
     0
370
    -2
100
AcDbLine
 10
-81.36875424680991
 20
-6.30200000000004
 30
0.0
 11
-81.3687542468099
 21
-9.60400000000004
 31
0.0
  0
SOLID
  5
10F
330
106
100
AcDbEntity
  8
치수문자_일반주서
 62
     0
100
AcDbTrace
 10
-81.91908758014328
 20
6.301999999999951
 30
0.0
 11
-80.81842091347663
 21
6.301999999999953
 31
0.0
 12
-81.36875424680994
 22
2.999999999999952
 32
0.0
 13
-81.36875424680994
 23
2.999999999999952
 33
0.0
  0
SOLID
  5
110
330
106
100
AcDbEntity
  8
치수문자_일반주서
 62
     0
100
AcDbTrace
 10
-80.81842091347659
 20
-6.30200000000004
 30
0.0
 11
-81.91908758014324
 21
-6.302000000000041
 31
0.0
 12
-81.36875424680993
 22
-3.000000000000041
 32
0.0
 13
-81.36875424680993
 23
-3.000000000000041
 33
0.0
  0
MTEXT
  5
111
330
106
100
AcDbEntity
  8
치수문자_일반주서
 62
     0
100
AcDbMText
 10
-85.74375424680997
 20
12.66649999999994
 30
0.0
 40
3.5
 41
0.0
 71
     2
 72
     1
  1
\A1;%%c6
  7
SLDTEXTSTYLE0
 11
-2.368475785867003E-15
 21
1.0
 31
0.0
 73
     1
 44
1.0
  0
POINT
  5
144
330
106
100
AcDbEntity
  8
Defpoints
 62
     0
100
AcDbPoint
 10
-69.44999999999999
 20
2.999999999999996
 30
0.0
  0
POINT
  5
145
330
106
100
AcDbEntity
  8
Defpoints
 62
     0
100
AcDbPoint
 10
-69.44999999999999
 20
-2.999999999999996
 30
0.0
  0
POINT
  5
146
330
106
100
AcDbEntity
  8
Defpoints
 62
     0
100
AcDbPoint
 10
-81.36875424680996
 20
-3.000000000000041
 30
0.0
  0
ENDBLK
  5
108
330
106
100
AcDbEntity
  8
0
100
AcDbBlockEnd
  0
BLOCK
  5
113
330
112
100
AcDbEntity
  8
0
100
AcDbBlockBegin
  2
SW_DOWELSYMBOL_0
 70
     0
 10
0.0
 20
0.0
 30
0.0
  3
SW_DOWELSYMBOL_0
  1

  0
CIRCLE
  5
115
330
112
100
AcDbEntity
  8
외형선
 62
     0
100
AcDbCircle
 10
0.0
 20
0.0
 30
0.0
 40
3.000000000000004
  0
HATCH
  5
116
330
112
100
AcDbEntity
  8
0
  6
Continuous
 62
     0
370
    30
100
AcDbHatch
 10
0.0
 20
0.0
 30
0.0
210
0.0
220
0.0
230
1.0
  2
SOLID
 70
     1
 71
     0
 91
        1
 92
        0
 93
        3
 72
     2
 10
0.0000000000000104
 20
0.0
 40
3.000000000000004
 50
0.0
 51
90.0
 73
     1
 72
     1
 10
0.0000000000000104
 20
3.000000000000004
 11
0.0000000000000104
 21
0.0
 72
     1
 10
0.0000000000000104
 20
0.0
 11
3.000000000000015
 21
0.0
 97
        0
 75
     0
 76
     1
 98
        1
 10
0.0
 20
0.0
  0
HATCH
  5
117
330
112
100
AcDbEntity
  8
0
  6
Continuous
 62
     0
370
    30
100
AcDbHatch
 10
0.0
 20
0.0
 30
0.0
210
0.0
220
0.0
230
1.0
  2
SOLID
 70
     1
 71
     0
 91
        1
 92
        0
 93
        3
 72
     2
 10
0.0000000000000104
 20
0.0
 40
3.000000000000004
 50
180.0
 51
270.0000000000008
 73
     1
 72
     1
 10
0.0000000000000104
 20
-3.000000000000004
 11
0.0000000000000104
 21
0.0
 72
     1
 10
0.0000000000000104
 20
0.0
 11
-2.999999999999994
 21
0.0
 97
        0
 75
     0
 76
     1
 98
        1
 10
0.0
 20
0.0
  0
ENDBLK
  5
114
330
112
100
AcDbEntity
  8
0
100
AcDbBlockEnd
  0
ENDSEC
  0
SECTION
  2
ENTITIES
  0
SPLINE
  5
95
330
1F
100
AcDbEntity
  8
0
  6
Continuous
 62
     1
370
    15
100
AcDbSpline
210
0.0
220
0.0
230
1.0
 70
     8
 71
     3
 72
     9
 73
     5
 74
     0
 42
0.000000001
 43
0.00000001
 40
0.0
 40
0.0
 40
0.0
 40
0.0
 40
0.4369681987311052
 40
1.0
 40
1.0
 40
1.0
 40
1.0
 10
42.22632996662913
 20
0.7690543186550214
 30
0.0
 10
42.10549184215781
 20
0.8266253419126035
 30
0.0
 10
41.82895427072306
 20
0.9583764016573635
 30
0.0
 10
41.55240650380983
 20
1.10317502825984
 30
0.0
 10
41.39670131646778
 20
1.184701259817094
 30
0.0
  0
SPLINE
  5
96
330
1F
100
AcDbEntity
  8
0
  6
Continuous
 62
     1
370
    15
100
AcDbSpline
210
0.0
220
0.0
230
1.0
 70
     8
 71
     3
 72
     9
 73
     5
 74
     0
 42
0.000000001
 43
0.00000001
 40
0.0
 40
0.0
 40
0.0
 40
0.0
 40
0.5444929256551714
 40
1.0
 40
1.0
 40
1.0
 40
1.0
 10
25.90244004145836
 20
0.7689120948826278
 30
0.0
 10
25.75326469656348
 20
0.8402938953055097
 30
0.0
 10
25.47929356146494
 20
0.9713916507758682
 30
0.0
 10
25.19971839154442
 20
1.117994996268044
 30
0.0
 10
25.07236992383446
 20
1.184773857262349
 30
0.0
  0
LINE
  5
97
330
1F
100
AcDbEntity
  8
0
  6
Continuous
 62
     1
370
    15
100
AcDbLine
 10
33.88899210832824
 20
-2.999999999999999
 30
0.0
 11
35.34302831769944
 21
-2.999999999999999
 31
0.0
  0
LINE
  5
98
330
1F
100
AcDbEntity
  8
0
  6
Continuous
 62
     1
370
    15
100
AcDbLine
 10
19.02009521420005
 20
3.000000000000008
 30
0.0
 11
17.56561566721983
 21
3.000000000000008
 31
0.0
  0
LINE
  5
99
330
1F
100
AcDbEntity
  8
0
  6
Continuous
 62
     1
370
    15
100
AcDbLine
 10
17.56561566721983
 20
-2.999999999999999
 30
0.0
 11
19.02009521420003
 21
-2.999999999999999
 31
0.0
  0
LINE
  5
9A
330
1F
100
AcDbEntity
  8
0
  6
Continuous
 62
     1
370
    15
100
AcDbLine
 10
35.34302831769944
 20
3.000000000000008
 30
0.0
 11
33.88899210832825
 21
3.000000000000008
 31
0.0
  0
LINE
  5
9B
330
1F
100
AcDbEntity
  8
0
  6
Continuous
 62
   131
370
    15
100
AcDbLine
 10
40.62874676491197
 20
0.812707591662208
 30
0.0
 11
40.53610871528577
 21
0.8624286929282023
 31
0.0
  0
LINE
  5
9C
330
1F
100
AcDbEntity
  8
0
  6
Continuous
 62
   131
370
    15
100
AcDbLine
 10
24.30326858833012
 20
0.813420471265426
 30
0.0
 11
24.21186701095294
 21
0.862455031855724
 31
0.0
  0
SPLINE
  5
9D
330
1F
100
AcDbEntity
  8
0
  6
Continuous
 62
     1
370
    15
100
AcDbSpline
210
0.0
220
0.0
230
1.0
 70
     8
 71
     3
 72
    17
 73
    13
 74
     0
 42
0.000000001
 43
0.00000001
 40
0.0
 40
0.0
 40
0.0
 40
0.0
 40
0.1140777330183363
 40
0.204814819338546
 40
0.2971728933416306
 40
0.3578590704544322
 40
0.4324134193847772
 40
0.5212016081216216
 40
0.6305730602281298
 40
0.7193455652434887
 40
0.8324787201163367
 40
1.0
 40
1.0
 40
1.0
 40
1.0
 10
36.72292478742312
 20
-2.496440932857622
 30
0.0
 10
36.89470352337401
 20
-2.480038605513013
 30
0.0
 10
37.20311455012828
 20
-2.450589916247091
 30
0.0
 10
37.64985132160193
 20
-2.416170190554894
 30
0.0
 10
38.01589600013077
 20
-2.392395743615225
 30
0.0
 10
38.35882479826558
 20
-2.37439957601575
 30
0.0
 10
38.69608393079384
 20
-2.360189253636102
 30
0.0
 10
39.10632928206572
 20
-2.348078763239176
 30
0.0
 10
39.538445250791
 20
-2.342147028630154
 30
0.0
 10
40.01146819596105
 20
-2.343193506095999
 30
0.0
 10
40.56683656118204
 20
-2.352881893056527
 30
0.0
 10
40.98600054301627
 20
-2.372315357153557
 30
0.0
 10
41.23619750419711
 20
-2.383915098240608
 30
0.0
  0
SPLINE
  5
9E
330
1F
100
AcDbEntity
  8
0
  6
Continuous
 62
     1
370
    15
100
AcDbSpline
210
0.0
220
0.0
230
1.0
 70
     8
 71
     3
 72
    12
 73
     8
 74
     0
 42
0.000000001
 43
0.00000001
 40
0.0
 40
0.0
 40
0.0
 40
0.0
 40
0.2903329460147343
 40
0.4995510286739988
 40
0.6706437112942621
 40
0.8652851191402176
 40
1.0
 40
1.0
 40
1.0
 40
1.0
 10
24.91182300627904
 20
2.383905502151008
 30
0.0
 10
24.67684302095809
 20
2.372876996246897
 30
0.0
 10
24.27253308990768
 20
2.353901190900796
 30
0.0
 10
23.72277923474559
 20
2.343343684137064
 30
0.0
 10
23.24546998984504
 20
2.342167872692361
 30
0.0
 10
22.83238865539403
 20
2.346579898890671
 30
0.0
 10
22.56156582001027
 20
2.355446377025674
 30
0.0
 10
22.45079257154368
 20
2.359072986222349
 30
0.0
  0
SPLINE
  5
9F
330
1F
100
AcDbEntity
  8
0
  6
Continuous
 62
     1
370
    15
100
AcDbSpline
210
0.0
220
0.0
230
1.0
 70
     8
 71
     3
 72
    18
 73
    14
 74
     0
 42
0.000000001
 43
0.00000001
 40
0.0
 40
0.0
 40
0.0
 40
0.0
 40
0.1213025126991217
 40
0.2171356285681098
 40
0.2987982422048706
 40
0.3493752406658245
 40
0.4015581152034196
 40
0.4617091013612943
 40
0.528856854461274
 40
0.6348380658748589
 40
0.7279971216418968
 40
0.8419152549684151
 40
1.0
 40
1.0
 40
1.0
 40
1.0
 10
20.39861994994843
 20
-2.496451987965157
 30
0.0
 10
20.58169758027661
 20
-2.479024053064856
 30
0.0
 10
20.90941277309107
 20
-2.447827456102289
 30
0.0
 10
21.35859174764699
 20
-2.413858310000301
 30
0.0
 10
21.70085218474764
 20
-2.392070754498248
 30
0.0
 10
21.9742886939131
 20
-2.377474140546268
 30
0.0
 10
22.21839510574395
 20
-2.366338790525826
 30
0.0
 10
22.48893383360116
 20
-2.356447794237991
 30
0.0
 10
22.84203555387057
 20
-2.347083249182492
 30
0.0
 10
23.24540386778535
 20
-2.342003122629549
 30
0.0
 10
23.7227999250677
 20
-2.343395236249666
 30
0.0
 10
24.27252492345255
 20
-2.353880843319344
 30
0.0
 10
24.67684001926284
 20
-2.372869517207618
 30
0.0
 10
24.91182300627903
 20
-2.383905502150997
 30
0.0
  0
SPLINE
  5
A0
330
1F
100
AcDbEntity
  8
0
  6
Continuous
 62
     1
370
    15
100
AcDbSpline
210
0.0
220
0.0
230
1.0
 70
     8
 71
     3
 72
    12
 73
     8
 74
     0
 42
0.000000001
 43
0.00000001
 40
0.0
 40
0.0
 40
0.0
 40
0.0
 40
0.303669890846415
 40
0.5087491071418434
 40
0.6696691820535043
 40
0.8679294684240624
 40
1.0
 40
1.0
 40
1.0
 40
1.0
 10
41.23619750419711
 20
2.38391509824062
 30
0.0
 10
40.98600026385044
 20
2.37232439286864
 30
0.0
 10
40.5668358143196
 20
2.352906066630556
 30
0.0
 10
40.01146992763612
 20
2.343137457251963
 30
0.0
 10
39.53843976512093
 20
2.342324582416132
 30
0.0
 10
39.13034306390387
 20
2.347025861099117
 30
0.0
 10
38.85613657114141
 20
2.356510217581308
 30
0.0
 10
38.74650527035682
 20
2.360302185917915
 30
0.0
  0
SPLINE
  5
A1
330
1F
100
AcDbEntity
  8
0
  6
Continuous
 62
     1
370
    15
100
AcDbSpline
210
0.0
220
0.0
230
1.0
 70
     8
 71
     3
 72
    14
 73
    10
 74
     0
 42
0.000000001
 43
0.00000001
 40
0.0
 40
0.0
 40
0.0
 40
0.0
 40
0.2913617596638562
 40
0.4978384365673693
 40
0.628951364624077
 40
0.7475738831176003
 40
0.8678641018809942
 40
0.9886365459958507
 40
1.0
 40
1.0
 40
1.0
 40
1.0
 10
10.99515879258561
 20
-2.256454812351349
 30
0.0
 10
11.2133506594892
 20
-2.223786976857504
 30
0.0
 10
11.58616656373252
 20
-2.167968724774394
 30
0.0
 10
12.05506431994723
 20
-2.11136997655497
 30
0.0
 10
12.39578300912707
 20
-2.075779853616653
 30
0.0
 10
12.67224973781625
 20
-2.050421778818692
 30
0.0
 10
12.94095234519894
 20
-2.029414763008311
 30
0.0
 10
13.12942422698486
 20
-2.01605452648033
 30
0.0
 10
13.22805233243854
 20
-2.010781916314087
 30
0.0
 10
13.23653417541834
 20
-2.010328481146514
 30
0.0
  0
SPLINE
  5
A2
330
1F
100
AcDbEntity
  8
0
  6
Continuous
 62
     1
370
    15
100
AcDbSpline
210
0.0
220
0.0
230
1.0
 70
     8
 71
     3
 72
    12
 73
     8
 74
     0
 42
0.000000001
 43
0.00000001
 40
0.0
 40
0.0
 40
0.0
 40
0.0
 40
0.2993666043606705
 40
0.5071011024658714
 40
0.6374690058532893
 40
0.7548518424239868
 40
1.0
 40
1.0
 40
1.0
 40
1.0
 10
43.64367362641055
 20
-2.25643497967002
 30
0.0
 10
43.87018826392583
 20
-2.222591383149077
 30
0.0
 10
44.25388444357811
 20
-2.165263261517634
 30
0.0
 10
44.73402264993436
 20
-2.107807841395062
 30
0.0
 10
45.07781799766786
 20
-2.072673169057916
 30
0.0
 10
45.44993668924265
 20
-2.038136363467551
 30
0.0
 10
45.72344958563005
 20
-2.02379826182205
 30
0.0
 10
45.90840255159775
 20
-2.014102651630692
 30
0.0
  0
SPLINE
  5
A3
330
1F
100
AcDbEntity
  8
0
  6
Continuous
 62
     1
370
    15
100
AcDbSpline
210
0.0
220
0.0
230
1.0
 70
     8
 71
     3
 72
    19
 73
    15
 74
     0
 42
0.000000001
 43
0.00000001
 40
0.0
 40
0.0
 40
0.0
 40
0.0
 40
0.1270876945724966
 40
0.214316034154364
 40
0.288273786895383
 40
0.3533463040302434
 40
0.4168381422840189
 40
0.4833445024228371
 40
0.5775621246989355
 40
0.6759457508465323
 40
0.7216258005753012
 40
0.7831612249113693
 40
0.8756333062995179
 40
1.0
 40
1.0
 40
1.0
 40
1.0
 10
32.56029629866615
 20
2.051857057525659
 30
0.0
 10
32.33788871662174
 20
2.034606829295876
 30
0.0
 10
31.96282871486503
 20
2.005516676115422
 30
0.0
 10
31.45973710000432
 20
1.984440143889464
 30
0.0
 10
31.06452737050908
 20
1.9751680956618
 30
0.0
 10
30.71119484326935
 20
1.9733757771775
 30
0.0
 10
30.37038340749437
 20
1.977262682734873
 30
0.0
 10
29.9786135291783
 20
1.988200592737978
 30
0.0
 10
29.52630585958978
 20
2.010224139493045
 30
0.0
 10
29.11010577821303
 20
2.040494799537913
 30
0.0
 10
28.75074666014427
 20
2.072760748201949
 30
0.0
 10
28.402320631943
 20
2.108626821944587
 30
0.0
 10
27.9169370732925
 20
2.166982953909789
 30
0.0
 10
27.53717295401308
 20
2.223842204515033
 30
0.0
 10
27.31936132008574
 20
2.25645351677305
 30
0.0
  0
SPLINE
  5
A4
330
1F
100
AcDbEntity
  8
0
  6
Continuous
 62
     1
370
    15
100
AcDbSpline
210
0.0
220
0.0
230
1.0
 70
     8
 71
     3
 72
    12
 73
     8
 74
     0
 42
0.000000001
 43
0.00000001
 40
0.0
 40
0.0
 40
0.0
 40
0.0
 40
0.3025751551768084
 40
0.5125637021898828
 40
0.6451174049692722
 40
0.7694437447848729
 40
1.0
 40
1.0
 40
1.0
 40
1.0
 10
27.31936132008574
 20
-2.256453516773039
 30
0.0
 10
27.5458439253043
 20
-2.222618104184395
 30
0.0
 10
27.92950649847426
 20
-2.165300759898729
 30
0.0
 10
28.41018526633829
 20
-2.107735759499261
 30
0.0
 10
28.75879330436197
 20
-2.072208568311164
 30
0.0
 10
29.12283413413527
 20
-2.038172653101277
 30
0.0
 10
29.38771776977526
 20
-2.025379726216172
 30
0.0
 10
29.55980448227137
 20
-2.017068556952954
 30
0.0
  0
SPLINE
  5
A5
330
1F
100
AcDbEntity
  8
0
  6
Continuous
 62
     1
370
    15
100
AcDbSpline
210
0.0
220
0.0
230
1.0
 70
     8
 71
     3
 72
    19
 73
    15
 74
     0
 42
0.000000001
 43
0.00000001
 40
0.0
 40
0.0
 40
0.0
 40
0.0
 40
0.128141878877917
 40
0.2185164240391328
 40
0.2748234227936763
 40
0.3250247686350546
 40
0.5117448163830863
 40
0.5621755076830689
 40
0.6134016152534286
 40
0.665350718435362
 40
0.7167133515168443
 40
0.7756481545510961
 40
0.8690589778370035
 40
1.0
 40
1.0
 40
1.0
 40
1.0
 10
48.88441285212857
 20
2.051850365471972
 30
0.0
 10
48.66016999490898
 20
2.034476382066483
 30
0.0
 10
48.27777551384616
 20
2.004849059926938
 30
0.0
 10
47.79817466336482
 20
1.98511975824934
 30
0.0
 10
47.45434745424944
 20
1.976677805353323
 30
0.0
 10
46.94279415223276
 20
1.971300402404934
 30
0.0
 10
46.44007034127051
 20
1.981295478737024
 30
0.0
 10
45.93647734857934
 20
2.006605276054877
 30
0.0
 10
45.66850240605524
 20
2.023550774575674
 30
0.0
 10
45.3987332458389
 20
2.043941929328625
 30
0.0
 10
45.11532400657619
 20
2.068866794106241
 30
0.0
 10
44.75958498284388
 20
2.104941407351494
 30
0.0
 10
44.26583560387937
 20
2.163497009114129
 30
0.0
 10
43.87296763343157
 20
2.222183256734696
 30
0.0
 10
43.64367362641055
 20
2.256434979670034
 30
0.0
  0
SPLINE
  5
A6
330
1F
100
AcDbEntity
  8
0
  6
Continuous
 62
     1
370
    15
100
AcDbSpline
210
0.0
220
0.0
230
1.0
 70
     8
 71
     3
 72
    18
 73
    14
 74
     0
 42
0.000000001
 43
0.00000001
 40
0.0
 40
0.0
 40
0.0
 40
0.0
 40
0.1343146173667687
 40
0.2259355417421438
 40
0.2869190445626156
 40
0.3495097172892689
 40
0.4144014915270584
 40
0.4793785652344708
 40
0.6698674311162907
 40
0.7137120523683825
 40
0.7777922143837178
 40
0.8728912911804817
 40
1.0
 40
1.0
 40
1.0
 40
1.0
 10
16.23608712356642
 20
2.051855774938266
 30
0.0
 10
16.00033543695837
 20
2.033687334771197
 30
0.0
 10
15.60376888244132
 20
2.003125535525271
 30
0.0
 10
15.1025230138725
 20
1.983464834078771
 30
0.0
 10
14.7291478710748
 20
1.975254495937798
 30
0.0
 10
14.40061359623669
 20
1.973350537813552
 30
0.0
 10
14.06425559893823
 20
1.976916785766208
 30
0.0
 10
13.50447088365604
 20
1.992077682427466
 30
0.0
 10
12.98196642092299
 20
2.023544764658434
 30
0.0
 10
12.46036227610362
 20
2.069512215376447
 30
0.0
 10
12.10619577638552
 20
2.105399664887986
 30
0.0
 10
11.60699426528482
 20
2.164940785704835
 30
0.0
 10
11.2177924734554
 20
2.223154839543884
 30
0.0
 10
10.99515879258561
 20
2.256454812351358
 30
0.0
  0
LINE
  5
A7
330
1F
100
AcDbEntity
  8
0
  6
Continuous
 62
   131
370
    15
100
AcDbLine
 10
9.110053439525942
 20
3.000000000000005
 30
0.0
 11
-69.44999999999999
 21
3.0
 31
0.0
  0
LINE
  5
A8
330
1F
100
AcDbEntity
  8
0
  6
Continuous
 62
   131
370
    15
100
AcDbLine
 10
-69.44999999999999
 20
-3.0
 30
0.0
 11
9.110053439525942
 21
-2.999999999999996
 31
0.0
  0
LINE
  5
A9
330
1F
100
AcDbEntity
  8
0
  6
Continuous
 62
   131
370
    15
100
AcDbLine
 10
-69.44999999999999
 20
2.999999999999996
 30
0.0
 11
-70.0
 21
2.449999999999995
 31
0.0
  0
LINE
  5
AA
330
1F
100
AcDbEntity
  8
0
  6
Continuous
 62
   131
370
    15
100
AcDbLine
 10
-70.0
 20
-2.449999999999996
 30
0.0
 11
-69.44999999999999
 21
-2.999999999999996
 31
0.0
  0
SPLINE
  5
AB
330
1F
100
AcDbEntity
  8
0
  6
Continuous
 62
   131
370
    15
100
AcDbSpline
210
0.0
220
0.0
230
1.0
 70
     8
 71
     3
 72
     9
 73
     5
 74
     0
 42
0.000000001
 43
0.00000001
 40
0.0
 40
0.0
 40
0.0
 40
0.0
 40
0.5010119618383237
 40
1.0
 40
1.0
 40
1.0
 40
1.0
 10
9.578600108134657
 20
0.7687465072506661
 30
0.0
 10
9.50025515575998
 20
0.8057663033280198
 30
0.0
 10
9.343881738871461
 20
0.8796563476725099
 30
0.0
 10
9.187928214294205
 20
0.9581122151935029
 30
0.0
 10
9.110109271021
 20
0.9972607546100754
 30
0.0
  0
SPLINE
  5
AC
330
1F
100
AcDbEntity
  8
0
  6
Continuous
 62
     1
370
    15
100
AcDbSpline
210
0.0
220
0.0
230
1.0
 70
     8
 71
     3
 72
    18
 73
    14
 74
     0
 42
0.000000001
 43
0.00000001
 40
0.0
 40
0.0
 40
0.0
 40
0.0
 40
0.0995994937582208
 40
0.1992172669258735
 40
0.2988502158986449
 40
0.3984952100422834
 40
0.4981490972045646
 40
0.5978087093100333
 40
0.6974708680161843
 40
0.7971323904093501
 40
0.8967900947182863
 40
0.9964408060233323
 40
1.0
 40
1.0
 40
1.0
 40
1.0
 10
50.00000000000001
 20
-2.846822607695693
 30
0.0
 10
49.51343838274332
 20
-2.736402896965432
 30
0.0
 10
48.54022584999478
 20
-2.515543210270364
 30
0.0
 10
47.08021804909001
 20
-1.927067125040532
 30
0.0
 10
45.6199480233593
 20
-1.203399940091853
 30
0.0
 10
44.15946508148129
 20
-0.3809294013933046
 30
0.0
 10
42.69882616499656
 20
0.4701735769892585
 30
0.0
 10
41.23808645391918
 20
1.285227158045453
 30
0.0
 10
39.77730227530695
 20
1.997391773516471
 30
0.0
 10
38.31652824865682
 20
2.56007959496331
 30
0.0
 10
36.85582517454155
 20
2.89472633951255
 30
0.0
 10
35.86466168179475
 20
3.036302554946094
 30
0.0
 10
35.36041719088853
 20
2.997288257929186
 30
0.0
 10
35.34302831769944
 20
2.995942849747989
 30
0.0
  0
SPLINE
  5
AD
330
1F
100
AcDbEntity
  8
0
  6
Continuous
 62
     1
370
    15
100
AcDbSpline
210
0.0
220
0.0
230
1.0
 70
     8
 71
     3
 72
    16
 73
    12
 74
     0
 42
0.000000001
 43
0.00000001
 40
0.0
 40
0.0
 40
0.0
 40
0.0
 40
0.0160230071276929
 40
0.1333306968713734
 40
0.2506398866532253
 40
0.3755879652913823
 40
0.5004997764289579
 40
0.6253478445606394
 40
0.7501695735387756
 40
0.8750617194311148
 40
0.9999999999999999
 40
0.9999999999999999
 40
0.9999999999999999
 40
0.9999999999999999
 10
22.45300386325112
 20
-2.358193807902843
 30
0.0
 10
22.38649551589903
 20
-2.385086865390105
 30
0.0
 10
21.83306604853697
 20
-2.608869459206804
 30
0.0
 10
20.79267689058803
 20
-2.853726101073145
 30
0.0
 10
19.30025276055133
 20
-3.041042777338155
 30
0.0
 10
17.77588322889306
 20
-2.9576248545452
 30
0.0
 10
16.22041156689446
 20
-2.61448736462489
 30
0.0
 10
14.66562138083953
 20
-2.037287340120079
 30
0.0
 10
13.11103872107814
 20
-1.279960154688912
 30
0.0
 10
11.55581381436068
 20
-0.4057659383289282
 30
0.0
 10
10.51866844590893
 20
0.1932636720455413
 30
0.0
 10
9.999999999996257
 20
0.4928337868235803
 30
0.0
  0
SPLINE
  5
AE
330
1F
100
AcDbEntity
  8
0
  6
Continuous
 62
   131
370
    15
100
AcDbSpline
210
0.0
220
0.0
230
1.0
 70
    24
 71
     3
 72
     8
 73
     4
 74
     0
 42
0.000000001
 43
0.00000001
 40
0.0
 40
0.0
 40
0.0
 40
0.0
 40
1.0
 40
1.0
 40
1.0
 40
1.0
 10
10.00000000000026
 20
0.5697525257059046
 30
0.0
 10
10.00000000000026
 20
0.5568535698355126
 30
0.0
 10
10.00000000000026
 20
0.5311057380710453
 30
0.0
 10
10.00000000000026
 20
0.4928337868237385
 30
0.0
  0
SPLINE
  5
AF
330
1F
100
AcDbEntity
  8
0
  6
Continuous
 62
     1
370
    15
100
AcDbSpline
210
0.0
220
0.0
230
1.0
 70
     8
 71
     3
 72
    14
 73
    10
 74
     0
 42
0.000000001
 43
0.00000001
 40
0.0
 40
0.0
 40
0.0
 40
0.0
 40
0.1637563925579998
 40
0.327487659014608
 40
0.4911972093503737
 40
0.6548884798312827
 40
0.8185649289077686
 40
0.9822300330566528
 40
1.0
 40
1.0
 40
1.0
 40
1.0
 10
50.00000000000001
 20
-2.366916793104638
 30
0.0
 10
49.57386118383796
 20
-2.275292892956021
 30
0.0
 10
48.72164893648564
 20
-2.092059151049847
 30
0.0
 10
47.44345764247282
 20
-1.65301544064409
 30
0.0
 10
46.16545864292446
 20
-1.125152005815848
 30
0.0
 10
44.88762388943994
 20
-0.5253377087821756
 30
0.0
 10
43.60992258778781
 20
0.0996203254837948
 30
0.0
 10
42.71192581532555
 20
0.5497800881858557
 30
0.0
 10
42.23982713611671
 20
0.7610255938921004
 30
0.0
 10
42.19358922922783
 20
0.7817152303043593
 30
0.0
  0
SPLINE
  5
B0
330
1F
100
AcDbEntity
  8
0
  6
Continuous
 62
     1
370
    15
100
AcDbSpline
210
0.0
220
0.0
230
1.0
 70
     8
 71
     3
 72
    15
 73
    11
 74
     0
 42
0.000000001
 43
0.00000001
 40
0.0
 40
0.0
 40
0.0
 40
0.0
 40
0.1028845001136462
 40
0.2257040909552578
 40
0.3485244006584365
 40
0.4713480597712599
 40
0.5941776947528146
 40
0.7170159247727078
 40
0.8398653585294663
 40
0.9999999999999999
 40
0.9999999999999999
 40
0.9999999999999999
 40
0.9999999999999999
 10
20.40202723916867
 20
-2.485799829777996
 30
0.0
 10
20.04531786343164
 20
-2.515536053395246
 30
0.0
 10
19.26278244461722
 20
-2.580770246228568
 30
0.0
 10
18.05442288453427
 20
-2.495653452541063
 30
0.0
 10
16.77693196496617
 20
-2.271128053124684
 30
0.0
 10
15.49939784992333
 20
-1.905830878638415
 30
0.0
 10
14.22180485664478
 20
-1.426789337539877
 30
0.0
 10
12.94406242794509
 20
-0.8623165284113063
 30
0.0
 10
11.53714741499119
 20
-0.1806962448602759
 30
0.0
 10
10.55549571911861
 20
0.2985546722003581
 30
0.0
 10
10.0
 20
0.5697525257060294
 30
0.0
  0
LINE
  5
B1
330
1F
100
AcDbEntity
  8
0
  6
Continuous
 62
     1
370
    15
100
AcDbLine
 10
50.00000000000001
 20
-2.846822607695696
 30
0.0
 11
50.00000000000001
 21
-2.366916793104638
 31
0.0
  0
SPLINE
  5
B2
330
1F
100
AcDbEntity
  8
0
  6
Continuous
 62
     1
370
    15
100
AcDbSpline
210
0.0
220
0.0
230
1.0
 70
     8
 71
     3
 72
    22
 73
    18
 74
     0
 42
0.000000001
 43
0.00000001
 40
0.0
 40
0.0
 40
0.0
 40
0.0
 40
0.021894009200432
 40
0.0959328250821496
 40
0.1699664456432338
 40
0.2439925214489415
 40
0.3180087165624264
 40
0.3920127126785418
 40
0.4660047485565153
 40
0.5400060222461048
 40
0.6140199571648395
 40
0.6880442390335842
 40
0.7620765351205163
 40
0.8361144983626021
 40
0.9101557715422729
 40
0.9841979915033205
 40
1.0
 40
1.0
 40
1.0
 40
1.0
 10
38.7484647555578
 20
-2.359564957770565
 30
0.0
 10
38.60448044537301
 20
-2.415629810366102
 30
0.0
 10
37.97358541298861
 20
-2.661288777988993
 30
0.0
 10
36.85582311219853
 20
-2.903367566010689
 30
0.0
 10
35.39523958087027
 20
-3.041863625915304
 30
0.0
 10
33.93483474861262
 20
-2.928258916987776
 30
0.0
 10
32.47466481096718
 20
-2.588486176244144
 30
0.0
 10
31.01476199192138
 20
-2.044698929021309
 30
0.0
 10
29.55503232189867
 20
-1.340702671678932
 30
0.0
 10
28.09517637509946
 20
-0.5314755389779688
 30
0.0
 10
26.63505887590161
 20
0.3193547040753281
 30
0.0
 10
25.17469721166337
 20
1.145592853086342
 30
0.0
 10
23.71414313757684
 20
1.880428559631594
 30
0.0
 10
22.25346558472723
 20
2.473458585371067
 30
0.0
 10
20.79267009082355
 20
2.850937912673507
 30
0.0
 10
19.71497331829512
 20
3.023398557651169
 30
0.0
 10
19.12403142642695
 20
2.985250438452145
 30
0.0
 10
19.02009521420004
 20
2.978540859950962
 30
0.0
  0
SPLINE
  5
B3
330
1F
100
AcDbEntity
  8
0
  6
Continuous
 62
     1
370
    15
100
AcDbSpline
210
0.0
220
0.0
230
1.0
 70
     8
 71
     3
 72
    16
 73
    12
 74
     0
 42
0.000000001
 43
0.00000001
 40
0.0
 40
0.0
 40
0.0
 40
0.0
 40
0.0721907345716827
 40
0.189798762195072
 40
0.3074162309435801
 40
0.4250456325931391
 40
0.5426894444218168
 40
0.6603501262421824
 40
0.778024675057094
 40
0.8956847991997371
 40
0.9999999999999999
 40
0.9999999999999999
 40
0.9999999999999999
 40
0.9999999999999999
 10
36.72901288307226
 20
-2.478020499755049
 30
0.0
 10
36.46759971107476
 20
-2.505845148378232
 30
0.0
 10
35.78031072917162
 20
-2.578999742226408
 30
0.0
 10
34.66710012542293
 20
-2.525143075309159
 30
0.0
 10
33.38933393470682
 20
-2.33537534425707
 30
0.0
 10
32.11141862038088
 20
-1.998624684324072
 30
0.0
 10
30.83332335082056
 20
-1.543385623709351
 30
0.0
 10
29.55503866420609
 20
-0.994475565395234
 30
0.0
 10
28.27665908100887
 20
-0.3869996715461866
 30
0.0
 10
27.04664443983724
 20
0.2240422168252714
 30
0.0
 10
26.24279864397955
 20
0.6053063541247092
 30
0.0
 10
25.8650389284395
 20
0.7844778230731586
 30
0.0
  0
SPLINE
  5
B4
330
1F
100
AcDbEntity
  8
0
  6
Continuous
 62
     1
370
    15
100
AcDbSpline
210
0.0
220
0.0
230
1.0
 70
     8
 71
     3
 72
    21
 73
    17
 74
     0
 42
0.000000001
 43
0.00000001
 40
0.0
 40
0.0
 40
0.0
 40
0.0
 40
0.0685927665719499
 40
0.1439168230636322
 40
0.2192793371327136
 40
0.2946637338445056
 40
0.3654398113317208
 40
0.4362149846732844
 40
0.5069869948221059
 40
0.5777535884066758
 40
0.6485125217614026
 40
0.7192615649194565
 40
0.7899985055528496
 40
0.8607266111792519
 40
0.9314661471596317
 40
1.0
 40
1.0
 40
1.0
 40
1.0
 10
13.24986761278482
 20
2.015316555746029
 30
0.0
 10
13.72174650452983
 20
2.205263617732917
 30
0.0
 10
14.71181170184908
 20
2.603798027082762
 30
0.0
 10
16.22038040030056
 20
2.941089406881099
 30
0.0
 10
17.77584903103493
 20
3.043364998043548
 30
0.0
 10
19.30021275672841
 20
2.874113207579017
 30
0.0
 10
20.79263850407473
 20
2.472114069980573
 30
0.0
 10
22.25342501509135
 20
1.884385240866439
 30
0.0
 10
23.71410756893511
 20
1.148841411509448
 30
0.0
 10
25.17466292076207
 20
0.3231704764125021
 30
0.0
 10
26.63502686104493
 20
-0.5279123458316635
 30
0.0
 10
28.0951464335348
 20
-1.337175444992469
 30
0.0
 10
29.5550042808409
 20
-2.042806739205616
 30
0.0
 10
31.01473659325045
 20
-2.58332766854998
 30
0.0
 10
32.4593852586753
 20
-2.935628637811515
 30
0.0
 10
33.4175144799717
 20
-2.976374551006875
 30
0.0
 10
33.88899210832825
 20
-2.996424859557716
 30
0.0
  0
SPLINE
  5
B5
330
1F
100
AcDbEntity
  8
0
  6
Continuous
 62
     1
370
    15
100
AcDbSpline
210
0.0
220
0.0
230
1.0
 70
     8
 71
     3
 72
    10
 73
     6
 74
     0
 42
0.000000001
 43
0.00000001
 40
0.0
 40
0.0
 40
0.0
 40
0.0
 40
0.288376283102559
 40
0.6442207906311764
 40
1.0
 40
1.0
 40
1.0
 40
1.0
 10
45.89704583738559
 20
2.009678146576849
 30
0.0
 10
46.29145975127341
 20
2.172299679939917
 30
0.0
 10
47.17256426065633
 20
2.535589516641056
 30
0.0
 10
48.54022321389417
 20
2.891254102680084
 30
0.0
 10
49.51343750514872
 20
2.962063163818129
 30
0.0
 10
50.0
 20
3.000000000000151
 30
0.0
  0
SPLINE
  5
B6
330
1F
100
AcDbEntity
  8
0
  6
Continuous
 62
     1
370
    15
100
AcDbSpline
210
0.0
220
0.0
230
1.0
 70
     8
 71
     3
 72
    12
 73
     8
 74
     0
 42
0.000000001
 43
0.00000001
 40
0.0
 40
0.0
 40
0.0
 40
0.0
 40
0.2056461626043843
 40
0.4112163951092837
 40
0.616670727951143
 40
0.8221683901860536
 40
1.0
 40
1.0
 40
1.0
 40
1.0
 10
9.999999999998748
 20
-0.3436204609032408
 30
0.0
 10
10.51866617113856
 20
-0.6379225393154724
 30
0.0
 10
11.55580700790466
 20
-1.226418031889606
 30
0.0
 10
13.11102391583418
 20
-1.99362240069127
 30
0.0
 10
14.66560350877032
 20
-2.578955511356149
 30
0.0
 10
16.15034182172825
 20
-2.943052663597817
 30
0.0
 10
17.11711607573748
 20
-2.971277875183599
 30
0.0
 10
17.56561566721983
 20
-2.984371930815746
 30
0.0
  0
SPLINE
  5
B7
330
1F
100
AcDbEntity
  8
0
  6
Continuous
 62
     1
370
    15
100
AcDbSpline
210
0.0
220
0.0
230
1.0
 70
     8
 71
     3
 72
    22
 73
    18
 74
     0
 42
0.000000001
 43
0.00000001
 40
0.0
 40
0.0
 40
0.0
 40
0.0
 40
0.0004245803767666
 40
0.0717927341513768
 40
0.1431724217180085
 40
0.2145638766765134
 40
0.285964862805674
 40
0.3573731268756059
 40
0.4287864026353549
 40
0.5002024148506773
 40
0.5716188833765435
 40
0.6430335272486386
 40
0.7144440687780423
 40
0.7858482376332294
 40
0.8572437748936084
 40
0.9286284370590342
 40
1.0
 40
1.0
 40
1.0
 40
1.0
 10
29.54637134006161
 20
2.011184201551269
 30
0.0
 10
29.54926590543754
 20
2.012563747490449
 30
0.0
 10
30.03871095257
 20
2.245832594287929
 30
0.0
 10
31.01473170081027
 20
2.575566062043269
 30
0.0
 10
32.47464200696082
 20
2.930769131819991
 30
0.0
 10
33.9348123696733
 20
3.038855302939578
 30
0.0
 10
35.39521967670123
 20
2.913101968397139
 30
0.0
 10
36.85580465306239
 20
2.557503061627208
 30
0.0
 10
38.31651279467007
 20
2.001514596766484
 30
0.0
 10
39.77728800500542
 20
1.288338624606567
 30
0.0
 10
41.23807441944492
 20
0.4740947247247165
 30
0.0
 10
42.69881609158747
 20
-0.3774421836492431
 30
0.0
 10
44.1594570456356
 20
-1.199010964742214
 30
0.0
 10
45.61994200320284
 20
-1.927671935297881
 30
0.0
 10
47.0802140447887
 20
-2.500511644969483
 30
0.0
 10
48.54022385180267
 20
-2.894018968242567
 30
0.0
 10
49.51343771777186
 20
-2.962984729292249
 30
0.0
 10
50.00000000000001
 20
-2.999999999999845
 30
0.0
  0
LINE
  5
B8
330
1F
100
AcDbEntity
  8
0
  6
Continuous
 62
   131
370
    15
100
AcDbLine
 10
10.0
 20
-0.3436204609000893
 30
0.0
 11
10.0
 21
0.4928337868266415
 31
0.0
  0
LINE
  5
B9
330
1F
100
AcDbEntity
  8
0
  6
Continuous
 62
     1
370
    15
100
AcDbLine
 10
50.00000000000001
 20
-2.999999999999849
 30
0.0
 11
50.00000000000001
 21
-2.846822607695702
 31
0.0
  0
SPLINE
  5
BA
330
1F
100
AcDbEntity
  8
0
  6
Continuous
 62
     1
370
    15
100
AcDbSpline
210
0.0
220
0.0
230
1.0
 70
     8
 71
     3
 72
    14
 73
    10
 74
     0
 42
0.000000001
 43
0.00000001
 40
0.0
 40
0.0
 40
0.0
 40
0.0
 40
0.1053249847567361
 40
0.2761829118706108
 40
0.4470288661501201
 40
0.617660603108229
 40
0.7883368553968041
 40
0.9591981544434314
 40
0.9999999999999999
 40
0.9999999999999999
 40
0.9999999999999999
 40
0.9999999999999999
 10
42.53309823778351
 20
-0.2771232237558373
 30
0.0
 10
42.18281330326109
 20
-0.136763254674891
 30
0.0
 10
41.2642970231567
 20
0.2312883055544155
 30
0.0
 10
39.77732397288907
 20
0.8266551177302961
 30
0.0
 10
38.07314475751997
 20
1.415674074097604
 30
0.0
 10
36.3699124002975
 20
1.860056335415101
 30
0.0
 10
34.66655210700635
 20
2.088230041172589
 30
0.0
 10
33.39474595867179
 20
2.141143999649067
 30
0.0
 10
32.6907185720285
 20
2.049334126452982
 30
0.0
 10
32.5550047388467
 20
2.031636136216008
 30
0.0
  0
SPLINE
  5
BB
330
1F
100
AcDbEntity
  8
0
  6
Continuous
 62
     1
370
    15
100
AcDbSpline
210
0.0
220
0.0
230
1.0
 70
    24
 71
     3
 72
    10
 73
     6
 74
     0
 42
0.000000001
 43
0.00000001
 40
0.0
 40
0.0
 40
0.0
 40
0.0
 40
0.5
 40
0.5
 40
1.0
 40
1.0
 40
1.0
 40
1.0
 10
50.00000000000001
 20
2.100000000000009
 30
0.0
 10
49.99999999999999
 20
2.22729677042195
 30
0.0
 10
50.00000000000001
 20
2.375227406601361
 30
0.0
 10
50.00000000000001
 20
2.685585482882578
 30
0.0
 10
50.00000000000001
 20
2.847220307404431
 30
0.0
 10
50.0
 20
3.000000000000151
 30
0.0
  0
LINE
  5
BC
330
1F
100
AcDbEntity
  8
0
  6
Continuous
 62
     1
370
    15
100
AcDbLine
 10
50.00000000000001
 20
2.100000000000009
 30
0.0
 11
48.87833783058539
 21
2.026328608856284
 31
0.0
  0
SPLINE
  5
BD
330
1F
100
AcDbEntity
  8
0
  6
Continuous
 62
     1
370
    15
100
AcDbSpline
210
0.0
220
0.0
230
1.0
 70
     8
 71
     3
 72
    14
 73
    10
 74
     0
 42
0.000000001
 43
0.00000001
 40
0.0
 40
0.0
 40
0.0
 40
0.0
 40
0.0079640864778329
 40
0.1785175160070932
 40
0.3488486166656007
 40
0.5192637516654633
 40
0.689847817889932
 40
0.8603960286236567
 40
0.9999999999999999
 40
0.9999999999999999
 40
0.9999999999999999
 40
0.9999999999999999
 10
26.22661050581641
 20
-0.2860773780878186
 30
0.0
 10
26.2000761922732
 20
-0.2758533359359344
 30
0.0
 10
25.60530116617673
 20
-0.0466781990779488
 30
0.0
 10
24.44298429853626
 20
0.4407402334505485
 30
0.0
 10
22.73981949210673
 20
1.086774886061661
 30
0.0
 10
21.03637354309821
 20
1.624145182923934
 30
0.0
 10
19.33198440798505
 20
1.980447397365724
 30
0.0
 10
17.73026787207069
 20
2.139674932574179
 30
0.0
 10
16.69711113025262
 20
2.067474144689326
 30
0.0
 10
16.23207237659696
 20
2.034975528504677
 30
0.0
  0
SPLINE
  5
BE
330
1F
100
AcDbEntity
  8
0
  6
Continuous
 62
     1
370
    15
100
AcDbSpline
210
0.0
220
0.0
230
1.0
 70
     8
 71
     3
 72
     8
 73
     4
 74
     0
 42
0.000000001
 43
0.00000001
 40
0.0
 40
0.0
 40
0.0
 40
0.0
 40
1.0
 40
1.0
 40
1.0
 40
1.0
 10
48.143235968209
 20
0.839678264451527
 30
0.0
 10
48.00894915072985
 20
0.9988018849865359
 30
0.0
 10
47.8924040352403
 20
1.150883649473456
 30
0.0
 10
47.80039515848586
 20
1.292364378577722
 30
0.0
  0
LINE
  5
BF
330
1F
100
AcDbEntity
  8
0
  6
Continuous
 62
     1
370
    15
100
AcDbLine
 10
47.80039515848586
 20
1.29236437857772
 30
0.0
 11
50.00000000000001
 21
0.0000000000000098
 31
0.0
  0
LINE
  5
C0
330
1F
100
AcDbEntity
  8
0
  6
Continuous
 62
     1
370
    15
100
AcDbLine
 10
50.00000000000001
 20
0.0000000000000098
 30
0.0
 11
50.00000000000001
 21
-0.8017288380889245
 31
0.0
  0
SPLINE
  5
C1
330
1F
100
AcDbEntity
  8
0
  6
Continuous
 62
     1
370
    15
100
AcDbSpline
210
0.0
220
0.0
230
1.0
 70
     8
 71
     3
 72
    10
 73
     6
 74
     0
 42
0.000000001
 43
0.00000001
 40
0.0
 40
0.0
 40
0.0
 40
0.0
 40
0.5
 40
0.5
 40
1.0
 40
1.0
 40
1.0
 40
1.0
 10
50.00000000000001
 20
-0.8017288380889247
 30
0.0
 10
49.67858102588963
 20
-0.5490379441585875
 30
0.0
 10
49.36253412376323
 20
-0.2859827532156685
 30
0.0
 10
48.741452432363
 20
0.2613732129960809
 30
0.0
 10
48.43352622597774
 20
0.5485583873743762
 30
0.0
 10
48.14323596822351
 20
0.8396782644369782
 30
0.0
  0
SPLINE
  5
C2
330
1F
100
AcDbEntity
  8
0
  6
Continuous
 62
     1
370
    15
100
AcDbSpline
210
0.0
220
0.0
230
1.0
 70
     8
 71
     3
 72
    23
 73
    19
 74
     0
 42
0.000000001
 43
0.00000001
 40
0.0
 40
0.0
 40
0.0
 40
0.0
 40
0.0018475808946647
 40
0.0700401534944781
 40
0.1382294075545124
 40
0.2064168216776154
 40
0.2746038767210495
 40
0.3427920539821955
 40
0.4109828333831121
 40
0.4791776916586684
 40
0.5473781005529573
 40
0.6155855250286549
 40
0.6838014214939353
 40
0.752027236051473
 40
0.8202612058206395
 40
0.8884866972257129
 40
0.9567023143915309
 40
1.0
 40
1.0
 40
1.0
 40
1.0
 10
43.64450408894767
 20
-2.254555508173494
 30
0.0
 10
43.63296579150702
 20
-2.256949638829426
 30
0.0
 10
43.1955591663672
 20
-2.347709009156059
 30
0.0
 10
42.33231660332977
 20
-2.403599733644959
 30
0.0
 10
41.05478426594311
 20
-2.39945301358668
 30
0.0
 10
39.77729252203217
 20
-2.235478324013564
 30
0.0
 10
38.49980797882827
 20
-1.941159544653156
 30
0.0
 10
37.22229973909995
 20
-1.528944021680968
 30
0.0
 10
35.94473626165934
 20
-1.025032781956984
 30
0.0
 10
34.66708626610811
 20
-0.4593602404627226
 30
0.0
 10
33.38931849099394
 20
0.1339562147516967
 30
0.0
 10
32.11140199305047
 20
0.7192107544139144
 30
0.0
 10
30.8333054268436
 20
1.261323725418533
 30
0.0
 10
29.55501982628117
 20
1.727122724559631
 30
0.0
 10
28.27664108485688
 20
2.090533751865111
 30
0.0
 10
26.9983608663693
 20
2.322250126977717
 30
0.0
 10
25.87583554857872
 20
2.422355112297137
 30
0.0
 10
25.1794142736795
 20
2.382537512374305
 30
0.0
 10
24.9090121901481
 20
2.36707738447699
 30
0.0
  0
LINE
  5
C3
330
1F
100
AcDbEntity
  8
0
  6
Continuous
 62
     1
370
    15
100
AcDbLine
 10
11.00963618592502
 20
-2.226529757417069
 30
0.0
 11
10.0
 21
-2.370889863347403
 31
0.0
  0
SPLINE
  5
C4
330
1F
100
AcDbEntity
  8
0
  6
Continuous
 62
     1
370
    15
100
AcDbSpline
210
0.0
220
0.0
230
1.0
 70
     8
 71
     3
 72
    13
 73
     9
 74
     0
 42
0.000000001
 43
0.00000001
 40
0.0
 40
0.0
 40
0.0
 40
0.0
 40
0.101300799182722
 40
0.2862815091934273
 40
0.4712412759437436
 40
0.6561840615813049
 40
0.8411138489818261
 40
1.0
 40
1.0
 40
1.0
 40
1.0
 10
48.1432359673214
 20
0.839678264834727
 30
0.0
 10
47.90996042502592
 20
0.9389106083314465
 30
0.0
 10
47.25071119061658
 20
1.219346550458612
 30
0.0
 10
46.16544944669467
 20
1.63023349077407
 30
0.0
 10
44.88762217608253
 20
2.019150748100318
 30
0.0
 10
43.60991673864125
 20
2.282175982948849
 30
0.0
 10
42.39226908309282
 20
2.415694562475281
 30
0.0
 10
41.60052083877419
 20
2.387937481509759
 30
0.0
 10
41.23463369667787
 20
2.375110223476302
 30
0.0
  0
SPLINE
  5
C5
330
1F
100
AcDbEntity
  8
0
  6
Continuous
 62
     1
370
    15
100
AcDbSpline
210
0.0
220
0.0
230
1.0
 70
     8
 71
     3
 72
    21
 73
    17
 74
     0
 42
0.000000001
 43
0.00000001
 40
0.0
 40
0.0
 40
0.0
 40
0.0
 40
0.0189018950164596
 40
0.0926693184706871
 40
0.1664276282216926
 40
0.2401783995187842
 40
0.3139232168039514
 40
0.3876636717938209
 40
0.4614013615427847
 40
0.5351378864922778
 40
0.608874848511259
 40
0.6826138489329792
 40
0.7563564865931429
 40
0.8301043558745631
 40
0.9038590447633702
 40
1.0
 40
1.0
 40
1.0
 40
1.0
 10
27.32579984017488
 20
-2.242678152592136
 30
0.0
 10
27.21663387422792
 20
-2.263718314683291
 30
0.0
 10
26.68143168123676
 20
-2.366870801764739
 30
0.0
 10
25.72027103734236
 20
-2.415743140097877
 30
0.0
 10
24.44235782341398
 20
-2.374817952995822
 30
0.0
 10
23.16459454809742
 20
-2.180426691223301
 30
0.0
 10
21.88694752748091
 20
-1.8576826434048
 30
0.0
 10
20.60938622008574
 20
-1.422421544119734
 30
0.0
 10
19.33187918248517
 20
-0.9017890681810117
 30
0.0
 10
18.05439478948439
 20
-0.3268681055832356
 30
0.0
 10
16.77690263388937
 20
0.2677642495138499
 30
0.0
 10
15.49936744497274
 20
0.8460744663447026
 30
0.0
 10
14.22177225413206
 20
1.374322754807934
 30
0.0
 10
12.94403204502653
 20
1.816790445496677
 30
0.0
 10
11.53709351541925
 20
2.196412909216171
 30
0.0
 10
10.55547860412738
 20
2.307836956051279
 30
0.0
 10
9.999999999999998
 20
2.370889863347413
 30
0.0
  0
SPLINE
  5
C6
330
1F
100
AcDbEntity
  8
0
  6
Continuous
 62
     1
370
    15
100
AcDbSpline
210
0.0
220
0.0
230
1.0
 70
    24
 71
     3
 72
    10
 73
     6
 74
     0
 42
0.000000001
 43
0.00000001
 40
0.0
 40
0.0
 40
0.0
 40
0.0
 40
0.5
 40
0.5
 40
1.0
 40
1.0
 40
1.0
 40
1.0
 10
50.00000000000001
 20
-2.366916793104637
 30
0.0
 10
49.99999999999999
 20
-2.185474167011404
 30
0.0
 10
50.00000000000001
 20
-1.956214451719396
 30
0.0
 10
49.99999999999999
 20
-1.423207677452031
 30
0.0
 10
50.00000000000001
 20
-1.11992232915392
 30
0.0
 10
50.00000000000001
 20
-0.8017288380890204
 30
0.0
  0
SPLINE
  5
C7
330
1F
100
AcDbEntity
  8
0
  6
Continuous
 62
   131
370
    15
100
AcDbSpline
210
0.0
220
0.0
230
1.0
 70
    24
 71
     3
 72
    10
 73
     6
 74
     0
 42
0.000000001
 43
0.00000001
 40
0.0
 40
0.0
 40
0.0
 40
0.0
 40
0.5
 40
0.5
 40
1.0
 40
1.0
 40
1.0
 40
1.0
 10
9.999999999999998
 20
2.370889863347413
 30
0.0
 10
9.999999999999998
 20
2.246687476796946
 30
0.0
 10
9.999999999999998
 20
2.018126176846186
 30
0.0
 10
10.0
 20
1.388539426413594
 30
0.0
 10
9.999999999999998
 20
0.9902239634283605
 30
0.0
 10
10.0
 20
0.5697525257060294
 30
0.0
  0
SPLINE
  5
C8
330
1F
100
AcDbEntity
  8
0
  6
Continuous
 62
   131
370
    15
100
AcDbSpline
210
0.0
220
0.0
230
1.0
 70
    24
 71
     3
 72
    13
 73
     9
 74
     0
 42
0.000000001
 43
0.00000001
 40
0.0
 40
0.0
 40
0.0
 40
0.0
 40
0.1412605887374669
 40
0.3156911750693518
 40
0.4852058250675506
 40
0.6596364113994355
 40
0.8274365661168691
 40
1.0
 40
1.0
 40
1.0
 40
1.0
 10
10.0
 20
-0.4081948631238133
 30
0.0
 10
9.999999999999998
 20
-0.5473878139691226
 30
0.0
 10
9.999999999999998
 20
-0.858458202436726
 30
0.0
 10
9.999999999999998
 20
-1.282412523287092
 30
0.0
 10
10.0
 20
-1.678224535296511
 30
0.0
 10
9.999999999999998
 20
-1.994628380373503
 30
0.0
 10
10.0
 20
-2.238851793807862
 30
0.0
 10
10.0
 20
-2.326468451169286
 30
0.0
 10
9.999999999999998
 20
-2.370889863347403
 30
0.0
  0
SPLINE
  5
C9
330
1F
100
AcDbEntity
  8
0
  6
Continuous
 62
     1
370
    15
100
AcDbSpline
210
0.0
220
0.0
230
1.0
 70
     8
 71
     3
 72
    10
 73
     6
 74
     0
 42
0.000000001
 43
0.00000001
 40
0.0
 40
0.0
 40
0.0
 40
0.0
 40
0.5
 40
0.5
 40
1.0
 40
1.0
 40
1.0
 40
1.0
 10
50.00000000000001
 20
2.100000000000009
 30
0.0
 10
49.62668070767047
 20
1.99868209403282
 30
0.0
 10
49.25615379955178
 20
1.882604047883012
 30
0.0
 10
48.52150500180385
 20
1.616591951667599
 30
0.0
 10
48.1572293506107
 20
1.467297855402135
 30
0.0
 10
47.80039515848423
 20
1.29236437857902
 30
0.0
  0
LINE
  5
CA
330
1F
100
AcDbEntity
  8
0
  6
Continuous
 62
     1
370
    15
100
AcDbLine
 10
50.00000000000001
 20
0.0000000000000098
 30
0.0
 11
50.00000000000001
 21
2.100000000000009
 31
0.0
  0
LINE
  5
CB
330
1F
100
AcDbEntity
  8
0
  6
Continuous
 62
   131
370
    15
100
AcDbLine
 10
9.899071671268997
 20
-0.2854440155088848
 30
0.0
 11
9.110066904010504
 21
0.0322603149607362
 31
0.0
  0
SPLINE
  5
CC
330
1F
100
AcDbEntity
  8
0
  6
Continuous
 62
   131
370
    15
100
AcDbSpline
210
0.0
220
0.0
230
1.0
 70
     8
 71
     3
 72
     8
 73
     4
 74
     0
 42
0.000000001
 43
0.00000001
 40
0.0
 40
0.0
 40
0.0
 40
0.0
 40
1.0
 40
1.0
 40
1.0
 40
1.0
 10
9.999999999999963
 20
-0.3436204609039337
 30
0.0
 10
9.70220579133327
 20
-0.1732545158104361
 30
0.0
 10
9.40501466235723
 20
-0.001320383183225
 30
0.0
 10
9.110053439525942
 20
0.1693566995317216
 30
0.0
  0
SPLINE
  5
CD
330
1F
100
AcDbEntity
  8
0
  6
Continuous
 62
   131
370
    15
100
AcDbSpline
210
0.0
220
0.0
230
1.0
 70
     8
 71
     3
 72
     8
 73
     4
 74
     0
 42
0.000000001
 43
0.00000001
 40
0.0
 40
0.0
 40
0.0
 40
0.0
 40
1.0
 40
1.0
 40
1.0
 40
1.0
 10
9.99999999999997
 20
0.4928337868214723
 30
0.0
 10
9.702224580595718
 20
0.6619878198795122
 30
0.0
 10
9.405051330144524
 20
0.8285964308217837
 30
0.0
 10
9.110109271021
 20
0.9899601945783072
 30
0.0
  0
LINE
  5
CE
330
1F
100
AcDbEntity
  8
0
  6
Continuous
 62
   131
370
    15
100
AcDbLine
 10
9.110053439525942
 20
-2.999999999999996
 30
0.0
 11
9.110053439525942
 21
0.1701469351609732
 31
0.0
  0
LINE
  5
CF
330
1F
100
AcDbEntity
  8
0
  6
Continuous
 62
   131
370
    15
100
AcDbLine
 10
9.110053439525942
 20
0.9900815633670073
 30
0.0
 11
9.110053439525942
 21
3.000000000000005
 31
0.0
  0
LINE
  5
D0
330
1F
100
AcDbEntity
  8
0
  6
Continuous
 62
   131
370
    15
100
AcDbLine
 10
-69.44999999999999
 20
2.999999999999996
 30
0.0
 11
-69.44999999999999
 21
-3.0
 31
0.0
  0
LINE
  5
D1
330
1F
100
AcDbEntity
  8
0
  6
Continuous
 62
   131
370
    15
100
AcDbLine
 10
-70.0
 20
2.449999999999995
 30
0.0
 11
-70.0
 21
-2.449999999999994
 31
0.0
  0
LINE
  5
D2
330
1F
100
AcDbEntity
  8
0
  6
Continuous
 62
   131
370
    15
100
AcDbLine
 10
9.110053439525942
 20
0.9878607030052422
 30
0.0
 11
9.110053439525942
 21
0.9900797863417992
 31
0.0
  0
LINE
  5
D3
330
1F
100
AcDbEntity
  8
0
  6
Continuous
 62
   131
370
    15
100
AcDbLine
 10
10.0
 20
0.5697525257060294
 30
0.0
 11
9.550903586663043
 21
0.7793237404144842
 31
0.0
  0
SPLINE
  5
D4
330
1F
100
AcDbEntity
  8
0
  6
Continuous
 62
   131
370
    15
100
AcDbSpline
210
0.0
220
0.0
230
1.0
 70
    24
 71
     3
 72
     8
 73
     4
 74
     0
 42
0.000000001
 43
0.00000001
 40
0.0
 40
0.0
 40
0.0
 40
0.0
 40
1.0
 40
1.0
 40
1.0
 40
1.0
 10
10.00000000000026
 20
0.5697525257059046
 30
0.0
 10
10.00000000000026
 20
0.5568535698355126
 30
0.0
 10
10.00000000000026
 20
0.5311057380710458
 30
0.0
 10
10.00000000000026
 20
0.4928337868237389
 30
0.0
  0
SPLINE
  5
D5
330
1F
100
AcDbEntity
  8
0
  6
Continuous
 62
   131
370
    15
100
AcDbSpline
210
0.0
220
0.0
230
1.0
 70
     8
 71
     3
 72
     8
 73
     4
 74
     0
 42
0.000000001
 43
0.00000001
 40
0.0
 40
0.0
 40
0.0
 40
0.0
 40
1.0
 40
1.0
 40
1.0
 40
1.0
 10
9.999999999999941
 20
2.370889863347417
 30
0.0
 10
9.702212658194178
 20
2.392192876697027
 30
0.0
 10
9.405028063244176
 20
2.401817520060532
 30
0.0
 10
9.110073844123562
 20
2.399716841449127
 30
0.0
  0
SPLINE
  5
D6
330
1F
100
AcDbEntity
  8
0
  6
Continuous
 62
   131
370
    15
100
AcDbSpline
210
0.0
220
0.0
230
1.0
 70
    24
 71
     3
 72
    10
 73
     6
 74
     0
 42
0.000000001
 43
0.00000001
 40
0.0
 40
0.0
 40
0.0
 40
0.0
 40
0.5
 40
0.5
 40
1.0
 40
1.0
 40
1.0
 40
1.0
 10
9.999999999999998
 20
2.370889863347413
 30
0.0
 10
9.999999999999998
 20
2.246687476796946
 30
0.0
 10
9.999999999999998
 20
2.018126176846186
 30
0.0
 10
10.0
 20
1.388539426413594
 30
0.0
 10
9.999999999999998
 20
0.9902239634283605
 30
0.0
 10
10.0
 20
0.5697525257060294
 30
0.0
  0
SPLINE
  5
D7
330
1F
100
AcDbEntity
  8
0
  6
Continuous
 62
   131
370
    15
100
AcDbSpline
210
0.0
220
0.0
230
1.0
 70
     8
 71
     3
 72
     8
 73
     4
 74
     0
 42
0.000000001
 43
0.00000001
 40
0.0
 40
0.0
 40
0.0
 40
0.0
 40
1.0
 40
1.0
 40
1.0
 40
1.0
 10
9.999999999999941
 20
-2.370889863347408
 30
0.0
 10
9.702212658194178
 20
-2.392192876697017
 30
0.0
 10
9.405028063244176
 20
-2.401817520060523
 30
0.0
 10
9.110073844123562
 20
-2.399716841449118
 30
0.0
  0
SPLINE
  5
D8
330
1F
100
AcDbEntity
  8
0
  6
Continuous
 62
   131
370
    15
100
AcDbSpline
210
0.0
220
0.0
230
1.0
 70
    24
 71
     3
 72
    13
 73
     9
 74
     0
 42
0.000000001
 43
0.00000001
 40
0.0
 40
0.0
 40
0.0
 40
0.0
 40
0.1412605887374671
 40
0.315691175069352
 40
0.4852058250675507
 40
0.6596364113994355
 40
0.8274365661168692
 40
1.0
 40
1.0
 40
1.0
 40
1.0
 10
10.0
 20
-0.4081948631238133
 30
0.0
 10
9.999999999999998
 20
-0.5473878139691228
 30
0.0
 10
9.999999999999998
 20
-0.8584582024367262
 30
0.0
 10
9.999999999999998
 20
-1.282412523287092
 30
0.0
 10
10.0
 20
-1.67822453529651
 30
0.0
 10
9.999999999999998
 20
-1.994628380373503
 30
0.0
 10
10.0
 20
-2.238851793807862
 30
0.0
 10
10.0
 20
-2.326468451169286
 30
0.0
 10
9.999999999999998
 20
-2.370889863347403
 30
0.0
  0
LINE
  5
D9
330
1F
100
AcDbEntity
  8
중심선
100
AcDbLine
 10
-73.0
 20
0.0
 30
0.0
 11
53.00000000000001
 21
0.0000000000000101
 31
0.0
  0
CIRCLE
  5
DA
330
1F
100
AcDbEntity
  8
외형선
100
AcDbCircle
 10
0.0000000000000104
 20
0.0
 30
0.0
 40
3.000000000000005
  0
INSERT
  5
DB
330
1F
100
AcDbEntity
  8
0
  6
Continuous
 62
     7
100
AcDbBlockReference
 66
     1
  2
블럭10
 10
-22.93944368806589
 20
-52.04609937292004
 30
0.0
  0
ATTRIB
  5
DC
330
DB
100
AcDbEntity
  8
FORMAT
 62
     2
100
AcDbText
 10
-43.79769121965843
 20
-49.97073246008785
 30
0.0
 40
4.233333333333333
  1
SEME7006040120E [ 2 FLUTE ]
 41
0.75
  7
SLDTEXTSTYLE0
 11
-43.79769121965843
 21
-52.08739912675452
 31
0.0
100
AcDbAttribute
  2
AUTOATTR0
 70
     0
 74
     1
  0
SEQEND
  5
DD
330
DB
100
AcDbEntity
  8
0
  6
Continuous
 62
     7
  0
HATCH
  5
DE
330
1F
100
AcDbEntity
  8
중심선
100
AcDbHatch
 10
0.0
 20
0.0
 30
0.0
210
0.0
220
0.0
230
1.0
  2
SOLID
 70
     1
 71
     0
 91
        1
 92
        0
 93
        4
 72
     1
 10
-17.22453438368504
 20
-35.7989250712761
 11
-20.67080962752232
 21
-35.7989250712761
 72
     1
 10
-20.67080962752232
 20
-35.7989250712761
 11
-22.79903948672635
 21
-38.3352506518487
 72
     1
 10
-22.79903948672635
 20
-38.3352506518487
 11
-19.35273115777591
 21
-38.33521122254621
 72
     1
 10
-19.35273115777591
 20
-38.33521122254621
 11
-17.22453438368504
 21
-35.7989250712761
 97
        0
 75
     0
 76
     1
 98
        1
 10
0.0
 20
0.0
  0
HATCH
  5
DF
330
1F
100
AcDbEntity
  8
중심선
100
AcDbHatch
 10
0.0
 20
0.0
 30
0.0
210
0.0
220
0.0
230
1.0
  2
SOLID
 70
     1
 71
     0
 91
        1
 92
        0
 93
        4
 72
     1
 10
-12.21177039264909
 20
-35.7989250712761
 11
-15.65804563648637
 21
-35.7989250712761
 72
     1
 10
-15.65804563648637
 20
-35.7989250712761
 11
-20.18918364484376
 21
-41.19892507127612
 72
     1
 10
-20.18918364484376
 20
-41.19892507127612
 11
-16.74290840100648
 21
-41.19892507127612
 72
     1
 10
-16.74290840100648
 20
-41.19892507127612
 11
-12.21177039264909
 21
-35.7989250712761
 97
        0
 75
     0
 76
     1
 98
        1
 10
0.0
 20
0.0
  0
HATCH
  5
E0
330
1F
100
AcDbEntity
  8
중심선
100
AcDbHatch
 10
0.0
 20
0.0
 30
0.0
210
0.0
220
0.0
230
1.0
  2
SOLID
 70
     1
 71
     0
 91
        1
 92
        0
 93
        4
 72
     1
 10
-7.199006401613195
 20
-35.79892507127613
 11
-10.64528164545031
 21
-35.7989250712761
 72
     1
 10
-10.64528164545031
 20
-35.7989250712761
 11
-17.69371854733956
 21
-44.19892507127612
 72
     1
 10
-17.69371854733956
 20
-44.19892507127612
 11
-14.24744330350228
 21
-44.19892507127612
 72
     1
 10
-14.24744330350228
 20
-44.19892507127612
 11
-7.199006401613195
 21
-35.79892507127613
 97
        0
 75
     0
 76
     1
 98
        1
 10
0.0
 20
0.0
  0
HATCH
  5
E1
330
1F
100
AcDbEntity
  8
중심선
100
AcDbHatch
 10
0.0
 20
0.0
 30
0.0
210
0.0
220
0.0
230
1.0
  2
SOLID
 70
     1
 71
     0
 91
        1
 92
        0
 93
        6
 72
     3
 10
-2.399115970600996
 20
-39.99892507132738
 11
3.960054785062284
 21
1.540850780301639E-10
 40
0.3939339440162633
 50
17.09539180608433
 51
320.0019657685079
 73
     0
 72
     1
 10
-0.7161163149004002
 20
-38.58681907591441
 11
1.589185558800638
 21
-36.65249236586649
 72
     3
 10
-2.399115970653842
 20
-39.99892507127625
 11
6.600054785286829
 21
-1.249000902703301E-13
 40
0.6363583540795982
 50
39.99873849337408
 51
368.4976242363725
 73
     1
 72
     1
 10
4.026216521246767
 20
-39.03892507120613
 11
-3.71904866381792
 21
-39.0389250712061
 72
     1
 10
-3.71904866381792
 20
-39.0389250712061
 11
-3.719073708263854
 21
-40.95892507120602
 72
     1
 10
-3.719073708263854
 20
-40.95892507120602
 11
0.7223060612081831
 21
-40.95892507120599
 97
        0
 75
     0
 76
     1
 98
        1
 10
0.0
 20
0.0
  0
DIMENSION
  5
E2
330
1F
100
AcDbEntity
  8
치수문자_일반주서
100
AcDbDimension
  2
_D
 10
62.35638892549046
 20
3.000000000000197
 30
0.0
 11
62.35638892549043
 21
12.6665000000002
 31
0.0
 70
   160
  1
%%c<>
 71
     2
 42
5.999999999999995
 52
-270.0
  3
SLDDIMSTYLE0
100
AcDbAlignedDimension
 13
50.0
 23
-2.999999999999845
 33
0.0
 14
50.0
 24
3.000000000000151
 34
0.0
 50
90.0000000000002
100
AcDbRotatedDimension
  0
DIMENSION
  5
F0
330
1F
100
AcDbEntity
  8
치수문자_일반주서
100
AcDbDimension
  2
_D_1
 10
50.0
 20
24.23841044024269
 30
0.0
 11
-9.99999999999999
 21
24.23841044024269
 31
0.0
 70
   160
  1
<>
 71
     2
 42
120.0
  3
SLDDIMSTYLE1
100
AcDbAlignedDimension
 13
-70.0
 23
2.449999999999995
 33
0.0
 14
50.0
 24
3.000000000000151
 34
0.0
 50
-0.0000000000000034
100
AcDbRotatedDimension
  0
DIMENSION
  5
FB
330
1F
100
AcDbEntity
  8
치수문자_일반주서
100
AcDbDimension
  2
_D_2
 10
50.0
 20
15.71788766951493
 30
0.0
 11
30.00000000000001
 21
15.71788766951493
 31
0.0
 70
   160
  1
<>
 71
     2
 42
40.0
  3
SLDDIMSTYLE1
100
AcDbAlignedDimension
 13
10.0
 23
2.370889863347412
 33
0.0
 14
50.0
 24
3.000000000000151
 34
0.0
100
AcDbRotatedDimension
  0
DIMENSION
  5
105
330
1F
100
AcDbEntity
  8
치수문자_일반주서
100
AcDbDimension
  2
_D_3
 10
-81.36875424680993
 20
-3.000000000000041
 30
0.0
 11
-81.36875424680997
 21
12.66649999999995
 31
0.0
 70
   160
  1
%%c<>
 71
     2
 42
5.999999999999993
 52
-270.0
  3
SLDDIMSTYLE0
100
AcDbAlignedDimension
 13
-69.44999999999999
 23
2.999999999999996
 33
0.0
 14
-69.44999999999999
 24
-2.999999999999996
 34
0.0
 50
90.0000000000002
100
AcDbRotatedDimension
  0
INSERT
  5
118
330
1F
100
AcDbEntity
  8
외형선
100
AcDbBlockReference
  2
SW_DOWELSYMBOL_0
 10
0.0000000000000104
 20
0.0
 30
0.0
  0
ENDSEC
  0
SECTION
  2
OBJECTS
  0
DICTIONARY
  5
C
330
0
100
AcDbDictionary
281
     1
  3
ACAD_GROUP
350
D
  3
ACAD_IMAGE_VARS
350
13C
  3
ACAD_LAYOUT
350
1A
  3
ACAD_MLINESTYLE
350
17
  3
ACAD_PLOTSETTINGS
350
19
  3
ACAD_PLOTSTYLENAME
350
E
  3
ACAD_SCALELIST
350
47
  3
APPDATA
350
13A
  3
DWGPROPS
350
14B
  0
DICTIONARY
  5
D
102
{ACAD_REACTORS
330
C
102
}
330
C
100
AcDbDictionary
281
     1
  0
RASTERVARIABLES
  5
13C
102
{ACAD_REACTORS
330
C
102
}
330
C
100
AcDbRasterVariables
 90
        0
 70
     1
 71
     1
 72
     1
  0
DICTIONARY
  5
1A
102
{ACAD_REACTORS
330
C
102
}
330
C
100
AcDbDictionary
281
     1
  3
Layout1
350
1E
  3
Layout2
350
26
  3
Model
350
22
  0
DICTIONARY
  5
17
102
{ACAD_REACTORS
330
C
102
}
330
C
100
AcDbDictionary
281
     1
  3
Standard
350
18
  0
DICTIONARY
  5
19
102
{ACAD_REACTORS
330
C
102
}
330
C
100
AcDbDictionary
281
     1
  0
ACDBDICTIONARYWDFLT
  5
E
102
{ACAD_REACTORS
330
C
102
}
330
C
100
AcDbDictionary
281
     1
  3
Normal
350
F
100
AcDbDictionaryWithDefault
340
F
  0
DICTIONARY
  5
47
102
{ACAD_REACTORS
330
C
102
}
330
C
100
AcDbDictionary
281
     1
  3
A0
350
48
  3
A1
350
49
  3
A2
350
4A
  3
A3
350
4B
  3
A4
350
4C
  3
A5
350
4D
  3
A6
350
4E
  3
A7
350
4F
  3
A8
350
50
  3
A9
350
51
  3
B0
350
52
  3
B1
350
53
  3
B2
350
54
  3
B3
350
55
  3
B4
350
56
  3
B5
350
57
  3
B6
350
58
  3
B7
350
59
  3
B8
350
5A
  3
B9
350
5B
  3
C0
350
5C
  3
C1
350
5D
  3
C2
350
5E
  3
C3
350
5F
  3
C4
350
60
  3
C5
350
61
  3
C6
350
62
  3
C7
350
63
  3
C8
350
64
  3
C9
350
65
  3
D0
350
66
  3
D1
350
67
  3
D2
350
68
  0
DICTIONARY
  5
13A
102
{ACAD_REACTORS
330
C
102
}
330
C
100
AcDbDictionary
281
     1
  0
XRECORD
  5
14B
102
{ACAD_REACTORS
330
C
102
}
330
C
100
AcDbXrecord
280
     1
  1
DWGPROPS COOKIE
  2

  3

  4

  6

  7

  8
12014102
  9

300
=
301
=
302
=
303
=
304
=
305
=
306
=
307
=
308
=
309
=
 40
0.0
 41
2458262.16748066
 42
2458266.289676528
  1

 90
        0
  0
LAYOUT
  5
1E
102
{ACAD_REACTORS
330
1A
102
}
330
1A
100
AcDbPlotSettings
  1

  2
none_device
  4

  6

 40
0.0
 41
0.0
 42
0.0
 43
0.0
 44
0.0
 45
0.0
 46
0.0
 47
0.0
 48
0.0
 49
0.0
140
0.0
141
0.0
142
1.0
143
1.0
 70
   688
 72
     1
 73
     0
 74
     5
  7

 75
    16
147
1.0
148
0.0
149
0.0
100
AcDbLayout
  1
Layout1
 70
     1
 71
     1
 10
0.0
 20
0.0
 11
420.0
 21
297.0
 12
0.0
 22
0.0
 32
0.0
 14
1.000000000000000E+20
 24
1.000000000000000E+20
 34
1.000000000000000E+20
 15
-1.000000000000000E+20
 25
-1.000000000000000E+20
 35
-1.000000000000000E+20
146
0.0
 13
0.0
 23
0.0
 33
0.0
 16
1.0
 26
0.0
 36
0.0
 17
0.0
 27
1.0
 37
0.0
 76
     0
330
1B
  0
LAYOUT
  5
26
102
{ACAD_REACTORS
330
1A
102
}
330
1A
100
AcDbPlotSettings
  1

  2
none_device
  4

  6

 40
0.0
 41
0.0
 42
0.0
 43
0.0
 44
0.0
 45
0.0
 46
0.0
 47
0.0
 48
0.0
 49
0.0
140
0.0
141
0.0
142
1.0
143
1.0
 70
   688
 72
     1
 73
     0
 74
     5
  7

 75
    16
147
1.0
148
0.0
149
0.0
100
AcDbLayout
  1
Layout2
 70
     1
 71
     2
 10
0.0
 20
0.0
 11
0.0
 21
0.0
 12
0.0
 22
0.0
 32
0.0
 14
0.0
 24
0.0
 34
0.0
 15
0.0
 25
0.0
 35
0.0
146
0.0
 13
0.0
 23
0.0
 33
0.0
 16
1.0
 26
0.0
 36
0.0
 17
0.0
 27
1.0
 37
0.0
 76
     0
330
23
  0
LAYOUT
  5
22
102
{ACAD_REACTORS
330
1A
102
}
330
1A
100
AcDbPlotSettings
  1

  2
none_device
  4
ANSI_A_(11.00_x_8.50_Inches)
  6

 40
6.35
 41
19.05
 42
6.35000508
 43
19.05000254
 44
279.4
 45
215.9
 46
160.2120891506678
 47
111.1516836573752
 48
0.0
 49
0.0
140
0.0
141
0.0
142
0.0797734011779904
143
1.0
 70
  1696
 72
     0
 73
     0
 74
     0
  7

 75
     0
147
0.0235690232323232
148
0.0
149
0.0
100
AcDbLayout
  1
Model
 70
     1
 71
     0
 10
0.0
 20
0.0
 11
420.0
 21
297.0
 12
0.0
 22
0.0
 32
0.0
 14
-85.74375424680997
 24
-49.97073246008785
 34
0.0
 15
62.90672225882383
 25
28.61341044024269
 35
0.0
146
0.0
 13
0.0
 23
0.0
 33
0.0
 16
1.0
 26
0.0
 36
0.0
 17
0.0
 27
1.0
 37
0.0
 76
     0
330
1F
331
29
  0
MLINESTYLE
  5
18
102
{ACAD_REACTORS
330
17
102
}
330
17
100
AcDbMlineStyle
  2
Standard
 70
     0
  3

 62
   256
 51
90.0
 52
90.0
 71
     2
 49
0.5
 62
   256
  6
BYLAYER
 49
-0.5
 62
   256
  6
BYLAYER
  0
ACDBPLACEHOLDER
  5
F
102
{ACAD_REACTORS
330
E
102
}
330
E
  0
SCALE
  5
48
102
{ACAD_REACTORS
330
47
102
}
330
47
100
AcDbScale
 70
     0
300
1:1
140
1.0
141
1.0
290
     1
  0
SCALE
  5
49
102
{ACAD_REACTORS
330
47
102
}
330
47
100
AcDbScale
 70
     0
300
1:2
140
1.0
141
2.0
290
     0
  0
SCALE
  5
4A
102
{ACAD_REACTORS
330
47
102
}
330
47
100
AcDbScale
 70
     0
300
1:4
140
1.0
141
4.0
290
     0
  0
SCALE
  5
4B
102
{ACAD_REACTORS
330
47
102
}
330
47
100
AcDbScale
 70
     0
300
1:5
140
1.0
141
5.0
290
     0
  0
SCALE
  5
4C
102
{ACAD_REACTORS
330
47
102
}
330
47
100
AcDbScale
 70
     0
300
1:8
140
1.0
141
8.0
290
     0
  0
SCALE
  5
4D
102
{ACAD_REACTORS
330
47
102
}
330
47
100
AcDbScale
 70
     0
300
1:10
140
1.0
141
10.0
290
     0
  0
SCALE
  5
4E
102
{ACAD_REACTORS
330
47
102
}
330
47
100
AcDbScale
 70
     0
300
1:16
140
1.0
141
16.0
290
     0
  0
SCALE
  5
4F
102
{ACAD_REACTORS
330
47
102
}
330
47
100
AcDbScale
 70
     0
300
1:20
140
1.0
141
20.0
290
     0
  0
SCALE
  5
50
102
{ACAD_REACTORS
330
47
102
}
330
47
100
AcDbScale
 70
     0
300
1:30
140
1.0
141
30.0
290
     0
  0
SCALE
  5
51
102
{ACAD_REACTORS
330
47
102
}
330
47
100
AcDbScale
 70
     0
300
1:40
140
1.0
141
40.0
290
     0
  0
SCALE
  5
52
102
{ACAD_REACTORS
330
47
102
}
330
47
100
AcDbScale
 70
     0
300
1:50
140
1.0
141
50.0
290
     0
  0
SCALE
  5
53
102
{ACAD_REACTORS
330
47
102
}
330
47
100
AcDbScale
 70
     0
300
1:100
140
1.0
141
100.0
290
     0
  0
SCALE
  5
54
102
{ACAD_REACTORS
330
47
102
}
330
47
100
AcDbScale
 70
     0
300
2:1
140
2.0
141
1.0
290
     0
  0
SCALE
  5
55
102
{ACAD_REACTORS
330
47
102
}
330
47
100
AcDbScale
 70
     0
300
4:1
140
4.0
141
1.0
290
     0
  0
SCALE
  5
56
102
{ACAD_REACTORS
330
47
102
}
330
47
100
AcDbScale
 70
     0
300
8:1
140
8.0
141
1.0
290
     0
  0
SCALE
  5
57
102
{ACAD_REACTORS
330
47
102
}
330
47
100
AcDbScale
 70
     0
300
10:1
140
10.0
141
1.0
290
     0
  0
SCALE
  5
58
102
{ACAD_REACTORS
330
47
102
}
330
47
100
AcDbScale
 70
     0
300
100:1
140
100.0
141
1.0
290
     0
  0
SCALE
  5
59
102
{ACAD_REACTORS
330
47
102
}
330
47
100
AcDbScale
 70
     0
300
1/128" = 1'-0"
140
0.0078125
141
12.0
290
     0
  0
SCALE
  5
5A
102
{ACAD_REACTORS
330
47
102
}
330
47
100
AcDbScale
 70
     0
300
1/64" = 1'-0"
140
0.015625
141
12.0
290
     0
  0
SCALE
  5
5B
102
{ACAD_REACTORS
330
47
102
}
330
47
100
AcDbScale
 70
     0
300
1/32" = 1'-0"
140
0.03125
141
12.0
290
     0
  0
SCALE
  5
5C
102
{ACAD_REACTORS
330
47
102
}
330
47
100
AcDbScale
 70
     0
300
1/16" = 1'-0"
140
0.0625
141
12.0
290
     0
  0
SCALE
  5
5D
102
{ACAD_REACTORS
330
47
102
}
330
47
100
AcDbScale
 70
     0
300
3/32" = 1'-0"
140
0.09375
141
12.0
290
     0
  0
SCALE
  5
5E
102
{ACAD_REACTORS
330
47
102
}
330
47
100
AcDbScale
 70
     0
300
1/8" = 1'-0"
140
0.125
141
12.0
290
     0
  0
SCALE
  5
5F
102
{ACAD_REACTORS
330
47
102
}
330
47
100
AcDbScale
 70
     0
300
3/16" = 1'-0"
140
0.1875
141
12.0
290
     0
  0
SCALE
  5
60
102
{ACAD_REACTORS
330
47
102
}
330
47
100
AcDbScale
 70
     0
300
1/4" = 1'-0"
140
0.25
141
12.0
290
     0
  0
SCALE
  5
61
102
{ACAD_REACTORS
330
47
102
}
330
47
100
AcDbScale
 70
     0
300
3/8" = 1'-0"
140
0.375
141
12.0
290
     0
  0
SCALE
  5
62
102
{ACAD_REACTORS
330
47
102
}
330
47
100
AcDbScale
 70
     0
300
1/2" = 1'-0"
140
0.5
141
12.0
290
     0
  0
SCALE
  5
63
102
{ACAD_REACTORS
330
47
102
}
330
47
100
AcDbScale
 70
     0
300
3/4" = 1'-0"
140
0.75
141
12.0
290
     0
  0
SCALE
  5
64
102
{ACAD_REACTORS
330
47
102
}
330
47
100
AcDbScale
 70
     0
300
1" = 1'-0"
140
1.0
141
12.0
290
     0
  0
SCALE
  5
65
102
{ACAD_REACTORS
330
47
102
}
330
47
100
AcDbScale
 70
     0
300
1-1/2" = 1'-0"
140
1.5
141
12.0
290
     0
  0
SCALE
  5
66
102
{ACAD_REACTORS
330
47
102
}
330
47
100
AcDbScale
 70
     0
300
3" = 1'-0"
140
3.0
141
12.0
290
     0
  0
SCALE
  5
67
102
{ACAD_REACTORS
330
47
102
}
330
47
100
AcDbScale
 70
     0
300
6" = 1'-0"
140
6.0
141
12.0
290
     0
  0
SCALE
  5
68
102
{ACAD_REACTORS
330
47
102
}
330
47
100
AcDbScale
 70
     0
300
1'-0" = 1'-0"
140
12.0
141
12.0
290
     0
  0
ENDSEC
  0
EOF
