  0
SECTION
  2
HEADER
  9
$ACADVER
  1
AC1015
  9
$ACADMAINTVER
 70
     6
  9
$DWGCODEPAGE
  3
ANSI_949
  9
$INSBASE
 10
0.0
 20
0.0
 30
0.0
  9
$EXTMIN
 10
-59.17026771129117
 20
-49.97073246008785
 30
0.0
  9
$EXTMAX
 10
54.47215959164865
 20
28.6134104402427
 30
0.0
  9
$LIMMIN
 10
0.0
 20
0.0
  9
$LIMMAX
 10
420.0
 20
297.0
  9
$ORTHOMODE
 70
     0
  9
$REGENMODE
 70
     1
  9
$FILLMODE
 70
     1
  9
$QTEXTMODE
 70
     0
  9
$MIRRTEXT
 70
     1
  9
$LTSCALE
 40
1.0
  9
$ATTMODE
 70
     1
  9
$TEXTSIZE
 40
3.5
  9
$TRACEWID
 40
1.0
  9
$TEXTSTYLE
  7
Standard
  9
$CLAYER
  8
0
  9
$CELTYPE
  6
ByLayer
  9
$CECOLOR
 62
   256
  9
$CELTSCALE
 40
1.0
  9
$DISPSILH
 70
     0
  9
$DIMSCALE
 40
1.0
  9
$DIMASZ
 40
3.302
  9
$DIMEXO
 40
1.0
  9
$DIMDLI
 40
3.75
  9
$DIMRND
 40
0.0
  9
$DIMDLE
 40
0.0
  9
$DIMEXE
 40
1.0
  9
$DIMTP
 40
0.0
  9
$DIMTM
 40
0.0
  9
$DIMTXT
 40
3.5
  9
$DIMCEN
 40
2.5
  9
$DIMTSZ
 40
0.0
  9
$DIMTOL
 70
     0
  9
$DIMLIM
 70
     0
  9
$DIMTIH
 70
     1
  9
$DIMTOH
 70
     1
  9
$DIMSE1
 70
     0
  9
$DIMSE2
 70
     0
  9
$DIMTAD
 70
     1
  9
$DIMZIN
 70
     0
  9
$DIMBLK
  1

  9
$DIMASO
 70
     1
  9
$DIMSHO
 70
     1
  9
$DIMPOST
  1

  9
$DIMAPOST
  1

  9
$DIMALT
 70
     0
  9
$DIMALTD
 70
     3
  9
$DIMALTF
 40
0.0393700787401575
  9
$DIMLFAC
 40
1.0
  9
$DIMTOFL
 70
     1
  9
$DIMTVP
 40
0.0
  9
$DIMTIX
 70
     0
  9
$DIMSOXD
 70
     0
  9
$DIMSAH
 70
     0
  9
$DIMBLK1
  1

  9
$DIMBLK2
  1

  9
$DIMSTYLE
  2
ISO-25
  9
$DIMCLRD
 70
     0
  9
$DIMCLRE
 70
     0
  9
$DIMCLRT
 70
     0
  9
$DIMTFAC
 40
1.0
  9
$DIMGAP
 40
1.524
  9
$DIMJUST
 70
     0
  9
$DIMSD1
 70
     0
  9
$DIMSD2
 70
     0
  9
$DIMTOLJ
 70
     0
  9
$DIMTZIN
 70
     0
  9
$DIMALTZ
 70
     0
  9
$DIMALTTZ
 70
     0
  9
$DIMUPT
 70
     0
  9
$DIMDEC
 70
     2
  9
$DIMTDEC
 70
     2
  9
$DIMALTU
 70
     2
  9
$DIMALTTD
 70
     3
  9
$DIMTXSTY
  7
Standard
  9
$DIMAUNIT
 70
     0
  9
$DIMADEC
 70
     2
  9
$DIMALTRND
 40
0.0
  9
$DIMAZIN
 70
     0
  9
$DIMDSEP
 70
    44
  9
$DIMATFIT
 70
     3
  9
$DIMFRAC
 70
     0
  9
$DIMLDRBLK
  1

  9
$DIMLUNIT
 70
     2
  9
$DIMLWD
 70
    -2
  9
$DIMLWE
 70
    -2
  9
$DIMTMOVE
 70
     0
  9
$LUNITS
 70
     2
  9
$LUPREC
 70
     2
  9
$SKETCHINC
 40
1.0
  9
$FILLETRAD
 40
10.0
  9
$AUNITS
 70
     0
  9
$AUPREC
 70
     2
  9
$MENU
  1
.
  9
$ELEVATION
 40
0.0
  9
$PELEVATION
 40
0.0
  9
$THICKNESS
 40
0.0
  9
$LIMCHECK
 70
     0
  9
$CHAMFERA
 40
0.0
  9
$CHAMFERB
 40
0.0
  9
$CHAMFERC
 40
0.0
  9
$CHAMFERD
 40
0.0
  9
$SKPOLY
 70
     0
  9
$TDCREATE
 40
2458262.542292569
  9
$TDUCREATE
 40
2458262.167292569
  9
$TDUPDATE
 40
2458266.405459942
  9
$TDUUPDATE
 40
2458266.030459942
  9
$TDINDWG
 40
0.0013960532
  9
$TDUSRTIMER
 40
2458266.029063935
  9
$USRTIMER
 70
     1
  9
$ANGBASE
 50
0.0
  9
$ANGDIR
 70
     0
  9
$PDMODE
 70
     0
  9
$PDSIZE
 40
-1.0
  9
$PLINEWID
 40
0.0
  9
$SPLFRAME
 70
     0
  9
$SPLINETYPE
 70
     6
  9
$SPLINESEGS
 70
     8
  9
$HANDSEED
  5
14B
  9
$SURFTAB1
 70
     6
  9
$SURFTAB2
 70
     6
  9
$SURFTYPE
 70
     6
  9
$SURFU
 70
     6
  9
$SURFV
 70
     6
  9
$UCSBASE
  2

  9
$UCSNAME
  2

  9
$UCSORG
 10
0.0
 20
0.0
 30
0.0
  9
$UCSXDIR
 10
1.0
 20
0.0
 30
0.0
  9
$UCSYDIR
 10
0.0
 20
1.0
 30
0.0
  9
$UCSORTHOREF
  2

  9
$UCSORTHOVIEW
 70
     0
  9
$UCSORGTOP
 10
0.0
 20
0.0
 30
0.0
  9
$UCSORGBOTTOM
 10
0.0
 20
0.0
 30
0.0
  9
$UCSORGLEFT
 10
0.0
 20
0.0
 30
0.0
  9
$UCSORGRIGHT
 10
0.0
 20
0.0
 30
0.0
  9
$UCSORGFRONT
 10
0.0
 20
0.0
 30
0.0
  9
$UCSORGBACK
 10
0.0
 20
0.0
 30
0.0
  9
$PUCSBASE
  2

  9
$PUCSNAME
  2

  9
$PUCSORG
 10
0.0
 20
0.0
 30
0.0
  9
$PUCSXDIR
 10
1.0
 20
0.0
 30
0.0
  9
$PUCSYDIR
 10
0.0
 20
1.0
 30
0.0
  9
$PUCSORTHOREF
  2

  9
$PUCSORTHOVIEW
 70
     0
  9
$PUCSORGTOP
 10
0.0
 20
0.0
 30
0.0
  9
$PUCSORGBOTTOM
 10
0.0
 20
0.0
 30
0.0
  9
$PUCSORGLEFT
 10
0.0
 20
0.0
 30
0.0
  9
$PUCSORGRIGHT
 10
0.0
 20
0.0
 30
0.0
  9
$PUCSORGFRONT
 10
0.0
 20
0.0
 30
0.0
  9
$PUCSORGBACK
 10
0.0
 20
0.0
 30
0.0
  9
$USERI1
 70
     0
  9
$USERI2
 70
     0
  9
$USERI3
 70
     0
  9
$USERI4
 70
     0
  9
$USERI5
 70
     0
  9
$USERR1
 40
0.0
  9
$USERR2
 40
0.0
  9
$USERR3
 40
0.0
  9
$USERR4
 40
0.0
  9
$USERR5
 40
0.0
  9
$WORLDVIEW
 70
     1
  9
$SHADEDGE
 70
     3
  9
$SHADEDIF
 70
    70
  9
$TILEMODE
 70
     1
  9
$MAXACTVP
 70
    64
  9
$PINSBASE
 10
0.0
 20
0.0
 30
0.0
  9
$PLIMCHECK
 70
     0
  9
$PEXTMIN
 10
1.000000000000000E+20
 20
1.000000000000000E+20
 30
1.000000000000000E+20
  9
$PEXTMAX
 10
-1.000000000000000E+20
 20
-1.000000000000000E+20
 30
-1.000000000000000E+20
  9
$PLIMMIN
 10
0.0
 20
0.0
  9
$PLIMMAX
 10
0.0
 20
0.0
  9
$UNITMODE
 70
     0
  9
$VISRETAIN
 70
     1
  9
$PLINEGEN
 70
     0
  9
$PSLTSCALE
 70
     1
  9
$TREEDEPTH
 70
  3020
  9
$CMLSTYLE
  2
Standard
  9
$CMLJUST
 70
     0
  9
$CMLSCALE
 40
20.0
  9
$PROXYGRAPHICS
 70
     1
  9
$MEASUREMENT
 70
     1
  9
$CELWEIGHT
370
    -1
  9
$ENDCAPS
280
     0
  9
$JOINSTYLE
280
     0
  9
$LWDISPLAY
290
     1
  9
$INSUNITS
 70
     4
  9
$HYPERLINKBASE
  1

  9
$STYLESHEET
  1

  9
$XEDIT
290
     1
  9
$CEPSNTYPE
380
     0
  9
$PSTYLEMODE
290
     1
  9
$FINGERPRINTGUID
  2
{6AA739DF-1B84-434F-A72E-4BBDCA67DAD7}
  9
$VERSIONGUID
  2
{FAEB1C32-E019-11D5-929B-00C0DF256EC4}
  9
$EXTNAMES
290
     1
  9
$PSVPSCALE
 40
0.0
  9
$OLESTARTUP
290
     0
  0
ENDSEC
  0
SECTION
  2
CLASSES
  0
CLASS
  1
ACDBDICTIONARYWDFLT
  2
AcDbDictionaryWithDefault
  3
ObjectDBX Classes
 90
        0
280
     0
281
     0
  0
CLASS
  1
VISUALSTYLE
  2
AcDbVisualStyle
  3
ObjectDBX Classes
 90
     4095
280
     0
281
     0
  0
CLASS
  1
MATERIAL
  2
AcDbMaterial
  3
ObjectDBX Classes
 90
     1153
280
     0
281
     0
  0
CLASS
  1
SCALE
  2
AcDbScale
  3
ObjectDBX Classes
 90
     1153
280
     0
281
     0
  0
CLASS
  1
SUN
  2
AcDbSun
  3
SCENEOE
 90
     1153
280
     0
281
     0
  0
CLASS
  1
ACDBPLACEHOLDER
  2
AcDbPlaceHolder
  3
ObjectDBX Classes
 90
        0
280
     0
281
     0
  0
CLASS
  1
LAYOUT
  2
AcDbLayout
  3
ObjectDBX Classes
 90
        0
280
     0
281
     0
  0
CLASS
  1
TABLESTYLE
  2
AcDbTableStyle
  3
ObjectDBX Classes
 90
     4095
280
     0
281
     0
  0
CLASS
  1
MLEADERSTYLE
  2
AcDbMLeaderStyle
  3
ACDB_MLEADERSTYLE_CLASS
 90
     4095
280
     0
281
     0
  0
CLASS
  1
RASTERVARIABLES
  2
AcDbRasterVariables
  3
ISM
 90
        0
280
     0
281
     0
  0
ENDSEC
  0
SECTION
  2
TABLES
  0
TABLE
  2
VPORT
  5
8
330
0
100
AcDbSymbolTable
 70
     1
  0
VPORT
  5
29
330
8
100
AcDbSymbolTableRecord
100
AcDbViewportTableRecord
  2
*Active
 70
     0
 10
0.0
 20
0.0
 11
1.0
 21
1.0
 12
-2.349054059821263
 22
-10.67866100992258
 13
0.0
 23
0.0
 14
10.0
 24
10.0
 15
10.0
 25
10.0
 16
0.0
 26
0.0
 36
1.0
 17
0.0
 27
0.0
 37
0.0
 40
100.5811922725616
 41
1.152454780361757
 42
50.0
 43
0.0
 44
0.0
 50
0.0
 51
0.0
 71
    16
 72
  2000
 73
     1
 74
     3
 75
     0
 76
     0
 77
     0
 78
     0
281
     0
 65
     1
110
0.0
120
0.0
130
0.0
111
1.0
121
0.0
131
0.0
112
0.0
122
1.0
132
0.0
 79
     0
146
0.0
  0
ENDTAB
  0
TABLE
  2
LTYPE
  5
5
330
0
100
AcDbSymbolTable
 70
     6
  0
LTYPE
  5
14
330
5
100
AcDbSymbolTableRecord
100
AcDbLinetypeTableRecord
  2
ByBlock
 70
     0
  3

 72
    65
 73
     0
 40
0.0
  0
LTYPE
  5
15
330
5
100
AcDbSymbolTableRecord
100
AcDbLinetypeTableRecord
  2
ByLayer
 70
     0
  3

 72
    65
 73
     0
 40
0.0
  0
LTYPE
  5
16
330
5
100
AcDbSymbolTableRecord
100
AcDbLinetypeTableRecord
  2
Continuous
 70
     0
  3
Solid line
 72
    65
 73
     0
 40
0.0
  0
LTYPE
  5
6A
330
5
100
AcDbSymbolTableRecord
100
AcDbLinetypeTableRecord
  2
HIDDEN
 70
     0
  3
Hidden __ __ __ __ __ __ __ __ __ __ __ __ __ __
 72
    65
 73
     2
 40
1.905
 49
1.27
 74
     0
 49
-0.635
 74
     0
  0
LTYPE
  5
6B
330
5
100
AcDbSymbolTableRecord
100
AcDbLinetypeTableRecord
  2
PHANTOM
 70
     0
  3
Phantom ______  __  __  ______  __  __  ______
 72
    65
 73
     6
 40
12.7
 49
6.35
 74
     0
 49
-1.27
 74
     0
 49
1.27
 74
     0
 49
-1.27
 74
     0
 49
1.27
 74
     0
 49
-1.27
 74
     0
  0
LTYPE
  5
6C
330
5
100
AcDbSymbolTableRecord
100
AcDbLinetypeTableRecord
  2
CENTER
 70
     0
  3
Center ____ _ ____ _ ____ _ ____ _ ____ _ ____
 72
    65
 73
     4
 40
10.16
 49
6.35
 74
     0
 49
-1.27
 74
     0
 49
1.27
 74
     0
 49
-1.27
 74
     0
  0
LTYPE
  5
6D
330
5
100
AcDbSymbolTableRecord
100
AcDbLinetypeTableRecord
  2
CENTERX2
 70
     0
  3
Center (2x) ________  __  ________  __  _____
 72
    65
 73
     4
 40
20.32
 49
12.7
 74
     0
 49
-2.54
 74
     0
 49
2.54
 74
     0
 49
-2.54
 74
     0
  0
LTYPE
  5
6E
330
5
100
AcDbSymbolTableRecord
100
AcDbLinetypeTableRecord
  2
DOT2
 70
     0
  3
Dot (.5x) ........................................
 72
    65
 73
     2
 40
0.635
 49
0.0
 74
     0
 49
-0.635
 74
     0
  0
ENDTAB
  0
TABLE
  2
LAYER
  5
2
330
0
100
AcDbSymbolTable
 70
    17
  0
LAYER
  5
10
330
2
100
AcDbSymbolTableRecord
100
AcDbLayerTableRecord
  2
0
 70
     0
 62
     7
  6
Continuous
370
    -3
390
F
  0
LAYER
  5
6F
330
2
100
AcDbSymbolTableRecord
100
AcDbLayerTableRecord
  2
FORMAT
 70
     0
 62
     2
  6
Continuous
370
    -3
390
F
  0
LAYER
  5
70
330
2
100
AcDbSymbolTableRecord
100
AcDbLayerTableRecord
  2
외형선
 70
     0
 62
   100
  6
Continuous
370
    30
390
F
  0
LAYER
  5
71
330
2
100
AcDbSymbolTableRecord
100
AcDbLayerTableRecord
  2
숨은선
 70
     0
 62
     2
  6
HIDDEN
370
    15
390
F
  0
LAYER
  5
72
330
2
100
AcDbSymbolTableRecord
100
AcDbLayerTableRecord
  2
중심선
 70
     0
 62
     1
  6
CENTERX2
370
    -3
390
F
  0
LAYER
  5
73
330
2
100
AcDbSymbolTableRecord
100
AcDbLayerTableRecord
  2
파단선
 70
     0
 62
     4
  6
Continuous
370
    -3
390
F
  0
LAYER
  5
74
330
2
100
AcDbSymbolTableRecord
100
AcDbLayerTableRecord
  2
해칭선
 70
     0
 62
     4
  6
Continuous
370
    -3
390
F
  0
LAYER
  5
75
330
2
100
AcDbSymbolTableRecord
100
AcDbLayerTableRecord
  2
가는실선
 70
     0
 62
     4
  6
Continuous
370
    -3
390
F
  0
LAYER
  5
76
330
2
100
AcDbSymbolTableRecord
100
AcDbLayerTableRecord
  2
치수_보조선
 70
     0
 62
     4
  6
Continuous
370
    -3
390
F
  0
LAYER
  5
77
330
2
100
AcDbSymbolTableRecord
100
AcDbLayerTableRecord
  2
치수문자_일반주서
 70
     0
 62
     7
  6
Continuous
370
    15
390
F
  0
LAYER
  5
78
330
2
100
AcDbSymbolTableRecord
100
AcDbLayerTableRecord
  2
개별주서
 70
     0
 62
   100
  6
Continuous
370
    30
390
F
  0
LAYER
  5
79
330
2
100
AcDbSymbolTableRecord
100
AcDbLayerTableRecord
  2
중간선
 70
     0
 62
     2
  6
Continuous
370
    15
390
F
  0
LAYER
  5
7A
330
2
100
AcDbSymbolTableRecord
100
AcDbLayerTableRecord
  2
윤곽선
 70
     0
 62
     3
  6
Continuous
370
    40
390
F
  0
LAYER
  5
7B
330
2
100
AcDbSymbolTableRecord
100
AcDbLayerTableRecord
  2
중심마크
 70
     0
 62
   100
  6
Continuous
370
    30
390
F
  0
LAYER
  5
7C
330
2
100
AcDbSymbolTableRecord
100
AcDbLayerTableRecord
  2
가상선
 70
     0
 62
     4
  6
PHANTOM
370
    -3
390
F
  0
LAYER
  5
7D
330
2
100
AcDbSymbolTableRecord
100
AcDbLayerTableRecord
  2
특수지정선
 70
     0
 62
     5
  6
CENTERX2
370
    60
390
F
  0
LAYER
  5
13D
330
2
100
AcDbSymbolTableRecord
100
AcDbLayerTableRecord
  2
Defpoints
 70
     0
 62
     7
  6
Continuous
290
     0
370
    -3
390
F
  0
ENDTAB
  0
TABLE
  2
STYLE
  5
3
330
0
100
AcDbSymbolTable
 70
     2
  0
STYLE
  5
11
330
3
100
AcDbSymbolTableRecord
100
AcDbTextStyleTableRecord
  2
Standard
 70
     0
 40
0.0
 41
1.0
 50
0.0
 71
     0
 42
3.5
  3
txt
  4

  0
STYLE
  5
93
330
3
100
AcDbSymbolTableRecord
100
AcDbTextStyleTableRecord
  2
SLDTEXTSTYLE0
 70
     0
 40
0.0
 41
0.75
 50
0.0
 71
     0
 42
3.5
  3
TXT
  4

  0
ENDTAB
  0
TABLE
  2
VIEW
  5
6
330
0
100
AcDbSymbolTable
 70
     0
  0
ENDTAB
  0
TABLE
  2
UCS
  5
7
330
0
100
AcDbSymbolTable
 70
     0
  0
ENDTAB
  0
TABLE
  2
APPID
  5
9
330
0
100
AcDbSymbolTable
 70
     1
  0
APPID
  5
12
330
9
100
AcDbSymbolTableRecord
100
AcDbRegAppTableRecord
  2
ACAD
 70
     0
  0
ENDTAB
  0
TABLE
  2
DIMSTYLE
  5
A
330
0
100
AcDbSymbolTable
 70
     3
100
AcDbDimStyleTable
  0
DIMSTYLE
105
27
330
A
100
AcDbSymbolTableRecord
100
AcDbDimStyleTableRecord
  2
ISO-25
 70
     0
 41
2.5
 42
0.625
 43
3.75
 44
1.25
 73
     0
 74
     0
 77
     1
 78
     8
140
2.5
141
2.5
143
0.03937007874016
147
0.625
171
     3
172
     1
178
     0
271
     2
272
     2
274
     3
278
    44
283
     0
284
     8
340
11
  0
DIMSTYLE
105
E3
102
{ACAD_REACTORS
330
E2
330
105
102
}
330
A
100
AcDbSymbolTableRecord
100
AcDbDimStyleTableRecord
  2
SLDDIMSTYLE0
 70
     0
 41
3.302
 44
0.0
 45
0.000000001
 73
     0
 74
     0
 77
     1
 78
    12
 79
     3
140
3.5
147
0.875
172
     1
173
     1
178
     0
271
     2
272
     2
276
     2
284
    12
289
     0
340
93
  0
DIMSTYLE
105
F1
102
{ACAD_REACTORS
330
F0
330
FB
102
}
330
A
100
AcDbSymbolTableRecord
100
AcDbDimStyleTableRecord
  2
SLDDIMSTYLE1
 70
     0
 41
3.302
 44
0.0
 45
0.000000001
 73
     0
 74
     0
 77
     1
 78
    12
 79
     3
140
3.5
147
0.875
173
     1
178
     0
271
     2
272
     2
276
     2
284
    12
340
93
  0
ENDTAB
  0
TABLE
  2
BLOCK_RECORD
  5
1
330
0
100
AcDbSymbolTable
 70
     7
  0
BLOCK_RECORD
  5
1F
330
1
100
AcDbSymbolTableRecord
100
AcDbBlockTableRecord
  2
*Model_Space
340
22
  0
BLOCK_RECORD
  5
1B
330
1
100
AcDbSymbolTableRecord
100
AcDbBlockTableRecord
  2
*Paper_Space
340
1E
  0
BLOCK_RECORD
  5
23
330
1
100
AcDbSymbolTableRecord
100
AcDbBlockTableRecord
  2
*Paper_Space0
340
26
  0
BLOCK_RECORD
  5
7E
330
1
100
AcDbSymbolTableRecord
100
AcDbBlockTableRecord
  2
블럭10
340
0
102
{BLKREFS
331
DB
102
}
  0
BLOCK_RECORD
  5
E4
330
1
100
AcDbSymbolTableRecord
100
AcDbBlockTableRecord
  2
_D
340
0
  0
BLOCK_RECORD
  5
F2
330
1
100
AcDbSymbolTableRecord
100
AcDbBlockTableRecord
  2
_D_1
340
0
  0
BLOCK_RECORD
  5
FC
330
1
100
AcDbSymbolTableRecord
100
AcDbBlockTableRecord
  2
_D_2
340
0
  0
BLOCK_RECORD
  5
106
330
1
100
AcDbSymbolTableRecord
100
AcDbBlockTableRecord
  2
_D_3
340
0
  0
BLOCK_RECORD
  5
112
330
1
100
AcDbSymbolTableRecord
100
AcDbBlockTableRecord
  2
SW_DOWELSYMBOL_0
340
0
102
{BLKREFS
331
118
102
}
  0
ENDTAB
  0
ENDSEC
  0
SECTION
  2
BLOCKS
  0
BLOCK
  5
20
330
1F
100
AcDbEntity
  8
0
100
AcDbBlockBegin
  2
*Model_Space
 70
     0
 10
0.0
 20
0.0
 30
0.0
  3
*Model_Space
  1

  0
ENDBLK
  5
21
330
1F
100
AcDbEntity
  8
0
100
AcDbBlockEnd
  0
BLOCK
  5
1C
330
1B
100
AcDbEntity
 67
     1
  8
0
100
AcDbBlockBegin
  2
*Paper_Space
 70
     0
 10
0.0
 20
0.0
 30
0.0
  3
*Paper_Space
  1

  0
ENDBLK
  5
1D
330
1B
100
AcDbEntity
 67
     1
  8
0
100
AcDbBlockEnd
  0
BLOCK
  5
24
330
23
100
AcDbEntity
  8
0
100
AcDbBlockBegin
  2
*Paper_Space0
 70
     0
 10
0.0
 20
0.0
 30
0.0
  3
*Paper_Space0
  1

  0
ENDBLK
  5
25
330
23
100
AcDbEntity
  8
0
100
AcDbBlockEnd
  0
BLOCK
  5
7F
330
7E
100
AcDbEntity
  8
0
100
AcDbBlockBegin
  2
블럭10
 70
     2
 10
0.0
 20
0.0
 30
0.0
  3
블럭10
  1

  0
ELLIPSE
  5
81
330
7E
100
AcDbEntity
  8
중심선
100
AcDbEllipse
 10
20.54032771741204
 20
12.0471743016438
 30
0.0
 11
6.600054785286829
 21
-1.261213355974178E-13
 31
0.0
210
0.0
220
0.0
230
1.0
 40
0.636358354079598
 41
0.9219305317359503
 42
6.513795318482858
  0
ELLIPSE
  5
82
330
7E
100
AcDbEntity
  8
중심선
100
AcDbEllipse
 10
20.54032771746488
 20
12.04717430159265
 30
0.0
 11
3.960054785062283
 21
1.540847449632565E-10
 31
0.0
210
0.0
220
0.0
230
1.0
 40
0.3939339440162632
 41
1.131841032648279
 42
5.62031148352944
  0
LINE
  5
83
330
7E
100
AcDbEntity
  8
중심선
100
AcDbLine
 10
2.268634060543552
 20
16.24717430164393
 30
0.0
 11
5.714909304380834
 21
16.24717430164393
 31
0.0
  0
LINE
  5
84
330
7E
100
AcDbEntity
  8
중심선
100
AcDbLine
 10
5.245725140726316
 20
7.84717430164391
 30
0.0
 11
8.692000384563599
 21
7.84717430164391
 31
0.0
  0
LINE
  5
85
330
7E
100
AcDbEntity
  8
중심선
100
AcDbLine
 10
15.74043728645272
 20
16.24717430164393
 30
0.0
 11
8.692000384563599
 21
7.84717430164391
 31
0.0
  0
LINE
  5
86
330
7E
100
AcDbEntity
  8
중심선
100
AcDbLine
 10
0.1404042013395286
 20
13.71084872107135
 30
0.0
 11
3.58671253028996
 21
13.71088815037384
 31
0.0
  0
LINE
  5
87
330
7E
100
AcDbEntity
  8
중심선
100
AcDbLine
 10
2.750260043222114
 20
10.84717430164391
 30
0.0
 11
6.196535287059397
 21
10.84717430164391
 31
0.0
  0
LINE
  5
88
330
7E
100
AcDbEntity
  8
중심선
100
AcDbLine
 10
12.29416204261559
 20
16.24717430164393
 30
0.0
 11
5.245725140726316
 21
7.84717430164391
 31
0.0
  0
LINE
  5
89
330
7E
100
AcDbEntity
  8
중심선
100
AcDbLine
 10
10.72767329541681
 20
16.24717430164393
 30
0.0
 11
6.196535287059397
 21
10.84717430164391
 31
0.0
  0
LINE
  5
8A
330
7E
100
AcDbEntity
  8
중심선
100
AcDbLine
 10
7.28139805157953
 20
16.24717430164393
 30
0.0
 11
2.750260043222114
 21
10.84717430164391
 31
0.0
  0
LINE
  5
8B
330
7E
100
AcDbEntity
  8
중심선
100
AcDbLine
 10
5.714909304380834
 20
16.24717430164393
 30
0.0
 11
3.58671253028996
 21
13.71088815037384
 31
0.0
  0
LINE
  5
8C
330
7E
100
AcDbEntity
  8
중심선
100
AcDbLine
 10
2.268634060543552
 20
16.24717430164393
 30
0.0
 11
0.1404042013395286
 21
13.71084872107135
 31
0.0
  0
LINE
  5
8D
330
7E
100
AcDbEntity
  8
중심선
100
AcDbLine
 10
7.28139805157953
 20
16.24717430164393
 30
0.0
 11
10.72767329541681
 21
16.24717430164393
 31
0.0
  0
LINE
  5
8E
330
7E
100
AcDbEntity
  8
중심선
100
AcDbLine
 10
12.29416204261559
 20
16.24717430164393
 30
0.0
 11
15.74043728645272
 21
16.24717430164393
 31
0.0
  0
LINE
  5
8F
330
7E
100
AcDbEntity
  8
중심선
100
AcDbLine
 10
19.22036997980202
 20
11.08717430171403
 30
0.0
 11
23.66174974927406
 21
11.08717430171406
 31
0.0
  0
LINE
  5
90
330
7E
100
AcDbEntity
  8
중심선
100
AcDbLine
 10
19.22039502424796
 20
13.00717430171391
 30
0.0
 11
19.22036997980202
 21
11.08717430171403
 31
0.0
  0
LINE
  5
91
330
7E
100
AcDbEntity
  8
중심선
100
AcDbLine
 10
19.22039502424796
 20
13.00717430171391
 30
0.0
 11
26.96566020931264
 21
13.00717430171391
 31
0.0
  0
LINE
  5
92
330
7E
100
AcDbEntity
  8
중심선
100
AcDbLine
 10
22.22332737316547
 20
13.45928029700563
 30
0.0
 11
24.52862924686651
 21
15.39360700705356
 31
0.0
  0
ATTDEF
  5
94
330
7E
100
AcDbEntity
  8
FORMAT
 62
     2
100
AcDbText
 10
-16.11926103943555
 20
2.075366912832191
 30
0.0
 40
4.233333333333333
  1
SEME7006035E [ 2 FLUTE ]
 41
0.75
  7
SLDTEXTSTYLE0
 11
-16.11926103943555
 21
-0.0412997538344756
 31
0.0
100
AcDbAttributeDefinition
  3

  2
AUTOATTR0
 70
     0
 74
     1
  0
ENDBLK
  5
80
330
7E
100
AcDbEntity
  8
0
100
AcDbBlockEnd
  0
BLOCK
  5
E5
330
E4
100
AcDbEntity
  8
0
100
AcDbBlockBegin
  2
_D
 70
     0
 10
0.0
 20
0.0
 30
0.0
  3
_D
  1

  0
LINE
  5
E7
330
E4
100
AcDbEntity
  8
치수문자_일반주서
 62
     0
370
    -2
100
AcDbLine
 10
45.06250000000001
 20
-2.999999999999864
 30
0.0
 11
53.9218262583153
 21
-2.999999999999831
 31
0.0
  0
LINE
  5
E8
330
E4
100
AcDbEntity
  8
치수문자_일반주서
 62
     0
370
    -2
100
AcDbLine
 10
45.06250000000001
 20
3.000000000000133
 30
0.0
 11
53.92182625831528
 21
3.000000000000165
 31
0.0
  0
LINE
  5
E9
330
E4
100
AcDbEntity
  8
치수문자_일반주서
 62
     0
370
    -2
100
AcDbLine
 10
53.9218262583153
 20
-2.999999999999831
 30
0.0
 11
53.92182625831523
 21
15.72900000000017
 31
0.0
  0
LINE
  5
EA
330
E4
100
AcDbEntity
  8
치수문자_일반주서
 62
     0
370
    -2
100
AcDbLine
 10
53.9218262583153
 20
-2.999999999999831
 30
0.0
 11
53.92182625831528
 21
3.000000000000165
 31
0.0
  0
LINE
  5
EB
330
E4
100
AcDbEntity
  8
치수문자_일반주서
 62
     0
370
    -2
100
AcDbLine
 10
53.92182625831531
 20
-6.301999999999831
 30
0.0
 11
53.92182625831533
 21
-9.60399999999983
 31
0.0
  0
LINE
  5
EC
330
E4
100
AcDbEntity
  8
치수문자_일반주서
 62
     0
370
    -2
100
AcDbLine
 10
53.92182625831526
 20
6.302000000000165
 30
0.0
 11
53.92182625831525
 21
9.604000000000164
 31
0.0
  0
SOLID
  5
ED
330
E4
100
AcDbEntity
  8
치수문자_일반주서
 62
     0
100
AcDbTrace
 10
54.47215959164865
 20
-6.301999999999829
 30
0.0
 11
53.37149292498198
 21
-6.301999999999833
 31
0.0
 12
53.9218262583153
 22
-2.999999999999831
 32
0.0
 13
53.9218262583153
 23
-2.999999999999831
 33
0.0
  0
SOLID
  5
EE
330
E4
100
AcDbEntity
  8
치수문자_일반주서
 62
     0
100
AcDbTrace
 10
53.37149292498193
 20
6.302000000000163
 30
0.0
 11
54.4721595916486
 21
6.302000000000167
 31
0.0
 12
53.92182625831528
 22
3.000000000000165
 32
0.0
 13
53.92182625831528
 23
3.000000000000165
 33
0.0
  0
MTEXT
  5
EF
330
E4
100
AcDbEntity
  8
치수문자_일반주서
 62
     0
100
AcDbMText
 10
49.54682625831524
 20
12.66650000000015
 30
0.0
 40
3.5
 41
0.0
 71
     2
 72
     1
  1
\A1;%%c6
  7
SLDTEXTSTYLE0
 11
-3.552713678800503E-15
 21
1.0
 31
0.0
 73
     1
 44
1.0
  0
POINT
  5
147
330
E4
100
AcDbEntity
  8
Defpoints
 62
     0
100
AcDbPoint
 10
45.00000000000001
 20
-2.999999999999865
 30
0.0
  0
POINT
  5
148
330
E4
100
AcDbEntity
  8
Defpoints
 62
     0
100
AcDbPoint
 10
45.00000000000001
 20
3.000000000000132
 30
0.0
  0
POINT
  5
149
330
E4
100
AcDbEntity
  8
Defpoints
 62
     0
100
AcDbPoint
 10
53.92182625831528
 20
3.000000000000166
 30
0.0
  0
ENDBLK
  5
E6
330
E4
100
AcDbEntity
  8
0
100
AcDbBlockEnd
  0
BLOCK
  5
F3
330
F2
100
AcDbEntity
  8
0
100
AcDbBlockBegin
  2
_D_1
 70
     0
 10
0.0
 20
0.0
 30
0.0
  3
_D_1
  1

  0
LINE
  5
F5
330
F2
100
AcDbEntity
  8
치수문자_일반주서
 62
     0
370
    -2
100
AcDbLine
 10
-44.99999999999999
 20
2.512499999999998
 30
0.0
 11
-44.99999999999999
 21
24.2384104402427
 31
0.0
  0
LINE
  5
F6
330
F2
100
AcDbEntity
  8
치수문자_일반주서
 62
     0
370
    -2
100
AcDbLine
 10
45.00000000000001
 20
3.062500000000132
 30
0.0
 11
45.00000000000001
 21
24.2384104402427
 31
0.0
  0
LINE
  5
F7
330
F2
100
AcDbEntity
  8
치수문자_일반주서
 62
     0
370
    -2
100
AcDbLine
 10
-41.69799999999999
 20
24.2384104402427
 30
0.0
 11
41.69800000000001
 21
24.2384104402427
 31
0.0
  0
SOLID
  5
F8
330
F2
100
AcDbEntity
  8
치수문자_일반주서
 62
     0
100
AcDbTrace
 10
-41.69799999999999
 20
24.78874377357603
 30
0.0
 11
-41.69799999999999
 21
23.68807710690936
 31
0.0
 12
-44.99999999999999
 22
24.2384104402427
 32
0.0
 13
-44.99999999999999
 23
24.2384104402427
 33
0.0
  0
SOLID
  5
F9
330
F2
100
AcDbEntity
  8
치수문자_일반주서
 62
     0
100
AcDbTrace
 10
41.69800000000001
 20
23.68807710690936
 30
0.0
 11
41.69800000000001
 21
24.78874377357603
 31
0.0
 12
45.00000000000001
 22
24.2384104402427
 32
0.0
 13
45.00000000000001
 23
24.2384104402427
 33
0.0
  0
MTEXT
  5
FA
330
F2
100
AcDbEntity
  8
치수문자_일반주서
 62
     0
100
AcDbMText
 10
0.0000000000000178
 20
28.6134104402427
 30
0.0
 40
3.5
 41
0.0
 71
     2
 72
     1
  1
\A1;90
  7
SLDTEXTSTYLE0
 73
     1
 44
1.0
  0
POINT
  5
13E
330
F2
100
AcDbEntity
  8
Defpoints
 62
     0
100
AcDbPoint
 10
-44.99999999999999
 20
2.449999999999998
 30
0.0
  0
POINT
  5
13F
330
F2
100
AcDbEntity
  8
Defpoints
 62
     0
100
AcDbPoint
 10
45.00000000000001
 20
3.000000000000132
 30
0.0
  0
POINT
  5
140
330
F2
100
AcDbEntity
  8
Defpoints
 62
     0
100
AcDbPoint
 10
45.00000000000001
 20
24.2384104402427
 30
0.0
  0
ENDBLK
  5
F4
330
F2
100
AcDbEntity
  8
0
100
AcDbBlockEnd
  0
BLOCK
  5
FD
330
FC
100
AcDbEntity
  8
0
100
AcDbBlockBegin
  2
_D_2
 70
     0
 10
0.0
 20
0.0
 30
0.0
  3
_D_2
  1

  0
LINE
  5
FF
330
FC
100
AcDbEntity
  8
치수문자_일반주서
 62
     0
370
    -2
100
AcDbLine
 10
10.0
 20
2.704470418489819
 30
0.0
 11
10.0
 21
15.98896822465724
 31
0.0
  0
LINE
  5
100
330
FC
100
AcDbEntity
  8
치수문자_일반주서
 62
     0
370
    -2
100
AcDbLine
 10
45.00000000000001
 20
3.062500000000132
 30
0.0
 11
45.00000000000001
 21
15.98896822465724
 31
0.0
  0
LINE
  5
101
330
FC
100
AcDbEntity
  8
치수문자_일반주서
 62
     0
370
    -2
100
AcDbLine
 10
13.302
 20
15.98896822465724
 30
0.0
 11
41.69800000000001
 21
15.98896822465724
 31
0.0
  0
SOLID
  5
102
330
FC
100
AcDbEntity
  8
치수문자_일반주서
 62
     0
100
AcDbTrace
 10
13.302
 20
16.53930155799057
 30
0.0
 11
13.302
 21
15.43863489132391
 31
0.0
 12
10.0
 22
15.98896822465724
 32
0.0
 13
10.0
 23
15.98896822465724
 33
0.0
  0
SOLID
  5
103
330
FC
100
AcDbEntity
  8
치수문자_일반주서
 62
     0
100
AcDbTrace
 10
41.69800000000001
 20
15.43863489132391
 30
0.0
 11
41.69800000000001
 21
16.53930155799057
 31
0.0
 12
45.00000000000001
 22
15.98896822465724
 32
0.0
 13
45.00000000000001
 23
15.98896822465724
 33
0.0
  0
MTEXT
  5
104
330
FC
100
AcDbEntity
  8
치수문자_일반주서
 62
     0
100
AcDbMText
 10
27.5000000000001
 20
20.36396822465724
 30
0.0
 40
3.5
 41
0.0
 71
     2
 72
     1
  1
\A1;35
  7
SLDTEXTSTYLE0
 73
     1
 44
1.0
  0
POINT
  5
141
330
FC
100
AcDbEntity
  8
Defpoints
 62
     0
100
AcDbPoint
 10
10.0
 20
2.641970418489819
 30
0.0
  0
POINT
  5
142
330
FC
100
AcDbEntity
  8
Defpoints
 62
     0
100
AcDbPoint
 10
45.00000000000001
 20
3.000000000000132
 30
0.0
  0
POINT
  5
143
330
FC
100
AcDbEntity
  8
Defpoints
 62
     0
100
AcDbPoint
 10
45.00000000000001
 20
15.98896822465724
 30
0.0
  0
ENDBLK
  5
FE
330
FC
100
AcDbEntity
  8
0
100
AcDbBlockEnd
  0
BLOCK
  5
107
330
106
100
AcDbEntity
  8
0
100
AcDbBlockBegin
  2
_D_3
 70
     0
 10
0.0
 20
0.0
 30
0.0
  3
_D_3
  1

  0
LINE
  5
109
330
106
100
AcDbEntity
  8
치수문자_일반주서
 62
     0
370
    -2
100
AcDbLine
 10
-44.51249999999999
 20
2.999999999999997
 30
0.0
 11
-54.79526771129114
 21
2.999999999999959
 31
0.0
  0
LINE
  5
10A
330
106
100
AcDbEntity
  8
치수문자_일반주서
 62
     0
370
    -2
100
AcDbLine
 10
-44.51249999999999
 20
-2.999999999999996
 30
0.0
 11
-54.79526771129112
 21
-3.000000000000034
 31
0.0
  0
LINE
  5
10B
330
106
100
AcDbEntity
  8
치수문자_일반주서
 62
     0
370
    -2
100
AcDbLine
 10
-54.79526771129114
 20
2.999999999999959
 30
0.0
 11
-54.79526771129119
 21
15.72899999999996
 31
0.0
  0
LINE
  5
10C
330
106
100
AcDbEntity
  8
치수문자_일반주서
 62
     0
370
    -2
100
AcDbLine
 10
-54.79526771129114
 20
2.999999999999959
 30
0.0
 11
-54.79526771129112
 21
-3.000000000000034
 31
0.0
  0
LINE
  5
10D
330
106
100
AcDbEntity
  8
치수문자_일반주서
 62
     0
370
    -2
100
AcDbLine
 10
-54.79526771129115
 20
6.301999999999959
 30
0.0
 11
-54.79526771129117
 21
9.603999999999958
 31
0.0
  0
LINE
  5
10E
330
106
100
AcDbEntity
  8
치수문자_일반주서
 62
     0
370
    -2
100
AcDbLine
 10
-54.7952677112911
 20
-6.302000000000033
 30
0.0
 11
-54.79526771129109
 21
-9.604000000000033
 31
0.0
  0
SOLID
  5
10F
330
106
100
AcDbEntity
  8
치수문자_일반주서
 62
     0
100
AcDbTrace
 10
-55.34560104462449
 20
6.301999999999957
 30
0.0
 11
-54.24493437795782
 21
6.301999999999961
 31
0.0
 12
-54.79526771129114
 22
2.999999999999959
 32
0.0
 13
-54.79526771129114
 23
2.999999999999959
 33
0.0
  0
SOLID
  5
110
330
106
100
AcDbEntity
  8
치수문자_일반주서
 62
     0
100
AcDbTrace
 10
-54.24493437795777
 20
-6.302000000000032
 30
0.0
 11
-55.34560104462444
 21
-6.302000000000035
 31
0.0
 12
-54.79526771129112
 22
-3.000000000000034
 32
0.0
 13
-54.79526771129112
 23
-3.000000000000034
 33
0.0
  0
MTEXT
  5
111
330
106
100
AcDbEntity
  8
치수문자_일반주서
 62
     0
100
AcDbMText
 10
-59.17026771129117
 20
12.66649999999994
 30
0.0
 40
3.5
 41
0.0
 71
     2
 72
     1
  1
\A1;%%c6
  7
SLDTEXTSTYLE0
 11
-3.552713678800505E-15
 21
1.0
 31
0.0
 73
     1
 44
1.0
  0
POINT
  5
144
330
106
100
AcDbEntity
  8
Defpoints
 62
     0
100
AcDbPoint
 10
-44.44999999999999
 20
2.999999999999998
 30
0.0
  0
POINT
  5
145
330
106
100
AcDbEntity
  8
Defpoints
 62
     0
100
AcDbPoint
 10
-44.44999999999999
 20
-2.999999999999996
 30
0.0
  0
POINT
  5
146
330
106
100
AcDbEntity
  8
Defpoints
 62
     0
100
AcDbPoint
 10
-54.79526771129112
 20
-3.000000000000034
 30
0.0
  0
ENDBLK
  5
108
330
106
100
AcDbEntity
  8
0
100
AcDbBlockEnd
  0
BLOCK
  5
113
330
112
100
AcDbEntity
  8
0
100
AcDbBlockBegin
  2
SW_DOWELSYMBOL_0
 70
     0
 10
0.0
 20
0.0
 30
0.0
  3
SW_DOWELSYMBOL_0
  1

  0
CIRCLE
  5
115
330
112
100
AcDbEntity
  8
외형선
 62
     0
100
AcDbCircle
 10
0.0
 20
0.0
 30
0.0
 40
3.000000000000004
  0
HATCH
  5
116
330
112
100
AcDbEntity
  8
0
  6
Continuous
 62
     0
370
    30
100
AcDbHatch
 10
0.0
 20
0.0
 30
0.0
210
0.0
220
0.0
230
1.0
  2
SOLID
 70
     1
 71
     0
 91
        1
 92
        0
 93
        3
 72
     2
 10
0.0000000000000104
 20
0.0
 40
3.000000000000004
 50
0.0
 51
90.0
 73
     1
 72
     1
 10
0.0000000000000104
 20
3.000000000000004
 11
0.0000000000000104
 21
0.0
 72
     1
 10
0.0000000000000104
 20
0.0
 11
3.000000000000015
 21
0.0
 97
        0
 75
     0
 76
     1
 98
        1
 10
0.0
 20
0.0
  0
HATCH
  5
117
330
112
100
AcDbEntity
  8
0
  6
Continuous
 62
     0
370
    30
100
AcDbHatch
 10
0.0
 20
0.0
 30
0.0
210
0.0
220
0.0
230
1.0
  2
SOLID
 70
     1
 71
     0
 91
        1
 92
        0
 93
        3
 72
     2
 10
0.0000000000000104
 20
0.0
 40
3.000000000000004
 50
180.0
 51
270.0000000000008
 73
     1
 72
     1
 10
0.0000000000000104
 20
-3.000000000000004
 11
0.0000000000000104
 21
0.0
 72
     1
 10
0.0000000000000104
 20
0.0
 11
-2.999999999999994
 21
0.0
 97
        0
 75
     0
 76
     1
 98
        1
 10
0.0
 20
0.0
  0
ENDBLK
  5
114
330
112
100
AcDbEntity
  8
0
100
AcDbBlockEnd
  0
ENDSEC
  0
SECTION
  2
ENTITIES
  0
LINE
  5
95
330
1F
100
AcDbEntity
  8
0
  6
Continuous
 62
     1
370
    15
100
AcDbLine
 10
36.42635009127147
 20
1.16942204716757
 30
0.0
 11
36.39673023380962
 21
1.184685948958798
 31
0.0
  0
SPLINE
  5
96
330
1F
100
AcDbEntity
  8
0
  6
Continuous
 62
     1
370
    15
100
AcDbSpline
210
0.0
220
0.0
230
1.0
 70
     8
 71
     3
 72
     9
 73
     5
 74
     0
 42
0.000000001
 43
0.00000001
 40
0.0
 40
0.0
 40
0.0
 40
0.0
 40
0.4710781275606603
 40
1.0
 40
1.0
 40
1.0
 40
1.0
 10
37.22659073092066
 20
0.7689324639387262
 30
0.0
 10
37.09964589185817
 20
0.8294513043345167
 30
0.0
 10
36.83016864034616
 20
0.9579201014513973
 30
0.0
 10
36.56604883386422
 20
1.096254145544002
 30
0.0
 10
36.42635009127147
 20
1.16942204716757
 30
0.0
  0
LINE
  5
97
330
1F
100
AcDbEntity
  8
0
  6
Continuous
 62
     1
370
    15
100
AcDbLine
 10
20.10590274907002
 20
1.167490573131223
 30
0.0
 11
20.07238154194859
 21
1.184767705904089
 31
0.0
  0
SPLINE
  5
98
330
1F
100
AcDbEntity
  8
0
  6
Continuous
 62
     1
370
    15
100
AcDbSpline
210
0.0
220
0.0
230
1.0
 70
     8
 71
     3
 72
     9
 73
     5
 74
     0
 42
0.000000001
 43
0.00000001
 40
0.0
 40
0.0
 40
0.0
 40
0.0
 40
0.4756892249512893
 40
1.0
 40
1.0
 40
1.0
 40
1.0
 10
20.90261666917647
 20
0.768829555963221
 30
0.0
 10
20.7748367539701
 20
0.8297484339849729
 30
0.0
 10
20.50621617460034
 20
0.957812882003508
 30
0.0
 10
20.24359687669666
 20
1.09536861837952
 30
0.0
 10
20.10590274907002
 20
1.167490573131223
 30
0.0
  0
LINE
  5
99
330
1F
100
AcDbEntity
  8
0
  6
Continuous
 62
     1
370
    15
100
AcDbLine
 10
28.88992718286365
 20
-2.999999999999999
 30
0.0
 11
30.34419642559252
 21
-2.999999999999999
 31
0.0
  0
LINE
  5
9A
330
1F
100
AcDbEntity
  8
0
  6
Continuous
 62
     1
370
    15
100
AcDbLine
 10
14.01861950623772
 20
3.000000000000008
 30
0.0
 11
12.56506390499893
 21
3.000000000000008
 31
0.0
  0
LINE
  5
9B
330
1F
100
AcDbEntity
  8
0
  6
Continuous
 62
     1
370
    15
100
AcDbLine
 10
12.56506390499895
 20
-2.999999999999999
 30
0.0
 11
14.01861950623767
 21
-2.999999999999999
 31
0.0
  0
LINE
  5
9C
330
1F
100
AcDbEntity
  8
0
  6
Continuous
 62
     1
370
    15
100
AcDbLine
 10
30.34419642559252
 20
3.000000000000008
 30
0.0
 11
28.88992718286363
 21
3.000000000000008
 31
0.0
  0
LINE
  5
9D
330
1F
100
AcDbEntity
  8
0
  6
Continuous
 62
     1
370
    15
100
AcDbLine
 10
35.61315057039768
 20
0.8201097841214476
 30
0.0
 11
35.53602793416847
 21
0.8624735560132324
 31
0.0
  0
LINE
  5
9E
330
1F
100
AcDbEntity
  8
0
  6
Continuous
 62
     1
370
    15
100
AcDbLine
 10
19.30200179324985
 20
0.8130660976337089
 30
0.0
 11
19.2119065369013
 21
0.862433080478635
 31
0.0
  0
SPLINE
  5
9F
330
1F
100
AcDbEntity
  8
0
  6
Continuous
 62
     1
370
    15
100
AcDbSpline
210
0.0
220
0.0
230
1.0
 70
     8
 71
     3
 72
    17
 73
    13
 74
     0
 42
0.000000001
 43
0.00000001
 40
0.0
 40
0.0
 40
0.0
 40
0.0
 40
0.1385779513638019
 40
0.2307424379096933
 40
0.2887053737789869
 40
0.3457872263676748
 40
0.527611385626632
 40
0.6100259614756176
 40
0.6893744580575873
 40
0.7599677282503483
 40
0.8583821857822949
 40
1.0
 40
1.0
 40
1.0
 40
1.0
 10
31.72295198889654
 20
-2.496438212743679
 30
0.0
 10
31.93169209564019
 20
-2.476696509279814
 30
0.0
 10
32.27925966064996
 20
-2.443825127209922
 30
0.0
 10
32.7131188755737
 20
-2.411948965982294
 30
0.0
 10
33.02474507419147
 20
-2.392194043240079
 30
0.0
 10
33.4713419536526
 20
-2.368050488308339
 30
0.0
 10
33.95475752497858
 20
-2.350707733399448
 30
0.0
 10
34.47135998812132
 20
-2.343044579588885
 30
0.0
 10
34.82098611687253
 20
-2.342380843501385
 30
0.0
 10
35.19465603507308
 20
-2.346210397809291
 30
0.0
 10
35.66125632749539
 20
-2.356786151597029
 30
0.0
 10
36.0228521371785
 20
-2.373848246604548
 30
0.0
 10
36.23619181781535
 20
-2.383914795503689
 30
0.0
  0
SPLINE
  5
A0
330
1F
100
AcDbEntity
  8
0
  6
Continuous
 62
     1
370
    15
100
AcDbSpline
210
0.0
220
0.0
230
1.0
 70
     8
 71
     3
 72
    10
 73
     6
 74
     0
 42
0.000000001
 43
0.00000001
 40
0.0
 40
0.0
 40
0.0
 40
0.0
 40
0.3993547158112427
 40
0.9221722137340684
 40
1.0
 40
1.0
 40
1.0
 40
1.0
 10
19.91212580098676
 20
2.383921623308758
 30
0.0
 10
19.57964842834487
 20
2.369881625265712
 30
0.0
 10
18.81190641202026
 20
2.337461083918461
 30
0.0
 10
17.97995416617047
 20
2.337088940671951
 30
0.0
 10
17.4800549947785
 20
2.358708606633715
 30
0.0
 10
17.4152812474608
 20
2.361509945104033
 30
0.0
  0
SPLINE
  5
A1
330
1F
100
AcDbEntity
  8
0
  6
Continuous
 62
     1
370
    15
100
AcDbSpline
210
0.0
220
0.0
230
1.0
 70
     8
 71
     3
 72
    11
 73
     7
 74
     0
 42
0.000000001
 43
0.00000001
 40
0.0
 40
0.0
 40
0.0
 40
0.0
 40
0.2215900709359159
 40
0.511137275745761
 40
0.6906153868451048
 40
1.0
 40
1.0
 40
1.0
 40
1.0
 10
15.3988870683862
 20
-2.496425276220766
 30
0.0
 10
15.73232156514812
 20
-2.465965699611846
 30
0.0
 10
16.50144808600127
 20
-2.395705218433719
 30
0.0
 10
17.54095114539629
 20
-2.349601671961589
 30
0.0
 10
18.71077260061913
 20
-2.335658025132962
 30
0.0
 10
19.44650546285385
 20
-2.365215623361985
 30
0.0
 10
19.91212580098676
 20
-2.383921623308748
 30
0.0
  0
SPLINE
  5
A2
330
1F
100
AcDbEntity
  8
0
  6
Continuous
 62
     1
370
    15
100
AcDbSpline
210
0.0
220
0.0
230
1.0
 70
     8
 71
     3
 72
    16
 73
    12
 74
     0
 42
0.000000001
 43
0.00000001
 40
0.0
 40
0.0
 40
0.0
 40
0.0
 40
0.2175726443036045
 40
0.3761681006452068
 40
0.4815685421668723
 40
0.5789802183219148
 40
0.6811946269349995
 40
0.7845909612590687
 40
0.8873338538700644
 40
0.9904040445879145
 40
0.9999999999999999
 40
0.9999999999999999
 40
0.9999999999999999
 40
0.9999999999999999
 10
36.23619181781535
 20
2.383914795503702
 30
0.0
 10
36.05666436724728
 20
2.375275246823521
 30
0.0
 10
35.74627378340337
 20
2.360338062841326
 30
0.0
 10
35.35026849133943
 20
2.349517874579214
 30
0.0
 10
35.05419371896613
 20
2.34458050770119
 30
0.0
 10
34.80397561340202
 20
2.342649403608089
 30
0.0
 10
34.55480833006884
 20
2.342888331198261
 30
0.0
 10
34.30126225915822
 20
2.345341553984196
 30
0.0
 10
34.04715214597715
 20
2.350355981750754
 30
0.0
 10
33.87007404860034
 20
2.354817596334803
 30
0.0
 10
33.77742568741847
 20
2.358245804348535
 30
0.0
 10
33.76953467868654
 20
2.358537790294385
 30
0.0
  0
SPLINE
  5
A3
330
1F
100
AcDbEntity
  8
0
  6
Continuous
 62
     1
370
    15
100
AcDbSpline
210
0.0
220
0.0
230
1.0
 70
     8
 71
     3
 72
    14
 73
    10
 74
     0
 42
0.000000001
 43
0.00000001
 40
0.0
 40
0.0
 40
0.0
 40
0.0
 40
0.2299560255067098
 40
0.3949736650820241
 40
0.5219785566240575
 40
0.6495921504655373
 40
0.7761626409696533
 40
0.9004790573132528
 40
1.0
 40
1.0
 40
1.0
 40
1.0
 10
38.64387198443465
 20
-2.256403823675599
 30
0.0
 10
38.81592765924968
 20
-2.23037874690726
 30
0.0
 10
39.11145138092692
 20
-2.185677939730835
 30
0.0
 10
39.50166749675206
 20
-2.13560433087994
 30
0.0
 10
39.81618053965333
 20
-2.099258183212756
 30
0.0
 10
40.10154014419437
 20
-2.070191361820746
 30
0.0
 10
40.38484672873344
 20
-2.045110307078613
 30
0.0
 10
40.64710097565028
 20
-2.024853016663852
 30
0.0
 10
40.81445359909534
 20
-2.014792371084577
 30
0.0
 10
40.88886070842912
 20
-2.010319279834644
 30
0.0
  0
SPLINE
  5
A4
330
1F
100
AcDbEntity
  8
0
  6
Continuous
 62
     1
370
    15
100
AcDbSpline
210
0.0
220
0.0
230
1.0
 70
     8
 71
     3
 72
    19
 73
    15
 74
     0
 42
0.000000001
 43
0.00000001
 40
0.0
 40
0.0
 40
0.0
 40
0.0
 40
0.1272101222461951
 40
0.2113337486591555
 40
0.2649212899395584
 40
0.319364115917412
 40
0.4938552436465368
 40
0.5838205146614568
 40
0.6699506067705225
 40
0.7175130367874876
 40
0.7706050567610528
 40
0.8245886846189233
 40
0.9009317266489258
 40
1.0
 40
1.0
 40
1.0
 40
1.0
 10
27.56029508072811
 20
2.051856952665402
 30
0.0
 10
27.33665020788392
 20
2.034498263179774
 30
0.0
 10
26.96510973207892
 20
2.005660330662828
 30
0.0
 10
26.50188958331416
 20
1.986207137962261
 30
0.0
 10
26.17006268170071
 20
1.977415756397958
 30
0.0
 10
25.67775919979429
 20
1.971212771875851
 30
0.0
 10
25.11956821170249
 20
1.98060536129937
 30
0.0
 10
24.50762268034288
 20
2.011713880659365
 30
0.0
 10
24.11699522371426
 20
2.040108658298394
 30
0.0
 10
23.79073718151265
 20
2.069025630023988
 30
0.0
 10
23.52048251810167
 20
2.096209407079745
 30
0.0
 10
23.20061593071845
 20
2.132689000385047
 30
0.0
 10
22.8001732920687
 20
2.183763244615686
 30
0.0
 10
22.49297755407558
 20
2.230205363432554
 30
0.0
 10
22.31948047221588
 20
2.256434803146617
 30
0.0
  0
SPLINE
  5
A5
330
1F
100
AcDbEntity
  8
0
  6
Continuous
 62
     1
370
    15
100
AcDbSpline
210
0.0
220
0.0
230
1.0
 70
     8
 71
     3
 72
    13
 73
     9
 74
     0
 42
0.000000001
 43
0.00000001
 40
0.0
 40
0.0
 40
0.0
 40
0.0
 40
0.2325475257432579
 40
0.4117510682222597
 40
0.5384693268973145
 40
0.7202210960023883
 40
0.8762670828631541
 40
1.0
 40
1.0
 40
1.0
 40
1.0
 10
22.31948047221588
 20
-2.256434803146606
 30
0.0
 10
22.49297852049149
 20
-2.230204458301329
 30
0.0
 10
22.80017596963068
 20
-2.183760736849718
 30
0.0
 10
23.20060895944119
 20
-2.132695529582823
 30
0.0
 10
23.56294452258715
 20
-2.091349462928316
 30
0.0
 10
23.9088240886852
 20
-2.057725792973193
 30
0.0
 10
24.25226076857599
 20
-2.029591018431286
 30
0.0
 10
24.46033492627201
 20
-2.016756437024386
 30
0.0
 10
24.55235624076233
 20
-2.011080311430159
 30
0.0
  0
SPLINE
  5
A6
330
1F
100
AcDbEntity
  8
0
  6
Continuous
 62
     1
370
    15
100
AcDbSpline
210
0.0
220
0.0
230
1.0
 70
     8
 71
     3
 72
    21
 73
    17
 74
     0
 42
0.000000001
 43
0.00000001
 40
0.0
 40
0.0
 40
0.0
 40
0.0
 40
0.1005494910300059
 40
0.1750503608053644
 40
0.2244410621693512
 40
0.2691918933527472
 40
0.3153944727386265
 40
0.4975738538055834
 40
0.5461593509951499
 40
0.5948791163325867
 40
0.6444317452099425
 40
0.6936910639393007
 40
0.7420495614082906
 40
0.8003558504770807
 40
0.8859927942864233
 40
1.0
 40
1.0
 40
1.0
 40
1.0
 10
43.88936833168127
 20
2.052276093451948
 30
0.0
 10
43.71222855640886
 20
2.038167864560639
 30
0.0
 10
43.40383931190078
 20
2.013606322453863
 30
0.0
 10
43.0099137721453
 20
1.993720772631474
 30
0.0
 10
42.71764978554293
 20
1.983136204029764
 30
0.0
 10
42.47397754928639
 20
1.977231362234245
 30
0.0
 10
41.9971756102677
 20
1.971122592871065
 30
0.0
 10
41.51012627384038
 20
1.97956258255383
 30
0.0
 10
41.03080125188131
 20
2.001399622223589
 30
0.0
 10
40.77429998612574
 20
2.016362895346414
 30
0.0
 10
40.51318566817872
 20
2.034885869566328
 30
0.0
 10
40.25345361179606
 20
2.056360688612434
 30
0.0
 10
39.97987252992837
 20
2.082154418494536
 30
0.0
 10
39.64415871381769
 20
2.118227013053404
 30
0.0
 10
39.19367950252203
 20
2.173779040576646
 30
0.0
 10
38.84371814409877
 20
2.226371048473029
 30
0.0
 10
38.64387198443465
 20
2.256403823675612
 30
0.0
  0
SPLINE
  5
A7
330
1F
100
AcDbEntity
  8
0
  6
Continuous
 62
     1
370
    15
100
AcDbSpline
210
0.0
220
0.0
230
1.0
 70
     8
 71
     3
 72
     9
 73
     5
 74
     0
 42
0.000000001
 43
0.00000001
 40
0.0
 40
0.0
 40
0.0
 40
0.0
 40
0.4975722317922197
 40
1.0
 40
1.0
 40
1.0
 40
1.0
 10
11.2360113449539
 20
2.051849250355303
 30
0.0
 10
11.03057552278791
 20
2.035589909702259
 30
0.0
 10
10.61769914215463
 20
2.002912562346118
 30
0.0
 10
10.2065651394255
 20
1.988761935624828
 30
0.0
 10
9.99999999999997
 20
1.981652267822509
 30
0.0
  0
LINE
  5
A8
330
1F
100
AcDbEntity
  8
0
  6
Continuous
 62
   131
370
    15
100
AcDbLine
 10
9.110060225934017
 20
3.000000000000005
 30
0.0
 11
-44.44999999999999
 21
3.000000000000001
 31
0.0
  0
LINE
  5
A9
330
1F
100
AcDbEntity
  8
0
  6
Continuous
 62
   131
370
    15
100
AcDbLine
 10
-44.44999999999999
 20
-2.999999999999999
 30
0.0
 11
9.110060225934017
 21
-2.999999999999996
 31
0.0
  0
LINE
  5
AA
330
1F
100
AcDbEntity
  8
0
  6
Continuous
 62
   131
370
    15
100
AcDbLine
 10
-44.44999999999999
 20
2.999999999999998
 30
0.0
 11
-44.99999999999999
 21
2.449999999999998
 31
0.0
  0
LINE
  5
AB
330
1F
100
AcDbEntity
  8
0
  6
Continuous
 62
   131
370
    15
100
AcDbLine
 10
-44.99999999999999
 20
-2.449999999999996
 30
0.0
 11
-44.44999999999999
 21
-2.999999999999996
 31
0.0
  0
SPLINE
  5
AC
330
1F
100
AcDbEntity
  8
0
  6
Continuous
 62
   131
370
    15
100
AcDbSpline
210
0.0
220
0.0
230
1.0
 70
     8
 71
     3
 72
     9
 73
     5
 74
     0
 42
0.000000001
 43
0.00000001
 40
0.0
 40
0.0
 40
0.0
 40
0.0
 40
0.4649183957288961
 40
1.0
 40
1.0
 40
1.0
 40
1.0
 10
10.00000000003225
 20
1.981652267823379
 30
0.0
 10
9.86200482072969
 20
1.978618591296583
 30
0.0
 10
9.565188905140444
 20
1.97209341063119
 30
0.0
 10
9.268713805771037
 20
1.975314684312784
 30
0.0
 10
9.110075433974021
 20
1.977038328602128
 30
0.0
  0
SPLINE
  5
AD
330
1F
100
AcDbEntity
  8
0
  6
Continuous
 62
     1
370
    15
100
AcDbSpline
210
0.0
220
0.0
230
1.0
 70
     8
 71
     3
 72
    19
 73
    15
 74
     0
 42
0.000000001
 43
0.00000001
 40
0.0
 40
0.0
 40
0.0
 40
0.0
 40
0.0874915867912633
 40
0.1749714919957019
 40
0.2624412142105163
 40
0.3499022630688775
 40
0.4373561576278526
 40
0.5248044247345148
 40
0.6122485973739887
 40
0.6996902130032151
 40
0.7871308118742953
 40
0.8745719353513216
 40
0.9620151242246064
 40
1.0
 40
1.0
 40
1.0
 40
1.0
 10
45.00000000000001
 20
-2.846822607695694
 30
0.0
 10
44.57254256281517
 20
-2.752239123571873
 30
0.0
 10
43.7176847611464
 20
-2.563084783797693
 30
0.0
 10
42.43552079026549
 20
-2.077936679222821
 30
0.0
 10
41.15353304381668
 20
-1.479362432467973
 30
0.0
 10
39.87169850206551
 20
-0.7879292211979926
 30
0.0
 10
38.58998953709438
 20
-0.0496888675361402
 30
0.0
 10
37.30837955997779
 20
0.6917236464910492
 30
0.0
 10
36.02684157345473
 20
1.391387057217771
 30
0.0
 10
34.74534849717304
 20
2.006069126504518
 30
0.0
 10
33.46387349774716
 20
2.502147101378232
 30
0.0
 10
32.18238852842325
 20
2.836156609379443
 30
0.0
 10
31.14249734600997
 20
2.99998431830649
 30
0.0
 10
30.52975921648746
 20
2.982807652937074
 30
0.0
 10
30.34419642559252
 20
2.977605838637218
 30
0.0
  0
SPLINE
  5
AE
330
1F
100
AcDbEntity
  8
0
  6
Continuous
 62
     1
370
    15
100
AcDbSpline
210
0.0
220
0.0
230
1.0
 70
     8
 71
     3
 72
    13
 73
     9
 74
     0
 42
0.000000001
 43
0.00000001
 40
0.0
 40
0.0
 40
0.0
 40
0.0
 40
0.0906326252055778
 40
0.2725069026122414
 40
0.4543807634482456
 40
0.6362542230539141
 40
0.8181272967825618
 40
1.0
 40
1.0
 40
1.0
 40
1.0
 10
17.40530930422343
 20
-2.364994619437791
 30
0.0
 10
17.18158813868496
 20
-2.447218074611014
 30
0.0
 10
16.50892129568658
 20
-2.694440959753181
 30
0.0
 10
15.38731050061109
 20
-2.923759178776267
 30
0.0
 10
14.04047783798368
 20
-3.035622103467599
 30
0.0
 10
12.69364878467913
 20
-2.933591405039446
 30
0.0
 10
11.34682311305245
 20
-2.648088861284859
 30
0.0
 10
10.44894073282075
 20
-2.313820814120048
 30
0.0
 10
9.999999999996094
 20
-2.146686960780248
 30
0.0
  0
SPLINE
  5
AF
330
1F
100
AcDbEntity
  8
0
  6
Continuous
 62
   131
370
    15
100
AcDbSpline
210
0.0
220
0.0
230
1.0
 70
    24
 71
     3
 72
     8
 73
     4
 74
     0
 42
0.000000001
 43
0.00000001
 40
0.0
 40
0.0
 40
0.0
 40
0.0
 40
1.0
 40
1.0
 40
1.0
 40
1.0
 10
10.0
 20
-1.714004239520738
 30
0.0
 10
10.0
 20
-1.851928842289607
 30
0.0
 10
10.0
 20
-1.997055402787235
 30
0.0
 10
10.0
 20
-2.146686960770645
 30
0.0
  0
SPLINE
  5
B0
330
1F
100
AcDbEntity
  8
0
  6
Continuous
 62
     1
370
    15
100
AcDbSpline
210
0.0
220
0.0
230
1.0
 70
     8
 71
     3
 72
    13
 73
     9
 74
     0
 42
0.000000001
 43
0.00000001
 40
0.0
 40
0.0
 40
0.0
 40
0.0
 40
0.191927249519376
 40
0.3839161555442082
 40
0.5759516186382103
 40
0.7680183862013774
 40
0.9601011023177148
 40
1.0
 40
1.0
 40
1.0
 40
1.0
 10
45.00000000000001
 20
-2.366916793104639
 30
0.0
 10
44.50180430026306
 20
-2.256897576586163
 30
0.0
 10
43.50525285574106
 20
-2.03682379994667
 30
0.0
 10
42.01012990729234
 20
-1.487502158530185
 30
0.0
 10
40.51459717592137
 20
-0.8280713837209709
 30
0.0
 10
39.01878355192628
 20
-0.1030478957214153
 30
0.0
 10
37.91791164437979
 20
0.4533710526419077
 30
0.0
 10
37.31566586395491
 20
0.7233695396516417
 30
0.0
 10
37.21208462585895
 20
0.7698070216191766
 30
0.0
  0
SPLINE
  5
B1
330
1F
100
AcDbEntity
  8
0
  6
Continuous
 62
     1
370
    15
100
AcDbSpline
210
0.0
220
0.0
230
1.0
 70
     8
 71
     3
 72
    12
 73
     8
 74
     0
 42
0.000000001
 43
0.00000001
 40
0.0
 40
0.0
 40
0.0
 40
0.0
 40
0.0578342261685229
 40
0.3343962761123238
 40
0.556345743659561
 40
0.7782284060098663
 40
1.0
 40
1.0
 40
1.0
 40
1.0
 10
15.40361482658611
 20
-2.47917354036248
 30
0.0
 10
15.29943552833142
 20
-2.494851167020827
 30
0.0
 10
14.69707302273049
 20
-2.585498873753415
 30
0.0
 10
13.69490980995588
 20
-2.551030325201582
 30
0.0
 10
12.39730750662055
 20
-2.397358390866927
 30
0.0
 10
11.19843121934499
 20
-2.12252273540921
 30
0.0
 10
10.39941039511712
 20
-1.850154342439992
 30
0.0
 10
10.00000000000001
 20
-1.714004239520741
 30
0.0
  0
LINE
  5
B2
330
1F
100
AcDbEntity
  8
0
  6
Continuous
 62
     1
370
    15
100
AcDbLine
 10
45.00000000000001
 20
-2.846822607695696
 30
0.0
 11
45.00000000000001
 21
-2.366916793104639
 31
0.0
  0
SPLINE
  5
B3
330
1F
100
AcDbEntity
  8
0
  6
Continuous
 62
     1
370
    15
100
AcDbSpline
210
0.0
220
0.0
230
1.0
 70
     8
 71
     3
 72
    24
 73
    20
 74
     0
 42
0.000000001
 43
0.00000001
 40
0.0
 40
0.0
 40
0.0
 40
0.0
 40
0.0150869236926323
 40
0.0799988052212171
 40
0.1449122199958525
 40
0.2098283101452042
 40
0.2747482148750332
 40
0.3396730692284858
 40
0.4046040028560688
 40
0.4695421387981493
 40
0.5344885922827614
 40
0.5994399403889469
 40
0.6643832601478699
 40
0.7293186643806056
 40
0.7942472712758515
 40
0.8624626583525418
 40
0.9306778834382923
 40
0.9988929522817105
 40
1.0
 40
1.0
 40
1.0
 40
1.0
 10
33.76171840455453
 20
-2.361519389600638
 30
0.0
 10
33.66243750006142
 20
-2.400328722581761
 30
0.0
 10
33.13599792215011
 20
-2.606116219965229
 30
0.0
 10
32.18238900497894
 20
-2.83562627537151
 30
0.0
 10
30.90086829130192
 20
-3.015113069484153
 30
0.0
 10
29.61928423278505
 20
-3.000626914985695
 30
0.0
 10
28.33760981939309
 20
-2.807548473542691
 30
0.0
 10
27.0558182078247
 20
-2.443661674246024
 30
0.0
 10
25.77388256428704
 20
-1.932022527461665
 30
0.0
 10
24.4917766521534
 20
-1.303307885387102
 30
0.0
 10
23.20950262687883
 20
-0.5956754998062048
 30
0.0
 10
21.92716114125352
 20
0.1480283441011121
 30
0.0
 10
20.64494395056532
 20
0.882692889000294
 30
0.0
 10
19.36289303816221
 20
1.564296167267333
 30
0.0
 10
18.05937844960221
 20
2.159452059248189
 30
0.0
 10
16.73414023724449
 20
2.632849231644012
 30
0.0
 10
15.3873123941233
 20
2.91406348401089
 30
0.0
 10
14.48213513329413
 20
3.03227145597824
 30
0.0
 10
14.02590532202964
 20
2.998932034074201
 30
0.0
 10
14.0186195062377
 20
2.998399616243088
 30
0.0
  0
SPLINE
  5
B4
330
1F
100
AcDbEntity
  8
0
  6
Continuous
 62
     1
370
    15
100
AcDbSpline
210
0.0
220
0.0
230
1.0
 70
     8
 71
     3
 72
    16
 73
    12
 74
     0
 42
0.000000001
 43
0.00000001
 40
0.0
 40
0.0
 40
0.0
 40
0.0
 40
0.0171410116308341
 40
0.1549945778891793
 40
0.2928414579152093
 40
0.4307331069306955
 40
0.5686589586871311
 40
0.7066080646803975
 40
0.8445693996730969
 40
0.9825318979932366
 40
1.0
 40
1.0
 40
1.0
 40
1.0
 10
31.7260389641834
 20
-2.485112328817165
 30
0.0
 10
31.66408672958225
 20
-2.494893350457323
 30
0.0
 10
31.10389456250944
 20
-2.58333651548698
 30
0.0
 10
30.04556237238343
 20
-2.554998539831926
 30
0.0
 10
28.55082803226177
 20
-2.37925433932477
 30
0.0
 10
27.05573878745259
 20
-1.987777548928371
 30
0.0
 10
25.56023086181211
 20
-1.438652683933539
 30
0.0
 10
24.06443151306975
 20
-0.7676688683641453
 30
0.0
 10
22.56848265354713
 20
-0.0415073716197508
 30
0.0
 10
21.50800657251562
 20
0.4959111990915578
 30
0.0
 10
20.94620682353695
 20
0.7456993033032734
 30
0.0
 10
20.88306883589557
 20
0.773771794017903
 30
0.0
  0
SPLINE
  5
B5
330
1F
100
AcDbEntity
  8
0
  6
Continuous
 62
     1
370
    15
100
AcDbSpline
210
0.0
220
0.0
230
1.0
 70
     8
 71
     3
 72
    22
 73
    18
 74
     0
 42
0.000000001
 43
0.00000001
 40
0.0
 40
0.0
 40
0.0
 40
0.0
 40
0.0712968306591407
 40
0.1425938067378058
 40
0.2138909342701839
 40
0.2851882192855529
 40
0.3564856678080865
 40
0.4277832858566591
 40
0.495646132309271
 40
0.5635160835348911
 40
0.6313943081480894
 40
0.6992809207875523
 40
0.7671624115813626
 40
0.8350352099926647
 40
0.9029004815503874
 40
0.9707593999473618
 40
1.0
 40
1.0
 40
1.0
 40
1.0
 10
10.00000000000004
 20
2.641970418489835
 30
0.0
 10
10.44893809715197
 20
2.74758782955065
 30
0.0
 10
11.34681520712578
 20
2.958822867093267
 30
0.0
 10
12.69363316105005
 20
3.030707858867993
 30
0.0
 10
14.04045376007636
 20
2.9127903743663
 30
0.0
 10
15.38728075040656
 20
2.596876497610043
 30
0.0
 10
16.73410094620347
 20
2.108388376073154
 30
0.0
 10
18.05933462477028
 20
1.488875118763086
 30
0.0
 10
19.36284818344434
 20
0.7863129571204948
 30
0.0
 10
20.64490142757651
 20
0.0477502293503719
 30
0.0
 10
21.92712093853743
 20
-0.6936813503046648
 30
0.0
 10
23.20946469597486
 20
-1.393273914339591
 30
0.0
 10
24.49174083299404
 20
-2.007761288447991
 30
0.0
 10
25.77384912212174
 20
-2.503508798375655
 30
0.0
 10
27.055786128848
 20
-2.836974348643496
 30
0.0
 10
28.0944613009967
 20
-3.000254080580976
 30
0.0
 10
28.70582176976974
 20
-2.982879351609847
 30
0.0
 10
28.88992718286365
 20
-2.977647116589738
 30
0.0
  0
SPLINE
  5
B6
330
1F
100
AcDbEntity
  8
0
  6
Continuous
 62
     1
370
    15
100
AcDbSpline
210
0.0
220
0.0
230
1.0
 70
     8
 71
     3
 72
    11
 73
     7
 74
     0
 42
0.000000001
 43
0.00000001
 40
0.0
 40
0.0
 40
0.0
 40
0.0
 40
0.0644167444213904
 40
0.3762397492142595
 40
0.6880990537681254
 40
1.0
 40
1.0
 40
1.0
 40
1.0
 10
40.88866010525084
 20
2.010228459210832
 30
0.0
 10
40.9769360372204
 20
2.050850029040066
 30
0.0
 10
41.49253046541163
 20
2.288108980614238
 30
0.0
 10
42.43551759727377
 20
2.599306087631672
 30
0.0
 10
43.71768220202395
 20
2.915696917155926
 30
0.0
 10
44.57254171078854
 20
2.970207389821091
 30
0.0
 10
45.00000000000001
 20
3.000000000000132
 30
0.0
  0
SPLINE
  5
B7
330
1F
100
AcDbEntity
  8
0
  6
Continuous
 62
     1
370
    15
100
AcDbSpline
210
0.0
220
0.0
230
1.0
 70
     8
 71
     3
 72
     9
 73
     5
 74
     0
 42
0.000000001
 43
0.00000001
 40
0.0
 40
0.0
 40
0.0
 40
0.0
 40
0.5250608750192883
 40
0.9999999999999999
 40
0.9999999999999999
 40
0.9999999999999999
 40
0.9999999999999999
 10
10.00000000000004
 20
-2.641970418489826
 30
0.0
 10
10.44893809785699
 20
-2.75103822674665
 30
0.0
 10
11.30395914249388
 20
-2.958762346836184
 30
0.0
 10
12.15898070992403
 20
-2.980845898440648
 30
0.0
 10
12.56506390499895
 20
-2.991334241116139
 30
0.0
  0
SPLINE
  5
B8
330
1F
100
AcDbEntity
  8
0
  6
Continuous
 62
     1
370
    15
100
AcDbSpline
210
0.0
220
0.0
230
1.0
 70
     8
 71
     3
 72
    23
 73
    19
 74
     0
 42
0.000000001
 43
0.00000001
 40
0.0
 40
0.0
 40
0.0
 40
0.0
 40
0.0597241135432301
 40
0.1224169390734431
 40
0.1851038956578872
 40
0.2477860739158502
 40
0.3104645696723364
 40
0.3731404827706081
 40
0.4358149158753766
 40
0.4984889732694187
 40
0.5611637596464137
 40
0.6238403789028271
 40
0.6865199329316504
 40
0.7492035204208146
 40
0.8118922356590748
 40
0.8745871673521183
 40
0.9372893974516334
 40
1.0
 40
1.0
 40
1.0
 40
1.0
 10
24.55263717656699
 20
2.011187347889649
 30
0.0
 10
24.9597239254484
 20
2.175805946366324
 30
0.0
 10
25.79413252155674
 20
2.513225855085241
 30
0.0
 10
27.05578632376708
 20
2.842009538782134
 30
0.0
 10
28.33758069919549
 20
3.013904297683382
 30
0.0
 10
29.61925717292206
 20
3.000669652510896
 30
0.0
 10
30.90084350417981
 20
2.806488336768598
 30
0.0
 10
32.18236643088127
 20
2.442223095137682
 30
0.0
 10
33.46385306457152
 20
1.930170245218863
 30
0.0
 10
34.74533047806774
 20
1.301262881416039
 30
0.0
 10
36.02682577472878
 20
0.5935786400556788
 30
0.0
 10
37.30836603776682
 20
-0.1500303697561866
 30
0.0
 10
38.58997827763581
 20
-0.8846377363742903
 30
0.0
 10
39.87168950737083
 20
-1.565456333058469
 30
0.0
 10
41.15352630874087
 20
-2.152451499060836
 30
0.0
 10
42.43551630860375
 20
-2.605648598279495
 30
0.0
 10
43.71768252425727
 20
-2.914110965563679
 30
0.0
 10
44.57254181820443
 20
-2.969678715762698
 30
0.0
 10
45.00000000000001
 20
-2.999999999999865
 30
0.0
  0
LINE
  5
B9
330
1F
100
AcDbEntity
  8
0
  6
Continuous
 62
   131
370
    15
100
AcDbLine
 10
10.0
 20
-2.641970418489814
 30
0.0
 11
9.999999999999998
 21
-2.146686960760301
 31
0.0
  0
LINE
  5
BA
330
1F
100
AcDbEntity
  8
0
  6
Continuous
 62
     1
370
    15
100
AcDbLine
 10
45.00000000000001
 20
-2.999999999999865
 30
0.0
 11
45.00000000000001
 21
-2.8468226076957
 31
0.0
  0
SPLINE
  5
BB
330
1F
100
AcDbEntity
  8
0
  6
Continuous
 62
     1
370
    15
100
AcDbSpline
210
0.0
220
0.0
230
1.0
 70
     8
 71
     3
 72
    15
 73
    11
 74
     0
 42
0.000000001
 43
0.00000001
 40
0.0
 40
0.0
 40
0.0
 40
0.0
 40
0.0032255898418757
 40
0.1528296518028647
 40
0.302421654498146
 40
0.4519891419681734
 40
0.6015197397805786
 40
0.7510011958025284
 40
0.9004751191969431
 40
1.0
 40
1.0
 40
1.0
 40
1.0
 10
37.55507340822149
 20
-0.2884960128407629
 30
0.0
 10
37.54432173704832
 20
-0.2843326411145994
 30
0.0
 10
37.03490353999167
 20
-0.087070533274672
 30
0.0
 10
36.02685614067859
 20
0.3337434491118976
 30
0.0
 10
34.53102875800616
 20
0.913571188515325
 30
0.0
 10
33.03547175728347
 20
1.422382115422318
 30
0.0
 10
31.54031839014627
 20
1.814671276703894
 30
0.0
 10
30.04553869947292
 20
2.051510610378705
 30
0.0
 10
28.71744422098763
 20
2.133678167885816
 30
0.0
 10
27.88751005866553
 20
2.061287279609161
 30
0.0
 10
27.55578517811555
 20
2.032352624480264
 30
0.0
  0
SPLINE
  5
BC
330
1F
100
AcDbEntity
  8
0
  6
Continuous
 62
     1
370
    15
100
AcDbSpline
210
0.0
220
0.0
230
1.0
 70
    24
 71
     3
 72
    10
 73
     6
 74
     0
 42
0.000000001
 43
0.00000001
 40
0.0
 40
0.0
 40
0.0
 40
0.0
 40
0.5
 40
0.5
 40
1.0
 40
1.0
 40
1.0
 40
1.0
 10
45.00000000000001
 20
2.100000000000008
 30
0.0
 10
45.00000000000001
 20
2.22729677042195
 30
0.0
 10
45.0
 20
2.375227406601361
 30
0.0
 10
44.99999999999999
 20
2.685585482882578
 30
0.0
 10
45.00000000000001
 20
2.847220307404431
 30
0.0
 10
45.00000000000001
 20
3.000000000000132
 30
0.0
  0
LINE
  5
BD
330
1F
100
AcDbEntity
  8
0
  6
Continuous
 62
     1
370
    15
100
AcDbLine
 10
45.00000000000001
 20
2.100000000000008
 30
0.0
 11
43.8852882370431
 21
2.035606863604521
 31
0.0
  0
SPLINE
  5
BE
330
1F
100
AcDbEntity
  8
0
  6
Continuous
 62
     1
370
    15
100
AcDbSpline
210
0.0
220
0.0
230
1.0
 70
     8
 71
     3
 72
    15
 73
    11
 74
     0
 42
0.000000001
 43
0.00000001
 40
0.0
 40
0.0
 40
0.0
 40
0.0
 40
0.0153914764716243
 40
0.1651101668681769
 40
0.3148051905374227
 40
0.464464155633613
 40
0.6140747898860514
 40
0.7636709533557239
 40
0.8837235088808331
 40
1.0
 40
1.0
 40
1.0
 40
1.0
 10
21.22623263517285
 20
-0.2854850037268299
 30
0.0
 10
21.17497206293295
 20
-0.2655360501271526
 30
0.0
 10
20.62508059203402
 20
-0.0515361090714246
 30
0.0
 10
19.57664510400561
 20
0.3839543068755286
 30
0.0
 10
18.0810648078992
 20
0.9599149227096646
 30
0.0
 10
16.58587703838869
 20
1.460342343429926
 30
0.0
 10
15.09108735995688
 20
1.840528270855216
 30
0.0
 10
13.6948823686503
 20
2.051581101189932
 30
0.0
 10
12.40973167338293
 20
2.123157372438021
 30
0.0
 10
11.62277563794036
 20
2.074219759455462
 30
0.0
 10
11.23558461015255
 20
2.05014191544027
 30
0.0
  0
SPLINE
  5
BF
330
1F
100
AcDbEntity
  8
0
  6
Continuous
 62
   131
370
    15
100
AcDbSpline
210
0.0
220
0.0
230
1.0
 70
    24
 71
     3
 72
    10
 73
     6
 74
     0
 42
0.000000001
 43
0.00000001
 40
0.0
 40
0.0
 40
0.0
 40
0.0
 40
0.0973128350287026
 40
0.6058091873310827
 40
1.0
 40
1.0
 40
1.0
 40
1.0
 10
10.0
 20
2.641970418489823
 30
0.0
 10
10.0
 20
2.616947929825185
 30
0.0
 10
9.999999999999998
 20
2.461173478094794
 30
0.0
 10
10.0
 20
2.207928276275845
 30
0.0
 10
10.0
 20
2.050429689598149
 30
0.0
 10
9.999999999999998
 20
1.98165226782251
 30
0.0
  0
SPLINE
  5
C0
330
1F
100
AcDbEntity
  8
0
  6
Continuous
 62
     1
370
    15
100
AcDbSpline
210
0.0
220
0.0
230
1.0
 70
     8
 71
     3
 72
     8
 73
     4
 74
     0
 42
0.000000001
 43
0.00000001
 40
0.0
 40
0.0
 40
0.0
 40
0.0
 40
1.0
 40
1.0
 40
1.0
 40
1.0
 10
43.143235968209
 20
0.8396782644515315
 30
0.0
 10
43.00894915072985
 20
0.9988018849865382
 30
0.0
 10
42.89240403524032
 20
1.15088364947346
 30
0.0
 10
42.80039515848588
 20
1.292364378577725
 30
0.0
  0
LINE
  5
C1
330
1F
100
AcDbEntity
  8
0
  6
Continuous
 62
     1
370
    15
100
AcDbLine
 10
42.80039515848587
 20
1.292364378577723
 30
0.0
 11
45.00000000000001
 21
0.0000000000000092
 31
0.0
  0
LINE
  5
C2
330
1F
100
AcDbEntity
  8
0
  6
Continuous
 62
     1
370
    15
100
AcDbLine
 10
45.00000000000001
 20
0.0000000000000092
 30
0.0
 11
45.00000000000001
 21
-0.8017288380889249
 31
0.0
  0
SPLINE
  5
C3
330
1F
100
AcDbEntity
  8
0
  6
Continuous
 62
     1
370
    15
100
AcDbSpline
210
0.0
220
0.0
230
1.0
 70
     8
 71
     3
 72
    10
 73
     6
 74
     0
 42
0.000000001
 43
0.00000001
 40
0.0
 40
0.0
 40
0.0
 40
0.0
 40
0.5
 40
0.5
 40
1.0
 40
1.0
 40
1.0
 40
1.0
 10
45.00000000000001
 20
-0.8017288380889251
 30
0.0
 10
44.67858102588758
 20
-0.5490379441569707
 30
0.0
 10
44.36253412375918
 20
-0.2859827532123068
 30
0.0
 10
43.74145243235515
 20
0.2613732130032247
 30
0.0
 10
43.43352622596801
 20
0.5485583873835905
 30
0.0
 10
43.14323596821239
 20
0.8396782644481277
 30
0.0
  0
SPLINE
  5
C4
330
1F
100
AcDbEntity
  8
0
  6
Continuous
 62
     1
370
    15
100
AcDbSpline
210
0.0
220
0.0
230
1.0
 70
     8
 71
     3
 72
    20
 73
    16
 74
     0
 42
0.000000001
 43
0.00000001
 40
0.0
 40
0.0
 40
0.0
 40
0.0
 40
0.0602932324930623
 40
0.1401034858642806
 40
0.2199074735276381
 40
0.2996987234818312
 40
0.3794708058833636
 40
0.4592173541303433
 40
0.53895998703918
 40
0.6187288803901368
 40
0.6985178357581424
 40
0.778320430882948
 40
0.8581301983772036
 40
0.9379406470757135
 40
0.9999999999999999
 40
0.9999999999999999
 40
0.9999999999999999
 40
0.9999999999999999
 10
38.65298340822146
 20
-2.237594300074397
 30
0.0
 10
38.27626246297348
 20
-2.293819661000258
 30
0.0
 10
37.40087536818801
 20
-2.424470626854459
 30
0.0
 10
36.02685666968034
 20
-2.399957446137993
 30
0.0
 10
34.53102775469091
 20
-2.198638510157883
 30
0.0
 10
33.03546980409924
 20
-1.810356734303703
 30
0.0
 10
31.54031403490664
 20
-1.274863546358658
 30
0.0
 10
30.0455419079734
 20
-0.6340494624008666
 30
0.0
 10
28.55080716801642
 20
0.0587943534209677
 30
0.0
 10
27.05571604368668
 20
0.7468804947893898
 30
0.0
 10
25.56020741014571
 20
1.37316496293342
 30
0.0
 10
24.06440742197333
 20
1.888174345434475
 30
0.0
 10
22.56845661501805
 20
2.241709857590064
 30
0.0
 10
21.18336385121077
 20
2.419533404462388
 30
0.0
 10
20.29695004288875
 20
2.382766913612688
 30
0.0
 10
19.90919826810389
 20
2.366683824714773
 30
0.0
  0
SPLINE
  5
C5
330
1F
100
AcDbEntity
  8
0
  6
Continuous
 62
   131
370
    15
100
AcDbSpline
210
0.0
220
0.0
230
1.0
 70
    24
 71
     3
 72
    10
 73
     6
 74
     0
 42
0.000000001
 43
0.00000001
 40
0.0
 40
0.0
 40
0.0
 40
0.0
 40
0.5
 40
0.5
 40
1.0
 40
1.0
 40
1.0
 40
1.0
 10
10.0
 20
1.049171048681357
 30
0.0
 10
10.0
 20
0.6124072045055714
 30
0.0
 10
10.0
 20
0.1206866489528512
 30
0.0
 10
10.0
 20
-0.845180036623112
 30
0.0
 10
10.0
 20
-1.315168698847844
 30
0.0
 10
10.0
 20
-1.714004239520737
 30
0.0
  0
SPLINE
  5
C6
330
1F
100
AcDbEntity
  8
0
  6
Continuous
 62
     1
370
    15
100
AcDbSpline
210
0.0
220
0.0
230
1.0
 70
     8
 71
     3
 72
    12
 73
     8
 74
     0
 42
0.000000001
 43
0.00000001
 40
0.0
 40
0.0
 40
0.0
 40
0.0
 40
0.1902373767794129
 40
0.380478202501617
 40
0.5969595288552367
 40
0.8134590819997365
 40
1.0
 40
1.0
 40
1.0
 40
1.0
 10
43.14323596820898
 20
0.8396782644515379
 30
0.0
 10
42.7051407428916
 20
1.023982673048655
 30
0.0
 10
41.82894234973051
 20
1.392594831622865
 30
0.0
 10
40.45430471209963
 20
1.864455790462447
 30
0.0
 10
39.01875575937845
 20
2.219179355853591
 30
0.0
 10
37.59182772582786
 20
2.41492946154798
 30
0.0
 10
36.66349882260275
 20
2.385583009438391
 30
0.0
 10
36.2338364481967
 20
2.372000467464319
 30
0.0
  0
SPLINE
  5
C7
330
1F
100
AcDbEntity
  8
0
  6
Continuous
 62
     1
370
    15
100
AcDbSpline
210
0.0
220
0.0
230
1.0
 70
     8
 71
     3
 72
    16
 73
    12
 74
     0
 42
0.000000001
 43
0.00000001
 40
0.0
 40
0.0
 40
0.0
 40
0.0
 40
0.101709497374505
 40
0.2230558631857436
 40
0.3443835470417306
 40
0.46568276655994
 40
0.5869438332976253
 40
0.7081934727620788
 40
0.8054985672176992
 40
0.9027739747287786
 40
1.0
 40
1.0
 40
1.0
 40
1.0
 10
22.32627800908659
 20
-2.242530377893217
 30
0.0
 10
21.90833682235371
 20
-2.301015506132285
 30
0.0
 10
20.99176330096158
 20
-2.42927738038833
 30
0.0
 10
19.5766471110387
 20
-2.390691126796165
 30
0.0
 10
18.0810663391543
 20
-2.172576790315447
 30
0.0
 10
16.58587594102399
 20
-1.770570193068666
 30
0.0
 10
15.09109351922691
 20
-1.224524594149185
 30
0.0
 10
13.69488123224771
 20
-0.6193252347686512
 30
0.0
 10
12.39728681167779
 20
-0.0221184075058322
 30
0.0
 10
11.19842430721748
 20
0.5351248477334302
 30
0.0
 10
10.3994071478791
 20
0.87785132013263
 30
0.0
 10
10.00000000000001
 20
1.049171048681351
 30
0.0
  0
SPLINE
  5
C8
330
1F
100
AcDbEntity
  8
0
  6
Continuous
 62
     1
370
    15
100
AcDbSpline
210
0.0
220
0.0
230
1.0
 70
    24
 71
     3
 72
    10
 73
     6
 74
     0
 42
0.000000001
 43
0.00000001
 40
0.0
 40
0.0
 40
0.0
 40
0.0
 40
0.5000000000000001
 40
0.5000000000000001
 40
1.0
 40
1.0
 40
1.0
 40
1.0
 10
45.00000000000001
 20
-2.366916793104638
 30
0.0
 10
45.00000000000001
 20
-2.185474167011405
 30
0.0
 10
45.00000000000003
 20
-1.956214451719397
 30
0.0
 10
45.00000000000003
 20
-1.423207677452031
 30
0.0
 10
45.00000000000001
 20
-1.11992232915392
 30
0.0
 10
45.00000000000001
 20
-0.8017288380890213
 30
0.0
  0
SPLINE
  5
C9
330
1F
100
AcDbEntity
  8
0
  6
Continuous
 62
     1
370
    15
100
AcDbSpline
210
0.0
220
0.0
230
1.0
 70
     8
 71
     3
 72
    10
 73
     6
 74
     0
 42
0.000000001
 43
0.00000001
 40
0.0
 40
0.0
 40
0.0
 40
0.0
 40
0.5
 40
0.5
 40
1.0
 40
1.0
 40
1.0
 40
1.0
 10
45.00000000000001
 20
2.100000000000008
 30
0.0
 10
44.62668070767047
 20
1.99868209403282
 30
0.0
 10
44.25615379955178
 20
1.882604047883011
 30
0.0
 10
43.52150500180386
 20
1.616591951667598
 30
0.0
 10
43.15722935061072
 20
1.467297855402131
 30
0.0
 10
42.80039515848422
 20
1.292364378579016
 30
0.0
  0
SPLINE
  5
CA
330
1F
100
AcDbEntity
  8
0
  6
Continuous
 62
   131
370
    15
100
AcDbSpline
210
0.0
220
0.0
230
1.0
 70
    24
 71
     3
 72
    12
 73
     8
 74
     0
 42
0.000000001
 43
0.00000001
 40
0.0
 40
0.0
 40
0.0
 40
0.0
 40
0.1306714147017957
 40
0.3460185291939043
 40
0.5676107245949378
 40
0.7807797877413383
 40
0.9999999999999999
 40
0.9999999999999999
 40
0.9999999999999999
 40
0.9999999999999999
 10
9.999999999999998
 20
1.969968990478821
 30
0.0
 10
9.999999999999998
 20
1.971462638082092
 30
0.0
 10
9.999999999999998
 20
1.975417824057518
 30
0.0
 10
9.999999999999998
 20
1.87710783807391
 30
0.0
 10
9.999999999999998
 20
1.688716452481996
 30
0.0
 10
9.999999999999998
 20
1.415127564164031
 30
0.0
 10
9.999999999999998
 20
1.17228936804345
 30
0.0
 10
9.999999999999998
 20
1.049171048681357
 30
0.0
  0
LINE
  5
CB
330
1F
100
AcDbEntity
  8
0
  6
Continuous
 62
     1
370
    15
100
AcDbLine
 10
45.00000000000001
 20
0.0000000000000092
 30
0.0
 11
45.00000000000001
 21
2.100000000000009
 31
0.0
  0
SPLINE
  5
CC
330
1F
100
AcDbEntity
  8
0
  6
Continuous
 62
   131
370
    15
100
AcDbSpline
210
0.0
220
0.0
230
1.0
 70
     8
 71
     3
 72
     8
 73
     4
 74
     0
 42
0.000000001
 43
0.00000001
 40
0.0
 40
0.0
 40
0.0
 40
0.0
 40
1.0
 40
1.0
 40
1.0
 40
1.0
 10
10.00000000000004
 20
-2.146686960781835
 30
0.0
 10
9.702329455926035
 20
-2.026762894545524
 30
0.0
 10
9.408382492433821
 20
-1.896830269446733
 30
0.0
 10
9.110123373745907
 20
-1.757611655519087
 30
0.0
  0
SPLINE
  5
CD
330
1F
100
AcDbEntity
  8
0
  6
Continuous
 62
   131
370
    15
100
AcDbSpline
210
0.0
220
0.0
230
1.0
 70
     8
 71
     3
 72
     8
 73
     4
 74
     0
 42
0.000000001
 43
0.00000001
 40
0.0
 40
0.0
 40
0.0
 40
0.0
 40
1.0
 40
1.0
 40
1.0
 40
1.0
 10
10.00000000000004
 20
-2.641970418489819
 30
0.0
 10
9.70230844819916
 20
-2.560632363274884
 30
0.0
 10
9.408340559831695
 20
-2.466699121112087
 30
0.0
 10
9.110060225933955
 20
-2.360682701072311
 30
0.0
  0
LINE
  5
CE
330
1F
100
AcDbEntity
  8
0
  6
Continuous
 62
   131
370
    15
100
AcDbLine
 10
9.110060225934017
 20
-2.999999999999996
 30
0.0
 11
9.110060225933955
 21
-2.360194191540739
 31
0.0
  0
SPLINE
  5
CF
330
1F
100
AcDbEntity
  8
0
  6
Continuous
 62
   131
370
    15
100
AcDbSpline
210
0.0
220
0.0
230
1.0
 70
     8
 71
     3
 72
     8
 73
     4
 74
     0
 42
0.000000001
 43
0.00000001
 40
0.0
 40
0.0
 40
0.0
 40
0.0
 40
1.0
 40
1.0
 40
1.0
 40
1.0
 10
10.00000000000004
 20
2.641970418489829
 30
0.0
 10
9.70230844819916
 20
2.560632363274893
 30
0.0
 10
9.408340559831695
 20
2.466699121112097
 30
0.0
 10
9.110060225933955
 20
2.36068270107232
 30
0.0
  0
LINE
  5
D0
330
1F
100
AcDbEntity
  8
0
  6
Continuous
 62
   131
370
    15
100
AcDbLine
 10
9.110060225933989
 20
-1.757507458914499
 30
0.0
 11
9.110060225934017
 21
3.000000000000005
 31
0.0
  0
LINE
  5
D1
330
1F
100
AcDbEntity
  8
0
  6
Continuous
 62
   131
370
    15
100
AcDbLine
 10
-44.44999999999999
 20
2.999999999999998
 30
0.0
 11
-44.44999999999999
 21
-2.999999999999999
 31
0.0
  0
LINE
  5
D2
330
1F
100
AcDbEntity
  8
0
  6
Continuous
 62
   131
370
    15
100
AcDbLine
 10
-44.99999999999999
 20
2.449999999999998
 30
0.0
 11
-44.99999999999999
 21
-2.449999999999996
 31
0.0
  0
SPLINE
  5
D3
330
1F
100
AcDbEntity
  8
0
  6
Continuous
 62
   131
370
    15
100
AcDbSpline
210
0.0
220
0.0
230
1.0
 70
     8
 71
     3
 72
     8
 73
     4
 74
     0
 42
0.000000001
 43
0.00000001
 40
0.0
 40
0.0
 40
0.0
 40
0.0
 40
1.0
 40
1.0
 40
1.0
 40
1.0
 10
10.00000000000007
 20
-1.714004239520764
 30
0.0
 10
9.702329455926058
 20
-1.605960618933361
 30
0.0
 10
9.408382492433832
 20
-1.489976877224347
 30
0.0
 10
9.110123373745907
 20
-1.36669997397708
 30
0.0
  0
SPLINE
  5
D4
330
1F
100
AcDbEntity
  8
0
  6
Continuous
 62
   131
370
    15
100
AcDbSpline
210
0.0
220
0.0
230
1.0
 70
     8
 71
     3
 72
     8
 73
     4
 74
     0
 42
0.000000001
 43
0.00000001
 40
0.0
 40
0.0
 40
0.0
 40
0.0
 40
1.0
 40
1.0
 40
1.0
 40
1.0
 10
10.00000000000009
 20
1.049171048681318
 30
0.0
 10
9.702316116996396
 20
1.17269901300061
 30
0.0
 10
9.408355867190387
 20
1.29057729045389
 30
0.0
 10
9.110083277825856
 20
1.402121114351292
 30
0.0
  0
SPLINE
  5
D5
330
1F
100
AcDbEntity
  8
0
  6
Continuous
 62
   131
370
    15
100
AcDbSpline
210
0.0
220
0.0
230
1.0
 70
    24
 71
     3
 72
    10
 73
     6
 74
     0
 42
0.000000001
 43
0.00000001
 40
0.0
 40
0.0
 40
0.0
 40
0.0
 40
0.5
 40
0.5
 40
1.0
 40
1.0
 40
1.0
 40
1.0
 10
10.0
 20
1.049171048681357
 30
0.0
 10
10.0
 20
0.6124072045055714
 30
0.0
 10
10.0
 20
0.1206866489528512
 30
0.0
 10
10.0
 20
-0.845180036623112
 30
0.0
 10
10.0
 20
-1.315168698847844
 30
0.0
 10
10.0
 20
-1.714004239520737
 30
0.0
  0
SPLINE
  5
D6
330
1F
100
AcDbEntity
  8
0
  6
Continuous
 62
   131
370
    15
100
AcDbSpline
210
0.0
220
0.0
230
1.0
 70
    24
 71
     3
 72
     8
 73
     4
 74
     0
 42
0.000000001
 43
0.00000001
 40
0.0
 40
0.0
 40
0.0
 40
0.0
 40
1.0
 40
1.0
 40
1.0
 40
1.0
 10
10.0
 20
-1.714004239520738
 30
0.0
 10
10.0
 20
-1.851928842289607
 30
0.0
 10
10.0
 20
-1.997055402787235
 30
0.0
 10
10.0
 20
-2.146686960770645
 30
0.0
  0
SPLINE
  5
D7
330
1F
100
AcDbEntity
  8
0
  6
Continuous
 62
   131
370
    15
100
AcDbSpline
210
0.0
220
0.0
230
1.0
 70
    24
 71
     3
 72
    12
 73
     8
 74
     0
 42
0.000000001
 43
0.00000001
 40
0.0
 40
0.0
 40
0.0
 40
0.0
 40
0.1291053138806672
 40
0.3448403775309392
 40
0.5668317726420044
 40
0.7803848611736028
 40
1.0
 40
1.0
 40
1.0
 40
1.0
 10
9.999999999999998
 20
1.969905273225813
 30
0.0
 10
9.999999999999998
 20
1.971353971300311
 30
0.0
 10
9.999999999999998
 20
1.975223444801608
 30
0.0
 10
9.999999999999995
 20
1.877068819463941
 30
0.0
 10
9.999999999999998
 20
1.688726527513408
 30
0.0
 10
9.999999999999998
 20
1.41512500385904
 30
0.0
 10
9.999999999999998
 20
1.172288506683058
 30
0.0
 10
9.999999999999998
 20
1.049171048681357
 30
0.0
  0
SPLINE
  5
D8
330
1F
100
AcDbEntity
  8
0
  6
Continuous
 62
   131
370
    15
100
AcDbSpline
210
0.0
220
0.0
230
1.0
 70
    24
 71
     3
 72
    10
 73
     6
 74
     0
 42
0.000000001
 43
0.00000001
 40
0.0
 40
0.0
 40
0.0
 40
0.0
 40
0.097312835028701
 40
0.6058091873310818
 40
1.0
 40
1.0
 40
1.0
 40
1.0
 10
10.0
 20
2.641970418489822
 30
0.0
 10
10.0
 20
2.616947929825183
 30
0.0
 10
10.0
 20
2.461173478094797
 30
0.0
 10
10.0
 20
2.207928276275844
 30
0.0
 10
10.0
 20
2.050429689598149
 30
0.0
 10
9.999999999999998
 20
1.98165226782251
 30
0.0
  0
LINE
  5
D9
330
1F
100
AcDbEntity
  8
중심선
 62
     1
100
AcDbLine
 10
-47.99999999999999
 20
0.0
 30
0.0
 11
14.00125016327402
 21
0.0
 31
0.0
  0
CIRCLE
  5
DA
330
1F
100
AcDbEntity
  8
외형선
100
AcDbCircle
 10
0.0000000000000104
 20
0.0
 30
0.0
 40
3.000000000000005
  0
INSERT
  5
DB
330
1F
100
AcDbEntity
  8
0
  6
Continuous
 62
     7
100
AcDbBlockReference
 66
     1
  2
블럭10
 10
-22.93944368806589
 20
-52.04609937292004
 30
0.0
  0
ATTRIB
  5
DC
330
DB
100
AcDbEntity
  8
FORMAT
 62
     2
100
AcDbText
 10
-39.05870472750145
 20
-49.97073246008785
 30
0.0
 40
4.233333333333333
  1
SEME7006035E [ 2 FLUTE ]
 41
0.75
  7
SLDTEXTSTYLE0
 11
-39.05870472750145
 21
-52.08739912675452
 31
0.0
100
AcDbAttribute
  2
AUTOATTR0
 70
     0
 74
     1
  0
SEQEND
  5
DD
330
DB
100
AcDbEntity
  8
0
  6
Continuous
 62
     7
  0
HATCH
  5
DE
330
1F
100
AcDbEntity
  8
중심선
100
AcDbHatch
 10
0.0
 20
0.0
 30
0.0
210
0.0
220
0.0
230
1.0
  2
SOLID
 70
     1
 71
     0
 91
        1
 92
        0
 93
        4
 72
     1
 10
-17.22453438368504
 20
-35.7989250712761
 11
-20.67080962752232
 21
-35.7989250712761
 72
     1
 10
-20.67080962752232
 20
-35.7989250712761
 11
-22.79903948672635
 21
-38.3352506518487
 72
     1
 10
-22.79903948672635
 20
-38.3352506518487
 11
-19.35273115777591
 21
-38.33521122254621
 72
     1
 10
-19.35273115777591
 20
-38.33521122254621
 11
-17.22453438368504
 21
-35.7989250712761
 97
        0
 75
     0
 76
     1
 98
        1
 10
0.0
 20
0.0
  0
HATCH
  5
DF
330
1F
100
AcDbEntity
  8
중심선
100
AcDbHatch
 10
0.0
 20
0.0
 30
0.0
210
0.0
220
0.0
230
1.0
  2
SOLID
 70
     1
 71
     0
 91
        1
 92
        0
 93
        4
 72
     1
 10
-12.21177039264909
 20
-35.7989250712761
 11
-15.65804563648637
 21
-35.7989250712761
 72
     1
 10
-15.65804563648637
 20
-35.7989250712761
 11
-20.18918364484376
 21
-41.19892507127612
 72
     1
 10
-20.18918364484376
 20
-41.19892507127612
 11
-16.74290840100648
 21
-41.19892507127612
 72
     1
 10
-16.74290840100648
 20
-41.19892507127612
 11
-12.21177039264909
 21
-35.7989250712761
 97
        0
 75
     0
 76
     1
 98
        1
 10
0.0
 20
0.0
  0
HATCH
  5
E0
330
1F
100
AcDbEntity
  8
중심선
100
AcDbHatch
 10
0.0
 20
0.0
 30
0.0
210
0.0
220
0.0
230
1.0
  2
SOLID
 70
     1
 71
     0
 91
        1
 92
        0
 93
        4
 72
     1
 10
-7.199006401613195
 20
-35.79892507127613
 11
-10.64528164545031
 21
-35.7989250712761
 72
     1
 10
-10.64528164545031
 20
-35.7989250712761
 11
-17.69371854733956
 21
-44.19892507127612
 72
     1
 10
-17.69371854733956
 20
-44.19892507127612
 11
-14.24744330350228
 21
-44.19892507127612
 72
     1
 10
-14.24744330350228
 20
-44.19892507127612
 11
-7.199006401613195
 21
-35.79892507127613
 97
        0
 75
     0
 76
     1
 98
        1
 10
0.0
 20
0.0
  0
HATCH
  5
E1
330
1F
100
AcDbEntity
  8
중심선
100
AcDbHatch
 10
0.0
 20
0.0
 30
0.0
210
0.0
220
0.0
230
1.0
  2
SOLID
 70
     1
 71
     0
 91
        1
 92
        0
 93
        6
 72
     3
 10
-2.399115970600996
 20
-39.99892507132738
 11
3.960054785062284
 21
1.540850780301639E-10
 40
0.3939339440162633
 50
17.09539180608433
 51
320.0019657685079
 73
     0
 72
     1
 10
-0.7161163149004002
 20
-38.58681907591441
 11
1.589185558800638
 21
-36.65249236586649
 72
     3
 10
-2.399115970653842
 20
-39.99892507127625
 11
6.600054785286829
 21
-1.249000902703301E-13
 40
0.6363583540795982
 50
39.99873849337408
 51
368.4976242363725
 73
     1
 72
     1
 10
4.026216521246767
 20
-39.03892507120613
 11
-3.71904866381792
 21
-39.0389250712061
 72
     1
 10
-3.71904866381792
 20
-39.0389250712061
 11
-3.719073708263854
 21
-40.95892507120602
 72
     1
 10
-3.719073708263854
 20
-40.95892507120602
 11
0.7223060612081831
 21
-40.95892507120599
 97
        0
 75
     0
 76
     1
 98
        1
 10
0.0
 20
0.0
  0
DIMENSION
  5
E2
330
1F
100
AcDbEntity
  8
치수문자_일반주서
100
AcDbDimension
  2
_D
 10
53.92182625831528
 20
3.000000000000165
 30
0.0
 11
53.92182625831524
 21
12.66650000000017
 31
0.0
 70
   160
  1
%%c<>
 71
     2
 42
5.999999999999996
 52
-270.0
  3
SLDDIMSTYLE0
100
AcDbAlignedDimension
 13
45.00000000000001
 23
-2.999999999999865
 33
0.0
 14
45.00000000000001
 24
3.000000000000132
 34
0.0
 50
90.0000000000002
100
AcDbRotatedDimension
  0
DIMENSION
  5
F0
330
1F
100
AcDbEntity
  8
치수문자_일반주서
100
AcDbDimension
  2
_D_1
 10
45.00000000000001
 20
24.2384104402427
 30
0.0
 11
0.0000000000000178
 21
24.2384104402427
 31
0.0
 70
   160
  1
<>
 71
     2
 42
90.0
  3
SLDDIMSTYLE1
100
AcDbAlignedDimension
 13
-44.99999999999999
 23
2.449999999999998
 33
0.0
 14
45.00000000000001
 24
3.000000000000132
 34
0.0
 50
-0.0000000000000045
100
AcDbRotatedDimension
  0
DIMENSION
  5
FB
330
1F
100
AcDbEntity
  8
치수문자_일반주서
100
AcDbDimension
  2
_D_2
 10
45.00000000000001
 20
15.98896822465724
 30
0.0
 11
27.5000000000001
 21
15.98896822465724
 31
0.0
 70
   160
  1
<>
 71
     2
 42
35.00000000000001
  3
SLDDIMSTYLE1
100
AcDbAlignedDimension
 13
10.0
 23
2.641970418489819
 33
0.0
 14
45.00000000000001
 24
3.000000000000132
 34
0.0
 50
-0.0000000000003286
100
AcDbRotatedDimension
  0
DIMENSION
  5
105
330
1F
100
AcDbEntity
  8
치수문자_일반주서
100
AcDbDimension
  2
_D_3
 10
-54.79526771129112
 20
-3.000000000000034
 30
0.0
 11
-54.79526771129117
 21
12.66649999999996
 31
0.0
 70
   160
  1
%%c<>
 71
     2
 42
5.999999999999993
 52
-270.0
  3
SLDDIMSTYLE0
100
AcDbAlignedDimension
 13
-44.44999999999999
 23
2.999999999999998
 33
0.0
 14
-44.44999999999999
 24
-2.999999999999996
 34
0.0
 50
90.0000000000002
100
AcDbRotatedDimension
  0
INSERT
  5
118
330
1F
100
AcDbEntity
  8
외형선
100
AcDbBlockReference
  2
SW_DOWELSYMBOL_0
 10
0.0000000000000104
 20
0.0
 30
0.0
  0
ENDSEC
  0
SECTION
  2
OBJECTS
  0
DICTIONARY
  5
C
330
0
100
AcDbDictionary
281
     1
  3
ACAD_GROUP
350
D
  3
ACAD_IMAGE_VARS
350
13C
  3
ACAD_LAYOUT
350
1A
  3
ACAD_MLINESTYLE
350
17
  3
ACAD_PLOTSETTINGS
350
19
  3
ACAD_PLOTSTYLENAME
350
E
  3
ACAD_SCALELIST
350
47
  3
APPDATA
350
13A
  3
DWGPROPS
350
14A
  0
DICTIONARY
  5
D
102
{ACAD_REACTORS
330
C
102
}
330
C
100
AcDbDictionary
281
     1
  0
RASTERVARIABLES
  5
13C
102
{ACAD_REACTORS
330
C
102
}
330
C
100
AcDbRasterVariables
 90
        0
 70
     1
 71
     1
 72
     1
  0
DICTIONARY
  5
1A
102
{ACAD_REACTORS
330
C
102
}
330
C
100
AcDbDictionary
281
     1
  3
Layout1
350
1E
  3
Layout2
350
26
  3
Model
350
22
  0
DICTIONARY
  5
17
102
{ACAD_REACTORS
330
C
102
}
330
C
100
AcDbDictionary
281
     1
  3
Standard
350
18
  0
DICTIONARY
  5
19
102
{ACAD_REACTORS
330
C
102
}
330
C
100
AcDbDictionary
281
     1
  0
ACDBDICTIONARYWDFLT
  5
E
102
{ACAD_REACTORS
330
C
102
}
330
C
100
AcDbDictionary
281
     1
  3
Normal
350
F
100
AcDbDictionaryWithDefault
340
F
  0
DICTIONARY
  5
47
102
{ACAD_REACTORS
330
C
102
}
330
C
100
AcDbDictionary
281
     1
  3
A0
350
48
  3
A1
350
49
  3
A2
350
4A
  3
A3
350
4B
  3
A4
350
4C
  3
A5
350
4D
  3
A6
350
4E
  3
A7
350
4F
  3
A8
350
50
  3
A9
350
51
  3
B0
350
52
  3
B1
350
53
  3
B2
350
54
  3
B3
350
55
  3
B4
350
56
  3
B5
350
57
  3
B6
350
58
  3
B7
350
59
  3
B8
350
5A
  3
B9
350
5B
  3
C0
350
5C
  3
C1
350
5D
  3
C2
350
5E
  3
C3
350
5F
  3
C4
350
60
  3
C5
350
61
  3
C6
350
62
  3
C7
350
63
  3
C8
350
64
  3
C9
350
65
  3
D0
350
66
  3
D1
350
67
  3
D2
350
68
  0
DICTIONARY
  5
13A
102
{ACAD_REACTORS
330
C
102
}
330
C
100
AcDbDictionary
281
     1
  0
XRECORD
  5
14A
102
{ACAD_REACTORS
330
C
102
}
330
C
100
AcDbXrecord
280
     1
  1
DWGPROPS COOKIE
  2

  3

  4

  6

  7

  8
12014102
  9

300
=
301
=
302
=
303
=
304
=
305
=
306
=
307
=
308
=
309
=
 40
0.0
 41
2458262.167292569
 42
2458266.030459942
  1

 90
        0
  0
LAYOUT
  5
1E
102
{ACAD_REACTORS
330
1A
102
}
330
1A
100
AcDbPlotSettings
  1

  2
none_device
  4

  6

 40
0.0
 41
0.0
 42
0.0
 43
0.0
 44
0.0
 45
0.0
 46
0.0
 47
0.0
 48
0.0
 49
0.0
140
0.0
141
0.0
142
1.0
143
1.0
 70
   688
 72
     1
 73
     0
 74
     5
  7

 75
    16
147
1.0
148
0.0
149
0.0
100
AcDbLayout
  1
Layout1
 70
     1
 71
     1
 10
0.0
 20
0.0
 11
420.0
 21
297.0
 12
0.0
 22
0.0
 32
0.0
 14
1.000000000000000E+20
 24
1.000000000000000E+20
 34
1.000000000000000E+20
 15
-1.000000000000000E+20
 25
-1.000000000000000E+20
 35
-1.000000000000000E+20
146
0.0
 13
0.0
 23
0.0
 33
0.0
 16
1.0
 26
0.0
 36
0.0
 17
0.0
 27
1.0
 37
0.0
 76
     0
330
1B
  0
LAYOUT
  5
26
102
{ACAD_REACTORS
330
1A
102
}
330
1A
100
AcDbPlotSettings
  1

  2
none_device
  4

  6

 40
0.0
 41
0.0
 42
0.0
 43
0.0
 44
0.0
 45
0.0
 46
0.0
 47
0.0
 48
0.0
 49
0.0
140
0.0
141
0.0
142
1.0
143
1.0
 70
   688
 72
     1
 73
     0
 74
     5
  7

 75
    16
147
1.0
148
0.0
149
0.0
100
AcDbLayout
  1
Layout2
 70
     1
 71
     2
 10
0.0
 20
0.0
 11
0.0
 21
0.0
 12
0.0
 22
0.0
 32
0.0
 14
0.0
 24
0.0
 34
0.0
 15
0.0
 25
0.0
 35
0.0
146
0.0
 13
0.0
 23
0.0
 33
0.0
 16
1.0
 26
0.0
 36
0.0
 17
0.0
 27
1.0
 37
0.0
 76
     0
330
23
  0
LAYOUT
  5
22
102
{ACAD_REACTORS
330
1A
102
}
330
1A
100
AcDbPlotSettings
  1

  2
none_device
  4
ANSI_A_(11.00_x_8.50_Inches)
  6

 40
6.35
 41
19.05
 42
6.35000508
 43
19.05000254
 44
279.4
 45
215.9
 46
141.8084973264085
 47
117.4190773131288
 48
0.0
 49
0.0
140
0.0
141
0.0
142
0.1022423202765947
143
1.0
 70
  1696
 72
     0
 73
     0
 74
     0
  7

 75
     0
147
0.0235690232323232
148
0.0
149
0.0
100
AcDbLayout
  1
Model
 70
     1
 71
     0
 10
0.0
 20
0.0
 11
420.0
 21
297.0
 12
0.0
 22
0.0
 32
0.0
 14
-59.17026771129117
 24
-49.97073246008785
 34
0.0
 15
54.47215959164865
 25
28.6134104402427
 35
0.0
146
0.0
 13
0.0
 23
0.0
 33
0.0
 16
1.0
 26
0.0
 36
0.0
 17
0.0
 27
1.0
 37
0.0
 76
     0
330
1F
331
29
  0
MLINESTYLE
  5
18
102
{ACAD_REACTORS
330
17
102
}
330
17
100
AcDbMlineStyle
  2
Standard
 70
     0
  3

 62
   256
 51
90.0
 52
90.0
 71
     2
 49
0.5
 62
   256
  6
BYLAYER
 49
-0.5
 62
   256
  6
BYLAYER
  0
ACDBPLACEHOLDER
  5
F
102
{ACAD_REACTORS
330
E
102
}
330
E
  0
SCALE
  5
48
102
{ACAD_REACTORS
330
47
102
}
330
47
100
AcDbScale
 70
     0
300
1:1
140
1.0
141
1.0
290
     1
  0
SCALE
  5
49
102
{ACAD_REACTORS
330
47
102
}
330
47
100
AcDbScale
 70
     0
300
1:2
140
1.0
141
2.0
290
     0
  0
SCALE
  5
4A
102
{ACAD_REACTORS
330
47
102
}
330
47
100
AcDbScale
 70
     0
300
1:4
140
1.0
141
4.0
290
     0
  0
SCALE
  5
4B
102
{ACAD_REACTORS
330
47
102
}
330
47
100
AcDbScale
 70
     0
300
1:5
140
1.0
141
5.0
290
     0
  0
SCALE
  5
4C
102
{ACAD_REACTORS
330
47
102
}
330
47
100
AcDbScale
 70
     0
300
1:8
140
1.0
141
8.0
290
     0
  0
SCALE
  5
4D
102
{ACAD_REACTORS
330
47
102
}
330
47
100
AcDbScale
 70
     0
300
1:10
140
1.0
141
10.0
290
     0
  0
SCALE
  5
4E
102
{ACAD_REACTORS
330
47
102
}
330
47
100
AcDbScale
 70
     0
300
1:16
140
1.0
141
16.0
290
     0
  0
SCALE
  5
4F
102
{ACAD_REACTORS
330
47
102
}
330
47
100
AcDbScale
 70
     0
300
1:20
140
1.0
141
20.0
290
     0
  0
SCALE
  5
50
102
{ACAD_REACTORS
330
47
102
}
330
47
100
AcDbScale
 70
     0
300
1:30
140
1.0
141
30.0
290
     0
  0
SCALE
  5
51
102
{ACAD_REACTORS
330
47
102
}
330
47
100
AcDbScale
 70
     0
300
1:40
140
1.0
141
40.0
290
     0
  0
SCALE
  5
52
102
{ACAD_REACTORS
330
47
102
}
330
47
100
AcDbScale
 70
     0
300
1:50
140
1.0
141
50.0
290
     0
  0
SCALE
  5
53
102
{ACAD_REACTORS
330
47
102
}
330
47
100
AcDbScale
 70
     0
300
1:100
140
1.0
141
100.0
290
     0
  0
SCALE
  5
54
102
{ACAD_REACTORS
330
47
102
}
330
47
100
AcDbScale
 70
     0
300
2:1
140
2.0
141
1.0
290
     0
  0
SCALE
  5
55
102
{ACAD_REACTORS
330
47
102
}
330
47
100
AcDbScale
 70
     0
300
4:1
140
4.0
141
1.0
290
     0
  0
SCALE
  5
56
102
{ACAD_REACTORS
330
47
102
}
330
47
100
AcDbScale
 70
     0
300
8:1
140
8.0
141
1.0
290
     0
  0
SCALE
  5
57
102
{ACAD_REACTORS
330
47
102
}
330
47
100
AcDbScale
 70
     0
300
10:1
140
10.0
141
1.0
290
     0
  0
SCALE
  5
58
102
{ACAD_REACTORS
330
47
102
}
330
47
100
AcDbScale
 70
     0
300
100:1
140
100.0
141
1.0
290
     0
  0
SCALE
  5
59
102
{ACAD_REACTORS
330
47
102
}
330
47
100
AcDbScale
 70
     0
300
1/128" = 1'-0"
140
0.0078125
141
12.0
290
     0
  0
SCALE
  5
5A
102
{ACAD_REACTORS
330
47
102
}
330
47
100
AcDbScale
 70
     0
300
1/64" = 1'-0"
140
0.015625
141
12.0
290
     0
  0
SCALE
  5
5B
102
{ACAD_REACTORS
330
47
102
}
330
47
100
AcDbScale
 70
     0
300
1/32" = 1'-0"
140
0.03125
141
12.0
290
     0
  0
SCALE
  5
5C
102
{ACAD_REACTORS
330
47
102
}
330
47
100
AcDbScale
 70
     0
300
1/16" = 1'-0"
140
0.0625
141
12.0
290
     0
  0
SCALE
  5
5D
102
{ACAD_REACTORS
330
47
102
}
330
47
100
AcDbScale
 70
     0
300
3/32" = 1'-0"
140
0.09375
141
12.0
290
     0
  0
SCALE
  5
5E
102
{ACAD_REACTORS
330
47
102
}
330
47
100
AcDbScale
 70
     0
300
1/8" = 1'-0"
140
0.125
141
12.0
290
     0
  0
SCALE
  5
5F
102
{ACAD_REACTORS
330
47
102
}
330
47
100
AcDbScale
 70
     0
300
3/16" = 1'-0"
140
0.1875
141
12.0
290
     0
  0
SCALE
  5
60
102
{ACAD_REACTORS
330
47
102
}
330
47
100
AcDbScale
 70
     0
300
1/4" = 1'-0"
140
0.25
141
12.0
290
     0
  0
SCALE
  5
61
102
{ACAD_REACTORS
330
47
102
}
330
47
100
AcDbScale
 70
     0
300
3/8" = 1'-0"
140
0.375
141
12.0
290
     0
  0
SCALE
  5
62
102
{ACAD_REACTORS
330
47
102
}
330
47
100
AcDbScale
 70
     0
300
1/2" = 1'-0"
140
0.5
141
12.0
290
     0
  0
SCALE
  5
63
102
{ACAD_REACTORS
330
47
102
}
330
47
100
AcDbScale
 70
     0
300
3/4" = 1'-0"
140
0.75
141
12.0
290
     0
  0
SCALE
  5
64
102
{ACAD_REACTORS
330
47
102
}
330
47
100
AcDbScale
 70
     0
300
1" = 1'-0"
140
1.0
141
12.0
290
     0
  0
SCALE
  5
65
102
{ACAD_REACTORS
330
47
102
}
330
47
100
AcDbScale
 70
     0
300
1-1/2" = 1'-0"
140
1.5
141
12.0
290
     0
  0
SCALE
  5
66
102
{ACAD_REACTORS
330
47
102
}
330
47
100
AcDbScale
 70
     0
300
3" = 1'-0"
140
3.0
141
12.0
290
     0
  0
SCALE
  5
67
102
{ACAD_REACTORS
330
47
102
}
330
47
100
AcDbScale
 70
     0
300
6" = 1'-0"
140
6.0
141
12.0
290
     0
  0
SCALE
  5
68
102
{ACAD_REACTORS
330
47
102
}
330
47
100
AcDbScale
 70
     0
300
1'-0" = 1'-0"
140
12.0
141
12.0
290
     0
  0
ENDSEC
  0
EOF
