  0
SECTION
  2
HEADER
  9
$ACADVER
  1
AC1015
  9
$ACADMAINTVER
 70
     6
  9
$DWGCODEPAGE
  3
ANSI_949
  9
$INSBASE
 10
0.0
 20
0.0
 30
0.0
  9
$EXTMIN
 10
-74.89031054779122
 20
-49.97073246008785
 30
0.0
  9
$EXTMAX
 10
52.64806341223883
 20
28.61341044024269
 30
0.0
  9
$LIMMIN
 10
0.0
 20
0.0
  9
$LIMMAX
 10
420.0
 20
297.0
  9
$ORTHOMODE
 70
     0
  9
$REGENMODE
 70
     1
  9
$FILLMODE
 70
     1
  9
$QTEXTMODE
 70
     0
  9
$MIRRTEXT
 70
     1
  9
$LTSCALE
 40
1.0
  9
$ATTMODE
 70
     1
  9
$TEXTSIZE
 40
3.5
  9
$TRACEWID
 40
1.0
  9
$TEXTSTYLE
  7
Standard
  9
$CLAYER
  8
0
  9
$CELTYPE
  6
ByLayer
  9
$CECOLOR
 62
   256
  9
$CELTSCALE
 40
1.0
  9
$DISPSILH
 70
     0
  9
$DIMSCALE
 40
1.0
  9
$DIMASZ
 40
3.302
  9
$DIMEXO
 40
1.0
  9
$DIMDLI
 40
3.75
  9
$DIMRND
 40
0.0
  9
$DIMDLE
 40
0.0
  9
$DIMEXE
 40
1.0
  9
$DIMTP
 40
0.0
  9
$DIMTM
 40
0.0
  9
$DIMTXT
 40
3.5
  9
$DIMCEN
 40
2.5
  9
$DIMTSZ
 40
0.0
  9
$DIMTOL
 70
     0
  9
$DIMLIM
 70
     0
  9
$DIMTIH
 70
     1
  9
$DIMTOH
 70
     1
  9
$DIMSE1
 70
     0
  9
$DIMSE2
 70
     0
  9
$DIMTAD
 70
     1
  9
$DIMZIN
 70
     0
  9
$DIMBLK
  1

  9
$DIMASO
 70
     1
  9
$DIMSHO
 70
     1
  9
$DIMPOST
  1

  9
$DIMAPOST
  1

  9
$DIMALT
 70
     0
  9
$DIMALTD
 70
     3
  9
$DIMALTF
 40
0.0393700787401575
  9
$DIMLFAC
 40
1.0
  9
$DIMTOFL
 70
     1
  9
$DIMTVP
 40
0.0
  9
$DIMTIX
 70
     0
  9
$DIMSOXD
 70
     0
  9
$DIMSAH
 70
     0
  9
$DIMBLK1
  1

  9
$DIMBLK2
  1

  9
$DIMSTYLE
  2
ISO-25
  9
$DIMCLRD
 70
     0
  9
$DIMCLRE
 70
     0
  9
$DIMCLRT
 70
     0
  9
$DIMTFAC
 40
1.0
  9
$DIMGAP
 40
1.524
  9
$DIMJUST
 70
     0
  9
$DIMSD1
 70
     0
  9
$DIMSD2
 70
     0
  9
$DIMTOLJ
 70
     0
  9
$DIMTZIN
 70
     0
  9
$DIMALTZ
 70
     0
  9
$DIMALTTZ
 70
     0
  9
$DIMUPT
 70
     0
  9
$DIMDEC
 70
     2
  9
$DIMTDEC
 70
     2
  9
$DIMALTU
 70
     2
  9
$DIMALTTD
 70
     3
  9
$DIMTXSTY
  7
Standard
  9
$DIMAUNIT
 70
     0
  9
$DIMADEC
 70
     2
  9
$DIMALTRND
 40
0.0
  9
$DIMAZIN
 70
     0
  9
$DIMDSEP
 70
    44
  9
$DIMATFIT
 70
     3
  9
$DIMFRAC
 70
     0
  9
$DIMLDRBLK
  1

  9
$DIMLUNIT
 70
     2
  9
$DIMLWD
 70
    -2
  9
$DIMLWE
 70
    -2
  9
$DIMTMOVE
 70
     0
  9
$LUNITS
 70
     2
  9
$LUPREC
 70
     2
  9
$SKETCHINC
 40
1.0
  9
$FILLETRAD
 40
10.0
  9
$AUNITS
 70
     0
  9
$AUPREC
 70
     2
  9
$MENU
  1
.
  9
$ELEVATION
 40
0.0
  9
$PELEVATION
 40
0.0
  9
$THICKNESS
 40
0.0
  9
$LIMCHECK
 70
     0
  9
$CHAMFERA
 40
0.0
  9
$CHAMFERB
 40
0.0
  9
$CHAMFERC
 40
0.0
  9
$CHAMFERD
 40
0.0
  9
$SKPOLY
 70
     0
  9
$TDCREATE
 40
2458262.541729734
  9
$TDUCREATE
 40
2458262.166729734
  9
$TDUPDATE
 40
2458266.66188735
  9
$TDUUPDATE
 40
2458266.28688735
  9
$TDINDWG
 40
0.0011982523
  9
$TDUSRTIMER
 40
2458266.285689132
  9
$USRTIMER
 70
     1
  9
$ANGBASE
 50
0.0
  9
$ANGDIR
 70
     0
  9
$PDMODE
 70
     0
  9
$PDSIZE
 40
-1.0
  9
$PLINEWID
 40
0.0
  9
$SPLFRAME
 70
     0
  9
$SPLINETYPE
 70
     6
  9
$SPLINESEGS
 70
     8
  9
$HANDSEED
  5
144
  9
$SURFTAB1
 70
     6
  9
$SURFTAB2
 70
     6
  9
$SURFTYPE
 70
     6
  9
$SURFU
 70
     6
  9
$SURFV
 70
     6
  9
$UCSBASE
  2

  9
$UCSNAME
  2

  9
$UCSORG
 10
0.0
 20
0.0
 30
0.0
  9
$UCSXDIR
 10
1.0
 20
0.0
 30
0.0
  9
$UCSYDIR
 10
0.0
 20
1.0
 30
0.0
  9
$UCSORTHOREF
  2

  9
$UCSORTHOVIEW
 70
     0
  9
$UCSORGTOP
 10
0.0
 20
0.0
 30
0.0
  9
$UCSORGBOTTOM
 10
0.0
 20
0.0
 30
0.0
  9
$UCSORGLEFT
 10
0.0
 20
0.0
 30
0.0
  9
$UCSORGRIGHT
 10
0.0
 20
0.0
 30
0.0
  9
$UCSORGFRONT
 10
0.0
 20
0.0
 30
0.0
  9
$UCSORGBACK
 10
0.0
 20
0.0
 30
0.0
  9
$PUCSBASE
  2

  9
$PUCSNAME
  2

  9
$PUCSORG
 10
0.0
 20
0.0
 30
0.0
  9
$PUCSXDIR
 10
1.0
 20
0.0
 30
0.0
  9
$PUCSYDIR
 10
0.0
 20
1.0
 30
0.0
  9
$PUCSORTHOREF
  2

  9
$PUCSORTHOVIEW
 70
     0
  9
$PUCSORGTOP
 10
0.0
 20
0.0
 30
0.0
  9
$PUCSORGBOTTOM
 10
0.0
 20
0.0
 30
0.0
  9
$PUCSORGLEFT
 10
0.0
 20
0.0
 30
0.0
  9
$PUCSORGRIGHT
 10
0.0
 20
0.0
 30
0.0
  9
$PUCSORGFRONT
 10
0.0
 20
0.0
 30
0.0
  9
$PUCSORGBACK
 10
0.0
 20
0.0
 30
0.0
  9
$USERI1
 70
     0
  9
$USERI2
 70
     0
  9
$USERI3
 70
     0
  9
$USERI4
 70
     0
  9
$USERI5
 70
     0
  9
$USERR1
 40
0.0
  9
$USERR2
 40
0.0
  9
$USERR3
 40
0.0
  9
$USERR4
 40
0.0
  9
$USERR5
 40
0.0
  9
$WORLDVIEW
 70
     1
  9
$SHADEDGE
 70
     3
  9
$SHADEDIF
 70
    70
  9
$TILEMODE
 70
     1
  9
$MAXACTVP
 70
    64
  9
$PINSBASE
 10
0.0
 20
0.0
 30
0.0
  9
$PLIMCHECK
 70
     0
  9
$PEXTMIN
 10
1.000000000000000E+20
 20
1.000000000000000E+20
 30
1.000000000000000E+20
  9
$PEXTMAX
 10
-1.000000000000000E+20
 20
-1.000000000000000E+20
 30
-1.000000000000000E+20
  9
$PLIMMIN
 10
0.0
 20
0.0
  9
$PLIMMAX
 10
0.0
 20
0.0
  9
$UNITMODE
 70
     0
  9
$VISRETAIN
 70
     1
  9
$PLINEGEN
 70
     0
  9
$PSLTSCALE
 70
     1
  9
$TREEDEPTH
 70
  3020
  9
$CMLSTYLE
  2
Standard
  9
$CMLJUST
 70
     0
  9
$CMLSCALE
 40
20.0
  9
$PROXYGRAPHICS
 70
     1
  9
$MEASUREMENT
 70
     1
  9
$CELWEIGHT
370
    -1
  9
$ENDCAPS
280
     0
  9
$JOINSTYLE
280
     0
  9
$LWDISPLAY
290
     1
  9
$INSUNITS
 70
     4
  9
$HYPERLINKBASE
  1

  9
$STYLESHEET
  1

  9
$XEDIT
290
     1
  9
$CEPSNTYPE
380
     0
  9
$PSTYLEMODE
290
     1
  9
$FINGERPRINTGUID
  2
{C5C528AE-279E-438C-B231-FBAE7404CA12}
  9
$VERSIONGUID
  2
{FAEB1C32-E019-11D5-929B-00C0DF256EC4}
  9
$EXTNAMES
290
     1
  9
$PSVPSCALE
 40
0.0
  9
$OLESTARTUP
290
     0
  0
ENDSEC
  0
SECTION
  2
CLASSES
  0
CLASS
  1
ACDBDICTIONARYWDFLT
  2
AcDbDictionaryWithDefault
  3
ObjectDBX Classes
 90
        0
280
     0
281
     0
  0
CLASS
  1
VISUALSTYLE
  2
AcDbVisualStyle
  3
ObjectDBX Classes
 90
     4095
280
     0
281
     0
  0
CLASS
  1
MATERIAL
  2
AcDbMaterial
  3
ObjectDBX Classes
 90
     1153
280
     0
281
     0
  0
CLASS
  1
SCALE
  2
AcDbScale
  3
ObjectDBX Classes
 90
     1153
280
     0
281
     0
  0
CLASS
  1
SUN
  2
AcDbSun
  3
SCENEOE
 90
     1153
280
     0
281
     0
  0
CLASS
  1
ACDBPLACEHOLDER
  2
AcDbPlaceHolder
  3
ObjectDBX Classes
 90
        0
280
     0
281
     0
  0
CLASS
  1
LAYOUT
  2
AcDbLayout
  3
ObjectDBX Classes
 90
        0
280
     0
281
     0
  0
CLASS
  1
TABLESTYLE
  2
AcDbTableStyle
  3
ObjectDBX Classes
 90
     4095
280
     0
281
     0
  0
CLASS
  1
MLEADERSTYLE
  2
AcDbMLeaderStyle
  3
ACDB_MLEADERSTYLE_CLASS
 90
     4095
280
     0
281
     0
  0
CLASS
  1
RASTERVARIABLES
  2
AcDbRasterVariables
  3
ISM
 90
        0
280
     0
281
     0
  0
ENDSEC
  0
SECTION
  2
TABLES
  0
TABLE
  2
VPORT
  5
8
330
0
100
AcDbSymbolTable
 70
     1
  0
VPORT
  5
29
330
8
100
AcDbSymbolTableRecord
100
AcDbViewportTableRecord
  2
*Active
 70
     0
 10
0.0
 20
0.0
 11
1.0
 21
1.0
 12
-11.12112356777619
 22
-10.67866100992259
 13
0.0
 23
0.0
 14
10.0
 24
10.0
 15
10.0
 25
10.0
 16
0.0
 26
0.0
 36
1.0
 17
0.0
 27
0.0
 37
0.0
 40
112.8800397690185
 41
1.152454780361757
 42
50.0
 43
0.0
 44
0.0
 50
0.0
 51
0.0
 71
    16
 72
  2000
 73
     1
 74
     3
 75
     0
 76
     0
 77
     0
 78
     0
281
     0
 65
     1
110
0.0
120
0.0
130
0.0
111
1.0
121
0.0
131
0.0
112
0.0
122
1.0
132
0.0
 79
     0
146
0.0
  0
ENDTAB
  0
TABLE
  2
LTYPE
  5
5
330
0
100
AcDbSymbolTable
 70
     6
  0
LTYPE
  5
14
330
5
100
AcDbSymbolTableRecord
100
AcDbLinetypeTableRecord
  2
ByBlock
 70
     0
  3

 72
    65
 73
     0
 40
0.0
  0
LTYPE
  5
15
330
5
100
AcDbSymbolTableRecord
100
AcDbLinetypeTableRecord
  2
ByLayer
 70
     0
  3

 72
    65
 73
     0
 40
0.0
  0
LTYPE
  5
16
330
5
100
AcDbSymbolTableRecord
100
AcDbLinetypeTableRecord
  2
Continuous
 70
     0
  3
Solid line
 72
    65
 73
     0
 40
0.0
  0
LTYPE
  5
6A
330
5
100
AcDbSymbolTableRecord
100
AcDbLinetypeTableRecord
  2
HIDDEN
 70
     0
  3
Hidden __ __ __ __ __ __ __ __ __ __ __ __ __ __
 72
    65
 73
     2
 40
1.905
 49
1.27
 74
     0
 49
-0.635
 74
     0
  0
LTYPE
  5
6B
330
5
100
AcDbSymbolTableRecord
100
AcDbLinetypeTableRecord
  2
PHANTOM
 70
     0
  3
Phantom ______  __  __  ______  __  __  ______
 72
    65
 73
     6
 40
12.7
 49
6.35
 74
     0
 49
-1.27
 74
     0
 49
1.27
 74
     0
 49
-1.27
 74
     0
 49
1.27
 74
     0
 49
-1.27
 74
     0
  0
LTYPE
  5
6C
330
5
100
AcDbSymbolTableRecord
100
AcDbLinetypeTableRecord
  2
CENTER
 70
     0
  3
Center ____ _ ____ _ ____ _ ____ _ ____ _ ____
 72
    65
 73
     4
 40
10.16
 49
6.35
 74
     0
 49
-1.27
 74
     0
 49
1.27
 74
     0
 49
-1.27
 74
     0
  0
LTYPE
  5
6D
330
5
100
AcDbSymbolTableRecord
100
AcDbLinetypeTableRecord
  2
CENTERX2
 70
     0
  3
Center (2x) ________  __  ________  __  _____
 72
    65
 73
     4
 40
20.32
 49
12.7
 74
     0
 49
-2.54
 74
     0
 49
2.54
 74
     0
 49
-2.54
 74
     0
  0
LTYPE
  5
6E
330
5
100
AcDbSymbolTableRecord
100
AcDbLinetypeTableRecord
  2
DOT2
 70
     0
  3
Dot (.5x) ........................................
 72
    65
 73
     2
 40
0.635
 49
0.0
 74
     0
 49
-0.635
 74
     0
  0
ENDTAB
  0
TABLE
  2
LAYER
  5
2
330
0
100
AcDbSymbolTable
 70
    17
  0
LAYER
  5
10
330
2
100
AcDbSymbolTableRecord
100
AcDbLayerTableRecord
  2
0
 70
     0
 62
     7
  6
Continuous
370
    -3
390
F
  0
LAYER
  5
6F
330
2
100
AcDbSymbolTableRecord
100
AcDbLayerTableRecord
  2
FORMAT
 70
     0
 62
     2
  6
Continuous
370
    -3
390
F
  0
LAYER
  5
70
330
2
100
AcDbSymbolTableRecord
100
AcDbLayerTableRecord
  2
외형선
 70
     0
 62
   100
  6
Continuous
370
    30
390
F
  0
LAYER
  5
71
330
2
100
AcDbSymbolTableRecord
100
AcDbLayerTableRecord
  2
숨은선
 70
     0
 62
     2
  6
HIDDEN
370
    15
390
F
  0
LAYER
  5
72
330
2
100
AcDbSymbolTableRecord
100
AcDbLayerTableRecord
  2
중심선
 70
     0
 62
     1
  6
CENTERX2
370
    -3
390
F
  0
LAYER
  5
73
330
2
100
AcDbSymbolTableRecord
100
AcDbLayerTableRecord
  2
파단선
 70
     0
 62
     4
  6
Continuous
370
    -3
390
F
  0
LAYER
  5
74
330
2
100
AcDbSymbolTableRecord
100
AcDbLayerTableRecord
  2
해칭선
 70
     0
 62
     4
  6
Continuous
370
    -3
390
F
  0
LAYER
  5
75
330
2
100
AcDbSymbolTableRecord
100
AcDbLayerTableRecord
  2
가는실선
 70
     0
 62
     4
  6
Continuous
370
    -3
390
F
  0
LAYER
  5
76
330
2
100
AcDbSymbolTableRecord
100
AcDbLayerTableRecord
  2
치수_보조선
 70
     0
 62
     4
  6
Continuous
370
    -3
390
F
  0
LAYER
  5
77
330
2
100
AcDbSymbolTableRecord
100
AcDbLayerTableRecord
  2
치수문자_일반주서
 70
     0
 62
     7
  6
Continuous
370
    15
390
F
  0
LAYER
  5
78
330
2
100
AcDbSymbolTableRecord
100
AcDbLayerTableRecord
  2
개별주서
 70
     0
 62
   100
  6
Continuous
370
    30
390
F
  0
LAYER
  5
79
330
2
100
AcDbSymbolTableRecord
100
AcDbLayerTableRecord
  2
중간선
 70
     0
 62
     2
  6
Continuous
370
    15
390
F
  0
LAYER
  5
7A
330
2
100
AcDbSymbolTableRecord
100
AcDbLayerTableRecord
  2
윤곽선
 70
     0
 62
     3
  6
Continuous
370
    40
390
F
  0
LAYER
  5
7B
330
2
100
AcDbSymbolTableRecord
100
AcDbLayerTableRecord
  2
중심마크
 70
     0
 62
   100
  6
Continuous
370
    30
390
F
  0
LAYER
  5
7C
330
2
100
AcDbSymbolTableRecord
100
AcDbLayerTableRecord
  2
가상선
 70
     0
 62
     4
  6
PHANTOM
370
    -3
390
F
  0
LAYER
  5
7D
330
2
100
AcDbSymbolTableRecord
100
AcDbLayerTableRecord
  2
특수지정선
 70
     0
 62
     5
  6
CENTERX2
370
    60
390
F
  0
LAYER
  5
135
330
2
100
AcDbSymbolTableRecord
100
AcDbLayerTableRecord
  2
Defpoints
 70
     0
 62
     7
  6
Continuous
290
     0
370
    -3
390
F
  0
ENDTAB
  0
TABLE
  2
STYLE
  5
3
330
0
100
AcDbSymbolTable
 70
     2
  0
STYLE
  5
11
330
3
100
AcDbSymbolTableRecord
100
AcDbTextStyleTableRecord
  2
Standard
 70
     0
 40
0.0
 41
1.0
 50
0.0
 71
     0
 42
3.5
  3
txt
  4

  0
STYLE
  5
93
330
3
100
AcDbSymbolTableRecord
100
AcDbTextStyleTableRecord
  2
SLDTEXTSTYLE0
 70
     0
 40
0.0
 41
0.75
 50
0.0
 71
     0
 42
3.5
  3
TXT
  4

  0
ENDTAB
  0
TABLE
  2
VIEW
  5
6
330
0
100
AcDbSymbolTable
 70
     0
  0
ENDTAB
  0
TABLE
  2
UCS
  5
7
330
0
100
AcDbSymbolTable
 70
     0
  0
ENDTAB
  0
TABLE
  2
APPID
  5
9
330
0
100
AcDbSymbolTable
 70
     1
  0
APPID
  5
12
330
9
100
AcDbSymbolTableRecord
100
AcDbRegAppTableRecord
  2
ACAD
 70
     0
  0
ENDTAB
  0
TABLE
  2
DIMSTYLE
  5
A
330
0
100
AcDbSymbolTable
 70
     3
100
AcDbDimStyleTable
  0
DIMSTYLE
105
27
330
A
100
AcDbSymbolTableRecord
100
AcDbDimStyleTableRecord
  2
ISO-25
 70
     0
 41
2.5
 42
0.625
 43
3.75
 44
1.25
 73
     0
 74
     0
 77
     1
 78
     8
140
2.5
141
2.5
143
0.03937007874016
147
0.625
171
     3
172
     1
178
     0
271
     2
272
     2
274
     3
278
    44
283
     0
284
     8
340
11
  0
DIMSTYLE
105
DB
102
{ACAD_REACTORS
330
DA
330
FD
102
}
330
A
100
AcDbSymbolTableRecord
100
AcDbDimStyleTableRecord
  2
SLDDIMSTYLE0
 70
     0
 41
3.302
 44
0.0
 45
0.000000001
 73
     0
 74
     0
 77
     1
 78
    12
 79
     3
140
3.5
147
0.875
172
     1
173
     1
178
     0
271
     2
272
     2
276
     2
284
    12
289
     0
340
93
  0
DIMSTYLE
105
E9
102
{ACAD_REACTORS
330
E8
330
F3
102
}
330
A
100
AcDbSymbolTableRecord
100
AcDbDimStyleTableRecord
  2
SLDDIMSTYLE1
 70
     0
 41
3.302
 44
0.0
 45
0.000000001
 73
     0
 74
     0
 77
     1
 78
    12
 79
     3
140
3.5
147
0.875
173
     1
178
     0
271
     2
272
     2
276
     2
284
    12
340
93
  0
ENDTAB
  0
TABLE
  2
BLOCK_RECORD
  5
1
330
0
100
AcDbSymbolTable
 70
     7
  0
BLOCK_RECORD
  5
1F
330
1
100
AcDbSymbolTableRecord
100
AcDbBlockTableRecord
  2
*Model_Space
340
22
  0
BLOCK_RECORD
  5
1B
330
1
100
AcDbSymbolTableRecord
100
AcDbBlockTableRecord
  2
*Paper_Space
340
1E
  0
BLOCK_RECORD
  5
23
330
1
100
AcDbSymbolTableRecord
100
AcDbBlockTableRecord
  2
*Paper_Space0
340
26
  0
BLOCK_RECORD
  5
7E
330
1
100
AcDbSymbolTableRecord
100
AcDbBlockTableRecord
  2
블럭10
340
0
102
{BLKREFS
331
D3
102
}
  0
BLOCK_RECORD
  5
DC
330
1
100
AcDbSymbolTableRecord
100
AcDbBlockTableRecord
  2
_D
340
0
  0
BLOCK_RECORD
  5
EA
330
1
100
AcDbSymbolTableRecord
100
AcDbBlockTableRecord
  2
_D_1
340
0
  0
BLOCK_RECORD
  5
F4
330
1
100
AcDbSymbolTableRecord
100
AcDbBlockTableRecord
  2
_D_2
340
0
  0
BLOCK_RECORD
  5
FE
330
1
100
AcDbSymbolTableRecord
100
AcDbBlockTableRecord
  2
_D_3
340
0
  0
BLOCK_RECORD
  5
10A
330
1
100
AcDbSymbolTableRecord
100
AcDbBlockTableRecord
  2
SW_DOWELSYMBOL_0
340
0
102
{BLKREFS
331
110
102
}
  0
ENDTAB
  0
ENDSEC
  0
SECTION
  2
BLOCKS
  0
BLOCK
  5
20
330
1F
100
AcDbEntity
  8
0
100
AcDbBlockBegin
  2
*Model_Space
 70
     0
 10
0.0
 20
0.0
 30
0.0
  3
*Model_Space
  1

  0
ENDBLK
  5
21
330
1F
100
AcDbEntity
  8
0
100
AcDbBlockEnd
  0
BLOCK
  5
1C
330
1B
100
AcDbEntity
 67
     1
  8
0
100
AcDbBlockBegin
  2
*Paper_Space
 70
     0
 10
0.0
 20
0.0
 30
0.0
  3
*Paper_Space
  1

  0
ENDBLK
  5
1D
330
1B
100
AcDbEntity
 67
     1
  8
0
100
AcDbBlockEnd
  0
BLOCK
  5
24
330
23
100
AcDbEntity
  8
0
100
AcDbBlockBegin
  2
*Paper_Space0
 70
     0
 10
0.0
 20
0.0
 30
0.0
  3
*Paper_Space0
  1

  0
ENDBLK
  5
25
330
23
100
AcDbEntity
  8
0
100
AcDbBlockEnd
  0
BLOCK
  5
7F
330
7E
100
AcDbEntity
  8
0
100
AcDbBlockBegin
  2
블럭10
 70
     2
 10
0.0
 20
0.0
 30
0.0
  3
블럭10
  1

  0
ELLIPSE
  5
81
330
7E
100
AcDbEntity
  8
중심선
100
AcDbEllipse
 10
20.54032771741204
 20
12.0471743016438
 30
0.0
 11
6.600054785286829
 21
-1.261213355974178E-13
 31
0.0
210
0.0
220
0.0
230
1.0
 40
0.636358354079598
 41
0.9219305317359503
 42
6.513795318482858
  0
ELLIPSE
  5
82
330
7E
100
AcDbEntity
  8
중심선
100
AcDbEllipse
 10
20.54032771746488
 20
12.04717430159265
 30
0.0
 11
3.960054785062283
 21
1.540847449632565E-10
 31
0.0
210
0.0
220
0.0
230
1.0
 40
0.3939339440162632
 41
1.131841032648279
 42
5.62031148352944
  0
LINE
  5
83
330
7E
100
AcDbEntity
  8
중심선
100
AcDbLine
 10
2.268634060543552
 20
16.24717430164393
 30
0.0
 11
5.714909304380834
 21
16.24717430164393
 31
0.0
  0
LINE
  5
84
330
7E
100
AcDbEntity
  8
중심선
100
AcDbLine
 10
5.245725140726316
 20
7.84717430164391
 30
0.0
 11
8.692000384563599
 21
7.84717430164391
 31
0.0
  0
LINE
  5
85
330
7E
100
AcDbEntity
  8
중심선
100
AcDbLine
 10
15.74043728645272
 20
16.24717430164393
 30
0.0
 11
8.692000384563599
 21
7.84717430164391
 31
0.0
  0
LINE
  5
86
330
7E
100
AcDbEntity
  8
중심선
100
AcDbLine
 10
0.1404042013395286
 20
13.71084872107135
 30
0.0
 11
3.58671253028996
 21
13.71088815037384
 31
0.0
  0
LINE
  5
87
330
7E
100
AcDbEntity
  8
중심선
100
AcDbLine
 10
2.750260043222114
 20
10.84717430164391
 30
0.0
 11
6.196535287059397
 21
10.84717430164391
 31
0.0
  0
LINE
  5
88
330
7E
100
AcDbEntity
  8
중심선
100
AcDbLine
 10
12.29416204261559
 20
16.24717430164393
 30
0.0
 11
5.245725140726316
 21
7.84717430164391
 31
0.0
  0
LINE
  5
89
330
7E
100
AcDbEntity
  8
중심선
100
AcDbLine
 10
10.72767329541681
 20
16.24717430164393
 30
0.0
 11
6.196535287059397
 21
10.84717430164391
 31
0.0
  0
LINE
  5
8A
330
7E
100
AcDbEntity
  8
중심선
100
AcDbLine
 10
7.28139805157953
 20
16.24717430164393
 30
0.0
 11
2.750260043222114
 21
10.84717430164391
 31
0.0
  0
LINE
  5
8B
330
7E
100
AcDbEntity
  8
중심선
100
AcDbLine
 10
5.714909304380834
 20
16.24717430164393
 30
0.0
 11
3.58671253028996
 21
13.71088815037384
 31
0.0
  0
LINE
  5
8C
330
7E
100
AcDbEntity
  8
중심선
100
AcDbLine
 10
2.268634060543552
 20
16.24717430164393
 30
0.0
 11
0.1404042013395286
 21
13.71084872107135
 31
0.0
  0
LINE
  5
8D
330
7E
100
AcDbEntity
  8
중심선
100
AcDbLine
 10
7.28139805157953
 20
16.24717430164393
 30
0.0
 11
10.72767329541681
 21
16.24717430164393
 31
0.0
  0
LINE
  5
8E
330
7E
100
AcDbEntity
  8
중심선
100
AcDbLine
 10
12.29416204261559
 20
16.24717430164393
 30
0.0
 11
15.74043728645272
 21
16.24717430164393
 31
0.0
  0
LINE
  5
8F
330
7E
100
AcDbEntity
  8
중심선
100
AcDbLine
 10
19.22036997980202
 20
11.08717430171403
 30
0.0
 11
23.66174974927406
 21
11.08717430171406
 31
0.0
  0
LINE
  5
90
330
7E
100
AcDbEntity
  8
중심선
100
AcDbLine
 10
19.22039502424796
 20
13.00717430171391
 30
0.0
 11
19.22036997980202
 21
11.08717430171403
 31
0.0
  0
LINE
  5
91
330
7E
100
AcDbEntity
  8
중심선
100
AcDbLine
 10
19.22039502424796
 20
13.00717430171391
 30
0.0
 11
26.96566020931264
 21
13.00717430171391
 31
0.0
  0
LINE
  5
92
330
7E
100
AcDbEntity
  8
중심선
100
AcDbLine
 10
22.22332737316547
 20
13.45928029700563
 30
0.0
 11
24.52862924686651
 21
15.39360700705356
 31
0.0
  0
ATTDEF
  5
94
330
7E
100
AcDbEntity
  8
FORMAT
 62
     2
100
AcDbText
 10
-20.85824753159254
 20
2.075366912832191
 30
0.0
 40
4.233333333333333
  1
SEME7006030100E [ 2 FLUTE ]
 41
0.75
  7
SLDTEXTSTYLE0
 11
-20.85824753159254
 21
-0.0412997538344756
 31
0.0
100
AcDbAttributeDefinition
  3

  2
AUTOATTR0
 70
     0
 74
     1
  0
ENDBLK
  5
80
330
7E
100
AcDbEntity
  8
0
100
AcDbBlockEnd
  0
BLOCK
  5
DD
330
DC
100
AcDbEntity
  8
0
100
AcDbBlockBegin
  2
_D
 70
     0
 10
0.0
 20
0.0
 30
0.0
  3
_D
  1

  0
LINE
  5
DF
330
DC
100
AcDbEntity
  8
치수문자_일반주서
 62
     0
370
    -2
100
AcDbLine
 10
40.06249999999982
 20
-2.999999999999881
 30
0.0
 11
52.09773007890547
 21
-2.999999999999838
 31
0.0
  0
LINE
  5
E0
330
DC
100
AcDbEntity
  8
치수문자_일반주서
 62
     0
370
    -2
100
AcDbLine
 10
40.06249999999986
 20
3.000000000000113
 30
0.0
 11
52.09773007890545
 21
3.000000000000158
 31
0.0
  0
LINE
  5
E1
330
DC
100
AcDbEntity
  8
치수문자_일반주서
 62
     0
370
    -2
100
AcDbLine
 10
52.09773007890547
 20
-2.999999999999838
 30
0.0
 11
52.0977300789054
 21
15.72900000000016
 31
0.0
  0
LINE
  5
E2
330
DC
100
AcDbEntity
  8
치수문자_일반주서
 62
     0
370
    -2
100
AcDbLine
 10
52.09773007890547
 20
-2.999999999999838
 30
0.0
 11
52.09773007890545
 21
3.000000000000158
 31
0.0
  0
LINE
  5
E3
330
DC
100
AcDbEntity
  8
치수문자_일반주서
 62
     0
370
    -2
100
AcDbLine
 10
52.09773007890549
 20
-6.301999999999838
 30
0.0
 11
52.0977300789055
 21
-9.603999999999838
 31
0.0
  0
LINE
  5
E4
330
DC
100
AcDbEntity
  8
치수문자_일반주서
 62
     0
370
    -2
100
AcDbLine
 10
52.09773007890544
 20
6.302000000000158
 30
0.0
 11
52.09773007890542
 21
9.604000000000157
 31
0.0
  0
SOLID
  5
E5
330
DC
100
AcDbEntity
  8
치수문자_일반주서
 62
     0
100
AcDbTrace
 10
52.64806341223882
 20
-6.301999999999836
 30
0.0
 11
51.54739674557215
 21
-6.30199999999984
 31
0.0
 12
52.09773007890547
 22
-2.999999999999838
 32
0.0
 13
52.09773007890547
 23
-2.999999999999838
 33
0.0
  0
SOLID
  5
E6
330
DC
100
AcDbEntity
  8
치수문자_일반주서
 62
     0
100
AcDbTrace
 10
51.5473967455721
 20
6.302000000000156
 30
0.0
 11
52.64806341223877
 21
6.302000000000159
 31
0.0
 12
52.09773007890545
 22
3.000000000000158
 32
0.0
 13
52.09773007890545
 23
3.000000000000158
 33
0.0
  0
MTEXT
  5
E7
330
DC
100
AcDbEntity
  8
치수문자_일반주서
 62
     0
100
AcDbMText
 10
47.72273007890541
 20
12.66650000000014
 30
0.0
 40
3.5
 41
0.0
 71
     2
 72
     1
  1
\A1;%%c6
  7
SLDTEXTSTYLE0
 11
-3.552713678800504E-15
 21
1.0
 31
0.0
 73
     1
 44
1.0
  0
POINT
  5
13F
330
DC
100
AcDbEntity
  8
Defpoints
 62
     0
100
AcDbPoint
 10
39.99999999999982
 20
-2.999999999999882
 30
0.0
  0
POINT
  5
140
330
DC
100
AcDbEntity
  8
Defpoints
 62
     0
100
AcDbPoint
 10
39.99999999999986
 20
3.000000000000113
 30
0.0
  0
POINT
  5
141
330
DC
100
AcDbEntity
  8
Defpoints
 62
     0
100
AcDbPoint
 10
52.09773007890545
 20
3.000000000000158
 30
0.0
  0
ENDBLK
  5
DE
330
DC
100
AcDbEntity
  8
0
100
AcDbBlockEnd
  0
BLOCK
  5
EB
330
EA
100
AcDbEntity
  8
0
100
AcDbBlockBegin
  2
_D_1
 70
     0
 10
0.0
 20
0.0
 30
0.0
  3
_D_1
  1

  0
LINE
  5
ED
330
EA
100
AcDbEntity
  8
치수문자_일반주서
 62
     0
370
    -2
100
AcDbLine
 10
-60.0
 20
2.512499999999996
 30
0.0
 11
-60.0
 21
24.23841044024269
 31
0.0
  0
LINE
  5
EE
330
EA
100
AcDbEntity
  8
치수문자_일반주서
 62
     0
370
    -2
100
AcDbLine
 10
39.99999999999986
 20
3.062500000000113
 30
0.0
 11
39.99999999999986
 21
24.23841044024269
 31
0.0
  0
LINE
  5
EF
330
EA
100
AcDbEntity
  8
치수문자_일반주서
 62
     0
370
    -2
100
AcDbLine
 10
-56.698
 20
24.23841044024269
 30
0.0
 11
36.69799999999986
 21
24.23841044024269
 31
0.0
  0
SOLID
  5
F0
330
EA
100
AcDbEntity
  8
치수문자_일반주서
 62
     0
100
AcDbTrace
 10
-56.698
 20
24.78874377357603
 30
0.0
 11
-56.698
 21
23.68807710690936
 31
0.0
 12
-60.0
 22
24.23841044024269
 32
0.0
 13
-60.0
 23
24.23841044024269
 33
0.0
  0
SOLID
  5
F1
330
EA
100
AcDbEntity
  8
치수문자_일반주서
 62
     0
100
AcDbTrace
 10
36.69799999999986
 20
23.68807710690936
 30
0.0
 11
36.69799999999986
 21
24.78874377357603
 31
0.0
 12
39.99999999999986
 22
24.23841044024269
 32
0.0
 13
39.99999999999986
 23
24.23841044024269
 33
0.0
  0
MTEXT
  5
F2
330
EA
100
AcDbEntity
  8
치수문자_일반주서
 62
     0
100
AcDbMText
 10
-10.00000000000007
 20
28.61341044024269
 30
0.0
 40
3.5
 41
0.0
 71
     2
 72
     1
  1
\A1;100
  7
SLDTEXTSTYLE0
 73
     1
 44
1.0
  0
POINT
  5
136
330
EA
100
AcDbEntity
  8
Defpoints
 62
     0
100
AcDbPoint
 10
-60.0
 20
2.449999999999996
 30
0.0
  0
POINT
  5
137
330
EA
100
AcDbEntity
  8
Defpoints
 62
     0
100
AcDbPoint
 10
39.99999999999986
 20
3.000000000000113
 30
0.0
  0
POINT
  5
138
330
EA
100
AcDbEntity
  8
Defpoints
 62
     0
100
AcDbPoint
 10
39.99999999999986
 20
24.23841044024269
 30
0.0
  0
ENDBLK
  5
EC
330
EA
100
AcDbEntity
  8
0
100
AcDbBlockEnd
  0
BLOCK
  5
F5
330
F4
100
AcDbEntity
  8
0
100
AcDbBlockBegin
  2
_D_2
 70
     0
 10
0.0
 20
0.0
 30
0.0
  3
_D_2
  1

  0
LINE
  5
F7
330
F4
100
AcDbEntity
  8
치수문자_일반주서
 62
     0
370
    -2
100
AcDbLine
 10
10.0
 20
3.009258045411174
 30
0.0
 11
10.0
 21
16.29375585157864
 31
0.0
  0
LINE
  5
F8
330
F4
100
AcDbEntity
  8
치수문자_일반주서
 62
     0
370
    -2
100
AcDbLine
 10
39.99999999999986
 20
3.062500000000113
 30
0.0
 11
39.99999999999986
 21
16.29375585157864
 31
0.0
  0
LINE
  5
F9
330
F4
100
AcDbEntity
  8
치수문자_일반주서
 62
     0
370
    -2
100
AcDbLine
 10
13.302
 20
16.29375585157864
 30
0.0
 11
36.69799999999986
 21
16.29375585157864
 31
0.0
  0
SOLID
  5
FA
330
F4
100
AcDbEntity
  8
치수문자_일반주서
 62
     0
100
AcDbTrace
 10
13.302
 20
16.84408918491197
 30
0.0
 11
13.302
 21
15.74342251824531
 31
0.0
 12
10.0
 22
16.29375585157864
 32
0.0
 13
10.0
 23
16.29375585157864
 33
0.0
  0
SOLID
  5
FB
330
F4
100
AcDbEntity
  8
치수문자_일반주서
 62
     0
100
AcDbTrace
 10
36.69799999999986
 20
15.74342251824531
 30
0.0
 11
36.69799999999986
 21
16.84408918491197
 31
0.0
 12
39.99999999999986
 22
16.29375585157864
 32
0.0
 13
39.99999999999986
 23
16.29375585157864
 33
0.0
  0
MTEXT
  5
FC
330
F4
100
AcDbEntity
  8
치수문자_일반주서
 62
     0
100
AcDbMText
 10
25.00000000000006
 20
20.66875585157864
 30
0.0
 40
3.5
 41
0.0
 71
     2
 72
     1
  1
\A1;30
  7
SLDTEXTSTYLE0
 73
     1
 44
1.0
  0
POINT
  5
139
330
F4
100
AcDbEntity
  8
Defpoints
 62
     0
100
AcDbPoint
 10
10.0
 20
2.946758045411174
 30
0.0
  0
POINT
  5
13A
330
F4
100
AcDbEntity
  8
Defpoints
 62
     0
100
AcDbPoint
 10
39.99999999999986
 20
3.000000000000113
 30
0.0
  0
POINT
  5
13B
330
F4
100
AcDbEntity
  8
Defpoints
 62
     0
100
AcDbPoint
 10
39.99999999999986
 20
16.29375585157864
 30
0.0
  0
ENDBLK
  5
F6
330
F4
100
AcDbEntity
  8
0
100
AcDbBlockEnd
  0
BLOCK
  5
FF
330
FE
100
AcDbEntity
  8
0
100
AcDbBlockBegin
  2
_D_3
 70
     0
 10
0.0
 20
0.0
 30
0.0
  3
_D_3
  1

  0
LINE
  5
101
330
FE
100
AcDbEntity
  8
치수문자_일반주서
 62
     0
370
    -2
100
AcDbLine
 10
-59.5125
 20
2.999999999999995
 30
0.0
 11
-70.51531054779117
 21
2.999999999999954
 31
0.0
  0
LINE
  5
102
330
FE
100
AcDbEntity
  8
치수문자_일반주서
 62
     0
370
    -2
100
AcDbLine
 10
-59.5125
 20
-2.999999999999996
 30
0.0
 11
-70.51531054779116
 21
-3.000000000000037
 31
0.0
  0
LINE
  5
103
330
FE
100
AcDbEntity
  8
치수문자_일반주서
 62
     0
370
    -2
100
AcDbLine
 10
-70.51531054779117
 20
2.999999999999954
 30
0.0
 11
-70.51531054779122
 21
15.72899999999995
 31
0.0
  0
LINE
  5
104
330
FE
100
AcDbEntity
  8
치수문자_일반주서
 62
     0
370
    -2
100
AcDbLine
 10
-70.51531054779117
 20
2.999999999999954
 30
0.0
 11
-70.51531054779116
 21
-3.000000000000037
 31
0.0
  0
LINE
  5
105
330
FE
100
AcDbEntity
  8
치수문자_일반주서
 62
     0
370
    -2
100
AcDbLine
 10
-70.51531054779119
 20
6.301999999999953
 30
0.0
 11
-70.5153105477912
 21
9.603999999999953
 31
0.0
  0
LINE
  5
106
330
FE
100
AcDbEntity
  8
치수문자_일반주서
 62
     0
370
    -2
100
AcDbLine
 10
-70.51531054779115
 20
-6.302000000000037
 30
0.0
 11
-70.51531054779113
 21
-9.604000000000037
 31
0.0
  0
SOLID
  5
107
330
FE
100
AcDbEntity
  8
치수문자_일반주서
 62
     0
100
AcDbTrace
 10
-71.06564388112452
 20
6.301999999999953
 30
0.0
 11
-69.96497721445786
 21
6.301999999999954
 31
0.0
 12
-70.51531054779117
 22
2.999999999999954
 32
0.0
 13
-70.51531054779117
 23
2.999999999999954
 33
0.0
  0
SOLID
  5
108
330
FE
100
AcDbEntity
  8
치수문자_일반주서
 62
     0
100
AcDbTrace
 10
-69.96497721445782
 20
-6.302000000000036
 30
0.0
 11
-71.06564388112447
 21
-6.302000000000038
 31
0.0
 12
-70.51531054779116
 22
-3.000000000000037
 32
0.0
 13
-70.51531054779116
 23
-3.000000000000037
 33
0.0
  0
MTEXT
  5
109
330
FE
100
AcDbEntity
  8
치수문자_일반주서
 62
     0
100
AcDbMText
 10
-74.8903105477912
 20
12.66649999999994
 30
0.0
 40
3.5
 41
0.0
 71
     2
 72
     1
  1
\A1;%%c6
  7
SLDTEXTSTYLE0
 11
-2.368475785867004E-15
 21
1.0
 31
0.0
 73
     1
 44
1.0
  0
POINT
  5
13C
330
FE
100
AcDbEntity
  8
Defpoints
 62
     0
100
AcDbPoint
 10
-59.45
 20
2.999999999999996
 30
0.0
  0
POINT
  5
13D
330
FE
100
AcDbEntity
  8
Defpoints
 62
     0
100
AcDbPoint
 10
-59.45
 20
-2.999999999999995
 30
0.0
  0
POINT
  5
13E
330
FE
100
AcDbEntity
  8
Defpoints
 62
     0
100
AcDbPoint
 10
-70.51531054779116
 20
-3.000000000000036
 30
0.0
  0
ENDBLK
  5
100
330
FE
100
AcDbEntity
  8
0
100
AcDbBlockEnd
  0
BLOCK
  5
10B
330
10A
100
AcDbEntity
  8
0
100
AcDbBlockBegin
  2
SW_DOWELSYMBOL_0
 70
     0
 10
0.0
 20
0.0
 30
0.0
  3
SW_DOWELSYMBOL_0
  1

  0
CIRCLE
  5
10D
330
10A
100
AcDbEntity
  8
외형선
 62
     0
100
AcDbCircle
 10
0.0
 20
0.0
 30
0.0
 40
3.000000000000004
  0
HATCH
  5
10E
330
10A
100
AcDbEntity
  8
0
  6
Continuous
 62
     0
370
    30
100
AcDbHatch
 10
0.0
 20
0.0
 30
0.0
210
0.0
220
0.0
230
1.0
  2
SOLID
 70
     1
 71
     0
 91
        1
 92
        0
 93
        3
 72
     2
 10
0.0000000000000104
 20
0.0
 40
3.000000000000004
 50
0.0
 51
90.0
 73
     1
 72
     1
 10
0.0000000000000104
 20
3.000000000000004
 11
0.0000000000000104
 21
0.0
 72
     1
 10
0.0000000000000104
 20
0.0
 11
3.000000000000015
 21
0.0
 97
        0
 75
     0
 76
     1
 98
        1
 10
0.0
 20
0.0
  0
HATCH
  5
10F
330
10A
100
AcDbEntity
  8
0
  6
Continuous
 62
     0
370
    30
100
AcDbHatch
 10
0.0
 20
0.0
 30
0.0
210
0.0
220
0.0
230
1.0
  2
SOLID
 70
     1
 71
     0
 91
        1
 92
        0
 93
        3
 72
     2
 10
0.0000000000000104
 20
0.0
 40
3.000000000000004
 50
180.0
 51
270.0000000000008
 73
     1
 72
     1
 10
0.0000000000000104
 20
-3.000000000000004
 11
0.0000000000000104
 21
0.0
 72
     1
 10
0.0000000000000104
 20
0.0
 11
-2.999999999999994
 21
0.0
 97
        0
 75
     0
 76
     1
 98
        1
 10
0.0
 20
0.0
  0
ENDBLK
  5
10C
330
10A
100
AcDbEntity
  8
0
100
AcDbBlockEnd
  0
ENDSEC
  0
SECTION
  2
ENTITIES
  0
SPLINE
  5
95
330
1F
100
AcDbEntity
  8
0
  6
Continuous
 62
     1
370
    15
100
AcDbSpline
210
0.0
220
0.0
230
1.0
 70
     8
 71
     3
 72
     9
 73
     5
 74
     0
 42
0.000000001
 43
0.00000001
 40
0.0
 40
0.0
 40
0.0
 40
0.0
 40
0.4368756005839485
 40
1.0
 40
1.0
 40
1.0
 40
1.0
 10
15.90249321799121
 20
0.7688872453286868
 30
0.0
 10
15.78153963544614
 20
0.8265105027345654
 30
0.0
 10
15.50467916902642
 20
0.958409050808334
 30
0.0
 10
15.22778764951678
 20
1.103396263466636
 30
0.0
 10
15.07186327888952
 20
1.18504210051785
 30
0.0
  0
SPLINE
  5
96
330
1F
100
AcDbEntity
  8
0
  6
Continuous
 62
     1
370
    15
100
AcDbSpline
210
0.0
220
0.0
230
1.0
 70
     8
 71
     3
 72
     9
 73
     5
 74
     0
 42
0.000000001
 43
0.00000001
 40
0.0
 40
0.0
 40
0.0
 40
0.0
 40
0.5085838872359587
 40
1.0
 40
1.0
 40
1.0
 40
1.0
 10
32.22682562304155
 20
0.7688226978837386
 30
0.0
 10
32.08602928726029
 20
0.8361299605174941
 30
0.0
 10
31.8091893414522
 20
0.968472459607577
 30
0.0
 10
31.53225914169697
 20
1.113642866929019
 30
0.0
 10
31.39617117942628
 20
1.184981944183294
 30
0.0
  0
LINE
  5
97
330
1F
100
AcDbEntity
  8
0
  6
Continuous
 62
     1
370
    15
100
AcDbLine
 10
23.88903971220084
 20
-2.999999999999998
 30
0.0
 11
25.34420005855137
 21
-2.999999999999998
 31
0.0
  0
LINE
  5
98
330
1F
100
AcDbEntity
  8
0
  6
Continuous
 62
     1
370
    15
100
AcDbLine
 10
25.34420005855137
 20
3.000000000000007
 30
0.0
 11
23.88903971220084
 21
3.000000000000007
 31
0.0
  0
SPLINE
  5
99
330
1F
100
AcDbEntity
  8
0
  6
Continuous
 62
     1
370
    15
100
AcDbSpline
210
0.0
220
0.0
230
1.0
 70
     8
 71
     3
 72
    12
 73
     8
 74
     0
 42
0.000000001
 43
0.00000001
 40
0.0
 40
0.0
 40
0.0
 40
0.0
 40
0.2089047335310265
 40
0.5010344451484445
 40
0.698516306596713
 40
0.7920678330760862
 40
1.0
 40
1.0
 40
1.0
 40
1.0
 10
26.72299542655972
 20
-2.496433868891007
 30
0.0
 10
27.03740740901099
 20
-2.467619895953419
 30
0.0
 10
27.7914890926225
 20
-2.398512831219712
 30
0.0
 10
28.84197809028217
 20
-2.349099533818797
 30
0.0
 10
29.71932818384817
 20
-2.34038257285214
 30
0.0
 10
30.46965552421189
 20
-2.349712948855234
 30
0.0
 10
30.92339397313696
 20
-2.369958898245663
 30
0.0
 10
31.23633567103331
 20
-2.383922453224911
 30
0.0
  0
SPLINE
  5
9A
330
1F
100
AcDbEntity
  8
0
  6
Continuous
 62
     1
370
    15
100
AcDbSpline
210
0.0
220
0.0
230
1.0
 70
     8
 71
     3
 72
    15
 73
    11
 74
     0
 42
0.000000001
 43
0.00000001
 40
0.0
 40
0.0
 40
0.0
 40
0.0
 40
0.2470345411998368
 40
0.4135902877199213
 40
0.5176589670517934
 40
0.6148926267956761
 40
0.7105775417023207
 40
0.8102858407421288
 40
0.9141162227113517
 40
1.0
 40
1.0
 40
1.0
 40
1.0
 10
14.91208931916814
 20
2.38391968139827
 30
0.0
 10
14.70824630494316
 20
2.374244444072959
 30
0.0
 10
14.36696815617285
 20
2.358045963610678
 30
0.0
 10
13.94080805846132
 20
2.347683545722327
 30
0.0
 10
13.63681651040052
 20
2.343586466378652
 30
0.0
 10
13.39218089016094
 20
2.342507903030429
 30
0.0
 10
13.15206865095142
 20
2.343441926564393
 30
0.0
 10
12.90597008734322
 20
2.34653212006375
 30
0.0
 10
12.66759254502748
 20
2.351518749608623
 30
0.0
 10
12.51129617612519
 20
2.356431355955364
 30
0.0
 10
12.44054066377787
 20
2.358655297442076
 30
0.0
  0
SPLINE
  5
9B
330
1F
100
AcDbEntity
  8
0
  6
Continuous
 62
     1
370
    15
100
AcDbSpline
210
0.0
220
0.0
230
1.0
 70
     8
 71
     3
 72
    21
 73
    17
 74
     0
 42
0.000000001
 43
0.00000001
 40
0.0
 40
0.0
 40
0.0
 40
0.0
 40
0.1289886997805364
 40
0.2127620868873639
 40
0.266867919950778
 40
0.3232572396065082
 40
0.3812622823625789
 40
0.439188073083015
 40
0.4968751654540449
 40
0.5540228699266351
 40
0.608901801304164
 40
0.6615662828929033
 40
0.7150831856187251
 40
0.7723620477255164
 40
0.8640334679766969
 40
1.0
 40
1.0
 40
1.0
 40
1.0
 10
10.42425269279563
 20
-2.493859132760574
 30
0.0
 10
10.61761114646936
 20
-2.475633215424013
 30
0.0
 10
10.93654876031407
 20
-2.445570239251985
 30
0.0
 10
11.33501991006901
 20
-2.415838869141588
 30
0.0
 10
11.62340672985531
 20
-2.396859117908791
 30
0.0
 10
11.87543101861549
 20
-2.382496432430484
 30
0.0
 10
12.13347760660505
 20
-2.370046076404483
 30
0.0
 10
12.39341115836136
 20
-2.359823178580343
 30
0.0
 10
12.65200169029675
 20
-2.351956444980679
 30
0.0
 10
12.90597067480589
 20
-2.346503611707054
 30
0.0
 10
13.1520685033074
 20
-2.343449091425735
 30
0.0
 10
13.39218092959882
 20
-2.342505989190935
 30
0.0
 10
13.63681649910792
 20
-2.343587014385192
 30
0.0
 10
13.94080806363599
 20
-2.347683294605895
 30
0.0
 10
14.36696815376839
 20
-2.35804608029411
 30
0.0
 10
14.70824630404403
 20
-2.374244487705642
 30
0.0
 10
14.91208931916814
 20
-2.383919681398261
 30
0.0
  0
SPLINE
  5
9C
330
1F
100
AcDbEntity
  8
0
  6
Continuous
 62
     1
370
    15
100
AcDbSpline
210
0.0
220
0.0
230
1.0
 70
     8
 71
     3
 72
    10
 73
     6
 74
     0
 42
0.000000001
 43
0.00000001
 40
0.0
 40
0.0
 40
0.0
 40
0.0
 40
0.3786798142466318
 40
0.9086708775948227
 40
1.0
 40
1.0
 40
1.0
 40
1.0
 10
31.23633567103331
 20
2.383922453224923
 30
0.0
 10
30.9234250195802
 20
2.370551995361043
 30
0.0
 10
30.17257222635606
 20
2.338468569670168
 30
0.0
 10
29.3468002858124
 20
2.335918835627409
 30
0.0
 10
28.83353016480237
 20
2.358149806534011
 30
0.0
 10
28.75808354197648
 20
2.361417582327668
 30
0.0
  0
SPLINE
  5
9D
330
1F
100
AcDbEntity
  8
0
  6
Continuous
 62
     1
370
    15
100
AcDbSpline
210
0.0
220
0.0
230
1.0
 70
     8
 71
     3
 72
    13
 73
     9
 74
     0
 42
0.000000001
 43
0.00000001
 40
0.0
 40
0.0
 40
0.0
 40
0.0
 40
0.2219468178533932
 40
0.3651246297605027
 40
0.509065676129241
 40
0.6792142192095515
 40
0.8534982212370602
 40
1.0
 40
1.0
 40
1.0
 40
1.0
 10
33.64379263721334
 20
-2.256416287090194
 30
0.0
 10
33.80701677369022
 20
-2.231616106949234
 30
0.0
 10
34.07553674156141
 20
-2.190817339570898
 30
0.0
 10
34.45881583788444
 20
-2.140956915722966
 30
0.0
 10
34.80231981262149
 20
-2.100396664725301
 30
0.0
 10
35.16594695897628
 20
-2.063771592265327
 30
0.0
 10
35.53217825207668
 20
-2.032614855696015
 30
0.0
 10
35.77115464118377
 20
-2.017645820179958
 30
0.0
 10
35.88029434806312
 20
-2.010809512398285
 30
0.0
  0
SPLINE
  5
9E
330
1F
100
AcDbEntity
  8
0
  6
Continuous
 62
     1
370
    15
100
AcDbSpline
210
0.0
220
0.0
230
1.0
 70
     8
 71
     3
 72
    23
 73
    19
 74
     0
 42
0.000000001
 43
0.00000001
 40
0.0
 40
0.0
 40
0.0
 40
0.0
 40
0.0946695125646824
 40
0.1570353165142833
 40
0.2017055909204693
 40
0.2496375577001737
 40
0.3014539425542688
 40
0.3585277873623017
 40
0.4197189411019205
 40
0.4811482421585159
 40
0.5930424780253001
 40
0.6896564939859587
 40
0.7396584144544296
 40
0.7877621593025451
 40
0.8202788584131482
 40
0.8663316943757912
 40
0.9262872693778186
 40
1.0
 40
1.0
 40
1.0
 40
1.0
 10
22.56021382466973
 20
2.051849956540019
 30
0.0
 10
22.39505906607321
 20
2.038652565984742
 30
0.0
 10
22.12110466314624
 20
2.01676107899103
 30
0.0
 10
21.7689808625135
 20
1.997834239346222
 30
0.0
 10
21.49712455617708
 20
1.986552690687234
 30
0.0
 10
21.24457877783538
 20
1.979109003679577
 30
0.0
 10
20.97072712279138
 20
1.974482362147383
 30
0.0
 10
20.67379112607781
 20
1.973664924525583
 30
0.0
 10
20.3598359467134
 20
1.977579312524772
 30
0.0
 10
19.95006629919341
 20
1.989056275484596
 30
0.0
 10
19.47886439221319
 20
2.01284973506939
 30
0.0
 10
19.02702190749639
 20
2.047272227460182
 30
0.0
 10
18.68675674750015
 20
2.079159064296161
 30
0.0
 10
18.4612114428179
 20
2.102911040928939
 30
0.0
 10
18.24114291267055
 20
2.128213472463968
 30
0.0
 10
17.99913055839107
 20
2.158349703336842
 30
0.0
 10
17.68411223990309
 20
2.200740282536235
 30
0.0
 10
17.44911338637371
 20
2.23663432300511
 30
0.0
 10
17.31952090664682
 20
2.256428452388798
 30
0.0
  0
SPLINE
  5
9F
330
1F
100
AcDbEntity
  8
0
  6
Continuous
 62
     1
370
    15
100
AcDbSpline
210
0.0
220
0.0
230
1.0
 70
     8
 71
     3
 72
    15
 73
    11
 74
     0
 42
0.000000001
 43
0.00000001
 40
0.0
 40
0.0
 40
0.0
 40
0.0
 40
0.1729945801168393
 40
0.3137028327564196
 40
0.4980792503868306
 40
0.6109727366517789
 40
0.7283210042232982
 40
0.8438353352443911
 40
0.9550662799066103
 40
1.0
 40
1.0
 40
1.0
 40
1.0
 10
17.31952090664682
 20
-2.256428452388787
 30
0.0
 10
17.4491114532137
 20
-2.236637078882315
 30
0.0
 10
17.68410680121263
 20
-2.200748035832949
 30
0.0
 10
18.05613335832329
 20
-2.150654212832269
 30
0.0
 10
18.38174329670518
 20
-2.111247276763992
 30
0.0
 10
18.68674790222028
 20
-2.079176646149832
 30
0.0
 10
18.944206782362
 20
-2.054989858839896
 30
0.0
 10
19.20044903670181
 20
-2.03421019954241
 30
0.0
 10
19.40274729635349
 20
-2.019519901258044
 30
0.0
 10
19.51891468038913
 20
-2.012976744894779
 30
0.0
 10
19.55233986480206
 20
-2.011094063194572
 30
0.0
  0
SPLINE
  5
A0
330
1F
100
AcDbEntity
  8
0
  6
Continuous
 62
     1
370
    15
100
AcDbSpline
210
0.0
220
0.0
230
1.0
 70
     8
 71
     3
 72
    20
 73
    16
 74
     0
 42
0.000000001
 43
0.00000001
 40
0.0
 40
0.0
 40
0.0
 40
0.0
 40
0.1006406001074901
 40
0.1632421935114395
 40
0.2236937232558587
 40
0.2932901710094257
 40
0.3658621106892588
 40
0.4380541016349558
 40
0.5043926673908261
 40
0.621269086838791
 40
0.729440522667811
 40
0.7657575043590686
 40
0.8148461604814249
 40
0.8927375102611486
 40
1.0
 40
1.0
 40
1.0
 40
1.0
 10
38.90087539780676
 20
2.053257335341249
 30
0.0
 10
38.72577588902983
 20
2.039163316030412
 30
0.0
 10
38.44175902242741
 20
2.016302376953774
 30
0.0
 10
38.04629529684631
 20
1.995420968663482
 30
0.0
 10
37.70623385658041
 20
1.982327873439886
 30
0.0
 10
37.35178866257347
 20
1.974650796080262
 30
0.0
 10
36.97655794731374
 20
1.973382736895093
 30
0.0
 10
36.60662449061543
 20
1.979052811129341
 30
0.0
 10
36.15108377540214
 20
1.993980509688379
 30
0.0
 10
35.6488367659486
 20
2.022897682178963
 30
0.0
 10
35.19165936243951
 20
2.061228655183134
 30
0.0
 10
34.85252665759819
 20
2.095598830554837
 30
0.0
 10
34.56703725452874
 20
2.127586671748273
 30
0.0
 10
34.15727066333982
 20
2.179041493782598
 30
0.0
 10
33.83214371749803
 20
2.228034106812248
 30
0.0
 10
33.64379263721335
 20
2.256416287090206
 30
0.0
  0
LINE
  5
A1
330
1F
100
AcDbEntity
  8
0
  6
Continuous
 62
   131
370
    15
100
AcDbLine
 10
9.109906389700608
 20
3.000000000000005
 30
0.0
 11
-59.45
 21
3.0
 31
0.0
  0
LINE
  5
A2
330
1F
100
AcDbEntity
  8
0
  6
Continuous
 62
   131
370
    15
100
AcDbLine
 10
-59.45
 20
-3.0
 30
0.0
 11
9.109906389700608
 21
-2.999999999999996
 31
0.0
  0
LINE
  5
A3
330
1F
100
AcDbEntity
  8
0
  6
Continuous
 62
   131
370
    15
100
AcDbLine
 10
-59.45
 20
2.999999999999996
 30
0.0
 11
-60.0
 21
2.449999999999996
 31
0.0
  0
LINE
  5
A4
330
1F
100
AcDbEntity
  8
0
  6
Continuous
 62
   131
370
    15
100
AcDbLine
 10
-60.0
 20
-2.449999999999996
 30
0.0
 11
-59.45
 21
-2.999999999999995
 31
0.0
  0
SPLINE
  5
A5
330
1F
100
AcDbEntity
  8
0
  6
Continuous
 62
     1
370
    15
100
AcDbSpline
210
0.0
220
0.0
230
1.0
 70
     8
 71
     3
 72
    22
 73
    18
 74
     0
 42
0.000000001
 43
0.00000001
 40
0.0
 40
0.0
 40
0.0
 40
0.0
 40
0.017950582355171
 40
0.0865696601086563
 40
0.1551894434255509
 40
0.2238109107033268
 40
0.292435038735524
 40
0.361062801783408
 40
0.4296951706527687
 40
0.4983331117777329
 40
0.5669775863134208
 40
0.6356295492392622
 40
0.7085035141650619
 40
0.7813775423265923
 40
0.8542516331015202
 40
0.9271257858670646
 40
1.0
 40
1.0
 40
1.0
 40
1.0
 10
28.75307292556894
 20
-2.363310214525783
 30
0.0
 10
28.64087048003023
 20
-2.406866192529387
 30
0.0
 10
28.09975558016474
 20
-2.616922119232289
 30
0.0
 10
27.12972561454185
 20
-2.846586930210505
 30
0.0
 10
25.84296790477389
 20
-3.01871271907795
 30
0.0
 10
24.55617250641373
 20
-2.995565287141899
 30
0.0
 10
23.26931719253005
 20
-2.792548676107638
 30
0.0
 10
21.98238012099256
 20
-2.418291939738179
 30
0.0
 10
20.69533941950353
 20
-1.896628872541676
 30
0.0
 10
19.40817343957898
 20
-1.259120324345124
 30
0.0
 10
18.12086028488105
 20
-0.5447285972688359
 30
0.0
 10
16.80703966210513
 20
0.218217458743989
 30
0.0
 10
15.46674194506567
 20
0.9833014127762623
 30
0.0
 10
14.1000602395469
 20
1.696760670074798
 30
0.0
 10
12.73337433171229
 20
2.289638345849222
 30
0.0
 10
11.3666877896289
 20
2.739571525983933
 30
0.0
 10
10.45556272441654
 20
2.877695852883317
 30
0.0
 10
9.999999999995627
 20
2.946758045411652
 30
0.0
  0
SPLINE
  5
A6
330
1F
100
AcDbEntity
  8
0
  6
Continuous
 62
     1
370
    15
100
AcDbSpline
210
0.0
220
0.0
230
1.0
 70
     8
 71
     3
 72
    16
 73
    12
 74
     0
 42
0.000000001
 43
0.00000001
 40
0.0
 40
0.0
 40
0.0
 40
0.0
 40
0.0815958156548377
 40
0.2002028915747858
 40
0.3188147723357777
 40
0.4374332171985978
 40
0.5560599791110153
 40
0.6746968030340982
 40
0.7933454242848157
 40
0.9120075668982429
 40
0.9999999999999999
 40
0.9999999999999999
 40
0.9999999999999999
 40
0.9999999999999999
 10
26.72822202362548
 20
-2.479494563780614
 30
0.0
 10
26.43314065813716
 20
-2.508691060370286
 30
0.0
 10
25.70913119580765
 20
-2.580327369097585
 30
0.0
 10
24.55617130691721
 20
-2.514993545305136
 30
0.0
 10
23.26931568896131
 20
-2.309836394161509
 30
0.0
 10
21.9823781825343
 20
-1.957970502187537
 30
0.0
 10
20.69533708521729
 20
-1.488217939259805
 30
0.0
 10
19.40817069847072
 20
-0.926794940599061
 30
0.0
 10
18.12085715927079
 20
-0.310384098499111
 30
0.0
 10
16.94435241109969
 20
0.2753847223605897
 30
0.0
 10
16.19694322379033
 20
0.6266973478084661
 30
0.0
 10
15.87870031682176
 20
0.7762844188207705
 30
0.0
  0
SPLINE
  5
A7
330
1F
100
AcDbEntity
  8
0
  6
Continuous
 62
     1
370
    15
100
AcDbSpline
210
0.0
220
0.0
230
1.0
 70
     8
 71
     3
 72
    19
 73
    15
 74
     0
 42
0.000000001
 43
0.00000001
 40
0.0
 40
0.0
 40
0.0
 40
0.0
 40
0.087847960515711
 40
0.1756856606295062
 40
0.2635143173554954
 40
0.3513351562439624
 40
0.4391494102426432
 40
0.5269583185430916
 40
0.6147631254144265
 40
0.7025650790267909
 40
0.7903654302668933
 40
0.8781654315480288
 40
0.9659663356169934
 40
1.0
 40
1.0
 40
1.0
 40
1.0
 10
40.0
 20
-2.846822607695695
 30
0.0
 10
39.57080469019023
 20
-2.751783140068182
 30
0.0
 10
38.71246419941093
 20
-2.561715305163466
 30
0.0
 10
37.42506166969592
 20
-2.073640186739853
 30
0.0
 10
36.13781569237042
 20
-1.471472812604604
 30
0.0
 10
34.85070778694046
 20
-0.7761671836079214
 30
0.0
 10
33.56371547399759
 20
-0.0343864791682664
 30
0.0
 10
32.27681719025468
 20
0.7096548981240893
 30
0.0
 10
30.98999101735184
 20
1.410528383562019
 30
0.0
 10
29.70321498087846
 20
2.024492941893168
 30
0.0
 10
28.41646725513069
 20
2.517994999019525
 30
0.0
 10
27.12972517581709
 20
2.846251427748169
 30
0.0
 10
26.10563826080128
 20
3.003631372138599
 30
0.0
 10
25.51045928759652
 20
2.983745485636662
 30
0.0
 10
25.34420005855137
 20
2.978190497460771
 30
0.0
  0
SPLINE
  5
A8
330
1F
100
AcDbEntity
  8
0
  6
Continuous
 62
     1
370
    15
100
AcDbSpline
210
0.0
220
0.0
230
1.0
 70
     8
 71
     3
 72
     9
 73
     5
 74
     0
 42
0.000000001
 43
0.00000001
 40
0.0
 40
0.0
 40
0.0
 40
0.0
 40
0.4399109717263531
 40
0.9999999999999999
 40
0.9999999999999999
 40
0.9999999999999999
 40
0.9999999999999999
 10
12.44012634401217
 20
-2.358786654964062
 30
0.0
 10
12.08231360717973
 20
-2.482920242764481
 30
0.0
 10
11.26893826573672
 20
-2.765099128445097
 30
0.0
 10
10.45556271937751
 20
-2.881540506901277
 30
0.0
 10
9.99999999999563
 20
-2.946758045411643
 30
0.0
  0
SPLINE
  5
A9
330
1F
100
AcDbEntity
  8
0
  6
Continuous
 62
   131
370
    15
100
AcDbSpline
210
0.0
220
0.0
230
1.0
 70
    24
 71
     3
 72
     8
 73
     4
 74
     0
 42
0.000000001
 43
0.00000001
 40
0.0
 40
0.0
 40
0.0
 40
0.0
 40
1.0
 40
1.0
 40
1.0
 40
1.0
 10
10.00000000000001
 20
-2.529017816947221
 30
0.0
 10
10.00000000000001
 20
-2.673796096582023
 30
0.0
 10
10.00000000000001
 20
-2.813962327698337
 30
0.0
 10
10.00000000000001
 20
-2.946758045406372
 30
0.0
  0
SPLINE
  5
AA
330
1F
100
AcDbEntity
  8
0
  6
Continuous
 62
     1
370
    15
100
AcDbSpline
210
0.0
220
0.0
230
1.0
 70
     8
 71
     3
 72
    14
 73
    10
 74
     0
 42
0.000000001
 43
0.00000001
 40
0.0
 40
0.0
 40
0.0
 40
0.0
 40
0.1650461436952682
 40
0.3300721500405996
 40
0.495080407067447
 40
0.6600733197570662
 40
0.825053307779902
 40
0.9900228032051551
 40
1.0
 40
1.0
 40
1.0
 40
1.0
 10
40.0
 20
-2.36691679310464
 30
0.0
 10
39.57080517576091
 20
-2.274531599408136
 30
0.0
 10
38.71246789352512
 20
-2.089772483971764
 30
0.0
 10
37.42506452967001
 20
-1.646207301789184
 30
0.0
 10
36.13781831913677
 20
-1.112999170263442
 30
0.0
 10
34.85070978404151
 20
-0.507366893360999
 30
0.0
 10
33.56371780723663
 20
0.1220337668041565
 30
0.0
 10
32.67981707717159
 20
0.5658442623218729
 30
0.0
 10
32.22491283394869
 20
0.7686565499393736
 30
0.0
 10
32.19896967892331
 20
0.780222919559136
 30
0.0
  0
LINE
  5
AB
330
1F
100
AcDbEntity
  8
0
  6
Continuous
 62
     1
370
    15
100
AcDbLine
 10
10.43068913924178
 20
-2.472534777265035
 30
0.0
 11
9.99999999999998
 21
-2.529017816947223
 31
0.0
  0
LINE
  5
AC
330
1F
100
AcDbEntity
  8
0
  6
Continuous
 62
     1
370
    15
100
AcDbLine
 10
39.99999999999986
 20
-2.846822607695696
 30
0.0
 11
40.0
 21
-2.36691679310464
 31
0.0
  0
SPLINE
  5
AD
330
1F
100
AcDbEntity
  8
0
  6
Continuous
 62
     1
370
    15
100
AcDbSpline
210
0.0
220
0.0
230
1.0
 70
     8
 71
     3
 72
    23
 73
    19
 74
     0
 42
0.000000001
 43
0.00000001
 40
0.0
 40
0.0
 40
0.0
 40
0.0
 40
0.0678285592346285
 40
0.1362212525855801
 40
0.1984693997170583
 40
0.2611499989576134
 40
0.3232866152687539
 40
0.3858531810779798
 40
0.4478849137388632
 40
0.5103472014112964
 40
0.572378660480569
 40
0.6348395559525477
 40
0.6968710052609519
 40
0.7593299230836917
 40
0.821361575548238
 40
0.8838217368596222
 40
0.9458464784557676
 40
1.0
 40
1.0
 40
1.0
 40
1.0
 10
10.0
 20
2.676742553181643
 30
0.0
 10
10.3140929599881
 20
2.586440850072376
 30
0.0
 10
10.94489120958512
 20
2.405086399278213
 30
0.0
 10
11.86329916027656
 20
2.039755328129696
 30
0.0
 10
12.75867257892496
 20
1.630179276363837
 30
0.0
 10
13.62490238962339
 20
1.186951367648243
 30
0.0
 10
14.49177852316404
 20
0.7090278430235586
 30
0.0
 10
15.35704648940259
 20
0.2153315394426551
 30
0.0
 10
16.22280389477885
 20
-0.2868342305123172
 30
0.0
 10
17.08594800960797
 20
-0.7799077338816182
 30
0.0
 10
17.95228263267157
 20
-1.25054044889978
 30
0.0
 10
18.81527478814506
 20
-1.687807083926297
 30
0.0
 10
19.68075019325816
 20
-2.078461313967266
 30
0.0
 10
20.54488504525043
 20
-2.410195482307651
 30
0.0
 10
21.40968740266763
 20
-2.677881303848158
 30
0.0
 10
22.2736753590504
 20
-2.867835854789671
 30
0.0
 10
23.10075681392362
 20
-2.982223604180391
 30
0.0
 10
23.63842122080273
 20
-2.991060455201416
 30
0.0
 10
23.88903971220084
 20
-2.995179526955588
 30
0.0
  0
SPLINE
  5
AE
330
1F
100
AcDbEntity
  8
0
  6
Continuous
 62
     1
370
    15
100
AcDbSpline
210
0.0
220
0.0
230
1.0
 70
     8
 71
     3
 72
    12
 73
     8
 74
     0
 42
0.000000001
 43
0.00000001
 40
0.0
 40
0.0
 40
0.0
 40
0.0
 40
0.0541281261246763
 40
0.2855403123047854
 40
0.5189127896177582
 40
0.7583730944866837
 40
1.0
 40
1.0
 40
1.0
 40
1.0
 10
35.88381534166321
 20
2.012367642993921
 30
0.0
 10
35.95805477935728
 20
2.045648746013279
 30
0.0
 10
36.34968762797415
 20
2.221215447289908
 30
0.0
 10
37.06228343564089
 20
2.47569197336944
 30
0.0
 10
38.02816289222341
 20
2.754180468015579
 30
0.0
 10
39.00812894688987
 20
2.942136912536609
 30
0.0
 10
39.66838514986753
 20
2.978966646446816
 30
0.0
 10
39.99999999999986
 20
3.000000000000113
 30
0.0
  0
LINE
  5
AF
330
1F
100
AcDbEntity
  8
0
  6
Continuous
 62
   131
370
    15
100
AcDbLine
 10
10.0
 20
2.67674255318164
 30
0.0
 11
10.0
 21
2.94675804539883
 31
0.0
  0
SPLINE
  5
B0
330
1F
100
AcDbEntity
  8
0
  6
Continuous
 62
     1
370
    15
100
AcDbSpline
210
0.0
220
0.0
230
1.0
 70
     8
 71
     3
 72
    31
 73
    27
 74
     0
 42
0.000000001
 43
0.00000001
 40
0.0
 40
0.0
 40
0.0
 40
0.0
 40
0.006114252423499
 40
0.0485437427299913
 40
0.090682983829393
 40
0.1331133188605657
 40
0.1752478652801039
 40
0.2176752502393278
 40
0.2598094095362683
 40
0.3022346634922543
 40
0.3443689678774441
 40
0.3867934976397489
 40
0.4289278819099318
 40
0.4713539296910426
 40
0.513488384929383
 40
0.555915278481929
 40
0.5980494329294184
 40
0.6404742516310122
 40
0.682608601714765
 40
0.7250333650743054
 40
0.7671677798530641
 40
0.8095944543325556
 40
0.8561781035568353
 40
0.9031563625724921
 40
0.9513601111705499
 40
1.0
 40
1.0
 40
1.0
 40
1.0
 10
19.55387281186424
 20
2.011782877192088
 30
0.0
 10
19.59553967612032
 20
2.030657277513706
 30
0.0
 10
19.92635126169353
 20
2.180509454024132
 30
0.0
 10
20.54491925615646
 20
2.407075359936589
 30
0.0
 10
21.40968196498993
 20
2.678385455565595
 30
0.0
 10
22.27366262940105
 20
2.868963757290312
 30
0.0
 10
23.13925177417346
 20
2.98255620996134
 30
0.0
 10
24.00208690832499
 20
3.013114459200683
 30
0.0
 10
24.86827877024886
 20
2.960659815824296
 30
0.0
 10
25.73142265887854
 20
2.826568799772214
 30
0.0
 10
26.5964514876846
 20
2.613595790505141
 30
0.0
 10
27.46068368164432
 20
2.33023319578303
 30
0.0
 10
28.32551975675063
 20
1.980400419601938
 30
0.0
 10
29.18897644215959
 20
1.577235569478418
 30
0.0
 10
30.05497013363077
 20
1.130572933145345
 30
0.0
 10
30.91771880716793
 20
0.6516465357130189
 30
0.0
 10
31.78364708847729
 20
0.1556572486743823
 30
0.0
 10
32.64715803008633
 20
-0.3442483940049253
 30
0.0
 10
33.51195895945939
 20
-0.8368789709922732
 30
0.0
 10
34.37617925984684
 20
-1.303043185898968
 30
0.0
 10
35.24125642857615
 20
-1.736138908036159
 30
0.0
 10
36.13470971824432
 20
-2.133437267855628
 30
0.0
 10
37.06225008534531
 20
-2.478769995593149
 30
0.0
 10
38.02817207485606
 20
-2.753332968859611
 30
0.0
 10
39.00812660216837
 20
-2.942353315562494
 30
0.0
 10
39.66838436595064
 20
-2.979038997037918
 30
0.0
 10
39.99999999999982
 20
-2.999999999999882
 30
0.0
  0
LINE
  5
B1
330
1F
100
AcDbEntity
  8
0
  6
Continuous
 62
     1
370
    15
100
AcDbLine
 10
39.99999999999982
 20
-2.999999999999882
 30
0.0
 11
39.99999999999984
 21
-2.84682260769569
 31
0.0
  0
SPLINE
  5
B2
330
1F
100
AcDbEntity
  8
0
  6
Continuous
 62
     1
370
    15
100
AcDbSpline
210
0.0
220
0.0
230
1.0
 70
     8
 71
     3
 72
    16
 73
    12
 74
     0
 42
0.000000001
 43
0.00000001
 40
0.0
 40
0.0
 40
0.0
 40
0.0
 40
0.0264012881570177
 40
0.1552933544466177
 40
0.2841808649508896
 40
0.4130658172668244
 40
0.5419502114829979
 40
0.6708360482317082
 40
0.7997253267399939
 40
0.928620042883551
 40
1.0
 40
1.0
 40
1.0
 40
1.0
 10
32.54040126625853
 20
-0.2813798498206386
 30
0.0
 10
32.45254006886508
 20
-0.2468161087256768
 30
0.0
 10
31.93573725273818
 20
-0.0435109038834541
 30
0.0
 10
30.99001500381238
 20
0.3457234594815898
 30
0.0
 10
29.7032407927379
 20
0.8468161785655123
 30
0.0
 10
28.41649541354428
 20
1.29831931949063
 30
0.0
 10
27.1297559744846
 20
1.669628158840827
 30
0.0
 10
25.84300080995198
 20
1.940778845440547
 30
0.0
 10
24.55620731658431
 20
2.087494547448387
 30
0.0
 10
23.46078344975938
 20
2.122855264008436
 30
0.0
 10
22.79428445927066
 20
2.058724314729898
 30
0.0
 10
22.5567373516667
 20
2.035867383622107
 30
0.0
  0
SPLINE
  5
B3
330
1F
100
AcDbEntity
  8
0
  6
Continuous
 62
     1
370
    15
100
AcDbSpline
210
0.0
220
0.0
230
1.0
 70
    24
 71
     3
 72
    10
 73
     6
 74
     0
 42
0.000000001
 43
0.00000001
 40
0.0
 40
0.0
 40
0.0
 40
0.0
 40
0.5
 40
0.5
 40
1.0
 40
1.0
 40
1.0
 40
1.0
 10
40.0
 20
2.100000000000008
 30
0.0
 10
40.0
 20
2.227296770421949
 30
0.0
 10
40.0
 20
2.375227406601359
 30
0.0
 10
40.0
 20
2.685585482882576
 30
0.0
 10
40.0
 20
2.847220307404428
 30
0.0
 10
39.99999999999986
 20
3.000000000000113
 30
0.0
  0
LINE
  5
B4
330
1F
100
AcDbEntity
  8
0
  6
Continuous
 62
     1
370
    15
100
AcDbLine
 10
40.0
 20
2.100000000000008
 30
0.0
 11
38.89902851995045
 21
2.045183137258688
 31
0.0
  0
SPLINE
  5
B5
330
1F
100
AcDbEntity
  8
0
  6
Continuous
 62
     1
370
    15
100
AcDbSpline
210
0.0
220
0.0
230
1.0
 70
     8
 71
     3
 72
    12
 73
     8
 74
     0
 42
0.000000001
 43
0.00000001
 40
0.0
 40
0.0
 40
0.0
 40
0.0
 40
0.1071588981664019
 40
0.3144394288015874
 40
0.5216950056851459
 40
0.7608730831361363
 40
1.0
 40
1.0
 40
1.0
 40
1.0
 10
16.21146712376524
 20
-0.2790313142269364
 30
0.0
 10
15.98959748260184
 20
-0.1905783879133613
 30
0.0
 10
15.33855903008343
 20
0.0689715710893885
 30
0.0
 10
14.25840618398827
 20
0.5083117131668126
 30
0.0
 10
12.90497422659013
 20
1.020376911168099
 30
0.0
 10
11.48543508264516
 20
1.496680709217898
 30
0.0
 10
10.49510971839928
 20
1.721006915837643
 30
0.0
 10
9.999999999999995
 20
1.833158021927567
 30
0.0
  0
SPLINE
  5
B6
330
1F
100
AcDbEntity
  8
0
  6
Continuous
 62
   131
370
    15
100
AcDbSpline
210
0.0
220
0.0
230
1.0
 70
    24
 71
     3
 72
    10
 73
     6
 74
     0
 42
0.000000001
 43
0.00000001
 40
0.0
 40
0.0
 40
0.0
 40
0.0
 40
0.5
 40
0.5
 40
1.0
 40
1.0
 40
1.0
 40
1.0
 10
10.0
 20
2.67674255318164
 30
0.0
 10
10.0
 20
2.564343869692112
 30
0.0
 10
10.0
 20
2.427696086345251
 30
0.0
 10
10.0
 20
2.135159692615786
 30
0.0
 10
10.0
 20
1.980133299883579
 30
0.0
 10
10.0
 20
1.833158021927566
 30
0.0
  0
SPLINE
  5
B7
330
1F
100
AcDbEntity
  8
0
  6
Continuous
 62
     1
370
    15
100
AcDbSpline
210
0.0
220
0.0
230
1.0
 70
     8
 71
     3
 72
     8
 73
     4
 74
     0
 42
0.000000001
 43
0.00000001
 40
0.0
 40
0.0
 40
0.0
 40
0.0
 40
1.0
 40
1.0
 40
1.0
 40
1.0
 10
38.143235968209
 20
0.8396782644515249
 30
0.0
 10
38.00894915072985
 20
0.9988018849865332
 30
0.0
 10
37.89240403524032
 20
1.150883649473458
 30
0.0
 10
37.80039515848588
 20
1.292364378577724
 30
0.0
  0
LINE
  5
B8
330
1F
100
AcDbEntity
  8
0
  6
Continuous
 62
     1
370
    15
100
AcDbLine
 10
37.80039515848586
 20
1.292364378577721
 30
0.0
 11
40.0
 21
0.0000000000000086
 31
0.0
  0
LINE
  5
B9
330
1F
100
AcDbEntity
  8
0
  6
Continuous
 62
     1
370
    15
100
AcDbLine
 10
40.0
 20
0.0000000000000086
 30
0.0
 11
40.0
 21
-0.8017288380889256
 31
0.0
  0
SPLINE
  5
BA
330
1F
100
AcDbEntity
  8
0
  6
Continuous
 62
     1
370
    15
100
AcDbSpline
210
0.0
220
0.0
230
1.0
 70
     8
 71
     3
 72
    10
 73
     6
 74
     0
 42
0.000000001
 43
0.00000001
 40
0.0
 40
0.0
 40
0.0
 40
0.0
 40
0.5
 40
0.5
 40
1.0
 40
1.0
 40
1.0
 40
1.0
 10
40.0
 20
-0.8017288380889258
 30
0.0
 10
39.67858102588706
 20
-0.5490379441565696
 30
0.0
 10
39.36253412375818
 20
-0.2859827532114703
 30
0.0
 10
38.74145243235319
 20
0.2613732130050004
 30
0.0
 10
38.43352622596558
 20
0.5485583873858763
 30
0.0
 10
38.14323596820964
 20
0.8396782644508938
 30
0.0
  0
SPLINE
  5
BB
330
1F
100
AcDbEntity
  8
0
  6
Continuous
 62
     1
370
    15
100
AcDbSpline
210
0.0
220
0.0
230
1.0
 70
     8
 71
     3
 72
    23
 73
    19
 74
     0
 42
0.000000001
 43
0.00000001
 40
0.0
 40
0.0
 40
0.0
 40
0.0
 40
0.0043710831731552
 40
0.0730551557176941
 40
0.1417358295753831
 40
0.2104141391255518
 40
0.2790911210333403
 40
0.3477678132482832
 40
0.4164452540002482
 40
0.4851244807948057
 40
0.5538065294100802
 40
0.622492432897153
 40
0.691183220586053
 40
0.7598799170993655
 40
0.8285835413754625
 40
0.8972951057033097
 40
0.9660137585512993
 40
1.0
 40
1.0
 40
1.0
 40
1.0
 10
33.64560387822385
 20
-2.252113406242974
 30
0.0
 10
33.61830422722785
 20
-2.257731386253162
 30
0.0
 10
33.16203739917972
 20
-2.351626283285519
 30
0.0
 10
32.27683537503353
 20
-2.406730070494059
 30
0.0
 10
30.9900102241756
 20
-2.394971070821617
 30
0.0
 10
29.70323655931587
 20
-2.222303160092246
 30
0.0
 10
28.41649071132917
 20
-1.917959954371165
 30
0.0
 10
27.12975110505806
 20
-1.495507237149114
 30
0.0
 10
25.84299559022783
 20
-0.9820652669192262
 30
0.0
 10
24.55620218637517
 20
-0.4086088937845666
 30
0.0
 10
23.26934890390333
 20
0.1897851196841934
 30
0.0
 10
21.98241384652092
 20
0.7765745161331394
 30
0.0
 10
20.69537511152715
 20
1.316125353062946
 30
0.0
 10
19.40821121662889
 20
1.774806024378439
 30
0.0
 10
18.12089962153608
 20
2.12721207677424
 30
0.0
 10
16.83343393716834
 20
2.342100925863689
 30
0.0
 10
15.7627782726231
 20
2.425664482093358
 30
0.0
 10
15.12130575595897
 20
2.3804795143981
 30
0.0
 10
14.90903505568374
 20
2.365527284200515
 30
0.0
  0
SPLINE
  5
BC
330
1F
100
AcDbEntity
  8
0
  6
Continuous
 62
   131
370
    15
100
AcDbSpline
210
0.0
220
0.0
230
1.0
 70
    24
 71
     3
 72
    10
 73
     6
 74
     0
 42
0.000000001
 43
0.00000001
 40
0.0
 40
0.0
 40
0.0
 40
0.0
 40
0.5
 40
0.5
 40
1.0
 40
1.0
 40
1.0
 40
1.0
 10
10.0
 20
-1.170818888947771
 30
0.0
 10
10.0
 20
-1.545954368228692
 30
0.0
 10
10.0
 20
-1.879586320990335
 30
0.0
 10
10.0
 20
-2.354344148530559
 30
0.0
 10
10.0
 20
-2.493426480023542
 30
0.0
 10
10.0
 20
-2.529017816947221
 30
0.0
  0
SPLINE
  5
BD
330
1F
100
AcDbEntity
  8
0
  6
Continuous
 62
     1
370
    15
100
AcDbSpline
210
0.0
220
0.0
230
1.0
 70
     8
 71
     3
 72
    13
 73
     9
 74
     0
 42
0.000000001
 43
0.00000001
 40
0.0
 40
0.0
 40
0.0
 40
0.0
 40
0.1450095122810131
 40
0.2902796851188675
 40
0.4765675529962409
 40
0.6628406233592187
 40
0.8491016808034303
 40
1.0
 40
1.0
 40
1.0
 40
1.0
 10
38.143235968209
 20
0.8396782644515315
 30
0.0
 10
37.8093566455354
 20
0.9812009951628763
 30
0.0
 10
37.14099783838647
 20
1.264500849509262
 30
0.0
 10
36.04328498014407
 20
1.668135174269613
 30
0.0
 10
34.85073131361187
 20
2.029129036858047
 30
0.0
 10
33.56372811396696
 20
2.2892939819771
 30
0.0
 10
32.35825461004572
 20
2.417400789963152
 30
0.0
 10
31.58177461915064
 20
2.386429554111088
 30
0.0
 10
31.23425491887349
 20
2.37256813498023
 30
0.0
  0
SPLINE
  5
BE
330
1F
100
AcDbEntity
  8
0
  6
Continuous
 62
     1
370
    15
100
AcDbSpline
210
0.0
220
0.0
230
1.0
 70
     8
 71
     3
 72
    13
 73
     9
 74
     0
 42
0.000000001
 43
0.00000001
 40
0.0
 40
0.0
 40
0.0
 40
0.0
 40
0.0675965202225103
 40
0.2432898858564858
 40
0.4189676507327546
 40
0.5946248161061612
 40
0.7973335216460264
 40
1.0
 40
1.0
 40
1.0
 40
1.0
 10
17.32886836080625
 20
-2.238856344608177
 30
0.0
 10
17.1637368696222
 20
-2.269099543232955
 30
0.0
 10
16.56940418046555
 20
-2.377949293444021
 30
0.0
 10
15.54588432674301
 20
-2.419097054623617
 30
0.0
 10
14.25839271732754
 20
-2.356004146454678
 30
0.0
 10
12.90497985104647
 20
-2.127896985744278
 30
0.0
 10
11.48542295915526
 20
-1.742283117930697
 30
0.0
 10
10.49510659990835
 20
-1.361293736288142
 30
0.0
 10
10.0
 20
-1.170818888947769
 30
0.0
  0
SPLINE
  5
BF
330
1F
100
AcDbEntity
  8
0
  6
Continuous
 62
     1
370
    15
100
AcDbSpline
210
0.0
220
0.0
230
1.0
 70
    24
 71
     3
 72
    10
 73
     6
 74
     0
 42
0.000000001
 43
0.00000001
 40
0.0
 40
0.0
 40
0.0
 40
0.0
 40
0.5
 40
0.5
 40
1.0
 40
1.0
 40
1.0
 40
1.0
 10
40.0
 20
-2.366916793104639
 30
0.0
 10
40.0
 20
-2.185474167011406
 30
0.0
 10
40.00000000000001
 20
-1.956214451719396
 30
0.0
 10
40.0
 20
-1.423207677452031
 30
0.0
 10
40.00000000000001
 20
-1.119922329153921
 30
0.0
 10
40.00000000000001
 20
-0.8017288380890215
 30
0.0
  0
SPLINE
  5
C0
330
1F
100
AcDbEntity
  8
0
  6
Continuous
 62
   131
370
    15
100
AcDbSpline
210
0.0
220
0.0
230
1.0
 70
    24
 71
     3
 72
    14
 73
    10
 74
     0
 42
0.000000001
 43
0.00000001
 40
0.0
 40
0.0
 40
0.0
 40
0.0
 40
0.2500000000000001
 40
0.2500000000000001
 40
0.5000000000000001
 40
0.5000000000000001
 40
0.75
 40
0.75
 40
1.0
 40
1.0
 40
1.0
 40
1.0
 10
9.999999999999998
 20
1.833158021927567
 30
0.0
 10
9.999999999999998
 20
1.657096076910042
 30
0.0
 10
9.999999999999998
 20
1.450979804203276
 30
0.0
 10
9.999999999999998
 20
0.9903776413836334
 30
0.0
 10
9.999999999999998
 20
0.736021610439214
 30
0.0
 10
9.999999999999998
 20
0.202128305387654
 30
0.0
 10
9.999999999999998
 20
-0.077124488045426
 30
0.0
 10
9.999999999999998
 20
-0.632591360251706
 30
0.0
 10
9.999999999999998
 20
-0.9085423372534531
 30
0.0
 10
9.999999999999998
 20
-1.170818888947768
 30
0.0
  0
SPLINE
  5
C1
330
1F
100
AcDbEntity
  8
0
  6
Continuous
 62
     1
370
    15
100
AcDbSpline
210
0.0
220
0.0
230
1.0
 70
     8
 71
     3
 72
    10
 73
     6
 74
     0
 42
0.000000001
 43
0.00000001
 40
0.0
 40
0.0
 40
0.0
 40
0.0
 40
0.5
 40
0.5
 40
1.0
 40
1.0
 40
1.0
 40
1.0
 10
40.0
 20
2.100000000000008
 30
0.0
 10
39.62668070767046
 20
1.998682094032819
 30
0.0
 10
39.25615379955178
 20
1.882604047883011
 30
0.0
 10
38.52150500180386
 20
1.616591951667598
 30
0.0
 10
38.15722935061072
 20
1.467297855402131
 30
0.0
 10
37.80039515848424
 20
1.292364378579015
 30
0.0
  0
LINE
  5
C2
330
1F
100
AcDbEntity
  8
0
  6
Continuous
 62
     1
370
    15
100
AcDbLine
 10
40.0
 20
0.0000000000000086
 30
0.0
 11
40.0
 21
2.100000000000008
 31
0.0
  0
SPLINE
  5
C3
330
1F
100
AcDbEntity
  8
0
  6
Continuous
 62
   131
370
    15
100
AcDbSpline
210
0.0
220
0.0
230
1.0
 70
     8
 71
     3
 72
     8
 73
     4
 74
     0
 42
0.000000001
 43
0.00000001
 40
0.0
 40
0.0
 40
0.0
 40
0.0
 40
1.0
 40
1.0
 40
1.0
 40
1.0
 10
9.99999999999818
 20
-2.946758045411364
 30
0.0
 10
9.705545764058211
 20
-2.978771838711043
 30
0.0
 10
9.406646933662755
 20
-2.996532694120756
 30
0.0
 10
9.109808294908891
 20
-2.999537555799491
 30
0.0
  0
LINE
  5
C4
330
1F
100
AcDbEntity
  8
0
  6
Continuous
 62
   131
370
    15
100
AcDbLine
 10
9.109906389700608
 20
2.999539810464028
 30
0.0
 11
9.109906389700608
 21
3.000000000000005
 31
0.0
  0
SPLINE
  5
C5
330
1F
100
AcDbEntity
  8
0
  6
Continuous
 62
   131
370
    15
100
AcDbSpline
210
0.0
220
0.0
230
1.0
 70
     8
 71
     3
 72
     8
 73
     4
 74
     0
 42
0.000000001
 43
0.00000001
 40
0.0
 40
0.0
 40
0.0
 40
0.0
 40
1.0
 40
1.0
 40
1.0
 40
1.0
 10
9.99999999999818
 20
2.946758045411373
 30
0.0
 10
9.705545764058211
 20
2.978771838711052
 30
0.0
 10
9.406646933662755
 20
2.996532694120766
 30
0.0
 10
9.109808294908891
 20
2.9995375557995
 30
0.0
  0
SPLINE
  5
C6
330
1F
100
AcDbEntity
  8
0
  6
Continuous
 62
   131
370
    15
100
AcDbSpline
210
0.0
220
0.0
230
1.0
 70
     8
 71
     3
 72
     8
 73
     4
 74
     0
 42
0.000000001
 43
0.00000001
 40
0.0
 40
0.0
 40
0.0
 40
0.0
 40
1.0
 40
1.0
 40
1.0
 40
1.0
 10
9.109906389700608
 20
2.868308803299707
 30
0.0
 10
9.40671278542641
 20
2.81816432010545
 30
0.0
 10
9.705578199644556
 20
2.753805574729021
 30
0.0
 10
10.0
 20
2.676742553181641
 30
0.0
  0
LINE
  5
C7
330
1F
100
AcDbEntity
  8
0
  6
Continuous
 62
   131
370
    15
100
AcDbLine
 10
9.109906389700608
 20
-2.999999999999996
 30
0.0
 11
9.109906389700608
 21
2.86854063861664
 31
0.0
  0
LINE
  5
C8
330
1F
100
AcDbEntity
  8
0
  6
Continuous
 62
   131
370
    15
100
AcDbLine
 10
-59.45
 20
2.999999999999996
 30
0.0
 11
-59.45
 21
-3.0
 31
0.0
  0
LINE
  5
C9
330
1F
100
AcDbEntity
  8
0
  6
Continuous
 62
   131
370
    15
100
AcDbLine
 10
-60.0
 20
2.449999999999996
 30
0.0
 11
-60.0
 21
-2.449999999999996
 31
0.0
  0
SPLINE
  5
CA
330
1F
100
AcDbEntity
  8
0
  6
Continuous
 62
   131
370
    15
100
AcDbSpline
210
0.0
220
0.0
230
1.0
 70
    24
 71
     3
 72
    14
 73
    10
 74
     0
 42
0.000000001
 43
0.00000001
 40
0.0
 40
0.0
 40
0.0
 40
0.0
 40
0.2500000000000001
 40
0.2500000000000001
 40
0.5000000000000001
 40
0.5000000000000001
 40
0.75
 40
0.75
 40
1.0
 40
1.0
 40
1.0
 40
1.0
 10
9.999999999999998
 20
1.833158021927567
 30
0.0
 10
9.999999999999998
 20
1.657096076910042
 30
0.0
 10
9.999999999999998
 20
1.450979804203276
 30
0.0
 10
9.999999999999998
 20
0.9903776413836334
 30
0.0
 10
9.999999999999998
 20
0.736021610439214
 30
0.0
 10
9.999999999999998
 20
0.202128305387654
 30
0.0
 10
9.999999999999998
 20
-0.077124488045426
 30
0.0
 10
9.999999999999998
 20
-0.632591360251706
 30
0.0
 10
9.999999999999998
 20
-0.9085423372534531
 30
0.0
 10
9.999999999999998
 20
-1.170818888947768
 30
0.0
  0
SPLINE
  5
CB
330
1F
100
AcDbEntity
  8
0
  6
Continuous
 62
   131
370
    15
100
AcDbSpline
210
0.0
220
0.0
230
1.0
 70
     8
 71
     3
 72
     8
 73
     4
 74
     0
 42
0.000000001
 43
0.00000001
 40
0.0
 40
0.0
 40
0.0
 40
0.0
 40
1.0
 40
1.0
 40
1.0
 40
1.0
 10
10.0
 20
-1.17081888894777
 30
0.0
 10
9.705566357023256
 20
-1.051631176768119
 30
0.0
 10
9.406688742170067
 20
-0.9261220962018492
 30
0.0
 10
9.109870574097735
 20
-0.7969868900755717
 30
0.0
  0
SPLINE
  5
CC
330
1F
100
AcDbEntity
  8
0
  6
Continuous
 62
   131
370
    15
100
AcDbSpline
210
0.0
220
0.0
230
1.0
 70
     8
 71
     3
 72
     8
 73
     4
 74
     0
 42
0.000000001
 43
0.00000001
 40
0.0
 40
0.0
 40
0.0
 40
0.0
 40
1.0
 40
1.0
 40
1.0
 40
1.0
 10
9.999999999999995
 20
1.833158021927566
 30
0.0
 10
9.705570386490544
 20
1.891439621496592
 30
0.0
 10
9.4066969229209
 20
1.94104777731159
 30
0.0
 10
9.109882760400925
 20
1.980827513533996
 30
0.0
  0
SPLINE
  5
CD
330
1F
100
AcDbEntity
  8
0
  6
Continuous
 62
   131
370
    15
100
AcDbSpline
210
0.0
220
0.0
230
1.0
 70
     8
 71
     3
 72
     8
 73
     4
 74
     0
 42
0.000000001
 43
0.00000001
 40
0.0
 40
0.0
 40
0.0
 40
0.0
 40
1.0
 40
1.0
 40
1.0
 40
1.0
 10
9.999999999997923
 20
-2.529017816947353
 30
0.0
 10
9.705545764058037
 20
-2.547590951747058
 30
0.0
 10
9.406646933662667
 20
-2.553887195834531
 30
0.0
 10
9.109808294908891
 20
-2.547670223162711
 30
0.0
  0
SPLINE
  5
CE
330
1F
100
AcDbEntity
  8
0
  6
Continuous
 62
   131
370
    15
100
AcDbSpline
210
0.0
220
0.0
230
1.0
 70
    24
 71
     3
 72
    10
 73
     6
 74
     0
 42
0.000000001
 43
0.00000001
 40
0.0
 40
0.0
 40
0.0
 40
0.0
 40
0.5
 40
0.5
 40
1.0
 40
1.0
 40
1.0
 40
1.0
 10
10.0
 20
-1.170818888947769
 30
0.0
 10
10.0
 20
-1.545954368228691
 30
0.0
 10
10.0
 20
-1.879586320990335
 30
0.0
 10
10.0
 20
-2.354344148530558
 30
0.0
 10
10.0
 20
-2.493426480023542
 30
0.0
 10
10.0
 20
-2.529017816947221
 30
0.0
  0
SPLINE
  5
CF
330
1F
100
AcDbEntity
  8
0
  6
Continuous
 62
   131
370
    15
100
AcDbSpline
210
0.0
220
0.0
230
1.0
 70
    24
 71
     3
 72
    10
 73
     6
 74
     0
 42
0.000000001
 43
0.00000001
 40
0.0
 40
0.0
 40
0.0
 40
0.0
 40
0.5
 40
0.5
 40
1.0
 40
1.0
 40
1.0
 40
1.0
 10
10.0
 20
2.67674255318164
 30
0.0
 10
10.0
 20
2.564343869692113
 30
0.0
 10
10.0
 20
2.42769608634525
 30
0.0
 10
10.0
 20
2.135159692615784
 30
0.0
 10
10.0
 20
1.98013329988358
 30
0.0
 10
10.0
 20
1.833158021927566
 30
0.0
  0
SPLINE
  5
D0
330
1F
100
AcDbEntity
  8
0
  6
Continuous
 62
   131
370
    15
100
AcDbSpline
210
0.0
220
0.0
230
1.0
 70
    24
 71
     3
 72
     8
 73
     4
 74
     0
 42
0.000000001
 43
0.00000001
 40
0.0
 40
0.0
 40
0.0
 40
0.0
 40
1.0
 40
1.0
 40
1.0
 40
1.0
 10
10.00000000000001
 20
-2.529017816947221
 30
0.0
 10
10.00000000000001
 20
-2.673796096582023
 30
0.0
 10
10.00000000000001
 20
-2.813962327698338
 30
0.0
 10
10.00000000000001
 20
-2.946758045406373
 30
0.0
  0
LINE
  5
D1
330
1F
100
AcDbEntity
  8
중심선
100
AcDbLine
 10
-63.0
 20
0.0
 30
0.0
 11
43.0
 21
0.0000000000000089
 31
0.0
  0
CIRCLE
  5
D2
330
1F
100
AcDbEntity
  8
외형선
100
AcDbCircle
 10
0.0000000000000104
 20
0.0
 30
0.0
 40
3.000000000000005
  0
INSERT
  5
D3
330
1F
100
AcDbEntity
  8
0
  6
Continuous
 62
     7
100
AcDbBlockReference
 66
     1
  2
블럭10
 10
-22.93944368806589
 20
-52.04609937292004
 30
0.0
  0
ATTRIB
  5
D4
330
D3
100
AcDbEntity
  8
FORMAT
 62
     2
100
AcDbText
 10
-43.79769121965843
 20
-49.97073246008785
 30
0.0
 40
4.233333333333333
  1
SEME7006030100E [ 2 FLUTE ]
 41
0.75
  7
SLDTEXTSTYLE0
 11
-43.79769121965843
 21
-52.08739912675452
 31
0.0
100
AcDbAttribute
  2
AUTOATTR0
 70
     0
 74
     1
  0
SEQEND
  5
D5
330
D3
100
AcDbEntity
  8
0
  6
Continuous
 62
     7
  0
HATCH
  5
D6
330
1F
100
AcDbEntity
  8
중심선
100
AcDbHatch
 10
0.0
 20
0.0
 30
0.0
210
0.0
220
0.0
230
1.0
  2
SOLID
 70
     1
 71
     0
 91
        1
 92
        0
 93
        4
 72
     1
 10
-17.22453438368504
 20
-35.7989250712761
 11
-20.67080962752232
 21
-35.7989250712761
 72
     1
 10
-20.67080962752232
 20
-35.7989250712761
 11
-22.79903948672635
 21
-38.3352506518487
 72
     1
 10
-22.79903948672635
 20
-38.3352506518487
 11
-19.35273115777591
 21
-38.33521122254621
 72
     1
 10
-19.35273115777591
 20
-38.33521122254621
 11
-17.22453438368504
 21
-35.7989250712761
 97
        0
 75
     0
 76
     1
 98
        1
 10
0.0
 20
0.0
  0
HATCH
  5
D7
330
1F
100
AcDbEntity
  8
중심선
100
AcDbHatch
 10
0.0
 20
0.0
 30
0.0
210
0.0
220
0.0
230
1.0
  2
SOLID
 70
     1
 71
     0
 91
        1
 92
        0
 93
        4
 72
     1
 10
-12.21177039264909
 20
-35.7989250712761
 11
-15.65804563648637
 21
-35.7989250712761
 72
     1
 10
-15.65804563648637
 20
-35.7989250712761
 11
-20.18918364484376
 21
-41.19892507127612
 72
     1
 10
-20.18918364484376
 20
-41.19892507127612
 11
-16.74290840100648
 21
-41.19892507127612
 72
     1
 10
-16.74290840100648
 20
-41.19892507127612
 11
-12.21177039264909
 21
-35.7989250712761
 97
        0
 75
     0
 76
     1
 98
        1
 10
0.0
 20
0.0
  0
HATCH
  5
D8
330
1F
100
AcDbEntity
  8
중심선
100
AcDbHatch
 10
0.0
 20
0.0
 30
0.0
210
0.0
220
0.0
230
1.0
  2
SOLID
 70
     1
 71
     0
 91
        1
 92
        0
 93
        4
 72
     1
 10
-7.199006401613195
 20
-35.79892507127613
 11
-10.64528164545031
 21
-35.7989250712761
 72
     1
 10
-10.64528164545031
 20
-35.7989250712761
 11
-17.69371854733956
 21
-44.19892507127612
 72
     1
 10
-17.69371854733956
 20
-44.19892507127612
 11
-14.24744330350228
 21
-44.19892507127612
 72
     1
 10
-14.24744330350228
 20
-44.19892507127612
 11
-7.199006401613195
 21
-35.79892507127613
 97
        0
 75
     0
 76
     1
 98
        1
 10
0.0
 20
0.0
  0
HATCH
  5
D9
330
1F
100
AcDbEntity
  8
중심선
100
AcDbHatch
 10
0.0
 20
0.0
 30
0.0
210
0.0
220
0.0
230
1.0
  2
SOLID
 70
     1
 71
     0
 91
        1
 92
        0
 93
        6
 72
     3
 10
-2.399115970600996
 20
-39.99892507132738
 11
3.960054785062284
 21
1.540850780301639E-10
 40
0.3939339440162633
 50
17.09539180608433
 51
320.0019657685079
 73
     0
 72
     1
 10
-0.7161163149004002
 20
-38.58681907591441
 11
1.589185558800638
 21
-36.65249236586649
 72
     3
 10
-2.399115970653842
 20
-39.99892507127625
 11
6.600054785286829
 21
-1.249000902703301E-13
 40
0.6363583540795982
 50
39.99873849337408
 51
368.4976242363725
 73
     1
 72
     1
 10
4.026216521246767
 20
-39.03892507120613
 11
-3.71904866381792
 21
-39.0389250712061
 72
     1
 10
-3.71904866381792
 20
-39.0389250712061
 11
-3.719073708263854
 21
-40.95892507120602
 72
     1
 10
-3.719073708263854
 20
-40.95892507120602
 11
0.7223060612081831
 21
-40.95892507120599
 97
        0
 75
     0
 76
     1
 98
        1
 10
0.0
 20
0.0
  0
DIMENSION
  5
DA
330
1F
100
AcDbEntity
  8
치수문자_일반주서
100
AcDbDimension
  2
_D
 10
52.09773007890545
 20
3.000000000000158
 30
0.0
 11
52.09773007890541
 21
12.66650000000016
 31
0.0
 70
   160
  1
%%c<>
 71
     2
 42
5.999999999999995
 52
-270.0
  3
SLDDIMSTYLE0
100
AcDbAlignedDimension
 13
39.99999999999982
 23
-2.999999999999882
 33
0.0
 14
39.99999999999986
 24
3.000000000000113
 34
0.0
 50
90.0000000000002
100
AcDbRotatedDimension
  0
DIMENSION
  5
E8
330
1F
100
AcDbEntity
  8
치수문자_일반주서
100
AcDbDimension
  2
_D_1
 10
39.99999999999986
 20
24.23841044024269
 30
0.0
 11
-10.00000000000007
 21
24.23841044024269
 31
0.0
 70
   160
  1
<>
 71
     2
 42
99.99999999999986
  3
SLDDIMSTYLE1
100
AcDbAlignedDimension
 13
-60.0
 23
2.449999999999996
 33
0.0
 14
39.99999999999986
 24
3.000000000000113
 34
0.0
 50
-0.0000000000000041
100
AcDbRotatedDimension
  0
DIMENSION
  5
F3
330
1F
100
AcDbEntity
  8
치수문자_일반주서
100
AcDbDimension
  2
_D_2
 10
39.99999999999986
 20
16.29375585157864
 30
0.0
 11
25.00000000000006
 21
16.29375585157864
 31
0.0
 70
   160
  1
<>
 71
     2
 42
29.99999999999986
  3
SLDDIMSTYLE1
100
AcDbAlignedDimension
 13
10.0
 23
2.946758045411174
 33
0.0
 14
39.99999999999986
 24
3.000000000000113
 34
0.0
 50
-0.0000000000002171
100
AcDbRotatedDimension
  0
DIMENSION
  5
FD
330
1F
100
AcDbEntity
  8
치수문자_일반주서
100
AcDbDimension
  2
_D_3
 10
-70.51531054779116
 20
-3.000000000000037
 30
0.0
 11
-70.5153105477912
 21
12.66649999999995
 31
0.0
 70
   160
  1
%%c<>
 71
     2
 42
5.999999999999991
 52
-270.0
  3
SLDDIMSTYLE0
100
AcDbAlignedDimension
 13
-59.45
 23
2.999999999999996
 33
0.0
 14
-59.45
 24
-2.999999999999995
 34
0.0
 50
90.0000000000002
100
AcDbRotatedDimension
  0
INSERT
  5
110
330
1F
100
AcDbEntity
  8
외형선
100
AcDbBlockReference
  2
SW_DOWELSYMBOL_0
 10
0.0000000000000104
 20
0.0
 30
0.0
  0
ENDSEC
  0
SECTION
  2
OBJECTS
  0
DICTIONARY
  5
C
330
0
100
AcDbDictionary
281
     1
  3
ACAD_GROUP
350
D
  3
ACAD_IMAGE_VARS
350
134
  3
ACAD_LAYOUT
350
1A
  3
ACAD_MLINESTYLE
350
17
  3
ACAD_PLOTSETTINGS
350
19
  3
ACAD_PLOTSTYLENAME
350
E
  3
ACAD_SCALELIST
350
47
  3
APPDATA
350
132
  3
DWGPROPS
350
143
  0
DICTIONARY
  5
D
102
{ACAD_REACTORS
330
C
102
}
330
C
100
AcDbDictionary
281
     1
  0
RASTERVARIABLES
  5
134
102
{ACAD_REACTORS
330
C
102
}
330
C
100
AcDbRasterVariables
 90
        0
 70
     1
 71
     1
 72
     1
  0
DICTIONARY
  5
1A
102
{ACAD_REACTORS
330
C
102
}
330
C
100
AcDbDictionary
281
     1
  3
Layout1
350
1E
  3
Layout2
350
26
  3
Model
350
22
  0
DICTIONARY
  5
17
102
{ACAD_REACTORS
330
C
102
}
330
C
100
AcDbDictionary
281
     1
  3
Standard
350
18
  0
DICTIONARY
  5
19
102
{ACAD_REACTORS
330
C
102
}
330
C
100
AcDbDictionary
281
     1
  0
ACDBDICTIONARYWDFLT
  5
E
102
{ACAD_REACTORS
330
C
102
}
330
C
100
AcDbDictionary
281
     1
  3
Normal
350
F
100
AcDbDictionaryWithDefault
340
F
  0
DICTIONARY
  5
47
102
{ACAD_REACTORS
330
C
102
}
330
C
100
AcDbDictionary
281
     1
  3
A0
350
48
  3
A1
350
49
  3
A2
350
4A
  3
A3
350
4B
  3
A4
350
4C
  3
A5
350
4D
  3
A6
350
4E
  3
A7
350
4F
  3
A8
350
50
  3
A9
350
51
  3
B0
350
52
  3
B1
350
53
  3
B2
350
54
  3
B3
350
55
  3
B4
350
56
  3
B5
350
57
  3
B6
350
58
  3
B7
350
59
  3
B8
350
5A
  3
B9
350
5B
  3
C0
350
5C
  3
C1
350
5D
  3
C2
350
5E
  3
C3
350
5F
  3
C4
350
60
  3
C5
350
61
  3
C6
350
62
  3
C7
350
63
  3
C8
350
64
  3
C9
350
65
  3
D0
350
66
  3
D1
350
67
  3
D2
350
68
  0
DICTIONARY
  5
132
102
{ACAD_REACTORS
330
C
102
}
330
C
100
AcDbDictionary
281
     1
  0
XRECORD
  5
143
102
{ACAD_REACTORS
330
C
102
}
330
C
100
AcDbXrecord
280
     1
  1
DWGPROPS COOKIE
  2

  3

  4

  6

  7

  8
12014102
  9

300
=
301
=
302
=
303
=
304
=
305
=
306
=
307
=
308
=
309
=
 40
0.0
 41
2458262.166729734
 42
2458266.28688735
  1

 90
        0
  0
LAYOUT
  5
1E
102
{ACAD_REACTORS
330
1A
102
}
330
1A
100
AcDbPlotSettings
  1

  2
none_device
  4

  6

 40
0.0
 41
0.0
 42
0.0
 43
0.0
 44
0.0
 45
0.0
 46
0.0
 47
0.0
 48
0.0
 49
0.0
140
0.0
141
0.0
142
1.0
143
1.0
 70
   688
 72
     1
 73
     0
 74
     5
  7

 75
    16
147
1.0
148
0.0
149
0.0
100
AcDbLayout
  1
Layout1
 70
     1
 71
     1
 10
0.0
 20
0.0
 11
420.0
 21
297.0
 12
0.0
 22
0.0
 32
0.0
 14
1.000000000000000E+20
 24
1.000000000000000E+20
 34
1.000000000000000E+20
 15
-1.000000000000000E+20
 25
-1.000000000000000E+20
 35
-1.000000000000000E+20
146
0.0
 13
0.0
 23
0.0
 33
0.0
 16
1.0
 26
0.0
 36
0.0
 17
0.0
 27
1.0
 37
0.0
 76
     0
330
1B
  0
LAYOUT
  5
26
102
{ACAD_REACTORS
330
1A
102
}
330
1A
100
AcDbPlotSettings
  1

  2
none_device
  4

  6

 40
0.0
 41
0.0
 42
0.0
 43
0.0
 44
0.0
 45
0.0
 46
0.0
 47
0.0
 48
0.0
 49
0.0
140
0.0
141
0.0
142
1.0
143
1.0
 70
   688
 72
     1
 73
     0
 74
     5
  7

 75
    16
147
1.0
148
0.0
149
0.0
100
AcDbLayout
  1
Layout2
 70
     1
 71
     2
 10
0.0
 20
0.0
 11
0.0
 21
0.0
 12
0.0
 22
0.0
 32
0.0
 14
0.0
 24
0.0
 34
0.0
 15
0.0
 25
0.0
 35
0.0
146
0.0
 13
0.0
 23
0.0
 33
0.0
 16
1.0
 26
0.0
 36
0.0
 17
0.0
 27
1.0
 37
0.0
 76
     0
330
23
  0
LAYOUT
  5
22
102
{ACAD_REACTORS
330
1A
102
}
330
1A
100
AcDbPlotSettings
  1

  2
none_device
  4
ANSI_A_(11.00_x_8.50_Inches)
  6

 40
6.35
 41
19.05
 42
6.35000508
 43
19.05000254
 44
279.4
 45
215.9
 46
164.8231452476319
 47
114.9713328728435
 48
0.0
 49
0.0
140
0.0
141
0.0
142
0.0934670342767533
143
1.0
 70
  1696
 72
     0
 73
     0
 74
     0
  7

 75
     0
147
0.0235690232323232
148
0.0
149
0.0
100
AcDbLayout
  1
Model
 70
     1
 71
     0
 10
0.0
 20
0.0
 11
420.0
 21
297.0
 12
0.0
 22
0.0
 32
0.0
 14
-74.89031054779122
 24
-49.97073246008785
 34
0.0
 15
52.64806341223883
 25
28.61341044024269
 35
0.0
146
0.0
 13
0.0
 23
0.0
 33
0.0
 16
1.0
 26
0.0
 36
0.0
 17
0.0
 27
1.0
 37
0.0
 76
     0
330
1F
331
29
  0
MLINESTYLE
  5
18
102
{ACAD_REACTORS
330
17
102
}
330
17
100
AcDbMlineStyle
  2
Standard
 70
     0
  3

 62
   256
 51
90.0
 52
90.0
 71
     2
 49
0.5
 62
   256
  6
BYLAYER
 49
-0.5
 62
   256
  6
BYLAYER
  0
ACDBPLACEHOLDER
  5
F
102
{ACAD_REACTORS
330
E
102
}
330
E
  0
SCALE
  5
48
102
{ACAD_REACTORS
330
47
102
}
330
47
100
AcDbScale
 70
     0
300
1:1
140
1.0
141
1.0
290
     1
  0
SCALE
  5
49
102
{ACAD_REACTORS
330
47
102
}
330
47
100
AcDbScale
 70
     0
300
1:2
140
1.0
141
2.0
290
     0
  0
SCALE
  5
4A
102
{ACAD_REACTORS
330
47
102
}
330
47
100
AcDbScale
 70
     0
300
1:4
140
1.0
141
4.0
290
     0
  0
SCALE
  5
4B
102
{ACAD_REACTORS
330
47
102
}
330
47
100
AcDbScale
 70
     0
300
1:5
140
1.0
141
5.0
290
     0
  0
SCALE
  5
4C
102
{ACAD_REACTORS
330
47
102
}
330
47
100
AcDbScale
 70
     0
300
1:8
140
1.0
141
8.0
290
     0
  0
SCALE
  5
4D
102
{ACAD_REACTORS
330
47
102
}
330
47
100
AcDbScale
 70
     0
300
1:10
140
1.0
141
10.0
290
     0
  0
SCALE
  5
4E
102
{ACAD_REACTORS
330
47
102
}
330
47
100
AcDbScale
 70
     0
300
1:16
140
1.0
141
16.0
290
     0
  0
SCALE
  5
4F
102
{ACAD_REACTORS
330
47
102
}
330
47
100
AcDbScale
 70
     0
300
1:20
140
1.0
141
20.0
290
     0
  0
SCALE
  5
50
102
{ACAD_REACTORS
330
47
102
}
330
47
100
AcDbScale
 70
     0
300
1:30
140
1.0
141
30.0
290
     0
  0
SCALE
  5
51
102
{ACAD_REACTORS
330
47
102
}
330
47
100
AcDbScale
 70
     0
300
1:40
140
1.0
141
40.0
290
     0
  0
SCALE
  5
52
102
{ACAD_REACTORS
330
47
102
}
330
47
100
AcDbScale
 70
     0
300
1:50
140
1.0
141
50.0
290
     0
  0
SCALE
  5
53
102
{ACAD_REACTORS
330
47
102
}
330
47
100
AcDbScale
 70
     0
300
1:100
140
1.0
141
100.0
290
     0
  0
SCALE
  5
54
102
{ACAD_REACTORS
330
47
102
}
330
47
100
AcDbScale
 70
     0
300
2:1
140
2.0
141
1.0
290
     0
  0
SCALE
  5
55
102
{ACAD_REACTORS
330
47
102
}
330
47
100
AcDbScale
 70
     0
300
4:1
140
4.0
141
1.0
290
     0
  0
SCALE
  5
56
102
{ACAD_REACTORS
330
47
102
}
330
47
100
AcDbScale
 70
     0
300
8:1
140
8.0
141
1.0
290
     0
  0
SCALE
  5
57
102
{ACAD_REACTORS
330
47
102
}
330
47
100
AcDbScale
 70
     0
300
10:1
140
10.0
141
1.0
290
     0
  0
SCALE
  5
58
102
{ACAD_REACTORS
330
47
102
}
330
47
100
AcDbScale
 70
     0
300
100:1
140
100.0
141
1.0
290
     0
  0
SCALE
  5
59
102
{ACAD_REACTORS
330
47
102
}
330
47
100
AcDbScale
 70
     0
300
1/128" = 1'-0"
140
0.0078125
141
12.0
290
     0
  0
SCALE
  5
5A
102
{ACAD_REACTORS
330
47
102
}
330
47
100
AcDbScale
 70
     0
300
1/64" = 1'-0"
140
0.015625
141
12.0
290
     0
  0
SCALE
  5
5B
102
{ACAD_REACTORS
330
47
102
}
330
47
100
AcDbScale
 70
     0
300
1/32" = 1'-0"
140
0.03125
141
12.0
290
     0
  0
SCALE
  5
5C
102
{ACAD_REACTORS
330
47
102
}
330
47
100
AcDbScale
 70
     0
300
1/16" = 1'-0"
140
0.0625
141
12.0
290
     0
  0
SCALE
  5
5D
102
{ACAD_REACTORS
330
47
102
}
330
47
100
AcDbScale
 70
     0
300
3/32" = 1'-0"
140
0.09375
141
12.0
290
     0
  0
SCALE
  5
5E
102
{ACAD_REACTORS
330
47
102
}
330
47
100
AcDbScale
 70
     0
300
1/8" = 1'-0"
140
0.125
141
12.0
290
     0
  0
SCALE
  5
5F
102
{ACAD_REACTORS
330
47
102
}
330
47
100
AcDbScale
 70
     0
300
3/16" = 1'-0"
140
0.1875
141
12.0
290
     0
  0
SCALE
  5
60
102
{ACAD_REACTORS
330
47
102
}
330
47
100
AcDbScale
 70
     0
300
1/4" = 1'-0"
140
0.25
141
12.0
290
     0
  0
SCALE
  5
61
102
{ACAD_REACTORS
330
47
102
}
330
47
100
AcDbScale
 70
     0
300
3/8" = 1'-0"
140
0.375
141
12.0
290
     0
  0
SCALE
  5
62
102
{ACAD_REACTORS
330
47
102
}
330
47
100
AcDbScale
 70
     0
300
1/2" = 1'-0"
140
0.5
141
12.0
290
     0
  0
SCALE
  5
63
102
{ACAD_REACTORS
330
47
102
}
330
47
100
AcDbScale
 70
     0
300
3/4" = 1'-0"
140
0.75
141
12.0
290
     0
  0
SCALE
  5
64
102
{ACAD_REACTORS
330
47
102
}
330
47
100
AcDbScale
 70
     0
300
1" = 1'-0"
140
1.0
141
12.0
290
     0
  0
SCALE
  5
65
102
{ACAD_REACTORS
330
47
102
}
330
47
100
AcDbScale
 70
     0
300
1-1/2" = 1'-0"
140
1.5
141
12.0
290
     0
  0
SCALE
  5
66
102
{ACAD_REACTORS
330
47
102
}
330
47
100
AcDbScale
 70
     0
300
3" = 1'-0"
140
3.0
141
12.0
290
     0
  0
SCALE
  5
67
102
{ACAD_REACTORS
330
47
102
}
330
47
100
AcDbScale
 70
     0
300
6" = 1'-0"
140
6.0
141
12.0
290
     0
  0
SCALE
  5
68
102
{ACAD_REACTORS
330
47
102
}
330
47
100
AcDbScale
 70
     0
300
1'-0" = 1'-0"
140
12.0
141
12.0
290
     0
  0
ENDSEC
  0
EOF
