  0
SECTION
  2
HEADER
  9
$ACADVER
  1
AC1015
  9
$ACADMAINTVER
 70
     6
  9
$DWGCODEPAGE
  3
ANSI_949
  9
$INSBASE
 10
0.0
 20
0.0
 30
0.0
  9
$EXTMIN
 10
-53.19707542984415
 20
-49.97073246008785
 30
0.0
  9
$EXTMAX
 10
45.57429710576836
 20
28.6134104402427
 30
0.0
  9
$LIMMIN
 10
0.0
 20
0.0
  9
$LIMMAX
 10
420.0
 20
297.0
  9
$ORTHOMODE
 70
     0
  9
$REGENMODE
 70
     1
  9
$FILLMODE
 70
     1
  9
$QTEXTMODE
 70
     0
  9
$MIRRTEXT
 70
     1
  9
$LTSCALE
 40
1.0
  9
$ATTMODE
 70
     1
  9
$TEXTSIZE
 40
3.5
  9
$TRACEWID
 40
1.0
  9
$TEXTSTYLE
  7
Standard
  9
$CLAYER
  8
0
  9
$CELTYPE
  6
ByLayer
  9
$CECOLOR
 62
   256
  9
$CELTSCALE
 40
1.0
  9
$DISPSILH
 70
     0
  9
$DIMSCALE
 40
1.0
  9
$DIMASZ
 40
3.302
  9
$DIMEXO
 40
1.0
  9
$DIMDLI
 40
3.75
  9
$DIMRND
 40
0.0
  9
$DIMDLE
 40
0.0
  9
$DIMEXE
 40
1.0
  9
$DIMTP
 40
0.0
  9
$DIMTM
 40
0.0
  9
$DIMTXT
 40
3.5
  9
$DIMCEN
 40
2.5
  9
$DIMTSZ
 40
0.0
  9
$DIMTOL
 70
     0
  9
$DIMLIM
 70
     0
  9
$DIMTIH
 70
     1
  9
$DIMTOH
 70
     1
  9
$DIMSE1
 70
     0
  9
$DIMSE2
 70
     0
  9
$DIMTAD
 70
     1
  9
$DIMZIN
 70
     0
  9
$DIMBLK
  1

  9
$DIMASO
 70
     1
  9
$DIMSHO
 70
     1
  9
$DIMPOST
  1

  9
$DIMAPOST
  1

  9
$DIMALT
 70
     0
  9
$DIMALTD
 70
     3
  9
$DIMALTF
 40
0.0393700787401575
  9
$DIMLFAC
 40
1.0
  9
$DIMTOFL
 70
     1
  9
$DIMTVP
 40
0.0
  9
$DIMTIX
 70
     0
  9
$DIMSOXD
 70
     0
  9
$DIMSAH
 70
     0
  9
$DIMBLK1
  1

  9
$DIMBLK2
  1

  9
$DIMSTYLE
  2
ISO-25
  9
$DIMCLRD
 70
     0
  9
$DIMCLRE
 70
     0
  9
$DIMCLRT
 70
     0
  9
$DIMTFAC
 40
1.0
  9
$DIMGAP
 40
1.524
  9
$DIMJUST
 70
     0
  9
$DIMSD1
 70
     0
  9
$DIMSD2
 70
     0
  9
$DIMTOLJ
 70
     0
  9
$DIMTZIN
 70
     0
  9
$DIMALTZ
 70
     0
  9
$DIMALTTZ
 70
     0
  9
$DIMUPT
 70
     0
  9
$DIMDEC
 70
     2
  9
$DIMTDEC
 70
     2
  9
$DIMALTU
 70
     2
  9
$DIMALTTD
 70
     3
  9
$DIMTXSTY
  7
Standard
  9
$DIMAUNIT
 70
     0
  9
$DIMADEC
 70
     2
  9
$DIMALTRND
 40
0.0
  9
$DIMAZIN
 70
     0
  9
$DIMDSEP
 70
    44
  9
$DIMATFIT
 70
     3
  9
$DIMFRAC
 70
     0
  9
$DIMLDRBLK
  1

  9
$DIMLUNIT
 70
     2
  9
$DIMLWD
 70
    -2
  9
$DIMLWE
 70
    -2
  9
$DIMTMOVE
 70
     0
  9
$LUNITS
 70
     2
  9
$LUPREC
 70
     2
  9
$SKETCHINC
 40
1.0
  9
$FILLETRAD
 40
10.0
  9
$AUNITS
 70
     0
  9
$AUPREC
 70
     2
  9
$MENU
  1
.
  9
$ELEVATION
 40
0.0
  9
$PELEVATION
 40
0.0
  9
$THICKNESS
 40
0.0
  9
$LIMCHECK
 70
     0
  9
$CHAMFERA
 40
0.0
  9
$CHAMFERB
 40
0.0
  9
$CHAMFERC
 40
0.0
  9
$CHAMFERD
 40
0.0
  9
$SKPOLY
 70
     0
  9
$TDCREATE
 40
2458262.541542187
  9
$TDUCREATE
 40
2458262.166542187
  9
$TDUPDATE
 40
2458266.402071215
  9
$TDUUPDATE
 40
2458266.027071215
  9
$TDINDWG
 40
0.0014777546
  9
$TDUSRTIMER
 40
2458266.025593507
  9
$USRTIMER
 70
     1
  9
$ANGBASE
 50
0.0
  9
$ANGDIR
 70
     0
  9
$PDMODE
 70
     0
  9
$PDSIZE
 40
-1.0
  9
$PLINEWID
 40
0.0
  9
$SPLFRAME
 70
     0
  9
$SPLINETYPE
 70
     6
  9
$SPLINESEGS
 70
     8
  9
$HANDSEED
  5
142
  9
$SURFTAB1
 70
     6
  9
$SURFTAB2
 70
     6
  9
$SURFTYPE
 70
     6
  9
$SURFU
 70
     6
  9
$SURFV
 70
     6
  9
$UCSBASE
  2

  9
$UCSNAME
  2

  9
$UCSORG
 10
0.0
 20
0.0
 30
0.0
  9
$UCSXDIR
 10
1.0
 20
0.0
 30
0.0
  9
$UCSYDIR
 10
0.0
 20
1.0
 30
0.0
  9
$UCSORTHOREF
  2

  9
$UCSORTHOVIEW
 70
     0
  9
$UCSORGTOP
 10
0.0
 20
0.0
 30
0.0
  9
$UCSORGBOTTOM
 10
0.0
 20
0.0
 30
0.0
  9
$UCSORGLEFT
 10
0.0
 20
0.0
 30
0.0
  9
$UCSORGRIGHT
 10
0.0
 20
0.0
 30
0.0
  9
$UCSORGFRONT
 10
0.0
 20
0.0
 30
0.0
  9
$UCSORGBACK
 10
0.0
 20
0.0
 30
0.0
  9
$PUCSBASE
  2

  9
$PUCSNAME
  2

  9
$PUCSORG
 10
0.0
 20
0.0
 30
0.0
  9
$PUCSXDIR
 10
1.0
 20
0.0
 30
0.0
  9
$PUCSYDIR
 10
0.0
 20
1.0
 30
0.0
  9
$PUCSORTHOREF
  2

  9
$PUCSORTHOVIEW
 70
     0
  9
$PUCSORGTOP
 10
0.0
 20
0.0
 30
0.0
  9
$PUCSORGBOTTOM
 10
0.0
 20
0.0
 30
0.0
  9
$PUCSORGLEFT
 10
0.0
 20
0.0
 30
0.0
  9
$PUCSORGRIGHT
 10
0.0
 20
0.0
 30
0.0
  9
$PUCSORGFRONT
 10
0.0
 20
0.0
 30
0.0
  9
$PUCSORGBACK
 10
0.0
 20
0.0
 30
0.0
  9
$USERI1
 70
     0
  9
$USERI2
 70
     0
  9
$USERI3
 70
     0
  9
$USERI4
 70
     0
  9
$USERI5
 70
     0
  9
$USERR1
 40
0.0
  9
$USERR2
 40
0.0
  9
$USERR3
 40
0.0
  9
$USERR4
 40
0.0
  9
$USERR5
 40
0.0
  9
$WORLDVIEW
 70
     1
  9
$SHADEDGE
 70
     3
  9
$SHADEDIF
 70
    70
  9
$TILEMODE
 70
     1
  9
$MAXACTVP
 70
    64
  9
$PINSBASE
 10
0.0
 20
0.0
 30
0.0
  9
$PLIMCHECK
 70
     0
  9
$PEXTMIN
 10
1.000000000000000E+20
 20
1.000000000000000E+20
 30
1.000000000000000E+20
  9
$PEXTMAX
 10
-1.000000000000000E+20
 20
-1.000000000000000E+20
 30
-1.000000000000000E+20
  9
$PLIMMIN
 10
0.0
 20
0.0
  9
$PLIMMAX
 10
0.0
 20
0.0
  9
$UNITMODE
 70
     0
  9
$VISRETAIN
 70
     1
  9
$PLINEGEN
 70
     0
  9
$PSLTSCALE
 70
     1
  9
$TREEDEPTH
 70
  3020
  9
$CMLSTYLE
  2
Standard
  9
$CMLJUST
 70
     0
  9
$CMLSCALE
 40
20.0
  9
$PROXYGRAPHICS
 70
     1
  9
$MEASUREMENT
 70
     1
  9
$CELWEIGHT
370
    -1
  9
$ENDCAPS
280
     0
  9
$JOINSTYLE
280
     0
  9
$LWDISPLAY
290
     1
  9
$INSUNITS
 70
     4
  9
$HYPERLINKBASE
  1

  9
$STYLESHEET
  1

  9
$XEDIT
290
     1
  9
$CEPSNTYPE
380
     0
  9
$PSTYLEMODE
290
     1
  9
$FINGERPRINTGUID
  2
{3F9DEB97-430D-4808-AB8E-518A53864E76}
  9
$VERSIONGUID
  2
{FAEB1C32-E019-11D5-929B-00C0DF256EC4}
  9
$EXTNAMES
290
     1
  9
$PSVPSCALE
 40
0.0
  9
$OLESTARTUP
290
     0
  0
ENDSEC
  0
SECTION
  2
CLASSES
  0
CLASS
  1
ACDBDICTIONARYWDFLT
  2
AcDbDictionaryWithDefault
  3
ObjectDBX Classes
 90
        0
280
     0
281
     0
  0
CLASS
  1
VISUALSTYLE
  2
AcDbVisualStyle
  3
ObjectDBX Classes
 90
     4095
280
     0
281
     0
  0
CLASS
  1
MATERIAL
  2
AcDbMaterial
  3
ObjectDBX Classes
 90
     1153
280
     0
281
     0
  0
CLASS
  1
SCALE
  2
AcDbScale
  3
ObjectDBX Classes
 90
     1153
280
     0
281
     0
  0
CLASS
  1
SUN
  2
AcDbSun
  3
SCENEOE
 90
     1153
280
     0
281
     0
  0
CLASS
  1
ACDBPLACEHOLDER
  2
AcDbPlaceHolder
  3
ObjectDBX Classes
 90
        0
280
     0
281
     0
  0
CLASS
  1
LAYOUT
  2
AcDbLayout
  3
ObjectDBX Classes
 90
        0
280
     0
281
     0
  0
CLASS
  1
TABLESTYLE
  2
AcDbTableStyle
  3
ObjectDBX Classes
 90
     4095
280
     0
281
     0
  0
CLASS
  1
MLEADERSTYLE
  2
AcDbMLeaderStyle
  3
ACDB_MLEADERSTYLE_CLASS
 90
     4095
280
     0
281
     0
  0
CLASS
  1
RASTERVARIABLES
  2
AcDbRasterVariables
  3
ISM
 90
        0
280
     0
281
     0
  0
ENDSEC
  0
SECTION
  2
TABLES
  0
TABLE
  2
VPORT
  5
8
330
0
100
AcDbSymbolTable
 70
     1
  0
VPORT
  5
29
330
8
100
AcDbSymbolTableRecord
100
AcDbViewportTableRecord
  2
*Active
 70
     0
 10
0.0
 20
0.0
 11
1.0
 21
1.0
 12
-3.811389162037891
 22
-10.67866100992258
 13
0.0
 23
0.0
 14
10.0
 24
10.0
 15
10.0
 25
10.0
 16
0.0
 26
0.0
 36
1.0
 17
0.0
 27
0.0
 37
0.0
 40
87.41930850831321
 41
1.152454780361757
 42
50.0
 43
0.0
 44
0.0
 50
0.0
 51
0.0
 71
    16
 72
  2000
 73
     1
 74
     3
 75
     0
 76
     0
 77
     0
 78
     0
281
     0
 65
     1
110
0.0
120
0.0
130
0.0
111
1.0
121
0.0
131
0.0
112
0.0
122
1.0
132
0.0
 79
     0
146
0.0
  0
ENDTAB
  0
TABLE
  2
LTYPE
  5
5
330
0
100
AcDbSymbolTable
 70
     6
  0
LTYPE
  5
14
330
5
100
AcDbSymbolTableRecord
100
AcDbLinetypeTableRecord
  2
ByBlock
 70
     0
  3

 72
    65
 73
     0
 40
0.0
  0
LTYPE
  5
15
330
5
100
AcDbSymbolTableRecord
100
AcDbLinetypeTableRecord
  2
ByLayer
 70
     0
  3

 72
    65
 73
     0
 40
0.0
  0
LTYPE
  5
16
330
5
100
AcDbSymbolTableRecord
100
AcDbLinetypeTableRecord
  2
Continuous
 70
     0
  3
Solid line
 72
    65
 73
     0
 40
0.0
  0
LTYPE
  5
6A
330
5
100
AcDbSymbolTableRecord
100
AcDbLinetypeTableRecord
  2
HIDDEN
 70
     0
  3
Hidden __ __ __ __ __ __ __ __ __ __ __ __ __ __
 72
    65
 73
     2
 40
1.905
 49
1.27
 74
     0
 49
-0.635
 74
     0
  0
LTYPE
  5
6B
330
5
100
AcDbSymbolTableRecord
100
AcDbLinetypeTableRecord
  2
PHANTOM
 70
     0
  3
Phantom ______  __  __  ______  __  __  ______
 72
    65
 73
     6
 40
12.7
 49
6.35
 74
     0
 49
-1.27
 74
     0
 49
1.27
 74
     0
 49
-1.27
 74
     0
 49
1.27
 74
     0
 49
-1.27
 74
     0
  0
LTYPE
  5
6C
330
5
100
AcDbSymbolTableRecord
100
AcDbLinetypeTableRecord
  2
CENTER
 70
     0
  3
Center ____ _ ____ _ ____ _ ____ _ ____ _ ____
 72
    65
 73
     4
 40
10.16
 49
6.35
 74
     0
 49
-1.27
 74
     0
 49
1.27
 74
     0
 49
-1.27
 74
     0
  0
LTYPE
  5
6D
330
5
100
AcDbSymbolTableRecord
100
AcDbLinetypeTableRecord
  2
CENTERX2
 70
     0
  3
Center (2x) ________  __  ________  __  _____
 72
    65
 73
     4
 40
20.32
 49
12.7
 74
     0
 49
-2.54
 74
     0
 49
2.54
 74
     0
 49
-2.54
 74
     0
  0
LTYPE
  5
6E
330
5
100
AcDbSymbolTableRecord
100
AcDbLinetypeTableRecord
  2
DOT2
 70
     0
  3
Dot (.5x) ........................................
 72
    65
 73
     2
 40
0.635
 49
0.0
 74
     0
 49
-0.635
 74
     0
  0
ENDTAB
  0
TABLE
  2
LAYER
  5
2
330
0
100
AcDbSymbolTable
 70
    17
  0
LAYER
  5
10
330
2
100
AcDbSymbolTableRecord
100
AcDbLayerTableRecord
  2
0
 70
     0
 62
     7
  6
Continuous
370
    -3
390
F
  0
LAYER
  5
6F
330
2
100
AcDbSymbolTableRecord
100
AcDbLayerTableRecord
  2
FORMAT
 70
     0
 62
     2
  6
Continuous
370
    -3
390
F
  0
LAYER
  5
70
330
2
100
AcDbSymbolTableRecord
100
AcDbLayerTableRecord
  2
외형선
 70
     0
 62
   100
  6
Continuous
370
    30
390
F
  0
LAYER
  5
71
330
2
100
AcDbSymbolTableRecord
100
AcDbLayerTableRecord
  2
숨은선
 70
     0
 62
     2
  6
HIDDEN
370
    15
390
F
  0
LAYER
  5
72
330
2
100
AcDbSymbolTableRecord
100
AcDbLayerTableRecord
  2
중심선
 70
     0
 62
     1
  6
CENTERX2
370
    -3
390
F
  0
LAYER
  5
73
330
2
100
AcDbSymbolTableRecord
100
AcDbLayerTableRecord
  2
파단선
 70
     0
 62
     4
  6
Continuous
370
    -3
390
F
  0
LAYER
  5
74
330
2
100
AcDbSymbolTableRecord
100
AcDbLayerTableRecord
  2
해칭선
 70
     0
 62
     4
  6
Continuous
370
    -3
390
F
  0
LAYER
  5
75
330
2
100
AcDbSymbolTableRecord
100
AcDbLayerTableRecord
  2
가는실선
 70
     0
 62
     4
  6
Continuous
370
    -3
390
F
  0
LAYER
  5
76
330
2
100
AcDbSymbolTableRecord
100
AcDbLayerTableRecord
  2
치수_보조선
 70
     0
 62
     4
  6
Continuous
370
    -3
390
F
  0
LAYER
  5
77
330
2
100
AcDbSymbolTableRecord
100
AcDbLayerTableRecord
  2
치수문자_일반주서
 70
     0
 62
     7
  6
Continuous
370
    15
390
F
  0
LAYER
  5
78
330
2
100
AcDbSymbolTableRecord
100
AcDbLayerTableRecord
  2
개별주서
 70
     0
 62
   100
  6
Continuous
370
    30
390
F
  0
LAYER
  5
79
330
2
100
AcDbSymbolTableRecord
100
AcDbLayerTableRecord
  2
중간선
 70
     0
 62
     2
  6
Continuous
370
    15
390
F
  0
LAYER
  5
7A
330
2
100
AcDbSymbolTableRecord
100
AcDbLayerTableRecord
  2
윤곽선
 70
     0
 62
     3
  6
Continuous
370
    40
390
F
  0
LAYER
  5
7B
330
2
100
AcDbSymbolTableRecord
100
AcDbLayerTableRecord
  2
중심마크
 70
     0
 62
   100
  6
Continuous
370
    30
390
F
  0
LAYER
  5
7C
330
2
100
AcDbSymbolTableRecord
100
AcDbLayerTableRecord
  2
가상선
 70
     0
 62
     4
  6
PHANTOM
370
    -3
390
F
  0
LAYER
  5
7D
330
2
100
AcDbSymbolTableRecord
100
AcDbLayerTableRecord
  2
특수지정선
 70
     0
 62
     5
  6
CENTERX2
370
    60
390
F
  0
LAYER
  5
132
330
2
100
AcDbSymbolTableRecord
100
AcDbLayerTableRecord
  2
Defpoints
 70
     0
 62
     7
  6
Continuous
290
     0
370
    -3
390
F
  0
ENDTAB
  0
TABLE
  2
STYLE
  5
3
330
0
100
AcDbSymbolTable
 70
     2
  0
STYLE
  5
11
330
3
100
AcDbSymbolTableRecord
100
AcDbTextStyleTableRecord
  2
Standard
 70
     0
 40
0.0
 41
1.0
 50
0.0
 71
     0
 42
3.5
  3
txt
  4

  0
STYLE
  5
93
330
3
100
AcDbSymbolTableRecord
100
AcDbTextStyleTableRecord
  2
SLDTEXTSTYLE0
 70
     0
 40
0.0
 41
0.75
 50
0.0
 71
     0
 42
3.5
  3
TXT
  4

  0
ENDTAB
  0
TABLE
  2
VIEW
  5
6
330
0
100
AcDbSymbolTable
 70
     0
  0
ENDTAB
  0
TABLE
  2
UCS
  5
7
330
0
100
AcDbSymbolTable
 70
     0
  0
ENDTAB
  0
TABLE
  2
APPID
  5
9
330
0
100
AcDbSymbolTable
 70
     1
  0
APPID
  5
12
330
9
100
AcDbSymbolTableRecord
100
AcDbRegAppTableRecord
  2
ACAD
 70
     0
  0
ENDTAB
  0
TABLE
  2
DIMSTYLE
  5
A
330
0
100
AcDbSymbolTable
 70
     3
100
AcDbDimStyleTable
  0
DIMSTYLE
105
27
330
A
100
AcDbSymbolTableRecord
100
AcDbDimStyleTableRecord
  2
ISO-25
 70
     0
 41
2.5
 42
0.625
 43
3.75
 44
1.25
 73
     0
 74
     0
 77
     1
 78
     8
140
2.5
141
2.5
143
0.03937007874016
147
0.625
171
     3
172
     1
178
     0
271
     2
272
     2
274
     3
278
    44
283
     0
284
     8
340
11
  0
DIMSTYLE
105
D8
102
{ACAD_REACTORS
330
D7
330
FA
102
}
330
A
100
AcDbSymbolTableRecord
100
AcDbDimStyleTableRecord
  2
SLDDIMSTYLE0
 70
     0
 41
3.302
 44
0.0
 45
0.000000001
 73
     0
 74
     0
 77
     1
 78
    12
 79
     3
140
3.5
147
0.875
172
     1
173
     1
178
     0
271
     2
272
     2
276
     2
284
    12
289
     0
340
93
  0
DIMSTYLE
105
E6
102
{ACAD_REACTORS
330
E5
330
F0
102
}
330
A
100
AcDbSymbolTableRecord
100
AcDbDimStyleTableRecord
  2
SLDDIMSTYLE1
 70
     0
 41
3.302
 44
0.0
 45
0.000000001
 73
     0
 74
     0
 77
     1
 78
    12
 79
     3
140
3.5
147
0.875
173
     1
178
     0
271
     2
272
     2
276
     2
284
    12
340
93
  0
ENDTAB
  0
TABLE
  2
BLOCK_RECORD
  5
1
330
0
100
AcDbSymbolTable
 70
     7
  0
BLOCK_RECORD
  5
1F
330
1
100
AcDbSymbolTableRecord
100
AcDbBlockTableRecord
  2
*Model_Space
340
22
  0
BLOCK_RECORD
  5
1B
330
1
100
AcDbSymbolTableRecord
100
AcDbBlockTableRecord
  2
*Paper_Space
340
1E
  0
BLOCK_RECORD
  5
23
330
1
100
AcDbSymbolTableRecord
100
AcDbBlockTableRecord
  2
*Paper_Space0
340
26
  0
BLOCK_RECORD
  5
7E
330
1
100
AcDbSymbolTableRecord
100
AcDbBlockTableRecord
  2
블럭10
340
0
102
{BLKREFS
331
D0
102
}
  0
BLOCK_RECORD
  5
D9
330
1
100
AcDbSymbolTableRecord
100
AcDbBlockTableRecord
  2
_D
340
0
  0
BLOCK_RECORD
  5
E7
330
1
100
AcDbSymbolTableRecord
100
AcDbBlockTableRecord
  2
_D_1
340
0
  0
BLOCK_RECORD
  5
F1
330
1
100
AcDbSymbolTableRecord
100
AcDbBlockTableRecord
  2
_D_2
340
0
  0
BLOCK_RECORD
  5
FB
330
1
100
AcDbSymbolTableRecord
100
AcDbBlockTableRecord
  2
_D_3
340
0
  0
BLOCK_RECORD
  5
107
330
1
100
AcDbSymbolTableRecord
100
AcDbBlockTableRecord
  2
SW_DOWELSYMBOL_0
340
0
102
{BLKREFS
331
10D
102
}
  0
ENDTAB
  0
ENDSEC
  0
SECTION
  2
BLOCKS
  0
BLOCK
  5
20
330
1F
100
AcDbEntity
  8
0
100
AcDbBlockBegin
  2
*Model_Space
 70
     0
 10
0.0
 20
0.0
 30
0.0
  3
*Model_Space
  1

  0
ENDBLK
  5
21
330
1F
100
AcDbEntity
  8
0
100
AcDbBlockEnd
  0
BLOCK
  5
1C
330
1B
100
AcDbEntity
 67
     1
  8
0
100
AcDbBlockBegin
  2
*Paper_Space
 70
     0
 10
0.0
 20
0.0
 30
0.0
  3
*Paper_Space
  1

  0
ENDBLK
  5
1D
330
1B
100
AcDbEntity
 67
     1
  8
0
100
AcDbBlockEnd
  0
BLOCK
  5
24
330
23
100
AcDbEntity
  8
0
100
AcDbBlockBegin
  2
*Paper_Space0
 70
     0
 10
0.0
 20
0.0
 30
0.0
  3
*Paper_Space0
  1

  0
ENDBLK
  5
25
330
23
100
AcDbEntity
  8
0
100
AcDbBlockEnd
  0
BLOCK
  5
7F
330
7E
100
AcDbEntity
  8
0
100
AcDbBlockBegin
  2
블럭10
 70
     2
 10
0.0
 20
0.0
 30
0.0
  3
블럭10
  1

  0
ELLIPSE
  5
81
330
7E
100
AcDbEntity
  8
중심선
100
AcDbEllipse
 10
20.54032771741204
 20
12.0471743016438
 30
0.0
 11
6.600054785286829
 21
-1.261213355974178E-13
 31
0.0
210
0.0
220
0.0
230
1.0
 40
0.636358354079598
 41
0.9219305317359503
 42
6.513795318482858
  0
ELLIPSE
  5
82
330
7E
100
AcDbEntity
  8
중심선
100
AcDbEllipse
 10
20.54032771746488
 20
12.04717430159265
 30
0.0
 11
3.960054785062283
 21
1.540847449632565E-10
 31
0.0
210
0.0
220
0.0
230
1.0
 40
0.3939339440162632
 41
1.131841032648279
 42
5.62031148352944
  0
LINE
  5
83
330
7E
100
AcDbEntity
  8
중심선
100
AcDbLine
 10
2.268634060543552
 20
16.24717430164393
 30
0.0
 11
5.714909304380834
 21
16.24717430164393
 31
0.0
  0
LINE
  5
84
330
7E
100
AcDbEntity
  8
중심선
100
AcDbLine
 10
5.245725140726316
 20
7.84717430164391
 30
0.0
 11
8.692000384563599
 21
7.84717430164391
 31
0.0
  0
LINE
  5
85
330
7E
100
AcDbEntity
  8
중심선
100
AcDbLine
 10
15.74043728645272
 20
16.24717430164393
 30
0.0
 11
8.692000384563599
 21
7.84717430164391
 31
0.0
  0
LINE
  5
86
330
7E
100
AcDbEntity
  8
중심선
100
AcDbLine
 10
0.1404042013395286
 20
13.71084872107135
 30
0.0
 11
3.58671253028996
 21
13.71088815037384
 31
0.0
  0
LINE
  5
87
330
7E
100
AcDbEntity
  8
중심선
100
AcDbLine
 10
2.750260043222114
 20
10.84717430164391
 30
0.0
 11
6.196535287059397
 21
10.84717430164391
 31
0.0
  0
LINE
  5
88
330
7E
100
AcDbEntity
  8
중심선
100
AcDbLine
 10
12.29416204261559
 20
16.24717430164393
 30
0.0
 11
5.245725140726316
 21
7.84717430164391
 31
0.0
  0
LINE
  5
89
330
7E
100
AcDbEntity
  8
중심선
100
AcDbLine
 10
10.72767329541681
 20
16.24717430164393
 30
0.0
 11
6.196535287059397
 21
10.84717430164391
 31
0.0
  0
LINE
  5
8A
330
7E
100
AcDbEntity
  8
중심선
100
AcDbLine
 10
7.28139805157953
 20
16.24717430164393
 30
0.0
 11
2.750260043222114
 21
10.84717430164391
 31
0.0
  0
LINE
  5
8B
330
7E
100
AcDbEntity
  8
중심선
100
AcDbLine
 10
5.714909304380834
 20
16.24717430164393
 30
0.0
 11
3.58671253028996
 21
13.71088815037384
 31
0.0
  0
LINE
  5
8C
330
7E
100
AcDbEntity
  8
중심선
100
AcDbLine
 10
2.268634060543552
 20
16.24717430164393
 30
0.0
 11
0.1404042013395286
 21
13.71084872107135
 31
0.0
  0
LINE
  5
8D
330
7E
100
AcDbEntity
  8
중심선
100
AcDbLine
 10
7.28139805157953
 20
16.24717430164393
 30
0.0
 11
10.72767329541681
 21
16.24717430164393
 31
0.0
  0
LINE
  5
8E
330
7E
100
AcDbEntity
  8
중심선
100
AcDbLine
 10
12.29416204261559
 20
16.24717430164393
 30
0.0
 11
15.74043728645272
 21
16.24717430164393
 31
0.0
  0
LINE
  5
8F
330
7E
100
AcDbEntity
  8
중심선
100
AcDbLine
 10
19.22036997980202
 20
11.08717430171403
 30
0.0
 11
23.66174974927406
 21
11.08717430171406
 31
0.0
  0
LINE
  5
90
330
7E
100
AcDbEntity
  8
중심선
100
AcDbLine
 10
19.22039502424796
 20
13.00717430171391
 30
0.0
 11
19.22036997980202
 21
11.08717430171403
 31
0.0
  0
LINE
  5
91
330
7E
100
AcDbEntity
  8
중심선
100
AcDbLine
 10
19.22039502424796
 20
13.00717430171391
 30
0.0
 11
26.96566020931264
 21
13.00717430171391
 31
0.0
  0
LINE
  5
92
330
7E
100
AcDbEntity
  8
중심선
100
AcDbLine
 10
22.22332737316547
 20
13.45928029700563
 30
0.0
 11
24.52862924686651
 21
15.39360700705356
 31
0.0
  0
ATTDEF
  5
94
330
7E
100
AcDbEntity
  8
FORMAT
 62
     2
100
AcDbText
 10
-16.11926103943555
 20
2.075366912832191
 30
0.0
 40
4.233333333333333
  1
SEME7006025E [ 2 FLUTE ]
 41
0.75
  7
SLDTEXTSTYLE0
 11
-16.11926103943555
 21
-0.0412997538344756
 31
0.0
100
AcDbAttributeDefinition
  3

  2
AUTOATTR0
 70
     0
 74
     1
  0
ENDBLK
  5
80
330
7E
100
AcDbEntity
  8
0
100
AcDbBlockEnd
  0
BLOCK
  5
DA
330
D9
100
AcDbEntity
  8
0
100
AcDbBlockBegin
  2
_D
 70
     0
 10
0.0
 20
0.0
 30
0.0
  3
_D
  1

  0
LINE
  5
DC
330
D9
100
AcDbEntity
  8
치수문자_일반주서
 62
     0
370
    -2
100
AcDbLine
 10
35.06250000000001
 20
-2.9999999999999
 30
0.0
 11
45.02396377243502
 21
-2.999999999999863
 31
0.0
  0
LINE
  5
DD
330
D9
100
AcDbEntity
  8
치수문자_일반주서
 62
     0
370
    -2
100
AcDbLine
 10
35.0625
 20
3.000000000000095
 30
0.0
 11
45.023963772435
 21
3.000000000000131
 31
0.0
  0
LINE
  5
DE
330
D9
100
AcDbEntity
  8
치수문자_일반주서
 62
     0
370
    -2
100
AcDbLine
 10
45.02396377243502
 20
-2.999999999999863
 30
0.0
 11
45.02396377243495
 21
15.72900000000013
 31
0.0
  0
LINE
  5
DF
330
D9
100
AcDbEntity
  8
치수문자_일반주서
 62
     0
370
    -2
100
AcDbLine
 10
45.02396377243502
 20
-2.999999999999863
 30
0.0
 11
45.023963772435
 21
3.000000000000131
 31
0.0
  0
LINE
  5
E0
330
D9
100
AcDbEntity
  8
치수문자_일반주서
 62
     0
370
    -2
100
AcDbLine
 10
45.02396377243503
 20
-6.301999999999863
 30
0.0
 11
45.02396377243505
 21
-9.603999999999862
 31
0.0
  0
LINE
  5
E1
330
D9
100
AcDbEntity
  8
치수문자_일반주서
 62
     0
370
    -2
100
AcDbLine
 10
45.02396377243498
 20
6.302000000000131
 30
0.0
 11
45.02396377243497
 21
9.60400000000013
 31
0.0
  0
SOLID
  5
E2
330
D9
100
AcDbEntity
  8
치수문자_일반주서
 62
     0
100
AcDbTrace
 10
45.57429710576837
 20
-6.301999999999861
 30
0.0
 11
44.4736304391017
 21
-6.301999999999865
 31
0.0
 12
45.02396377243502
 22
-2.999999999999863
 32
0.0
 13
45.02396377243502
 23
-2.999999999999863
 33
0.0
  0
SOLID
  5
E3
330
D9
100
AcDbEntity
  8
치수문자_일반주서
 62
     0
100
AcDbTrace
 10
44.47363043910165
 20
6.302000000000129
 30
0.0
 11
45.57429710576832
 21
6.302000000000133
 31
0.0
 12
45.023963772435
 22
3.000000000000131
 32
0.0
 13
45.023963772435
 23
3.000000000000131
 33
0.0
  0
MTEXT
  5
E4
330
D9
100
AcDbEntity
  8
치수문자_일반주서
 62
     0
100
AcDbMText
 10
40.64896377243496
 20
12.66650000000012
 30
0.0
 40
3.5
 41
0.0
 71
     2
 72
     1
  1
\A1;%%c6
  7
SLDTEXTSTYLE0
 11
-3.552713678800504E-15
 21
1.0
 31
0.0
 73
     1
 44
1.0
  0
POINT
  5
139
330
D9
100
AcDbEntity
  8
Defpoints
 62
     0
100
AcDbPoint
 10
35.00000000000001
 20
-2.999999999999901
 30
0.0
  0
POINT
  5
13A
330
D9
100
AcDbEntity
  8
Defpoints
 62
     0
100
AcDbPoint
 10
35.0
 20
3.000000000000095
 30
0.0
  0
POINT
  5
13B
330
D9
100
AcDbEntity
  8
Defpoints
 62
     0
100
AcDbPoint
 10
45.023963772435
 20
3.000000000000132
 30
0.0
  0
ENDBLK
  5
DB
330
D9
100
AcDbEntity
  8
0
100
AcDbBlockEnd
  0
BLOCK
  5
E8
330
E7
100
AcDbEntity
  8
0
100
AcDbBlockBegin
  2
_D_1
 70
     0
 10
0.0
 20
0.0
 30
0.0
  3
_D_1
  1

  0
LINE
  5
EA
330
E7
100
AcDbEntity
  8
치수문자_일반주서
 62
     0
370
    -2
100
AcDbLine
 10
-40.0
 20
2.512499999999999
 30
0.0
 11
-40.0
 21
24.2384104402427
 31
0.0
  0
LINE
  5
EB
330
E7
100
AcDbEntity
  8
치수문자_일반주서
 62
     0
370
    -2
100
AcDbLine
 10
35.0
 20
3.062500000000095
 30
0.0
 11
35.0
 21
24.2384104402427
 31
0.0
  0
LINE
  5
EC
330
E7
100
AcDbEntity
  8
치수문자_일반주서
 62
     0
370
    -2
100
AcDbLine
 10
-36.698
 20
24.2384104402427
 30
0.0
 11
31.698
 21
24.2384104402427
 31
0.0
  0
SOLID
  5
ED
330
E7
100
AcDbEntity
  8
치수문자_일반주서
 62
     0
100
AcDbTrace
 10
-36.698
 20
24.78874377357603
 30
0.0
 11
-36.698
 21
23.68807710690936
 31
0.0
 12
-40.0
 22
24.2384104402427
 32
0.0
 13
-40.0
 23
24.2384104402427
 33
0.0
  0
SOLID
  5
EE
330
E7
100
AcDbEntity
  8
치수문자_일반주서
 62
     0
100
AcDbTrace
 10
31.698
 20
23.68807710690936
 30
0.0
 11
31.698
 21
24.78874377357603
 31
0.0
 12
35.0
 22
24.2384104402427
 32
0.0
 13
35.0
 23
24.2384104402427
 33
0.0
  0
MTEXT
  5
EF
330
E7
100
AcDbEntity
  8
치수문자_일반주서
 62
     0
100
AcDbMText
 10
-2.499999999999991
 20
28.6134104402427
 30
0.0
 40
3.5
 41
0.0
 71
     2
 72
     1
  1
\A1;75
  7
SLDTEXTSTYLE0
 73
     1
 44
1.0
  0
POINT
  5
133
330
E7
100
AcDbEntity
  8
Defpoints
 62
     0
100
AcDbPoint
 10
-40.0
 20
2.449999999999999
 30
0.0
  0
POINT
  5
134
330
E7
100
AcDbEntity
  8
Defpoints
 62
     0
100
AcDbPoint
 10
35.0
 20
3.000000000000095
 30
0.0
  0
POINT
  5
135
330
E7
100
AcDbEntity
  8
Defpoints
 62
     0
100
AcDbPoint
 10
35.0
 20
24.2384104402427
 30
0.0
  0
ENDBLK
  5
E9
330
E7
100
AcDbEntity
  8
0
100
AcDbBlockEnd
  0
BLOCK
  5
F2
330
F1
100
AcDbEntity
  8
0
100
AcDbBlockBegin
  2
_D_2
 70
     0
 10
0.0
 20
0.0
 30
0.0
  3
_D_2
  1

  0
LINE
  5
F4
330
F1
100
AcDbEntity
  8
치수문자_일반주서
 62
     0
370
    -2
100
AcDbLine
 10
10.0
 20
2.450760441092963
 30
0.0
 11
10.0
 21
15.73525824726048
 31
0.0
  0
LINE
  5
F5
330
F1
100
AcDbEntity
  8
치수문자_일반주서
 62
     0
370
    -2
100
AcDbLine
 10
35.0
 20
3.062500000000095
 30
0.0
 11
35.0
 21
15.73525824726048
 31
0.0
  0
LINE
  5
F6
330
F1
100
AcDbEntity
  8
치수문자_일반주서
 62
     0
370
    -2
100
AcDbLine
 10
13.302
 20
15.73525824726048
 30
0.0
 11
31.698
 21
15.73525824726048
 31
0.0
  0
SOLID
  5
F7
330
F1
100
AcDbEntity
  8
치수문자_일반주서
 62
     0
100
AcDbTrace
 10
13.302
 20
16.28559158059381
 30
0.0
 11
13.302
 21
15.18492491392715
 31
0.0
 12
10.0
 22
15.73525824726048
 32
0.0
 13
10.0
 23
15.73525824726048
 33
0.0
  0
SOLID
  5
F8
330
F1
100
AcDbEntity
  8
치수문자_일반주서
 62
     0
100
AcDbTrace
 10
31.698
 20
15.18492491392715
 30
0.0
 11
31.698
 21
16.28559158059381
 31
0.0
 12
35.0
 22
15.73525824726048
 32
0.0
 13
35.0
 23
15.73525824726048
 33
0.0
  0
MTEXT
  5
F9
330
F1
100
AcDbEntity
  8
치수문자_일반주서
 62
     0
100
AcDbMText
 10
22.5
 20
20.11025824726048
 30
0.0
 40
3.5
 41
0.0
 71
     2
 72
     1
  1
\A1;25
  7
SLDTEXTSTYLE0
 73
     1
 44
1.0
  0
POINT
  5
136
330
F1
100
AcDbEntity
  8
Defpoints
 62
     0
100
AcDbPoint
 10
10.0
 20
2.388260441092963
 30
0.0
  0
POINT
  5
137
330
F1
100
AcDbEntity
  8
Defpoints
 62
     0
100
AcDbPoint
 10
35.0
 20
3.000000000000095
 30
0.0
  0
POINT
  5
138
330
F1
100
AcDbEntity
  8
Defpoints
 62
     0
100
AcDbPoint
 10
35.0
 20
15.73525824726048
 30
0.0
  0
ENDBLK
  5
F3
330
F1
100
AcDbEntity
  8
0
100
AcDbBlockEnd
  0
BLOCK
  5
FC
330
FB
100
AcDbEntity
  8
0
100
AcDbBlockBegin
  2
_D_3
 70
     0
 10
0.0
 20
0.0
 30
0.0
  3
_D_3
  1

  0
LINE
  5
FE
330
FB
100
AcDbEntity
  8
치수문자_일반주서
 62
     0
370
    -2
100
AcDbLine
 10
-39.51249999999999
 20
2.999999999999998
 30
0.0
 11
-48.82207542984412
 21
2.999999999999963
 31
0.0
  0
LINE
  5
FF
330
FB
100
AcDbEntity
  8
치수문자_일반주서
 62
     0
370
    -2
100
AcDbLine
 10
-39.51249999999999
 20
-2.999999999999996
 30
0.0
 11
-48.8220754298441
 21
-3.000000000000032
 31
0.0
  0
LINE
  5
100
330
FB
100
AcDbEntity
  8
치수문자_일반주서
 62
     0
370
    -2
100
AcDbLine
 10
-48.82207542984412
 20
2.999999999999963
 30
0.0
 11
-48.82207542984417
 21
15.72899999999996
 31
0.0
  0
LINE
  5
101
330
FB
100
AcDbEntity
  8
치수문자_일반주서
 62
     0
370
    -2
100
AcDbLine
 10
-48.82207542984412
 20
2.999999999999963
 30
0.0
 11
-48.8220754298441
 21
-3.000000000000032
 31
0.0
  0
LINE
  5
102
330
FB
100
AcDbEntity
  8
치수문자_일반주서
 62
     0
370
    -2
100
AcDbLine
 10
-48.82207542984413
 20
6.301999999999962
 30
0.0
 11
-48.82207542984415
 21
9.603999999999962
 31
0.0
  0
LINE
  5
103
330
FB
100
AcDbEntity
  8
치수문자_일반주서
 62
     0
370
    -2
100
AcDbLine
 10
-48.82207542984408
 20
-6.302000000000032
 30
0.0
 11
-48.82207542984407
 21
-9.604000000000031
 31
0.0
  0
SOLID
  5
104
330
FB
100
AcDbEntity
  8
치수문자_일반주서
 62
     0
100
AcDbTrace
 10
-49.37240876317747
 20
6.301999999999961
 30
0.0
 11
-48.2717420965108
 21
6.301999999999964
 31
0.0
 12
-48.82207542984412
 22
2.999999999999963
 32
0.0
 13
-48.82207542984412
 23
2.999999999999963
 33
0.0
  0
SOLID
  5
105
330
FB
100
AcDbEntity
  8
치수문자_일반주서
 62
     0
100
AcDbTrace
 10
-48.27174209651075
 20
-6.30200000000003
 30
0.0
 11
-49.37240876317742
 21
-6.302000000000033
 31
0.0
 12
-48.8220754298441
 22
-3.000000000000032
 32
0.0
 13
-48.8220754298441
 23
-3.000000000000032
 33
0.0
  0
MTEXT
  5
106
330
FB
100
AcDbEntity
  8
치수문자_일반주서
 62
     0
100
AcDbMText
 10
-53.19707542984415
 20
12.66649999999995
 30
0.0
 40
3.5
 41
0.0
 71
     2
 72
     1
  1
\A1;%%c6
  7
SLDTEXTSTYLE0
 11
-3.552713678800504E-15
 21
1.0
 31
0.0
 73
     1
 44
1.0
  0
POINT
  5
13C
330
FB
100
AcDbEntity
  8
Defpoints
 62
     0
100
AcDbPoint
 10
-39.44999999999999
 20
2.999999999999999
 30
0.0
  0
POINT
  5
13D
330
FB
100
AcDbEntity
  8
Defpoints
 62
     0
100
AcDbPoint
 10
-39.44999999999999
 20
-2.999999999999996
 30
0.0
  0
POINT
  5
13E
330
FB
100
AcDbEntity
  8
Defpoints
 62
     0
100
AcDbPoint
 10
-48.82207542984409
 20
-3.000000000000031
 30
0.0
  0
ENDBLK
  5
FD
330
FB
100
AcDbEntity
  8
0
100
AcDbBlockEnd
  0
BLOCK
  5
108
330
107
100
AcDbEntity
  8
0
100
AcDbBlockBegin
  2
SW_DOWELSYMBOL_0
 70
     0
 10
0.0
 20
0.0
 30
0.0
  3
SW_DOWELSYMBOL_0
  1

  0
CIRCLE
  5
10A
330
107
100
AcDbEntity
  8
외형선
 62
     0
100
AcDbCircle
 10
0.0
 20
0.0
 30
0.0
 40
3.000000000000004
  0
HATCH
  5
10B
330
107
100
AcDbEntity
  8
0
  6
Continuous
 62
     0
370
    30
100
AcDbHatch
 10
0.0
 20
0.0
 30
0.0
210
0.0
220
0.0
230
1.0
  2
SOLID
 70
     1
 71
     0
 91
        1
 92
        0
 93
        3
 72
     2
 10
0.0000000000000104
 20
0.0
 40
3.000000000000004
 50
0.0
 51
90.0
 73
     1
 72
     1
 10
0.0000000000000104
 20
3.000000000000004
 11
0.0000000000000104
 21
0.0
 72
     1
 10
0.0000000000000104
 20
0.0
 11
3.000000000000015
 21
0.0
 97
        0
 75
     0
 76
     1
 98
        1
 10
0.0
 20
0.0
  0
HATCH
  5
10C
330
107
100
AcDbEntity
  8
0
  6
Continuous
 62
     0
370
    30
100
AcDbHatch
 10
0.0
 20
0.0
 30
0.0
210
0.0
220
0.0
230
1.0
  2
SOLID
 70
     1
 71
     0
 91
        1
 92
        0
 93
        3
 72
     2
 10
0.0000000000000104
 20
0.0
 40
3.000000000000004
 50
180.0
 51
270.0000000000008
 73
     1
 72
     1
 10
0.0000000000000104
 20
-3.000000000000004
 11
0.0000000000000104
 21
0.0
 72
     1
 10
0.0000000000000104
 20
0.0
 11
-2.999999999999994
 21
0.0
 97
        0
 75
     0
 76
     1
 98
        1
 10
0.0
 20
0.0
  0
ENDBLK
  5
109
330
107
100
AcDbEntity
  8
0
100
AcDbBlockEnd
  0
ENDSEC
  0
SECTION
  2
ENTITIES
  0
LINE
  5
95
330
1F
100
AcDbEntity
  8
0
  6
Continuous
 62
     1
370
    15
100
AcDbLine
 10
26.43048891529565
 20
1.167317201537378
 30
0.0
 11
26.39612155650401
 21
1.185008216653229
 31
0.0
  0
SPLINE
  5
96
330
1F
100
AcDbEntity
  8
0
  6
Continuous
 62
     1
370
    15
100
AcDbSpline
210
0.0
220
0.0
230
1.0
 70
     8
 71
     3
 72
     9
 73
     5
 74
     0
 42
0.000000001
 43
0.00000001
 40
0.0
 40
0.0
 40
0.0
 40
0.0
 40
0.4560032674675991
 40
1.0
 40
1.0
 40
1.0
 40
1.0
 10
27.22701830419637
 20
0.7687326562241447
 30
0.0
 10
27.1059316903717
 20
0.8263812431830966
 30
0.0
 10
26.84039277329964
 20
0.9528026771326862
 30
0.0
 10
26.57491043815785
 20
1.091737248615136
 30
0.0
 10
26.43048891529565
 20
1.167317201537378
 30
0.0
  0
SPLINE
  5
97
330
1F
100
AcDbEntity
  8
0
  6
Continuous
 62
     1
370
    15
100
AcDbSpline
210
0.0
220
0.0
230
1.0
 70
     8
 71
     3
 72
     9
 73
     5
 74
     0
 42
0.000000001
 43
0.00000001
 40
0.0
 40
0.0
 40
0.0
 40
0.0
 40
0.4751718963439552
 40
1.0
 40
1.0
 40
1.0
 40
1.0
 10
10.90277128399695
 20
0.7687573031703826
 30
0.0
 10
10.79223848443452
 20
0.8213856596460173
 30
0.0
 10
10.5596220346552
 20
0.9321421182677608
 30
0.0
 10
10.34043844980998
 20
1.044310850764084
 30
0.0
 10
10.22540474462313
 20
1.103180153929631
 30
0.0
  0
LINE
  5
98
330
1F
100
AcDbEntity
  8
0
  6
Continuous
 62
     1
370
    15
100
AcDbLine
 10
18.89001603047779
 20
-2.999999999999998
 30
0.0
 11
20.34413782940513
 21
-2.999999999999998
 31
0.0
  0
LINE
  5
99
330
1F
100
AcDbEntity
  8
0
  6
Continuous
 62
     1
370
    15
100
AcDbLine
 10
20.34413782940512
 20
3.000000000000007
 30
0.0
 11
18.8900160304778
 21
3.000000000000007
 31
0.0
  0
LINE
  5
9A
330
1F
100
AcDbEntity
  8
0
  6
Continuous
 62
     1
370
    15
100
AcDbLine
 10
25.6042123825648
 20
0.8251804215357539
 30
0.0
 11
25.53600987410289
 21
0.8624835859421587
 31
0.0
  0
SPLINE
  5
9B
330
1F
100
AcDbEntity
  8
0
  6
Continuous
 62
     1
370
    15
100
AcDbSpline
210
0.0
220
0.0
230
1.0
 70
     8
 71
     3
 72
    21
 73
    17
 74
     0
 42
0.000000001
 43
0.00000001
 40
0.0
 40
0.0
 40
0.0
 40
0.0
 40
0.0963362015940539
 40
0.1603501653802265
 40
0.2029318757659903
 40
0.2543763108558316
 40
0.3150214012339796
 40
0.3820674057059544
 40
0.4302949745851312
 40
0.4772673440871078
 40
0.5363923818278284
 40
0.6021834342620604
 40
0.6752777816827863
 40
0.7572475203872845
 40
0.8636909838102017
 40
1.0
 40
1.0
 40
1.0
 40
1.0
 10
21.72316866826739
 20
-2.496416542666912
 30
0.0
 10
21.86842979170214
 20
-2.482433761839208
 30
0.0
 10
22.1102147570699
 20
-2.459159632476647
 30
0.0
 10
22.41458930253808
 20
-2.434391717561931
 30
0.0
 10
22.64813357978727
 20
-2.416799070431602
 30
0.0
 10
22.8815430250789
 20
-2.400885242287302
 30
0.0
 10
23.15309332822399
 20
-2.38486980347748
 30
0.0
 10
23.41960187682581
 20
-2.371733614507553
 30
0.0
 10
23.66410475540911
 20
-2.361859120763854
 30
0.0
 10
23.8962891852945
 20
-2.354195901578534
 30
0.0
 10
24.15471363129221
 20
-2.347790669305487
 30
0.0
 10
24.45311849593391
 20
-2.343403590027138
 30
0.0
 10
24.7884176121404
 20
-2.342204270334522
 30
0.0
 10
25.187597966243
 20
-2.345411464482304
 30
0.0
 10
25.6745015113896
 20
-2.357019632384599
 30
0.0
 10
26.03422730495715
 20
-2.374244311590172
 30
0.0
 10
26.23621852291512
 20
-2.383916217230199
 30
0.0
  0
SPLINE
  5
9C
330
1F
100
AcDbEntity
  8
0
  6
Continuous
 62
     1
370
    15
100
AcDbSpline
210
0.0
220
0.0
230
1.0
 70
     8
 71
     3
 72
    14
 73
    10
 74
     0
 42
0.000000001
 43
0.00000001
 40
0.0
 40
0.0
 40
0.0
 40
0.0
 40
0.1359487214579347
 40
0.2563268018398439
 40
0.4218448234742865
 40
0.5630024178768275
 40
0.6949607766299796
 40
0.8582178840273321
 40
1.0
 40
1.0
 40
1.0
 40
1.0
 10
26.23621852291512
 20
2.38391621723021
 30
0.0
 10
26.13709481693575
 20
2.378293299530838
 30
0.0
 10
25.95020035946879
 20
2.367691474847
 30
0.0
 10
25.59742967735431
 20
2.352480101425849
 30
0.0
 10
25.23356473145495
 20
2.347256306252779
 30
0.0
 10
24.85908617558098
 20
2.34242701595103
 30
0.0
 10
24.49882089379104
 20
2.342925440107569
 30
0.0
 10
24.13316522127127
 20
2.347479836498355
 30
0.0
 10
23.87802033304689
 20
2.355395959016736
 30
0.0
 10
23.7594290852316
 20
2.359075369777605
 30
0.0
  0
SPLINE
  5
9D
330
1F
100
AcDbEntity
  8
0
  6
Continuous
 62
     1
370
    15
100
AcDbSpline
210
0.0
220
0.0
230
1.0
 70
     8
 71
     3
 72
    13
 73
     9
 74
     0
 42
0.000000001
 43
0.00000001
 40
0.0
 40
0.0
 40
0.0
 40
0.0
 40
0.3013409396483726
 40
0.5331476254479611
 40
0.6979126638374884
 40
0.8293694557721732
 40
0.951362867671186
 40
1.0
 40
1.0
 40
1.0
 40
1.0
 10
28.64375270406191
 20
-2.25642255936963
 30
0.0
 10
28.86781207752202
 20
-2.222914241923029
 30
0.0
 10
29.26422924891268
 20
-2.163629632602244
 30
0.0
 10
29.78240656364666
 20
-2.101995127323512
 30
0.0
 10
30.17968603615621
 20
-2.062531407842271
 30
0.0
 10
30.49590738078068
 20
-2.036280942511501
 30
0.0
 10
30.72312771543167
 20
-2.01973699825017
 30
0.0
 10
30.85058004256861
 20
-2.012498957016655
 30
0.0
 10
30.88690950356064
 20
-2.010435800206898
 30
0.0
  0
SPLINE
  5
9E
330
1F
100
AcDbEntity
  8
0
  6
Continuous
 62
     1
370
    15
100
AcDbSpline
210
0.0
220
0.0
230
1.0
 70
     8
 71
     3
 72
    21
 73
    17
 74
     0
 42
0.000000001
 43
0.00000001
 40
0.0
 40
0.0
 40
0.0
 40
0.0
 40
0.1156443455024423
 40
0.2096220016007278
 40
0.2852126300746126
 40
0.3474152628843298
 40
0.400282223208882
 40
0.461885246543956
 40
0.5363912661032314
 40
0.6074661006975188
 40
0.6634667107857141
 40
0.6878957756895049
 40
0.7236635848476742
 40
0.7728146862146896
 40
0.8710854128904073
 40
0.9999999999999999
 40
0.9999999999999999
 40
0.9999999999999999
 40
0.9999999999999999
 10
17.56021637746198
 20
2.05185017634255
 30
0.0
 10
17.36745500688378
 20
2.03621525705941
 30
0.0
 10
17.0180473107587
 20
2.007874718135886
 30
0.0
 10
16.51192707138908
 20
1.985255179390808
 30
0.0
 10
16.0920392085719
 20
1.975748803718288
 30
0.0
 10
15.74881559836471
 20
1.972920685103167
 30
0.0
 10
15.44916803741745
 20
1.976093799882784
 30
0.0
 10
15.12332058756857
 20
1.983529358521815
 30
0.0
 10
14.76105991386304
 20
1.998065805710919
 30
0.0
 10
14.40861891847593
 20
2.018884357714514
 30
0.0
 10
14.14418665783392
 20
2.038557050939653
 30
0.0
 10
13.94212486271314
 20
2.055519003316294
 30
0.0
 10
13.75110613661306
 20
2.072923628160161
 30
0.0
 10
13.43063366350013
 20
2.10546879894412
 30
0.0
 10
12.94655966084747
 20
2.162703043913085
 30
0.0
 10
12.54660126044765
 20
2.222485438990058
 30
0.0
 10
12.31964789277847
 20
2.256408506680312
 30
0.0
  0
SPLINE
  5
9F
330
1F
100
AcDbEntity
  8
0
  6
Continuous
 62
     1
370
    15
100
AcDbSpline
210
0.0
220
0.0
230
1.0
 70
     8
 71
     3
 72
    13
 73
     9
 74
     0
 42
0.000000001
 43
0.00000001
 40
0.0
 40
0.0
 40
0.0
 40
0.0
 40
0.29716891883795
 40
0.531382358416393
 40
0.7061459615053285
 40
0.8483725028267103
 40
0.9697314068896837
 40
1.0
 40
1.0
 40
1.0
 40
1.0
 10
12.31964789277846
 20
-2.256408506680303
 30
0.0
 10
12.53858857386447
 20
-2.223606411002731
 30
0.0
 10
12.93008717312484
 20
-2.164951370528414
 30
0.0
 10
13.45152250249781
 20
-2.102439905189562
 30
0.0
 10
13.86672956910198
 20
-2.061335603680106
 30
0.0
 10
14.19744099276495
 20
-2.034298982794657
 30
0.0
 10
14.41807360787003
 20
-2.018486020557176
 30
0.0
 10
14.53082771138723
 20
-2.012153896253044
 30
0.0
 10
14.55333621508548
 20
-2.010889847860379
 30
0.0
  0
SPLINE
  5
A0
330
1F
100
AcDbEntity
  8
0
  6
Continuous
 62
     1
370
    15
100
AcDbSpline
210
0.0
220
0.0
230
1.0
 70
     8
 71
     3
 72
    21
 73
    17
 74
     0
 42
0.000000001
 43
0.00000001
 40
0.0
 40
0.0
 40
0.0
 40
0.0
 40
0.1238044282105341
 40
0.2235625804590017
 40
0.2997084011674932
 40
0.3557761451398792
 40
0.3951224920461364
 40
0.4466496660460789
 40
0.5191469026327491
 40
0.5911677446856392
 40
0.6475812493314091
 40
0.6722639701737044
 40
0.709188785595964
 40
0.7605163666823385
 40
0.8638401757030459
 40
1.0
 40
1.0
 40
1.0
 40
1.0
 10
33.88449283071131
 20
2.051857251581559
 30
0.0
 10
33.6744470377804
 20
2.035251573509806
 30
0.0
 10
33.2951522083391
 20
2.005265503595737
 30
0.0
 10
32.77025817823319
 20
1.982954498290871
 30
0.0
 10
32.35273614136807
 20
1.974878294719825
 30
0.0
 10
32.04498167974251
 20
1.973603633114584
 30
0.0
 10
31.7924032017043
 20
1.976043537051534
 30
0.0
 10
31.50977309812156
 20
1.981825845857761
 30
0.0
 10
31.16700506388899
 20
1.994202600450013
 30
0.0
 10
30.81664264599332
 20
2.013453085691608
 30
0.0
 10
30.55041535088483
 20
2.032252723168092
 30
0.0
 10
30.34634921080161
 20
2.048585153035183
 30
0.0
 10
30.14935698788201
 20
2.065814163907826
 30
0.0
 10
29.81450289284969
 20
2.098736441749581
 30
0.0
 10
29.30509809030734
 20
2.157793692446553
 30
0.0
 10
28.88347116518619
 20
2.22067246464915
 30
0.0
 10
28.64375270406191
 20
2.256422559369642
 30
0.0
  0
LINE
  5
A1
330
1F
100
AcDbEntity
  8
0
  6
Continuous
 62
   131
370
    15
100
AcDbLine
 10
9.110031809542416
 20
3.000000000000005
 30
0.0
 11
-39.44999999999999
 21
3.000000000000002
 31
0.0
  0
LINE
  5
A2
330
1F
100
AcDbEntity
  8
0
  6
Continuous
 62
   131
370
    15
100
AcDbLine
 10
-39.44999999999999
 20
-2.999999999999999
 30
0.0
 11
9.110031809542416
 21
-2.999999999999996
 31
0.0
  0
LINE
  5
A3
330
1F
100
AcDbEntity
  8
0
  6
Continuous
 62
   131
370
    15
100
AcDbLine
 10
-39.44999999999999
 20
2.999999999999999
 30
0.0
 11
-40.0
 21
2.449999999999998
 31
0.0
  0
LINE
  5
A4
330
1F
100
AcDbEntity
  8
0
  6
Continuous
 62
   131
370
    15
100
AcDbLine
 10
-40.0
 20
-2.449999999999996
 30
0.0
 11
-39.44999999999999
 21
-2.999999999999996
 31
0.0
  0
SPLINE
  5
A5
330
1F
100
AcDbEntity
  8
0
  6
Continuous
 62
   131
370
    15
100
AcDbSpline
210
0.0
220
0.0
230
1.0
 70
     8
 71
     3
 72
     9
 73
     5
 74
     0
 42
0.000000001
 43
0.00000001
 40
0.0
 40
0.0
 40
0.0
 40
0.0
 40
0.5004572939457856
 40
0.9999999999999999
 40
0.9999999999999999
 40
0.9999999999999999
 40
0.9999999999999999
 10
9.8506135793634
 20
2.380481643441792
 30
0.0
 10
9.726585051094006
 20
2.374679207252146
 30
0.0
 10
9.478754657232603
 20
2.363084938850347
 30
0.0
 10
9.232872559603456
 20
2.35518802798056
 30
0.0
 10
9.110043951183508
 20
2.351243183755199
 30
0.0
  0
SPLINE
  5
A6
330
1F
100
AcDbEntity
  8
0
  6
Continuous
 62
   131
370
    15
100
AcDbSpline
210
0.0
220
0.0
230
1.0
 70
     8
 71
     3
 72
     9
 73
     5
 74
     0
 42
0.000000001
 43
0.00000001
 40
0.0
 40
0.0
 40
0.0
 40
0.0
 40
0.4995427060542144
 40
1.0
 40
1.0
 40
1.0
 40
1.0
 10
9.110043951183508
 20
-2.351243183755189
 30
0.0
 10
9.232872559603459
 20
-2.355188027980551
 30
0.0
 10
9.478754657232603
 20
-2.363084938850338
 30
0.0
 10
9.726585051094006
 20
-2.374679207252137
 30
0.0
 10
9.8506135793634
 20
-2.380481643441783
 30
0.0
  0
SPLINE
  5
A7
330
1F
100
AcDbEntity
  8
0
  6
Continuous
 62
     1
370
    15
100
AcDbSpline
210
0.0
220
0.0
230
1.0
 70
     8
 71
     3
 72
    19
 73
    15
 74
     0
 42
0.000000001
 43
0.00000001
 40
0.0
 40
0.0
 40
0.0
 40
0.0
 40
0.088354642494149
 40
0.1767009081376299
 40
0.2650396777281796
 40
0.3533718377719244
 40
0.4416982798198086
 40
0.5300198997958163
 40
0.6183375973180638
 40
0.7066522750138492
 40
0.7949648378297782
 40
0.883276192338081
 40
0.971587246040263
 40
0.9999999999999999
 40
0.9999999999999999
 40
0.9999999999999999
 40
0.9999999999999999
 10
35.0
 20
-2.846822607695695
 30
0.0
 10
34.56833218966455
 20
-2.7511333666289
 30
0.0
 10
33.70503749515987
 20
-2.55976395673487
 30
0.0
 10
32.41018425804047
 20
-2.067512490015047
 30
0.0
 10
31.11546084294143
 20
-1.460223071022703
 30
0.0
 10
29.82085413671249
 20
-0.759407921927904
 30
0.0
 10
28.52634781648784
 20
-0.0126088137792583
 30
0.0
 10
27.2319263124861
 20
0.7351274547309611
 30
0.0
 10
25.93757376963176
 20
1.43764959671414
 30
0.0
 10
24.64327431354525
 20
2.050480644069016
 30
0.0
 10
23.34901210038482
 20
2.540215801776408
 30
0.0
 10
22.05477092761095
 20
2.860037225984534
 30
0.0
 10
21.05314925307715
 20
3.008700012041455
 30
0.0
 10
20.48293791472029
 20
2.98539575662213
 30
0.0
 10
20.34413782940512
 20
2.979723065774331
 30
0.0
  0
SPLINE
  5
A8
330
1F
100
AcDbEntity
  8
0
  6
Continuous
 62
     1
370
    15
100
AcDbSpline
210
0.0
220
0.0
230
1.0
 70
     8
 71
     3
 72
    15
 73
    11
 74
     0
 42
0.000000001
 43
0.00000001
 40
0.0
 40
0.0
 40
0.0
 40
0.0
 40
0.1385624289565631
 40
0.2769284619192526
 40
0.4152365995173385
 40
0.5536261503246794
 40
0.692225789053252
 40
0.8307453925593394
 40
0.9690918683106915
 40
0.9999999999999999
 40
0.9999999999999999
 40
0.9999999999999999
 40
0.9999999999999999
 10
35.0
 20
-2.36691679310464
 30
0.0
 10
34.64002012316261
 20
-2.291401695648659
 30
0.0
 10
33.92057059874848
 20
-2.140478534531709
 30
0.0
 10
32.84213486911462
 20
-1.794715074188696
 30
0.0
 10
31.76417833433338
 20
-1.379183253864471
 30
0.0
 10
30.68556444334479
 20
-0.9025070138073974
 30
0.0
 10
29.60600663667885
 20
-0.3872596260762171
 30
0.0
 10
28.52673304833822
 20
0.1419289091748948
 30
0.0
 10
27.72740678239721
 20
0.53836489447015
 30
0.0
 10
27.28783036344905
 20
0.7383642721925933
 30
0.0
 10
27.20755789081265
 20
0.7748868058943256
 30
0.0
  0
LINE
  5
A9
330
1F
100
AcDbEntity
  8
0
  6
Continuous
 62
     1
370
    15
100
AcDbLine
 10
35.0
 20
-2.846822607695696
 30
0.0
 11
35.0
 21
-2.36691679310464
 31
0.0
  0
SPLINE
  5
AA
330
1F
100
AcDbEntity
  8
0
  6
Continuous
 62
     1
370
    15
100
AcDbSpline
210
0.0
220
0.0
230
1.0
 70
     8
 71
     3
 72
    19
 73
    15
 74
     0
 42
0.000000001
 43
0.00000001
 40
0.0
 40
0.0
 40
0.0
 40
0.0
 40
0.0298488299917399
 40
0.1239043109475973
 40
0.2179594715316916
 40
0.3120152785195328
 40
0.4060726981894038
 40
0.5001326955795024
 40
0.594196233747121
 40
0.6753668499745921
 40
0.7566174423341676
 40
0.8377932015932054
 40
0.9189044404390492
 40
1.0
 40
1.0
 40
1.0
 40
1.0
 10
23.75973844246507
 20
-2.358960177907895
 30
0.0
 10
23.62282783231796
 20
-2.411621752332902
 30
0.0
 10
23.05450355239183
 20
-2.630223154610702
 30
0.0
 10
22.05477136821289
 20
-2.861836529946236
 30
0.0
 10
20.76053490632319
 20
-3.023156159257959
 30
0.0
 10
19.46629035368929
 20
-2.987613316644374
 30
0.0
 10
18.1720107180768
 20
-2.770356666693233
 30
0.0
 10
16.87771977147627
 20
-2.381344252620464
 30
0.0
 10
15.64241674164235
 20
-1.86991928887444
 30
0.0
 10
14.46623057917446
 20
-1.286558560694664
 30
0.0
 10
13.34863866793381
 20
-0.6736919187205258
 30
0.0
 10
12.23171324008486
 20
-0.0304696317757682
 30
0.0
 10
11.11566053365454
 20
0.6180790797697472
 30
0.0
 10
10.37186287881474
 20
1.021348934751353
 30
0.0
 10
9.99999999999701
 20
1.222964371742969
 30
0.0
  0
SPLINE
  5
AB
330
1F
100
AcDbEntity
  8
0
  6
Continuous
 62
     1
370
    15
100
AcDbSpline
210
0.0
220
0.0
230
1.0
 70
     8
 71
     3
 72
    18
 73
    14
 74
     0
 42
0.000000001
 43
0.00000001
 40
0.0
 40
0.0
 40
0.0
 40
0.0
 40
0.0692088895718128
 40
0.1687329233848201
 40
0.268386516750367
 40
0.3679085645802681
 40
0.4673397539496894
 40
0.5667801154093486
 40
0.6663295514585875
 40
0.765977249661067
 40
0.865476954050882
 40
0.973653009716085
 40
1.0
 40
1.0
 40
1.0
 40
1.0
 10
21.7271917340024
 20
-2.484679521837892
 30
0.0
 10
21.47715017094793
 20
-2.509298965834563
 30
0.0
 10
20.86754287681394
 20
-2.569321757463902
 30
0.0
 10
19.89778376486531
 20
-2.53848022586044
 30
0.0
 10
18.81812657451461
 20
-2.410072569451929
 30
0.0
 10
17.73918189746448
 20
-2.174052171474848
 30
0.0
 10
16.6611351775836
 20
-1.845741850034411
 30
0.0
 10
15.58298157089772
 20
-1.437795248741975
 30
0.0
 10
14.50386098964407
 20
-0.9683668724797738
 30
0.0
 10
13.4242180486807
 20
-0.4569799657741095
 30
0.0
 10
12.31387724034412
 20
0.0870237985746302
 30
0.0
 10
11.46825034800068
 20
0.5082942627126508
 30
0.0
 10
10.9821804147242
 20
0.729154343396628
 30
0.0
 10
10.88698126338932
 20
0.7724108602174439
 30
0.0
  0
SPLINE
  5
AC
330
1F
100
AcDbEntity
  8
0
  6
Continuous
 62
     1
370
    15
100
AcDbSpline
210
0.0
220
0.0
230
1.0
 70
     8
 71
     3
 72
    15
 73
    11
 74
     0
 42
0.000000001
 43
0.00000001
 40
0.0
 40
0.0
 40
0.0
 40
0.0
 40
0.1255139161083779
 40
0.2510521021632537
 40
0.3766901559605839
 40
0.5024440251171557
 40
0.628074099310163
 40
0.7736597689095799
 40
0.9192399591295408
 40
1.0
 40
1.0
 40
1.0
 40
1.0
 10
9.999999999998266
 20
0.4188261135853482
 30
0.0
 10
10.37186119927109
 20
0.2042380630534227
 30
0.0
 10
11.11565550260379
 20
-0.2249795317401035
 30
0.0
 10
12.23170320912699
 20
-0.8637416055713082
 30
0.0
 10
13.34862366525681
 20
-1.461615150223102
 30
0.0
 10
14.46621056869998
 20
-1.991733393873332
 30
0.0
 10
15.64239382804199
 20
-2.455888348368942
 30
0.0
 10
16.87769643485239
 20
-2.801156616098433
 30
0.0
 10
17.97990468641096
 20
-2.989991554334331
 30
0.0
 10
18.65067847185502
 20
-2.980444670544673
 30
0.0
 10
18.89001603047779
 20
-2.977038264527838
 30
0.0
  0
SPLINE
  5
AD
330
1F
100
AcDbEntity
  8
0
  6
Continuous
 62
     1
370
    15
100
AcDbSpline
210
0.0
220
0.0
230
1.0
 70
     8
 71
     3
 72
    11
 73
     7
 74
     0
 42
0.000000001
 43
0.00000001
 40
0.0
 40
0.0
 40
0.0
 40
0.0
 40
0.0554351931564876
 40
0.3702623688394944
 40
0.6851162581882003
 40
1.0
 40
1.0
 40
1.0
 40
1.0
 10
30.88745408327676
 20
2.010683980749981
 30
0.0
 10
30.96344493276356
 20
2.045811008212555
 30
0.0
 10
31.47100250294618
 20
2.280431213501045
 30
0.0
 10
32.41018197663705
 20
2.59178293142098
 30
0.0
 10
33.70503556839101
 20
2.914441615331868
 30
0.0
 10
34.56833154806229
 20
2.969789294324979
 30
0.0
 10
35.0
 20
3.000000000000095
 30
0.0
  0
LINE
  5
AE
330
1F
100
AcDbEntity
  8
0
  6
Continuous
 62
   131
370
    15
100
AcDbLine
 10
10.0
 20
0.4188261135863778
 30
0.0
 11
10.0
 21
1.222964371741158
 31
0.0
  0
SPLINE
  5
AF
330
1F
100
AcDbEntity
  8
0
  6
Continuous
 62
     1
370
    15
100
AcDbSpline
210
0.0
220
0.0
230
1.0
 70
     8
 71
     3
 72
    23
 73
    19
 74
     0
 42
0.000000001
 43
0.00000001
 40
0.0
 40
0.0
 40
0.0
 40
0.0
 40
0.050323130663839
 40
0.1136319198364647
 40
0.1769383262685382
 40
0.2402429980891763
 40
0.3035465847604285
 40
0.3668497365787365
 40
0.4301531041750233
 40
0.4934573380142305
 40
0.5567630878951315
 40
0.6200710024512367
 40
0.6833817286536129
 40
0.7466959113164313
 40
0.8100141926060437
 40
0.8733372115543923
 40
0.9366656035775257
 40
1.0
 40
1.0
 40
1.0
 40
1.0
 10
14.55455882821739
 20
2.011366828725045
 30
0.0
 10
14.89746989767122
 20
2.15175895361575
 30
0.0
 10
15.67177870241363
 20
2.468770762515691
 30
0.0
 10
16.87768918697489
 20
2.805009098158505
 30
0.0
 10
18.17199081104924
 20
3.00275498299504
 30
0.0
 10
19.46626968006862
 20
3.012431489124693
 30
0.0
 10
20.76051662523843
 20
2.836847203257359
 30
0.0
 10
22.05475432406088
 20
2.485932940621244
 30
0.0
 10
23.34899693537094
 20
1.981595673801568
 30
0.0
 10
24.64326089886126
 20
1.354904456319628
 30
0.0
 10
25.93756202376695
 20
0.6445561734230402
 30
0.0
 10
27.23191625777178
 20
-0.1055795629105956
 30
0.0
 10
28.52633944588646
 20
-0.8492783643236255
 30
0.0
 10
29.82084744951442
 20
-1.540299817895505
 30
0.0
 10
31.11545583521631
 20
-2.137183373947141
 30
0.0
 10
32.41018092516487
 20
-2.598551129664366
 30
0.0
 10
33.70503583129742
 20
-2.912749318776616
 30
0.0
 10
34.56833163570053
 20
-2.969225177646247
 30
0.0
 10
35.00000000000001
 20
-2.999999999999901
 30
0.0
  0
LINE
  5
B0
330
1F
100
AcDbEntity
  8
0
  6
Continuous
 62
     1
370
    15
100
AcDbLine
 10
35.00000000000001
 20
-2.999999999999901
 30
0.0
 11
35.0
 21
-2.846822607695699
 31
0.0
  0
SPLINE
  5
B1
330
1F
100
AcDbEntity
  8
0
  6
Continuous
 62
     1
370
    15
100
AcDbSpline
210
0.0
220
0.0
230
1.0
 70
     8
 71
     3
 72
    17
 73
    13
 74
     0
 42
0.000000001
 43
0.00000001
 40
0.0
 40
0.0
 40
0.0
 40
0.0
 40
0.0106760871763309
 40
0.1184759136925627
 40
0.2263608598960173
 40
0.3344119062356224
 40
0.4423485189378419
 40
0.5501635773859079
 40
0.6579698668438452
 40
0.7658802967799193
 40
0.8739369779384865
 40
1.0
 40
1.0
 40
1.0
 40
1.0
 10
27.55509653769692
 20
-0.2882558587365154
 30
0.0
 10
27.51952022878745
 20
-0.2742662362721855
 30
0.0
 10
27.12471868452848
 20
-0.1190189742087912
 30
0.0
 10
26.37045423475958
 20
0.1914043004708068
 30
0.0
 10
25.29163350997393
 20
0.6202674984290018
 30
0.0
 10
24.21206898854386
 20
1.023775344440949
 30
0.0
 10
23.13295304247191
 20
1.383314420895351
 30
0.0
 10
22.05478446318319
 20
1.68329698695536
 30
0.0
 10
20.97671360817409
 20
1.91184100734025
 30
0.0
 10
19.89771837338943
 20
2.054881618234203
 30
0.0
 10
18.75769214627999
 20
2.126038343822453
 30
0.0
 10
17.97729162875264
 20
2.066392906605639
 30
0.0
 10
17.55708074387302
 20
2.034276497929589
 30
0.0
  0
SPLINE
  5
B2
330
1F
100
AcDbEntity
  8
0
  6
Continuous
 62
     1
370
    15
100
AcDbSpline
210
0.0
220
0.0
230
1.0
 70
    24
 71
     3
 72
    10
 73
     6
 74
     0
 42
0.000000001
 43
0.00000001
 40
0.0
 40
0.0
 40
0.0
 40
0.0
 40
0.5
 40
0.5
 40
1.0
 40
1.0
 40
1.0
 40
1.0
 10
35.0
 20
2.100000000000007
 30
0.0
 10
35.0
 20
2.227296770421948
 30
0.0
 10
35.00000000000001
 20
2.375227406601359
 30
0.0
 10
35.00000000000001
 20
2.685585482882574
 30
0.0
 10
35.0
 20
2.847220307404427
 30
0.0
 10
35.0
 20
3.000000000000095
 30
0.0
  0
SPLINE
  5
B3
330
1F
100
AcDbEntity
  8
0
  6
Continuous
 62
     1
370
    15
100
AcDbSpline
210
0.0
220
0.0
230
1.0
 70
     8
 71
     3
 72
     9
 73
     5
 74
     0
 42
0.000000001
 43
0.00000001
 40
0.0
 40
0.0
 40
0.0
 40
0.0
 40
0.9677583987478208
 40
1.0
 40
1.0
 40
1.0
 40
1.0
 10
35.00000000000001
 20
2.100000000000007
 30
0.0
 10
34.64001178945782
 20
2.09921861729294
 30
0.0
 10
34.2680303000613
 20
2.098411202231416
 30
0.0
 10
33.89613374814724
 20
2.051924951485247
 30
0.0
 10
33.88414320781335
 20
2.050426160324979
 30
0.0
  0
SPLINE
  5
B4
330
1F
100
AcDbEntity
  8
0
  6
Continuous
 62
     1
370
    15
100
AcDbSpline
210
0.0
220
0.0
230
1.0
 70
     8
 71
     3
 72
     9
 73
     5
 74
     0
 42
0.000000001
 43
0.00000001
 40
0.0
 40
0.0
 40
0.0
 40
0.0
 40
0.042983738807318
 40
1.0
 40
1.0
 40
1.0
 40
1.0
 10
11.22523365617116
 20
-0.2862269286107118
 30
0.0
 10
11.20767855805558
 20
-0.2793511027067568
 30
0.0
 10
10.79926601408691
 20
-0.119387681777343
 30
0.0
 10
10.39085550164702
 20
0.0476227675455221
 30
0.0
 10
10.0
 20
0.2074544833366002
 30
0.0
  0
SPLINE
  5
B5
330
1F
100
AcDbEntity
  8
0
  6
Continuous
 62
   131
370
    15
100
AcDbSpline
210
0.0
220
0.0
230
1.0
 70
    24
 71
     3
 72
    10
 73
     6
 74
     0
 42
0.000000001
 43
0.00000001
 40
0.0
 40
0.0
 40
0.0
 40
0.0
 40
0.1865404502411573
 40
0.7435597819319668
 40
1.0
 40
1.0
 40
1.0
 40
1.0
 10
9.999999999999963
 20
0.4209614014092997
 30
0.0
 10
9.999999999999948
 20
0.4229154783710346
 30
0.0
 10
9.9999999999999
 20
0.4307045291515358
 30
0.0
 10
10.00000000000002
 20
0.3463428049934091
 30
0.0
 10
10.00000000000001
 20
0.2407440984615808
 30
0.0
 10
10.00000000000001
 20
0.2074544833371994
 30
0.0
  0
SPLINE
  5
B6
330
1F
100
AcDbEntity
  8
0
  6
Continuous
 62
     1
370
    15
100
AcDbSpline
210
0.0
220
0.0
230
1.0
 70
     8
 71
     3
 72
     8
 73
     4
 74
     0
 42
0.000000001
 43
0.00000001
 40
0.0
 40
0.0
 40
0.0
 40
0.0
 40
1.0
 40
1.0
 40
1.0
 40
1.0
 10
33.14323596820925
 20
0.8396782644513618
 30
0.0
 10
33.00894915073005
 20
0.9988018849864244
 30
0.0
 10
32.89240403524033
 20
1.150883649473401
 30
0.0
 10
32.80039515848586
 20
1.292364378577719
 30
0.0
  0
LINE
  5
B7
330
1F
100
AcDbEntity
  8
0
  6
Continuous
 62
     1
370
    15
100
AcDbLine
 10
32.80039515848587
 20
1.292364378577719
 30
0.0
 11
35.0
 21
0.000000000000008
 31
0.0
  0
LINE
  5
B8
330
1F
100
AcDbEntity
  8
0
  6
Continuous
 62
     1
370
    15
100
AcDbLine
 10
35.0
 20
0.000000000000008
 30
0.0
 11
35.0
 21
-0.8017288380889263
 31
0.0
  0
SPLINE
  5
B9
330
1F
100
AcDbEntity
  8
0
  6
Continuous
 62
     1
370
    15
100
AcDbSpline
210
0.0
220
0.0
230
1.0
 70
     8
 71
     3
 72
    10
 73
     6
 74
     0
 42
0.000000001
 43
0.00000001
 40
0.0
 40
0.0
 40
0.0
 40
0.0
 40
0.5000000000000001
 40
0.5000000000000001
 40
1.0
 40
1.0
 40
1.0
 40
1.0
 10
35.0
 20
-0.8017288380889265
 30
0.0
 10
34.67858102588694
 20
-0.5490379441564842
 30
0.0
 10
34.36253412375795
 20
-0.285982753211293
 30
0.0
 10
33.74145243235276
 20
0.2613732130053795
 30
0.0
 10
33.43352622596508
 20
0.5485583873863848
 30
0.0
 10
33.14323596820905
 20
0.8396782644515052
 30
0.0
  0
SPLINE
  5
BA
330
1F
100
AcDbEntity
  8
0
  6
Continuous
 62
     1
370
    15
100
AcDbSpline
210
0.0
220
0.0
230
1.0
 70
     8
 71
     3
 72
    20
 73
    16
 74
     0
 42
0.000000001
 43
0.00000001
 40
0.0
 40
0.0
 40
0.0
 40
0.0
 40
0.0703472534922742
 40
0.1481996955192566
 40
0.2246566315832375
 40
0.3011097642260049
 40
0.3775583660246136
 40
0.4540017130375622
 40
0.531989036554487
 40
0.6099649326772679
 40
0.6879509153460343
 40
0.7659495977692189
 40
0.8439588036900818
 40
0.9219763399550267
 40
1.0
 40
1.0
 40
1.0
 40
1.0
 10
28.64747183850082
 20
-2.248042393002624
 30
0.0
 10
28.21018870199763
 20
-2.306246604103876
 30
0.0
 10
27.28896968535762
 20
-2.428864701256617
 30
0.0
 10
25.89248607032243
 20
-2.388164017740669
 30
0.0
 10
24.45811924777137
 20
-2.180687728523717
 30
0.0
 10
23.03247150563389
 20
-1.807225319028349
 30
0.0
 10
21.60692176482002
 20
-1.299688573878498
 30
0.0
 10
20.17185593694997
 20
-0.690585508281707
 30
0.0
 10
18.72728132793378
 20
-0.0242448693242037
 30
0.0
 10
17.27317552176103
 20
0.6485823591957084
 30
0.0
 10
15.81895472218836
 20
1.270601672972889
 30
0.0
 10
14.36449761246661
 20
1.794687343876156
 30
0.0
 10
12.90981762325666
 20
2.175483478211156
 30
0.0
 10
11.45496262006571
 20
2.400243251123118
 30
0.0
 10
10.48500022862898
 20
2.392254815604094
 30
0.0
 10
9.999999999999872
 20
2.388260441092957
 30
0.0
  0
SPLINE
  5
BB
330
1F
100
AcDbEntity
  8
0
  6
Continuous
 62
   131
370
    15
100
AcDbSpline
210
0.0
220
0.0
230
1.0
 70
    24
 71
     3
 72
    10
 73
     6
 74
     0
 42
0.000000001
 43
0.00000001
 40
0.0
 40
0.0
 40
0.0
 40
0.0
 40
0.5
 40
0.5
 40
1.0
 40
1.0
 40
1.0
 40
1.0
 10
10.0
 20
2.388260441092963
 30
0.0
 10
10.0
 20
2.38044725354061
 30
0.0
 10
10.0
 20
2.270206641354031
 30
0.0
 10
10.0
 20
1.847151174229116
 30
0.0
 10
10.0
 20
1.536157315405277
 30
0.0
 10
10.0
 20
1.177972903738595
 30
0.0
  0
SPLINE
  5
BC
330
1F
100
AcDbEntity
  8
0
  6
Continuous
 62
     1
370
    15
100
AcDbSpline
210
0.0
220
0.0
230
1.0
 70
     8
 71
     3
 72
    12
 73
     8
 74
     0
 42
0.000000001
 43
0.00000001
 40
0.0
 40
0.0
 40
0.0
 40
0.0
 40
0.2101490596355014
 40
0.4203035782444672
 40
0.6304581355049055
 40
0.8406073110364743
 40
1.0
 40
1.0
 40
1.0
 40
1.0
 10
33.14323596820908
 20
0.8396782644514961
 30
0.0
 10
32.65927578510653
 20
1.042611946789378
 30
0.0
 10
31.69134284722589
 20
1.448484583007108
 30
0.0
 10
30.23942928567248
 20
1.929013720092882
 30
0.0
 10
28.78751656844373
 20
2.258651751521919
 30
0.0
 10
27.45250858834154
 20
2.420209004511957
 30
0.0
 10
26.60148287072716
 20
2.382880310200016
 30
0.0
 10
26.23441410114944
 20
2.366779506655045
 30
0.0
  0
SPLINE
  5
BD
330
1F
100
AcDbEntity
  8
0
  6
Continuous
 62
     1
370
    15
100
AcDbSpline
210
0.0
220
0.0
230
1.0
 70
     8
 71
     3
 72
     9
 73
     5
 74
     0
 42
0.000000001
 43
0.00000001
 40
0.0
 40
0.0
 40
0.0
 40
0.0
 40
0.3755004334878596
 40
1.0
 40
1.0
 40
1.0
 40
1.0
 10
12.3298527603395
 20
-2.233708320247459
 30
0.0
 10
12.03823498461946
 20
-2.282984710517698
 30
0.0
 10
11.26162396180033
 20
-2.414213294763344
 30
0.0
 10
10.4850008171668
 20
-2.398237387963863
 30
0.0
 10
9.999999999999876
 20
-2.388260441092948
 30
0.0
  0
SPLINE
  5
BE
330
1F
100
AcDbEntity
  8
0
  6
Continuous
 62
     1
370
    15
100
AcDbSpline
210
0.0
220
0.0
230
1.0
 70
    24
 71
     3
 72
    10
 73
     6
 74
     0
 42
0.000000001
 43
0.00000001
 40
0.0
 40
0.0
 40
0.0
 40
0.0
 40
0.5000000000000001
 40
0.5000000000000001
 40
1.0
 40
1.0
 40
1.0
 40
1.0
 10
35.0
 20
-2.36691679310464
 30
0.0
 10
35.00000000000001
 20
-2.185474167011407
 30
0.0
 10
35.0
 20
-1.956214451719398
 30
0.0
 10
35.0
 20
-1.423207677452032
 30
0.0
 10
35.00000000000001
 20
-1.119922329153922
 30
0.0
 10
35.00000000000001
 20
-0.8017288380890226
 30
0.0
  0
SPLINE
  5
BF
330
1F
100
AcDbEntity
  8
0
  6
Continuous
 62
     1
370
    15
100
AcDbSpline
210
0.0
220
0.0
230
1.0
 70
     8
 71
     3
 72
    10
 73
     6
 74
     0
 42
0.000000001
 43
0.00000001
 40
0.0
 40
0.0
 40
0.0
 40
0.0
 40
0.5
 40
0.5
 40
1.0
 40
1.0
 40
1.0
 40
1.0
 10
35.0
 20
2.100000000000007
 30
0.0
 10
34.62668070767046
 20
1.998682094032819
 30
0.0
 10
34.25615379955178
 20
1.88260404788301
 30
0.0
 10
33.52150500180385
 20
1.616591951667597
 30
0.0
 10
33.15722935061072
 20
1.467297855402131
 30
0.0
 10
32.80039515848424
 20
1.292364378579015
 30
0.0
  0
SPLINE
  5
C0
330
1F
100
AcDbEntity
  8
0
  6
Continuous
 62
   131
370
    15
100
AcDbSpline
210
0.0
220
0.0
230
1.0
 70
    24
 71
     3
 72
    14
 73
    10
 74
     0
 42
0.000000001
 43
0.00000001
 40
0.0
 40
0.0
 40
0.0
 40
0.0
 40
0.2499999999999999
 40
0.2499999999999999
 40
0.4999999999999999
 40
0.4999999999999999
 40
0.7499999999999999
 40
0.7499999999999999
 40
1.0
 40
1.0
 40
1.0
 40
1.0
 10
10.0
 20
0.2074544833366002
 30
0.0
 10
10.0
 20
-0.0565258284492397
 30
0.0
 10
10.0
 20
-0.3252261769841786
 30
0.0
 10
10.0
 20
-0.8462974542325168
 30
0.0
 10
10.0
 20
-1.09838331657319
 30
0.0
 10
10.0
 20
-1.559716695987059
 30
0.0
 10
10.0
 20
-1.768718395348176
 30
0.0
 10
10.0
 20
-2.125625090872937
 30
0.0
 10
10.0
 20
-2.273475598676796
 30
0.0
 10
10.0
 20
-2.388260441092953
 30
0.0
  0
LINE
  5
C1
330
1F
100
AcDbEntity
  8
0
  6
Continuous
 62
     1
370
    15
100
AcDbLine
 10
35.0
 20
0.000000000000008
 30
0.0
 11
35.0
 21
2.100000000000007
 31
0.0
  0
LINE
  5
C2
330
1F
100
AcDbEntity
  8
0
  6
Continuous
 62
   131
370
    15
100
AcDbLine
 10
9.110031809542416
 20
1.671955255980067
 30
0.0
 11
9.110031809542416
 21
3.000000000000005
 31
0.0
  0
SPLINE
  5
C3
330
1F
100
AcDbEntity
  8
0
  6
Continuous
 62
   131
370
    15
100
AcDbSpline
210
0.0
220
0.0
230
1.0
 70
     8
 71
     3
 72
     8
 73
     4
 74
     0
 42
0.000000001
 43
0.00000001
 40
0.0
 40
0.0
 40
0.0
 40
0.0
 40
1.0
 40
1.0
 40
1.0
 40
1.0
 10
9.999999999999929
 20
1.222964371741434
 30
0.0
 10
9.702419547659025
 20
1.379480840146088
 30
0.0
 10
9.404532917932972
 20
1.530023977091735
 30
0.0
 10
9.110065026856045
 20
1.671848501625794
 30
0.0
  0
SPLINE
  5
C4
330
1F
100
AcDbEntity
  8
0
  6
Continuous
 62
   131
370
    15
100
AcDbSpline
210
0.0
220
0.0
230
1.0
 70
     8
 71
     3
 72
     8
 73
     4
 74
     0
 42
0.000000001
 43
0.00000001
 40
0.0
 40
0.0
 40
0.0
 40
0.0
 40
1.0
 40
1.0
 40
1.0
 40
1.0
 10
9.999999999999929
 20
0.4188261135844009
 30
0.0
 10
9.70240835819077
 20
0.5885592870402246
 30
0.0
 10
9.404511121951622
 20
0.756280779891038
 30
0.0
 10
9.110031809542416
 20
0.918883948443164
 30
0.0
  0
LINE
  5
C5
330
1F
100
AcDbEntity
  8
0
  6
Continuous
 62
   131
370
    15
100
AcDbLine
 10
9.110031809542416
 20
-2.999999999999996
 30
0.0
 11
9.110031809542416
 21
0.9196373779587406
 31
0.0
  0
LINE
  5
C6
330
1F
100
AcDbEntity
  8
0
  6
Continuous
 62
   131
370
    15
100
AcDbLine
 10
-39.44999999999999
 20
2.999999999999999
 30
0.0
 11
-39.44999999999999
 21
-2.999999999999999
 31
0.0
  0
LINE
  5
C7
330
1F
100
AcDbEntity
  8
0
  6
Continuous
 62
   131
370
    15
100
AcDbLine
 10
-40.0
 20
2.449999999999999
 30
0.0
 11
-40.0
 21
-2.449999999999996
 31
0.0
  0
SPLINE
  5
C8
330
1F
100
AcDbEntity
  8
0
  6
Continuous
 62
   131
370
    15
100
AcDbSpline
210
0.0
220
0.0
230
1.0
 70
    24
 71
     3
 72
    10
 73
     6
 74
     0
 42
0.000000001
 43
0.00000001
 40
0.0
 40
0.0
 40
0.0
 40
0.0
 40
0.1891847377965723
 40
0.7443933841406404
 40
1.0
 40
1.0
 40
1.0
 40
1.0
 10
9.999999999999963
 20
0.4209365054612459
 30
0.0
 10
9.999999999999948
 20
0.422943394670193
 30
0.0
 10
9.9999999999999
 20
0.4308399885880904
 30
0.0
 10
10.00000000000001
 20
0.3463627976125426
 30
0.0
 10
10.00000000000001
 20
0.2407488904166446
 30
0.0
 10
10.00000000000001
 20
0.2074544833371995
 30
0.0
  0
SPLINE
  5
C9
330
1F
100
AcDbEntity
  8
0
  6
Continuous
 62
   131
370
    15
100
AcDbSpline
210
0.0
220
0.0
230
1.0
 70
     8
 71
     3
 72
     8
 73
     4
 74
     0
 42
0.000000001
 43
0.00000001
 40
0.0
 40
0.0
 40
0.0
 40
0.0
 40
1.0
 40
1.0
 40
1.0
 40
1.0
 10
9.999999999999838
 20
0.2074544833366674
 30
0.0
 10
9.702411057186884
 20
0.3268547764236454
 30
0.0
 10
9.404516379332971
 20
0.4452690724667198
 30
0.0
 10
9.110039821848336
 20
0.5604995020876313
 30
0.0
  0
LINE
  5
CA
330
1F
100
AcDbEntity
  8
0
  6
Continuous
 62
   131
370
    15
100
AcDbLine
 10
10.0
 20
2.388260441092963
 30
0.0
 11
9.850366303695896
 21
2.378168817408892
 31
0.0
  0
SPLINE
  5
CB
330
1F
100
AcDbEntity
  8
0
  6
Continuous
 62
   131
370
    15
100
AcDbSpline
210
0.0
220
0.0
230
1.0
 70
    24
 71
     3
 72
    10
 73
     6
 74
     0
 42
0.000000001
 43
0.00000001
 40
0.0
 40
0.0
 40
0.0
 40
0.0
 40
0.5
 40
0.5
 40
1.0
 40
1.0
 40
1.0
 40
1.0
 10
10.0
 20
2.388260441092963
 30
0.0
 10
10.0
 20
2.38044725354061
 30
0.0
 10
10.0
 20
2.270206641354031
 30
0.0
 10
10.0
 20
1.847151174229118
 30
0.0
 10
10.0
 20
1.536157315405278
 30
0.0
 10
10.0
 20
1.177972903738597
 30
0.0
  0
SPLINE
  5
CC
330
1F
100
AcDbEntity
  8
0
  6
Continuous
 62
   131
370
    15
100
AcDbSpline
210
0.0
220
0.0
230
1.0
 70
     8
 71
     3
 72
     8
 73
     4
 74
     0
 42
0.000000001
 43
0.00000001
 40
0.0
 40
0.0
 40
0.0
 40
0.0
 40
1.0
 40
1.0
 40
1.0
 40
1.0
 10
10.0
 20
-2.388260441092954
 30
0.0
 10
9.702412448180093
 20
-2.374713900690908
 30
0.0
 10
9.404519088851249
 20
-2.349407651435721
 30
0.0
 10
9.110043951183508
 20
-2.312935654046917
 30
0.0
  0
SPLINE
  5
CD
330
1F
100
AcDbEntity
  8
0
  6
Continuous
 62
   131
370
    15
100
AcDbSpline
210
0.0
220
0.0
230
1.0
 70
    24
 71
     3
 72
    14
 73
    10
 74
     0
 42
0.000000001
 43
0.00000001
 40
0.0
 40
0.0
 40
0.0
 40
0.0
 40
0.2499999999999999
 40
0.2499999999999999
 40
0.4999999999999999
 40
0.4999999999999999
 40
0.7499999999999999
 40
0.7499999999999999
 40
1.0
 40
1.0
 40
1.0
 40
1.0
 10
10.0
 20
0.2074544833366002
 30
0.0
 10
10.0
 20
-0.0565258284492397
 30
0.0
 10
10.0
 20
-0.3252261769841786
 30
0.0
 10
10.0
 20
-0.8462974542325168
 30
0.0
 10
10.0
 20
-1.09838331657319
 30
0.0
 10
10.0
 20
-1.559716695987059
 30
0.0
 10
10.0
 20
-1.768718395348176
 30
0.0
 10
10.0
 20
-2.125625090872937
 30
0.0
 10
10.0
 20
-2.273475598676796
 30
0.0
 10
10.0
 20
-2.388260441092953
 30
0.0
  0
LINE
  5
CE
330
1F
100
AcDbEntity
  8
중심선
 62
     1
100
AcDbLine
 10
-42.99999999999999
 20
0.0
 30
0.0
 11
38.0
 21
0.0000000000000083
 31
0.0
  0
CIRCLE
  5
CF
330
1F
100
AcDbEntity
  8
외형선
100
AcDbCircle
 10
0.0000000000000104
 20
0.0
 30
0.0
 40
3.000000000000005
  0
INSERT
  5
D0
330
1F
100
AcDbEntity
  8
0
  6
Continuous
 62
     7
100
AcDbBlockReference
 66
     1
  2
블럭10
 10
-22.93944368806589
 20
-52.04609937292004
 30
0.0
  0
ATTRIB
  5
D1
330
D0
100
AcDbEntity
  8
FORMAT
 62
     2
100
AcDbText
 10
-39.05870472750145
 20
-49.97073246008785
 30
0.0
 40
4.233333333333333
  1
SEME7006025E [ 2 FLUTE ]
 41
0.75
  7
SLDTEXTSTYLE0
 11
-39.05870472750145
 21
-52.08739912675452
 31
0.0
100
AcDbAttribute
  2
AUTOATTR0
 70
     0
 74
     1
  0
SEQEND
  5
D2
330
D0
100
AcDbEntity
  8
0
  6
Continuous
 62
     7
  0
HATCH
  5
D3
330
1F
100
AcDbEntity
  8
중심선
100
AcDbHatch
 10
0.0
 20
0.0
 30
0.0
210
0.0
220
0.0
230
1.0
  2
SOLID
 70
     1
 71
     0
 91
        1
 92
        0
 93
        4
 72
     1
 10
-17.22453438368504
 20
-35.7989250712761
 11
-20.67080962752232
 21
-35.7989250712761
 72
     1
 10
-20.67080962752232
 20
-35.7989250712761
 11
-22.79903948672635
 21
-38.3352506518487
 72
     1
 10
-22.79903948672635
 20
-38.3352506518487
 11
-19.35273115777591
 21
-38.33521122254621
 72
     1
 10
-19.35273115777591
 20
-38.33521122254621
 11
-17.22453438368504
 21
-35.7989250712761
 97
        0
 75
     0
 76
     1
 98
        1
 10
0.0
 20
0.0
  0
HATCH
  5
D4
330
1F
100
AcDbEntity
  8
중심선
100
AcDbHatch
 10
0.0
 20
0.0
 30
0.0
210
0.0
220
0.0
230
1.0
  2
SOLID
 70
     1
 71
     0
 91
        1
 92
        0
 93
        4
 72
     1
 10
-12.21177039264909
 20
-35.7989250712761
 11
-15.65804563648637
 21
-35.7989250712761
 72
     1
 10
-15.65804563648637
 20
-35.7989250712761
 11
-20.18918364484376
 21
-41.19892507127612
 72
     1
 10
-20.18918364484376
 20
-41.19892507127612
 11
-16.74290840100648
 21
-41.19892507127612
 72
     1
 10
-16.74290840100648
 20
-41.19892507127612
 11
-12.21177039264909
 21
-35.7989250712761
 97
        0
 75
     0
 76
     1
 98
        1
 10
0.0
 20
0.0
  0
HATCH
  5
D5
330
1F
100
AcDbEntity
  8
중심선
100
AcDbHatch
 10
0.0
 20
0.0
 30
0.0
210
0.0
220
0.0
230
1.0
  2
SOLID
 70
     1
 71
     0
 91
        1
 92
        0
 93
        4
 72
     1
 10
-7.199006401613195
 20
-35.79892507127613
 11
-10.64528164545031
 21
-35.7989250712761
 72
     1
 10
-10.64528164545031
 20
-35.7989250712761
 11
-17.69371854733956
 21
-44.19892507127612
 72
     1
 10
-17.69371854733956
 20
-44.19892507127612
 11
-14.24744330350228
 21
-44.19892507127612
 72
     1
 10
-14.24744330350228
 20
-44.19892507127612
 11
-7.199006401613195
 21
-35.79892507127613
 97
        0
 75
     0
 76
     1
 98
        1
 10
0.0
 20
0.0
  0
HATCH
  5
D6
330
1F
100
AcDbEntity
  8
중심선
100
AcDbHatch
 10
0.0
 20
0.0
 30
0.0
210
0.0
220
0.0
230
1.0
  2
SOLID
 70
     1
 71
     0
 91
        1
 92
        0
 93
        6
 72
     3
 10
-2.399115970600996
 20
-39.99892507132738
 11
3.960054785062284
 21
1.540850780301639E-10
 40
0.3939339440162633
 50
17.09539180608433
 51
320.0019657685079
 73
     0
 72
     1
 10
-0.7161163149004002
 20
-38.58681907591441
 11
1.589185558800638
 21
-36.65249236586649
 72
     3
 10
-2.399115970653842
 20
-39.99892507127625
 11
6.600054785286829
 21
-1.249000902703301E-13
 40
0.6363583540795982
 50
39.99873849337408
 51
368.4976242363725
 73
     1
 72
     1
 10
4.026216521246767
 20
-39.03892507120613
 11
-3.71904866381792
 21
-39.0389250712061
 72
     1
 10
-3.71904866381792
 20
-39.0389250712061
 11
-3.719073708263854
 21
-40.95892507120602
 72
     1
 10
-3.719073708263854
 20
-40.95892507120602
 11
0.7223060612081831
 21
-40.95892507120599
 97
        0
 75
     0
 76
     1
 98
        1
 10
0.0
 20
0.0
  0
DIMENSION
  5
D7
330
1F
100
AcDbEntity
  8
치수문자_일반주서
100
AcDbDimension
  2
_D
 10
45.023963772435
 20
3.000000000000131
 30
0.0
 11
45.02396377243496
 21
12.66650000000013
 31
0.0
 70
   160
  1
%%c<>
 71
     2
 42
5.999999999999995
 52
-270.0
  3
SLDDIMSTYLE0
100
AcDbAlignedDimension
 13
35.00000000000001
 23
-2.999999999999901
 33
0.0
 14
35.0
 24
3.000000000000095
 34
0.0
 50
90.0000000000002
100
AcDbRotatedDimension
  0
DIMENSION
  5
E5
330
1F
100
AcDbEntity
  8
치수문자_일반주서
100
AcDbDimension
  2
_D_1
 10
35.0
 20
24.2384104402427
 30
0.0
 11
-2.499999999999991
 21
24.2384104402427
 31
0.0
 70
   160
  1
<>
 71
     2
 42
75.0
  3
SLDDIMSTYLE1
100
AcDbAlignedDimension
 13
-40.0
 23
2.449999999999999
 33
0.0
 14
35.0
 24
3.000000000000095
 34
0.0
 50
-0.0000000000000054
100
AcDbRotatedDimension
  0
DIMENSION
  5
F0
330
1F
100
AcDbEntity
  8
치수문자_일반주서
100
AcDbDimension
  2
_D_2
 10
35.0
 20
15.73525824726048
 30
0.0
 11
22.5
 21
15.73525824726048
 31
0.0
 70
   160
  1
<>
 71
     2
 42
25.0
  3
SLDDIMSTYLE1
100
AcDbAlignedDimension
 13
10.0
 23
2.388260441092963
 33
0.0
 14
35.0
 24
3.000000000000095
 34
0.0
 50
0.0000000000000041
100
AcDbRotatedDimension
  0
DIMENSION
  5
FA
330
1F
100
AcDbEntity
  8
치수문자_일반주서
100
AcDbDimension
  2
_D_3
 10
-48.8220754298441
 20
-3.000000000000032
 30
0.0
 11
-48.82207542984415
 21
12.66649999999996
 31
0.0
 70
   160
  1
%%c<>
 71
     2
 42
5.999999999999995
 52
-270.0
  3
SLDDIMSTYLE0
100
AcDbAlignedDimension
 13
-39.44999999999999
 23
2.999999999999999
 33
0.0
 14
-39.44999999999999
 24
-2.999999999999996
 34
0.0
 50
90.0000000000002
100
AcDbRotatedDimension
  0
INSERT
  5
10D
330
1F
100
AcDbEntity
  8
외형선
100
AcDbBlockReference
  2
SW_DOWELSYMBOL_0
 10
0.0000000000000104
 20
0.0
 30
0.0
  0
ENDSEC
  0
SECTION
  2
OBJECTS
  0
DICTIONARY
  5
C
330
0
100
AcDbDictionary
281
     1
  3
ACAD_GROUP
350
D
  3
ACAD_IMAGE_VARS
350
131
  3
ACAD_LAYOUT
350
1A
  3
ACAD_MLINESTYLE
350
17
  3
ACAD_PLOTSETTINGS
350
19
  3
ACAD_PLOTSTYLENAME
350
E
  3
ACAD_SCALELIST
350
47
  3
APPDATA
350
12F
  3
DWGPROPS
350
141
  0
DICTIONARY
  5
D
102
{ACAD_REACTORS
330
C
102
}
330
C
100
AcDbDictionary
281
     1
  0
RASTERVARIABLES
  5
131
102
{ACAD_REACTORS
330
C
102
}
330
C
100
AcDbRasterVariables
 90
        0
 70
     1
 71
     1
 72
     1
  0
DICTIONARY
  5
1A
102
{ACAD_REACTORS
330
C
102
}
330
C
100
AcDbDictionary
281
     1
  3
Layout1
350
1E
  3
Layout2
350
26
  3
Model
350
22
  0
DICTIONARY
  5
17
102
{ACAD_REACTORS
330
C
102
}
330
C
100
AcDbDictionary
281
     1
  3
Standard
350
18
  0
DICTIONARY
  5
19
102
{ACAD_REACTORS
330
C
102
}
330
C
100
AcDbDictionary
281
     1
  0
ACDBDICTIONARYWDFLT
  5
E
102
{ACAD_REACTORS
330
C
102
}
330
C
100
AcDbDictionary
281
     1
  3
Normal
350
F
100
AcDbDictionaryWithDefault
340
F
  0
DICTIONARY
  5
47
102
{ACAD_REACTORS
330
C
102
}
330
C
100
AcDbDictionary
281
     1
  3
A0
350
48
  3
A1
350
49
  3
A2
350
4A
  3
A3
350
4B
  3
A4
350
4C
  3
A5
350
4D
  3
A6
350
4E
  3
A7
350
4F
  3
A8
350
50
  3
A9
350
51
  3
B0
350
52
  3
B1
350
53
  3
B2
350
54
  3
B3
350
55
  3
B4
350
56
  3
B5
350
57
  3
B6
350
58
  3
B7
350
59
  3
B8
350
5A
  3
B9
350
5B
  3
C0
350
5C
  3
C1
350
5D
  3
C2
350
5E
  3
C3
350
5F
  3
C4
350
60
  3
C5
350
61
  3
C6
350
62
  3
C7
350
63
  3
C8
350
64
  3
C9
350
65
  3
D0
350
66
  3
D1
350
67
  3
D2
350
68
  0
DICTIONARY
  5
12F
102
{ACAD_REACTORS
330
C
102
}
330
C
100
AcDbDictionary
281
     1
  0
XRECORD
  5
141
102
{ACAD_REACTORS
330
C
102
}
330
C
100
AcDbXrecord
280
     1
  1
DWGPROPS COOKIE
  2

  3

  4

  6

  7

  8
12014102
  9

300
=
301
=
302
=
303
=
304
=
305
=
306
=
307
=
308
=
309
=
 40
0.0
 41
2458262.166542187
 42
2458266.027071215
  1

 90
        0
  0
LAYOUT
  5
1E
102
{ACAD_REACTORS
330
1A
102
}
330
1A
100
AcDbPlotSettings
  1

  2
none_device
  4

  6

 40
0.0
 41
0.0
 42
0.0
 43
0.0
 44
0.0
 45
0.0
 46
0.0
 47
0.0
 48
0.0
 49
0.0
140
0.0
141
0.0
142
1.0
143
1.0
 70
   688
 72
     1
 73
     0
 74
     5
  7

 75
    16
147
1.0
148
0.0
149
0.0
100
AcDbLayout
  1
Layout1
 70
     1
 71
     1
 10
0.0
 20
0.0
 11
420.0
 21
297.0
 12
0.0
 22
0.0
 32
0.0
 14
1.000000000000000E+20
 24
1.000000000000000E+20
 34
1.000000000000000E+20
 15
-1.000000000000000E+20
 25
-1.000000000000000E+20
 35
-1.000000000000000E+20
146
0.0
 13
0.0
 23
0.0
 33
0.0
 16
1.0
 26
0.0
 36
0.0
 17
0.0
 27
1.0
 37
0.0
 76
     0
330
1B
  0
LAYOUT
  5
26
102
{ACAD_REACTORS
330
1A
102
}
330
1A
100
AcDbPlotSettings
  1

  2
none_device
  4

  6

 40
0.0
 41
0.0
 42
0.0
 43
0.0
 44
0.0
 45
0.0
 46
0.0
 47
0.0
 48
0.0
 49
0.0
140
0.0
141
0.0
142
1.0
143
1.0
 70
   688
 72
     1
 73
     0
 74
     5
  7

 75
    16
147
1.0
148
0.0
149
0.0
100
AcDbLayout
  1
Layout2
 70
     1
 71
     2
 10
0.0
 20
0.0
 11
0.0
 21
0.0
 12
0.0
 22
0.0
 32
0.0
 14
0.0
 24
0.0
 34
0.0
 15
0.0
 25
0.0
 35
0.0
146
0.0
 13
0.0
 23
0.0
 33
0.0
 16
1.0
 26
0.0
 36
0.0
 17
0.0
 27
1.0
 37
0.0
 76
     0
330
23
  0
LAYOUT
  5
22
102
{ACAD_REACTORS
330
1A
102
}
330
1A
100
AcDbPlotSettings
  1

  2
none_device
  4
ANSI_A_(11.00_x_8.50_Inches)
  6

 40
6.35
 41
19.05
 42
6.35000508
 43
19.05000254
 44
279.4
 45
215.9
 46
145.7655615897099
 47
118.4437967320755
 48
0.0
 49
0.0
140
0.0
141
0.0
142
0.1058991149402295
143
1.0
 70
  1696
 72
     0
 73
     0
 74
     0
  7

 75
     0
147
0.0235690232323232
148
0.0
149
0.0
100
AcDbLayout
  1
Model
 70
     1
 71
     0
 10
0.0
 20
0.0
 11
420.0
 21
297.0
 12
0.0
 22
0.0
 32
0.0
 14
-53.19707542984415
 24
-49.97073246008785
 34
0.0
 15
45.57429710576836
 25
28.6134104402427
 35
0.0
146
0.0
 13
0.0
 23
0.0
 33
0.0
 16
1.0
 26
0.0
 36
0.0
 17
0.0
 27
1.0
 37
0.0
 76
     0
330
1F
331
29
  0
MLINESTYLE
  5
18
102
{ACAD_REACTORS
330
17
102
}
330
17
100
AcDbMlineStyle
  2
Standard
 70
     0
  3

 62
   256
 51
90.0
 52
90.0
 71
     2
 49
0.5
 62
   256
  6
BYLAYER
 49
-0.5
 62
   256
  6
BYLAYER
  0
ACDBPLACEHOLDER
  5
F
102
{ACAD_REACTORS
330
E
102
}
330
E
  0
SCALE
  5
48
102
{ACAD_REACTORS
330
47
102
}
330
47
100
AcDbScale
 70
     0
300
1:1
140
1.0
141
1.0
290
     1
  0
SCALE
  5
49
102
{ACAD_REACTORS
330
47
102
}
330
47
100
AcDbScale
 70
     0
300
1:2
140
1.0
141
2.0
290
     0
  0
SCALE
  5
4A
102
{ACAD_REACTORS
330
47
102
}
330
47
100
AcDbScale
 70
     0
300
1:4
140
1.0
141
4.0
290
     0
  0
SCALE
  5
4B
102
{ACAD_REACTORS
330
47
102
}
330
47
100
AcDbScale
 70
     0
300
1:5
140
1.0
141
5.0
290
     0
  0
SCALE
  5
4C
102
{ACAD_REACTORS
330
47
102
}
330
47
100
AcDbScale
 70
     0
300
1:8
140
1.0
141
8.0
290
     0
  0
SCALE
  5
4D
102
{ACAD_REACTORS
330
47
102
}
330
47
100
AcDbScale
 70
     0
300
1:10
140
1.0
141
10.0
290
     0
  0
SCALE
  5
4E
102
{ACAD_REACTORS
330
47
102
}
330
47
100
AcDbScale
 70
     0
300
1:16
140
1.0
141
16.0
290
     0
  0
SCALE
  5
4F
102
{ACAD_REACTORS
330
47
102
}
330
47
100
AcDbScale
 70
     0
300
1:20
140
1.0
141
20.0
290
     0
  0
SCALE
  5
50
102
{ACAD_REACTORS
330
47
102
}
330
47
100
AcDbScale
 70
     0
300
1:30
140
1.0
141
30.0
290
     0
  0
SCALE
  5
51
102
{ACAD_REACTORS
330
47
102
}
330
47
100
AcDbScale
 70
     0
300
1:40
140
1.0
141
40.0
290
     0
  0
SCALE
  5
52
102
{ACAD_REACTORS
330
47
102
}
330
47
100
AcDbScale
 70
     0
300
1:50
140
1.0
141
50.0
290
     0
  0
SCALE
  5
53
102
{ACAD_REACTORS
330
47
102
}
330
47
100
AcDbScale
 70
     0
300
1:100
140
1.0
141
100.0
290
     0
  0
SCALE
  5
54
102
{ACAD_REACTORS
330
47
102
}
330
47
100
AcDbScale
 70
     0
300
2:1
140
2.0
141
1.0
290
     0
  0
SCALE
  5
55
102
{ACAD_REACTORS
330
47
102
}
330
47
100
AcDbScale
 70
     0
300
4:1
140
4.0
141
1.0
290
     0
  0
SCALE
  5
56
102
{ACAD_REACTORS
330
47
102
}
330
47
100
AcDbScale
 70
     0
300
8:1
140
8.0
141
1.0
290
     0
  0
SCALE
  5
57
102
{ACAD_REACTORS
330
47
102
}
330
47
100
AcDbScale
 70
     0
300
10:1
140
10.0
141
1.0
290
     0
  0
SCALE
  5
58
102
{ACAD_REACTORS
330
47
102
}
330
47
100
AcDbScale
 70
     0
300
100:1
140
100.0
141
1.0
290
     0
  0
SCALE
  5
59
102
{ACAD_REACTORS
330
47
102
}
330
47
100
AcDbScale
 70
     0
300
1/128" = 1'-0"
140
0.0078125
141
12.0
290
     0
  0
SCALE
  5
5A
102
{ACAD_REACTORS
330
47
102
}
330
47
100
AcDbScale
 70
     0
300
1/64" = 1'-0"
140
0.015625
141
12.0
290
     0
  0
SCALE
  5
5B
102
{ACAD_REACTORS
330
47
102
}
330
47
100
AcDbScale
 70
     0
300
1/32" = 1'-0"
140
0.03125
141
12.0
290
     0
  0
SCALE
  5
5C
102
{ACAD_REACTORS
330
47
102
}
330
47
100
AcDbScale
 70
     0
300
1/16" = 1'-0"
140
0.0625
141
12.0
290
     0
  0
SCALE
  5
5D
102
{ACAD_REACTORS
330
47
102
}
330
47
100
AcDbScale
 70
     0
300
3/32" = 1'-0"
140
0.09375
141
12.0
290
     0
  0
SCALE
  5
5E
102
{ACAD_REACTORS
330
47
102
}
330
47
100
AcDbScale
 70
     0
300
1/8" = 1'-0"
140
0.125
141
12.0
290
     0
  0
SCALE
  5
5F
102
{ACAD_REACTORS
330
47
102
}
330
47
100
AcDbScale
 70
     0
300
3/16" = 1'-0"
140
0.1875
141
12.0
290
     0
  0
SCALE
  5
60
102
{ACAD_REACTORS
330
47
102
}
330
47
100
AcDbScale
 70
     0
300
1/4" = 1'-0"
140
0.25
141
12.0
290
     0
  0
SCALE
  5
61
102
{ACAD_REACTORS
330
47
102
}
330
47
100
AcDbScale
 70
     0
300
3/8" = 1'-0"
140
0.375
141
12.0
290
     0
  0
SCALE
  5
62
102
{ACAD_REACTORS
330
47
102
}
330
47
100
AcDbScale
 70
     0
300
1/2" = 1'-0"
140
0.5
141
12.0
290
     0
  0
SCALE
  5
63
102
{ACAD_REACTORS
330
47
102
}
330
47
100
AcDbScale
 70
     0
300
3/4" = 1'-0"
140
0.75
141
12.0
290
     0
  0
SCALE
  5
64
102
{ACAD_REACTORS
330
47
102
}
330
47
100
AcDbScale
 70
     0
300
1" = 1'-0"
140
1.0
141
12.0
290
     0
  0
SCALE
  5
65
102
{ACAD_REACTORS
330
47
102
}
330
47
100
AcDbScale
 70
     0
300
1-1/2" = 1'-0"
140
1.5
141
12.0
290
     0
  0
SCALE
  5
66
102
{ACAD_REACTORS
330
47
102
}
330
47
100
AcDbScale
 70
     0
300
3" = 1'-0"
140
3.0
141
12.0
290
     0
  0
SCALE
  5
67
102
{ACAD_REACTORS
330
47
102
}
330
47
100
AcDbScale
 70
     0
300
6" = 1'-0"
140
6.0
141
12.0
290
     0
  0
SCALE
  5
68
102
{ACAD_REACTORS
330
47
102
}
330
47
100
AcDbScale
 70
     0
300
1'-0" = 1'-0"
140
12.0
141
12.0
290
     0
  0
ENDSEC
  0
EOF
