  0
SECTION
  2
HEADER
  9
$ACADVER
  1
AC1015
  9
$ACADMAINTVER
 70
     6
  9
$DWGCODEPAGE
  3
ANSI_949
  9
$INSBASE
 10
0.0
 20
0.0
 30
0.0
  9
$EXTMIN
 10
-53.34530465437919
 20
-49.97073246008785
 30
0.0
  9
$EXTMAX
 10
40.08841227153836
 20
28.61341044024269
 30
0.0
  9
$LIMMIN
 10
0.0
 20
0.0
  9
$LIMMAX
 10
420.0
 20
297.0
  9
$ORTHOMODE
 70
     0
  9
$REGENMODE
 70
     1
  9
$FILLMODE
 70
     1
  9
$QTEXTMODE
 70
     0
  9
$MIRRTEXT
 70
     1
  9
$LTSCALE
 40
1.0
  9
$ATTMODE
 70
     1
  9
$TEXTSIZE
 40
3.5
  9
$TRACEWID
 40
1.0
  9
$TEXTSTYLE
  7
Standard
  9
$CLAYER
  8
0
  9
$CELTYPE
  6
ByLayer
  9
$CECOLOR
 62
   256
  9
$CELTSCALE
 40
1.0
  9
$DISPSILH
 70
     0
  9
$DIMSCALE
 40
1.0
  9
$DIMASZ
 40
3.302
  9
$DIMEXO
 40
1.0
  9
$DIMDLI
 40
3.75
  9
$DIMRND
 40
0.0
  9
$DIMDLE
 40
0.0
  9
$DIMEXE
 40
1.0
  9
$DIMTP
 40
0.0
  9
$DIMTM
 40
0.0
  9
$DIMTXT
 40
3.5
  9
$DIMCEN
 40
2.5
  9
$DIMTSZ
 40
0.0
  9
$DIMTOL
 70
     0
  9
$DIMLIM
 70
     0
  9
$DIMTIH
 70
     1
  9
$DIMTOH
 70
     1
  9
$DIMSE1
 70
     0
  9
$DIMSE2
 70
     0
  9
$DIMTAD
 70
     1
  9
$DIMZIN
 70
     0
  9
$DIMBLK
  1

  9
$DIMASO
 70
     1
  9
$DIMSHO
 70
     1
  9
$DIMPOST
  1

  9
$DIMAPOST
  1

  9
$DIMALT
 70
     0
  9
$DIMALTD
 70
     3
  9
$DIMALTF
 40
0.0393700787401575
  9
$DIMLFAC
 40
1.0
  9
$DIMTOFL
 70
     1
  9
$DIMTVP
 40
0.0
  9
$DIMTIX
 70
     0
  9
$DIMSOXD
 70
     0
  9
$DIMSAH
 70
     0
  9
$DIMBLK1
  1

  9
$DIMBLK2
  1

  9
$DIMSTYLE
  2
ISO-25
  9
$DIMCLRD
 70
     0
  9
$DIMCLRE
 70
     0
  9
$DIMCLRT
 70
     0
  9
$DIMTFAC
 40
1.0
  9
$DIMGAP
 40
1.524
  9
$DIMJUST
 70
     0
  9
$DIMSD1
 70
     0
  9
$DIMSD2
 70
     0
  9
$DIMTOLJ
 70
     0
  9
$DIMTZIN
 70
     0
  9
$DIMALTZ
 70
     0
  9
$DIMALTTZ
 70
     0
  9
$DIMUPT
 70
     0
  9
$DIMDEC
 70
     2
  9
$DIMTDEC
 70
     2
  9
$DIMALTU
 70
     2
  9
$DIMALTTD
 70
     3
  9
$DIMTXSTY
  7
Standard
  9
$DIMAUNIT
 70
     0
  9
$DIMADEC
 70
     2
  9
$DIMALTRND
 40
0.0
  9
$DIMAZIN
 70
     0
  9
$DIMDSEP
 70
    44
  9
$DIMATFIT
 70
     3
  9
$DIMFRAC
 70
     0
  9
$DIMLDRBLK
  1

  9
$DIMLUNIT
 70
     2
  9
$DIMLWD
 70
    -2
  9
$DIMLWE
 70
    -2
  9
$DIMTMOVE
 70
     0
  9
$LUNITS
 70
     2
  9
$LUPREC
 70
     2
  9
$SKETCHINC
 40
1.0
  9
$FILLETRAD
 40
10.0
  9
$AUNITS
 70
     0
  9
$AUPREC
 70
     2
  9
$MENU
  1
.
  9
$ELEVATION
 40
0.0
  9
$PELEVATION
 40
0.0
  9
$THICKNESS
 40
0.0
  9
$LIMCHECK
 70
     0
  9
$CHAMFERA
 40
0.0
  9
$CHAMFERB
 40
0.0
  9
$CHAMFERC
 40
0.0
  9
$CHAMFERD
 40
0.0
  9
$SKPOLY
 70
     0
  9
$TDCREATE
 40
2458262.540040324
  9
$TDUCREATE
 40
2458262.165040324
  9
$TDUPDATE
 40
2458266.389270671
  9
$TDUUPDATE
 40
2458266.014270671
  9
$TDINDWG
 40
0.0017817824
  9
$TDUSRTIMER
 40
2458266.012488912
  9
$USRTIMER
 70
     1
  9
$ANGBASE
 50
0.0
  9
$ANGDIR
 70
     0
  9
$PDMODE
 70
     0
  9
$PDSIZE
 40
-1.0
  9
$PLINEWID
 40
0.0
  9
$SPLFRAME
 70
     0
  9
$SPLINETYPE
 70
     6
  9
$SPLINESEGS
 70
     8
  9
$HANDSEED
  5
14A
  9
$SURFTAB1
 70
     6
  9
$SURFTAB2
 70
     6
  9
$SURFTYPE
 70
     6
  9
$SURFU
 70
     6
  9
$SURFV
 70
     6
  9
$UCSBASE
  2

  9
$UCSNAME
  2

  9
$UCSORG
 10
0.0
 20
0.0
 30
0.0
  9
$UCSXDIR
 10
1.0
 20
0.0
 30
0.0
  9
$UCSYDIR
 10
0.0
 20
1.0
 30
0.0
  9
$UCSORTHOREF
  2

  9
$UCSORTHOVIEW
 70
     0
  9
$UCSORGTOP
 10
0.0
 20
0.0
 30
0.0
  9
$UCSORGBOTTOM
 10
0.0
 20
0.0
 30
0.0
  9
$UCSORGLEFT
 10
0.0
 20
0.0
 30
0.0
  9
$UCSORGRIGHT
 10
0.0
 20
0.0
 30
0.0
  9
$UCSORGFRONT
 10
0.0
 20
0.0
 30
0.0
  9
$UCSORGBACK
 10
0.0
 20
0.0
 30
0.0
  9
$PUCSBASE
  2

  9
$PUCSNAME
  2

  9
$PUCSORG
 10
0.0
 20
0.0
 30
0.0
  9
$PUCSXDIR
 10
1.0
 20
0.0
 30
0.0
  9
$PUCSYDIR
 10
0.0
 20
1.0
 30
0.0
  9
$PUCSORTHOREF
  2

  9
$PUCSORTHOVIEW
 70
     0
  9
$PUCSORGTOP
 10
0.0
 20
0.0
 30
0.0
  9
$PUCSORGBOTTOM
 10
0.0
 20
0.0
 30
0.0
  9
$PUCSORGLEFT
 10
0.0
 20
0.0
 30
0.0
  9
$PUCSORGRIGHT
 10
0.0
 20
0.0
 30
0.0
  9
$PUCSORGFRONT
 10
0.0
 20
0.0
 30
0.0
  9
$PUCSORGBACK
 10
0.0
 20
0.0
 30
0.0
  9
$USERI1
 70
     0
  9
$USERI2
 70
     0
  9
$USERI3
 70
     0
  9
$USERI4
 70
     0
  9
$USERI5
 70
     0
  9
$USERR1
 40
0.0
  9
$USERR2
 40
0.0
  9
$USERR3
 40
0.0
  9
$USERR4
 40
0.0
  9
$USERR5
 40
0.0
  9
$WORLDVIEW
 70
     1
  9
$SHADEDGE
 70
     3
  9
$SHADEDIF
 70
    70
  9
$TILEMODE
 70
     1
  9
$MAXACTVP
 70
    64
  9
$PINSBASE
 10
0.0
 20
0.0
 30
0.0
  9
$PLIMCHECK
 70
     0
  9
$PEXTMIN
 10
1.000000000000000E+20
 20
1.000000000000000E+20
 30
1.000000000000000E+20
  9
$PEXTMAX
 10
-1.000000000000000E+20
 20
-1.000000000000000E+20
 30
-1.000000000000000E+20
  9
$PLIMMIN
 10
0.0
 20
0.0
  9
$PLIMMAX
 10
0.0
 20
0.0
  9
$UNITMODE
 70
     0
  9
$VISRETAIN
 70
     1
  9
$PLINEGEN
 70
     0
  9
$PSLTSCALE
 70
     1
  9
$TREEDEPTH
 70
  3020
  9
$CMLSTYLE
  2
Standard
  9
$CMLJUST
 70
     0
  9
$CMLSCALE
 40
20.0
  9
$PROXYGRAPHICS
 70
     1
  9
$MEASUREMENT
 70
     1
  9
$CELWEIGHT
370
    -1
  9
$ENDCAPS
280
     0
  9
$JOINSTYLE
280
     0
  9
$LWDISPLAY
290
     1
  9
$INSUNITS
 70
     4
  9
$HYPERLINKBASE
  1

  9
$STYLESHEET
  1

  9
$XEDIT
290
     1
  9
$CEPSNTYPE
380
     0
  9
$PSTYLEMODE
290
     1
  9
$FINGERPRINTGUID
  2
{627A8231-A476-4AD0-B92E-1DCB0444CECA}
  9
$VERSIONGUID
  2
{FAEB1C32-E019-11D5-929B-00C0DF256EC4}
  9
$EXTNAMES
290
     1
  9
$PSVPSCALE
 40
0.0
  9
$OLESTARTUP
290
     0
  0
ENDSEC
  0
SECTION
  2
CLASSES
  0
CLASS
  1
ACDBDICTIONARYWDFLT
  2
AcDbDictionaryWithDefault
  3
ObjectDBX Classes
 90
        0
280
     0
281
     0
  0
CLASS
  1
VISUALSTYLE
  2
AcDbVisualStyle
  3
ObjectDBX Classes
 90
     4095
280
     0
281
     0
  0
CLASS
  1
MATERIAL
  2
AcDbMaterial
  3
ObjectDBX Classes
 90
     1153
280
     0
281
     0
  0
CLASS
  1
SCALE
  2
AcDbScale
  3
ObjectDBX Classes
 90
     1153
280
     0
281
     0
  0
CLASS
  1
SUN
  2
AcDbSun
  3
SCENEOE
 90
     1153
280
     0
281
     0
  0
CLASS
  1
ACDBPLACEHOLDER
  2
AcDbPlaceHolder
  3
ObjectDBX Classes
 90
        0
280
     0
281
     0
  0
CLASS
  1
LAYOUT
  2
AcDbLayout
  3
ObjectDBX Classes
 90
        0
280
     0
281
     0
  0
CLASS
  1
TABLESTYLE
  2
AcDbTableStyle
  3
ObjectDBX Classes
 90
     4095
280
     0
281
     0
  0
CLASS
  1
MLEADERSTYLE
  2
AcDbMLeaderStyle
  3
ACDB_MLEADERSTYLE_CLASS
 90
     4095
280
     0
281
     0
  0
CLASS
  1
RASTERVARIABLES
  2
AcDbRasterVariables
  3
ISM
 90
        0
280
     0
281
     0
  0
ENDSEC
  0
SECTION
  2
TABLES
  0
TABLE
  2
VPORT
  5
8
330
0
100
AcDbSymbolTable
 70
     1
  0
VPORT
  5
29
330
8
100
AcDbSymbolTableRecord
100
AcDbViewportTableRecord
  2
*Active
 70
     0
 10
0.0
 20
0.0
 11
1.0
 21
1.0
 12
-6.628446191420416
 22
-10.67866100992259
 13
0.0
 23
0.0
 14
10.0
 24
10.0
 15
10.0
 25
10.0
 16
0.0
 26
0.0
 36
1.0
 17
0.0
 27
0.0
 37
0.0
 40
82.69512425860245
 41
1.152454780361757
 42
50.0
 43
0.0
 44
0.0
 50
0.0
 51
0.0
 71
    16
 72
  2000
 73
     1
 74
     3
 75
     0
 76
     0
 77
     0
 78
     0
281
     0
 65
     1
110
0.0
120
0.0
130
0.0
111
1.0
121
0.0
131
0.0
112
0.0
122
1.0
132
0.0
 79
     0
146
0.0
  0
ENDTAB
  0
TABLE
  2
LTYPE
  5
5
330
0
100
AcDbSymbolTable
 70
     6
  0
LTYPE
  5
14
330
5
100
AcDbSymbolTableRecord
100
AcDbLinetypeTableRecord
  2
ByBlock
 70
     0
  3

 72
    65
 73
     0
 40
0.0
  0
LTYPE
  5
15
330
5
100
AcDbSymbolTableRecord
100
AcDbLinetypeTableRecord
  2
ByLayer
 70
     0
  3

 72
    65
 73
     0
 40
0.0
  0
LTYPE
  5
16
330
5
100
AcDbSymbolTableRecord
100
AcDbLinetypeTableRecord
  2
Continuous
 70
     0
  3
Solid line
 72
    65
 73
     0
 40
0.0
  0
LTYPE
  5
6A
330
5
100
AcDbSymbolTableRecord
100
AcDbLinetypeTableRecord
  2
HIDDEN
 70
     0
  3
Hidden __ __ __ __ __ __ __ __ __ __ __ __ __ __
 72
    65
 73
     2
 40
1.905
 49
1.27
 74
     0
 49
-0.635
 74
     0
  0
LTYPE
  5
6B
330
5
100
AcDbSymbolTableRecord
100
AcDbLinetypeTableRecord
  2
PHANTOM
 70
     0
  3
Phantom ______  __  __  ______  __  __  ______
 72
    65
 73
     6
 40
12.7
 49
6.35
 74
     0
 49
-1.27
 74
     0
 49
1.27
 74
     0
 49
-1.27
 74
     0
 49
1.27
 74
     0
 49
-1.27
 74
     0
  0
LTYPE
  5
6C
330
5
100
AcDbSymbolTableRecord
100
AcDbLinetypeTableRecord
  2
CENTER
 70
     0
  3
Center ____ _ ____ _ ____ _ ____ _ ____ _ ____
 72
    65
 73
     4
 40
10.16
 49
6.35
 74
     0
 49
-1.27
 74
     0
 49
1.27
 74
     0
 49
-1.27
 74
     0
  0
LTYPE
  5
6D
330
5
100
AcDbSymbolTableRecord
100
AcDbLinetypeTableRecord
  2
CENTERX2
 70
     0
  3
Center (2x) ________  __  ________  __  _____
 72
    65
 73
     4
 40
20.32
 49
12.7
 74
     0
 49
-2.54
 74
     0
 49
2.54
 74
     0
 49
-2.54
 74
     0
  0
LTYPE
  5
6E
330
5
100
AcDbSymbolTableRecord
100
AcDbLinetypeTableRecord
  2
DOT2
 70
     0
  3
Dot (.5x) ........................................
 72
    65
 73
     2
 40
0.635
 49
0.0
 74
     0
 49
-0.635
 74
     0
  0
ENDTAB
  0
TABLE
  2
LAYER
  5
2
330
0
100
AcDbSymbolTable
 70
    17
  0
LAYER
  5
10
330
2
100
AcDbSymbolTableRecord
100
AcDbLayerTableRecord
  2
0
 70
     0
 62
     7
  6
Continuous
370
    -3
390
F
  0
LAYER
  5
6F
330
2
100
AcDbSymbolTableRecord
100
AcDbLayerTableRecord
  2
FORMAT
 70
     0
 62
     2
  6
Continuous
370
    -3
390
F
  0
LAYER
  5
70
330
2
100
AcDbSymbolTableRecord
100
AcDbLayerTableRecord
  2
외형선
 70
     0
 62
   100
  6
Continuous
370
    30
390
F
  0
LAYER
  5
71
330
2
100
AcDbSymbolTableRecord
100
AcDbLayerTableRecord
  2
숨은선
 70
     0
 62
     2
  6
HIDDEN
370
    15
390
F
  0
LAYER
  5
72
330
2
100
AcDbSymbolTableRecord
100
AcDbLayerTableRecord
  2
중심선
 70
     0
 62
     1
  6
CENTERX2
370
    -3
390
F
  0
LAYER
  5
73
330
2
100
AcDbSymbolTableRecord
100
AcDbLayerTableRecord
  2
파단선
 70
     0
 62
     4
  6
Continuous
370
    -3
390
F
  0
LAYER
  5
74
330
2
100
AcDbSymbolTableRecord
100
AcDbLayerTableRecord
  2
해칭선
 70
     0
 62
     4
  6
Continuous
370
    -3
390
F
  0
LAYER
  5
75
330
2
100
AcDbSymbolTableRecord
100
AcDbLayerTableRecord
  2
가는실선
 70
     0
 62
     4
  6
Continuous
370
    -3
390
F
  0
LAYER
  5
76
330
2
100
AcDbSymbolTableRecord
100
AcDbLayerTableRecord
  2
치수_보조선
 70
     0
 62
     4
  6
Continuous
370
    -3
390
F
  0
LAYER
  5
77
330
2
100
AcDbSymbolTableRecord
100
AcDbLayerTableRecord
  2
치수문자_일반주서
 70
     0
 62
     7
  6
Continuous
370
    15
390
F
  0
LAYER
  5
78
330
2
100
AcDbSymbolTableRecord
100
AcDbLayerTableRecord
  2
개별주서
 70
     0
 62
   100
  6
Continuous
370
    30
390
F
  0
LAYER
  5
79
330
2
100
AcDbSymbolTableRecord
100
AcDbLayerTableRecord
  2
중간선
 70
     0
 62
     2
  6
Continuous
370
    15
390
F
  0
LAYER
  5
7A
330
2
100
AcDbSymbolTableRecord
100
AcDbLayerTableRecord
  2
윤곽선
 70
     0
 62
     3
  6
Continuous
370
    40
390
F
  0
LAYER
  5
7B
330
2
100
AcDbSymbolTableRecord
100
AcDbLayerTableRecord
  2
중심마크
 70
     0
 62
   100
  6
Continuous
370
    30
390
F
  0
LAYER
  5
7C
330
2
100
AcDbSymbolTableRecord
100
AcDbLayerTableRecord
  2
가상선
 70
     0
 62
     4
  6
PHANTOM
370
    -3
390
F
  0
LAYER
  5
7D
330
2
100
AcDbSymbolTableRecord
100
AcDbLayerTableRecord
  2
특수지정선
 70
     0
 62
     5
  6
CENTERX2
370
    60
390
F
  0
LAYER
  5
13B
330
2
100
AcDbSymbolTableRecord
100
AcDbLayerTableRecord
  2
Defpoints
 70
     0
 62
     7
  6
Continuous
290
     0
370
    -3
390
F
  0
ENDTAB
  0
TABLE
  2
STYLE
  5
3
330
0
100
AcDbSymbolTable
 70
     2
  0
STYLE
  5
11
330
3
100
AcDbSymbolTableRecord
100
AcDbTextStyleTableRecord
  2
Standard
 70
     0
 40
0.0
 41
1.0
 50
0.0
 71
     0
 42
3.5
  3
txt
  4

  0
STYLE
  5
93
330
3
100
AcDbSymbolTableRecord
100
AcDbTextStyleTableRecord
  2
SLDTEXTSTYLE0
 70
     0
 40
0.0
 41
0.75
 50
0.0
 71
     0
 42
3.5
  3
TXT
  4

  0
ENDTAB
  0
TABLE
  2
VIEW
  5
6
330
0
100
AcDbSymbolTable
 70
     0
  0
ENDTAB
  0
TABLE
  2
UCS
  5
7
330
0
100
AcDbSymbolTable
 70
     0
  0
ENDTAB
  0
TABLE
  2
APPID
  5
9
330
0
100
AcDbSymbolTable
 70
     1
  0
APPID
  5
12
330
9
100
AcDbSymbolTableRecord
100
AcDbRegAppTableRecord
  2
ACAD
 70
     0
  0
ENDTAB
  0
TABLE
  2
DIMSTYLE
  5
A
330
0
100
AcDbSymbolTable
 70
     3
100
AcDbDimStyleTable
  0
DIMSTYLE
105
27
330
A
100
AcDbSymbolTableRecord
100
AcDbDimStyleTableRecord
  2
ISO-25
 70
     0
 41
2.5
 42
0.625
 43
3.75
 44
1.25
 73
     0
 74
     0
 77
     1
 78
     8
140
2.5
141
2.5
143
0.03937007874016
147
0.625
171
     3
172
     1
178
     0
271
     2
272
     2
274
     3
278
    44
283
     0
284
     8
340
11
  0
DIMSTYLE
105
E1
102
{ACAD_REACTORS
330
E0
330
103
102
}
330
A
100
AcDbSymbolTableRecord
100
AcDbDimStyleTableRecord
  2
SLDDIMSTYLE0
 70
     0
 41
3.302
 44
0.0
 45
0.000000001
 73
     0
 74
     0
 77
     1
 78
    12
 79
     3
140
3.5
147
0.875
172
     1
173
     1
178
     0
271
     2
272
     2
276
     2
284
    12
289
     0
340
93
  0
DIMSTYLE
105
EF
102
{ACAD_REACTORS
330
EE
330
F9
102
}
330
A
100
AcDbSymbolTableRecord
100
AcDbDimStyleTableRecord
  2
SLDDIMSTYLE1
 70
     0
 41
3.302
 44
0.0
 45
0.000000001
 73
     0
 74
     0
 77
     1
 78
    12
 79
     3
140
3.5
147
0.875
173
     1
178
     0
271
     2
272
     2
276
     2
284
    12
340
93
  0
ENDTAB
  0
TABLE
  2
BLOCK_RECORD
  5
1
330
0
100
AcDbSymbolTable
 70
     7
  0
BLOCK_RECORD
  5
1F
330
1
100
AcDbSymbolTableRecord
100
AcDbBlockTableRecord
  2
*Model_Space
340
22
  0
BLOCK_RECORD
  5
1B
330
1
100
AcDbSymbolTableRecord
100
AcDbBlockTableRecord
  2
*Paper_Space
340
1E
  0
BLOCK_RECORD
  5
23
330
1
100
AcDbSymbolTableRecord
100
AcDbBlockTableRecord
  2
*Paper_Space0
340
26
  0
BLOCK_RECORD
  5
7E
330
1
100
AcDbSymbolTableRecord
100
AcDbBlockTableRecord
  2
블럭10
340
0
102
{BLKREFS
331
D9
102
}
  0
BLOCK_RECORD
  5
E2
330
1
100
AcDbSymbolTableRecord
100
AcDbBlockTableRecord
  2
_D
340
0
  0
BLOCK_RECORD
  5
F0
330
1
100
AcDbSymbolTableRecord
100
AcDbBlockTableRecord
  2
_D_1
340
0
  0
BLOCK_RECORD
  5
FA
330
1
100
AcDbSymbolTableRecord
100
AcDbBlockTableRecord
  2
_D_2
340
0
  0
BLOCK_RECORD
  5
104
330
1
100
AcDbSymbolTableRecord
100
AcDbBlockTableRecord
  2
_D_3
340
0
  0
BLOCK_RECORD
  5
110
330
1
100
AcDbSymbolTableRecord
100
AcDbBlockTableRecord
  2
SW_DOWELSYMBOL_0
340
0
102
{BLKREFS
331
116
102
}
  0
ENDTAB
  0
ENDSEC
  0
SECTION
  2
BLOCKS
  0
BLOCK
  5
20
330
1F
100
AcDbEntity
  8
0
100
AcDbBlockBegin
  2
*Model_Space
 70
     0
 10
0.0
 20
0.0
 30
0.0
  3
*Model_Space
  1

  0
ENDBLK
  5
21
330
1F
100
AcDbEntity
  8
0
100
AcDbBlockEnd
  0
BLOCK
  5
1C
330
1B
100
AcDbEntity
 67
     1
  8
0
100
AcDbBlockBegin
  2
*Paper_Space
 70
     0
 10
0.0
 20
0.0
 30
0.0
  3
*Paper_Space
  1

  0
ENDBLK
  5
1D
330
1B
100
AcDbEntity
 67
     1
  8
0
100
AcDbBlockEnd
  0
BLOCK
  5
24
330
23
100
AcDbEntity
  8
0
100
AcDbBlockBegin
  2
*Paper_Space0
 70
     0
 10
0.0
 20
0.0
 30
0.0
  3
*Paper_Space0
  1

  0
ENDBLK
  5
25
330
23
100
AcDbEntity
  8
0
100
AcDbBlockEnd
  0
BLOCK
  5
7F
330
7E
100
AcDbEntity
  8
0
100
AcDbBlockBegin
  2
블럭10
 70
     2
 10
0.0
 20
0.0
 30
0.0
  3
블럭10
  1

  0
ELLIPSE
  5
81
330
7E
100
AcDbEntity
  8
중심선
100
AcDbEllipse
 10
20.54032771741204
 20
12.0471743016438
 30
0.0
 11
6.600054785286829
 21
-1.261213355974178E-13
 31
0.0
210
0.0
220
0.0
230
1.0
 40
0.636358354079598
 41
0.9219305317359503
 42
6.513795318482858
  0
ELLIPSE
  5
82
330
7E
100
AcDbEntity
  8
중심선
100
AcDbEllipse
 10
20.54032771746488
 20
12.04717430159265
 30
0.0
 11
3.960054785062283
 21
1.540847449632565E-10
 31
0.0
210
0.0
220
0.0
230
1.0
 40
0.3939339440162632
 41
1.131841032648279
 42
5.62031148352944
  0
LINE
  5
83
330
7E
100
AcDbEntity
  8
중심선
100
AcDbLine
 10
2.268634060543552
 20
16.24717430164393
 30
0.0
 11
5.714909304380834
 21
16.24717430164393
 31
0.0
  0
LINE
  5
84
330
7E
100
AcDbEntity
  8
중심선
100
AcDbLine
 10
5.245725140726316
 20
7.84717430164391
 30
0.0
 11
8.692000384563599
 21
7.84717430164391
 31
0.0
  0
LINE
  5
85
330
7E
100
AcDbEntity
  8
중심선
100
AcDbLine
 10
15.74043728645272
 20
16.24717430164393
 30
0.0
 11
8.692000384563599
 21
7.84717430164391
 31
0.0
  0
LINE
  5
86
330
7E
100
AcDbEntity
  8
중심선
100
AcDbLine
 10
0.1404042013395286
 20
13.71084872107135
 30
0.0
 11
3.58671253028996
 21
13.71088815037384
 31
0.0
  0
LINE
  5
87
330
7E
100
AcDbEntity
  8
중심선
100
AcDbLine
 10
2.750260043222114
 20
10.84717430164391
 30
0.0
 11
6.196535287059397
 21
10.84717430164391
 31
0.0
  0
LINE
  5
88
330
7E
100
AcDbEntity
  8
중심선
100
AcDbLine
 10
12.29416204261559
 20
16.24717430164393
 30
0.0
 11
5.245725140726316
 21
7.84717430164391
 31
0.0
  0
LINE
  5
89
330
7E
100
AcDbEntity
  8
중심선
100
AcDbLine
 10
10.72767329541681
 20
16.24717430164393
 30
0.0
 11
6.196535287059397
 21
10.84717430164391
 31
0.0
  0
LINE
  5
8A
330
7E
100
AcDbEntity
  8
중심선
100
AcDbLine
 10
7.28139805157953
 20
16.24717430164393
 30
0.0
 11
2.750260043222114
 21
10.84717430164391
 31
0.0
  0
LINE
  5
8B
330
7E
100
AcDbEntity
  8
중심선
100
AcDbLine
 10
5.714909304380834
 20
16.24717430164393
 30
0.0
 11
3.58671253028996
 21
13.71088815037384
 31
0.0
  0
LINE
  5
8C
330
7E
100
AcDbEntity
  8
중심선
100
AcDbLine
 10
2.268634060543552
 20
16.24717430164393
 30
0.0
 11
0.1404042013395286
 21
13.71084872107135
 31
0.0
  0
LINE
  5
8D
330
7E
100
AcDbEntity
  8
중심선
100
AcDbLine
 10
7.28139805157953
 20
16.24717430164393
 30
0.0
 11
10.72767329541681
 21
16.24717430164393
 31
0.0
  0
LINE
  5
8E
330
7E
100
AcDbEntity
  8
중심선
100
AcDbLine
 10
12.29416204261559
 20
16.24717430164393
 30
0.0
 11
15.74043728645272
 21
16.24717430164393
 31
0.0
  0
LINE
  5
8F
330
7E
100
AcDbEntity
  8
중심선
100
AcDbLine
 10
19.22036997980202
 20
11.08717430171403
 30
0.0
 11
23.66174974927406
 21
11.08717430171406
 31
0.0
  0
LINE
  5
90
330
7E
100
AcDbEntity
  8
중심선
100
AcDbLine
 10
19.22039502424796
 20
13.00717430171391
 30
0.0
 11
19.22036997980202
 21
11.08717430171403
 31
0.0
  0
LINE
  5
91
330
7E
100
AcDbEntity
  8
중심선
100
AcDbLine
 10
19.22039502424796
 20
13.00717430171391
 30
0.0
 11
26.96566020931264
 21
13.00717430171391
 31
0.0
  0
LINE
  5
92
330
7E
100
AcDbEntity
  8
중심선
100
AcDbLine
 10
22.22332737316547
 20
13.45928029700563
 30
0.0
 11
24.52862924686651
 21
15.39360700705356
 31
0.0
  0
ATTDEF
  5
94
330
7E
100
AcDbEntity
  8
FORMAT
 62
     2
100
AcDbText
 10
-16.11926103943555
 20
2.075366912832191
 30
0.0
 40
4.233333333333333
  1
SEME7005025E [ 2 FLUTE ]
 41
0.75
  7
SLDTEXTSTYLE0
 11
-16.11926103943555
 21
-0.0412997538344756
 31
0.0
100
AcDbAttributeDefinition
  3

  2
AUTOATTR0
 70
     0
 74
     1
  0
ENDBLK
  5
80
330
7E
100
AcDbEntity
  8
0
100
AcDbBlockEnd
  0
BLOCK
  5
E3
330
E2
100
AcDbEntity
  8
0
100
AcDbBlockBegin
  2
_D
 70
     0
 10
0.0
 20
0.0
 30
0.0
  3
_D
  1

  0
LINE
  5
E5
330
E2
100
AcDbEntity
  8
치수문자_일반주서
 62
     0
370
    -2
100
AcDbLine
 10
29.92852540378431
 20
-2.499999999999906
 30
0.0
 11
39.53807893820502
 21
-2.499999999999872
 31
0.0
  0
LINE
  5
E6
330
E2
100
AcDbEntity
  8
치수문자_일반주서
 62
     0
370
    -2
100
AcDbLine
 10
29.92852540378443
 20
2.500000000000091
 30
0.0
 11
39.538078938205
 21
2.500000000000126
 31
0.0
  0
LINE
  5
E7
330
E2
100
AcDbEntity
  8
치수문자_일반주서
 62
     0
370
    -2
100
AcDbLine
 10
39.53807893820502
 20
-2.499999999999872
 30
0.0
 11
39.53807893820497
 21
15.22900000000013
 31
0.0
  0
LINE
  5
E8
330
E2
100
AcDbEntity
  8
치수문자_일반주서
 62
     0
370
    -2
100
AcDbLine
 10
39.53807893820502
 20
-2.499999999999872
 30
0.0
 11
39.538078938205
 21
2.500000000000126
 31
0.0
  0
LINE
  5
E9
330
E2
100
AcDbEntity
  8
치수문자_일반주서
 62
     0
370
    -2
100
AcDbLine
 10
39.53807893820503
 20
-5.801999999999872
 30
0.0
 11
39.53807893820503
 21
-9.103999999999871
 31
0.0
  0
LINE
  5
EA
330
E2
100
AcDbEntity
  8
치수문자_일반주서
 62
     0
370
    -2
100
AcDbLine
 10
39.538078938205
 20
5.802000000000126
 30
0.0
 11
39.53807893820499
 21
9.104000000000125
 31
0.0
  0
SOLID
  5
EB
330
E2
100
AcDbEntity
  8
치수문자_일반주서
 62
     0
100
AcDbTrace
 10
40.08841227153836
 20
-5.80199999999987
 30
0.0
 11
38.98774560487169
 21
-5.801999999999873
 31
0.0
 12
39.53807893820502
 22
-2.499999999999872
 32
0.0
 13
39.53807893820502
 23
-2.499999999999872
 33
0.0
  0
SOLID
  5
EC
330
E2
100
AcDbEntity
  8
치수문자_일반주서
 62
     0
100
AcDbTrace
 10
38.98774560487166
 20
5.802000000000124
 30
0.0
 11
40.08841227153833
 21
5.802000000000127
 31
0.0
 12
39.538078938205
 22
2.500000000000126
 32
0.0
 13
39.538078938205
 23
2.500000000000126
 33
0.0
  0
MTEXT
  5
ED
330
E2
100
AcDbEntity
  8
치수문자_일반주서
 62
     0
100
AcDbMText
 10
35.16307893820498
 20
12.16650000000011
 30
0.0
 40
3.5
 41
0.0
 71
     2
 72
     1
  1
\A1;%%c5
  7
SLDTEXTSTYLE0
 11
-2.842170943040402E-15
 21
1.0
 31
0.0
 73
     1
 44
1.0
  0
POINT
  5
142
330
E2
100
AcDbEntity
  8
Defpoints
 62
     0
100
AcDbPoint
 10
29.86602540378431
 20
-2.499999999999907
 30
0.0
  0
POINT
  5
143
330
E2
100
AcDbEntity
  8
Defpoints
 62
     0
100
AcDbPoint
 10
29.86602540378443
 20
2.500000000000091
 30
0.0
  0
POINT
  5
144
330
E2
100
AcDbEntity
  8
Defpoints
 62
     0
100
AcDbPoint
 10
39.538078938205
 20
2.500000000000127
 30
0.0
  0
ENDBLK
  5
E4
330
E2
100
AcDbEntity
  8
0
100
AcDbBlockEnd
  0
BLOCK
  5
F1
330
F0
100
AcDbEntity
  8
0
100
AcDbBlockBegin
  2
_D_1
 70
     0
 10
0.0
 20
0.0
 30
0.0
  3
_D_1
  1

  0
LINE
  5
F3
330
F0
100
AcDbEntity
  8
치수문자_일반주서
 62
     0
370
    -2
100
AcDbLine
 10
-40.13397459621557
 20
2.512499999999994
 30
0.0
 11
-40.13397459621557
 21
24.23841044024269
 31
0.0
  0
LINE
  5
F4
330
F0
100
AcDbEntity
  8
치수문자_일반주서
 62
     0
370
    -2
100
AcDbLine
 10
29.86602540378443
 20
2.562500000000091
 30
0.0
 11
29.86602540378444
 21
24.23841044024269
 31
0.0
  0
LINE
  5
F5
330
F0
100
AcDbEntity
  8
치수문자_일반주서
 62
     0
370
    -2
100
AcDbLine
 10
-36.83197459621557
 20
24.23841044024269
 30
0.0
 11
26.56402540378444
 21
24.23841044024269
 31
0.0
  0
SOLID
  5
F6
330
F0
100
AcDbEntity
  8
치수문자_일반주서
 62
     0
100
AcDbTrace
 10
-36.83197459621557
 20
24.78874377357602
 30
0.0
 11
-36.83197459621557
 21
23.68807710690935
 31
0.0
 12
-40.13397459621557
 22
24.23841044024269
 32
0.0
 13
-40.13397459621557
 23
24.23841044024269
 33
0.0
  0
SOLID
  5
F7
330
F0
100
AcDbEntity
  8
치수문자_일반주서
 62
     0
100
AcDbTrace
 10
26.56402540378444
 20
23.68807710690935
 30
0.0
 11
26.56402540378444
 21
24.78874377357602
 31
0.0
 12
29.86602540378444
 22
24.23841044024269
 32
0.0
 13
29.86602540378444
 23
24.23841044024269
 33
0.0
  0
MTEXT
  5
F8
330
F0
100
AcDbEntity
  8
치수문자_일반주서
 62
     0
100
AcDbMText
 10
-5.133974596215571
 20
28.61341044024269
 30
0.0
 40
3.5
 41
0.0
 71
     2
 72
     1
  1
\A1;70
  7
SLDTEXTSTYLE0
 73
     1
 44
1.0
  0
POINT
  5
13C
330
F0
100
AcDbEntity
  8
Defpoints
 62
     0
100
AcDbPoint
 10
-40.13397459621557
 20
2.449999999999994
 30
0.0
  0
POINT
  5
13D
330
F0
100
AcDbEntity
  8
Defpoints
 62
     0
100
AcDbPoint
 10
29.86602540378443
 20
2.500000000000091
 30
0.0
  0
POINT
  5
13E
330
F0
100
AcDbEntity
  8
Defpoints
 62
     0
100
AcDbPoint
 10
29.86602540378443
 20
24.23841044024269
 30
0.0
  0
ENDBLK
  5
F2
330
F0
100
AcDbEntity
  8
0
100
AcDbBlockEnd
  0
BLOCK
  5
FB
330
FA
100
AcDbEntity
  8
0
100
AcDbBlockBegin
  2
_D_2
 70
     0
 10
0.0
 20
0.0
 30
0.0
  3
_D_2
  1

  0
LINE
  5
FD
330
FA
100
AcDbEntity
  8
치수문자_일반주서
 62
     0
370
    -2
100
AcDbLine
 10
4.866025403784436
 20
2.518187718446742
 30
0.0
 11
4.866025403784434
 21
15.8026855246142
 31
0.0
  0
LINE
  5
FE
330
FA
100
AcDbEntity
  8
치수문자_일반주서
 62
     0
370
    -2
100
AcDbLine
 10
29.86602540378443
 20
2.562500000000091
 30
0.0
 11
29.86602540378443
 21
15.8026855246142
 31
0.0
  0
LINE
  5
FF
330
FA
100
AcDbEntity
  8
치수문자_일반주서
 62
     0
370
    -2
100
AcDbLine
 10
8.168025403784434
 20
15.8026855246142
 30
0.0
 11
26.56402540378443
 21
15.8026855246142
 31
0.0
  0
SOLID
  5
100
330
FA
100
AcDbEntity
  8
치수문자_일반주서
 62
     0
100
AcDbTrace
 10
8.168025403784434
 20
16.35301885794754
 30
0.0
 11
8.168025403784434
 21
15.25235219128087
 31
0.0
 12
4.866025403784434
 22
15.8026855246142
 32
0.0
 13
4.866025403784434
 23
15.8026855246142
 33
0.0
  0
SOLID
  5
101
330
FA
100
AcDbEntity
  8
치수문자_일반주서
 62
     0
100
AcDbTrace
 10
26.56402540378443
 20
15.25235219128087
 30
0.0
 11
26.56402540378443
 21
16.35301885794754
 31
0.0
 12
29.86602540378443
 22
15.8026855246142
 32
0.0
 13
29.86602540378443
 23
15.8026855246142
 33
0.0
  0
MTEXT
  5
102
330
FA
100
AcDbEntity
  8
치수문자_일반주서
 62
     0
100
AcDbMText
 10
17.36602540378451
 20
20.1776855246142
 30
0.0
 40
3.5
 41
0.0
 71
     2
 72
     1
  1
\A1;25
  7
SLDTEXTSTYLE0
 73
     1
 44
1.0
  0
POINT
  5
13F
330
FA
100
AcDbEntity
  8
Defpoints
 62
     0
100
AcDbPoint
 10
4.866025403784436
 20
2.455687718446742
 30
0.0
  0
POINT
  5
140
330
FA
100
AcDbEntity
  8
Defpoints
 62
     0
100
AcDbPoint
 10
29.86602540378443
 20
2.500000000000091
 30
0.0
  0
POINT
  5
141
330
FA
100
AcDbEntity
  8
Defpoints
 62
     0
100
AcDbPoint
 10
29.86602540378443
 20
15.8026855246142
 30
0.0
  0
ENDBLK
  5
FC
330
FA
100
AcDbEntity
  8
0
100
AcDbBlockEnd
  0
BLOCK
  5
105
330
104
100
AcDbEntity
  8
0
100
AcDbBlockBegin
  2
_D_3
 70
     0
 10
0.0
 20
0.0
 30
0.0
  3
_D_3
  1

  0
LINE
  5
107
330
104
100
AcDbEntity
  8
치수문자_일반주서
 62
     0
370
    -2
100
AcDbLine
 10
-39.64647459621557
 20
2.999999999999995
 30
0.0
 11
-48.97030465437915
 21
2.999999999999961
 31
0.0
  0
LINE
  5
108
330
104
100
AcDbEntity
  8
치수문자_일반주서
 62
     0
370
    -2
100
AcDbLine
 10
-39.64647459621557
 20
-3.000000000000002
 30
0.0
 11
-48.97030465437913
 21
-3.000000000000037
 31
0.0
  0
LINE
  5
109
330
104
100
AcDbEntity
  8
치수문자_일반주서
 62
     0
370
    -2
100
AcDbLine
 10
-48.97030465437915
 20
2.999999999999961
 30
0.0
 11
-48.9703046543792
 21
15.72899999999996
 31
0.0
  0
LINE
  5
10A
330
104
100
AcDbEntity
  8
치수문자_일반주서
 62
     0
370
    -2
100
AcDbLine
 10
-48.97030465437915
 20
2.999999999999961
 30
0.0
 11
-48.97030465437913
 21
-3.000000000000037
 31
0.0
  0
LINE
  5
10B
330
104
100
AcDbEntity
  8
치수문자_일반주서
 62
     0
370
    -2
100
AcDbLine
 10
-48.97030465437916
 20
6.301999999999961
 30
0.0
 11
-48.97030465437918
 21
9.60399999999996
 31
0.0
  0
LINE
  5
10C
330
104
100
AcDbEntity
  8
치수문자_일반주서
 62
     0
370
    -2
100
AcDbLine
 10
-48.97030465437911
 20
-6.302000000000037
 30
0.0
 11
-48.9703046543791
 21
-9.604000000000037
 31
0.0
  0
SOLID
  5
10D
330
104
100
AcDbEntity
  8
치수문자_일반주서
 62
     0
100
AcDbTrace
 10
-49.5206379877125
 20
6.301999999999959
 30
0.0
 11
-48.41997132104583
 21
6.301999999999962
 31
0.0
 12
-48.97030465437915
 22
2.999999999999961
 32
0.0
 13
-48.97030465437915
 23
2.999999999999961
 33
0.0
  0
SOLID
  5
10E
330
104
100
AcDbEntity
  8
치수문자_일반주서
 62
     0
100
AcDbTrace
 10
-48.41997132104578
 20
-6.302000000000035
 30
0.0
 11
-49.52063798771245
 21
-6.302000000000039
 31
0.0
 12
-48.97030465437913
 22
-3.000000000000037
 32
0.0
 13
-48.97030465437913
 23
-3.000000000000037
 33
0.0
  0
MTEXT
  5
10F
330
104
100
AcDbEntity
  8
치수문자_일반주서
 62
     0
100
AcDbMText
 10
-53.34530465437918
 20
12.66649999999995
 30
0.0
 40
3.5
 41
0.0
 71
     2
 72
     1
  1
\A1;%%c6
  7
SLDTEXTSTYLE0
 11
-3.552713678800503E-15
 21
1.0
 31
0.0
 73
     1
 44
1.0
  0
POINT
  5
145
330
104
100
AcDbEntity
  8
Defpoints
 62
     0
100
AcDbPoint
 10
-39.58397459621557
 20
2.999999999999996
 30
0.0
  0
POINT
  5
146
330
104
100
AcDbEntity
  8
Defpoints
 62
     0
100
AcDbPoint
 10
-39.58397459621557
 20
-3.000000000000001
 30
0.0
  0
POINT
  5
147
330
104
100
AcDbEntity
  8
Defpoints
 62
     0
100
AcDbPoint
 10
-48.97030465437913
 20
-3.000000000000036
 30
0.0
  0
ENDBLK
  5
106
330
104
100
AcDbEntity
  8
0
100
AcDbBlockEnd
  0
BLOCK
  5
111
330
110
100
AcDbEntity
  8
0
100
AcDbBlockBegin
  2
SW_DOWELSYMBOL_0
 70
     0
 10
0.0
 20
0.0
 30
0.0
  3
SW_DOWELSYMBOL_0
  1

  0
CIRCLE
  5
113
330
110
100
AcDbEntity
  8
외형선
 62
     0
100
AcDbCircle
 10
0.0
 20
0.0
 30
0.0
 40
3.000000000000004
  0
HATCH
  5
114
330
110
100
AcDbEntity
  8
0
  6
Continuous
 62
     0
370
    30
100
AcDbHatch
 10
0.0
 20
0.0
 30
0.0
210
0.0
220
0.0
230
1.0
  2
SOLID
 70
     1
 71
     0
 91
        1
 92
        0
 93
        3
 72
     2
 10
0.0000000000000104
 20
0.0
 40
3.000000000000004
 50
0.0
 51
90.0
 73
     1
 72
     1
 10
0.0000000000000104
 20
3.000000000000004
 11
0.0000000000000104
 21
0.0
 72
     1
 10
0.0000000000000104
 20
0.0
 11
3.000000000000015
 21
0.0
 97
        0
 75
     0
 76
     1
 98
        1
 10
0.0
 20
0.0
  0
HATCH
  5
115
330
110
100
AcDbEntity
  8
0
  6
Continuous
 62
     0
370
    30
100
AcDbHatch
 10
0.0
 20
0.0
 30
0.0
210
0.0
220
0.0
230
1.0
  2
SOLID
 70
     1
 71
     0
 91
        1
 92
        0
 93
        3
 72
     2
 10
0.0000000000000104
 20
0.0
 40
3.000000000000004
 50
180.0
 51
270.0000000000008
 73
     1
 72
     1
 10
0.0000000000000104
 20
-3.000000000000004
 11
0.0000000000000104
 21
0.0
 72
     1
 10
0.0000000000000104
 20
0.0
 11
-2.999999999999994
 21
0.0
 97
        0
 75
     0
 76
     1
 98
        1
 10
0.0
 20
0.0
  0
ENDBLK
  5
112
330
110
100
AcDbEntity
  8
0
100
AcDbBlockEnd
  0
ENDSEC
  0
SECTION
  2
ENTITIES
  0
LINE
  5
95
330
1F
100
AcDbEntity
  8
0
  6
Continuous
 62
     1
370
    15
100
AcDbLine
 10
22.72413068523957
 20
0.9724144991237342
 30
0.0
 11
22.69450999001695
 21
0.9876712157703482
 31
0.0
  0
SPLINE
  5
96
330
1F
100
AcDbEntity
  8
0
  6
Continuous
 62
     1
370
    15
100
AcDbSpline
210
0.0
220
0.0
230
1.0
 70
     8
 71
     3
 72
     9
 73
     5
 74
     0
 42
0.000000001
 43
0.00000001
 40
0.0
 40
0.0
 40
0.0
 40
0.0
 40
0.5318110780367548
 40
1.0
 40
1.0
 40
1.0
 40
1.0
 10
23.39017139803516
 20
0.6404872737728488
 30
0.0
 10
23.2720726244335
 20
0.6966198273443096
 30
0.0
 10
23.05000358811774
 20
0.8021696285607135
 30
0.0
 10
22.82804788609376
 20
0.9181253260981741
 30
0.0
 10
22.72413068523957
 20
0.9724144991237342
 30
0.0
  0
SPLINE
  5
97
330
1F
100
AcDbEntity
  8
0
  6
Continuous
 62
     1
370
    15
100
AcDbSpline
210
0.0
220
0.0
230
1.0
 70
     8
 71
     3
 72
     9
 73
     5
 74
     0
 42
0.000000001
 43
0.00000001
 40
0.0
 40
0.0
 40
0.0
 40
0.0
 40
0.437142307467682
 40
0.9999999999999999
 40
0.9999999999999999
 40
0.9999999999999999
 40
0.9999999999999999
 10
9.78656774484953
 20
0.6405379773104665
 30
0.0
 10
9.685232472562449
 20
0.6886246054262923
 30
0.0
 10
9.45341946669234
 20
0.7986268342070901
 30
0.0
 10
9.221660655144122
 20
0.9195201101991335
 30
0.0
 10
9.091213425252056
 20
0.9875658205666874
 30
0.0
  0
LINE
  5
98
330
1F
100
AcDbEntity
  8
0
  6
Continuous
 62
     1
370
    15
100
AcDbLine
 10
16.44007379551985
 20
-2.500000000000003
 30
0.0
 11
17.65243529716317
 21
-2.500000000000003
 31
0.0
  0
LINE
  5
99
330
1F
100
AcDbEntity
  8
0
  6
Continuous
 62
     1
370
    15
100
AcDbLine
 10
17.65243529716318
 20
2.500000000000002
 30
0.0
 11
16.44007379551984
 21
2.500000000000002
 31
0.0
  0
SPLINE
  5
9A
330
1F
100
AcDbEntity
  8
0
  6
Continuous
 62
     1
370
    15
100
AcDbSpline
210
0.0
220
0.0
230
1.0
 70
     8
 71
     3
 72
    23
 73
    19
 74
     0
 42
0.000000001
 43
0.00000001
 40
0.0
 40
0.0
 40
0.0
 40
0.0
 40
0.1149214486656215
 40
0.1960103123601976
 40
0.2469021247906289
 40
0.2949683382016551
 40
0.3449048197973062
 40
0.3954597695338818
 40
0.4461539251673274
 40
0.4969047830680977
 40
0.5474808450469976
 40
0.5960378828823537
 40
0.6419819311536968
 40
0.6879278506551202
 40
0.7350947046919125
 40
0.7912402662452636
 40
0.8794141869961557
 40
1.0
 40
1.0
 40
1.0
 40
1.0
 10
5.219436568527398
 20
-2.078242283448536
 30
0.0
 10
5.362915521949571
 20
-2.064599803008849
 30
0.0
 10
5.607633586366102
 20
-2.041331154002069
 30
0.0
 10
5.915252097847842
 20
-2.017791966501203
 30
0.0
 10
6.138110157473987
 20
-2.002624816691027
 30
0.0
 10
6.323061150195647
 20
-1.991355656705825
 30
0.0
 10
6.508264326975253
 20
-1.981407131626919
 30
0.0
 10
6.696794468539229
 20
-1.972813463232962
 30
0.0
 10
6.886396048865231
 20
-1.965670237044513
 30
0.0
 10
7.076016885450064
 20
-1.960029935856101
 30
0.0
 10
7.262993437754927
 20
-1.955946178848276
 30
0.0
 10
7.443782831818277
 20
-1.953405329866363
 30
0.0
 10
7.618367666069075
 20
-1.952253121473279
 30
0.0
 10
7.791461602298655
 20
-1.952390624918223
 30
0.0
 10
7.977739303397358
 20
-1.953912351718752
 30
0.0
 10
8.216938464717371
 20
-1.9578768052446
 30
0.0
 10
8.54728720824229
 20
-1.966702382969917
 30
0.0
 10
8.807881503386882
 20
-1.979305865030157
 30
0.0
 10
8.958408496207698
 20
-1.986586010025451
 30
0.0
  0
SPLINE
  5
9B
330
1F
100
AcDbEntity
  8
0
  6
Continuous
 62
     1
370
    15
100
AcDbSpline
210
0.0
220
0.0
230
1.0
 70
     8
 71
     3
 72
    10
 73
     6
 74
     0
 42
0.000000001
 43
0.00000001
 40
0.0
 40
0.0
 40
0.0
 40
0.0
 40
0.3778214366674598
 40
0.9065785019484027
 40
1.0
 40
1.0
 40
1.0
 40
1.0
 10
22.56194202808268
 20
1.986588062169645
 30
0.0
 10
22.3012646408522
 20
1.975448505369599
 30
0.0
 10
21.67577203436666
 20
1.948719257804316
 30
0.0
 10
20.98628989584959
 20
1.946626244241669
 30
0.0
 10
20.55718333546557
 20
1.965257846905525
 30
0.0
 10
20.49275202899284
 20
1.968055423573285
 30
0.0
  0
SPLINE
  5
9C
330
1F
100
AcDbEntity
  8
0
  6
Continuous
 62
     1
370
    15
100
AcDbSpline
210
0.0
220
0.0
230
1.0
 70
     8
 71
     3
 72
    12
 73
     8
 74
     0
 42
0.000000001
 43
0.00000001
 40
0.0
 40
0.0
 40
0.0
 40
0.0
 40
0.2089341906856769
 40
0.501036241941127
 40
0.6983397246704051
 40
0.7920610988316383
 40
1.0
 40
1.0
 40
1.0
 40
1.0
 10
18.80221110837149
 20
-2.08034909158918
 30
0.0
 10
19.06416692029645
 20
-2.056347485306958
 30
0.0
 10
19.69235206859977
 20
-1.998790248874139
 30
0.0
 10
20.56722087923705
 20
-1.957593346404486
 30
0.0
 10
21.29795397878564
 20
-1.950322986585519
 30
0.0
 10
21.92304503297299
 20
-1.958082609087751
 30
0.0
 10
22.30124392406326
 20
-1.974956582244796
 30
0.0
 10
22.56194202808268
 20
-1.986588062169644
 30
0.0
  0
SPLINE
  5
9D
330
1F
100
AcDbEntity
  8
0
  6
Continuous
 62
     1
370
    15
100
AcDbSpline
210
0.0
220
0.0
230
1.0
 70
     8
 71
     3
 72
    16
 73
    12
 74
     0
 42
0.000000001
 43
0.00000001
 40
0.0
 40
0.0
 40
0.0
 40
0.0
 40
0.2195798383186592
 40
0.3801394827752203
 40
0.4823773250311889
 40
0.5682654566894992
 40
0.6519303366965907
 40
0.7355918093012009
 40
0.8240113857963275
 40
0.9161074892721714
 40
1.0
 40
1.0
 40
1.0
 40
1.0
 10
8.958408496207708
 20
1.986586010025451
 30
0.0
 10
8.807881503529094
 20
1.979305901785441
 30
0.0
 10
8.54728720863068
 20
1.966702483356429
 30
0.0
 10
8.21693846379568
 20
1.95787656701683
 30
0.0
 10
7.977739305367871
 20
1.953912861035545
 30
0.0
 10
7.791461596220993
 20
1.952389054033834
 30
0.0
 10
7.618367688248822
 20
1.952258854247225
 30
0.0
 10
7.443782746940682
 20
1.95338339166115
 30
0.0
 10
7.262993780631641
 20
1.956034801762868
 30
0.0
 10
7.08185369875836
 20
1.959570048320098
 30
0.0
 10
6.961305922062733
 20
1.964093061340787
 30
0.0
 10
6.90384166111941
 20
1.966249149222251
 30
0.0
  0
SPLINE
  5
9E
330
1F
100
AcDbEntity
  8
0
  6
Continuous
 62
     1
370
    15
100
AcDbSpline
210
0.0
220
0.0
230
1.0
 70
     8
 71
     3
 72
    13
 73
     9
 74
     0
 42
0.000000001
 43
0.00000001
 40
0.0
 40
0.0
 40
0.0
 40
0.0
 40
0.22096014888422
 40
0.3640479793278658
 40
0.5094268759029308
 40
0.6800294475657216
 40
0.8534712134725632
 40
1.0
 40
1.0
 40
1.0
 40
1.0
 10
24.57067281122131
 20
-1.880307229073428
 30
0.0
 10
24.7058614666206
 20
-1.859647604226062
 30
0.0
 10
24.92859464757963
 20
-1.825609363768069
 30
0.0
 10
25.24792035088172
 20
-1.783976811786638
 30
0.0
 10
25.53530015234004
 20
-1.750372873532856
 30
0.0
 10
25.83875686981006
 20
-1.71983546453614
 30
0.0
 10
26.14316523572965
 20
-1.693747257550996
 30
0.0
 10
26.34168580694907
 20
-1.681336804368887
 30
0.0
 10
26.43259723045416
 20
-1.675653504355198
 30
0.0
  0
SPLINE
  5
9F
330
1F
100
AcDbEntity
  8
0
  6
Continuous
 62
     1
370
    15
100
AcDbSpline
210
0.0
220
0.0
230
1.0
 70
     8
 71
     3
 72
    22
 73
    18
 74
     0
 42
0.000000001
 43
0.00000001
 40
0.0
 40
0.0
 40
0.0
 40
0.0
 40
0.0864557825017457
 40
0.1467652392047114
 40
0.1874005080285151
 40
0.2292722679529162
 40
0.2739594496054988
 40
0.3731347798864341
 40
0.4810553915812659
 40
0.5936170944742707
 40
0.6896711114632069
 40
0.7396259217864881
 40
0.7879443114692287
 40
0.8207267208741708
 40
0.8670920434735422
 40
0.9266905197334797
 40
1.0
 40
1.0
 40
1.0
 40
1.0
 10
15.33267066770056
 20
1.709873111276944
 30
0.0
 10
15.20697647024646
 20
1.699767330781433
 30
0.0
 10
14.99360104963048
 20
1.682612002949611
 30
0.0
 10
14.72143017265848
 20
1.667273217106457
 30
0.0
 10
14.51274963913909
 20
1.657974667997607
 30
0.0
 10
14.32729946047136
 20
1.651701750888453
 30
0.0
 10
14.05686766655402
 20
1.645502366864981
 30
0.0
 10
13.69072459695895
 20
1.643846055213178
 30
0.0
 10
13.22557447963712
 20
1.654211956238884
 30
0.0
 10
12.76475810319599
 20
1.677220507101999
 30
0.0
 10
12.3886987037195
 20
1.706119352399713
 30
0.0
 10
12.10582059329276
 20
1.732664279445474
 30
0.0
 10
11.91727686276337
 20
1.752470849248084
 30
0.0
 10
11.7326364415161
 20
1.773566928758483
 30
0.0
 10
11.5305285844365
 20
1.798558087093387
 30
0.0
 10
11.26899371083372
 20
1.834040063556691
 30
0.0
 10
11.07438759908562
 20
1.863872701368273
 30
0.0
 10
10.96704659948112
 20
1.880327812334569
 30
0.0
  0
SPLINE
  5
A0
330
1F
100
AcDbEntity
  8
0
  6
Continuous
 62
     1
370
    15
100
AcDbSpline
210
0.0
220
0.0
230
1.0
 70
     8
 71
     3
 72
    16
 73
    12
 74
     0
 42
0.000000001
 43
0.00000001
 40
0.0
 40
0.0
 40
0.0
 40
0.0
 40
0.1721643995689039
 40
0.3121290513876055
 40
0.48175961686686
 40
0.5827882295555853
 40
0.6843754559871913
 40
0.7869811558675048
 40
0.8850677752549444
 40
0.9837387153957632
 40
1.0
 40
1.0
 40
1.0
 40
1.0
 10
10.96704659948112
 20
-1.880327812334568
 30
0.0
 10
11.07439148293269
 20
-1.863873066090241
 30
0.0
 10
11.26900463598262
 20
-1.834041089508986
 30
0.0
 10
11.5682250445966
 20
-1.793435307570608
 30
0.0
 10
11.82300993031353
 20
-1.762718181047185
 30
0.0
 10
12.0509008741478
 20
-1.738300856058729
 30
0.0
 10
12.23953555636581
 20
-1.719925136310724
 30
0.0
 10
12.42700558720739
 20
-1.703518962824389
 30
0.0
 10
12.6123370503489
 20
-1.689348557864203
 30
0.0
 10
12.74433327520917
 20
-1.680123814730786
 30
0.0
 10
12.81555814340351
 20
-1.676248366860265
 30
0.0
 10
12.82563545509895
 20
-1.675700045787292
 30
0.0
  0
SPLINE
  5
A1
330
1F
100
AcDbEntity
  8
0
  6
Continuous
 62
     1
370
    15
100
AcDbSpline
210
0.0
220
0.0
230
1.0
 70
     8
 71
     3
 72
    21
 73
    17
 74
     0
 42
0.000000001
 43
0.00000001
 40
0.0
 40
0.0
 40
0.0
 40
0.0
 40
0.0903394679276185
 40
0.1497443832987201
 40
0.1996527693920963
 40
0.2578777018146804
 40
0.3204289497549037
 40
0.384469849079339
 40
0.446610075982909
 40
0.5044332838974002
 40
0.6218181617408758
 40
0.7293657740255761
 40
0.7657373156619116
 40
0.8151411218116629
 40
0.8933785689512086
 40
1.0
 40
1.0
 40
1.0
 40
1.0
 10
28.94994996673162
 20
1.711049460636847
 30
0.0
 10
28.8189038073875
 20
1.700423702784868
 30
0.0
 10
28.60168505721319
 20
1.682810719300164
 30
0.0
 10
28.30900761773221
 20
1.666366526822192
 30
0.0
 10
28.06170142876346
 20
1.655694376641435
 30
0.0
 10
27.81244489971476
 20
1.648425447866606
 30
0.0
 10
27.54277094959504
 20
1.64468132490761
 30
0.0
 10
27.26781513299277
 20
1.645375683196812
 30
0.0
 10
26.99857165110082
 20
1.650452049329672
 30
0.0
 10
26.6460586287996
 20
1.662397975270179
 30
0.0
 10
26.23984582838088
 20
1.685582389897319
 30
0.0
 10
25.85949436861343
 20
1.717782543322652
 30
0.0
 10
25.57732309533455
 20
1.746335166894952
 30
0.0
 10
25.33827365979645
 20
1.772956866673793
 30
0.0
 10
24.99671019794688
 20
1.815658730364133
 30
0.0
 10
24.72651426744815
 20
1.85665926648693
 30
0.0
 10
24.5706728112213
 20
1.88030722907343
 30
0.0
  0
LINE
  5
A2
330
1F
100
AcDbEntity
  8
0
  6
Continuous
 62
   131
370
    15
100
AcDbLine
 10
2.000000000000002
 20
-3.0
 30
0.0
 11
3.866025403784436
 21
-2.5
 31
0.0
  0
LINE
  5
A3
330
1F
100
AcDbEntity
  8
0
  6
Continuous
 62
   131
370
    15
100
AcDbLine
 10
3.866025403784436
 20
2.5
 30
0.0
 11
1.999999999999998
 21
3.0
 31
0.0
  0
LINE
  5
A4
330
1F
100
AcDbEntity
  8
0
  6
Continuous
 62
   131
370
    15
100
AcDbLine
 10
1.999999999999998
 20
2.999999999999999
 30
0.0
 11
-39.58397459621557
 21
2.999999999999996
 31
0.0
  0
LINE
  5
A5
330
1F
100
AcDbEntity
  8
0
  6
Continuous
 62
   131
370
    15
100
AcDbLine
 10
-39.58397459621557
 20
-3.000000000000002
 30
0.0
 11
2.000000000000002
 21
-3.0
 31
0.0
  0
LINE
  5
A6
330
1F
100
AcDbEntity
  8
0
  6
Continuous
 62
   131
370
    15
100
AcDbLine
 10
-39.58397459621557
 20
2.999999999999996
 30
0.0
 11
-40.13397459621557
 21
2.449999999999994
 31
0.0
  0
LINE
  5
A7
330
1F
100
AcDbEntity
  8
0
  6
Continuous
 62
   131
370
    15
100
AcDbLine
 10
-40.13397459621557
 20
-2.450000000000001
 30
0.0
 11
-39.58397459621557
 21
-3.000000000000001
 31
0.0
  0
LINE
  5
A8
330
1F
100
AcDbEntity
  8
0
  6
Continuous
 62
   131
370
    15
100
AcDbLine
 10
4.048184643188426
 20
2.5
 30
0.0
 11
3.866025403784436
 21
2.5
 31
0.0
  0
LINE
  5
A9
330
1F
100
AcDbEntity
  8
0
  6
Continuous
 62
   131
370
    15
100
AcDbLine
 10
3.866025403784436
 20
-2.5
 30
0.0
 11
4.048184643188426
 21
-2.5
 31
0.0
  0
SPLINE
  5
AA
330
1F
100
AcDbEntity
  8
0
  6
Continuous
 62
     1
370
    15
100
AcDbSpline
210
0.0
220
0.0
230
1.0
 70
     8
 71
     3
 72
    19
 73
    15
 74
     0
 42
0.000000001
 43
0.00000001
 40
0.0
 40
0.0
 40
0.0
 40
0.0
 40
0.0883937160095129
 40
0.1767248041886568
 40
0.2650145420540761
 40
0.3532844670308478
 40
0.4415562414910665
 40
0.529851516132026
 40
0.6181917935097417
 40
0.706595861239388
 40
0.7949774015380324
 40
0.8832999202355911
 40
0.9715847486167362
 40
1.0
 40
1.0
 40
1.0
 40
1.0
 10
29.86602540378443
 20
-2.372352173079748
 30
0.0
 10
29.50608922026346
 20
-2.292607131736621
 30
0.0
 10
28.78647187160136
 20
-2.133173549208382
 30
0.0
 10
27.70754884305536
 20
-1.722960052634986
 30
0.0
 10
26.6292164661657
 20
-1.216961212317467
 30
0.0
 10
25.5511775909138
 20
-0.6330794337596126
 30
0.0
 10
24.47311201100861
 20
-0.0108540082313119
 30
0.0
 10
23.39469750534758
 20
0.6122479322570287
 30
0.0
 10
22.31565395538545
 20
1.197842509804731
 30
0.0
 10
21.23602427341881
 20
1.708527940001051
 30
0.0
 10
20.15656505524322
 20
2.116744558017861
 30
0.0
 10
19.07776239104328
 20
2.383331081502533
 30
0.0
 10
18.24315231107911
 20
2.507237184346862
 30
0.0
 10
17.76810448465731
 20
2.487829812883021
 30
0.0
 10
17.65243529716318
 20
2.48310432049307
 30
0.0
  0
SPLINE
  5
AB
330
1F
100
AcDbEntity
  8
0
  6
Continuous
 62
     1
370
    15
100
AcDbSpline
210
0.0
220
0.0
230
1.0
 70
     8
 71
     3
 72
     9
 73
     5
 74
     0
 42
0.000000001
 43
0.00000001
 40
0.0
 40
0.0
 40
0.0
 40
0.0
 40
0.4528596789375544
 40
1.0
 40
1.0
 40
1.0
 40
1.0
 10
6.906826826706402
 20
-1.965313606046365
 30
0.0
 10
6.598770764094427
 20
-2.071178714443028
 30
0.0
 10
5.918524593062598
 20
-2.30494893802538
 30
0.0
 10
5.238237760025047
 20
-2.402379519058958
 30
0.0
 10
4.866025403782324
 20
-2.455687718446971
 30
0.0
  0
SPLINE
  5
AC
330
1F
100
AcDbEntity
  8
0
  6
Continuous
 62
   131
370
    15
100
AcDbSpline
210
0.0
220
0.0
230
1.0
 70
    24
 71
     3
 72
     8
 73
     4
 74
     0
 42
0.000000001
 43
0.00000001
 40
0.0
 40
0.0
 40
0.0
 40
0.0
 40
1.0
 40
1.0
 40
1.0
 40
1.0
 10
4.866025403784436
 20
-2.107547339648621
 30
0.0
 10
4.866025403784436
 20
-2.22820259753112
 30
0.0
 10
4.866025403784436
 20
-2.345015676002573
 30
0.0
 10
4.866025403784436
 20
-2.455687718442769
 30
0.0
  0
SPLINE
  5
AD
330
1F
100
AcDbEntity
  8
0
  6
Continuous
 62
     1
370
    15
100
AcDbSpline
210
0.0
220
0.0
230
1.0
 70
     8
 71
     3
 72
    22
 73
    18
 74
     0
 42
0.000000001
 43
0.00000001
 40
0.0
 40
0.0
 40
0.0
 40
0.0
 40
0.125
 40
0.125
 40
0.25
 40
0.25
 40
0.375
 40
0.375
 40
0.5
 40
0.5
 40
0.625
 40
0.625
 40
0.75
 40
0.75
 40
0.875
 40
0.875
 40
1.0
 40
1.0
 40
1.0
 40
1.0
 10
29.86602540378443
 20
-1.972430660920538
 30
0.0
 10
29.59908850919603
 20
-1.923355295625694
 30
0.0
 10
29.32676353506888
 20
-1.862453733705035
 30
0.0
 10
28.78543147827019
 20
-1.719856525281835
 30
0.0
 10
28.51941886563904
 20
-1.638567395152182
 30
0.0
 10
27.97851604852195
 20
-1.457034452570967
 30
0.0
 10
27.70599543405521
 20
-1.356942202796433
 30
0.0
 10
27.17094301766323
 20
-1.143478226895478
 30
0.0
 10
26.89997886809201
 20
-1.029013272940932
 30
0.0
 10
26.35831010577557
 20
-0.7894339334981053
 30
0.0
 10
26.09213151274814
 20
-0.6650488168170582
 30
0.0
 10
25.55175022463241
 20
-0.4087844330056378
 30
0.0
 10
25.27908128734977
 20
-0.2771141643513739
 30
0.0
 10
24.74293921959224
 20
-0.0135679434658187
 30
0.0
 10
24.47317272278296
 20
0.1193279567251003
 30
0.0
 10
23.93125998134008
 20
0.3825807743898895
 30
0.0
 10
23.66474952195031
 20
0.512025552142428
 30
0.0
 10
23.39486563846923
 20
0.6382915249656999
 30
0.0
  0
LINE
  5
AE
330
1F
100
AcDbEntity
  8
0
  6
Continuous
 62
     1
370
    15
100
AcDbLine
 10
5.224925091316516
 20
-2.061759052494506
 30
0.0
 11
4.866025403784416
 21
-2.107547339648622
 31
0.0
  0
LINE
  5
AF
330
1F
100
AcDbEntity
  8
0
  6
Continuous
 62
     1
370
    15
100
AcDbLine
 10
29.86602540378443
 20
-2.372352173079751
 30
0.0
 11
29.86602540378443
 21
-1.972430660920538
 31
0.0
  0
SPLINE
  5
B0
330
1F
100
AcDbEntity
  8
0
  6
Continuous
 62
     1
370
    15
100
AcDbSpline
210
0.0
220
0.0
230
1.0
 70
     8
 71
     3
 72
    22
 73
    18
 74
     0
 42
0.000000001
 43
0.00000001
 40
0.0
 40
0.0
 40
0.0
 40
0.0
 40
0.0212525503695717
 40
0.090302438848161
 40
0.1593228613175893
 40
0.2283306797622099
 40
0.2973428356780674
 40
0.3663762431829305
 40
0.4354476824905782
 40
0.5045660891927697
 40
0.5736530787412474
 40
0.6426967533779739
 40
0.7141584960420295
 40
0.7856122922906909
 40
0.8570655435762724
 40
0.9285256533407927
 40
1.0
 40
1.0
 40
1.0
 40
1.0
 10
20.48841518484009
 20
-1.969669290765748
 30
0.0
 10
20.37772623766342
 20
-2.012186550501932
 30
0.0
 10
19.90740706609243
 20
-2.19284309197826
 30
0.0
 10
19.07776792948427
 20
-2.384746894928096
 30
0.0
 10
17.99950097346031
 20
-2.519301887400279
 30
0.0
 10
16.92148169199871
 20
-2.489696107818462
 30
0.0
 10
15.8433792099273
 20
-2.308728392893771
 30
0.0
 10
14.7648751621118
 20
-1.984591475599082
 30
0.0
 10
13.68571582607695
 20
-1.537965433299709
 30
0.0
 10
12.60604328559596
 20
-0.9965181712160324
 30
0.0
 10
11.52667657344952
 20
-0.3933882701244547
 30
0.0
 10
10.43528349952116
 20
0.2414549907752583
 30
0.0
 10
9.33150976677293
 20
0.8682911767381892
 30
0.0
 10
8.215241721342705
 20
1.445699495501546
 30
0.0
 10
7.098975011206898
 20
1.924370717479588
 30
0.0
 10
5.982586675277071
 20
2.287441376904483
 30
0.0
 10
5.238237207764046
 20
2.399601880707838
 30
0.0
 10
4.866025403782324
 20
2.45568771844697
 30
0.0
  0
SPLINE
  5
B1
330
1F
100
AcDbEntity
  8
0
  6
Continuous
 62
     1
370
    15
100
AcDbSpline
210
0.0
220
0.0
230
1.0
 70
     8
 71
     3
 72
    16
 73
    12
 74
     0
 42
0.000000001
 43
0.00000001
 40
0.0
 40
0.0
 40
0.0
 40
0.0
 40
0.0892353718628945
 40
0.2085917548120442
 40
0.3279559761988445
 40
0.4473586014509293
 40
0.5668299507448495
 40
0.6863861649495079
 40
0.8058856124889836
 40
0.9253067910388558
 40
1.0
 40
1.0
 40
1.0
 40
1.0
 10
18.80537734394353
 20
-2.067748381189606
 30
0.0
 10
18.53673107549906
 20
-2.092676973135584
 30
0.0
 10
17.90875816084994
 20
-2.150948694656442
 30
0.0
 10
16.92148087607879
 20
-2.088291950972384
 30
0.0
 10
15.84337144977447
 20
-1.906970057062176
 30
0.0
 10
14.76486244448081
 20
-1.603585474563058
 30
0.0
 10
13.68569657294981
 20
-1.202343630990827
 30
0.0
 10
12.60605505151124
 20
-0.7263145549207116
 30
0.0
 10
11.52669901218512
 20
-0.20694416850191
 30
0.0
 10
10.58251228159949
 20
0.264031271747897
 30
0.0
 10
9.998137233026847
 20
0.5368204315830886
 30
0.0
 10
9.773275757407278
 20
0.6417868793521834
 30
0.0
  0
SPLINE
  5
B2
330
1F
100
AcDbEntity
  8
0
  6
Continuous
 62
     1
370
    15
100
AcDbSpline
210
0.0
220
0.0
230
1.0
 70
     8
 71
     3
 72
    23
 73
    19
 74
     0
 42
0.000000001
 43
0.00000001
 40
0.0
 40
0.0
 40
0.0
 40
0.0
 40
0.067770736525041
 40
0.1361024441540609
 40
0.1982081407450913
 40
0.2607463827452708
 40
0.3228515381577535
 40
0.385387347911559
 40
0.447492510370352
 40
0.5100269608419248
 40
0.5721324453901204
 40
0.6346666196028049
 40
0.6967672336345568
 40
0.7592974853884049
 40
0.8212614741514277
 40
0.8836546638699018
 40
0.945618691787764
 40
0.9999999999999999
 40
0.9999999999999999
 40
0.9999999999999999
 40
0.9999999999999999
 10
4.866025403784436
 20
2.230753671186398
 30
0.0
 10
5.127398862365903
 20
2.155439150673325
 30
0.0
 10
5.652309293829095
 20
2.004186695001211
 30
0.0
 10
6.416962275848563
 20
1.700504938817659
 30
0.0
 10
7.162087808662102
 20
1.360497834790274
 30
0.0
 10
7.881678998521993
 20
0.9902652654542353
 30
0.0
 10
8.604871680970755
 20
0.5952031851272536
 30
0.0
 10
9.324530296895668
 20
0.1813983306830575
 30
0.0
 10
10.04710548395291
 20
-0.2361824504498359
 30
0.0
 10
10.76764819476883
 20
-0.6469938265964036
 30
0.0
 10
11.48916614474877
 20
-1.041794813672455
 30
0.0
 10
12.21059176785436
 20
-1.404547915487337
 30
0.0
 10
12.93169272015392
 20
-1.731956424292042
 30
0.0
 10
13.65246693342443
 20
-2.008023005835831
 30
0.0
 10
14.37301866322534
 20
-2.231086306513137
 30
0.0
 10
15.09176148046329
 20
-2.389650835251633
 30
0.0
 10
15.78183567223028
 20
-2.484979671096695
 30
0.0
 10
16.23040616925363
 20
-2.492560424552384
 30
0.0
 10
16.44007379551985
 20
-2.496103766330123
 30
0.0
  0
SPLINE
  5
B3
330
1F
100
AcDbEntity
  8
0
  6
Continuous
 62
     1
370
    15
100
AcDbSpline
210
0.0
220
0.0
230
1.0
 70
     8
 71
     3
 72
    12
 73
     8
 74
     0
 42
0.000000001
 43
0.00000001
 40
0.0
 40
0.0
 40
0.0
 40
0.0
 40
0.0502675474530772
 40
0.2825994700119985
 40
0.5169070045203848
 40
0.7573556004418285
 40
1.0
 40
1.0
 40
1.0
 40
1.0
 10
26.43556999994454
 20
1.676973876602029
 30
0.0
 10
26.49301516009473
 20
1.70279883095502
 30
0.0
 10
26.81596650018847
 20
1.847984319068436
 30
0.0
 10
27.40726963779498
 20
2.059979304270785
 30
0.0
 10
28.21611936869253
 20
2.293396758939417
 30
0.0
 10
29.03583264552704
 20
2.451526817523679
 30
0.0
 10
29.58845720250071
 20
2.482386875128452
 30
0.0
 10
29.86602540378443
 20
2.500000000000091
 30
0.0
  0
SPLINE
  5
B4
330
1F
100
AcDbEntity
  8
0
  6
Continuous
 62
     1
370
    15
100
AcDbSpline
210
0.0
220
0.0
230
1.0
 70
    24
 71
     3
 72
    10
 73
     6
 74
     0
 42
0.000000001
 43
0.00000001
 40
0.0
 40
0.0
 40
0.0
 40
0.0
 40
0.5
 40
0.5
 40
1.0
 40
1.0
 40
1.0
 40
1.0
 10
29.86602540378443
 20
1.750000000000003
 30
0.0
 10
29.86602540378443
 20
1.856080642018288
 30
0.0
 10
29.86602540378443
 20
1.979356172167796
 30
0.0
 10
29.86602540378444
 20
2.237987902402143
 30
0.0
 10
29.86602540378444
 20
2.372683589503686
 30
0.0
 10
29.86602540378443
 20
2.500000000000091
 30
0.0
  0
LINE
  5
B5
330
1F
100
AcDbEntity
  8
0
  6
Continuous
 62
     1
370
    15
100
AcDbLine
 10
29.86602540378443
 20
1.750000000000003
 30
0.0
 11
28.94821313011077
 21
1.704050319183557
 31
0.0
  0
SPLINE
  5
B6
330
1F
100
AcDbEntity
  8
0
  6
Continuous
 62
     1
370
    15
100
AcDbSpline
210
0.0
220
0.0
230
1.0
 70
     8
 71
     3
 72
    12
 73
     8
 74
     0
 42
0.000000001
 43
0.00000001
 40
0.0
 40
0.0
 40
0.0
 40
0.0
 40
0.1305117988006241
 40
0.3386295540353541
 40
0.5467710393374249
 40
0.7733775574783707
 40
1.0
 40
1.0
 40
1.0
 40
1.0
 10
10.04577758678596
 20
-0.234483902452886
 30
0.0
 10
9.820447876037486
 20
-0.144239160776976
 30
0.0
 10
9.235801122541789
 20
0.0899123635187954
 30
0.0
 10
8.291814032734786
 20
0.4723241601244245
 30
0.0
 10
7.181943933808283
 20
0.8878348551833529
 30
0.0
 10
6.039919329994602
 20
1.263762445423335
 30
0.0
 10
5.25733254468765
 20
1.439741213252376
 30
0.0
 10
4.866025403784427
 20
1.527733688709069
 30
0.0
  0
SPLINE
  5
B7
330
1F
100
AcDbEntity
  8
0
  6
Continuous
 62
   131
370
    15
100
AcDbSpline
210
0.0
220
0.0
230
1.0
 70
    24
 71
     3
 72
    10
 73
     6
 74
     0
 42
0.000000001
 43
0.00000001
 40
0.0
 40
0.0
 40
0.0
 40
0.0
 40
0.5
 40
0.5
 40
1.0
 40
1.0
 40
1.0
 40
1.0
 10
4.866025403784436
 20
2.230753671186396
 30
0.0
 10
4.866025403784436
 20
2.137077461956461
 30
0.0
 10
4.866025403784436
 20
2.02319566536973
 30
0.0
 10
4.866025403784436
 20
1.779404113690455
 30
0.0
 10
4.866025403784436
 20
1.650212881457663
 30
0.0
 10
4.866025403784436
 20
1.527733688709066
 30
0.0
  0
SPLINE
  5
B8
330
1F
100
AcDbEntity
  8
0
  6
Continuous
 62
     1
370
    15
100
AcDbSpline
210
0.0
220
0.0
230
1.0
 70
     8
 71
     3
 72
    31
 73
    27
 74
     0
 42
0.000000001
 43
0.00000001
 40
0.0
 40
0.0
 40
0.0
 40
0.0
 40
0.0060493791555918
 40
0.0485268625723837
 40
0.0906196773507537
 40
0.133004053028949
 40
0.1750968944056295
 40
0.2174815865638644
 40
0.2595740569847131
 40
0.3019571140964986
 40
0.344049571849163
 40
0.3864317009719473
 40
0.4285243753259744
 40
0.470906261337836
 40
0.5129990249308165
 40
0.555381604022828
 40
0.5974725069958409
 40
0.6398547628597732
 40
0.681945766025104
 40
0.7243287453227499
 40
0.7664193401381966
 40
0.8088005918792929
 40
0.8555734761391545
 40
0.9027440890797628
 40
0.9511510157888018
 40
0.9999999999999999
 40
0.9999999999999999
 40
0.9999999999999999
 40
0.9999999999999999
 10
12.82732817514278
 20
1.676462346555803
 30
0.0
 10
12.86166514677584
 20
1.692052420529664
 30
0.0
 10
13.13710919826152
 20
1.817112754452282
 30
0.0
 10
13.65249273627759
 20
2.005420758077542
 30
0.0
 10
14.37301671519457
 20
2.231510126385599
 30
0.0
 10
15.09174323677172
 20
2.39057587477051
 30
0.0
 10
15.81284424789163
 20
2.485155042554573
 30
0.0
 10
16.53078358193159
 20
2.510936520328263
 30
0.0
 10
17.25232286920601
 20
2.467740194066606
 30
0.0
 10
17.97029796187451
 20
2.356201644812876
 30
0.0
 10
18.69127447600924
 20
2.179964979665334
 30
0.0
 10
19.41009089779837
 20
1.943992210364852
 30
0.0
 10
20.13000271040415
 20
1.652965233898563
 30
0.0
 10
20.84976052617825
 20
1.319169490755753
 30
0.0
 10
21.56922854042297
 20
0.9453847523785794
 30
0.0
 10
22.28897910151542
 20
0.5494261108050654
 30
0.0
 10
23.00888727203737
 20
0.1350190898608474
 30
0.0
 10
23.72768400399544
 20
-0.2812906246245063
 30
0.0
 10
24.44865324314748
 20
-0.6899227332032053
 30
0.0
 10
25.1666136601795
 20
-1.080810517080412
 30
0.0
 10
25.88810094235492
 20
-1.439904409531118
 30
0.0
 10
26.63264073464769
 20
-1.773005850857246
 30
0.0
 10
27.40727289417364
 20
-2.062583193316631
 30
0.0
 10
28.21611847195521
 20
-2.292679703362445
 30
0.0
 10
29.03583287453622
 20
-2.451709939512145
 30
0.0
 10
29.58845727906807
 20
-2.482448100476959
 30
0.0
 10
29.86602540378431
 20
-2.499999999999907
 30
0.0
  0
SPLINE
  5
B9
330
1F
100
AcDbEntity
  8
0
  6
Continuous
 62
     1
370
    15
100
AcDbSpline
210
0.0
220
0.0
230
1.0
 70
     8
 71
     3
 72
    16
 73
    12
 74
     0
 42
0.000000001
 43
0.00000001
 40
0.0
 40
0.0
 40
0.0
 40
0.0
 40
0.0299862963625459
 40
0.1597578299667263
 40
0.28963127268655
 40
0.4194687081740241
 40
0.5492118508327706
 40
0.6788947740998508
 40
0.8085519399913973
 40
0.9382179772220605
 40
1.0
 40
1.0
 40
1.0
 40
1.0
 10
23.64418585312478
 20
-0.2316598396120582
 30
0.0
 10
23.56108360465709
 20
-0.1989139009945861
 30
0.0
 10
23.11834020213622
 20
-0.0244535398182316
 30
0.0
 10
22.31562633695421
 20
0.3054737450996217
 30
0.0
 10
21.23605668033154
 20
0.7242017846485641
 30
0.0
 10
20.15661736571996
 20
1.099962081517101
 30
0.0
 10
19.07780216971406
 20
1.40698359122887
 30
0.0
 10
17.99953496313466
 20
1.628724631653174
 30
0.0
 10
16.9215018810596
 20
1.744162631113064
 30
0.0
 10
16.03164130860042
 20
1.768228584974597
 30
0.0
 10
15.50106438024559
 20
1.713848372823365
 30
0.0
 10
15.32984240039582
 20
1.696299385878051
 30
0.0
  0
LINE
  5
BA
330
1F
100
AcDbEntity
  8
0
  6
Continuous
 62
   131
370
    15
100
AcDbLine
 10
4.866025403784436
 20
2.230753671186396
 30
0.0
 11
4.866025403784436
 21
2.455687718436515
 31
0.0
  0
LINE
  5
BB
330
1F
100
AcDbEntity
  8
0
  6
Continuous
 62
     1
370
    15
100
AcDbLine
 10
29.86602540378431
 20
-2.499999999999907
 30
0.0
 11
29.86602540378443
 21
-2.372352173079754
 31
0.0
  0
SPLINE
  5
BC
330
1F
100
AcDbEntity
  8
0
  6
Continuous
 62
     1
370
    15
100
AcDbSpline
210
0.0
220
0.0
230
1.0
 70
     8
 71
     3
 72
     8
 73
     4
 74
     0
 42
0.000000001
 43
0.00000001
 40
0.0
 40
0.0
 40
0.0
 40
0.0
 40
1.0
 40
1.0
 40
1.0
 40
1.0
 10
28.31844673555916
 20
0.7000164084405733
 30
0.0
 10
28.20660797946343
 20
0.8325404951408002
 30
0.0
 10
28.10957015215359
 20
0.9591847098085278
 30
0.0
 10
28.03295638611386
 20
1.077008495890186
 30
0.0
  0
LINE
  5
BD
330
1F
100
AcDbEntity
  8
0
  6
Continuous
 62
     1
370
    15
100
AcDbLine
 10
28.03295638611385
 20
1.077008495890184
 30
0.0
 11
29.86602540378443
 21
0.0000000000000029
 31
0.0
  0
LINE
  5
BE
330
1F
100
AcDbEntity
  8
0
  6
Continuous
 62
     1
370
    15
100
AcDbLine
 10
29.86602540378443
 20
0.0000000000000029
 30
0.0
 11
29.86602540378443
 21
-0.6681073650741092
 31
0.0
  0
SPLINE
  5
BF
330
1F
100
AcDbEntity
  8
0
  6
Continuous
 62
     1
370
    15
100
AcDbSpline
210
0.0
220
0.0
230
1.0
 70
     8
 71
     3
 72
    10
 73
     6
 74
     0
 42
0.000000001
 43
0.00000001
 40
0.0
 40
0.0
 40
0.0
 40
0.0
 40
0.5
 40
0.5
 40
1.0
 40
1.0
 40
1.0
 40
1.0
 10
29.86602540378444
 20
-0.6681073650741114
 30
0.0
 10
29.59812522224676
 20
-0.4574906938170824
 30
0.0
 10
29.33470397730504
 20
-0.2382331035478419
 30
0.0
 10
28.81703861831595
 20
0.2179869145392812
 30
0.0
 10
28.5603876670205
 20
0.4573610698567476
 30
0.0
 10
28.31844673555916
 20
0.7000164084405754
 30
0.0
  0
SPLINE
  5
C0
330
1F
100
AcDbEntity
  8
0
  6
Continuous
 62
   131
370
    15
100
AcDbSpline
210
0.0
220
0.0
230
1.0
 70
    24
 71
     3
 72
    10
 73
     6
 74
     0
 42
0.000000001
 43
0.00000001
 40
0.0
 40
0.0
 40
0.0
 40
0.0
 40
0.4999999999999999
 40
0.4999999999999999
 40
1.0
 40
1.0
 40
1.0
 40
1.0
 10
4.866025403784434
 20
-0.975473780111194
 30
0.0
 10
4.866025403784434
 20
-1.28811365416569
 30
0.0
 10
4.866025403784434
 20
-1.56617680802161
 30
0.0
 10
4.866025403784434
 20
-1.961892614198372
 30
0.0
 10
4.866025403784434
 20
-2.07784195099326
 30
0.0
 10
4.866025403784434
 20
-2.10754733964862
 30
0.0
  0
SPLINE
  5
C1
330
1F
100
AcDbEntity
  8
0
  6
Continuous
 62
     1
370
    15
100
AcDbSpline
210
0.0
220
0.0
230
1.0
 70
     8
 71
     3
 72
    13
 73
     9
 74
     0
 42
0.000000001
 43
0.00000001
 40
0.0
 40
0.0
 40
0.0
 40
0.0
 40
0.1468532072632401
 40
0.2934269797577818
 40
0.4806728781445387
 40
0.6679229353976237
 40
0.8552258107624865
 40
1.0
 40
1.0
 40
1.0
 40
1.0
 10
28.31844673555914
 20
0.7000164084405869
 30
0.0
 10
28.03657313331949
 20
0.8191930920492985
 30
0.0
 10
27.47336228270209
 20
1.057319687855739
 30
0.0
 10
26.55114908266956
 20
1.396415922664062
 30
0.0
 10
25.55116882392073
 20
1.69737251971053
 30
0.0
 10
24.47311362505622
 20
1.912378726550442
 30
0.0
 10
23.47650922011213
 20
2.015605696037804
 30
0.0
 10
22.83918281228453
 20
1.987762314575465
 30
0.0
 10
22.56133039846795
 20
1.975623557020296
 30
0.0
  0
SPLINE
  5
C2
330
1F
100
AcDbEntity
  8
0
  6
Continuous
 62
     1
370
    15
100
AcDbSpline
210
0.0
220
0.0
230
1.0
 70
     8
 71
     3
 72
    13
 73
     9
 74
     0
 42
0.000000001
 43
0.00000001
 40
0.0
 40
0.0
 40
0.0
 40
0.0
 40
0.0860925924194587
 40
0.2626192605798946
 40
0.4391196089027304
 40
0.6156395549763595
 40
0.8078132003552776
 40
1.0
 40
1.0
 40
1.0
 40
1.0
 10
10.97372540504037
 20
-1.864502016036607
 30
0.0
 10
10.79844783803585
 20
-1.895149513396421
 30
0.0
 10
10.26377622751335
 20
-1.988637499633892
 30
0.0
 10
9.369838345222908
 20
-2.016412445835412
 30
0.0
 10
8.291805600099005
 20
-1.948804046592216
 30
0.0
 10
7.181957700457426
 20
-1.747802633359627
 30
0.0
 10
6.039914511011849
 20
-1.428076418996267
 30
0.0
 10
5.257330700517933
 20
-1.126344768538365
 30
0.0
 10
4.86602540378443
 20
-0.9754737801111929
 30
0.0
  0
SPLINE
  5
C3
330
1F
100
AcDbEntity
  8
0
  6
Continuous
 62
     1
370
    15
100
AcDbSpline
210
0.0
220
0.0
230
1.0
 70
    24
 71
     3
 72
    10
 73
     6
 74
     0
 42
0.000000001
 43
0.00000001
 40
0.0
 40
0.0
 40
0.0
 40
0.0
 40
0.5
 40
0.5
 40
1.0
 40
1.0
 40
1.0
 40
1.0
 10
29.86602540378443
 20
-1.972430660920538
 30
0.0
 10
29.86602540378443
 20
-1.82122847250951
 30
0.0
 10
29.86602540378444
 20
-1.630178709766169
 30
0.0
 10
29.86602540378444
 20
-1.186006397876699
 30
0.0
 10
29.86602540378443
 20
-0.9332686076282734
 30
0.0
 10
29.86602540378443
 20
-0.668107365074191
 30
0.0
  0
SPLINE
  5
C4
330
1F
100
AcDbEntity
  8
0
  6
Continuous
 62
     1
370
    15
100
AcDbSpline
210
0.0
220
0.0
230
1.0
 70
     8
 71
     3
 72
    23
 73
    19
 74
     0
 42
0.000000001
 43
0.00000001
 40
0.0
 40
0.0
 40
0.0
 40
0.0
 40
0.0063747683615409
 40
0.07543067044829
 40
0.1445238608477467
 40
0.2136698992771312
 40
0.2827972664895521
 40
0.3518757358612731
 40
0.4209229780265067
 40
0.4899568635361586
 40
0.558995348702735
 40
0.628056360287796
 40
0.69715768058854
 40
0.7663087669308867
 40
0.8354265482858408
 40
0.9044984292720523
 40
0.9735421226338343
 40
1.0
 40
1.0
 40
1.0
 40
1.0
 10
24.57274634002885
 20
-1.875193112202522
 30
0.0
 10
24.53956627867423
 20
-1.881976799388809
 30
0.0
 10
24.14695683287953
 20
-1.962246080333992
 30
0.0
 10
23.39469071343007
 20
-2.007503914418516
 30
0.0
 10
22.31563966212029
 20
-1.99260681198979
 30
0.0
 10
21.23604828777154
 20
-1.842850724760773
 30
0.0
 10
20.15660365345343
 20
-1.582459363286004
 30
0.0
 10
19.07779243411571
 20
-1.223471624857921
 30
0.0
 10
17.99952792357158
 20
-0.7892451036874216
 30
0.0
 10
16.92150033079031
 20
-0.3062746918697007
 30
0.0
 10
15.84339206296963
 20
0.1956079721040497
 30
0.0
 10
14.76488272641862
 20
0.6854370564593493
 30
0.0
 10
13.68571617313069
 20
1.133187745693718
 30
0.0
 10
12.60608764485455
 20
1.510232928547129
 30
0.0
 10
11.52673255574825
 20
1.796254961966601
 30
0.0
 10
10.44803475154202
 20
1.963515756750294
 30
0.0
 10
9.591436660224604
 20
2.023185427739076
 30
0.0
 10
9.094363135930168
 20
1.983071147969994
 30
0.0
 10
8.956653250663317
 20
1.971957836569222
 30
0.0
  0
SPLINE
  5
C5
330
1F
100
AcDbEntity
  8
0
  6
Continuous
 62
   131
370
    15
100
AcDbSpline
210
0.0
220
0.0
230
1.0
 70
    24
 71
     3
 72
    14
 73
    10
 74
     0
 42
0.000000001
 43
0.00000001
 40
0.0
 40
0.0
 40
0.0
 40
0.0
 40
0.2500000000000001
 40
0.2500000000000001
 40
0.5000000000000001
 40
0.5000000000000001
 40
0.75
 40
0.75
 40
1.0
 40
1.0
 40
1.0
 40
1.0
 10
4.866025403784436
 20
1.527733688709067
 30
0.0
 10
4.866025403784436
 20
1.381035224883477
 30
0.0
 10
4.866025403784436
 20
1.209289975714324
 30
0.0
 10
4.866025403784436
 20
0.8254861251923921
 30
0.0
 10
4.866025403784436
 20
0.6135357142249914
 30
0.0
 10
4.866025403784436
 20
0.1686435767655292
 30
0.0
 10
4.866025403784436
 20
-0.0640610925955447
 30
0.0
 10
4.866025403784436
 20
-0.5269453734323699
 30
0.0
 10
4.866025403784436
 20
-0.756905721791384
 30
0.0
 10
4.866025403784436
 20
-0.975473780111196
 30
0.0
  0
SPLINE
  5
C6
330
1F
100
AcDbEntity
  8
0
  6
Continuous
 62
     1
370
    15
100
AcDbSpline
210
0.0
220
0.0
230
1.0
 70
     8
 71
     3
 72
    10
 73
     6
 74
     0
 42
0.000000001
 43
0.00000001
 40
0.0
 40
0.0
 40
0.0
 40
0.0
 40
0.5000000000000001
 40
0.5000000000000001
 40
1.0
 40
1.0
 40
1.0
 40
1.0
 10
29.86602540378443
 20
1.750000000000003
 30
0.0
 10
29.55496280206709
 20
1.665548211220015
 30
0.0
 10
29.24591811181085
 20
1.56877439108642
 30
0.0
 10
28.63363422514051
 20
1.347015596658081
 30
0.0
 10
28.33018549786541
 20
1.222750518351901
 30
0.0
 10
28.03295638611385
 20
1.077008495890186
 30
0.0
  0
LINE
  5
C7
330
1F
100
AcDbEntity
  8
0
  6
Continuous
 62
     1
370
    15
100
AcDbLine
 10
29.86602540378443
 20
0.0000000000000029
 30
0.0
 11
29.86602540378443
 21
1.750000000000003
 31
0.0
  0
LINE
  5
C8
330
1F
100
AcDbEntity
  8
0
  6
Continuous
 62
   131
370
    15
100
AcDbLine
 10
3.866025403784436
 20
2.5
 30
0.0
 11
3.866025403784436
 21
-2.5
 31
0.0
  0
LINE
  5
C9
330
1F
100
AcDbEntity
  8
0
  6
Continuous
 62
   131
370
    15
100
AcDbLine
 10
1.999999999999998
 20
3.0
 30
0.0
 11
2.000000000000002
 21
-3.0
 31
0.0
  0
LINE
  5
CA
330
1F
100
AcDbEntity
  8
0
  6
Continuous
 62
   131
370
    15
100
AcDbLine
 10
-39.58397459621557
 20
2.999999999999996
 30
0.0
 11
-39.58397459621557
 21
-3.000000000000002
 31
0.0
  0
LINE
  5
CB
330
1F
100
AcDbEntity
  8
0
  6
Continuous
 62
   131
370
    15
100
AcDbLine
 10
-40.13397459621557
 20
2.449999999999994
 30
0.0
 11
-40.13397459621557
 21
-2.450000000000002
 31
0.0
  0
SPLINE
  5
CC
330
1F
100
AcDbEntity
  8
0
  6
Continuous
 62
   131
370
    15
100
AcDbSpline
210
0.0
220
0.0
230
1.0
 70
     8
 71
     3
 72
     8
 73
     4
 74
     0
 42
0.000000001
 43
0.00000001
 40
0.0
 40
0.0
 40
0.0
 40
0.0
 40
1.0
 40
1.0
 40
1.0
 40
1.0
 10
4.866025403784436
 20
-2.455687718446742
 30
0.0
 10
4.569894876975498
 20
-2.487731903021333
 30
0.0
 10
4.270064170356415
 20
-2.502501890042153
 30
0.0
 10
3.97589675738811
 20
-2.499650736349015
 30
0.0
  0
LINE
  5
CD
330
1F
100
AcDbEntity
  8
0
  6
Continuous
 62
   131
370
    15
100
AcDbLine
 10
4.866025403784436
 20
2.455687718446742
 30
0.0
 11
4.048184643188426
 21
2.496080473072551
 31
0.0
  0
SPLINE
  5
CE
330
1F
100
AcDbEntity
  8
0
  6
Continuous
 62
   131
370
    15
100
AcDbSpline
210
0.0
220
0.0
230
1.0
 70
     8
 71
     3
 72
     8
 73
     4
 74
     0
 42
0.000000001
 43
0.00000001
 40
0.0
 40
0.0
 40
0.0
 40
0.0
 40
1.0
 40
1.0
 40
1.0
 40
1.0
 10
3.975962479526974
 20
2.41395958368185
 30
0.0
 10
4.270108823543108
 20
2.369597778545538
 30
0.0
 10
4.569916930521646
 20
2.307922679918367
 30
0.0
 10
4.866025403784409
 20
2.230753671186399
 30
0.0
  0
LINE
  5
CF
330
1F
100
AcDbEntity
  8
0
  6
Continuous
 62
   131
370
    15
100
AcDbLine
 10
3.975962479526974
 20
-2.499648943158146
 30
0.0
 11
3.975962479526974
 21
2.414132846441064
 31
0.0
  0
SPLINE
  5
D0
330
1F
100
AcDbEntity
  8
0
  6
Continuous
 62
   131
370
    15
100
AcDbSpline
210
0.0
220
0.0
230
1.0
 70
    24
 71
     3
 72
    10
 73
     6
 74
     0
 42
0.000000001
 43
0.00000001
 40
0.0
 40
0.0
 40
0.0
 40
0.0
 40
0.5
 40
0.5
 40
1.0
 40
1.0
 40
1.0
 40
1.0
 10
4.866025403784436
 20
-0.9754737801111951
 30
0.0
 10
4.866025403784436
 20
-1.288113654165692
 30
0.0
 10
4.866025403784436
 20
-1.566176808021611
 30
0.0
 10
4.866025403784436
 20
-1.961892614198372
 30
0.0
 10
4.866025403784436
 20
-2.077841950993261
 30
0.0
 10
4.866025403784436
 20
-2.10754733964862
 30
0.0
  0
SPLINE
  5
D1
330
1F
100
AcDbEntity
  8
0
  6
Continuous
 62
   131
370
    15
100
AcDbSpline
210
0.0
220
0.0
230
1.0
 70
     8
 71
     3
 72
     8
 73
     4
 74
     0
 42
0.000000001
 43
0.00000001
 40
0.0
 40
0.0
 40
0.0
 40
0.0
 40
1.0
 40
1.0
 40
1.0
 40
1.0
 10
4.866025403784416
 20
-2.107547339648622
 30
0.0
 10
4.569894876975484
 20
-2.126132526578697
 30
0.0
 10
4.270064170356408
 20
-2.129856162192376
 30
0.0
 10
3.97589675738811
 20
-2.118699580430472
 30
0.0
  0
SPLINE
  5
D2
330
1F
100
AcDbEntity
  8
0
  6
Continuous
 62
   131
370
    15
100
AcDbSpline
210
0.0
220
0.0
230
1.0
 70
     8
 71
     3
 72
     8
 73
     4
 74
     0
 42
0.000000001
 43
0.00000001
 40
0.0
 40
0.0
 40
0.0
 40
0.0
 40
1.0
 40
1.0
 40
1.0
 40
1.0
 10
4.866025403784374
 20
-0.9754737801111716
 30
0.0
 10
4.569908869936715
 20
-0.8560875376602017
 30
0.0
 10
4.270092502779864
 20
-0.7293022717943894
 30
0.0
 10
3.975938458022418
 20
-0.599115213146381
 30
0.0
  0
SPLINE
  5
D3
330
1F
100
AcDbEntity
  8
0
  6
Continuous
 62
   131
370
    15
100
AcDbSpline
210
0.0
220
0.0
230
1.0
 70
    24
 71
     3
 72
    14
 73
    10
 74
     0
 42
0.000000001
 43
0.00000001
 40
0.0
 40
0.0
 40
0.0
 40
0.0
 40
0.2500000000000001
 40
0.2500000000000001
 40
0.5000000000000001
 40
0.5000000000000001
 40
0.75
 40
0.75
 40
1.0
 40
1.0
 40
1.0
 40
1.0
 10
4.866025403784436
 20
1.527733688709067
 30
0.0
 10
4.866025403784436
 20
1.381035224883477
 30
0.0
 10
4.866025403784436
 20
1.209289975714324
 30
0.0
 10
4.866025403784436
 20
0.8254861251923921
 30
0.0
 10
4.866025403784436
 20
0.6135357142249914
 30
0.0
 10
4.866025403784436
 20
0.1686435767655292
 30
0.0
 10
4.866025403784436
 20
-0.0640610925955447
 30
0.0
 10
4.866025403784436
 20
-0.5269453734323699
 30
0.0
 10
4.866025403784436
 20
-0.756905721791384
 30
0.0
 10
4.866025403784436
 20
-0.975473780111196
 30
0.0
  0
SPLINE
  5
D4
330
1F
100
AcDbEntity
  8
0
  6
Continuous
 62
   131
370
    15
100
AcDbSpline
210
0.0
220
0.0
230
1.0
 70
     8
 71
     3
 72
     8
 73
     4
 74
     0
 42
0.000000001
 43
0.00000001
 40
0.0
 40
0.0
 40
0.0
 40
0.0
 40
1.0
 40
1.0
 40
1.0
 40
1.0
 10
4.86602540378435
 20
1.527733688709083
 30
0.0
 10
4.569911611437325
 20
1.586096246047067
 30
0.0
 10
4.27009805366577
 20
1.633869840059226
 30
0.0
 10
3.975946628018503
 20
1.669635882864319
 30
0.0
  0
SPLINE
  5
D5
330
1F
100
AcDbEntity
  8
0
  6
Continuous
 62
   131
370
    15
100
AcDbSpline
210
0.0
220
0.0
230
1.0
 70
    24
 71
     3
 72
    10
 73
     6
 74
     0
 42
0.000000001
 43
0.00000001
 40
0.0
 40
0.0
 40
0.0
 40
0.0
 40
0.4999999999999996
 40
0.4999999999999996
 40
1.0
 40
1.0
 40
1.0
 40
1.0
 10
4.866025403784436
 20
2.230753671186396
 30
0.0
 10
4.866025403784436
 20
2.137077461956462
 30
0.0
 10
4.866025403784436
 20
2.02319566536973
 30
0.0
 10
4.866025403784436
 20
1.779404113690455
 30
0.0
 10
4.866025403784436
 20
1.650212881457663
 30
0.0
 10
4.866025403784436
 20
1.527733688709066
 30
0.0
  0
SPLINE
  5
D6
330
1F
100
AcDbEntity
  8
0
  6
Continuous
 62
   131
370
    15
100
AcDbSpline
210
0.0
220
0.0
230
1.0
 70
    24
 71
     3
 72
     8
 73
     4
 74
     0
 42
0.000000001
 43
0.00000001
 40
0.0
 40
0.0
 40
0.0
 40
0.0
 40
1.0
 40
1.0
 40
1.0
 40
1.0
 10
4.866025403784436
 20
-2.107547339648621
 30
0.0
 10
4.866025403784436
 20
-2.22820259753112
 30
0.0
 10
4.866025403784436
 20
-2.345015676002573
 30
0.0
 10
4.866025403784436
 20
-2.455687718442768
 30
0.0
  0
LINE
  5
D7
330
1F
100
AcDbEntity
  8
중심선
 62
     1
100
AcDbLine
 10
-43.13397459621558
 20
-0.000000000000005
 30
0.0
 11
32.86602540378443
 21
0.0000000000000033
 31
0.0
  0
CIRCLE
  5
D8
330
1F
100
AcDbEntity
  8
외형선
100
AcDbCircle
 10
0.0000000000000104
 20
0.0
 30
0.0
 40
3.000000000000005
  0
INSERT
  5
D9
330
1F
100
AcDbEntity
  8
0
  6
Continuous
 62
     7
100
AcDbBlockReference
 66
     1
  2
블럭10
 10
-22.93944368806589
 20
-52.04609937292004
 30
0.0
  0
ATTRIB
  5
DA
330
D9
100
AcDbEntity
  8
FORMAT
 62
     2
100
AcDbText
 10
-39.05870472750145
 20
-49.97073246008785
 30
0.0
 40
4.233333333333333
  1
SEME7005025E [ 2 FLUTE ]
 41
0.75
  7
SLDTEXTSTYLE0
 11
-39.05870472750145
 21
-52.08739912675452
 31
0.0
100
AcDbAttribute
  2
AUTOATTR0
 70
     0
 74
     1
  0
SEQEND
  5
DB
330
D9
100
AcDbEntity
  8
0
  6
Continuous
 62
     7
  0
HATCH
  5
DC
330
1F
100
AcDbEntity
  8
중심선
100
AcDbHatch
 10
0.0
 20
0.0
 30
0.0
210
0.0
220
0.0
230
1.0
  2
SOLID
 70
     1
 71
     0
 91
        1
 92
        0
 93
        4
 72
     1
 10
-17.22453438368504
 20
-35.7989250712761
 11
-20.67080962752232
 21
-35.7989250712761
 72
     1
 10
-20.67080962752232
 20
-35.7989250712761
 11
-22.79903948672635
 21
-38.3352506518487
 72
     1
 10
-22.79903948672635
 20
-38.3352506518487
 11
-19.35273115777591
 21
-38.33521122254621
 72
     1
 10
-19.35273115777591
 20
-38.33521122254621
 11
-17.22453438368504
 21
-35.7989250712761
 97
        0
 75
     0
 76
     1
 98
        1
 10
0.0
 20
0.0
  0
HATCH
  5
DD
330
1F
100
AcDbEntity
  8
중심선
100
AcDbHatch
 10
0.0
 20
0.0
 30
0.0
210
0.0
220
0.0
230
1.0
  2
SOLID
 70
     1
 71
     0
 91
        1
 92
        0
 93
        4
 72
     1
 10
-12.21177039264909
 20
-35.7989250712761
 11
-15.65804563648637
 21
-35.7989250712761
 72
     1
 10
-15.65804563648637
 20
-35.7989250712761
 11
-20.18918364484376
 21
-41.19892507127612
 72
     1
 10
-20.18918364484376
 20
-41.19892507127612
 11
-16.74290840100648
 21
-41.19892507127612
 72
     1
 10
-16.74290840100648
 20
-41.19892507127612
 11
-12.21177039264909
 21
-35.7989250712761
 97
        0
 75
     0
 76
     1
 98
        1
 10
0.0
 20
0.0
  0
HATCH
  5
DE
330
1F
100
AcDbEntity
  8
중심선
100
AcDbHatch
 10
0.0
 20
0.0
 30
0.0
210
0.0
220
0.0
230
1.0
  2
SOLID
 70
     1
 71
     0
 91
        1
 92
        0
 93
        4
 72
     1
 10
-7.199006401613195
 20
-35.79892507127613
 11
-10.64528164545031
 21
-35.7989250712761
 72
     1
 10
-10.64528164545031
 20
-35.7989250712761
 11
-17.69371854733956
 21
-44.19892507127612
 72
     1
 10
-17.69371854733956
 20
-44.19892507127612
 11
-14.24744330350228
 21
-44.19892507127612
 72
     1
 10
-14.24744330350228
 20
-44.19892507127612
 11
-7.199006401613195
 21
-35.79892507127613
 97
        0
 75
     0
 76
     1
 98
        1
 10
0.0
 20
0.0
  0
HATCH
  5
DF
330
1F
100
AcDbEntity
  8
중심선
100
AcDbHatch
 10
0.0
 20
0.0
 30
0.0
210
0.0
220
0.0
230
1.0
  2
SOLID
 70
     1
 71
     0
 91
        1
 92
        0
 93
        6
 72
     3
 10
-2.399115970600996
 20
-39.99892507132738
 11
3.960054785062284
 21
1.540850780301639E-10
 40
0.3939339440162633
 50
17.09539180608433
 51
320.0019657685079
 73
     0
 72
     1
 10
-0.7161163149004002
 20
-38.58681907591441
 11
1.589185558800638
 21
-36.65249236586649
 72
     3
 10
-2.399115970653842
 20
-39.99892507127625
 11
6.600054785286829
 21
-1.249000902703301E-13
 40
0.6363583540795982
 50
39.99873849337408
 51
368.4976242363725
 73
     1
 72
     1
 10
4.026216521246767
 20
-39.03892507120613
 11
-3.71904866381792
 21
-39.0389250712061
 72
     1
 10
-3.71904866381792
 20
-39.0389250712061
 11
-3.719073708263854
 21
-40.95892507120602
 72
     1
 10
-3.719073708263854
 20
-40.95892507120602
 11
0.7223060612081831
 21
-40.95892507120599
 97
        0
 75
     0
 76
     1
 98
        1
 10
0.0
 20
0.0
  0
DIMENSION
  5
E0
330
1F
100
AcDbEntity
  8
치수문자_일반주서
100
AcDbDimension
  2
_D
 10
39.538078938205
 20
2.500000000000126
 30
0.0
 11
39.53807893820498
 21
12.16650000000013
 31
0.0
 70
   160
  1
%%c<>
 71
     2
 42
4.999999999999998
 52
-270.0
  3
SLDDIMSTYLE0
100
AcDbAlignedDimension
 13
29.86602540378431
 23
-2.499999999999907
 33
0.0
 14
29.86602540378443
 24
2.500000000000091
 34
0.0
 50
90.0000000000002
100
AcDbRotatedDimension
  0
DIMENSION
  5
EE
330
1F
100
AcDbEntity
  8
치수문자_일반주서
100
AcDbDimension
  2
_D_1
 10
29.86602540378444
 20
24.23841044024269
 30
0.0
 11
-5.133974596215571
 21
24.23841044024269
 31
0.0
 70
   160
  1
<>
 71
     2
 42
70.0
  3
SLDDIMSTYLE1
100
AcDbAlignedDimension
 13
-40.13397459621557
 23
2.449999999999994
 33
0.0
 14
29.86602540378443
 24
2.500000000000091
 34
0.0
 50
-0.0000000000000087
100
AcDbRotatedDimension
  0
DIMENSION
  5
F9
330
1F
100
AcDbEntity
  8
치수문자_일반주서
100
AcDbDimension
  2
_D_2
 10
29.86602540378443
 20
15.8026855246142
 30
0.0
 11
17.36602540378451
 21
15.8026855246142
 31
0.0
 70
   160
  1
<>
 71
     2
 42
25.0
  3
SLDDIMSTYLE1
100
AcDbAlignedDimension
 13
4.866025403784436
 23
2.455687718446742
 33
0.0
 14
29.86602540378443
 24
2.500000000000091
 34
0.0
 50
-0.0000000000002646
100
AcDbRotatedDimension
  0
DIMENSION
  5
103
330
1F
100
AcDbEntity
  8
치수문자_일반주서
100
AcDbDimension
  2
_D_3
 10
-48.97030465437913
 20
-3.000000000000037
 30
0.0
 11
-48.97030465437918
 21
12.66649999999996
 31
0.0
 70
   160
  1
%%c<>
 71
     2
 42
5.999999999999996
 52
-270.0
  3
SLDDIMSTYLE0
100
AcDbAlignedDimension
 13
-39.58397459621557
 23
2.999999999999996
 33
0.0
 14
-39.58397459621557
 24
-3.000000000000001
 34
0.0
 50
90.0000000000002
100
AcDbRotatedDimension
  0
INSERT
  5
116
330
1F
100
AcDbEntity
  8
외형선
100
AcDbBlockReference
  2
SW_DOWELSYMBOL_0
 10
0.0000000000000104
 20
0.0
 30
0.0
  0
ENDSEC
  0
SECTION
  2
OBJECTS
  0
DICTIONARY
  5
C
330
0
100
AcDbDictionary
281
     1
  3
ACAD_GROUP
350
D
  3
ACAD_IMAGE_VARS
350
13A
  3
ACAD_LAYOUT
350
1A
  3
ACAD_MLINESTYLE
350
17
  3
ACAD_PLOTSETTINGS
350
19
  3
ACAD_PLOTSTYLENAME
350
E
  3
ACAD_SCALELIST
350
47
  3
APPDATA
350
138
  3
DWGPROPS
350
149
  0
DICTIONARY
  5
D
102
{ACAD_REACTORS
330
C
102
}
330
C
100
AcDbDictionary
281
     1
  0
RASTERVARIABLES
  5
13A
102
{ACAD_REACTORS
330
C
102
}
330
C
100
AcDbRasterVariables
 90
        0
 70
     1
 71
     1
 72
     1
  0
DICTIONARY
  5
1A
102
{ACAD_REACTORS
330
C
102
}
330
C
100
AcDbDictionary
281
     1
  3
Layout1
350
1E
  3
Layout2
350
26
  3
Model
350
22
  0
DICTIONARY
  5
17
102
{ACAD_REACTORS
330
C
102
}
330
C
100
AcDbDictionary
281
     1
  3
Standard
350
18
  0
DICTIONARY
  5
19
102
{ACAD_REACTORS
330
C
102
}
330
C
100
AcDbDictionary
281
     1
  0
ACDBDICTIONARYWDFLT
  5
E
102
{ACAD_REACTORS
330
C
102
}
330
C
100
AcDbDictionary
281
     1
  3
Normal
350
F
100
AcDbDictionaryWithDefault
340
F
  0
DICTIONARY
  5
47
102
{ACAD_REACTORS
330
C
102
}
330
C
100
AcDbDictionary
281
     1
  3
A0
350
48
  3
A1
350
49
  3
A2
350
4A
  3
A3
350
4B
  3
A4
350
4C
  3
A5
350
4D
  3
A6
350
4E
  3
A7
350
4F
  3
A8
350
50
  3
A9
350
51
  3
B0
350
52
  3
B1
350
53
  3
B2
350
54
  3
B3
350
55
  3
B4
350
56
  3
B5
350
57
  3
B6
350
58
  3
B7
350
59
  3
B8
350
5A
  3
B9
350
5B
  3
C0
350
5C
  3
C1
350
5D
  3
C2
350
5E
  3
C3
350
5F
  3
C4
350
60
  3
C5
350
61
  3
C6
350
62
  3
C7
350
63
  3
C8
350
64
  3
C9
350
65
  3
D0
350
66
  3
D1
350
67
  3
D2
350
68
  0
DICTIONARY
  5
138
102
{ACAD_REACTORS
330
C
102
}
330
C
100
AcDbDictionary
281
     1
  0
XRECORD
  5
149
102
{ACAD_REACTORS
330
C
102
}
330
C
100
AcDbXrecord
280
     1
  1
DWGPROPS COOKIE
  2

  3

  4

  6

  7

  8
12014102
  9

300
=
301
=
302
=
303
=
304
=
305
=
306
=
307
=
308
=
309
=
 40
0.0
 41
2458262.165040324
 42
2458266.014270671
  1

 90
        0
  0
LAYOUT
  5
1E
102
{ACAD_REACTORS
330
1A
102
}
330
1A
100
AcDbPlotSettings
  1

  2
none_device
  4

  6

 40
0.0
 41
0.0
 42
0.0
 43
0.0
 44
0.0
 45
0.0
 46
0.0
 47
0.0
 48
0.0
 49
0.0
140
0.0
141
0.0
142
1.0
143
1.0
 70
   688
 72
     1
 73
     0
 74
     5
  7

 75
    16
147
1.0
148
0.0
149
0.0
100
AcDbLayout
  1
Layout1
 70
     1
 71
     1
 10
0.0
 20
0.0
 11
420.0
 21
297.0
 12
0.0
 22
0.0
 32
0.0
 14
1.000000000000000E+20
 24
1.000000000000000E+20
 34
1.000000000000000E+20
 15
-1.000000000000000E+20
 25
-1.000000000000000E+20
 35
-1.000000000000000E+20
146
0.0
 13
0.0
 23
0.0
 33
0.0
 16
1.0
 26
0.0
 36
0.0
 17
0.0
 27
1.0
 37
0.0
 76
     0
330
1B
  0
LAYOUT
  5
26
102
{ACAD_REACTORS
330
1A
102
}
330
1A
100
AcDbPlotSettings
  1

  2
none_device
  4

  6

 40
0.0
 41
0.0
 42
0.0
 43
0.0
 44
0.0
 45
0.0
 46
0.0
 47
0.0
 48
0.0
 49
0.0
140
0.0
141
0.0
142
1.0
143
1.0
 70
   688
 72
     1
 73
     0
 74
     5
  7

 75
    16
147
1.0
148
0.0
149
0.0
100
AcDbLayout
  1
Layout2
 70
     1
 71
     2
 10
0.0
 20
0.0
 11
0.0
 21
0.0
 12
0.0
 22
0.0
 32
0.0
 14
0.0
 24
0.0
 34
0.0
 15
0.0
 25
0.0
 35
0.0
146
0.0
 13
0.0
 23
0.0
 33
0.0
 16
1.0
 26
0.0
 36
0.0
 17
0.0
 27
1.0
 37
0.0
 76
     0
330
23
  0
LAYOUT
  5
22
102
{ACAD_REACTORS
330
1A
102
}
330
1A
100
AcDbPlotSettings
  1

  2
none_device
  4
ANSI_A_(11.00_x_8.50_Inches)
  6

 40
6.35
 41
19.05
 42
6.35000508
 43
19.05000254
 44
279.4
 45
215.9
 46
139.0407171376934
 47
118.4377884955873
 48
0.0
 49
0.0
140
0.0
141
0.0
142
0.1058944507156154
143
1.0
 70
  1696
 72
     0
 73
     0
 74
     0
  7

 75
     0
147
0.0235690232323232
148
0.0
149
0.0
100
AcDbLayout
  1
Model
 70
     1
 71
     0
 10
0.0
 20
0.0
 11
420.0
 21
297.0
 12
0.0
 22
0.0
 32
0.0
 14
-53.34530465437919
 24
-49.97073246008785
 34
0.0
 15
40.08841227153836
 25
28.61341044024269
 35
0.0
146
0.0
 13
0.0
 23
0.0
 33
0.0
 16
1.0
 26
0.0
 36
0.0
 17
0.0
 27
1.0
 37
0.0
 76
     0
330
1F
331
29
  0
MLINESTYLE
  5
18
102
{ACAD_REACTORS
330
17
102
}
330
17
100
AcDbMlineStyle
  2
Standard
 70
     0
  3

 62
   256
 51
90.0
 52
90.0
 71
     2
 49
0.5
 62
   256
  6
BYLAYER
 49
-0.5
 62
   256
  6
BYLAYER
  0
ACDBPLACEHOLDER
  5
F
102
{ACAD_REACTORS
330
E
102
}
330
E
  0
SCALE
  5
48
102
{ACAD_REACTORS
330
47
102
}
330
47
100
AcDbScale
 70
     0
300
1:1
140
1.0
141
1.0
290
     1
  0
SCALE
  5
49
102
{ACAD_REACTORS
330
47
102
}
330
47
100
AcDbScale
 70
     0
300
1:2
140
1.0
141
2.0
290
     0
  0
SCALE
  5
4A
102
{ACAD_REACTORS
330
47
102
}
330
47
100
AcDbScale
 70
     0
300
1:4
140
1.0
141
4.0
290
     0
  0
SCALE
  5
4B
102
{ACAD_REACTORS
330
47
102
}
330
47
100
AcDbScale
 70
     0
300
1:5
140
1.0
141
5.0
290
     0
  0
SCALE
  5
4C
102
{ACAD_REACTORS
330
47
102
}
330
47
100
AcDbScale
 70
     0
300
1:8
140
1.0
141
8.0
290
     0
  0
SCALE
  5
4D
102
{ACAD_REACTORS
330
47
102
}
330
47
100
AcDbScale
 70
     0
300
1:10
140
1.0
141
10.0
290
     0
  0
SCALE
  5
4E
102
{ACAD_REACTORS
330
47
102
}
330
47
100
AcDbScale
 70
     0
300
1:16
140
1.0
141
16.0
290
     0
  0
SCALE
  5
4F
102
{ACAD_REACTORS
330
47
102
}
330
47
100
AcDbScale
 70
     0
300
1:20
140
1.0
141
20.0
290
     0
  0
SCALE
  5
50
102
{ACAD_REACTORS
330
47
102
}
330
47
100
AcDbScale
 70
     0
300
1:30
140
1.0
141
30.0
290
     0
  0
SCALE
  5
51
102
{ACAD_REACTORS
330
47
102
}
330
47
100
AcDbScale
 70
     0
300
1:40
140
1.0
141
40.0
290
     0
  0
SCALE
  5
52
102
{ACAD_REACTORS
330
47
102
}
330
47
100
AcDbScale
 70
     0
300
1:50
140
1.0
141
50.0
290
     0
  0
SCALE
  5
53
102
{ACAD_REACTORS
330
47
102
}
330
47
100
AcDbScale
 70
     0
300
1:100
140
1.0
141
100.0
290
     0
  0
SCALE
  5
54
102
{ACAD_REACTORS
330
47
102
}
330
47
100
AcDbScale
 70
     0
300
2:1
140
2.0
141
1.0
290
     0
  0
SCALE
  5
55
102
{ACAD_REACTORS
330
47
102
}
330
47
100
AcDbScale
 70
     0
300
4:1
140
4.0
141
1.0
290
     0
  0
SCALE
  5
56
102
{ACAD_REACTORS
330
47
102
}
330
47
100
AcDbScale
 70
     0
300
8:1
140
8.0
141
1.0
290
     0
  0
SCALE
  5
57
102
{ACAD_REACTORS
330
47
102
}
330
47
100
AcDbScale
 70
     0
300
10:1
140
10.0
141
1.0
290
     0
  0
SCALE
  5
58
102
{ACAD_REACTORS
330
47
102
}
330
47
100
AcDbScale
 70
     0
300
100:1
140
100.0
141
1.0
290
     0
  0
SCALE
  5
59
102
{ACAD_REACTORS
330
47
102
}
330
47
100
AcDbScale
 70
     0
300
1/128" = 1'-0"
140
0.0078125
141
12.0
290
     0
  0
SCALE
  5
5A
102
{ACAD_REACTORS
330
47
102
}
330
47
100
AcDbScale
 70
     0
300
1/64" = 1'-0"
140
0.015625
141
12.0
290
     0
  0
SCALE
  5
5B
102
{ACAD_REACTORS
330
47
102
}
330
47
100
AcDbScale
 70
     0
300
1/32" = 1'-0"
140
0.03125
141
12.0
290
     0
  0
SCALE
  5
5C
102
{ACAD_REACTORS
330
47
102
}
330
47
100
AcDbScale
 70
     0
300
1/16" = 1'-0"
140
0.0625
141
12.0
290
     0
  0
SCALE
  5
5D
102
{ACAD_REACTORS
330
47
102
}
330
47
100
AcDbScale
 70
     0
300
3/32" = 1'-0"
140
0.09375
141
12.0
290
     0
  0
SCALE
  5
5E
102
{ACAD_REACTORS
330
47
102
}
330
47
100
AcDbScale
 70
     0
300
1/8" = 1'-0"
140
0.125
141
12.0
290
     0
  0
SCALE
  5
5F
102
{ACAD_REACTORS
330
47
102
}
330
47
100
AcDbScale
 70
     0
300
3/16" = 1'-0"
140
0.1875
141
12.0
290
     0
  0
SCALE
  5
60
102
{ACAD_REACTORS
330
47
102
}
330
47
100
AcDbScale
 70
     0
300
1/4" = 1'-0"
140
0.25
141
12.0
290
     0
  0
SCALE
  5
61
102
{ACAD_REACTORS
330
47
102
}
330
47
100
AcDbScale
 70
     0
300
3/8" = 1'-0"
140
0.375
141
12.0
290
     0
  0
SCALE
  5
62
102
{ACAD_REACTORS
330
47
102
}
330
47
100
AcDbScale
 70
     0
300
1/2" = 1'-0"
140
0.5
141
12.0
290
     0
  0
SCALE
  5
63
102
{ACAD_REACTORS
330
47
102
}
330
47
100
AcDbScale
 70
     0
300
3/4" = 1'-0"
140
0.75
141
12.0
290
     0
  0
SCALE
  5
64
102
{ACAD_REACTORS
330
47
102
}
330
47
100
AcDbScale
 70
     0
300
1" = 1'-0"
140
1.0
141
12.0
290
     0
  0
SCALE
  5
65
102
{ACAD_REACTORS
330
47
102
}
330
47
100
AcDbScale
 70
     0
300
1-1/2" = 1'-0"
140
1.5
141
12.0
290
     0
  0
SCALE
  5
66
102
{ACAD_REACTORS
330
47
102
}
330
47
100
AcDbScale
 70
     0
300
3" = 1'-0"
140
3.0
141
12.0
290
     0
  0
SCALE
  5
67
102
{ACAD_REACTORS
330
47
102
}
330
47
100
AcDbScale
 70
     0
300
6" = 1'-0"
140
6.0
141
12.0
290
     0
  0
SCALE
  5
68
102
{ACAD_REACTORS
330
47
102
}
330
47
100
AcDbScale
 70
     0
300
1'-0" = 1'-0"
140
12.0
141
12.0
290
     0
  0
ENDSEC
  0
EOF
