  0
SECTION
  2
HEADER
  9
$ACADVER
  1
AC1015
  9
$ACADMAINTVER
 70
     6
  9
$DWGCODEPAGE
  3
ANSI_949
  9
$INSBASE
 10
0.0
 20
0.0
 30
0.0
  9
$EXTMIN
 10
-82.97504074144624
 20
-49.97073246008785
 30
0.0
  9
$EXTMAX
 10
39.07168302161838
 20
28.61341044024269
 30
0.0
  9
$LIMMIN
 10
0.0
 20
0.0
  9
$LIMMAX
 10
420.0
 20
297.0
  9
$ORTHOMODE
 70
     0
  9
$REGENMODE
 70
     1
  9
$FILLMODE
 70
     1
  9
$QTEXTMODE
 70
     0
  9
$MIRRTEXT
 70
     1
  9
$LTSCALE
 40
1.0
  9
$ATTMODE
 70
     1
  9
$TEXTSIZE
 40
3.5
  9
$TRACEWID
 40
1.0
  9
$TEXTSTYLE
  7
Standard
  9
$CLAYER
  8
0
  9
$CELTYPE
  6
ByLayer
  9
$CECOLOR
 62
   256
  9
$CELTSCALE
 40
1.0
  9
$DISPSILH
 70
     0
  9
$DIMSCALE
 40
1.0
  9
$DIMASZ
 40
3.302
  9
$DIMEXO
 40
1.0
  9
$DIMDLI
 40
3.75
  9
$DIMRND
 40
0.0
  9
$DIMDLE
 40
0.0
  9
$DIMEXE
 40
1.0
  9
$DIMTP
 40
0.0
  9
$DIMTM
 40
0.0
  9
$DIMTXT
 40
3.5
  9
$DIMCEN
 40
2.5
  9
$DIMTSZ
 40
0.0
  9
$DIMTOL
 70
     0
  9
$DIMLIM
 70
     0
  9
$DIMTIH
 70
     1
  9
$DIMTOH
 70
     1
  9
$DIMSE1
 70
     0
  9
$DIMSE2
 70
     0
  9
$DIMTAD
 70
     1
  9
$DIMZIN
 70
     0
  9
$DIMBLK
  1

  9
$DIMASO
 70
     1
  9
$DIMSHO
 70
     1
  9
$DIMPOST
  1

  9
$DIMAPOST
  1

  9
$DIMALT
 70
     0
  9
$DIMALTD
 70
     3
  9
$DIMALTF
 40
0.0393700787401575
  9
$DIMLFAC
 40
1.0
  9
$DIMTOFL
 70
     1
  9
$DIMTVP
 40
0.0
  9
$DIMTIX
 70
     0
  9
$DIMSOXD
 70
     0
  9
$DIMSAH
 70
     0
  9
$DIMBLK1
  1

  9
$DIMBLK2
  1

  9
$DIMSTYLE
  2
ISO-25
  9
$DIMCLRD
 70
     0
  9
$DIMCLRE
 70
     0
  9
$DIMCLRT
 70
     0
  9
$DIMTFAC
 40
1.0
  9
$DIMGAP
 40
1.524
  9
$DIMJUST
 70
     0
  9
$DIMSD1
 70
     0
  9
$DIMSD2
 70
     0
  9
$DIMTOLJ
 70
     0
  9
$DIMTZIN
 70
     0
  9
$DIMALTZ
 70
     0
  9
$DIMALTTZ
 70
     0
  9
$DIMUPT
 70
     0
  9
$DIMDEC
 70
     2
  9
$DIMTDEC
 70
     2
  9
$DIMALTU
 70
     2
  9
$DIMALTTD
 70
     3
  9
$DIMTXSTY
  7
Standard
  9
$DIMAUNIT
 70
     0
  9
$DIMADEC
 70
     2
  9
$DIMALTRND
 40
0.0
  9
$DIMAZIN
 70
     0
  9
$DIMDSEP
 70
    44
  9
$DIMATFIT
 70
     3
  9
$DIMFRAC
 70
     0
  9
$DIMLDRBLK
  1

  9
$DIMLUNIT
 70
     2
  9
$DIMLWD
 70
    -2
  9
$DIMLWE
 70
    -2
  9
$DIMTMOVE
 70
     0
  9
$LUNITS
 70
     2
  9
$LUPREC
 70
     2
  9
$SKETCHINC
 40
1.0
  9
$FILLETRAD
 40
10.0
  9
$AUNITS
 70
     0
  9
$AUPREC
 70
     2
  9
$MENU
  1
.
  9
$ELEVATION
 40
0.0
  9
$PELEVATION
 40
0.0
  9
$THICKNESS
 40
0.0
  9
$LIMCHECK
 70
     0
  9
$CHAMFERA
 40
0.0
  9
$CHAMFERB
 40
0.0
  9
$CHAMFERC
 40
0.0
  9
$CHAMFERD
 40
0.0
  9
$SKPOLY
 70
     0
  9
$TDCREATE
 40
2458262.539852049
  9
$TDUCREATE
 40
2458262.164852049
  9
$TDUPDATE
 40
2458266.65707309
  9
$TDUUPDATE
 40
2458266.28207309
  9
$TDINDWG
 40
0.0016030208
  9
$TDUSRTIMER
 40
2458266.280470127
  9
$USRTIMER
 70
     1
  9
$ANGBASE
 50
0.0
  9
$ANGDIR
 70
     0
  9
$PDMODE
 70
     0
  9
$PDSIZE
 40
-1.0
  9
$PLINEWID
 40
0.0
  9
$SPLFRAME
 70
     0
  9
$SPLINETYPE
 70
     6
  9
$SPLINESEGS
 70
     8
  9
$HANDSEED
  5
149
  9
$SURFTAB1
 70
     6
  9
$SURFTAB2
 70
     6
  9
$SURFTYPE
 70
     6
  9
$SURFU
 70
     6
  9
$SURFV
 70
     6
  9
$UCSBASE
  2

  9
$UCSNAME
  2

  9
$UCSORG
 10
0.0
 20
0.0
 30
0.0
  9
$UCSXDIR
 10
1.0
 20
0.0
 30
0.0
  9
$UCSYDIR
 10
0.0
 20
1.0
 30
0.0
  9
$UCSORTHOREF
  2

  9
$UCSORTHOVIEW
 70
     0
  9
$UCSORGTOP
 10
0.0
 20
0.0
 30
0.0
  9
$UCSORGBOTTOM
 10
0.0
 20
0.0
 30
0.0
  9
$UCSORGLEFT
 10
0.0
 20
0.0
 30
0.0
  9
$UCSORGRIGHT
 10
0.0
 20
0.0
 30
0.0
  9
$UCSORGFRONT
 10
0.0
 20
0.0
 30
0.0
  9
$UCSORGBACK
 10
0.0
 20
0.0
 30
0.0
  9
$PUCSBASE
  2

  9
$PUCSNAME
  2

  9
$PUCSORG
 10
0.0
 20
0.0
 30
0.0
  9
$PUCSXDIR
 10
1.0
 20
0.0
 30
0.0
  9
$PUCSYDIR
 10
0.0
 20
1.0
 30
0.0
  9
$PUCSORTHOREF
  2

  9
$PUCSORTHOVIEW
 70
     0
  9
$PUCSORGTOP
 10
0.0
 20
0.0
 30
0.0
  9
$PUCSORGBOTTOM
 10
0.0
 20
0.0
 30
0.0
  9
$PUCSORGLEFT
 10
0.0
 20
0.0
 30
0.0
  9
$PUCSORGRIGHT
 10
0.0
 20
0.0
 30
0.0
  9
$PUCSORGFRONT
 10
0.0
 20
0.0
 30
0.0
  9
$PUCSORGBACK
 10
0.0
 20
0.0
 30
0.0
  9
$USERI1
 70
     0
  9
$USERI2
 70
     0
  9
$USERI3
 70
     0
  9
$USERI4
 70
     0
  9
$USERI5
 70
     0
  9
$USERR1
 40
0.0
  9
$USERR2
 40
0.0
  9
$USERR3
 40
0.0
  9
$USERR4
 40
0.0
  9
$USERR5
 40
0.0
  9
$WORLDVIEW
 70
     1
  9
$SHADEDGE
 70
     3
  9
$SHADEDIF
 70
    70
  9
$TILEMODE
 70
     1
  9
$MAXACTVP
 70
    64
  9
$PINSBASE
 10
0.0
 20
0.0
 30
0.0
  9
$PLIMCHECK
 70
     0
  9
$PEXTMIN
 10
1.000000000000000E+20
 20
1.000000000000000E+20
 30
1.000000000000000E+20
  9
$PEXTMAX
 10
-1.000000000000000E+20
 20
-1.000000000000000E+20
 30
-1.000000000000000E+20
  9
$PLIMMIN
 10
0.0
 20
0.0
  9
$PLIMMAX
 10
0.0
 20
0.0
  9
$UNITMODE
 70
     0
  9
$VISRETAIN
 70
     1
  9
$PLINEGEN
 70
     0
  9
$PSLTSCALE
 70
     1
  9
$TREEDEPTH
 70
  3020
  9
$CMLSTYLE
  2
Standard
  9
$CMLJUST
 70
     0
  9
$CMLSCALE
 40
20.0
  9
$PROXYGRAPHICS
 70
     1
  9
$MEASUREMENT
 70
     1
  9
$CELWEIGHT
370
    -1
  9
$ENDCAPS
280
     0
  9
$JOINSTYLE
280
     0
  9
$LWDISPLAY
290
     1
  9
$INSUNITS
 70
     4
  9
$HYPERLINKBASE
  1

  9
$STYLESHEET
  1

  9
$XEDIT
290
     1
  9
$CEPSNTYPE
380
     0
  9
$PSTYLEMODE
290
     1
  9
$FINGERPRINTGUID
  2
{81323DFF-D93E-4556-A25D-F458314BE22B}
  9
$VERSIONGUID
  2
{FAEB1C32-E019-11D5-929B-00C0DF256EC4}
  9
$EXTNAMES
290
     1
  9
$PSVPSCALE
 40
0.0
  9
$OLESTARTUP
290
     0
  0
ENDSEC
  0
SECTION
  2
CLASSES
  0
CLASS
  1
ACDBDICTIONARYWDFLT
  2
AcDbDictionaryWithDefault
  3
ObjectDBX Classes
 90
        0
280
     0
281
     0
  0
CLASS
  1
VISUALSTYLE
  2
AcDbVisualStyle
  3
ObjectDBX Classes
 90
     4095
280
     0
281
     0
  0
CLASS
  1
MATERIAL
  2
AcDbMaterial
  3
ObjectDBX Classes
 90
     1153
280
     0
281
     0
  0
CLASS
  1
SCALE
  2
AcDbScale
  3
ObjectDBX Classes
 90
     1153
280
     0
281
     0
  0
CLASS
  1
SUN
  2
AcDbSun
  3
SCENEOE
 90
     1153
280
     0
281
     0
  0
CLASS
  1
ACDBPLACEHOLDER
  2
AcDbPlaceHolder
  3
ObjectDBX Classes
 90
        0
280
     0
281
     0
  0
CLASS
  1
LAYOUT
  2
AcDbLayout
  3
ObjectDBX Classes
 90
        0
280
     0
281
     0
  0
CLASS
  1
TABLESTYLE
  2
AcDbTableStyle
  3
ObjectDBX Classes
 90
     4095
280
     0
281
     0
  0
CLASS
  1
MLEADERSTYLE
  2
AcDbMLeaderStyle
  3
ACDB_MLEADERSTYLE_CLASS
 90
     4095
280
     0
281
     0
  0
CLASS
  1
RASTERVARIABLES
  2
AcDbRasterVariables
  3
ISM
 90
        0
280
     0
281
     0
  0
ENDSEC
  0
SECTION
  2
TABLES
  0
TABLE
  2
VPORT
  5
8
330
0
100
AcDbSymbolTable
 70
     1
  0
VPORT
  5
29
330
8
100
AcDbSymbolTableRecord
100
AcDbViewportTableRecord
  2
*Active
 70
     0
 10
0.0
 20
0.0
 11
1.0
 21
1.0
 12
-21.95167885991393
 22
-10.67866100992259
 13
0.0
 23
0.0
 14
10.0
 24
10.0
 15
10.0
 25
10.0
 16
0.0
 26
0.0
 36
1.0
 17
0.0
 27
0.0
 37
0.0
 40
108.0195599511931
 41
1.152454780361757
 42
50.0
 43
0.0
 44
0.0
 50
0.0
 51
0.0
 71
    16
 72
  2000
 73
     1
 74
     3
 75
     0
 76
     0
 77
     0
 78
     0
281
     0
 65
     1
110
0.0
120
0.0
130
0.0
111
1.0
121
0.0
131
0.0
112
0.0
122
1.0
132
0.0
 79
     0
146
0.0
  0
ENDTAB
  0
TABLE
  2
LTYPE
  5
5
330
0
100
AcDbSymbolTable
 70
     6
  0
LTYPE
  5
14
330
5
100
AcDbSymbolTableRecord
100
AcDbLinetypeTableRecord
  2
ByBlock
 70
     0
  3

 72
    65
 73
     0
 40
0.0
  0
LTYPE
  5
15
330
5
100
AcDbSymbolTableRecord
100
AcDbLinetypeTableRecord
  2
ByLayer
 70
     0
  3

 72
    65
 73
     0
 40
0.0
  0
LTYPE
  5
16
330
5
100
AcDbSymbolTableRecord
100
AcDbLinetypeTableRecord
  2
Continuous
 70
     0
  3
Solid line
 72
    65
 73
     0
 40
0.0
  0
LTYPE
  5
6A
330
5
100
AcDbSymbolTableRecord
100
AcDbLinetypeTableRecord
  2
HIDDEN
 70
     0
  3
Hidden __ __ __ __ __ __ __ __ __ __ __ __ __ __
 72
    65
 73
     2
 40
1.905
 49
1.27
 74
     0
 49
-0.635
 74
     0
  0
LTYPE
  5
6B
330
5
100
AcDbSymbolTableRecord
100
AcDbLinetypeTableRecord
  2
PHANTOM
 70
     0
  3
Phantom ______  __  __  ______  __  __  ______
 72
    65
 73
     6
 40
12.7
 49
6.35
 74
     0
 49
-1.27
 74
     0
 49
1.27
 74
     0
 49
-1.27
 74
     0
 49
1.27
 74
     0
 49
-1.27
 74
     0
  0
LTYPE
  5
6C
330
5
100
AcDbSymbolTableRecord
100
AcDbLinetypeTableRecord
  2
CENTER
 70
     0
  3
Center ____ _ ____ _ ____ _ ____ _ ____ _ ____
 72
    65
 73
     4
 40
10.16
 49
6.35
 74
     0
 49
-1.27
 74
     0
 49
1.27
 74
     0
 49
-1.27
 74
     0
  0
LTYPE
  5
6D
330
5
100
AcDbSymbolTableRecord
100
AcDbLinetypeTableRecord
  2
CENTERX2
 70
     0
  3
Center (2x) ________  __  ________  __  _____
 72
    65
 73
     4
 40
20.32
 49
12.7
 74
     0
 49
-2.54
 74
     0
 49
2.54
 74
     0
 49
-2.54
 74
     0
  0
LTYPE
  5
6E
330
5
100
AcDbSymbolTableRecord
100
AcDbLinetypeTableRecord
  2
DOT2
 70
     0
  3
Dot (.5x) ........................................
 72
    65
 73
     2
 40
0.635
 49
0.0
 74
     0
 49
-0.635
 74
     0
  0
ENDTAB
  0
TABLE
  2
LAYER
  5
2
330
0
100
AcDbSymbolTable
 70
    17
  0
LAYER
  5
10
330
2
100
AcDbSymbolTableRecord
100
AcDbLayerTableRecord
  2
0
 70
     0
 62
     7
  6
Continuous
370
    -3
390
F
  0
LAYER
  5
6F
330
2
100
AcDbSymbolTableRecord
100
AcDbLayerTableRecord
  2
FORMAT
 70
     0
 62
     2
  6
Continuous
370
    -3
390
F
  0
LAYER
  5
70
330
2
100
AcDbSymbolTableRecord
100
AcDbLayerTableRecord
  2
외형선
 70
     0
 62
   100
  6
Continuous
370
    30
390
F
  0
LAYER
  5
71
330
2
100
AcDbSymbolTableRecord
100
AcDbLayerTableRecord
  2
숨은선
 70
     0
 62
     2
  6
HIDDEN
370
    15
390
F
  0
LAYER
  5
72
330
2
100
AcDbSymbolTableRecord
100
AcDbLayerTableRecord
  2
중심선
 70
     0
 62
     1
  6
CENTERX2
370
    -3
390
F
  0
LAYER
  5
73
330
2
100
AcDbSymbolTableRecord
100
AcDbLayerTableRecord
  2
파단선
 70
     0
 62
     4
  6
Continuous
370
    -3
390
F
  0
LAYER
  5
74
330
2
100
AcDbSymbolTableRecord
100
AcDbLayerTableRecord
  2
해칭선
 70
     0
 62
     4
  6
Continuous
370
    -3
390
F
  0
LAYER
  5
75
330
2
100
AcDbSymbolTableRecord
100
AcDbLayerTableRecord
  2
가는실선
 70
     0
 62
     4
  6
Continuous
370
    -3
390
F
  0
LAYER
  5
76
330
2
100
AcDbSymbolTableRecord
100
AcDbLayerTableRecord
  2
치수_보조선
 70
     0
 62
     4
  6
Continuous
370
    -3
390
F
  0
LAYER
  5
77
330
2
100
AcDbSymbolTableRecord
100
AcDbLayerTableRecord
  2
치수문자_일반주서
 70
     0
 62
     7
  6
Continuous
370
    15
390
F
  0
LAYER
  5
78
330
2
100
AcDbSymbolTableRecord
100
AcDbLayerTableRecord
  2
개별주서
 70
     0
 62
   100
  6
Continuous
370
    30
390
F
  0
LAYER
  5
79
330
2
100
AcDbSymbolTableRecord
100
AcDbLayerTableRecord
  2
중간선
 70
     0
 62
     2
  6
Continuous
370
    15
390
F
  0
LAYER
  5
7A
330
2
100
AcDbSymbolTableRecord
100
AcDbLayerTableRecord
  2
윤곽선
 70
     0
 62
     3
  6
Continuous
370
    40
390
F
  0
LAYER
  5
7B
330
2
100
AcDbSymbolTableRecord
100
AcDbLayerTableRecord
  2
중심마크
 70
     0
 62
   100
  6
Continuous
370
    30
390
F
  0
LAYER
  5
7C
330
2
100
AcDbSymbolTableRecord
100
AcDbLayerTableRecord
  2
가상선
 70
     0
 62
     4
  6
PHANTOM
370
    -3
390
F
  0
LAYER
  5
7D
330
2
100
AcDbSymbolTableRecord
100
AcDbLayerTableRecord
  2
특수지정선
 70
     0
 62
     5
  6
CENTERX2
370
    60
390
F
  0
LAYER
  5
13B
330
2
100
AcDbSymbolTableRecord
100
AcDbLayerTableRecord
  2
Defpoints
 70
     0
 62
     7
  6
Continuous
290
     0
370
    -3
390
F
  0
ENDTAB
  0
TABLE
  2
STYLE
  5
3
330
0
100
AcDbSymbolTable
 70
     2
  0
STYLE
  5
11
330
3
100
AcDbSymbolTableRecord
100
AcDbTextStyleTableRecord
  2
Standard
 70
     0
 40
0.0
 41
1.0
 50
0.0
 71
     0
 42
3.5
  3
txt
  4

  0
STYLE
  5
93
330
3
100
AcDbSymbolTableRecord
100
AcDbTextStyleTableRecord
  2
SLDTEXTSTYLE0
 70
     0
 40
0.0
 41
0.75
 50
0.0
 71
     0
 42
3.5
  3
TXT
  4

  0
ENDTAB
  0
TABLE
  2
VIEW
  5
6
330
0
100
AcDbSymbolTable
 70
     0
  0
ENDTAB
  0
TABLE
  2
UCS
  5
7
330
0
100
AcDbSymbolTable
 70
     0
  0
ENDTAB
  0
TABLE
  2
APPID
  5
9
330
0
100
AcDbSymbolTable
 70
     1
  0
APPID
  5
12
330
9
100
AcDbSymbolTableRecord
100
AcDbRegAppTableRecord
  2
ACAD
 70
     0
  0
ENDTAB
  0
TABLE
  2
DIMSTYLE
  5
A
330
0
100
AcDbSymbolTable
 70
     3
100
AcDbDimStyleTable
  0
DIMSTYLE
105
27
330
A
100
AcDbSymbolTableRecord
100
AcDbDimStyleTableRecord
  2
ISO-25
 70
     0
 41
2.5
 42
0.625
 43
3.75
 44
1.25
 73
     0
 74
     0
 77
     1
 78
     8
140
2.5
141
2.5
143
0.03937007874016
147
0.625
171
     3
172
     1
178
     0
271
     2
272
     2
274
     3
278
    44
283
     0
284
     8
340
11
  0
DIMSTYLE
105
E1
102
{ACAD_REACTORS
330
E0
330
103
102
}
330
A
100
AcDbSymbolTableRecord
100
AcDbDimStyleTableRecord
  2
SLDDIMSTYLE0
 70
     0
 41
3.302
 44
0.0
 45
0.000000001
 73
     0
 74
     0
 77
     1
 78
    12
 79
     3
140
3.5
147
0.875
172
     1
173
     1
178
     0
271
     2
272
     2
276
     2
284
    12
289
     0
340
93
  0
DIMSTYLE
105
EF
102
{ACAD_REACTORS
330
EE
330
F9
102
}
330
A
100
AcDbSymbolTableRecord
100
AcDbDimStyleTableRecord
  2
SLDDIMSTYLE1
 70
     0
 41
3.302
 44
0.0
 45
0.000000001
 73
     0
 74
     0
 77
     1
 78
    12
 79
     3
140
3.5
147
0.875
173
     1
178
     0
271
     2
272
     2
276
     2
284
    12
340
93
  0
ENDTAB
  0
TABLE
  2
BLOCK_RECORD
  5
1
330
0
100
AcDbSymbolTable
 70
     7
  0
BLOCK_RECORD
  5
1F
330
1
100
AcDbSymbolTableRecord
100
AcDbBlockTableRecord
  2
*Model_Space
340
22
  0
BLOCK_RECORD
  5
1B
330
1
100
AcDbSymbolTableRecord
100
AcDbBlockTableRecord
  2
*Paper_Space
340
1E
  0
BLOCK_RECORD
  5
23
330
1
100
AcDbSymbolTableRecord
100
AcDbBlockTableRecord
  2
*Paper_Space0
340
26
  0
BLOCK_RECORD
  5
7E
330
1
100
AcDbSymbolTableRecord
100
AcDbBlockTableRecord
  2
블럭10
340
0
102
{BLKREFS
331
D9
102
}
  0
BLOCK_RECORD
  5
E2
330
1
100
AcDbSymbolTableRecord
100
AcDbBlockTableRecord
  2
_D
340
0
  0
BLOCK_RECORD
  5
F0
330
1
100
AcDbSymbolTableRecord
100
AcDbBlockTableRecord
  2
_D_1
340
0
  0
BLOCK_RECORD
  5
FA
330
1
100
AcDbSymbolTableRecord
100
AcDbBlockTableRecord
  2
_D_2
340
0
  0
BLOCK_RECORD
  5
104
330
1
100
AcDbSymbolTableRecord
100
AcDbBlockTableRecord
  2
_D_3
340
0
  0
BLOCK_RECORD
  5
110
330
1
100
AcDbSymbolTableRecord
100
AcDbBlockTableRecord
  2
SW_DOWELSYMBOL_0
340
0
102
{BLKREFS
331
116
102
}
  0
ENDTAB
  0
ENDSEC
  0
SECTION
  2
BLOCKS
  0
BLOCK
  5
20
330
1F
100
AcDbEntity
  8
0
100
AcDbBlockBegin
  2
*Model_Space
 70
     0
 10
0.0
 20
0.0
 30
0.0
  3
*Model_Space
  1

  0
ENDBLK
  5
21
330
1F
100
AcDbEntity
  8
0
100
AcDbBlockEnd
  0
BLOCK
  5
1C
330
1B
100
AcDbEntity
 67
     1
  8
0
100
AcDbBlockBegin
  2
*Paper_Space
 70
     0
 10
0.0
 20
0.0
 30
0.0
  3
*Paper_Space
  1

  0
ENDBLK
  5
1D
330
1B
100
AcDbEntity
 67
     1
  8
0
100
AcDbBlockEnd
  0
BLOCK
  5
24
330
23
100
AcDbEntity
  8
0
100
AcDbBlockBegin
  2
*Paper_Space0
 70
     0
 10
0.0
 20
0.0
 30
0.0
  3
*Paper_Space0
  1

  0
ENDBLK
  5
25
330
23
100
AcDbEntity
  8
0
100
AcDbBlockEnd
  0
BLOCK
  5
7F
330
7E
100
AcDbEntity
  8
0
100
AcDbBlockBegin
  2
블럭10
 70
     2
 10
0.0
 20
0.0
 30
0.0
  3
블럭10
  1

  0
ELLIPSE
  5
81
330
7E
100
AcDbEntity
  8
중심선
100
AcDbEllipse
 10
20.54032771741204
 20
12.0471743016438
 30
0.0
 11
6.600054785286829
 21
-1.261213355974178E-13
 31
0.0
210
0.0
220
0.0
230
1.0
 40
0.636358354079598
 41
0.9219305317359503
 42
6.513795318482858
  0
ELLIPSE
  5
82
330
7E
100
AcDbEntity
  8
중심선
100
AcDbEllipse
 10
20.54032771746488
 20
12.04717430159265
 30
0.0
 11
3.960054785062283
 21
1.540847449632565E-10
 31
0.0
210
0.0
220
0.0
230
1.0
 40
0.3939339440162632
 41
1.131841032648279
 42
5.62031148352944
  0
LINE
  5
83
330
7E
100
AcDbEntity
  8
중심선
100
AcDbLine
 10
2.268634060543552
 20
16.24717430164393
 30
0.0
 11
5.714909304380834
 21
16.24717430164393
 31
0.0
  0
LINE
  5
84
330
7E
100
AcDbEntity
  8
중심선
100
AcDbLine
 10
5.245725140726316
 20
7.84717430164391
 30
0.0
 11
8.692000384563599
 21
7.84717430164391
 31
0.0
  0
LINE
  5
85
330
7E
100
AcDbEntity
  8
중심선
100
AcDbLine
 10
15.74043728645272
 20
16.24717430164393
 30
0.0
 11
8.692000384563599
 21
7.84717430164391
 31
0.0
  0
LINE
  5
86
330
7E
100
AcDbEntity
  8
중심선
100
AcDbLine
 10
0.1404042013395286
 20
13.71084872107135
 30
0.0
 11
3.58671253028996
 21
13.71088815037384
 31
0.0
  0
LINE
  5
87
330
7E
100
AcDbEntity
  8
중심선
100
AcDbLine
 10
2.750260043222114
 20
10.84717430164391
 30
0.0
 11
6.196535287059397
 21
10.84717430164391
 31
0.0
  0
LINE
  5
88
330
7E
100
AcDbEntity
  8
중심선
100
AcDbLine
 10
12.29416204261559
 20
16.24717430164393
 30
0.0
 11
5.245725140726316
 21
7.84717430164391
 31
0.0
  0
LINE
  5
89
330
7E
100
AcDbEntity
  8
중심선
100
AcDbLine
 10
10.72767329541681
 20
16.24717430164393
 30
0.0
 11
6.196535287059397
 21
10.84717430164391
 31
0.0
  0
LINE
  5
8A
330
7E
100
AcDbEntity
  8
중심선
100
AcDbLine
 10
7.28139805157953
 20
16.24717430164393
 30
0.0
 11
2.750260043222114
 21
10.84717430164391
 31
0.0
  0
LINE
  5
8B
330
7E
100
AcDbEntity
  8
중심선
100
AcDbLine
 10
5.714909304380834
 20
16.24717430164393
 30
0.0
 11
3.58671253028996
 21
13.71088815037384
 31
0.0
  0
LINE
  5
8C
330
7E
100
AcDbEntity
  8
중심선
100
AcDbLine
 10
2.268634060543552
 20
16.24717430164393
 30
0.0
 11
0.1404042013395286
 21
13.71084872107135
 31
0.0
  0
LINE
  5
8D
330
7E
100
AcDbEntity
  8
중심선
100
AcDbLine
 10
7.28139805157953
 20
16.24717430164393
 30
0.0
 11
10.72767329541681
 21
16.24717430164393
 31
0.0
  0
LINE
  5
8E
330
7E
100
AcDbEntity
  8
중심선
100
AcDbLine
 10
12.29416204261559
 20
16.24717430164393
 30
0.0
 11
15.74043728645272
 21
16.24717430164393
 31
0.0
  0
LINE
  5
8F
330
7E
100
AcDbEntity
  8
중심선
100
AcDbLine
 10
19.22036997980202
 20
11.08717430171403
 30
0.0
 11
23.66174974927406
 21
11.08717430171406
 31
0.0
  0
LINE
  5
90
330
7E
100
AcDbEntity
  8
중심선
100
AcDbLine
 10
19.22039502424796
 20
13.00717430171391
 30
0.0
 11
19.22036997980202
 21
11.08717430171403
 31
0.0
  0
LINE
  5
91
330
7E
100
AcDbEntity
  8
중심선
100
AcDbLine
 10
19.22039502424796
 20
13.00717430171391
 30
0.0
 11
26.96566020931264
 21
13.00717430171391
 31
0.0
  0
LINE
  5
92
330
7E
100
AcDbEntity
  8
중심선
100
AcDbLine
 10
22.22332737316547
 20
13.45928029700563
 30
0.0
 11
24.52862924686651
 21
15.39360700705356
 31
0.0
  0
ATTDEF
  5
94
330
7E
100
AcDbEntity
  8
FORMAT
 62
     2
100
AcDbText
 10
-20.85824753159254
 20
2.075366912832191
 30
0.0
 40
4.233333333333333
  1
SEME7005025100E [ 2 FLUTE ]
 41
0.75
  7
SLDTEXTSTYLE0
 11
-20.85824753159254
 21
-0.0412997538344756
 31
0.0
100
AcDbAttributeDefinition
  3

  2
AUTOATTR0
 70
     0
 74
     1
  0
ENDBLK
  5
80
330
7E
100
AcDbEntity
  8
0
100
AcDbBlockEnd
  0
BLOCK
  5
E3
330
E2
100
AcDbEntity
  8
0
100
AcDbBlockBegin
  2
_D
 70
     0
 10
0.0
 20
0.0
 30
0.0
  3
_D
  1

  0
LINE
  5
E5
330
E2
100
AcDbEntity
  8
치수문자_일반주서
 62
     0
370
    -2
100
AcDbLine
 10
29.92852540378431
 20
-2.499999999999906
 30
0.0
 11
38.52134968828504
 21
-2.499999999999874
 31
0.0
  0
LINE
  5
E6
330
E2
100
AcDbEntity
  8
치수문자_일반주서
 62
     0
370
    -2
100
AcDbLine
 10
29.92852540378443
 20
2.500000000000092
 30
0.0
 11
38.52134968828502
 21
2.500000000000124
 31
0.0
  0
LINE
  5
E7
330
E2
100
AcDbEntity
  8
치수문자_일반주서
 62
     0
370
    -2
100
AcDbLine
 10
38.52134968828504
 20
-2.499999999999874
 30
0.0
 11
38.52134968828499
 21
15.22900000000012
 31
0.0
  0
LINE
  5
E8
330
E2
100
AcDbEntity
  8
치수문자_일반주서
 62
     0
370
    -2
100
AcDbLine
 10
38.52134968828504
 20
-2.499999999999874
 30
0.0
 11
38.52134968828502
 21
2.500000000000124
 31
0.0
  0
LINE
  5
E9
330
E2
100
AcDbEntity
  8
치수문자_일반주서
 62
     0
370
    -2
100
AcDbLine
 10
38.52134968828504
 20
-5.801999999999873
 30
0.0
 11
38.52134968828505
 21
-9.103999999999873
 31
0.0
  0
LINE
  5
EA
330
E2
100
AcDbEntity
  8
치수문자_일반주서
 62
     0
370
    -2
100
AcDbLine
 10
38.52134968828501
 20
5.802000000000124
 30
0.0
 11
38.52134968828501
 21
9.104000000000124
 31
0.0
  0
SOLID
  5
EB
330
E2
100
AcDbEntity
  8
치수문자_일반주서
 62
     0
100
AcDbTrace
 10
39.07168302161838
 20
-5.801999999999872
 30
0.0
 11
37.97101635495171
 21
-5.801999999999875
 31
0.0
 12
38.52134968828504
 22
-2.499999999999874
 32
0.0
 13
38.52134968828504
 23
-2.499999999999874
 33
0.0
  0
SOLID
  5
EC
330
E2
100
AcDbEntity
  8
치수문자_일반주서
 62
     0
100
AcDbTrace
 10
37.97101635495168
 20
5.802000000000122
 30
0.0
 11
39.07168302161835
 21
5.802000000000126
 31
0.0
 12
38.52134968828502
 22
2.500000000000124
 32
0.0
 13
38.52134968828502
 23
2.500000000000124
 33
0.0
  0
MTEXT
  5
ED
330
E2
100
AcDbEntity
  8
치수문자_일반주서
 62
     0
100
AcDbMText
 10
34.14634968828499
 20
12.16650000000011
 30
0.0
 40
3.5
 41
0.0
 71
     2
 72
     1
  1
\A1;%%c5
  7
SLDTEXTSTYLE0
 11
-2.842170943040402E-15
 21
1.0
 31
0.0
 73
     1
 44
1.0
  0
POINT
  5
145
330
E2
100
AcDbEntity
  8
Defpoints
 62
     0
100
AcDbPoint
 10
29.86602540378431
 20
-2.499999999999906
 30
0.0
  0
POINT
  5
146
330
E2
100
AcDbEntity
  8
Defpoints
 62
     0
100
AcDbPoint
 10
29.86602540378443
 20
2.500000000000091
 30
0.0
  0
POINT
  5
147
330
E2
100
AcDbEntity
  8
Defpoints
 62
     0
100
AcDbPoint
 10
38.52134968828502
 20
2.500000000000124
 30
0.0
  0
ENDBLK
  5
E4
330
E2
100
AcDbEntity
  8
0
100
AcDbBlockEnd
  0
BLOCK
  5
F1
330
F0
100
AcDbEntity
  8
0
100
AcDbBlockBegin
  2
_D_1
 70
     0
 10
0.0
 20
0.0
 30
0.0
  3
_D_1
  1

  0
LINE
  5
F3
330
F0
100
AcDbEntity
  8
치수문자_일반주서
 62
     0
370
    -2
100
AcDbLine
 10
-70.13397459621557
 20
2.512499999999991
 30
0.0
 11
-70.13397459621557
 21
24.23841044024268
 31
0.0
  0
LINE
  5
F4
330
F0
100
AcDbEntity
  8
치수문자_일반주서
 62
     0
370
    -2
100
AcDbLine
 10
29.86602540378443
 20
2.562500000000091
 30
0.0
 11
29.86602540378443
 21
24.23841044024268
 31
0.0
  0
LINE
  5
F5
330
F0
100
AcDbEntity
  8
치수문자_일반주서
 62
     0
370
    -2
100
AcDbLine
 10
-66.83197459621556
 20
24.23841044024268
 30
0.0
 11
26.56402540378443
 21
24.23841044024268
 31
0.0
  0
SOLID
  5
F6
330
F0
100
AcDbEntity
  8
치수문자_일반주서
 62
     0
100
AcDbTrace
 10
-66.83197459621556
 20
24.78874377357602
 30
0.0
 11
-66.83197459621556
 21
23.68807710690935
 31
0.0
 12
-70.13397459621557
 22
24.23841044024268
 32
0.0
 13
-70.13397459621557
 23
24.23841044024268
 33
0.0
  0
SOLID
  5
F7
330
F0
100
AcDbEntity
  8
치수문자_일반주서
 62
     0
100
AcDbTrace
 10
26.56402540378443
 20
23.68807710690935
 30
0.0
 11
26.56402540378443
 21
24.78874377357602
 31
0.0
 12
29.86602540378443
 22
24.23841044024268
 32
0.0
 13
29.86602540378443
 23
24.23841044024268
 33
0.0
  0
MTEXT
  5
F8
330
F0
100
AcDbEntity
  8
치수문자_일반주서
 62
     0
100
AcDbMText
 10
-20.13397459621557
 20
28.61341044024268
 30
0.0
 40
3.5
 41
0.0
 71
     2
 72
     1
  1
\A1;100
  7
SLDTEXTSTYLE0
 73
     1
 44
1.0
  0
POINT
  5
13C
330
F0
100
AcDbEntity
  8
Defpoints
 62
     0
100
AcDbPoint
 10
-70.13397459621557
 20
2.449999999999991
 30
0.0
  0
POINT
  5
13D
330
F0
100
AcDbEntity
  8
Defpoints
 62
     0
100
AcDbPoint
 10
29.86602540378443
 20
2.500000000000091
 30
0.0
  0
POINT
  5
13E
330
F0
100
AcDbEntity
  8
Defpoints
 62
     0
100
AcDbPoint
 10
29.86602540378443
 20
24.23841044024268
 30
0.0
  0
ENDBLK
  5
F2
330
F0
100
AcDbEntity
  8
0
100
AcDbBlockEnd
  0
BLOCK
  5
FB
330
FA
100
AcDbEntity
  8
0
100
AcDbBlockBegin
  2
_D_2
 70
     0
 10
0.0
 20
0.0
 30
0.0
  3
_D_2
  1

  0
LINE
  5
FD
330
FA
100
AcDbEntity
  8
치수문자_일반주서
 62
     0
370
    -2
100
AcDbLine
 10
4.866025403784436
 20
2.518187718446742
 30
0.0
 11
4.866025403784437
 21
15.80268552461421
 31
0.0
  0
LINE
  5
FE
330
FA
100
AcDbEntity
  8
치수문자_일반주서
 62
     0
370
    -2
100
AcDbLine
 10
29.86602540378443
 20
2.562500000000091
 30
0.0
 11
29.86602540378443
 21
15.80268552461421
 31
0.0
  0
LINE
  5
FF
330
FA
100
AcDbEntity
  8
치수문자_일반주서
 62
     0
370
    -2
100
AcDbLine
 10
8.168025403784437
 20
15.80268552461421
 30
0.0
 11
26.56402540378443
 21
15.80268552461421
 31
0.0
  0
SOLID
  5
100
330
FA
100
AcDbEntity
  8
치수문자_일반주서
 62
     0
100
AcDbTrace
 10
8.168025403784437
 20
16.35301885794754
 30
0.0
 11
8.168025403784437
 21
15.25235219128087
 31
0.0
 12
4.866025403784437
 22
15.80268552461421
 32
0.0
 13
4.866025403784437
 23
15.80268552461421
 33
0.0
  0
SOLID
  5
101
330
FA
100
AcDbEntity
  8
치수문자_일반주서
 62
     0
100
AcDbTrace
 10
26.56402540378443
 20
15.25235219128087
 30
0.0
 11
26.56402540378443
 21
16.35301885794754
 31
0.0
 12
29.86602540378443
 22
15.80268552461421
 32
0.0
 13
29.86602540378443
 23
15.80268552461421
 33
0.0
  0
MTEXT
  5
102
330
FA
100
AcDbEntity
  8
치수문자_일반주서
 62
     0
100
AcDbMText
 10
17.36602540378451
 20
20.1776855246142
 30
0.0
 40
3.5
 41
0.0
 71
     2
 72
     1
  1
\A1;25
  7
SLDTEXTSTYLE0
 73
     1
 44
1.0
  0
POINT
  5
13F
330
FA
100
AcDbEntity
  8
Defpoints
 62
     0
100
AcDbPoint
 10
4.866025403784436
 20
2.455687718446742
 30
0.0
  0
POINT
  5
140
330
FA
100
AcDbEntity
  8
Defpoints
 62
     0
100
AcDbPoint
 10
29.86602540378443
 20
2.500000000000091
 30
0.0
  0
POINT
  5
141
330
FA
100
AcDbEntity
  8
Defpoints
 62
     0
100
AcDbPoint
 10
29.86602540378443
 20
15.80268552461421
 30
0.0
  0
ENDBLK
  5
FC
330
FA
100
AcDbEntity
  8
0
100
AcDbBlockEnd
  0
BLOCK
  5
105
330
104
100
AcDbEntity
  8
0
100
AcDbBlockBegin
  2
_D_3
 70
     0
 10
0.0
 20
0.0
 30
0.0
  3
_D_3
  1

  0
LINE
  5
107
330
104
100
AcDbEntity
  8
치수문자_일반주서
 62
     0
370
    -2
100
AcDbLine
 10
-69.64647459621558
 20
2.999999999999991
 30
0.0
 11
-78.60004074144621
 21
2.999999999999957
 31
0.0
  0
LINE
  5
108
330
104
100
AcDbEntity
  8
치수문자_일반주서
 62
     0
370
    -2
100
AcDbLine
 10
-69.64647459621558
 20
-3.0
 30
0.0
 11
-78.6000407414462
 21
-3.000000000000034
 31
0.0
  0
LINE
  5
109
330
104
100
AcDbEntity
  8
치수문자_일반주서
 62
     0
370
    -2
100
AcDbLine
 10
-78.60004074144621
 20
2.999999999999957
 30
0.0
 11
-78.60004074144625
 21
15.72899999999996
 31
0.0
  0
LINE
  5
10A
330
104
100
AcDbEntity
  8
치수문자_일반주서
 62
     0
370
    -2
100
AcDbLine
 10
-78.60004074144621
 20
2.999999999999957
 30
0.0
 11
-78.6000407414462
 21
-3.000000000000034
 31
0.0
  0
LINE
  5
10B
330
104
100
AcDbEntity
  8
치수문자_일반주서
 62
     0
370
    -2
100
AcDbLine
 10
-78.60004074144622
 20
6.301999999999957
 30
0.0
 11
-78.60004074144624
 21
9.603999999999957
 31
0.0
  0
LINE
  5
10C
330
104
100
AcDbEntity
  8
치수문자_일반주서
 62
     0
370
    -2
100
AcDbLine
 10
-78.60004074144618
 20
-6.302000000000033
 30
0.0
 11
-78.60004074144616
 21
-9.604000000000033
 31
0.0
  0
SOLID
  5
10D
330
104
100
AcDbEntity
  8
치수문자_일반주서
 62
     0
100
AcDbTrace
 10
-79.15037407477955
 20
6.301999999999956
 30
0.0
 11
-78.0497074081129
 21
6.301999999999958
 31
0.0
 12
-78.60004074144621
 22
2.999999999999957
 32
0.0
 13
-78.60004074144621
 23
2.999999999999957
 33
0.0
  0
SOLID
  5
10E
330
104
100
AcDbEntity
  8
치수문자_일반주서
 62
     0
100
AcDbTrace
 10
-78.04970740811285
 20
-6.302000000000032
 30
0.0
 11
-79.1503740747795
 21
-6.302000000000034
 31
0.0
 12
-78.6000407414462
 22
-3.000000000000034
 32
0.0
 13
-78.6000407414462
 23
-3.000000000000034
 33
0.0
  0
MTEXT
  5
10F
330
104
100
AcDbEntity
  8
치수문자_일반주서
 62
     0
100
AcDbMText
 10
-82.97504074144624
 20
12.66649999999995
 30
0.0
 40
3.5
 41
0.0
 71
     2
 72
     1
  1
\A1;%%c6
  7
SLDTEXTSTYLE0
 11
-2.368475785867004E-15
 21
1.0
 31
0.0
 73
     1
 44
1.0
  0
POINT
  5
142
330
104
100
AcDbEntity
  8
Defpoints
 62
     0
100
AcDbPoint
 10
-69.58397459621558
 20
2.999999999999991
 30
0.0
  0
POINT
  5
143
330
104
100
AcDbEntity
  8
Defpoints
 62
     0
100
AcDbPoint
 10
-69.58397459621558
 20
-3.0
 30
0.0
  0
POINT
  5
144
330
104
100
AcDbEntity
  8
Defpoints
 62
     0
100
AcDbPoint
 10
-78.6000407414462
 20
-3.000000000000033
 30
0.0
  0
ENDBLK
  5
106
330
104
100
AcDbEntity
  8
0
100
AcDbBlockEnd
  0
BLOCK
  5
111
330
110
100
AcDbEntity
  8
0
100
AcDbBlockBegin
  2
SW_DOWELSYMBOL_0
 70
     0
 10
0.0
 20
0.0
 30
0.0
  3
SW_DOWELSYMBOL_0
  1

  0
CIRCLE
  5
113
330
110
100
AcDbEntity
  8
외형선
 62
     0
100
AcDbCircle
 10
0.0
 20
0.0
 30
0.0
 40
3.000000000000004
  0
HATCH
  5
114
330
110
100
AcDbEntity
  8
0
  6
Continuous
 62
     0
370
    30
100
AcDbHatch
 10
0.0
 20
0.0
 30
0.0
210
0.0
220
0.0
230
1.0
  2
SOLID
 70
     1
 71
     0
 91
        1
 92
        0
 93
        3
 72
     2
 10
0.0000000000000104
 20
0.0
 40
3.000000000000004
 50
0.0
 51
90.0
 73
     1
 72
     1
 10
0.0000000000000104
 20
3.000000000000004
 11
0.0000000000000104
 21
0.0
 72
     1
 10
0.0000000000000104
 20
0.0
 11
3.000000000000015
 21
0.0
 97
        0
 75
     0
 76
     1
 98
        1
 10
0.0
 20
0.0
  0
HATCH
  5
115
330
110
100
AcDbEntity
  8
0
  6
Continuous
 62
     0
370
    30
100
AcDbHatch
 10
0.0
 20
0.0
 30
0.0
210
0.0
220
0.0
230
1.0
  2
SOLID
 70
     1
 71
     0
 91
        1
 92
        0
 93
        3
 72
     2
 10
0.0000000000000104
 20
0.0
 40
3.000000000000004
 50
180.0
 51
270.0000000000008
 73
     1
 72
     1
 10
0.0000000000000104
 20
-3.000000000000004
 11
0.0000000000000104
 21
0.0
 72
     1
 10
0.0000000000000104
 20
0.0
 11
-2.999999999999994
 21
0.0
 97
        0
 75
     0
 76
     1
 98
        1
 10
0.0
 20
0.0
  0
ENDBLK
  5
112
330
110
100
AcDbEntity
  8
0
100
AcDbBlockEnd
  0
ENDSEC
  0
SECTION
  2
ENTITIES
  0
LINE
  5
95
330
1F
100
AcDbEntity
  8
0
  6
Continuous
 62
     1
370
    15
100
AcDbLine
 10
22.73964887317179
 20
0.9644215538410017
 30
0.0
 11
22.69450999001695
 21
0.9876712157703487
 31
0.0
  0
SPLINE
  5
96
330
1F
100
AcDbEntity
  8
0
  6
Continuous
 62
     1
370
    15
100
AcDbSpline
210
0.0
220
0.0
230
1.0
 70
     8
 71
     3
 72
     9
 73
     5
 74
     0
 42
0.000000001
 43
0.00000001
 40
0.0
 40
0.0
 40
0.0
 40
0.0
 40
0.5444997605856875
 40
1.0
 40
1.0
 40
1.0
 40
1.0
 10
23.39017139803516
 20
0.6404872737728492
 30
0.0
 10
23.27207236950758
 20
0.6965964210774774
 30
0.0
 10
23.05517782321694
 20
0.7996435688747049
 30
0.0
 10
22.83839397014652
 20
0.9128541204803869
 30
0.0
 10
22.73964887317179
 20
0.9644215538410017
 30
0.0
  0
SPLINE
  5
97
330
1F
100
AcDbEntity
  8
0
  6
Continuous
 62
     1
370
    15
100
AcDbSpline
210
0.0
220
0.0
230
1.0
 70
     8
 71
     3
 72
     9
 73
     5
 74
     0
 42
0.000000001
 43
0.00000001
 40
0.0
 40
0.0
 40
0.0
 40
0.0
 40
0.437142307467682
 40
0.9999999999999999
 40
0.9999999999999999
 40
0.9999999999999999
 40
0.9999999999999999
 10
9.78656774484953
 20
0.6405379773104669
 30
0.0
 10
9.685232472562449
 20
0.6886246054262928
 30
0.0
 10
9.45341946669234
 20
0.7986268342070906
 30
0.0
 10
9.221660655144122
 20
0.9195201101991339
 30
0.0
 10
9.091213425252056
 20
0.9875658205666878
 30
0.0
  0
LINE
  5
98
330
1F
100
AcDbEntity
  8
0
  6
Continuous
 62
     1
370
    15
100
AcDbLine
 10
16.44007379551985
 20
-2.500000000000002
 30
0.0
 11
17.65277080251368
 21
-2.500000000000002
 31
0.0
  0
LINE
  5
99
330
1F
100
AcDbEntity
  8
0
  6
Continuous
 62
     1
370
    15
100
AcDbLine
 10
17.65277080251367
 20
2.500000000000002
 30
0.0
 11
16.44007379551984
 21
2.500000000000002
 31
0.0
  0
SPLINE
  5
9A
330
1F
100
AcDbEntity
  8
0
  6
Continuous
 62
     1
370
    15
100
AcDbSpline
210
0.0
220
0.0
230
1.0
 70
     8
 71
     3
 72
    16
 73
    12
 74
     0
 42
0.000000001
 43
0.00000001
 40
0.0
 40
0.0
 40
0.0
 40
0.0
 40
0.21969691280988
 40
0.3744688434984516
 40
0.4897054493650738
 40
0.5379923426850135
 40
0.5828427668018192
 40
0.6314812019740278
 40
0.7155170322786552
 40
0.8389838889752124
 40
1.0
 40
1.0
 40
1.0
 40
1.0
 10
5.398431577733422
 20
-2.058105596629545
 30
0.0
 10
5.650661967120673
 20
-2.037943507195055
 30
0.0
 10
6.080583448496901
 20
-2.003577642802688
 30
0.0
 10
6.66683125519563
 20
-1.972663834440615
 30
0.0
 10
7.047401706615373
 20
-1.960405057015182
 30
0.0
 10
7.29663266885172
 20
-1.955409474698695
 30
0.0
 10
7.466171913724596
 20
-1.953206394471956
 30
0.0
 10
7.678272780782374
 20
-1.951945340136832
 30
0.0
 10
7.984107218931674
 20
-1.95335923782001
 30
0.0
 10
8.42473630964191
 20
-1.961605723355015
 30
0.0
 10
8.765451782720111
 20
-1.977553544345424
 30
0.0
 10
8.958295244950724
 20
-1.986579941024856
 30
0.0
  0
SPLINE
  5
9B
330
1F
100
AcDbEntity
  8
0
  6
Continuous
 62
     1
370
    15
100
AcDbSpline
210
0.0
220
0.0
230
1.0
 70
     8
 71
     3
 72
    14
 73
    10
 74
     0
 42
0.000000001
 43
0.00000001
 40
0.0
 40
0.0
 40
0.0
 40
0.0
 40
0.244111019539803
 40
0.4157087564702884
 40
0.5295915966184257
 40
0.6493988694643331
 40
0.787780889626344
 40
0.961858412535064
 40
1.0
 40
1.0
 40
1.0
 40
1.0
 10
22.56179780830766
 20
1.986580333958602
 30
0.0
 10
22.39275545936211
 20
1.978517143986671
 30
0.0
 10
22.10488486341997
 20
1.964785938067602
 30
0.0
 10
21.7386557008716
 20
1.956082417147974
 30
0.0
 10
21.45827990333822
 20
1.952565585769696
 30
0.0
 10
21.20099181716357
 20
1.951972337256183
 30
0.0
 10
20.90205522763011
 20
1.955085034513067
 30
0.0
 10
20.6594222062604
 20
1.959625773644586
 30
0.0
 10
20.512588056552
 20
1.965509556961045
 30
0.0
 10
20.48619793761275
 20
1.966567033997841
 30
0.0
  0
SPLINE
  5
9C
330
1F
100
AcDbEntity
  8
0
  6
Continuous
 62
     1
370
    15
100
AcDbSpline
210
0.0
220
0.0
230
1.0
 70
     8
 71
     3
 72
    17
 73
    13
 74
     0
 42
0.000000001
 43
0.00000001
 40
0.0
 40
0.0
 40
0.0
 40
0.0
 40
0.1411450043870925
 40
0.2430747685263533
 40
0.3168414278896762
 40
0.3977590742480961
 40
0.4863584647084009
 40
0.5650653395443006
 40
0.6585994716737305
 40
0.7382270639477435
 40
0.8376987699609381
 40
1.0
 40
1.0
 40
1.0
 40
1.0
 10
18.80226213763151
 20
-2.080343960570286
 30
0.0
 10
18.97930272585879
 20
-2.063571038988462
 30
0.0
 10
19.28419555709988
 20
-2.034685326392987
 30
0.0
 10
19.68108969600959
 20
-2.006184362299174
 30
0.0
 10
20.00251632586341
 20
-1.986735197234362
 30
0.0
 10
20.307257834508
 20
-1.972062881680434
 30
0.0
 10
20.6184147018319
 20
-1.961244845560825
 30
0.0
 10
20.94532680295933
 20
-1.954168461365541
 30
0.0
 10
21.26076129066873
 20
-1.951605265931014
 30
0.0
 10
21.6023428173927
 20
-1.953729478902409
 30
0.0
 10
22.0299536428773
 20
-1.961838060509518
 30
0.0
 10
22.35825095461919
 20
-1.977110996432663
 30
0.0
 10
22.56179780830765
 20
-1.9865803339586
 30
0.0
  0
SPLINE
  5
9D
330
1F
100
AcDbEntity
  8
0
  6
Continuous
 62
     1
370
    15
100
AcDbSpline
210
0.0
220
0.0
230
1.0
 70
     8
 71
     3
 72
    12
 73
     8
 74
     0
 42
0.000000001
 43
0.00000001
 40
0.0
 40
0.0
 40
0.0
 40
0.0
 40
0.2957079208984429
 40
0.5164188225050155
 40
0.7083052045183059
 40
0.9076549264410526
 40
1.0
 40
1.0
 40
1.0
 40
1.0
 10
8.958295244950728
 20
1.986579941024857
 30
0.0
 10
8.751111637814462
 20
1.976997411453809
 30
0.0
 10
8.389290033189956
 20
1.960262659734392
 30
0.0
 10
7.893287792715311
 20
1.952018042249291
 30
0.0
 10
7.464953789710785
 20
1.952343604952721
 30
0.0
 10
7.126239233181947
 20
1.957877746057382
 30
0.0
 10
6.921936414782754
 20
1.965129518344313
 30
0.0
 10
6.857257993756358
 20
1.96742529274839
 30
0.0
  0
SPLINE
  5
9E
330
1F
100
AcDbEntity
  8
0
  6
Continuous
 62
     1
370
    15
100
AcDbSpline
210
0.0
220
0.0
230
1.0
 70
     8
 71
     3
 72
    13
 73
     9
 74
     0
 42
0.000000001
 43
0.00000001
 40
0.0
 40
0.0
 40
0.0
 40
0.0
 40
0.3029164061317853
 40
0.5140356587867909
 40
0.6457770098712898
 40
0.772059065277135
 40
0.902963474435095
 40
1.0
 40
1.0
 40
1.0
 40
1.0
 10
24.57101560754128
 20
-1.88025335096587
 30
0.0
 10
24.7593026415873
 20
-1.851911206528492
 30
0.0
 10
25.07881735795014
 20
-1.803815848890584
 30
0.0
 10
25.47920235263872
 20
-1.756511827021328
 30
0.0
 10
25.77036051258812
 20
-1.726542394948367
 30
0.0
 10
26.01169244897418
 20
-1.705001815587564
 30
0.0
 10
26.23124677613593
 20
-1.687701889279295
 30
0.0
 10
26.37270061041213
 20
-1.679351264517445
 30
0.0
 10
26.43291879203311
 20
-1.675796327734495
 30
0.0
  0
SPLINE
  5
9F
330
1F
100
AcDbEntity
  8
0
  6
Continuous
 62
     1
370
    15
100
AcDbSpline
210
0.0
220
0.0
230
1.0
 70
     8
 71
     3
 72
    18
 73
    14
 74
     0
 42
0.000000001
 43
0.00000001
 40
0.0
 40
0.0
 40
0.0
 40
0.0
 40
0.1370112167913733
 40
0.2370323399190591
 40
0.3079257473702141
 40
0.3803171078638792
 40
0.4572740449050378
 40
0.5343790983004342
 40
0.6243026886634853
 40
0.7023226549843626
 40
0.7678112830249798
 40
0.8625964131457822
 40
1.0
 40
1.0
 40
1.0
 40
1.0
 10
15.33240135042213
 20
1.709849952456302
 30
0.0
 10
15.13278236140715
 20
1.694504536025916
 30
0.0
 10
14.78743723444179
 20
1.667956636892481
 30
0.0
 10
14.33984993924866
 20
1.651151907428372
 30
0.0
 10
13.9855508057236
 20
1.644776928268129
 30
0.0
 10
13.66548387455663
 20
1.645074963353928
 30
0.0
 10
13.33595503621434
 20
1.651695198860794
 30
0.0
 10
12.98088900886963
 20
1.665732477040526
 30
0.0
 10
12.62441860307478
 20
1.687388456551926
 30
0.0
 10
12.28503787001032
 20
1.715208959498319
 30
0.0
 10
11.93817276468121
 20
1.749462960809853
 30
0.0
 10
11.50547156204442
 20
1.799529935454378
 30
0.0
 10
11.16711289973044
 20
1.850305921953701
 30
0.0
 10
10.96688054369336
 20
1.880353905171674
 30
0.0
  0
SPLINE
  5
A0
330
1F
100
AcDbEntity
  8
0
  6
Continuous
 62
     1
370
    15
100
AcDbSpline
210
0.0
220
0.0
230
1.0
 70
     8
 71
     3
 72
    12
 73
     8
 74
     0
 42
0.000000001
 43
0.00000001
 40
0.0
 40
0.0
 40
0.0
 40
0.0
 40
0.3223973302251567
 40
0.5447967129167667
 40
0.6984561575046581
 40
0.8815185463547746
 40
1.0
 40
1.0
 40
1.0
 40
1.0
 10
10.96688054369336
 20
-1.880353905171673
 30
0.0
 10
11.1671131373573
 20
-1.850316495598699
 30
0.0
 10
11.5054722012203
 20
-1.799558376762969
 30
0.0
 10
11.93817130886079
 20
-1.749398181397633
 30
0.0
 10
12.28504180235844
 20
-1.715383936574111
 30
0.0
 10
12.5670805329201
 20
-1.691403569325593
 30
0.0
 10
12.75404338040449
 20
-1.680733872558847
 30
0.0
 10
12.82750410758861
 20
-1.676541576100672
 30
0.0
  0
SPLINE
  5
A1
330
1F
100
AcDbEntity
  8
0
  6
Continuous
 62
     1
370
    15
100
AcDbSpline
210
0.0
220
0.0
230
1.0
 70
     8
 71
     3
 72
    18
 73
    14
 74
     0
 42
0.000000001
 43
0.00000001
 40
0.0
 40
0.0
 40
0.0
 40
0.0
 40
0.1333091702279914
 40
0.2251690985621584
 40
0.2812031716206442
 40
0.3346379112574611
 40
0.3900497824040887
 40
0.4526962759982315
 40
0.5403322106207233
 40
0.6282198677845788
 40
0.7175704264381217
 40
0.8407436796248471
 40
1.0
 40
1.0
 40
1.0
 40
1.0
 10
28.9747108607072
 20
1.713118496292478
 30
0.0
 10
28.77778301993407
 20
1.697561231125563
 30
0.0
 10
28.44515725748396
 20
1.671283853749829
 30
0.0
 10
28.03108522173631
 20
1.654208608968791
 30
0.0
 10
27.73589562296706
 20
1.647049926404543
 30
0.0
 10
27.49434084081902
 20
1.644671779337578
 30
0.0
 10
27.24338480213408
 20
1.645742742154767
 30
0.0
 10
26.94189079044203
 20
1.651647903098265
 30
0.0
 10
26.59231799592607
 20
1.665186021171471
 30
0.0
 10
26.20405335621417
 20
1.688906173039078
 30
0.0
 10
25.76416100433509
 20
1.725907538585457
 30
0.0
 10
25.21954668296074
 20
1.783881273428203
 30
0.0
 10
24.80485298867116
 20
1.845504986423929
 30
0.0
 10
24.57101560754128
 20
1.880253350965872
 30
0.0
  0
LINE
  5
A2
330
1F
100
AcDbEntity
  8
0
  6
Continuous
 62
   131
370
    15
100
AcDbLine
 10
2.000000000000002
 20
-3.0
 30
0.0
 11
3.866025403784436
 21
-2.5
 31
0.0
  0
LINE
  5
A3
330
1F
100
AcDbEntity
  8
0
  6
Continuous
 62
   131
370
    15
100
AcDbLine
 10
3.866025403784436
 20
2.5
 30
0.0
 11
1.999999999999998
 21
3.0
 31
0.0
  0
LINE
  5
A4
330
1F
100
AcDbEntity
  8
0
  6
Continuous
 62
   131
370
    15
100
AcDbLine
 10
1.999999999999998
 20
2.999999999999998
 30
0.0
 11
-69.58397459621558
 21
2.999999999999994
 31
0.0
  0
LINE
  5
A5
330
1F
100
AcDbEntity
  8
0
  6
Continuous
 62
   131
370
    15
100
AcDbLine
 10
-69.58397459621558
 20
-3.000000000000002
 30
0.0
 11
2.000000000000002
 21
-2.999999999999998
 31
0.0
  0
LINE
  5
A6
330
1F
100
AcDbEntity
  8
0
  6
Continuous
 62
   131
370
    15
100
AcDbLine
 10
-69.58397459621558
 20
2.999999999999991
 30
0.0
 11
-70.13397459621557
 21
2.449999999999991
 31
0.0
  0
LINE
  5
A7
330
1F
100
AcDbEntity
  8
0
  6
Continuous
 62
   131
370
    15
100
AcDbLine
 10
-70.13397459621557
 20
-2.45
 30
0.0
 11
-69.58397459621558
 21
-3.0
 31
0.0
  0
LINE
  5
A8
330
1F
100
AcDbEntity
  8
0
  6
Continuous
 62
   131
370
    15
100
AcDbLine
 10
4.048184643188426
 20
2.5
 30
0.0
 11
3.866025403784436
 21
2.5
 31
0.0
  0
LINE
  5
A9
330
1F
100
AcDbEntity
  8
0
  6
Continuous
 62
   131
370
    15
100
AcDbLine
 10
3.866025403784436
 20
-2.5
 30
0.0
 11
4.048184643188426
 21
-2.5
 31
0.0
  0
SPLINE
  5
AA
330
1F
100
AcDbEntity
  8
0
  6
Continuous
 62
     1
370
    15
100
AcDbSpline
210
0.0
220
0.0
230
1.0
 70
     8
 71
     3
 72
    17
 73
    13
 74
     0
 42
0.000000001
 43
0.00000001
 40
0.0
 40
0.0
 40
0.0
 40
0.0
 40
0.1059539313229072
 40
0.2119180309509079
 40
0.3178912746047033
 40
0.423872630222034
 40
0.5298610588172997
 40
0.6358555153538543
 40
0.7418549496274268
 40
0.8478583071590698
 40
0.953864530096002
 40
0.9999999999999999
 40
0.9999999999999999
 40
0.9999999999999999
 40
0.9999999999999999
 10
29.86602540378443
 20
-2.372352173079748
 30
0.0
 10
29.43470579693558
 20
-2.273229144507095
 30
0.0
 10
28.57202518987663
 20
-2.074973574612392
 30
0.0
 10
27.27791429654686
 20
-1.537201877881005
 30
0.0
 10
25.98367143415578
 20
-0.8781624044813728
 30
0.0
 10
24.68930922792814
 20
-0.1372285776208772
 30
0.0
 10
23.39484355736509
 20
0.6150610517015737
 30
0.0
 10
22.10028952984421
 20
1.312173699539005
 30
0.0
 10
20.80566263765687
 20
1.896270199070551
 30
0.0
 10
19.51097807624581
 20
2.299287467198024
 30
0.0
 10
18.46000775531869
 20
2.499883084326275
 30
0.0
 10
17.84060007960213
 20
2.478941316764614
 30
0.0
 10
17.65277080251367
 20
2.472590932007902
 30
0.0
  0
SPLINE
  5
AB
330
1F
100
AcDbEntity
  8
0
  6
Continuous
 62
     1
370
    15
100
AcDbSpline
210
0.0
220
0.0
230
1.0
 70
     8
 71
     3
 72
     9
 73
     5
 74
     0
 42
0.000000001
 43
0.00000001
 40
0.0
 40
0.0
 40
0.0
 40
0.0
 40
0.2987989705677221
 40
1.0
 40
1.0
 40
1.0
 40
1.0
 10
6.856326150725854
 20
-1.967759017128001
 30
0.0
 10
6.658111058518154
 20
-2.043518363950517
 30
0.0
 10
5.994738317202854
 20
-2.297064574898206
 30
0.0
 10
5.33125828521792
 20
-2.39030643215343
 30
0.0
 10
4.866025403782324
 20
-2.455687718446971
 30
0.0
  0
SPLINE
  5
AC
330
1F
100
AcDbEntity
  8
0
  6
Continuous
 62
   131
370
    15
100
AcDbSpline
210
0.0
220
0.0
230
1.0
 70
    24
 71
     3
 72
     8
 73
     4
 74
     0
 42
0.000000001
 43
0.00000001
 40
0.0
 40
0.0
 40
0.0
 40
0.0
 40
1.0
 40
1.0
 40
1.0
 40
1.0
 10
4.866025403784436
 20
-2.107547339648621
 30
0.0
 10
4.866025403784436
 20
-2.22820259753112
 30
0.0
 10
4.866025403784436
 20
-2.345015676002573
 30
0.0
 10
4.866025403784436
 20
-2.455687718442768
 30
0.0
  0
SPLINE
  5
AD
330
1F
100
AcDbEntity
  8
0
  6
Continuous
 62
     1
370
    15
100
AcDbSpline
210
0.0
220
0.0
230
1.0
 70
     8
 71
     3
 72
    22
 73
    18
 74
     0
 42
0.000000001
 43
0.00000001
 40
0.0
 40
0.0
 40
0.0
 40
0.0
 40
0.125
 40
0.125
 40
0.25
 40
0.25
 40
0.375
 40
0.375
 40
0.5
 40
0.5
 40
0.625
 40
0.625
 40
0.75
 40
0.75
 40
0.875
 40
0.875
 40
1.0
 40
1.0
 40
1.0
 40
1.0
 10
29.86602540378443
 20
-1.972430660920538
 30
0.0
 10
29.59908850919603
 20
-1.923355295625693
 30
0.0
 10
29.32676353506888
 20
-1.862453733705034
 30
0.0
 10
28.78543147827019
 20
-1.719856525281835
 30
0.0
 10
28.51941886563904
 20
-1.638567395152182
 30
0.0
 10
27.97851604852195
 20
-1.457034452570966
 30
0.0
 10
27.70599543405521
 20
-1.356942202796432
 30
0.0
 10
27.17094301766323
 20
-1.143478226895478
 30
0.0
 10
26.89997886809201
 20
-1.029013272940932
 30
0.0
 10
26.35831010577557
 20
-0.7894339334981049
 30
0.0
 10
26.09213151274814
 20
-0.6650488168170577
 30
0.0
 10
25.55175022463241
 20
-0.4087844330056374
 30
0.0
 10
25.27908128734977
 20
-0.2771141643513734
 30
0.0
 10
24.74293921959224
 20
-0.0135679434658182
 30
0.0
 10
24.47317272278296
 20
0.1193279567251007
 30
0.0
 10
23.93125998134008
 20
0.3825807743898899
 30
0.0
 10
23.66474952195031
 20
0.5120255521424284
 30
0.0
 10
23.39486563846923
 20
0.6382915249657003
 30
0.0
  0
LINE
  5
AE
330
1F
100
AcDbEntity
  8
0
  6
Continuous
 62
     1
370
    15
100
AcDbLine
 10
5.4034048279281
 20
-2.038988674823358
 30
0.0
 11
4.866025403784416
 21
-2.107547339648622
 31
0.0
  0
LINE
  5
AF
330
1F
100
AcDbEntity
  8
0
  6
Continuous
 62
     1
370
    15
100
AcDbLine
 10
29.86602540378443
 20
-2.37235217307975
 30
0.0
 11
29.86602540378443
 21
-1.972430660920538
 31
0.0
  0
SPLINE
  5
B0
330
1F
100
AcDbEntity
  8
0
  6
Continuous
 62
     1
370
    15
100
AcDbSpline
210
0.0
220
0.0
230
1.0
 70
     8
 71
     3
 72
    19
 73
    15
 74
     0
 42
0.000000001
 43
0.00000001
 40
0.0
 40
0.0
 40
0.0
 40
0.0
 40
0.0624237925099251
 40
0.1453145177025641
 40
0.2282066543676996
 40
0.3110993721809081
 40
0.3939918403169078
 40
0.4768832281656138
 40
0.5597727060477931
 40
0.6426594459289898
 40
0.7320309216704829
 40
0.8213581572280417
 40
0.9106549463216554
 40
1.0
 40
1.0
 40
1.0
 40
1.0
 10
20.48602585911233
 20
-1.966621157954104
 30
0.0
 10
20.1610138163296
 20
-2.077916221507746
 30
0.0
 10
19.40442780408131
 20
-2.336996739251075
 30
0.0
 10
18.21625164046874
 20
-2.51233689679441
 30
0.0
 10
16.92149892019048
 20
-2.502455697000291
 30
0.0
 10
15.6267355200809
 20
-2.264685394906404
 30
0.0
 10
14.33197501592425
 20
-1.827566972223553
 30
0.0
 10
13.03724167396184
 20
-1.2279172231485
 30
0.0
 10
11.74251822251364
 20
-0.5193607016882411
 30
0.0
 10
10.41416322235243
 20
0.2546353652295141
 30
0.0
 10
9.051909641630695
 20
1.026764735768034
 30
0.0
 10
7.656548215544346
 20
1.707412260258637
 30
0.0
 10
6.261463397524162
 20
2.230415508646695
 30
0.0
 10
5.331255174741617
 20
2.380583457964677
 30
0.0
 10
4.866025403782324
 20
2.455687718446971
 30
0.0
  0
SPLINE
  5
B1
330
1F
100
AcDbEntity
  8
0
  6
Continuous
 62
     1
370
    15
100
AcDbSpline
210
0.0
220
0.0
230
1.0
 70
     8
 71
     3
 72
    16
 73
    12
 74
     0
 42
0.000000001
 43
0.00000001
 40
0.0
 40
0.0
 40
0.0
 40
0.0
 40
0.0891689275999286
 40
0.20840434723641
 40
0.3276475973665731
 40
0.4469292124411131
 40
0.5662794819081949
 40
0.6857145302785431
 40
0.8050928695146399
 40
0.9243930190838809
 40
1.0
 40
1.0
 40
1.0
 40
1.0
 10
18.80559425326381
 20
-2.067733086485231
 30
0.0
 10
18.53687568097478
 20
-2.092669251702282
 30
0.0
 10
17.90883046213512
 20
-2.150949701793095
 30
0.0
 10
16.9214808757897
 20
-2.088293038917584
 30
0.0
 10
15.84337144974824
 20
-1.90696971522254
 30
0.0
 10
14.76486244487515
 20
-1.603585753760571
 30
0.0
 10
13.68569657139722
 20
-1.20234285556668
 30
0.0
 10
12.60605505733021
 20
-0.7263173787550172
 30
0.0
 10
11.52669899048077
 20
-0.2069336577492114
 30
0.0
 10
10.57953036114829
 20
0.2654856086690842
 30
0.0
 10
9.992173559222897
 20
0.5396481983956259
 30
0.0
 10
9.764330306882465
 20
0.6459993905646854
 30
0.0
  0
SPLINE
  5
B2
330
1F
100
AcDbEntity
  8
0
  6
Continuous
 62
     1
370
    15
100
AcDbSpline
210
0.0
220
0.0
230
1.0
 70
     8
 71
     3
 72
    23
 73
    19
 74
     0
 42
0.000000001
 43
0.00000001
 40
0.0
 40
0.0
 40
0.0
 40
0.0
 40
0.067770736525041
 40
0.1361024441540609
 40
0.1982081407450913
 40
0.2607463827452708
 40
0.3228515381577535
 40
0.385387347911559
 40
0.447492510370352
 40
0.5100269608419248
 40
0.5721324453901204
 40
0.6346666196028049
 40
0.6967672336345568
 40
0.7592974853884049
 40
0.8212614741514277
 40
0.8836546638699018
 40
0.945618691787764
 40
0.9999999999999999
 40
0.9999999999999999
 40
0.9999999999999999
 40
0.9999999999999999
 10
4.866025403784436
 20
2.230753671186399
 30
0.0
 10
5.127398862365903
 20
2.155439150673326
 30
0.0
 10
5.652309293829095
 20
2.004186695001211
 30
0.0
 10
6.416962275848563
 20
1.70050493881766
 30
0.0
 10
7.162087808662102
 20
1.360497834790275
 30
0.0
 10
7.881678998521993
 20
0.9902652654542358
 30
0.0
 10
8.604871680970755
 20
0.595203185127254
 30
0.0
 10
9.324530296895668
 20
0.181398330683058
 30
0.0
 10
10.04710548395291
 20
-0.2361824504498354
 30
0.0
 10
10.76764819476883
 20
-0.6469938265964031
 30
0.0
 10
11.48916614474877
 20
-1.041794813672454
 30
0.0
 10
12.21059176785436
 20
-1.404547915487337
 30
0.0
 10
12.93169272015392
 20
-1.731956424292041
 30
0.0
 10
13.65246693342443
 20
-2.008023005835831
 30
0.0
 10
14.37301866322534
 20
-2.231086306513137
 30
0.0
 10
15.09176148046329
 20
-2.389650835251632
 30
0.0
 10
15.78183567223028
 20
-2.484979671096695
 30
0.0
 10
16.23040616925363
 20
-2.492560424552384
 30
0.0
 10
16.44007379551985
 20
-2.496103766330122
 30
0.0
  0
SPLINE
  5
B3
330
1F
100
AcDbEntity
  8
0
  6
Continuous
 62
     1
370
    15
100
AcDbSpline
210
0.0
220
0.0
230
1.0
 70
     8
 71
     3
 72
    12
 73
     8
 74
     0
 42
0.000000001
 43
0.00000001
 40
0.0
 40
0.0
 40
0.0
 40
0.0
 40
0.0506824058558431
 40
0.2829128420961219
 40
0.5171180273068071
 40
0.7574615914162033
 40
1.0
 40
1.0
 40
1.0
 40
1.0
 10
26.43407169231548
 20
1.676308394862853
 30
0.0
 10
26.49201623512495
 20
1.702360025194291
 30
0.0
 10
26.81546684906813
 20
1.847782103208277
 30
0.0
 10
27.40726953604639
 20
2.059988574826444
 30
0.0
 10
28.21611939671192
 20
2.293394206025865
 30
0.0
 10
29.03583263837142
 20
2.451527469487937
 30
0.0
 10
29.58845720010829
 20
2.482387093107402
 30
0.0
 10
29.86602540378443
 20
2.500000000000091
 30
0.0
  0
SPLINE
  5
B4
330
1F
100
AcDbEntity
  8
0
  6
Continuous
 62
     1
370
    15
100
AcDbSpline
210
0.0
220
0.0
230
1.0
 70
    24
 71
     3
 72
    10
 73
     6
 74
     0
 42
0.000000001
 43
0.00000001
 40
0.0
 40
0.0
 40
0.0
 40
0.0
 40
0.5
 40
0.5
 40
1.0
 40
1.0
 40
1.0
 40
1.0
 10
29.86602540378443
 20
1.750000000000003
 30
0.0
 10
29.86602540378443
 20
1.856080642018288
 30
0.0
 10
29.86602540378443
 20
1.979356172167796
 30
0.0
 10
29.86602540378444
 20
2.237987902402143
 30
0.0
 10
29.86602540378444
 20
2.372683589503686
 30
0.0
 10
29.86602540378443
 20
2.500000000000091
 30
0.0
  0
LINE
  5
B5
330
1F
100
AcDbEntity
  8
0
  6
Continuous
 62
     1
370
    15
100
AcDbLine
 10
29.86602540378443
 20
1.750000000000003
 30
0.0
 11
28.96693177519502
 21
1.68288043044685
 31
0.0
  0
SPLINE
  5
B6
330
1F
100
AcDbEntity
  8
0
  6
Continuous
 62
     1
370
    15
100
AcDbSpline
210
0.0
220
0.0
230
1.0
 70
     8
 71
     3
 72
    11
 73
     7
 74
     0
 42
0.000000001
 43
0.00000001
 40
0.0
 40
0.0
 40
0.0
 40
0.0
 40
0.2342986558757103
 40
0.546544177069698
 40
0.773264122359059
 40
1.0
 40
1.0
 40
1.0
 40
1.0
 10
10.04447003700936
 20
-0.2337339114201933
 30
0.0
 10
9.63999005762503
 20
-0.0704028758172051
 30
0.0
 10
8.696467028662164
 20
0.310596435126051
 30
0.0
 10
7.361277027533299
 20
0.8296310890153471
 30
0.0
 10
6.039953749797411
 20
1.263572117156806
 30
0.0
 10
5.257344018223993
 20
1.439677769010826
 30
0.0
 10
4.866025403784427
 20
1.527733688709069
 30
0.0
  0
SPLINE
  5
B7
330
1F
100
AcDbEntity
  8
0
  6
Continuous
 62
   131
370
    15
100
AcDbSpline
210
0.0
220
0.0
230
1.0
 70
    24
 71
     3
 72
    10
 73
     6
 74
     0
 42
0.000000001
 43
0.00000001
 40
0.0
 40
0.0
 40
0.0
 40
0.0
 40
0.5
 40
0.5
 40
1.0
 40
1.0
 40
1.0
 40
1.0
 10
4.866025403784436
 20
2.230753671186396
 30
0.0
 10
4.866025403784436
 20
2.137077461956461
 30
0.0
 10
4.866025403784436
 20
2.02319566536973
 30
0.0
 10
4.866025403784436
 20
1.779404113690455
 30
0.0
 10
4.866025403784436
 20
1.650212881457663
 30
0.0
 10
4.866025403784436
 20
1.527733688709067
 30
0.0
  0
SPLINE
  5
B8
330
1F
100
AcDbEntity
  8
0
  6
Continuous
 62
     1
370
    15
100
AcDbSpline
210
0.0
220
0.0
230
1.0
 70
     8
 71
     3
 72
    31
 73
    27
 74
     0
 42
0.000000001
 43
0.00000001
 40
0.0
 40
0.0
 40
0.0
 40
0.0
 40
0.0060391106520125
 40
0.0485170329036733
 40
0.0906102825429008
 40
0.1329950960940691
 40
0.1750883723318818
 40
0.2174735023663593
 40
0.2595664076445079
 40
0.3019499026156443
 40
0.3440427952254776
 40
0.3864253621980257
 40
0.4285184714114594
 40
0.4709007952705733
 40
0.5129939937238824
 40
0.5553770106703064
 40
0.5974683484844259
 40
0.6398510421994313
 40
0.6819424802069038
 40
0.7243258973630968
 40
0.7664169270164665
 40
0.8087986165982625
 40
0.8555719840687779
 40
0.902743084328975
 40
0.95115051112996
 40
1.0
 40
1.0
 40
1.0
 40
1.0
 10
12.82750410758861
 20
1.676541576100674
 30
0.0
 10
12.86178244401144
 20
1.69210484223199
 30
0.0
 10
13.13716788930971
 20
1.817137076031194
 30
0.0
 10
13.65249276295597
 20
2.005419570185159
 30
0.0
 10
14.37301670801715
 20
2.231510445970608
 30
0.0
 10
15.09174323868534
 20
2.390575789563889
 30
0.0
 10
15.81284424737632
 20
2.485155065499715
 30
0.0
 10
16.53078358206897
 20
2.5109365142108
 30
0.0
 10
17.25232286916902
 20
2.467740195713899
 30
0.0
 10
17.97029796188438
 20
2.356201644373672
 30
0.0
 10
18.6912744760066
 20
2.179964979783603
 30
0.0
 10
19.41009089779908
 20
1.943992210333318
 30
0.0
 10
20.13000271040396
 20
1.652965233907054
 30
0.0
 10
20.84976052617831
 20
1.31916949075349
 30
0.0
 10
21.56922854042296
 20
0.9453847523791884
 30
0.0
 10
22.28897910151542
 20
0.5494261108049037
 30
0.0
 10
23.00888727203738
 20
0.1350190898608917
 30
0.0
 10
23.72768400399544
 20
-0.2812906246245175
 30
0.0
 10
24.44865324314748
 20
-0.6899227332032025
 30
0.0
 10
25.16661366017949
 20
-1.080810517080411
 30
0.0
 10
25.88810094235493
 20
-1.439904409531119
 30
0.0
 10
26.63264073464769
 20
-1.773005850857245
 30
0.0
 10
27.40727289417364
 20
-2.062583193316631
 30
0.0
 10
28.2161184719552
 20
-2.292679703362444
 30
0.0
 10
29.03583287453622
 20
-2.451709939512144
 30
0.0
 10
29.58845727906807
 20
-2.482448100476958
 30
0.0
 10
29.86602540378431
 20
-2.499999999999906
 30
0.0
  0
SPLINE
  5
B9
330
1F
100
AcDbEntity
  8
0
  6
Continuous
 62
     1
370
    15
100
AcDbSpline
210
0.0
220
0.0
230
1.0
 70
     8
 71
     3
 72
    13
 73
     9
 74
     0
 42
0.000000001
 43
0.00000001
 40
0.0
 40
0.0
 40
0.0
 40
0.0
 40
0.0289435508606705
 40
0.2239801989540585
 40
0.4189504059896425
 40
0.6135780827696424
 40
0.8085574574330491
 40
1.0
 40
1.0
 40
1.0
 40
1.0
 10
23.63517411104048
 20
-0.2264644763691255
 30
0.0
 10
23.55507658542227
 20
-0.1954656425646833
 30
0.0
 10
22.93524041500712
 20
0.0444194011290159
 30
0.0
 10
21.77547561748783
 20
0.5279600119566809
 30
0.0
 10
20.15722878732647
 20
1.113787216756444
 30
0.0
 10
18.53968789500854
 20
1.54669065562191
 30
0.0
 10
16.93130256599855
 20
1.780283535433755
 30
0.0
 10
15.86171713990326
 20
1.731686263025999
 30
0.0
 10
15.33181926316825
 20
1.707610026723871
 30
0.0
  0
LINE
  5
BA
330
1F
100
AcDbEntity
  8
0
  6
Continuous
 62
   131
370
    15
100
AcDbLine
 10
4.866025403784436
 20
2.230753671186397
 30
0.0
 11
4.866025403784436
 21
2.455687718436516
 31
0.0
  0
LINE
  5
BB
330
1F
100
AcDbEntity
  8
0
  6
Continuous
 62
   131
370
    15
100
AcDbLine
 10
29.86602540378431
 20
-2.499999999999906
 30
0.0
 11
29.86602540378443
 21
-2.372352173079753
 31
0.0
  0
SPLINE
  5
BC
330
1F
100
AcDbEntity
  8
0
  6
Continuous
 62
     1
370
    15
100
AcDbSpline
210
0.0
220
0.0
230
1.0
 70
     8
 71
     3
 72
     8
 73
     4
 74
     0
 42
0.000000001
 43
0.00000001
 40
0.0
 40
0.0
 40
0.0
 40
0.0
 40
1.0
 40
1.0
 40
1.0
 40
1.0
 10
28.31844673555916
 20
0.7000164084405738
 30
0.0
 10
28.20660797946343
 20
0.8325404951408006
 30
0.0
 10
28.10957015215359
 20
0.9591847098085282
 30
0.0
 10
28.03295638611386
 20
1.077008495890187
 30
0.0
  0
LINE
  5
BD
330
1F
100
AcDbEntity
  8
0
  6
Continuous
 62
     1
370
    15
100
AcDbLine
 10
28.03295638611385
 20
1.077008495890185
 30
0.0
 11
29.86602540378443
 21
0.0000000000000034
 31
0.0
  0
LINE
  5
BE
330
1F
100
AcDbEntity
  8
0
  6
Continuous
 62
     1
370
    15
100
AcDbLine
 10
29.86602540378443
 20
0.0000000000000034
 30
0.0
 11
29.86602540378443
 21
-0.6681073650741087
 31
0.0
  0
SPLINE
  5
BF
330
1F
100
AcDbEntity
  8
0
  6
Continuous
 62
     1
370
    15
100
AcDbSpline
210
0.0
220
0.0
230
1.0
 70
     8
 71
     3
 72
    10
 73
     6
 74
     0
 42
0.000000001
 43
0.00000001
 40
0.0
 40
0.0
 40
0.0
 40
0.0
 40
0.5
 40
0.5
 40
1.0
 40
1.0
 40
1.0
 40
1.0
 10
29.86602540378444
 20
-0.668107365074111
 30
0.0
 10
29.59812522224676
 20
-0.457490693817082
 30
0.0
 10
29.33470397730504
 20
-0.2382331035478414
 30
0.0
 10
28.81703861831595
 20
0.2179869145392817
 30
0.0
 10
28.5603876670205
 20
0.457361069856748
 30
0.0
 10
28.31844673555916
 20
0.7000164084405759
 30
0.0
  0
SPLINE
  5
C0
330
1F
100
AcDbEntity
  8
0
  6
Continuous
 62
   131
370
    15
100
AcDbSpline
210
0.0
220
0.0
230
1.0
 70
    24
 71
     3
 72
    10
 73
     6
 74
     0
 42
0.000000001
 43
0.00000001
 40
0.0
 40
0.0
 40
0.0
 40
0.0
 40
0.4999999999999999
 40
0.4999999999999999
 40
1.0
 40
1.0
 40
1.0
 40
1.0
 10
4.866025403784434
 20
-0.9754737801111936
 30
0.0
 10
4.866025403784434
 20
-1.28811365416569
 30
0.0
 10
4.866025403784434
 20
-1.566176808021609
 30
0.0
 10
4.866025403784434
 20
-1.961892614198371
 30
0.0
 10
4.866025403784434
 20
-2.07784195099326
 30
0.0
 10
4.866025403784434
 20
-2.10754733964862
 30
0.0
  0
SPLINE
  5
C1
330
1F
100
AcDbEntity
  8
0
  6
Continuous
 62
     1
370
    15
100
AcDbSpline
210
0.0
220
0.0
230
1.0
 70
     8
 71
     3
 72
    13
 73
     9
 74
     0
 42
0.000000001
 43
0.00000001
 40
0.0
 40
0.0
 40
0.0
 40
0.0
 40
0.1468456946520941
 40
0.2934119688306135
 40
0.4806482882258762
 40
0.6678887662747108
 40
0.855182059733292
 40
1.0
 40
1.0
 40
1.0
 40
1.0
 10
28.31844673555914
 20
0.7000164084405872
 30
0.0
 10
28.03657313331597
 20
0.8191930865787509
 30
0.0
 10
27.4733622826915
 20
1.057319671454505
 30
0.0
 10
26.55114908271663
 20
1.39641599569029
 30
0.0
 10
25.55116882368862
 20
1.697372159691025
 30
0.0
 10
24.47311362591594
 20
1.912380059991819
 30
0.0
 10
23.47641103982011
 20
2.015611366821741
 30
0.0
 10
22.83898644363696
 20
1.987761149323953
 30
0.0
 10
22.56103584239069
 20
1.975616991811517
 30
0.0
  0
SPLINE
  5
C2
330
1F
100
AcDbEntity
  8
0
  6
Continuous
 62
     1
370
    15
100
AcDbSpline
210
0.0
220
0.0
230
1.0
 70
     8
 71
     3
 72
    13
 73
     9
 74
     0
 42
0.000000001
 43
0.00000001
 40
0.0
 40
0.0
 40
0.0
 40
0.0
 40
0.0859744577464412
 40
0.2625239443237638
 40
0.4390471076612977
 40
0.6155898712828944
 40
0.8077883576583632
 40
1.0
 40
1.0
 40
1.0
 40
1.0
 10
10.97293600540991
 20
-1.864627641751249
 30
0.0
 10
10.79792157552659
 20
-1.895226487169532
 30
0.0
 10
10.26351310525685
 20
-1.988660395350166
 30
0.0
 10
9.369838348128416
 20
-2.016407411425767
 30
0.0
 10
8.291805599322897
 20
-1.948805391359528
 30
0.0
 10
7.181957700684988
 20
-1.747802239058051
 30
0.0
 10
6.039914510952952
 20
-1.428076521042975
 30
0.0
 10
5.257330700498303
 20
-1.12634480255471
 30
0.0
 10
4.86602540378443
 20
-0.9754737801111925
 30
0.0
  0
SPLINE
  5
C3
330
1F
100
AcDbEntity
  8
0
  6
Continuous
 62
     1
370
    15
100
AcDbSpline
210
0.0
220
0.0
230
1.0
 70
    24
 71
     3
 72
    10
 73
     6
 74
     0
 42
0.000000001
 43
0.00000001
 40
0.0
 40
0.0
 40
0.0
 40
0.0
 40
0.5
 40
0.5
 40
1.0
 40
1.0
 40
1.0
 40
1.0
 10
29.86602540378443
 20
-1.972430660920537
 30
0.0
 10
29.86602540378443
 20
-1.82122847250951
 30
0.0
 10
29.86602540378444
 20
-1.630178709766169
 30
0.0
 10
29.86602540378444
 20
-1.186006397876698
 30
0.0
 10
29.86602540378443
 20
-0.9332686076282729
 30
0.0
 10
29.86602540378443
 20
-0.6681073650741906
 30
0.0
  0
SPLINE
  5
C4
330
1F
100
AcDbEntity
  8
0
  6
Continuous
 62
     1
370
    15
100
AcDbSpline
210
0.0
220
0.0
230
1.0
 70
     8
 71
     3
 72
    23
 73
    19
 74
     0
 42
0.000000001
 43
0.00000001
 40
0.0
 40
0.0
 40
0.0
 40
0.0
 40
0.0064050694532453
 40
0.0754589351072778
 40
0.1445500879743995
 40
0.2136940873129804
 40
0.2828194159852049
 40
0.3518958482587086
 40
0.4209410542466036
 40
0.4899729039727994
 40
0.5590093532202777
 40
0.628068328221945
 40
0.6971676107506062
 40
0.7663166578532882
 40
0.8354324009507292
 40
0.9045022450330125
 40
0.9735439023221086
 40
1.0
 40
1.0
 40
1.0
 40
1.0
 10
24.57322243294092
 20
-1.875097709921047
 30
0.0
 10
24.5398836743254
 20
-1.881914428342231
 30
0.0
 10
24.14711553320089
 20
-1.962223052119614
 30
0.0
 10
23.39469071522342
 20
-2.007509775990944
 30
0.0
 10
22.31563966163923
 20
-1.992605239673167
 30
0.0
 10
21.23604828790044
 20
-1.842851146081817
 30
0.0
 10
20.15660365341891
 20
-1.582459250492588
 30
0.0
 10
19.07779243412494
 20
-1.223471655059762
 30
0.0
 10
17.99952792356911
 20
-0.7892450955870118
 30
0.0
 10
16.92150033079098
 20
-0.3062746940818151
 30
0.0
 10
15.84339206296943
 20
0.1956079728525154
 30
0.0
 10
14.76488272641874
 20
0.6854370556779193
 30
0.0
 10
13.68571617313042
 20
1.133187748072671
 30
0.0
 10
12.60608764485552
 20
1.510232919808471
 30
0.0
 10
11.52673255574465
 20
1.796254994513507
 30
0.0
 10
10.44803475155542
 20
1.96351563540297
 30
0.0
 10
9.591441862465436
 20
2.02318540002548
 30
0.0
 10
9.094373540342493
 20
1.983071720834033
 30
0.0
 10
8.956668857261556
 20
1.97195887933032
 30
0.0
  0
SPLINE
  5
C5
330
1F
100
AcDbEntity
  8
0
  6
Continuous
 62
   131
370
    15
100
AcDbSpline
210
0.0
220
0.0
230
1.0
 70
    24
 71
     3
 72
    14
 73
    10
 74
     0
 42
0.000000001
 43
0.00000001
 40
0.0
 40
0.0
 40
0.0
 40
0.0
 40
0.2500000000000001
 40
0.2500000000000001
 40
0.5000000000000001
 40
0.5000000000000001
 40
0.75
 40
0.75
 40
1.0
 40
1.0
 40
1.0
 40
1.0
 10
4.866025403784436
 20
1.527733688709067
 30
0.0
 10
4.866025403784436
 20
1.381035224883477
 30
0.0
 10
4.866025403784436
 20
1.209289975714324
 30
0.0
 10
4.866025403784436
 20
0.8254861251923925
 30
0.0
 10
4.866025403784436
 20
0.6135357142249919
 30
0.0
 10
4.866025403784436
 20
0.1686435767655297
 30
0.0
 10
4.866025403784436
 20
-0.0640610925955443
 30
0.0
 10
4.866025403784436
 20
-0.5269453734323695
 30
0.0
 10
4.866025403784436
 20
-0.7569057217913836
 30
0.0
 10
4.866025403784436
 20
-0.9754737801111956
 30
0.0
  0
SPLINE
  5
C6
330
1F
100
AcDbEntity
  8
0
  6
Continuous
 62
     1
370
    15
100
AcDbSpline
210
0.0
220
0.0
230
1.0
 70
     8
 71
     3
 72
    10
 73
     6
 74
     0
 42
0.000000001
 43
0.00000001
 40
0.0
 40
0.0
 40
0.0
 40
0.0
 40
0.5000000000000001
 40
0.5000000000000001
 40
1.0
 40
1.0
 40
1.0
 40
1.0
 10
29.86602540378443
 20
1.750000000000003
 30
0.0
 10
29.55496280206709
 20
1.665548211220015
 30
0.0
 10
29.24591811181085
 20
1.56877439108642
 30
0.0
 10
28.63363422514051
 20
1.347015596658082
 30
0.0
 10
28.33018549786541
 20
1.222750518351901
 30
0.0
 10
28.03295638611385
 20
1.077008495890187
 30
0.0
  0
LINE
  5
C7
330
1F
100
AcDbEntity
  8
0
  6
Continuous
 62
     1
370
    15
100
AcDbLine
 10
29.86602540378443
 20
0.0000000000000034
 30
0.0
 11
29.86602540378443
 21
1.750000000000003
 31
0.0
  0
LINE
  5
C8
330
1F
100
AcDbEntity
  8
0
  6
Continuous
 62
   131
370
    15
100
AcDbLine
 10
3.866025403784436
 20
2.5
 30
0.0
 11
3.866025403784436
 21
-2.5
 31
0.0
  0
LINE
  5
C9
330
1F
100
AcDbEntity
  8
0
  6
Continuous
 62
   131
370
    15
100
AcDbLine
 10
1.999999999999998
 20
3.000000000000001
 30
0.0
 11
2.000000000000002
 21
-3.0
 31
0.0
  0
LINE
  5
CA
330
1F
100
AcDbEntity
  8
0
  6
Continuous
 62
   131
370
    15
100
AcDbLine
 10
-69.58397459621558
 20
2.999999999999991
 30
0.0
 11
-69.58397459621558
 21
-3.000000000000002
 31
0.0
  0
LINE
  5
CB
330
1F
100
AcDbEntity
  8
0
  6
Continuous
 62
   131
370
    15
100
AcDbLine
 10
-70.13397459621557
 20
2.449999999999991
 30
0.0
 11
-70.13397459621557
 21
-2.45
 31
0.0
  0
SPLINE
  5
CC
330
1F
100
AcDbEntity
  8
0
  6
Continuous
 62
   131
370
    15
100
AcDbSpline
210
0.0
220
0.0
230
1.0
 70
     8
 71
     3
 72
     8
 73
     4
 74
     0
 42
0.000000001
 43
0.00000001
 40
0.0
 40
0.0
 40
0.0
 40
0.0
 40
1.0
 40
1.0
 40
1.0
 40
1.0
 10
4.866025403784436
 20
-2.455687718446742
 30
0.0
 10
4.569894876975498
 20
-2.487731903021333
 30
0.0
 10
4.270064170356415
 20
-2.502501890042152
 30
0.0
 10
3.97589675738811
 20
-2.499650736349015
 30
0.0
  0
LINE
  5
CD
330
1F
100
AcDbEntity
  8
0
  6
Continuous
 62
   131
370
    15
100
AcDbLine
 10
4.866025403784436
 20
2.455687718446742
 30
0.0
 11
4.048184643188426
 21
2.496080473072552
 31
0.0
  0
SPLINE
  5
CE
330
1F
100
AcDbEntity
  8
0
  6
Continuous
 62
   131
370
    15
100
AcDbSpline
210
0.0
220
0.0
230
1.0
 70
     8
 71
     3
 72
     8
 73
     4
 74
     0
 42
0.000000001
 43
0.00000001
 40
0.0
 40
0.0
 40
0.0
 40
0.0
 40
1.0
 40
1.0
 40
1.0
 40
1.0
 10
3.975962479526974
 20
2.41395958368185
 30
0.0
 10
4.270108823543108
 20
2.369597778545538
 30
0.0
 10
4.569916930521646
 20
2.307922679918368
 30
0.0
 10
4.866025403784409
 20
2.2307536711864
 30
0.0
  0
LINE
  5
CF
330
1F
100
AcDbEntity
  8
0
  6
Continuous
 62
   131
370
    15
100
AcDbLine
 10
3.975962479526974
 20
-2.499648943158145
 30
0.0
 11
3.975962479526974
 21
2.414132846441064
 31
0.0
  0
SPLINE
  5
D0
330
1F
100
AcDbEntity
  8
0
  6
Continuous
 62
   131
370
    15
100
AcDbSpline
210
0.0
220
0.0
230
1.0
 70
    24
 71
     3
 72
    10
 73
     6
 74
     0
 42
0.000000001
 43
0.00000001
 40
0.0
 40
0.0
 40
0.0
 40
0.0
 40
0.5
 40
0.5
 40
1.0
 40
1.0
 40
1.0
 40
1.0
 10
4.866025403784436
 20
-0.9754737801111947
 30
0.0
 10
4.866025403784436
 20
-1.288113654165691
 30
0.0
 10
4.866025403784436
 20
-1.566176808021611
 30
0.0
 10
4.866025403784436
 20
-1.961892614198372
 30
0.0
 10
4.866025403784436
 20
-2.07784195099326
 30
0.0
 10
4.866025403784436
 20
-2.10754733964862
 30
0.0
  0
SPLINE
  5
D1
330
1F
100
AcDbEntity
  8
0
  6
Continuous
 62
   131
370
    15
100
AcDbSpline
210
0.0
220
0.0
230
1.0
 70
     8
 71
     3
 72
     8
 73
     4
 74
     0
 42
0.000000001
 43
0.00000001
 40
0.0
 40
0.0
 40
0.0
 40
0.0
 40
1.0
 40
1.0
 40
1.0
 40
1.0
 10
4.866025403784416
 20
-2.107547339648622
 30
0.0
 10
4.569894876975484
 20
-2.126132526578697
 30
0.0
 10
4.270064170356408
 20
-2.129856162192375
 30
0.0
 10
3.97589675738811
 20
-2.118699580430472
 30
0.0
  0
SPLINE
  5
D2
330
1F
100
AcDbEntity
  8
0
  6
Continuous
 62
   131
370
    15
100
AcDbSpline
210
0.0
220
0.0
230
1.0
 70
     8
 71
     3
 72
     8
 73
     4
 74
     0
 42
0.000000001
 43
0.00000001
 40
0.0
 40
0.0
 40
0.0
 40
0.0
 40
1.0
 40
1.0
 40
1.0
 40
1.0
 10
4.866025403784374
 20
-0.9754737801111711
 30
0.0
 10
4.569908869936715
 20
-0.8560875376602013
 30
0.0
 10
4.270092502779864
 20
-0.729302271794389
 30
0.0
 10
3.975938458022418
 20
-0.5991152131463806
 30
0.0
  0
SPLINE
  5
D3
330
1F
100
AcDbEntity
  8
0
  6
Continuous
 62
   131
370
    15
100
AcDbSpline
210
0.0
220
0.0
230
1.0
 70
    24
 71
     3
 72
    14
 73
    10
 74
     0
 42
0.000000001
 43
0.00000001
 40
0.0
 40
0.0
 40
0.0
 40
0.0
 40
0.2500000000000001
 40
0.2500000000000001
 40
0.5000000000000001
 40
0.5000000000000001
 40
0.75
 40
0.75
 40
1.0
 40
1.0
 40
1.0
 40
1.0
 10
4.866025403784436
 20
1.527733688709067
 30
0.0
 10
4.866025403784436
 20
1.381035224883477
 30
0.0
 10
4.866025403784436
 20
1.209289975714324
 30
0.0
 10
4.866025403784436
 20
0.8254861251923925
 30
0.0
 10
4.866025403784436
 20
0.6135357142249919
 30
0.0
 10
4.866025403784436
 20
0.1686435767655297
 30
0.0
 10
4.866025403784436
 20
-0.0640610925955443
 30
0.0
 10
4.866025403784436
 20
-0.5269453734323695
 30
0.0
 10
4.866025403784436
 20
-0.7569057217913836
 30
0.0
 10
4.866025403784436
 20
-0.9754737801111956
 30
0.0
  0
SPLINE
  5
D4
330
1F
100
AcDbEntity
  8
0
  6
Continuous
 62
   131
370
    15
100
AcDbSpline
210
0.0
220
0.0
230
1.0
 70
     8
 71
     3
 72
     8
 73
     4
 74
     0
 42
0.000000001
 43
0.00000001
 40
0.0
 40
0.0
 40
0.0
 40
0.0
 40
1.0
 40
1.0
 40
1.0
 40
1.0
 10
4.86602540378435
 20
1.527733688709084
 30
0.0
 10
4.569911611437325
 20
1.586096246047067
 30
0.0
 10
4.27009805366577
 20
1.633869840059226
 30
0.0
 10
3.975946628018503
 20
1.66963588286432
 30
0.0
  0
SPLINE
  5
D5
330
1F
100
AcDbEntity
  8
0
  6
Continuous
 62
   131
370
    15
100
AcDbSpline
210
0.0
220
0.0
230
1.0
 70
    24
 71
     3
 72
    10
 73
     6
 74
     0
 42
0.000000001
 43
0.00000001
 40
0.0
 40
0.0
 40
0.0
 40
0.0
 40
0.4999999999999996
 40
0.4999999999999996
 40
1.0
 40
1.0
 40
1.0
 40
1.0
 10
4.866025403784436
 20
2.230753671186396
 30
0.0
 10
4.866025403784436
 20
2.137077461956462
 30
0.0
 10
4.866025403784436
 20
2.023195665369731
 30
0.0
 10
4.866025403784436
 20
1.779404113690455
 30
0.0
 10
4.866025403784436
 20
1.650212881457663
 30
0.0
 10
4.866025403784436
 20
1.527733688709067
 30
0.0
  0
SPLINE
  5
D6
330
1F
100
AcDbEntity
  8
0
  6
Continuous
 62
   131
370
    15
100
AcDbSpline
210
0.0
220
0.0
230
1.0
 70
    24
 71
     3
 72
     8
 73
     4
 74
     0
 42
0.000000001
 43
0.00000001
 40
0.0
 40
0.0
 40
0.0
 40
0.0
 40
1.0
 40
1.0
 40
1.0
 40
1.0
 10
4.866025403784436
 20
-2.107547339648621
 30
0.0
 10
4.866025403784436
 20
-2.228202597531119
 30
0.0
 10
4.866025403784436
 20
-2.345015676002572
 30
0.0
 10
4.866025403784436
 20
-2.455687718442768
 30
0.0
  0
LINE
  5
D7
330
1F
100
AcDbEntity
  8
중심선
100
AcDbLine
 10
-73.13397459621558
 20
-0.0000000000000046
 30
0.0
 11
32.86602540378443
 21
0.0000000000000036
 31
0.0
  0
CIRCLE
  5
D8
330
1F
100
AcDbEntity
  8
외형선
100
AcDbCircle
 10
0.0000000000000104
 20
0.0
 30
0.0
 40
3.000000000000005
  0
INSERT
  5
D9
330
1F
100
AcDbEntity
  8
0
  6
Continuous
 62
     7
100
AcDbBlockReference
 66
     1
  2
블럭10
 10
-22.93944368806589
 20
-52.04609937292004
 30
0.0
  0
ATTRIB
  5
DA
330
D9
100
AcDbEntity
  8
FORMAT
 62
     2
100
AcDbText
 10
-43.79769121965843
 20
-49.97073246008785
 30
0.0
 40
4.233333333333333
  1
SEME7005025100E [ 2 FLUTE ]
 41
0.75
  7
SLDTEXTSTYLE0
 11
-43.79769121965843
 21
-52.08739912675452
 31
0.0
100
AcDbAttribute
  2
AUTOATTR0
 70
     0
 74
     1
  0
SEQEND
  5
DB
330
D9
100
AcDbEntity
  8
0
  6
Continuous
 62
     7
  0
HATCH
  5
DC
330
1F
100
AcDbEntity
  8
중심선
100
AcDbHatch
 10
0.0
 20
0.0
 30
0.0
210
0.0
220
0.0
230
1.0
  2
SOLID
 70
     1
 71
     0
 91
        1
 92
        0
 93
        4
 72
     1
 10
-17.22453438368504
 20
-35.7989250712761
 11
-20.67080962752232
 21
-35.7989250712761
 72
     1
 10
-20.67080962752232
 20
-35.7989250712761
 11
-22.79903948672635
 21
-38.3352506518487
 72
     1
 10
-22.79903948672635
 20
-38.3352506518487
 11
-19.35273115777591
 21
-38.33521122254621
 72
     1
 10
-19.35273115777591
 20
-38.33521122254621
 11
-17.22453438368504
 21
-35.7989250712761
 97
        0
 75
     0
 76
     1
 98
        1
 10
0.0
 20
0.0
  0
HATCH
  5
DD
330
1F
100
AcDbEntity
  8
중심선
100
AcDbHatch
 10
0.0
 20
0.0
 30
0.0
210
0.0
220
0.0
230
1.0
  2
SOLID
 70
     1
 71
     0
 91
        1
 92
        0
 93
        4
 72
     1
 10
-12.21177039264909
 20
-35.7989250712761
 11
-15.65804563648637
 21
-35.7989250712761
 72
     1
 10
-15.65804563648637
 20
-35.7989250712761
 11
-20.18918364484376
 21
-41.19892507127612
 72
     1
 10
-20.18918364484376
 20
-41.19892507127612
 11
-16.74290840100648
 21
-41.19892507127612
 72
     1
 10
-16.74290840100648
 20
-41.19892507127612
 11
-12.21177039264909
 21
-35.7989250712761
 97
        0
 75
     0
 76
     1
 98
        1
 10
0.0
 20
0.0
  0
HATCH
  5
DE
330
1F
100
AcDbEntity
  8
중심선
100
AcDbHatch
 10
0.0
 20
0.0
 30
0.0
210
0.0
220
0.0
230
1.0
  2
SOLID
 70
     1
 71
     0
 91
        1
 92
        0
 93
        4
 72
     1
 10
-7.199006401613195
 20
-35.79892507127613
 11
-10.64528164545031
 21
-35.7989250712761
 72
     1
 10
-10.64528164545031
 20
-35.7989250712761
 11
-17.69371854733956
 21
-44.19892507127612
 72
     1
 10
-17.69371854733956
 20
-44.19892507127612
 11
-14.24744330350228
 21
-44.19892507127612
 72
     1
 10
-14.24744330350228
 20
-44.19892507127612
 11
-7.199006401613195
 21
-35.79892507127613
 97
        0
 75
     0
 76
     1
 98
        1
 10
0.0
 20
0.0
  0
HATCH
  5
DF
330
1F
100
AcDbEntity
  8
중심선
100
AcDbHatch
 10
0.0
 20
0.0
 30
0.0
210
0.0
220
0.0
230
1.0
  2
SOLID
 70
     1
 71
     0
 91
        1
 92
        0
 93
        6
 72
     3
 10
-2.399115970600996
 20
-39.99892507132738
 11
3.960054785062284
 21
1.540850780301639E-10
 40
0.3939339440162633
 50
17.09539180608433
 51
320.0019657685079
 73
     0
 72
     1
 10
-0.7161163149004002
 20
-38.58681907591441
 11
1.589185558800638
 21
-36.65249236586649
 72
     3
 10
-2.399115970653842
 20
-39.99892507127625
 11
6.600054785286829
 21
-1.249000902703301E-13
 40
0.6363583540795982
 50
39.99873849337408
 51
368.4976242363725
 73
     1
 72
     1
 10
4.026216521246767
 20
-39.03892507120613
 11
-3.71904866381792
 21
-39.0389250712061
 72
     1
 10
-3.71904866381792
 20
-39.0389250712061
 11
-3.719073708263854
 21
-40.95892507120602
 72
     1
 10
-3.719073708263854
 20
-40.95892507120602
 11
0.7223060612081831
 21
-40.95892507120599
 97
        0
 75
     0
 76
     1
 98
        1
 10
0.0
 20
0.0
  0
DIMENSION
  5
E0
330
1F
100
AcDbEntity
  8
치수문자_일반주서
100
AcDbDimension
  2
_D
 10
38.52134968828502
 20
2.500000000000124
 30
0.0
 11
38.52134968828499
 21
12.16650000000012
 31
0.0
 70
   160
  1
%%c<>
 71
     2
 42
4.999999999999998
 52
-270.0
  3
SLDDIMSTYLE0
100
AcDbAlignedDimension
 13
29.86602540378431
 23
-2.499999999999906
 33
0.0
 14
29.86602540378443
 24
2.500000000000091
 34
0.0
 50
90.0000000000002
100
AcDbRotatedDimension
  0
DIMENSION
  5
EE
330
1F
100
AcDbEntity
  8
치수문자_일반주서
100
AcDbDimension
  2
_D_1
 10
29.86602540378443
 20
24.23841044024268
 30
0.0
 11
-20.13397459621557
 21
24.23841044024268
 31
0.0
 70
   160
  1
<>
 71
     2
 42
100.0
  3
SLDDIMSTYLE1
100
AcDbAlignedDimension
 13
-70.13397459621557
 23
2.449999999999991
 33
0.0
 14
29.86602540378443
 24
2.500000000000091
 34
0.0
 50
-0.0000000000000041
100
AcDbRotatedDimension
  0
DIMENSION
  5
F9
330
1F
100
AcDbEntity
  8
치수문자_일반주서
100
AcDbDimension
  2
_D_2
 10
29.86602540378443
 20
15.80268552461421
 30
0.0
 11
17.36602540378451
 21
15.80268552461421
 31
0.0
 70
   160
  1
<>
 71
     2
 42
24.99999999999999
  3
SLDDIMSTYLE1
100
AcDbAlignedDimension
 13
4.866025403784436
 23
2.455687718446742
 33
0.0
 14
29.86602540378443
 24
2.500000000000091
 34
0.0
 50
-0.0000000000002646
100
AcDbRotatedDimension
  0
DIMENSION
  5
103
330
1F
100
AcDbEntity
  8
치수문자_일반주서
100
AcDbDimension
  2
_D_3
 10
-78.6000407414462
 20
-3.000000000000034
 30
0.0
 11
-78.60004074144624
 21
12.66649999999996
 31
0.0
 70
   160
  1
%%c<>
 71
     2
 42
5.999999999999991
 52
-270.0
  3
SLDDIMSTYLE0
100
AcDbAlignedDimension
 13
-69.58397459621558
 23
2.999999999999991
 33
0.0
 14
-69.58397459621558
 24
-3.0
 34
0.0
 50
90.0000000000002
100
AcDbRotatedDimension
  0
INSERT
  5
116
330
1F
100
AcDbEntity
  8
외형선
100
AcDbBlockReference
  2
SW_DOWELSYMBOL_0
 10
0.0000000000000104
 20
0.0
 30
0.0
  0
ENDSEC
  0
SECTION
  2
OBJECTS
  0
DICTIONARY
  5
C
330
0
100
AcDbDictionary
281
     1
  3
ACAD_GROUP
350
D
  3
ACAD_IMAGE_VARS
350
13A
  3
ACAD_LAYOUT
350
1A
  3
ACAD_MLINESTYLE
350
17
  3
ACAD_PLOTSETTINGS
350
19
  3
ACAD_PLOTSTYLENAME
350
E
  3
ACAD_SCALELIST
350
47
  3
APPDATA
350
138
  3
DWGPROPS
350
148
  0
DICTIONARY
  5
D
102
{ACAD_REACTORS
330
C
102
}
330
C
100
AcDbDictionary
281
     1
  0
RASTERVARIABLES
  5
13A
102
{ACAD_REACTORS
330
C
102
}
330
C
100
AcDbRasterVariables
 90
        0
 70
     1
 71
     1
 72
     1
  0
DICTIONARY
  5
1A
102
{ACAD_REACTORS
330
C
102
}
330
C
100
AcDbDictionary
281
     1
  3
Layout1
350
1E
  3
Layout2
350
26
  3
Model
350
22
  0
DICTIONARY
  5
17
102
{ACAD_REACTORS
330
C
102
}
330
C
100
AcDbDictionary
281
     1
  3
Standard
350
18
  0
DICTIONARY
  5
19
102
{ACAD_REACTORS
330
C
102
}
330
C
100
AcDbDictionary
281
     1
  0
ACDBDICTIONARYWDFLT
  5
E
102
{ACAD_REACTORS
330
C
102
}
330
C
100
AcDbDictionary
281
     1
  3
Normal
350
F
100
AcDbDictionaryWithDefault
340
F
  0
DICTIONARY
  5
47
102
{ACAD_REACTORS
330
C
102
}
330
C
100
AcDbDictionary
281
     1
  3
A0
350
48
  3
A1
350
49
  3
A2
350
4A
  3
A3
350
4B
  3
A4
350
4C
  3
A5
350
4D
  3
A6
350
4E
  3
A7
350
4F
  3
A8
350
50
  3
A9
350
51
  3
B0
350
52
  3
B1
350
53
  3
B2
350
54
  3
B3
350
55
  3
B4
350
56
  3
B5
350
57
  3
B6
350
58
  3
B7
350
59
  3
B8
350
5A
  3
B9
350
5B
  3
C0
350
5C
  3
C1
350
5D
  3
C2
350
5E
  3
C3
350
5F
  3
C4
350
60
  3
C5
350
61
  3
C6
350
62
  3
C7
350
63
  3
C8
350
64
  3
C9
350
65
  3
D0
350
66
  3
D1
350
67
  3
D2
350
68
  0
DICTIONARY
  5
138
102
{ACAD_REACTORS
330
C
102
}
330
C
100
AcDbDictionary
281
     1
  0
XRECORD
  5
148
102
{ACAD_REACTORS
330
C
102
}
330
C
100
AcDbXrecord
280
     1
  1
DWGPROPS COOKIE
  2

  3

  4

  6

  7

  8
12014102
  9

300
=
301
=
302
=
303
=
304
=
305
=
306
=
307
=
308
=
309
=
 40
0.0
 41
2458262.164852049
 42
2458266.28207309
  1

 90
        0
  0
LAYOUT
  5
1E
102
{ACAD_REACTORS
330
1A
102
}
330
1A
100
AcDbPlotSettings
  1

  2
none_device
  4

  6

 40
0.0
 41
0.0
 42
0.0
 43
0.0
 44
0.0
 45
0.0
 46
0.0
 47
0.0
 48
0.0
 49
0.0
140
0.0
141
0.0
142
1.0
143
1.0
 70
   688
 72
     1
 73
     0
 74
     5
  7

 75
    16
147
1.0
148
0.0
149
0.0
100
AcDbLayout
  1
Layout1
 70
     1
 71
     1
 10
0.0
 20
0.0
 11
420.0
 21
297.0
 12
0.0
 22
0.0
 32
0.0
 14
1.000000000000000E+20
 24
1.000000000000000E+20
 34
1.000000000000000E+20
 15
-1.000000000000000E+20
 25
-1.000000000000000E+20
 35
-1.000000000000000E+20
146
0.0
 13
0.0
 23
0.0
 33
0.0
 16
1.0
 26
0.0
 36
0.0
 17
0.0
 27
1.0
 37
0.0
 76
     0
330
1B
  0
LAYOUT
  5
26
102
{ACAD_REACTORS
330
1A
102
}
330
1A
100
AcDbPlotSettings
  1

  2
none_device
  4

  6

 40
0.0
 41
0.0
 42
0.0
 43
0.0
 44
0.0
 45
0.0
 46
0.0
 47
0.0
 48
0.0
 49
0.0
140
0.0
141
0.0
142
1.0
143
1.0
 70
   688
 72
     1
 73
     0
 74
     5
  7

 75
    16
147
1.0
148
0.0
149
0.0
100
AcDbLayout
  1
Layout2
 70
     1
 71
     2
 10
0.0
 20
0.0
 11
0.0
 21
0.0
 12
0.0
 22
0.0
 32
0.0
 14
0.0
 24
0.0
 34
0.0
 15
0.0
 25
0.0
 35
0.0
146
0.0
 13
0.0
 23
0.0
 33
0.0
 16
1.0
 26
0.0
 36
0.0
 17
0.0
 27
1.0
 37
0.0
 76
     0
330
23
  0
LAYOUT
  5
22
102
{ACAD_REACTORS
330
1A
102
}
330
1A
100
AcDbPlotSettings
  1

  2
none_device
  4
ANSI_A_(11.00_x_8.50_Inches)
  6

 40
6.35
 41
19.05
 42
6.35000508
 43
19.05000254
 44
279.4
 45
215.9
 46
173.2030095975746
 47
114.4703560759403
 48
0.0
 49
0.0
140
0.0
141
0.0
142
0.0916710074531371
143
1.0
 70
  1696
 72
     0
 73
     0
 74
     0
  7

 75
     0
147
0.0235690232323232
148
0.0
149
0.0
100
AcDbLayout
  1
Model
 70
     1
 71
     0
 10
0.0
 20
0.0
 11
420.0
 21
297.0
 12
0.0
 22
0.0
 32
0.0
 14
-82.97504074144624
 24
-49.97073246008785
 34
0.0
 15
39.07168302161838
 25
28.61341044024269
 35
0.0
146
0.0
 13
0.0
 23
0.0
 33
0.0
 16
1.0
 26
0.0
 36
0.0
 17
0.0
 27
1.0
 37
0.0
 76
     0
330
1F
331
29
  0
MLINESTYLE
  5
18
102
{ACAD_REACTORS
330
17
102
}
330
17
100
AcDbMlineStyle
  2
Standard
 70
     0
  3

 62
   256
 51
90.0
 52
90.0
 71
     2
 49
0.5
 62
   256
  6
BYLAYER
 49
-0.5
 62
   256
  6
BYLAYER
  0
ACDBPLACEHOLDER
  5
F
102
{ACAD_REACTORS
330
E
102
}
330
E
  0
SCALE
  5
48
102
{ACAD_REACTORS
330
47
102
}
330
47
100
AcDbScale
 70
     0
300
1:1
140
1.0
141
1.0
290
     1
  0
SCALE
  5
49
102
{ACAD_REACTORS
330
47
102
}
330
47
100
AcDbScale
 70
     0
300
1:2
140
1.0
141
2.0
290
     0
  0
SCALE
  5
4A
102
{ACAD_REACTORS
330
47
102
}
330
47
100
AcDbScale
 70
     0
300
1:4
140
1.0
141
4.0
290
     0
  0
SCALE
  5
4B
102
{ACAD_REACTORS
330
47
102
}
330
47
100
AcDbScale
 70
     0
300
1:5
140
1.0
141
5.0
290
     0
  0
SCALE
  5
4C
102
{ACAD_REACTORS
330
47
102
}
330
47
100
AcDbScale
 70
     0
300
1:8
140
1.0
141
8.0
290
     0
  0
SCALE
  5
4D
102
{ACAD_REACTORS
330
47
102
}
330
47
100
AcDbScale
 70
     0
300
1:10
140
1.0
141
10.0
290
     0
  0
SCALE
  5
4E
102
{ACAD_REACTORS
330
47
102
}
330
47
100
AcDbScale
 70
     0
300
1:16
140
1.0
141
16.0
290
     0
  0
SCALE
  5
4F
102
{ACAD_REACTORS
330
47
102
}
330
47
100
AcDbScale
 70
     0
300
1:20
140
1.0
141
20.0
290
     0
  0
SCALE
  5
50
102
{ACAD_REACTORS
330
47
102
}
330
47
100
AcDbScale
 70
     0
300
1:30
140
1.0
141
30.0
290
     0
  0
SCALE
  5
51
102
{ACAD_REACTORS
330
47
102
}
330
47
100
AcDbScale
 70
     0
300
1:40
140
1.0
141
40.0
290
     0
  0
SCALE
  5
52
102
{ACAD_REACTORS
330
47
102
}
330
47
100
AcDbScale
 70
     0
300
1:50
140
1.0
141
50.0
290
     0
  0
SCALE
  5
53
102
{ACAD_REACTORS
330
47
102
}
330
47
100
AcDbScale
 70
     0
300
1:100
140
1.0
141
100.0
290
     0
  0
SCALE
  5
54
102
{ACAD_REACTORS
330
47
102
}
330
47
100
AcDbScale
 70
     0
300
2:1
140
2.0
141
1.0
290
     0
  0
SCALE
  5
55
102
{ACAD_REACTORS
330
47
102
}
330
47
100
AcDbScale
 70
     0
300
4:1
140
4.0
141
1.0
290
     0
  0
SCALE
  5
56
102
{ACAD_REACTORS
330
47
102
}
330
47
100
AcDbScale
 70
     0
300
8:1
140
8.0
141
1.0
290
     0
  0
SCALE
  5
57
102
{ACAD_REACTORS
330
47
102
}
330
47
100
AcDbScale
 70
     0
300
10:1
140
10.0
141
1.0
290
     0
  0
SCALE
  5
58
102
{ACAD_REACTORS
330
47
102
}
330
47
100
AcDbScale
 70
     0
300
100:1
140
100.0
141
1.0
290
     0
  0
SCALE
  5
59
102
{ACAD_REACTORS
330
47
102
}
330
47
100
AcDbScale
 70
     0
300
1/128" = 1'-0"
140
0.0078125
141
12.0
290
     0
  0
SCALE
  5
5A
102
{ACAD_REACTORS
330
47
102
}
330
47
100
AcDbScale
 70
     0
300
1/64" = 1'-0"
140
0.015625
141
12.0
290
     0
  0
SCALE
  5
5B
102
{ACAD_REACTORS
330
47
102
}
330
47
100
AcDbScale
 70
     0
300
1/32" = 1'-0"
140
0.03125
141
12.0
290
     0
  0
SCALE
  5
5C
102
{ACAD_REACTORS
330
47
102
}
330
47
100
AcDbScale
 70
     0
300
1/16" = 1'-0"
140
0.0625
141
12.0
290
     0
  0
SCALE
  5
5D
102
{ACAD_REACTORS
330
47
102
}
330
47
100
AcDbScale
 70
     0
300
3/32" = 1'-0"
140
0.09375
141
12.0
290
     0
  0
SCALE
  5
5E
102
{ACAD_REACTORS
330
47
102
}
330
47
100
AcDbScale
 70
     0
300
1/8" = 1'-0"
140
0.125
141
12.0
290
     0
  0
SCALE
  5
5F
102
{ACAD_REACTORS
330
47
102
}
330
47
100
AcDbScale
 70
     0
300
3/16" = 1'-0"
140
0.1875
141
12.0
290
     0
  0
SCALE
  5
60
102
{ACAD_REACTORS
330
47
102
}
330
47
100
AcDbScale
 70
     0
300
1/4" = 1'-0"
140
0.25
141
12.0
290
     0
  0
SCALE
  5
61
102
{ACAD_REACTORS
330
47
102
}
330
47
100
AcDbScale
 70
     0
300
3/8" = 1'-0"
140
0.375
141
12.0
290
     0
  0
SCALE
  5
62
102
{ACAD_REACTORS
330
47
102
}
330
47
100
AcDbScale
 70
     0
300
1/2" = 1'-0"
140
0.5
141
12.0
290
     0
  0
SCALE
  5
63
102
{ACAD_REACTORS
330
47
102
}
330
47
100
AcDbScale
 70
     0
300
3/4" = 1'-0"
140
0.75
141
12.0
290
     0
  0
SCALE
  5
64
102
{ACAD_REACTORS
330
47
102
}
330
47
100
AcDbScale
 70
     0
300
1" = 1'-0"
140
1.0
141
12.0
290
     0
  0
SCALE
  5
65
102
{ACAD_REACTORS
330
47
102
}
330
47
100
AcDbScale
 70
     0
300
1-1/2" = 1'-0"
140
1.5
141
12.0
290
     0
  0
SCALE
  5
66
102
{ACAD_REACTORS
330
47
102
}
330
47
100
AcDbScale
 70
     0
300
3" = 1'-0"
140
3.0
141
12.0
290
     0
  0
SCALE
  5
67
102
{ACAD_REACTORS
330
47
102
}
330
47
100
AcDbScale
 70
     0
300
6" = 1'-0"
140
6.0
141
12.0
290
     0
  0
SCALE
  5
68
102
{ACAD_REACTORS
330
47
102
}
330
47
100
AcDbScale
 70
     0
300
1'-0" = 1'-0"
140
12.0
141
12.0
290
     0
  0
ENDSEC
  0
EOF
