  0
SECTION
  2
HEADER
  9
$ACADVER
  1
AC1015
  9
$ACADMAINTVER
 70
     6
  9
$DWGCODEPAGE
  3
ANSI_949
  9
$INSBASE
 10
0.0
 20
0.0
 30
0.0
  9
$EXTMIN
 10
-45.83924335647428
 20
-49.97073246008785
 30
0.0
  9
$EXTMAX
 10
45.65154368494466
 20
28.61341044024269
 30
0.0
  9
$LIMMIN
 10
0.0
 20
0.0
  9
$LIMMAX
 10
420.0
 20
297.0
  9
$ORTHOMODE
 70
     0
  9
$REGENMODE
 70
     1
  9
$FILLMODE
 70
     1
  9
$QTEXTMODE
 70
     0
  9
$MIRRTEXT
 70
     1
  9
$LTSCALE
 40
1.0
  9
$ATTMODE
 70
     1
  9
$TEXTSIZE
 40
3.5
  9
$TRACEWID
 40
1.0
  9
$TEXTSTYLE
  7
Standard
  9
$CLAYER
  8
0
  9
$CELTYPE
  6
ByLayer
  9
$CECOLOR
 62
   256
  9
$CELTSCALE
 40
1.0
  9
$DISPSILH
 70
     0
  9
$DIMSCALE
 40
1.0
  9
$DIMASZ
 40
3.302
  9
$DIMEXO
 40
1.0
  9
$DIMDLI
 40
3.75
  9
$DIMRND
 40
0.0
  9
$DIMDLE
 40
0.0
  9
$DIMEXE
 40
1.0
  9
$DIMTP
 40
0.0
  9
$DIMTM
 40
0.0
  9
$DIMTXT
 40
3.5
  9
$DIMCEN
 40
2.5
  9
$DIMTSZ
 40
0.0
  9
$DIMTOL
 70
     0
  9
$DIMLIM
 70
     0
  9
$DIMTIH
 70
     1
  9
$DIMTOH
 70
     1
  9
$DIMSE1
 70
     0
  9
$DIMSE2
 70
     0
  9
$DIMTAD
 70
     1
  9
$DIMZIN
 70
     0
  9
$DIMBLK
  1

  9
$DIMASO
 70
     1
  9
$DIMSHO
 70
     1
  9
$DIMPOST
  1

  9
$DIMAPOST
  1

  9
$DIMALT
 70
     0
  9
$DIMALTD
 70
     3
  9
$DIMALTF
 40
0.0393700787401575
  9
$DIMLFAC
 40
1.0
  9
$DIMTOFL
 70
     1
  9
$DIMTVP
 40
0.0
  9
$DIMTIX
 70
     0
  9
$DIMSOXD
 70
     0
  9
$DIMSAH
 70
     0
  9
$DIMBLK1
  1

  9
$DIMBLK2
  1

  9
$DIMSTYLE
  2
ISO-25
  9
$DIMCLRD
 70
     0
  9
$DIMCLRE
 70
     0
  9
$DIMCLRT
 70
     0
  9
$DIMTFAC
 40
1.0
  9
$DIMGAP
 40
1.524
  9
$DIMJUST
 70
     0
  9
$DIMSD1
 70
     0
  9
$DIMSD2
 70
     0
  9
$DIMTOLJ
 70
     0
  9
$DIMTZIN
 70
     0
  9
$DIMALTZ
 70
     0
  9
$DIMALTTZ
 70
     0
  9
$DIMUPT
 70
     0
  9
$DIMDEC
 70
     2
  9
$DIMTDEC
 70
     2
  9
$DIMALTU
 70
     2
  9
$DIMALTTD
 70
     3
  9
$DIMTXSTY
  7
Standard
  9
$DIMAUNIT
 70
     0
  9
$DIMADEC
 70
     2
  9
$DIMALTRND
 40
0.0
  9
$DIMAZIN
 70
     0
  9
$DIMDSEP
 70
    44
  9
$DIMATFIT
 70
     3
  9
$DIMFRAC
 70
     0
  9
$DIMLDRBLK
  1

  9
$DIMLUNIT
 70
     2
  9
$DIMLWD
 70
    -2
  9
$DIMLWE
 70
    -2
  9
$DIMTMOVE
 70
     0
  9
$LUNITS
 70
     2
  9
$LUPREC
 70
     2
  9
$SKETCHINC
 40
1.0
  9
$FILLETRAD
 40
10.0
  9
$AUNITS
 70
     0
  9
$AUPREC
 70
     2
  9
$MENU
  1
.
  9
$ELEVATION
 40
0.0
  9
$PELEVATION
 40
0.0
  9
$THICKNESS
 40
0.0
  9
$LIMCHECK
 70
     0
  9
$CHAMFERA
 40
0.0
  9
$CHAMFERB
 40
0.0
  9
$CHAMFERC
 40
0.0
  9
$CHAMFERD
 40
0.0
  9
$SKPOLY
 70
     0
  9
$TDCREATE
 40
2458262.539476771
  9
$TDUCREATE
 40
2458262.164476771
  9
$TDUPDATE
 40
2458266.385537465
  9
$TDUUPDATE
 40
2458266.010537465
  9
$TDINDWG
 40
0.0015536227
  9
$TDUSRTIMER
 40
2458266.008983866
  9
$USRTIMER
 70
     1
  9
$ANGBASE
 50
0.0
  9
$ANGDIR
 70
     0
  9
$PDMODE
 70
     0
  9
$PDSIZE
 40
-1.0
  9
$PLINEWID
 40
0.0
  9
$SPLFRAME
 70
     0
  9
$SPLINETYPE
 70
     6
  9
$SPLINESEGS
 70
     8
  9
$HANDSEED
  5
159
  9
$SURFTAB1
 70
     6
  9
$SURFTAB2
 70
     6
  9
$SURFTYPE
 70
     6
  9
$SURFU
 70
     6
  9
$SURFV
 70
     6
  9
$UCSBASE
  2

  9
$UCSNAME
  2

  9
$UCSORG
 10
0.0
 20
0.0
 30
0.0
  9
$UCSXDIR
 10
1.0
 20
0.0
 30
0.0
  9
$UCSYDIR
 10
0.0
 20
1.0
 30
0.0
  9
$UCSORTHOREF
  2

  9
$UCSORTHOVIEW
 70
     0
  9
$UCSORGTOP
 10
0.0
 20
0.0
 30
0.0
  9
$UCSORGBOTTOM
 10
0.0
 20
0.0
 30
0.0
  9
$UCSORGLEFT
 10
0.0
 20
0.0
 30
0.0
  9
$UCSORGRIGHT
 10
0.0
 20
0.0
 30
0.0
  9
$UCSORGFRONT
 10
0.0
 20
0.0
 30
0.0
  9
$UCSORGBACK
 10
0.0
 20
0.0
 30
0.0
  9
$PUCSBASE
  2

  9
$PUCSNAME
  2

  9
$PUCSORG
 10
0.0
 20
0.0
 30
0.0
  9
$PUCSXDIR
 10
1.0
 20
0.0
 30
0.0
  9
$PUCSYDIR
 10
0.0
 20
1.0
 30
0.0
  9
$PUCSORTHOREF
  2

  9
$PUCSORTHOVIEW
 70
     0
  9
$PUCSORGTOP
 10
0.0
 20
0.0
 30
0.0
  9
$PUCSORGBOTTOM
 10
0.0
 20
0.0
 30
0.0
  9
$PUCSORGLEFT
 10
0.0
 20
0.0
 30
0.0
  9
$PUCSORGRIGHT
 10
0.0
 20
0.0
 30
0.0
  9
$PUCSORGFRONT
 10
0.0
 20
0.0
 30
0.0
  9
$PUCSORGBACK
 10
0.0
 20
0.0
 30
0.0
  9
$USERI1
 70
     0
  9
$USERI2
 70
     0
  9
$USERI3
 70
     0
  9
$USERI4
 70
     0
  9
$USERI5
 70
     0
  9
$USERR1
 40
0.0
  9
$USERR2
 40
0.0
  9
$USERR3
 40
0.0
  9
$USERR4
 40
0.0
  9
$USERR5
 40
0.0
  9
$WORLDVIEW
 70
     1
  9
$SHADEDGE
 70
     3
  9
$SHADEDIF
 70
    70
  9
$TILEMODE
 70
     1
  9
$MAXACTVP
 70
    64
  9
$PINSBASE
 10
0.0
 20
0.0
 30
0.0
  9
$PLIMCHECK
 70
     0
  9
$PEXTMIN
 10
1.000000000000000E+20
 20
1.000000000000000E+20
 30
1.000000000000000E+20
  9
$PEXTMAX
 10
-1.000000000000000E+20
 20
-1.000000000000000E+20
 30
-1.000000000000000E+20
  9
$PLIMMIN
 10
0.0
 20
0.0
  9
$PLIMMAX
 10
0.0
 20
0.0
  9
$UNITMODE
 70
     0
  9
$VISRETAIN
 70
     1
  9
$PLINEGEN
 70
     0
  9
$PSLTSCALE
 70
     1
  9
$TREEDEPTH
 70
  3020
  9
$CMLSTYLE
  2
Standard
  9
$CMLJUST
 70
     0
  9
$CMLSCALE
 40
20.0
  9
$PROXYGRAPHICS
 70
     1
  9
$MEASUREMENT
 70
     1
  9
$CELWEIGHT
370
    -1
  9
$ENDCAPS
280
     0
  9
$JOINSTYLE
280
     0
  9
$LWDISPLAY
290
     1
  9
$INSUNITS
 70
     4
  9
$HYPERLINKBASE
  1

  9
$STYLESHEET
  1

  9
$XEDIT
290
     1
  9
$CEPSNTYPE
380
     0
  9
$PSTYLEMODE
290
     1
  9
$FINGERPRINTGUID
  2
{D1FB558C-2007-45C5-A39D-1B5F6A203D69}
  9
$VERSIONGUID
  2
{FAEB1C32-E019-11D5-929B-00C0DF256EC4}
  9
$EXTNAMES
290
     1
  9
$PSVPSCALE
 40
0.0
  9
$OLESTARTUP
290
     0
  0
ENDSEC
  0
SECTION
  2
CLASSES
  0
CLASS
  1
ACDBDICTIONARYWDFLT
  2
AcDbDictionaryWithDefault
  3
ObjectDBX Classes
 90
        0
280
     0
281
     0
  0
CLASS
  1
VISUALSTYLE
  2
AcDbVisualStyle
  3
ObjectDBX Classes
 90
     4095
280
     0
281
     0
  0
CLASS
  1
MATERIAL
  2
AcDbMaterial
  3
ObjectDBX Classes
 90
     1153
280
     0
281
     0
  0
CLASS
  1
SCALE
  2
AcDbScale
  3
ObjectDBX Classes
 90
     1153
280
     0
281
     0
  0
CLASS
  1
SUN
  2
AcDbSun
  3
SCENEOE
 90
     1153
280
     0
281
     0
  0
CLASS
  1
ACDBPLACEHOLDER
  2
AcDbPlaceHolder
  3
ObjectDBX Classes
 90
        0
280
     0
281
     0
  0
CLASS
  1
LAYOUT
  2
AcDbLayout
  3
ObjectDBX Classes
 90
        0
280
     0
281
     0
  0
CLASS
  1
TABLESTYLE
  2
AcDbTableStyle
  3
ObjectDBX Classes
 90
     4095
280
     0
281
     0
  0
CLASS
  1
MLEADERSTYLE
  2
AcDbMLeaderStyle
  3
ACDB_MLEADERSTYLE_CLASS
 90
     4095
280
     0
281
     0
  0
CLASS
  1
RASTERVARIABLES
  2
AcDbRasterVariables
  3
ISM
 90
        0
280
     0
281
     0
  0
ENDSEC
  0
SECTION
  2
TABLES
  0
TABLE
  2
VPORT
  5
8
330
0
100
AcDbSymbolTable
 70
     1
  0
VPORT
  5
29
330
8
100
AcDbSymbolTableRecord
100
AcDbViewportTableRecord
  2
*Active
 70
     0
 10
0.0
 20
0.0
 11
1.0
 21
1.0
 12
-0.0938498357648143
 22
-10.67866100992259
 13
0.0
 23
0.0
 14
10.0
 24
10.0
 15
10.0
 25
10.0
 16
0.0
 26
0.0
 36
1.0
 17
0.0
 27
0.0
 37
0.0
 40
80.97550062047021
 41
1.152454780361757
 42
50.0
 43
0.0
 44
0.0
 50
0.0
 51
0.0
 71
    16
 72
  2000
 73
     1
 74
     3
 75
     0
 76
     0
 77
     0
 78
     0
281
     0
 65
     1
110
0.0
120
0.0
130
0.0
111
1.0
121
0.0
131
0.0
112
0.0
122
1.0
132
0.0
 79
     0
146
0.0
  0
ENDTAB
  0
TABLE
  2
LTYPE
  5
5
330
0
100
AcDbSymbolTable
 70
     6
  0
LTYPE
  5
14
330
5
100
AcDbSymbolTableRecord
100
AcDbLinetypeTableRecord
  2
ByBlock
 70
     0
  3

 72
    65
 73
     0
 40
0.0
  0
LTYPE
  5
15
330
5
100
AcDbSymbolTableRecord
100
AcDbLinetypeTableRecord
  2
ByLayer
 70
     0
  3

 72
    65
 73
     0
 40
0.0
  0
LTYPE
  5
16
330
5
100
AcDbSymbolTableRecord
100
AcDbLinetypeTableRecord
  2
Continuous
 70
     0
  3
Solid line
 72
    65
 73
     0
 40
0.0
  0
LTYPE
  5
6A
330
5
100
AcDbSymbolTableRecord
100
AcDbLinetypeTableRecord
  2
HIDDEN
 70
     0
  3
Hidden __ __ __ __ __ __ __ __ __ __ __ __ __ __
 72
    65
 73
     2
 40
1.905
 49
1.27
 74
     0
 49
-0.635
 74
     0
  0
LTYPE
  5
6B
330
5
100
AcDbSymbolTableRecord
100
AcDbLinetypeTableRecord
  2
PHANTOM
 70
     0
  3
Phantom ______  __  __  ______  __  __  ______
 72
    65
 73
     6
 40
12.7
 49
6.35
 74
     0
 49
-1.27
 74
     0
 49
1.27
 74
     0
 49
-1.27
 74
     0
 49
1.27
 74
     0
 49
-1.27
 74
     0
  0
LTYPE
  5
6C
330
5
100
AcDbSymbolTableRecord
100
AcDbLinetypeTableRecord
  2
CENTER
 70
     0
  3
Center ____ _ ____ _ ____ _ ____ _ ____ _ ____
 72
    65
 73
     4
 40
10.16
 49
6.35
 74
     0
 49
-1.27
 74
     0
 49
1.27
 74
     0
 49
-1.27
 74
     0
  0
LTYPE
  5
6D
330
5
100
AcDbSymbolTableRecord
100
AcDbLinetypeTableRecord
  2
CENTERX2
 70
     0
  3
Center (2x) ________  __  ________  __  _____
 72
    65
 73
     4
 40
20.32
 49
12.7
 74
     0
 49
-2.54
 74
     0
 49
2.54
 74
     0
 49
-2.54
 74
     0
  0
LTYPE
  5
6E
330
5
100
AcDbSymbolTableRecord
100
AcDbLinetypeTableRecord
  2
DOT2
 70
     0
  3
Dot (.5x) ........................................
 72
    65
 73
     2
 40
0.635
 49
0.0
 74
     0
 49
-0.635
 74
     0
  0
ENDTAB
  0
TABLE
  2
LAYER
  5
2
330
0
100
AcDbSymbolTable
 70
    17
  0
LAYER
  5
10
330
2
100
AcDbSymbolTableRecord
100
AcDbLayerTableRecord
  2
0
 70
     0
 62
     7
  6
Continuous
370
    -3
390
F
  0
LAYER
  5
6F
330
2
100
AcDbSymbolTableRecord
100
AcDbLayerTableRecord
  2
FORMAT
 70
     0
 62
     2
  6
Continuous
370
    -3
390
F
  0
LAYER
  5
70
330
2
100
AcDbSymbolTableRecord
100
AcDbLayerTableRecord
  2
외형선
 70
     0
 62
   100
  6
Continuous
370
    30
390
F
  0
LAYER
  5
71
330
2
100
AcDbSymbolTableRecord
100
AcDbLayerTableRecord
  2
숨은선
 70
     0
 62
     2
  6
HIDDEN
370
    15
390
F
  0
LAYER
  5
72
330
2
100
AcDbSymbolTableRecord
100
AcDbLayerTableRecord
  2
중심선
 70
     0
 62
     1
  6
CENTERX2
370
    -3
390
F
  0
LAYER
  5
73
330
2
100
AcDbSymbolTableRecord
100
AcDbLayerTableRecord
  2
파단선
 70
     0
 62
     4
  6
Continuous
370
    -3
390
F
  0
LAYER
  5
74
330
2
100
AcDbSymbolTableRecord
100
AcDbLayerTableRecord
  2
해칭선
 70
     0
 62
     4
  6
Continuous
370
    -3
390
F
  0
LAYER
  5
75
330
2
100
AcDbSymbolTableRecord
100
AcDbLayerTableRecord
  2
가는실선
 70
     0
 62
     4
  6
Continuous
370
    -3
390
F
  0
LAYER
  5
76
330
2
100
AcDbSymbolTableRecord
100
AcDbLayerTableRecord
  2
치수_보조선
 70
     0
 62
     4
  6
Continuous
370
    -3
390
F
  0
LAYER
  5
77
330
2
100
AcDbSymbolTableRecord
100
AcDbLayerTableRecord
  2
치수문자_일반주서
 70
     0
 62
     7
  6
Continuous
370
    15
390
F
  0
LAYER
  5
78
330
2
100
AcDbSymbolTableRecord
100
AcDbLayerTableRecord
  2
개별주서
 70
     0
 62
   100
  6
Continuous
370
    30
390
F
  0
LAYER
  5
79
330
2
100
AcDbSymbolTableRecord
100
AcDbLayerTableRecord
  2
중간선
 70
     0
 62
     2
  6
Continuous
370
    15
390
F
  0
LAYER
  5
7A
330
2
100
AcDbSymbolTableRecord
100
AcDbLayerTableRecord
  2
윤곽선
 70
     0
 62
     3
  6
Continuous
370
    40
390
F
  0
LAYER
  5
7B
330
2
100
AcDbSymbolTableRecord
100
AcDbLayerTableRecord
  2
중심마크
 70
     0
 62
   100
  6
Continuous
370
    30
390
F
  0
LAYER
  5
7C
330
2
100
AcDbSymbolTableRecord
100
AcDbLayerTableRecord
  2
가상선
 70
     0
 62
     4
  6
PHANTOM
370
    -3
390
F
  0
LAYER
  5
7D
330
2
100
AcDbSymbolTableRecord
100
AcDbLayerTableRecord
  2
특수지정선
 70
     0
 62
     5
  6
CENTERX2
370
    60
390
F
  0
LAYER
  5
14B
330
2
100
AcDbSymbolTableRecord
100
AcDbLayerTableRecord
  2
Defpoints
 70
     0
 62
     7
  6
Continuous
290
     0
370
    -3
390
F
  0
ENDTAB
  0
TABLE
  2
STYLE
  5
3
330
0
100
AcDbSymbolTable
 70
     2
  0
STYLE
  5
11
330
3
100
AcDbSymbolTableRecord
100
AcDbTextStyleTableRecord
  2
Standard
 70
     0
 40
0.0
 41
1.0
 50
0.0
 71
     0
 42
3.5
  3
txt
  4

  0
STYLE
  5
93
330
3
100
AcDbSymbolTableRecord
100
AcDbTextStyleTableRecord
  2
SLDTEXTSTYLE0
 70
     0
 40
0.0
 41
0.75
 50
0.0
 71
     0
 42
3.5
  3
TXT
  4

  0
ENDTAB
  0
TABLE
  2
VIEW
  5
6
330
0
100
AcDbSymbolTable
 70
     0
  0
ENDTAB
  0
TABLE
  2
UCS
  5
7
330
0
100
AcDbSymbolTable
 70
     0
  0
ENDTAB
  0
TABLE
  2
APPID
  5
9
330
0
100
AcDbSymbolTable
 70
     1
  0
APPID
  5
12
330
9
100
AcDbSymbolTableRecord
100
AcDbRegAppTableRecord
  2
ACAD
 70
     0
  0
ENDTAB
  0
TABLE
  2
DIMSTYLE
  5
A
330
0
100
AcDbSymbolTable
 70
     3
100
AcDbDimStyleTable
  0
DIMSTYLE
105
27
330
A
100
AcDbSymbolTableRecord
100
AcDbDimStyleTableRecord
  2
ISO-25
 70
     0
 41
2.5
 42
0.625
 43
3.75
 44
1.25
 73
     0
 74
     0
 77
     1
 78
     8
140
2.5
141
2.5
143
0.03937007874016
147
0.625
171
     3
172
     1
178
     0
271
     2
272
     2
274
     3
278
    44
283
     0
284
     8
340
11
  0
DIMSTYLE
105
F1
102
{ACAD_REACTORS
330
F0
330
113
102
}
330
A
100
AcDbSymbolTableRecord
100
AcDbDimStyleTableRecord
  2
SLDDIMSTYLE0
 70
     0
 41
3.302
 44
0.0
 45
0.000000001
 73
     0
 74
     0
 77
     1
 78
    12
 79
     3
140
3.5
147
0.875
172
     1
173
     1
178
     0
271
     2
272
     2
276
     2
284
    12
289
     0
340
93
  0
DIMSTYLE
105
FF
102
{ACAD_REACTORS
330
FE
330
109
102
}
330
A
100
AcDbSymbolTableRecord
100
AcDbDimStyleTableRecord
  2
SLDDIMSTYLE1
 70
     0
 41
3.302
 44
0.0
 45
0.000000001
 73
     0
 74
     0
 77
     1
 78
    12
 79
     3
140
3.5
147
0.875
173
     1
178
     0
271
     2
272
     2
276
     2
284
    12
340
93
  0
ENDTAB
  0
TABLE
  2
BLOCK_RECORD
  5
1
330
0
100
AcDbSymbolTable
 70
     7
  0
BLOCK_RECORD
  5
1F
330
1
100
AcDbSymbolTableRecord
100
AcDbBlockTableRecord
  2
*Model_Space
340
22
  0
BLOCK_RECORD
  5
1B
330
1
100
AcDbSymbolTableRecord
100
AcDbBlockTableRecord
  2
*Paper_Space
340
1E
  0
BLOCK_RECORD
  5
23
330
1
100
AcDbSymbolTableRecord
100
AcDbBlockTableRecord
  2
*Paper_Space0
340
26
  0
BLOCK_RECORD
  5
7E
330
1
100
AcDbSymbolTableRecord
100
AcDbBlockTableRecord
  2
블럭10
340
0
102
{BLKREFS
331
E9
102
}
  0
BLOCK_RECORD
  5
F2
330
1
100
AcDbSymbolTableRecord
100
AcDbBlockTableRecord
  2
_D
340
0
  0
BLOCK_RECORD
  5
100
330
1
100
AcDbSymbolTableRecord
100
AcDbBlockTableRecord
  2
_D_1
340
0
  0
BLOCK_RECORD
  5
10A
330
1
100
AcDbSymbolTableRecord
100
AcDbBlockTableRecord
  2
_D_2
340
0
  0
BLOCK_RECORD
  5
114
330
1
100
AcDbSymbolTableRecord
100
AcDbBlockTableRecord
  2
_D_3
340
0
  0
BLOCK_RECORD
  5
120
330
1
100
AcDbSymbolTableRecord
100
AcDbBlockTableRecord
  2
SW_DOWELSYMBOL_0
340
0
102
{BLKREFS
331
126
102
}
  0
ENDTAB
  0
ENDSEC
  0
SECTION
  2
BLOCKS
  0
BLOCK
  5
20
330
1F
100
AcDbEntity
  8
0
100
AcDbBlockBegin
  2
*Model_Space
 70
     0
 10
0.0
 20
0.0
 30
0.0
  3
*Model_Space
  1

  0
ENDBLK
  5
21
330
1F
100
AcDbEntity
  8
0
100
AcDbBlockEnd
  0
BLOCK
  5
1C
330
1B
100
AcDbEntity
 67
     1
  8
0
100
AcDbBlockBegin
  2
*Paper_Space
 70
     0
 10
0.0
 20
0.0
 30
0.0
  3
*Paper_Space
  1

  0
ENDBLK
  5
1D
330
1B
100
AcDbEntity
 67
     1
  8
0
100
AcDbBlockEnd
  0
BLOCK
  5
24
330
23
100
AcDbEntity
  8
0
100
AcDbBlockBegin
  2
*Paper_Space0
 70
     0
 10
0.0
 20
0.0
 30
0.0
  3
*Paper_Space0
  1

  0
ENDBLK
  5
25
330
23
100
AcDbEntity
  8
0
100
AcDbBlockEnd
  0
BLOCK
  5
7F
330
7E
100
AcDbEntity
  8
0
100
AcDbBlockBegin
  2
블럭10
 70
     2
 10
0.0
 20
0.0
 30
0.0
  3
블럭10
  1

  0
ELLIPSE
  5
81
330
7E
100
AcDbEntity
  8
중심선
100
AcDbEllipse
 10
20.54032771741204
 20
12.0471743016438
 30
0.0
 11
6.600054785286829
 21
-1.261213355974178E-13
 31
0.0
210
0.0
220
0.0
230
1.0
 40
0.636358354079598
 41
0.9219305317359503
 42
6.513795318482858
  0
ELLIPSE
  5
82
330
7E
100
AcDbEntity
  8
중심선
100
AcDbEllipse
 10
20.54032771746488
 20
12.04717430159265
 30
0.0
 11
3.960054785062283
 21
1.540847449632565E-10
 31
0.0
210
0.0
220
0.0
230
1.0
 40
0.3939339440162632
 41
1.131841032648279
 42
5.62031148352944
  0
LINE
  5
83
330
7E
100
AcDbEntity
  8
중심선
100
AcDbLine
 10
2.268634060543552
 20
16.24717430164393
 30
0.0
 11
5.714909304380834
 21
16.24717430164393
 31
0.0
  0
LINE
  5
84
330
7E
100
AcDbEntity
  8
중심선
100
AcDbLine
 10
5.245725140726316
 20
7.84717430164391
 30
0.0
 11
8.692000384563599
 21
7.84717430164391
 31
0.0
  0
LINE
  5
85
330
7E
100
AcDbEntity
  8
중심선
100
AcDbLine
 10
15.74043728645272
 20
16.24717430164393
 30
0.0
 11
8.692000384563599
 21
7.84717430164391
 31
0.0
  0
LINE
  5
86
330
7E
100
AcDbEntity
  8
중심선
100
AcDbLine
 10
0.1404042013395286
 20
13.71084872107135
 30
0.0
 11
3.58671253028996
 21
13.71088815037384
 31
0.0
  0
LINE
  5
87
330
7E
100
AcDbEntity
  8
중심선
100
AcDbLine
 10
2.750260043222114
 20
10.84717430164391
 30
0.0
 11
6.196535287059397
 21
10.84717430164391
 31
0.0
  0
LINE
  5
88
330
7E
100
AcDbEntity
  8
중심선
100
AcDbLine
 10
12.29416204261559
 20
16.24717430164393
 30
0.0
 11
5.245725140726316
 21
7.84717430164391
 31
0.0
  0
LINE
  5
89
330
7E
100
AcDbEntity
  8
중심선
100
AcDbLine
 10
10.72767329541681
 20
16.24717430164393
 30
0.0
 11
6.196535287059397
 21
10.84717430164391
 31
0.0
  0
LINE
  5
8A
330
7E
100
AcDbEntity
  8
중심선
100
AcDbLine
 10
7.28139805157953
 20
16.24717430164393
 30
0.0
 11
2.750260043222114
 21
10.84717430164391
 31
0.0
  0
LINE
  5
8B
330
7E
100
AcDbEntity
  8
중심선
100
AcDbLine
 10
5.714909304380834
 20
16.24717430164393
 30
0.0
 11
3.58671253028996
 21
13.71088815037384
 31
0.0
  0
LINE
  5
8C
330
7E
100
AcDbEntity
  8
중심선
100
AcDbLine
 10
2.268634060543552
 20
16.24717430164393
 30
0.0
 11
0.1404042013395286
 21
13.71084872107135
 31
0.0
  0
LINE
  5
8D
330
7E
100
AcDbEntity
  8
중심선
100
AcDbLine
 10
7.28139805157953
 20
16.24717430164393
 30
0.0
 11
10.72767329541681
 21
16.24717430164393
 31
0.0
  0
LINE
  5
8E
330
7E
100
AcDbEntity
  8
중심선
100
AcDbLine
 10
12.29416204261559
 20
16.24717430164393
 30
0.0
 11
15.74043728645272
 21
16.24717430164393
 31
0.0
  0
LINE
  5
8F
330
7E
100
AcDbEntity
  8
중심선
100
AcDbLine
 10
19.22036997980202
 20
11.08717430171403
 30
0.0
 11
23.66174974927406
 21
11.08717430171406
 31
0.0
  0
LINE
  5
90
330
7E
100
AcDbEntity
  8
중심선
100
AcDbLine
 10
19.22039502424796
 20
13.00717430171391
 30
0.0
 11
19.22036997980202
 21
11.08717430171403
 31
0.0
  0
LINE
  5
91
330
7E
100
AcDbEntity
  8
중심선
100
AcDbLine
 10
19.22039502424796
 20
13.00717430171391
 30
0.0
 11
26.96566020931264
 21
13.00717430171391
 31
0.0
  0
LINE
  5
92
330
7E
100
AcDbEntity
  8
중심선
100
AcDbLine
 10
22.22332737316547
 20
13.45928029700563
 30
0.0
 11
24.52862924686651
 21
15.39360700705356
 31
0.0
  0
ATTDEF
  5
94
330
7E
100
AcDbEntity
  8
FORMAT
 62
     2
100
AcDbText
 10
-16.11926103943555
 20
2.075366912832191
 30
0.0
 40
4.233333333333333
  1
SEME7004030E [ 2 FLUTE ]
 41
0.75
  7
SLDTEXTSTYLE0
 11
-16.11926103943555
 21
-0.0412997538344756
 31
0.0
100
AcDbAttributeDefinition
  3

  2
AUTOATTR0
 70
     0
 74
     1
  0
ENDBLK
  5
80
330
7E
100
AcDbEntity
  8
0
100
AcDbBlockEnd
  0
BLOCK
  5
F3
330
F2
100
AcDbEntity
  8
0
100
AcDbBlockBegin
  2
_D
 70
     0
 10
0.0
 20
0.0
 30
0.0
  3
_D
  1

  0
LINE
  5
F5
330
F2
100
AcDbEntity
  8
치수문자_일반주서
 62
     0
370
    -2
100
AcDbLine
 10
36.79455080756887
 20
-1.999999999999889
 30
0.0
 11
45.10121035161131
 21
-1.99999999999986
 31
0.0
  0
LINE
  5
F6
330
F2
100
AcDbEntity
  8
치수문자_일반주서
 62
     0
370
    -2
100
AcDbLine
 10
36.79455080756873
 20
2.00000000000011
 30
0.0
 11
45.1012103516113
 21
2.000000000000142
 31
0.0
  0
LINE
  5
F7
330
F2
100
AcDbEntity
  8
치수문자_일반주서
 62
     0
370
    -2
100
AcDbLine
 10
45.10121035161131
 20
-1.99999999999986
 30
0.0
 11
45.10121035161125
 21
14.72900000000014
 31
0.0
  0
LINE
  5
F8
330
F2
100
AcDbEntity
  8
치수문자_일반주서
 62
     0
370
    -2
100
AcDbLine
 10
45.10121035161131
 20
-1.99999999999986
 30
0.0
 11
45.1012103516113
 21
2.000000000000142
 31
0.0
  0
LINE
  5
F9
330
F2
100
AcDbEntity
  8
치수문자_일반주서
 62
     0
370
    -2
100
AcDbLine
 10
45.10121035161133
 20
-5.301999999999859
 30
0.0
 11
45.10121035161134
 21
-8.603999999999859
 31
0.0
  0
LINE
  5
FA
330
F2
100
AcDbEntity
  8
치수문자_일반주서
 62
     0
370
    -2
100
AcDbLine
 10
45.10121035161129
 20
5.302000000000142
 30
0.0
 11
45.10121035161127
 21
8.604000000000141
 31
0.0
  0
SOLID
  5
FB
330
F2
100
AcDbEntity
  8
치수문자_일반주서
 62
     0
100
AcDbTrace
 10
45.65154368494466
 20
-5.301999999999857
 30
0.0
 11
44.55087701827799
 21
-5.301999999999861
 31
0.0
 12
45.10121035161131
 22
-1.99999999999986
 32
0.0
 13
45.10121035161131
 23
-1.99999999999986
 33
0.0
  0
SOLID
  5
FC
330
F2
100
AcDbEntity
  8
치수문자_일반주서
 62
     0
100
AcDbTrace
 10
44.55087701827795
 20
5.30200000000014
 30
0.0
 11
45.65154368494462
 21
5.302000000000143
 31
0.0
 12
45.1012103516113
 22
2.000000000000142
 32
0.0
 13
45.1012103516113
 23
2.000000000000142
 33
0.0
  0
MTEXT
  5
FD
330
F2
100
AcDbEntity
  8
치수문자_일반주서
 62
     0
100
AcDbMText
 10
40.72621035161126
 20
11.66650000000013
 30
0.0
 40
3.5
 41
0.0
 71
     2
 72
     1
  1
\A1;%%c4
  7
SLDTEXTSTYLE0
 11
-3.552713678800503E-15
 21
1.0
 31
0.0
 73
     1
 44
1.0
  0
POINT
  5
152
330
F2
100
AcDbEntity
  8
Defpoints
 62
     0
100
AcDbPoint
 10
36.73205080756887
 20
-1.999999999999889
 30
0.0
  0
POINT
  5
153
330
F2
100
AcDbEntity
  8
Defpoints
 62
     0
100
AcDbPoint
 10
36.73205080756873
 20
2.000000000000109
 30
0.0
  0
POINT
  5
154
330
F2
100
AcDbEntity
  8
Defpoints
 62
     0
100
AcDbPoint
 10
45.1012103516113
 20
2.00000000000014
 30
0.0
  0
ENDBLK
  5
F4
330
F2
100
AcDbEntity
  8
0
100
AcDbBlockEnd
  0
BLOCK
  5
101
330
100
100
AcDbEntity
  8
0
100
AcDbBlockBegin
  2
_D_1
 70
     0
 10
0.0
 20
0.0
 30
0.0
  3
_D_1
  1

  0
LINE
  5
103
330
100
100
AcDbEntity
  8
치수문자_일반주서
 62
     0
370
    -2
100
AcDbLine
 10
-33.26794919243114
 20
2.512499999999995
 30
0.0
 11
-33.26794919243113
 21
24.23841044024269
 31
0.0
  0
LINE
  5
104
330
100
100
AcDbEntity
  8
치수문자_일반주서
 62
     0
370
    -2
100
AcDbLine
 10
36.73205080756873
 20
2.062500000000109
 30
0.0
 11
36.73205080756873
 21
24.23841044024269
 31
0.0
  0
LINE
  5
105
330
100
100
AcDbEntity
  8
치수문자_일반주서
 62
     0
370
    -2
100
AcDbLine
 10
-29.96594919243113
 20
24.23841044024269
 30
0.0
 11
33.43005080756873
 21
24.23841044024269
 31
0.0
  0
SOLID
  5
106
330
100
100
AcDbEntity
  8
치수문자_일반주서
 62
     0
100
AcDbTrace
 10
-29.96594919243113
 20
24.78874377357602
 30
0.0
 11
-29.96594919243113
 21
23.68807710690935
 31
0.0
 12
-33.26794919243113
 22
24.23841044024269
 32
0.0
 13
-33.26794919243113
 23
24.23841044024269
 33
0.0
  0
SOLID
  5
107
330
100
100
AcDbEntity
  8
치수문자_일반주서
 62
     0
100
AcDbTrace
 10
33.43005080756873
 20
23.68807710690935
 30
0.0
 11
33.43005080756873
 21
24.78874377357602
 31
0.0
 12
36.73205080756873
 22
24.23841044024269
 32
0.0
 13
36.73205080756873
 23
24.23841044024269
 33
0.0
  0
MTEXT
  5
108
330
100
100
AcDbEntity
  8
치수문자_일반주서
 62
     0
100
AcDbMText
 10
1.732050807568795
 20
28.61341044024269
 30
0.0
 40
3.5
 41
0.0
 71
     2
 72
     1
  1
\A1;70
  7
SLDTEXTSTYLE0
 73
     1
 44
1.0
  0
POINT
  5
14C
330
100
100
AcDbEntity
  8
Defpoints
 62
     0
100
AcDbPoint
 10
-33.26794919243114
 20
2.449999999999995
 30
0.0
  0
POINT
  5
14D
330
100
100
AcDbEntity
  8
Defpoints
 62
     0
100
AcDbPoint
 10
36.73205080756873
 20
2.000000000000109
 30
0.0
  0
POINT
  5
14E
330
100
100
AcDbEntity
  8
Defpoints
 62
     0
100
AcDbPoint
 10
36.73205080756873
 20
24.23841044024269
 30
0.0
  0
ENDBLK
  5
102
330
100
100
AcDbEntity
  8
0
100
AcDbBlockEnd
  0
BLOCK
  5
10B
330
10A
100
AcDbEntity
  8
0
100
AcDbBlockBegin
  2
_D_2
 70
     0
 10
0.0
 20
0.0
 30
0.0
  3
_D_2
  1

  0
LINE
  5
10D
330
10A
100
AcDbEntity
  8
치수문자_일반주서
 62
     0
370
    -2
100
AcDbLine
 10
6.732050807568866
 20
1.868862076476403
 30
0.0
 11
6.732050807568868
 21
15.15335988264392
 31
0.0
  0
LINE
  5
10E
330
10A
100
AcDbEntity
  8
치수문자_일반주서
 62
     0
370
    -2
100
AcDbLine
 10
36.73205080756873
 20
2.062500000000109
 30
0.0
 11
36.73205080756873
 21
15.15335988264392
 31
0.0
  0
LINE
  5
10F
330
10A
100
AcDbEntity
  8
치수문자_일반주서
 62
     0
370
    -2
100
AcDbLine
 10
10.03405080756887
 20
15.15335988264392
 30
0.0
 11
33.43005080756873
 21
15.15335988264392
 31
0.0
  0
SOLID
  5
110
330
10A
100
AcDbEntity
  8
치수문자_일반주서
 62
     0
100
AcDbTrace
 10
10.03405080756887
 20
15.70369321597726
 30
0.0
 11
10.03405080756887
 21
14.60302654931059
 31
0.0
 12
6.732050807568868
 22
15.15335988264392
 32
0.0
 13
6.732050807568868
 23
15.15335988264392
 33
0.0
  0
SOLID
  5
111
330
10A
100
AcDbEntity
  8
치수문자_일반주서
 62
     0
100
AcDbTrace
 10
33.43005080756873
 20
14.60302654931059
 30
0.0
 11
33.43005080756873
 21
15.70369321597726
 31
0.0
 12
36.73205080756873
 22
15.15335988264392
 32
0.0
 13
36.73205080756873
 23
15.15335988264392
 33
0.0
  0
MTEXT
  5
112
330
10A
100
AcDbEntity
  8
치수문자_일반주서
 62
     0
100
AcDbMText
 10
21.73205080756887
 20
19.52835988264393
 30
0.0
 40
3.5
 41
0.0
 71
     2
 72
     1
  1
\A1;30
  7
SLDTEXTSTYLE0
 73
     1
 44
1.0
  0
POINT
  5
14F
330
10A
100
AcDbEntity
  8
Defpoints
 62
     0
100
AcDbPoint
 10
6.732050807568866
 20
1.806362076476403
 30
0.0
  0
POINT
  5
150
330
10A
100
AcDbEntity
  8
Defpoints
 62
     0
100
AcDbPoint
 10
36.73205080756873
 20
2.000000000000109
 30
0.0
  0
POINT
  5
151
330
10A
100
AcDbEntity
  8
Defpoints
 62
     0
100
AcDbPoint
 10
36.73205080756873
 20
15.15335988264392
 30
0.0
  0
ENDBLK
  5
10C
330
10A
100
AcDbEntity
  8
0
100
AcDbBlockEnd
  0
BLOCK
  5
115
330
114
100
AcDbEntity
  8
0
100
AcDbBlockBegin
  2
_D_3
 70
     0
 10
0.0
 20
0.0
 30
0.0
  3
_D_3
  1

  0
LINE
  5
117
330
114
100
AcDbEntity
  8
치수문자_일반주서
 62
     0
370
    -2
100
AcDbLine
 10
-32.78044919243114
 20
2.999999999999995
 30
0.0
 11
-41.46424335647425
 21
2.999999999999961
 31
0.0
  0
LINE
  5
118
330
114
100
AcDbEntity
  8
치수문자_일반주서
 62
     0
370
    -2
100
AcDbLine
 10
-32.78044919243114
 20
-3.0
 30
0.0
 11
-41.46424335647423
 21
-3.000000000000034
 31
0.0
  0
LINE
  5
119
330
114
100
AcDbEntity
  8
치수문자_일반주서
 62
     0
370
    -2
100
AcDbLine
 10
-41.46424335647425
 20
2.999999999999961
 30
0.0
 11
-41.4642433564743
 21
15.72899999999996
 31
0.0
  0
LINE
  5
11A
330
114
100
AcDbEntity
  8
치수문자_일반주서
 62
     0
370
    -2
100
AcDbLine
 10
-41.46424335647425
 20
2.999999999999961
 30
0.0
 11
-41.46424335647423
 21
-3.000000000000034
 31
0.0
  0
LINE
  5
11B
330
114
100
AcDbEntity
  8
치수문자_일반주서
 62
     0
370
    -2
100
AcDbLine
 10
-41.46424335647426
 20
6.301999999999961
 30
0.0
 11
-41.46424335647428
 21
9.60399999999996
 31
0.0
  0
LINE
  5
11C
330
114
100
AcDbEntity
  8
치수문자_일반주서
 62
     0
370
    -2
100
AcDbLine
 10
-41.46424335647421
 20
-6.302000000000033
 30
0.0
 11
-41.4642433564742
 21
-9.604000000000033
 31
0.0
  0
SOLID
  5
11D
330
114
100
AcDbEntity
  8
치수문자_일반주서
 62
     0
100
AcDbTrace
 10
-42.0145766898076
 20
6.301999999999959
 30
0.0
 11
-40.91391002314093
 21
6.301999999999962
 31
0.0
 12
-41.46424335647425
 22
2.999999999999961
 32
0.0
 13
-41.46424335647425
 23
2.999999999999961
 33
0.0
  0
SOLID
  5
11E
330
114
100
AcDbEntity
  8
치수문자_일반주서
 62
     0
100
AcDbTrace
 10
-40.91391002314088
 20
-6.302000000000032
 30
0.0
 11
-42.01457668980755
 21
-6.302000000000035
 31
0.0
 12
-41.46424335647423
 22
-3.000000000000034
 32
0.0
 13
-41.46424335647423
 23
-3.000000000000034
 33
0.0
  0
MTEXT
  5
11F
330
114
100
AcDbEntity
  8
치수문자_일반주서
 62
     0
100
AcDbMText
 10
-45.83924335647428
 20
12.66649999999995
 30
0.0
 40
3.5
 41
0.0
 71
     2
 72
     1
  1
\A1;%%c6
  7
SLDTEXTSTYLE0
 11
-3.552713678800505E-15
 21
1.0
 31
0.0
 73
     1
 44
1.0
  0
POINT
  5
155
330
114
100
AcDbEntity
  8
Defpoints
 62
     0
100
AcDbPoint
 10
-32.71794919243114
 20
2.999999999999995
 30
0.0
  0
POINT
  5
156
330
114
100
AcDbEntity
  8
Defpoints
 62
     0
100
AcDbPoint
 10
-32.71794919243114
 20
-2.999999999999999
 30
0.0
  0
POINT
  5
157
330
114
100
AcDbEntity
  8
Defpoints
 62
     0
100
AcDbPoint
 10
-41.46424335647423
 20
-3.000000000000032
 30
0.0
  0
ENDBLK
  5
116
330
114
100
AcDbEntity
  8
0
100
AcDbBlockEnd
  0
BLOCK
  5
121
330
120
100
AcDbEntity
  8
0
100
AcDbBlockBegin
  2
SW_DOWELSYMBOL_0
 70
     0
 10
0.0
 20
0.0
 30
0.0
  3
SW_DOWELSYMBOL_0
  1

  0
CIRCLE
  5
123
330
120
100
AcDbEntity
  8
외형선
 62
     0
100
AcDbCircle
 10
0.0
 20
0.0
 30
0.0
 40
3.000000000000004
  0
HATCH
  5
124
330
120
100
AcDbEntity
  8
0
  6
Continuous
 62
     0
370
    30
100
AcDbHatch
 10
0.0
 20
0.0
 30
0.0
210
0.0
220
0.0
230
1.0
  2
SOLID
 70
     1
 71
     0
 91
        1
 92
        0
 93
        3
 72
     2
 10
0.0000000000000104
 20
0.0
 40
3.000000000000004
 50
0.0
 51
90.0
 73
     1
 72
     1
 10
0.0000000000000104
 20
3.000000000000004
 11
0.0000000000000104
 21
0.0
 72
     1
 10
0.0000000000000104
 20
0.0
 11
3.000000000000015
 21
0.0
 97
        0
 75
     0
 76
     1
 98
        1
 10
0.0
 20
0.0
  0
HATCH
  5
125
330
120
100
AcDbEntity
  8
0
  6
Continuous
 62
     0
370
    30
100
AcDbHatch
 10
0.0
 20
0.0
 30
0.0
210
0.0
220
0.0
230
1.0
  2
SOLID
 70
     1
 71
     0
 91
        1
 92
        0
 93
        3
 72
     2
 10
0.0000000000000104
 20
0.0
 40
3.000000000000004
 50
180.0
 51
270.0000000000008
 73
     1
 72
     1
 10
0.0000000000000104
 20
-3.000000000000004
 11
0.0000000000000104
 21
0.0
 72
     1
 10
0.0000000000000104
 20
0.0
 11
-2.999999999999994
 21
0.0
 97
        0
 75
     0
 76
     1
 98
        1
 10
0.0
 20
0.0
  0
ENDBLK
  5
122
330
120
100
AcDbEntity
  8
0
100
AcDbBlockEnd
  0
ENDSEC
  0
SECTION
  2
ENTITIES
  0
LINE
  5
95
330
1F
100
AcDbEntity
  8
0
  6
Continuous
 62
     1
370
    15
100
AcDbLine
 10
8.690126760880295
 20
0.5566865362862636
 30
0.0
 11
8.656433793689773
 21
0.5750064717592034
 31
0.0
  0
LINE
  5
96
330
1F
100
AcDbEntity
  8
0
  6
Continuous
 62
     1
370
    15
100
AcDbLine
 10
30.65905566831779
 20
0.4454558262508356
 30
0.0
 11
30.42135249705323
 21
0.5753790799151893
 31
0.0
  0
LINE
  5
97
330
1F
100
AcDbEntity
  8
0
  6
Continuous
 62
     1
370
    15
100
AcDbLine
 10
19.58447447763879
 20
0.5506995343945963
 30
0.0
 11
19.5388698301885
 21
0.5752056734199029
 31
0.0
  0
LINE
  5
98
330
1F
100
AcDbEntity
  8
0
  6
Continuous
 62
     1
370
    15
100
AcDbLine
 10
25.99138533324253
 20
-2.000000000000003
 30
0.0
 11
26.96075091350593
 21
-2.000000000000003
 31
0.0
  0
LINE
  5
99
330
1F
100
AcDbEntity
  8
0
  6
Continuous
 62
     1
370
    15
100
AcDbLine
 10
16.07817283043607
 20
2.000000000000003
 30
0.0
 11
15.10932335633966
 21
2.000000000000003
 31
0.0
  0
LINE
  5
9A
330
1F
100
AcDbEntity
  8
0
  6
Continuous
 62
     1
370
    15
100
AcDbLine
 10
15.10932335633965
 20
-2.000000000000003
 30
0.0
 11
16.07817283043604
 21
-2.000000000000003
 31
0.0
  0
LINE
  5
9B
330
1F
100
AcDbEntity
  8
0
  6
Continuous
 62
     1
370
    15
100
AcDbLine
 10
26.9607509135059
 20
2.000000000000003
 30
0.0
 11
25.99138533324255
 21
2.000000000000003
 31
0.0
  0
SPLINE
  5
9C
330
1F
100
AcDbEntity
  8
0
  6
Continuous
 62
     1
370
    15
100
AcDbSpline
210
0.0
220
0.0
230
1.0
 70
     8
 71
     3
 72
     9
 73
     5
 74
     0
 42
0.000000001
 43
0.00000001
 40
0.0
 40
0.0
 40
0.0
 40
0.0
 40
0.4568526059769136
 40
1.0
 40
1.0
 40
1.0
 40
1.0
 10
20.66628530177654
 20
0.5127607001271857
 30
0.0
 10
20.58120705675726
 20
0.5534153212811015
 30
0.0
 10
20.39498015576949
 20
0.6424038060178401
 30
0.0
 10
20.21303165634903
 20
0.7378966245941281
 30
0.0
 10
20.1142068030424
 20
0.7897633001517586
 30
0.0
  0
SPLINE
  5
9D
330
1F
100
AcDbEntity
  8
0
  6
Continuous
 62
     1
370
    15
100
AcDbSpline
210
0.0
220
0.0
230
1.0
 70
     8
 71
     3
 72
     9
 73
     5
 74
     0
 42
0.000000001
 43
0.00000001
 40
0.0
 40
0.0
 40
0.0
 40
0.0
 40
0.4384285468783963
 40
1.0
 40
1.0
 40
1.0
 40
1.0
 10
31.5495870101005
 20
0.5125243387186288
 30
0.0
 10
31.46876010592751
 20
0.5510896785374081
 30
0.0
 10
31.28440417210778
 20
0.6390523353793583
 30
0.0
 10
31.10009021153475
 20
0.7357065528158643
 30
0.0
 10
30.99658475286516
 20
0.7899848021520144
 30
0.0
  0
LINE
  5
9E
330
1F
100
AcDbEntity
  8
0
  6
Continuous
 62
     1
370
    15
100
AcDbLine
 10
9.262965777292463
 20
0.7734946064913516
 30
0.0
 11
9.231581917212386
 21
0.7896725742102809
 31
0.0
  0
SPLINE
  5
9F
330
1F
100
AcDbEntity
  8
0
  6
Continuous
 62
     1
370
    15
100
AcDbSpline
210
0.0
220
0.0
230
1.0
 70
     8
 71
     3
 72
     9
 73
     5
 74
     0
 42
0.000000001
 43
0.00000001
 40
0.0
 40
0.0
 40
0.0
 40
0.0
 40
0.4633500692736939
 40
1.0
 40
1.0
 40
1.0
 40
1.0
 10
9.783464456829511
 20
0.5127722296929759
 30
0.0
 10
9.703074253886784
 20
0.551097065568491
 30
0.0
 10
9.529576485625439
 20
0.6338095510453784
 30
0.0
 10
9.35607521965593
 20
0.724711878669179
 30
0.0
 10
9.262965777292463
 20
0.7734946064913516
 30
0.0
  0
SPLINE
  5
A0
330
1F
100
AcDbEntity
  8
0
  6
Continuous
 62
     1
370
    15
100
AcDbSpline
210
0.0
220
0.0
230
1.0
 70
     8
 71
     3
 72
    15
 73
    11
 74
     0
 42
0.000000001
 43
0.00000001
 40
0.0
 40
0.0
 40
0.0
 40
0.0
 40
0.1771719240252005
 40
0.296486499554982
 40
0.3675075913156053
 40
0.4385587814923805
 40
0.5169683244728687
 40
0.6309589230479115
 40
0.7914813093549353
 40
1.0
 40
1.0
 40
1.0
 40
1.0
 10
16.99932542105977
 20
-1.664273558156425
 30
0.0
 10
17.17716440135253
 20
-1.647601800591479
 30
0.0
 10
17.47476717922794
 20
-1.619702622609098
 30
0.0
 10
17.84306802034541
 20
-1.595835676145038
 30
0.0
 10
18.1051360747748
 20
-1.582153613286999
 30
0.0
 10
18.32591423982134
 20
-1.573046595252731
 30
0.0
 10
18.58994329989064
 20
-1.565329914690267
 30
0.0
 10
18.94353909683284
 20
-1.560545518493164
 30
0.0
 10
19.42703138608017
 20
-1.563602705981689
 30
0.0
 10
19.79787713676522
 20
-1.580017552224756
 30
0.0
 10
20.00741551932899
 20
-1.589292406596019
 30
0.0
  0
SPLINE
  5
A1
330
1F
100
AcDbEntity
  8
0
  6
Continuous
 62
     1
370
    15
100
AcDbSpline
210
0.0
220
0.0
230
1.0
 70
     8
 71
     3
 72
    11
 73
     7
 74
     0
 42
0.000000001
 43
0.00000001
 40
0.0
 40
0.0
 40
0.0
 40
0.0
 40
0.3390523057836278
 40
0.6084607233020637
 40
0.9109323547932306
 40
0.9999999999999999
 40
0.9999999999999999
 40
0.9999999999999999
 40
0.9999999999999999
 10
30.8900482202709
 20
1.589283711990843
 30
0.0
 10
30.70761088740208
 20
1.580663985200692
 30
0.0
 10
30.38021021906538
 20
1.565195088195907
 30
0.0
 10
29.86832611209047
 20
1.560434375177672
 30
0.0
 10
29.50210378620353
 20
1.563400350309126
 30
0.0
 10
29.28591605803224
 20
1.571524699741605
 30
0.0
 10
29.23673751320474
 20
1.573372832779216
 30
0.0
  0
SPLINE
  5
A2
330
1F
100
AcDbEntity
  8
0
  6
Continuous
 62
     1
370
    15
100
AcDbSpline
210
0.0
220
0.0
230
1.0
 70
     8
 71
     3
 72
     9
 73
     5
 74
     0
 42
0.000000001
 43
0.00000001
 40
0.0
 40
0.0
 40
0.0
 40
0.0
 40
0.6103730745303584
 40
1.0
 40
1.0
 40
1.0
 40
1.0
 10
9.124456939466176
 20
1.589283769972286
 30
0.0
 10
8.779544939522085
 20
1.573523125406606
 30
0.0
 10
8.21446103537137
 20
1.547701795430988
 30
0.0
 10
7.645350963330516
 20
1.575291680201603
 30
0.0
 10
7.423610355707433
 20
1.58604144217884
 30
0.0
  0
SPLINE
  5
A3
330
1F
100
AcDbEntity
  8
0
  6
Continuous
 62
     1
370
    15
100
AcDbSpline
210
0.0
220
0.0
230
1.0
 70
     8
 71
     3
 72
    10
 73
     6
 74
     0
 42
0.000000001
 43
0.00000001
 40
0.0
 40
0.0
 40
0.0
 40
0.0
 40
0.4223154677637603
 40
0.6388422529669109
 40
1.0
 40
1.0
 40
1.0
 40
1.0
 10
6.732050807568864
 20
-1.611161296756795
 30
0.0
 10
7.070399802747934
 20
-1.592074203101606
 30
0.0
 10
7.582224850297935
 20
-1.56320090140172
 30
0.0
 10
8.376038890098384
 20
-1.558953061197415
 30
0.0
 10
8.83655237602988
 20
-1.577616026956308
 30
0.0
 10
9.12445693946617
 20
-1.589283769972285
 30
0.0
  0
SPLINE
  5
A4
330
1F
100
AcDbEntity
  8
0
  6
Continuous
 62
     1
370
    15
100
AcDbSpline
210
0.0
220
0.0
230
1.0
 70
     8
 71
     3
 72
    14
 73
    10
 74
     0
 42
0.000000001
 43
0.00000001
 40
0.0
 40
0.0
 40
0.0
 40
0.0
 40
0.1730658497951648
 40
0.2891297490413031
 40
0.3795493106197129
 40
0.4990121496508329
 40
0.6653632641490778
 40
0.8135305163586788
 40
1.0
 40
1.0
 40
1.0
 40
1.0
 10
27.8821041410729
 20
-1.664275310554043
 30
0.0
 10
28.05499001059281
 20
-1.648018985168181
 30
0.0
 10
28.34381907840856
 20
-1.620860609990691
 30
0.0
 10
28.72462474025819
 20
-1.595774245665699
 30
0.0
 10
29.05413660507713
 20
-1.578699527894683
 30
0.0
 10
29.43095804810017
 20
-1.565316317323467
 30
0.0
 10
29.86836321131464
 20
-1.560080186152538
 30
0.0
 10
30.38019867797173
 20
-1.565305271866852
 30
0.0
 10
30.70760675760724
 20
-1.580703412656088
 30
0.0
 10
30.8900482202709
 20
-1.589283711990839
 30
0.0
  0
SPLINE
  5
A5
330
1F
100
AcDbEntity
  8
0
  6
Continuous
 62
     1
370
    15
100
AcDbSpline
210
0.0
220
0.0
230
1.0
 70
     8
 71
     3
 72
    10
 73
     6
 74
     0
 42
0.000000001
 43
0.00000001
 40
0.0
 40
0.0
 40
0.0
 40
0.0
 40
0.6076275663618195
 40
0.8636218316910533
 40
0.9999999999999999
 40
0.9999999999999999
 40
0.9999999999999999
 40
0.9999999999999999
 10
20.00741551932899
 20
1.589292406596021
 30
0.0
 10
19.67616289441599
 20
1.576594039571636
 30
0.0
 10
19.20535311797229
 20
1.558545834394331
 30
0.0
 10
18.66716507962055
 20
1.562636719374904
 30
0.0
 10
18.45453693012676
 20
1.570611434267607
 30
0.0
 10
18.38063306973065
 20
1.573383231969522
 30
0.0
  0
SPLINE
  5
A6
330
1F
100
AcDbEntity
  8
0
  6
Continuous
 62
     1
370
    15
100
AcDbSpline
210
0.0
220
0.0
230
1.0
 70
     8
 71
     3
 72
    13
 73
     9
 74
     0
 42
0.000000001
 43
0.00000001
 40
0.0
 40
0.0
 40
0.0
 40
0.0
 40
0.2817054573385056
 40
0.5056514504519347
 40
0.695227277952585
 40
0.8094963572798876
 40
0.9253450703554696
 40
1.0
 40
1.0
 40
1.0
 40
1.0
 10
10.7284364209856
 20
-1.504320441337886
 30
0.0
 10
10.87101320522896
 20
-1.482896589735997
 30
0.0
 10
11.12693354995555
 20
-1.444441524863948
 30
0.0
 10
11.47760069431665
 20
-1.402757231404886
 30
0.0
 10
11.74284471364402
 20
-1.375889623656449
 30
0.0
 10
11.95232205317811
 20
-1.358351861119171
 30
0.0
 10
12.10508330343055
 20
-1.347056179812063
 30
0.0
 10
12.20098441935477
 20
-1.341680961668485
 30
0.0
 10
12.23856633096511
 20
-1.339574510964431
 30
0.0
  0
SPLINE
  5
A7
330
1F
100
AcDbEntity
  8
0
  6
Continuous
 62
     1
370
    15
100
AcDbSpline
210
0.0
220
0.0
230
1.0
 70
     8
 71
     3
 72
    12
 73
     8
 74
     0
 42
0.000000001
 43
0.00000001
 40
0.0
 40
0.0
 40
0.0
 40
0.0
 40
0.3266397782337018
 40
0.5701586244589775
 40
0.7358923605768074
 40
0.909788201742696
 40
0.9999999999999999
 40
0.9999999999999999
 40
0.9999999999999999
 40
0.9999999999999999
 10
32.49436670786117
 20
-1.504267082206286
 30
0.0
 10
32.65682123027521
 20
-1.480038772148339
 30
0.0
 10
32.94039002136856
 20
-1.43774759741664
 30
0.0
 10
33.30648114497144
 20
-1.395694074102487
 30
0.0
 10
33.60086931422506
 20
-1.367611475058577
 30
0.0
 10
33.8175891840169
 20
-1.350140142664576
 30
0.0
 10
33.94990668956115
 20
-1.342998369519248
 30
0.0
 10
33.99510265641062
 20
-1.340558939143084
 30
0.0
  0
SPLINE
  5
A8
330
1F
100
AcDbEntity
  8
0
  6
Continuous
 62
     1
370
    15
100
AcDbSpline
210
0.0
220
0.0
230
1.0
 70
     8
 71
     3
 72
    11
 73
     7
 74
     0
 42
0.000000001
 43
0.00000001
 40
0.0
 40
0.0
 40
0.0
 40
0.0
 40
0.2967154031627107
 40
0.4999908628385475
 40
0.6997841426234896
 40
1.0
 40
1.0
 40
1.0
 40
1.0
 10
25.10544586433606
 20
1.367911974610772
 30
0.0
 10
24.76064109231238
 20
1.345154999103235
 30
0.0
 10
24.17961552492575
 20
1.306807546634212
 30
0.0
 10
23.36268792060126
 20
1.322218895571869
 30
0.0
 10
22.54259719667774
 20
1.373542394417564
 30
0.0
 10
21.96079248398231
 20
1.455234270541697
 30
0.0
 10
21.61146486641288
 20
1.504283767457957
 30
0.0
  0
SPLINE
  5
A9
330
1F
100
AcDbEntity
  8
0
  6
Continuous
 62
     1
370
    15
100
AcDbSpline
210
0.0
220
0.0
230
1.0
 70
     8
 71
     3
 72
     9
 73
     5
 74
     0
 42
0.000000001
 43
0.00000001
 40
0.0
 40
0.0
 40
0.0
 40
0.0
 40
0.6983943212100234
 40
1.0
 40
1.0
 40
1.0
 40
1.0
 10
21.61146486641288
 20
-1.504283767457954
 30
0.0
 10
21.96074524802726
 20
-1.453465317976018
 30
0.0
 10
22.46086440851703
 20
-1.380700623392177
 30
0.0
 10
22.96219741850255
 20
-1.352226004578102
 30
0.0
 10
23.11340230127905
 20
-1.343637897842397
 30
0.0
  0
SPLINE
  5
AA
330
1F
100
AcDbEntity
  8
0
  6
Continuous
 62
     1
370
    15
100
AcDbSpline
210
0.0
220
0.0
230
1.0
 70
     8
 71
     3
 72
    19
 73
    15
 74
     0
 42
0.000000001
 43
0.00000001
 40
0.0
 40
0.0
 40
0.0
 40
0.0
 40
0.1176841921180286
 40
0.2117258576840843
 40
0.2929834301229078
 40
0.3422405354026405
 40
0.3925234500962163
 40
0.4521020727691267
 40
0.5213048748913715
 40
0.6091794029286807
 40
0.6838803897545044
 40
0.7550751552838478
 40
0.8596843167321688
 40
1.0
 40
1.0
 40
1.0
 40
1.0
 10
35.98805660256069
 20
1.367896057640805
 30
0.0
 10
35.85044036335878
 20
1.357144135595155
 30
0.0
 10
35.60285472121016
 20
1.337800331844651
 30
0.0
 10
35.2615566136195
 20
1.322962622743471
 30
0.0
 10
35.00017471364607
 20
1.316992134999427
 30
0.0
 10
34.79023697023304
 20
1.315766627845419
 30
0.0
 10
34.60542845584488
 20
1.31702504494362
 30
0.0
 10
34.3974988423263
 20
1.321431883784921
 30
0.0
 10
34.14548051665269
 20
1.330862063979827
 30
0.0
 10
33.87507917984652
 20
1.346284725219315
 30
0.0
 10
33.60090751443565
 20
1.367426832083304
 30
0.0
 10
33.30646592077257
 20
1.395767661167358
 30
0.0
 10
32.94039616897703
 20
1.43771788258787
 30
0.0
 10
32.65682346941107
 20
1.480027949152838
 30
0.0
 10
32.49436670786117
 20
1.504267082206289
 30
0.0
  0
SPLINE
  5
AB
330
1F
100
AcDbEntity
  8
0
  6
Continuous
 62
     1
370
    15
100
AcDbSpline
210
0.0
220
0.0
230
1.0
 70
     8
 71
     3
 72
    18
 73
    14
 74
     0
 42
0.000000001
 43
0.00000001
 40
0.0
 40
0.0
 40
0.0
 40
0.0
 40
0.1355755961856371
 40
0.2393541698205363
 40
0.3133562941223439
 40
0.3885550354234458
 40
0.4737401133741248
 40
0.5811986944588396
 40
0.6646788621661194
 40
0.7105176438521698
 40
0.7813555181819172
 40
0.8781901175403447
 40
1.0
 40
1.0
 40
1.0
 40
1.0
 10
14.22253523553426
 20
1.367902152376966
 30
0.0
 10
14.06622402565899
 20
1.35583717591277
 30
0.0
 10
13.79026182504205
 20
1.334536864450095
 30
0.0
 10
13.42773120195562
 20
1.320596592858037
 30
0.0
 10
13.1291196252104
 20
1.31560639860394
 30
0.0
 10
12.85351141312412
 20
1.316315943041555
 30
0.0
 10
12.54069399240283
 20
1.32365746898541
 30
0.0
 10
12.21853479175847
 20
1.339048624142085
 30
0.0
 10
11.94412662017444
 20
1.358658430135934
 30
0.0
 10
11.71279843791089
 20
1.378902201524072
 30
0.0
 10
11.4646212684914
 20
1.404294405840277
 30
0.0
 10
11.12693008517486
 20
1.444444028814605
 30
0.0
 10
10.87101196557816
 20
1.482897485615055
 30
0.0
 10
10.72843642098561
 20
1.504320441337887
 30
0.0
  0
LINE
  5
AC
330
1F
100
AcDbEntity
  8
0
  6
Continuous
 62
   131
370
    15
100
AcDbLine
 10
2.0
 20
-3.0
 30
0.0
 11
5.732050807568866
 21
-2.0
 31
0.0
  0
LINE
  5
AD
330
1F
100
AcDbEntity
  8
0
  6
Continuous
 62
   131
370
    15
100
AcDbLine
 10
5.732050807568866
 20
2.0
 30
0.0
 11
2.0
 21
3.0
 31
0.0
  0
LINE
  5
AE
330
1F
100
AcDbEntity
  8
0
  6
Continuous
 62
   131
370
    15
100
AcDbLine
 10
2.0
 20
2.999999999999998
 30
0.0
 11
-32.71794919243114
 21
2.999999999999996
 31
0.0
  0
LINE
  5
AF
330
1F
100
AcDbEntity
  8
0
  6
Continuous
 62
   131
370
    15
100
AcDbLine
 10
-32.71794919243114
 20
-3.0
 30
0.0
 11
2.0
 21
-2.999999999999999
 31
0.0
  0
LINE
  5
B0
330
1F
100
AcDbEntity
  8
0
  6
Continuous
 62
   131
370
    15
100
AcDbLine
 10
-32.71794919243114
 20
2.999999999999995
 30
0.0
 11
-33.26794919243114
 21
2.449999999999995
 31
0.0
  0
LINE
  5
B1
330
1F
100
AcDbEntity
  8
0
  6
Continuous
 62
   131
370
    15
100
AcDbLine
 10
-33.26794919243114
 20
-2.45
 30
0.0
 11
-32.71794919243114
 21
-2.999999999999999
 31
0.0
  0
LINE
  5
B2
330
1F
100
AcDbEntity
  8
0
  6
Continuous
 62
   131
370
    15
100
AcDbLine
 10
5.842119426073424
 20
2.0
 30
0.0
 11
5.732050807568866
 21
2.0
 31
0.0
  0
LINE
  5
B3
330
1F
100
AcDbEntity
  8
0
  6
Continuous
 62
   131
370
    15
100
AcDbLine
 10
5.732050807568866
 20
-2.0
 30
0.0
 11
5.842119426073424
 21
-2.0
 31
0.0
  0
SPLINE
  5
B4
330
1F
100
AcDbEntity
  8
0
  6
Continuous
 62
   131
370
    15
100
AcDbSpline
210
0.0
220
0.0
230
1.0
 70
     8
 71
     3
 72
     9
 73
     5
 74
     0
 42
0.000000001
 43
0.00000001
 40
0.0
 40
0.0
 40
0.0
 40
0.0
 40
0.4971175125352412
 40
1.0
 40
1.0
 40
1.0
 40
1.0
 10
6.103949623709282
 20
-1.665524463244176
 30
0.0
 10
6.208157425134768
 20
-1.655321927410679
 30
0.0
 10
6.417781505553979
 20
-1.634798538923587
 30
0.0
 10
6.626892533619145
 20
-1.619070601201279
 30
0.0
 10
6.732050807568866
 20
-1.611161296756794
 30
0.0
  0
SPLINE
  5
B5
330
1F
100
AcDbEntity
  8
0
  6
Continuous
 62
     1
370
    15
100
AcDbSpline
210
0.0
220
0.0
230
1.0
 70
     8
 71
     3
 72
    16
 73
    12
 74
     0
 42
0.000000001
 43
0.00000001
 40
0.0
 40
0.0
 40
0.0
 40
0.0
 40
0.1181333247984308
 40
0.2362872064321704
 40
0.3544734221687691
 40
0.4697747345182239
 40
0.5851362702949277
 40
0.7004288904288636
 40
0.8156550749611612
 40
0.9308377600604028
 40
1.0
 40
1.0
 40
1.0
 40
1.0
 10
6.732050807568887
 20
1.498998268226197
 30
0.0
 10
7.061903475556857
 20
1.361023679672064
 30
0.0
 10
7.721666210467292
 20
1.085050493073683
 30
0.0
 10
8.71146532673943
 20
0.5504825025647974
 30
0.0
 10
9.693418742033858
 20
-0.0153492646576345
 30
0.0
 10
10.6676116661393
 20
-0.5773119411303745
 30
0.0
 10
11.63391432691286
 20
-1.088707398510674
 30
0.0
 10
12.59981200448764
 20
-1.51822625638315
 30
0.0
 10
13.56511099010936
 20
-1.823713450063974
 30
0.0
 10
14.40153609791898
 20
-1.988317010220109
 30
0.0
 10
14.91622367729411
 20
-1.983297683611662
 30
0.0
 10
15.10932335633965
 20
-1.981414540524564
 30
0.0
  0
SPLINE
  5
B6
330
1F
100
AcDbEntity
  8
0
  6
Continuous
 62
     1
370
    15
100
AcDbSpline
210
0.0
220
0.0
230
1.0
 70
     8
 71
     3
 72
    22
 73
    18
 74
     0
 42
0.000000001
 43
0.00000001
 40
0.0
 40
0.0
 40
0.0
 40
0.0
 40
0.0076752968131215
 40
0.0785123221719309
 40
0.1493533299670315
 40
0.2202126428924455
 40
0.2911044741554639
 40
0.362042843234341
 40
0.4329963053610018
 40
0.5039004911525534
 40
0.5747679755222854
 40
0.6456129229031717
 40
0.7164496323994093
 40
0.7872924524592727
 40
0.8581556949233371
 40
0.9290535495362113
 40
1.0
 40
1.0
 40
1.0
 40
1.0
 10
23.11340230127905
 20
1.3436378978424
 30
0.0
 10
23.14824153764658
 20
1.359997369141124
 30
0.0
 10
23.50461985323621
 20
1.527342048108072
 30
0.0
 10
24.18252086260947
 20
1.7498703436209
 30
0.0
 10
25.14723487904202
 20
1.967875684945914
 30
0.0
 10
26.11224504614391
 20
2.024368145681386
 30
0.0
 10
27.0777805270796
 20
1.927260899355969
 30
0.0
 10
28.04389383618803
 20
1.6807086404533
 30
0.0
 10
29.01013645787867
 20
1.304714003371895
 30
0.0
 10
29.97585940242368
 20
0.8278632502434178
 30
0.0
 10
30.94100588878363
 20
0.2872747290446245
 30
0.0
 10
31.90578019405055
 20
-0.2754681227086134
 30
0.0
 10
32.87042143244133
 20
-0.8167236218488386
 30
0.0
 10
33.8351612289618
 20
-1.295797900057155
 30
0.0
 10
34.80023764465037
 20
-1.672002245049665
 30
0.0
 10
35.76586670797336
 20
-1.930312566512353
 30
0.0
 10
36.40991589063248
 20
-1.975638766225821
 30
0.0
 10
36.73205080756887
 20
-1.999999999999889
 30
0.0
  0
SPLINE
  5
B7
330
1F
100
AcDbEntity
  8
0
  6
Continuous
 62
     1
370
    15
100
AcDbSpline
210
0.0
220
0.0
230
1.0
 70
     8
 71
     3
 72
    15
 73
    11
 74
     0
 42
0.000000001
 43
0.00000001
 40
0.0
 40
0.0
 40
0.0
 40
0.0
 40
0.123444179454086
 40
0.2684040875639701
 40
0.4134456515638936
 40
0.5585968307841946
 40
0.7037144292964975
 40
0.8487285004477512
 40
0.9936702222871542
 40
1.0
 40
1.0
 40
1.0
 40
1.0
 10
31.76291269257147
 20
-0.1896469430677319
 30
0.0
 10
31.48897703689573
 20
-0.0790639908301775
 30
0.0
 10
30.89336005407773
 20
0.1613759920569092
 30
0.0
 10
29.97584214897548
 20
0.5259858072363999
 30
0.0
 10
29.01010676156422
 20
0.8680167499849452
 30
0.0
 10
28.04391008461286
 20
1.142446561260546
 30
0.0
 10
27.07781495078579
 20
1.331846389657596
 30
0.0
 10
26.11227163234007
 20
1.406709160251683
 30
0.0
 10
25.45476059181841
 20
1.41366627571816
 30
0.0
 10
25.11907328159014
 20
1.367626362496629
 30
0.0
 10
25.10502684150686
 20
1.365699876559267
 30
0.0
  0
SPLINE
  5
B8
330
1F
100
AcDbEntity
  8
0
  6
Continuous
 62
     1
370
    15
100
AcDbSpline
210
0.0
220
0.0
230
1.0
 70
     8
 71
     3
 72
    11
 73
     7
 74
     0
 42
0.000000001
 43
0.00000001
 40
0.0
 40
0.0
 40
0.0
 40
0.0
 40
0.0908997942407309
 40
0.386429010758628
 40
0.6818298077423767
 40
1.0
 40
1.0
 40
1.0
 40
1.0
 10
9.998426273940852
 20
-0.1890042727172634
 30
0.0
 10
9.899448951232825
 20
-0.1499877091318077
 30
0.0
 10
9.47868112418683
 20
0.0158777055862915
 30
0.0
 10
8.736323254395677
 20
0.3195955992268017
 30
0.0
 10
7.746593838338738
 20
0.7005504231021474
 30
0.0
 10
7.078496105429764
 20
0.9045369398304893
 30
0.0
 10
6.732050807568866
 20
1.010315130754519
 30
0.0
  0
SPLINE
  5
B9
330
1F
100
AcDbEntity
  8
0
  6
Continuous
 62
   131
370
    15
100
AcDbSpline
210
0.0
220
0.0
230
1.0
 70
    24
 71
     3
 72
    10
 73
     6
 74
     0
 42
0.000000001
 43
0.00000001
 40
0.0
 40
0.0
 40
0.0
 40
0.0
 40
0.5
 40
0.5
 40
1.0
 40
1.0
 40
1.0
 40
1.0
 10
6.732050807568866
 20
1.498998268226204
 30
0.0
 10
6.732050807568866
 20
1.444457200999977
 30
0.0
 10
6.732050807568866
 20
1.370902610352577
 30
0.0
 10
6.732050807568866
 20
1.201140778635883
 30
0.0
 10
6.732050807568866
 20
1.105475989303838
 30
0.0
 10
6.732050807568866
 20
1.010315130754519
 30
0.0
  0
SPLINE
  5
BA
330
1F
100
AcDbEntity
  8
0
  6
Continuous
 62
     1
370
    15
100
AcDbSpline
210
0.0
220
0.0
230
1.0
 70
     8
 71
     3
 72
    22
 73
    18
 74
     0
 42
0.000000001
 43
0.00000001
 40
0.0
 40
0.0
 40
0.0
 40
0.0
 40
0.026249352142292
 40
0.0964352924065768
 40
0.1665947365352618
 40
0.236741813430264
 40
0.3068907260365536
 40
0.3770556662995432
 40
0.4472507302617779
 40
0.5174898343719596
 40
0.5877561125959597
 40
0.6579756431326145
 40
0.7281567658973377
 40
0.7983134803484372
 40
0.8684599317181314
 40
0.9386103267002546
 40
1.0
 40
1.0
 40
1.0
 40
1.0
 10
12.23894263866269
 20
1.339739108028633
 30
0.0
 10
12.35929051738037
 20
1.394008223881525
 30
0.0
 10
12.80142649131749
 20
1.593382975210651
 30
0.0
 10
13.56510558485067
 20
1.823812652589807
 30
0.0
 10
14.52997225580357
 20
1.998883265399188
 30
0.0
 10
15.49462680403059
 20
2.013192603437475
 30
0.0
 10
16.45931369585986
 20
1.873989736022161
 30
0.0
 10
17.42426468741584
 20
1.589744433486586
 30
0.0
 10
18.38971023385609
 20
1.182906269556458
 30
0.0
 10
19.35574881540983
 20
0.6846910258334686
 30
0.0
 10
20.3220295568763
 20
0.1338184450631981
 30
0.0
 10
21.28784235715494
 20
-0.4276460536097232
 30
0.0
 10
22.25306318561046
 20
-0.9556917925101622
 30
0.0
 10
23.21787697616384
 20
-1.411005771967782
 30
0.0
 10
24.18252482534383
 20
-1.753512427302772
 30
0.0
 10
25.10699020900094
 20
-1.966261341279296
 30
0.0
 10
25.70997341976568
 20
-1.9834956765443
 30
0.0
 10
25.99138533324254
 20
-1.991538930780641
 30
0.0
  0
SPLINE
  5
BB
330
1F
100
AcDbEntity
  8
0
  6
Continuous
 62
     1
370
    15
100
AcDbSpline
210
0.0
220
0.0
230
1.0
 70
     8
 71
     3
 72
    10
 73
     6
 74
     0
 42
0.000000001
 43
0.00000001
 40
0.0
 40
0.0
 40
0.0
 40
0.0
 40
0.2941545735906795
 40
0.6469563754937124
 40
1.0
 40
1.0
 40
1.0
 40
1.0
 10
33.99510265641062
 20
1.340558939143088
 30
0.0
 10
34.26342902636255
 20
1.450633095899204
 30
0.0
 10
34.8535794824117
 20
1.692727504363368
 30
0.0
 10
35.76586776191103
 20
1.928577341747931
 30
0.0
 10
36.40991624202527
 20
1.975060225877679
 30
0.0
 10
36.73205080756873
 20
2.000000000000109
 30
0.0
  0
SPLINE
  5
BC
330
1F
100
AcDbEntity
  8
0
  6
Continuous
 62
     1
370
    15
100
AcDbSpline
210
0.0
220
0.0
230
1.0
 70
    24
 71
     3
 72
    10
 73
     6
 74
     0
 42
0.000000001
 43
0.00000001
 40
0.0
 40
0.0
 40
0.0
 40
0.0
 40
0.5
 40
0.5
 40
1.0
 40
1.0
 40
1.0
 40
1.0
 10
36.73205080756887
 20
1.400000000000004
 30
0.0
 10
36.73205080756887
 20
1.484864513614632
 30
0.0
 10
36.73205080756887
 20
1.58348493773424
 30
0.0
 10
36.73205080756885
 20
1.790390321921717
 30
0.0
 10
36.73205080756887
 20
1.898146871602953
 30
0.0
 10
36.73205080756873
 20
2.000000000000109
 30
0.0
  0
LINE
  5
BD
330
1F
100
AcDbEntity
  8
0
  6
Continuous
 62
     1
370
    15
100
AcDbLine
 10
36.73205080756887
 20
1.400000000000003
 30
0.0
 11
35.98551068775711
 21
1.3582480653098
 31
0.0
  0
SPLINE
  5
BE
330
1F
100
AcDbEntity
  8
0
  6
Continuous
 62
     1
370
    15
100
AcDbSpline
210
0.0
220
0.0
230
1.0
 70
     8
 71
     3
 72
    15
 73
    11
 74
     0
 42
0.000000001
 43
0.00000001
 40
0.0
 40
0.0
 40
0.0
 40
0.0
 40
0.0839058221931754
 40
0.2290007246173561
 40
0.3740346009941748
 40
0.5189695860067506
 40
0.6638369208881569
 40
0.8086682602686556
 40
0.9534954795539031
 40
1.0
 40
1.0
 40
1.0
 40
1.0
 10
20.88112454575184
 20
-0.1887749988318471
 30
0.0
 10
20.69482584671749
 20
-0.1143435180291181
 30
0.0
 10
20.18636843626611
 20
0.0887992746000462
 30
0.0
 10
19.35577657538301
 20
0.4243622534707459
 30
0.0
 10
18.38974812738704
 20
0.7799744339409144
 30
0.0
 10
17.42429328689197
 20
1.075440898651715
 30
0.0
 10
16.45933506823595
 20
1.28970318509429
 30
0.0
 10
15.49463892606851
 20
1.397112636075695
 30
0.0
 10
14.74832728102531
 20
1.418193545581503
 30
0.0
 10
14.32354019714083
 20
1.368273804770924
 30
0.0
 10
14.22029271893633
 20
1.356140461863736
 30
0.0
  0
SPLINE
  5
BF
330
1F
100
AcDbEntity
  8
0
  6
Continuous
 62
     1
370
    15
100
AcDbSpline
210
0.0
220
0.0
230
1.0
 70
     8
 71
     3
 72
    22
 73
    18
 74
     0
 42
0.000000001
 43
0.00000001
 40
0.0
 40
0.0
 40
0.0
 40
0.0
 40
0.0172042477923283
 40
0.0906403825658403
 40
0.1640608801934133
 40
0.2374332123983575
 40
0.3107718900733721
 40
0.3840916246165392
 40
0.4574072407328494
 40
0.5307335878040902
 40
0.6040854509462268
 40
0.6774774628801057
 40
0.7509183284877833
 40
0.8243307665785952
 40
0.8976971780269843
 40
0.9710321089261479
 40
1.0
 40
1.0
 40
1.0
 40
1.0
 10
29.23673751320474
 20
-1.573372832779213
 30
0.0
 10
29.16127448352437
 20
-1.603164045664968
 30
0.0
 10
28.76369837543926
 20
-1.760118709749109
 30
0.0
 10
28.0439059769156
 20
-1.921743303193642
 30
0.0
 10
27.07780486704596
 20
-2.026525460237881
 30
0.0
 10
26.11226932275118
 20
-1.965237571274185
 30
0.0
 10
25.14726126607449
 20
-1.75492331731878
 30
0.0
 10
24.18255282560315
 20
-1.408575113889033
 30
0.0
 10
23.21790880920942
 20
-0.9537850223077735
 30
0.0
 10
22.25309675805829
 20
-0.425335420675902
 30
0.0
 10
21.2878781439203
 20
0.135935687684734
 30
0.0
 10
20.32206733977516
 20
0.6870345106164686
 30
0.0
 10
19.35578887349515
 20
1.184248312366271
 30
0.0
 10
18.38975232949348
 20
1.59278937480177
 30
0.0
 10
17.42431058715756
 20
1.868747491707635
 30
0.0
 10
16.65386682152992
 20
2.002568214533637
 30
0.0
 10
16.2052129023516
 20
1.98613642505387
 30
0.0
 10
16.07817283043606
 20
1.981483627813106
 30
0.0
  0
LINE
  5
C0
330
1F
100
AcDbEntity
  8
0
  6
Continuous
 62
     1
370
    15
100
AcDbLine
 10
7.446173267244031
 20
-1.578853232581093
 30
0.0
 11
6.732050807568971
 21
-1.806362076476379
 31
0.0
  0
LINE
  5
C1
330
1F
100
AcDbEntity
  8
0
  6
Continuous
 62
   131
370
    15
100
AcDbLine
 10
6.732050807568866
 20
1.498998268226204
 30
0.0
 11
6.732050807568866
 21
1.806362076476712
 31
0.0
  0
SPLINE
  5
C2
330
1F
100
AcDbEntity
  8
0
  6
Continuous
 62
     1
370
    15
100
AcDbSpline
210
0.0
220
0.0
230
1.0
 70
     8
 71
     3
 72
    18
 73
    14
 74
     0
 42
0.000000001
 43
0.00000001
 40
0.0
 40
0.0
 40
0.0
 40
0.0
 40
0.0988833011819818
 40
0.1976988684725271
 40
0.2964661931070469
 40
0.3952050535148641
 40
0.4939353983057243
 40
0.5926772271073203
 40
0.6914504707568321
 40
0.7902748723632955
 40
0.8891679553390498
 40
0.9880399804857716
 40
1.0
 40
1.0
 40
1.0
 40
1.0
 10
36.73205080756887
 20
-1.897881738463798
 30
0.0
 10
36.40991663271643
 20
-1.824986385805145
 30
0.0
 10
35.76586894111021
 20
-1.679245612941995
 30
0.0
 10
34.80024212580894
 20
-1.291727177667952
 30
0.0
 10
33.83516797450146
 20
-0.8151370602533667
 30
0.0
 10
32.87043042446185
 20
-0.2728913897387735
 30
0.0
 10
31.905791484114
 20
0.2895498617122948
 30
0.0
 10
30.94101920802366
 20
0.8301808987825562
 30
0.0
 10
29.97587561821209
 20
1.305681341591351
 30
0.0
 10
29.01015214877864
 20
1.684634639698022
 30
0.0
 10
28.04392168302511
 20
1.918178704310072
 30
0.0
 10
27.36069678793477
 20
2.019108358008842
 30
0.0
 10
26.99970587769626
 20
1.994435880786848
 30
0.0
 10
26.9607509135059
 20
1.991773444034534
 30
0.0
  0
SPLINE
  5
C3
330
1F
100
AcDbEntity
  8
0
  6
Continuous
 62
     1
370
    15
100
AcDbSpline
210
0.0
220
0.0
230
1.0
 70
     8
 71
     3
 72
    19
 73
    15
 74
     0
 42
0.000000001
 43
0.00000001
 40
0.0
 40
0.0
 40
0.0
 40
0.0
 40
0.0825422497212916
 40
0.1653425982780316
 40
0.248124038546171
 40
0.3309033191579287
 40
0.4136972016866269
 40
0.4965223602803234
 40
0.5793952824014839
 40
0.6623177195813965
 40
0.745196835002319
 40
0.8301516317649785
 40
0.9150832000307451
 40
1.0
 40
1.0
 40
1.0
 40
1.0
 10
18.38614995307295
 20
-1.571783426168199
 30
0.0
 10
18.06548857980655
 20
-1.674578540451761
 30
0.0
 10
17.42316316703565
 20
-1.88049019591694
 30
0.0
 10
16.45936234406398
 20
-2.012276066982455
 30
0.0
 10
15.4946763205387
 20
-1.997767882773832
 30
0.0
 10
14.53002256113273
 20
-1.826829297419846
 30
0.0
 10
13.56516512988441
 20
-1.515591040257225
 30
0.0
 10
12.59986775475594
 20
-1.087220421955809
 30
0.0
 10
11.63397214971324
 20
-0.5748333872796002
 30
0.0
 10
10.66767166126379
 20
-0.0184622608451182
 30
0.0
 10
9.693473545620824
 20
0.5450195311773214
 30
0.0
 10
8.711507121758475
 20
1.067479728991485
 30
0.0
 10
7.721687163625816
 20
1.518134227637396
 30
0.0
 10
7.061910470418166
 20
1.710291696220144
 30
0.0
 10
6.732050807568971
 20
1.806362076476379
 30
0.0
  0
LINE
  5
C4
330
1F
100
AcDbEntity
  8
0
  6
Continuous
 62
     1
370
    15
100
AcDbLine
 10
36.73205080756887
 20
-1.999999999999889
 30
0.0
 11
36.73205080756912
 21
-1.897881738463795
 31
0.0
  0
SPLINE
  5
C5
330
1F
100
AcDbEntity
  8
0
  6
Continuous
 62
   131
370
    15
100
AcDbSpline
210
0.0
220
0.0
230
1.0
 70
    24
 71
     3
 72
    10
 73
     6
 74
     0
 42
0.000000001
 43
0.00000001
 40
0.0
 40
0.0
 40
0.0
 40
0.0
 40
0.3333754818202742
 40
0.8350630906955454
 40
1.0
 40
1.0
 40
1.0
 40
1.0
 10
6.732050807568866
 20
-1.611161296756794
 30
0.0
 10
6.732050807568866
 20
-1.63421856284866
 30
0.0
 10
6.732050807568866
 20
-1.691974075583228
 30
0.0
 10
6.73205080756887
 20
-1.755764910877687
 30
0.0
 10
6.732050807568866
 20
-1.796326329461946
 30
0.0
 10
6.732050807568866
 20
-1.806362076476712
 30
0.0
  0
SPLINE
  5
C6
330
1F
100
AcDbEntity
  8
0
  6
Continuous
 62
     1
370
    15
100
AcDbSpline
210
0.0
220
0.0
230
1.0
 70
     8
 71
     3
 72
    15
 73
    11
 74
     0
 42
0.000000001
 43
0.00000001
 40
0.0
 40
0.0
 40
0.0
 40
0.0
 40
0.1115158330364773
 40
0.2450754075464978
 40
0.3785709799855217
 40
0.512030525886185
 40
0.6454822390962061
 40
0.7789543610111715
 40
0.9124750091988919
 40
1.0
 40
1.0
 40
1.0
 40
1.0
 10
27.88382843145084
 20
-1.654986063569353
 30
0.0
 10
27.61508554271843
 20
-1.676900261093897
 30
0.0
 10
27.02447637819041
 20
-1.72506051550033
 30
0.0
 10
26.1122807945082
 20
-1.640376467594321
 30
0.0
 10
25.14726649290096
 20
-1.437582830255437
 30
0.0
 10
24.18255392738817
 20
-1.120439706782723
 30
0.0
 10
23.21790645849542
 20
-0.7174473200963003
 30
0.0
 10
22.25308608404016
 20
-0.2603337988607037
 30
0.0
 10
21.39888712158046
 20
0.1669343479319352
 30
0.0
 10
20.86622231556423
 20
0.4158901463585064
 30
0.0
 10
20.65530893830913
 20
0.5144664135350301
 30
0.0
  0
SPLINE
  5
C7
330
1F
100
AcDbEntity
  8
0
  6
Continuous
 62
     1
370
    15
100
AcDbSpline
210
0.0
220
0.0
230
1.0
 70
     8
 71
     3
 72
    13
 73
     9
 74
     0
 42
0.000000001
 43
0.00000001
 40
0.0
 40
0.0
 40
0.0
 40
0.0
 40
0.186040479131301
 40
0.3719478374029404
 40
0.5577603746620549
 40
0.7435169626142284
 40
0.9292568118559595
 40
1.0
 40
1.0
 40
1.0
 40
1.0
 10
36.73205080756887
 20
-1.577944528736428
 30
0.0
 10
36.40991884745906
 20
-1.507296047375492
 30
0.0
 10
35.76588542806194
 20
-1.366049637020592
 30
0.0
 10
34.80025213244954
 20
-1.016238431552957
 30
0.0
 10
33.83517467221858
 20
-0.5961074738342816
 30
0.0
 10
32.87043097873409
 20
-0.1303992021120382
 30
0.0
 10
32.10489661667949
 20
0.254640625892108
 30
0.0
 10
31.6608999794887
 20
0.4573666777238493
 30
0.0
 10
31.53843676336237
 20
0.5132826064051703
 30
0.0
  0
SPLINE
  5
C8
330
1F
100
AcDbEntity
  8
0
  6
Continuous
 62
     1
370
    15
100
AcDbSpline
210
0.0
220
0.0
230
1.0
 70
     8
 71
     3
 72
    15
 73
    11
 74
     0
 42
0.000000001
 43
0.00000001
 40
0.0
 40
0.0
 40
0.0
 40
0.0
 40
0.0750285494298671
 40
0.208233654293497
 40
0.3414351281745819
 40
0.4746611516965505
 40
0.6079397565699584
 40
0.7412986565400875
 40
0.8747407900207302
 40
1.0
 40
1.0
 40
1.0
 40
1.0
 10
17.00264512686923
 20
-1.647893444161846
 30
0.0
 10
16.82152717039327
 20
-1.668385041859075
 30
0.0
 10
16.31885379843356
 20
-1.725257263209893
 30
0.0
 10
15.49467874244192
 20
-1.673508612599322
 30
0.0
 10
14.5300182681824
 20
-1.50619939270466
 30
0.0
 10
13.5651570145428
 20
-1.216767838670584
 30
0.0
 10
12.59985558705995
 20
-0.8347920130540664
 30
0.0
 10
11.63395686143208
 20
-0.3887283805950778
 30
0.0
 10
10.68726723251313
 20
0.0805329881194945
 30
0.0
 10
10.06269382315618
 20
0.3784979111277247
 30
0.0
 10
9.760284988382457
 20
0.5227679421928253
 30
0.0
  0
LINE
  5
C9
330
1F
100
AcDbEntity
  8
0
  6
Continuous
 62
     1
370
    15
100
AcDbLine
 10
36.73205080756873
 20
-1.897881738463801
 30
0.0
 11
36.73205080756887
 21
-1.577944528736428
 31
0.0
  0
SPLINE
  5
CA
330
1F
100
AcDbEntity
  8
0
  6
Continuous
 62
     1
370
    15
100
AcDbSpline
210
0.0
220
0.0
230
1.0
 70
     8
 71
     3
 72
     8
 73
     4
 74
     0
 42
0.000000001
 43
0.00000001
 40
0.0
 40
0.0
 40
0.0
 40
0.0
 40
1.0
 40
1.0
 40
1.0
 40
1.0
 10
35.4938844122007
 20
0.5601200555101787
 30
0.0
 10
35.40440448180896
 20
0.6661245607306548
 30
0.0
 10
35.32678444586532
 20
0.7674220582598011
 30
0.0
 10
35.26551150639242
 20
0.8616562015384661
 30
0.0
  0
LINE
  5
CB
330
1F
100
AcDbEntity
  8
0
  6
Continuous
 62
     1
370
    15
100
AcDbLine
 10
35.26551150639243
 20
0.8616562015384648
 30
0.0
 11
36.73205080756887
 21
0.000000000000004
 31
0.0
  0
LINE
  5
CC
330
1F
100
AcDbEntity
  8
0
  6
Continuous
 62
     1
370
    15
100
AcDbLine
 10
36.73205080756887
 20
0.000000000000004
 30
0.0
 11
36.73205080756887
 21
-0.5344858920592856
 31
0.0
  0
SPLINE
  5
CD
330
1F
100
AcDbEntity
  8
0
  6
Continuous
 62
     1
370
    15
100
AcDbSpline
210
0.0
220
0.0
230
1.0
 70
     8
 71
     3
 72
    10
 73
     6
 74
     0
 42
0.000000001
 43
0.00000001
 40
0.0
 40
0.0
 40
0.0
 40
0.0
 40
0.5
 40
0.5
 40
1.0
 40
1.0
 40
1.0
 40
1.0
 10
36.73205080756887
 20
-0.5344858920592856
 30
0.0
 10
36.51770992799074
 20
-0.3659754071021834
 30
0.0
 10
36.3069531454821
 20
-0.1905497606416772
 30
0.0
 10
35.89277919016848
 20
0.1744625846972659
 30
0.0
 10
35.68743517480839
 20
0.3659780243935101
 30
0.0
 10
35.49388441220071
 20
0.560120055510174
 30
0.0
  0
SPLINE
  5
CE
330
1F
100
AcDbEntity
  8
0
  6
Continuous
 62
     1
370
    15
100
AcDbSpline
210
0.0
220
0.0
230
1.0
 70
     8
 71
     3
 72
    13
 73
     9
 74
     0
 42
0.000000001
 43
0.00000001
 40
0.0
 40
0.0
 40
0.0
 40
0.0
 40
0.1506627298779687
 40
0.3602616404732163
 40
0.5697965558250292
 40
0.7793123235511663
 40
0.988853907961112
 40
1.0
 40
1.0
 40
1.0
 40
1.0
 10
35.49388441220071
 20
0.5601200555101714
 30
0.0
 10
35.26261288371946
 20
0.6577208683581959
 30
0.0
 10
34.70960113149052
 20
0.8911019372969338
 30
0.0
 10
33.83518280640508
 20
1.201694310675559
 30
0.0
 10
32.87042514751373
 20
1.457529057866874
 30
0.0
 10
31.90577830441022
 20
1.586806589306551
 30
0.0
 10
31.24558287243175
 20
1.626245801727903
 30
0.0
 10
30.90689002011
 20
1.588127074706394
 30
0.0
 10
30.88978393713501
 20
1.586201843326808
 30
0.0
  0
SPLINE
  5
CF
330
1F
100
AcDbEntity
  8
0
  6
Continuous
 62
     1
370
    15
100
AcDbSpline
210
0.0
220
0.0
230
1.0
 70
     8
 71
     3
 72
    21
 73
    17
 74
     0
 42
0.000000001
 43
0.00000001
 40
0.0
 40
0.0
 40
0.0
 40
0.0
 40
0.0264181236411191
 40
0.1037021175546757
 40
0.1810406048063433
 40
0.2583474042480768
 40
0.3356028624085006
 40
0.4128232004564874
 40
0.4900248525466599
 40
0.5672243665715654
 40
0.6444383034562206
 40
0.7216831362853157
 40
0.7989751505570312
 40
0.8763160915084444
 40
0.9536142583367214
 40
1.0
 40
1.0
 40
1.0
 40
1.0
 10
21.61812975495073
 20
-1.490499660723483
 30
0.0
 10
21.50809278579043
 20
-1.511415135572885
 30
0.0
 10
21.07615193842982
 20
-1.593517069117044
 30
0.0
 10
20.32201819461358
 20
-1.615398744026281
 30
0.0
 10
19.35577787961878
 20
-1.548041944000395
 30
0.0
 10
18.38974384113104
 20
-1.353357648687723
 30
0.0
 10
17.42429333022692
 20
-1.056331977993918
 30
0.0
 10
16.45933739103198
 20
-0.6773051745227269
 30
0.0
 10
15.49464601771368
 20
-0.2462134972954983
 30
0.0
 10
14.52998460534362
 20
0.2038761609558957
 30
0.0
 10
13.56511989642731
 20
0.6383640189300114
 30
0.0
 10
12.59981669972502
 20
1.023283449024737
 30
0.0
 10
11.6339132879982
 20
1.330724192220295
 30
0.0
 10
10.66765706515589
 20
1.530020375517953
 30
0.0
 10
9.830255109077202
 20
1.617842726316226
 30
0.0
 10
9.315079794051728
 20
1.586255866948994
 30
0.0
 10
9.121871240364234
 20
1.574409702670779
 30
0.0
  0
SPLINE
  5
D0
330
1F
100
AcDbEntity
  8
0
  6
Continuous
 62
     1
370
    15
100
AcDbSpline
210
0.0
220
0.0
230
1.0
 70
    24
 71
     3
 72
    10
 73
     6
 74
     0
 42
0.000000001
 43
0.00000001
 40
0.0
 40
0.0
 40
0.0
 40
0.0
 40
0.5
 40
0.5
 40
1.0
 40
1.0
 40
1.0
 40
1.0
 10
36.73205080756887
 20
-1.577944528736428
 30
0.0
 10
36.73205080756887
 20
-1.456982778007606
 30
0.0
 10
36.73205080756887
 20
-1.304142967812933
 30
0.0
 10
36.73205080756885
 20
-0.9488051183013563
 30
0.0
 10
36.73205080756887
 20
-0.7466148861026157
 30
0.0
 10
36.73205080756887
 20
-0.5344858920593495
 30
0.0
  0
SPLINE
  5
D1
330
1F
100
AcDbEntity
  8
0
  6
Continuous
 62
   131
370
    15
100
AcDbSpline
210
0.0
220
0.0
230
1.0
 70
    24
 71
     3
 72
    11
 73
     7
 74
     0
 42
0.000000001
 43
0.00000001
 40
0.0
 40
0.0
 40
0.0
 40
0.0
 40
0.3380471035650083
 40
0.5837534255727767
 40
0.8365852475640986
 40
1.0
 40
1.0
 40
1.0
 40
1.0
 10
6.732050807568866
 20
-1.107606847846095
 30
0.0
 10
6.732050807568866
 20
-1.206310705074132
 30
0.0
 10
6.73205080756887
 20
-1.376756522140665
 30
0.0
 10
6.732050807568866
 20
-1.52540455040029
 30
0.0
 10
6.732050807568866
 20
-1.59998178816644
 30
0.0
 10
6.732050807568866
 20
-1.604633555026668
 30
0.0
 10
6.732050807568866
 20
-1.606459797875392
 30
0.0
  0
SPLINE
  5
D2
330
1F
100
AcDbEntity
  8
0
  6
Continuous
 62
     1
370
    15
100
AcDbSpline
210
0.0
220
0.0
230
1.0
 70
     8
 71
     3
 72
    21
 73
    17
 74
     0
 42
0.000000001
 43
0.00000001
 40
0.0
 40
0.0
 40
0.0
 40
0.0
 40
0.0476423070724542
 40
0.1248542370894261
 40
0.2020921905375084
 40
0.2793725197253551
 40
0.3567097364569387
 40
0.4340295231632676
 40
0.5112955827859279
 40
0.5885240974195077
 40
0.6657314766821487
 40
0.7429342587872632
 40
0.8201490099680983
 40
0.8973922235425617
 40
0.9746802199135564
 40
1.0
 40
1.0
 40
1.0
 40
1.0
 10
32.50107004323213
 20
-1.489444178560033
 30
0.0
 10
32.30265307119153
 20
-1.521991695206687
 30
0.0
 10
31.78266986315653
 20
-1.6072876350925
 30
0.0
 10
30.94100145623276
 20
-1.609443349645343
 30
0.0
 10
29.97585108186733
 20
-1.506168038542356
 30
0.0
 10
29.01011991270872
 20
-1.281672715160667
 30
0.0
 10
28.04390881798113
 20
-0.9596777685460127
 30
0.0
 10
27.07780858441416
 20
-0.563223272960599
 30
0.0
 10
26.11226706950397
 20
-0.123362896746781
 30
0.0
 10
25.1472514808
 20
0.3259056562488746
 30
0.0
 10
24.18253589651162
 20
0.7501481818803906
 30
0.0
 10
23.21788452630504
 20
1.11591286082624
 30
0.0
 10
22.25306569467303
 20
1.397908140448865
 30
0.0
 10
21.28783867588494
 20
1.563563187888148
 30
0.0
 10
20.53871503068986
 20
1.623183783231678
 30
0.0
 10
20.11127441699766
 20
1.58509953472831
 30
0.0
 10
20.00579798321888
 20
1.575701759723774
 30
0.0
  0
SPLINE
  5
D3
330
1F
100
AcDbEntity
  8
0
  6
Continuous
 62
     1
370
    15
100
AcDbSpline
210
0.0
220
0.0
230
1.0
 70
     8
 71
     3
 72
    12
 73
     8
 74
     0
 42
0.000000001
 43
0.00000001
 40
0.0
 40
0.0
 40
0.0
 40
0.0
 40
0.0157458560252441
 40
0.2573259354563581
 40
0.498753026881493
 40
0.7400779444324848
 40
1.0
 40
1.0
 40
1.0
 40
1.0
 10
10.73046375897801
 20
-1.500618401851989
 30
0.0
 10
10.70947481829646
 20
-1.505053518545703
 30
0.0
 10
10.36646401047132
 20
-1.577534211258647
 30
0.0
 10
9.701699905225526
 20
-1.611270495064203
 30
0.0
 10
8.736320061158649
 20
-1.580083868441678
 30
0.0
 10
7.746615540471895
 20
-1.417070926379898
 30
0.0
 10
7.078501780932415
 20
-1.213281850881448
 30
0.0
 10
6.732050807568864
 20
-1.107606847846094
 30
0.0
  0
SPLINE
  5
D4
330
1F
100
AcDbEntity
  8
0
  6
Continuous
 62
   131
370
    15
100
AcDbSpline
210
0.0
220
0.0
230
1.0
 70
    24
 71
     3
 72
    14
 73
    10
 74
     0
 42
0.000000001
 43
0.00000001
 40
0.0
 40
0.0
 40
0.0
 40
0.0
 40
0.2499999999999999
 40
0.2499999999999999
 40
0.4999999999999999
 40
0.4999999999999999
 40
0.75
 40
0.75
 40
1.0
 40
1.0
 40
1.0
 40
1.0
 10
6.732050807568866
 20
1.010315130754518
 30
0.0
 10
6.732050807568866
 20
0.8632610629545914
 30
0.0
 10
6.732050807568866
 20
0.6993727373694154
 30
0.0
 10
6.732050807568866
 20
0.3494066524837062
 30
0.0
 10
6.732050807568866
 20
0.1634558766743135
 30
0.0
 10
6.732050807568866
 20
-0.2129599209647337
 30
0.0
 10
6.732050807568866
 20
-0.403224372720131
 30
0.0
 10
6.732050807568866
 20
-0.7696269567366919
 30
0.0
 10
6.732050807568866
 20
-0.9456150195568127
 30
0.0
 10
6.732050807568866
 20
-1.107606847846094
 30
0.0
  0
SPLINE
  5
D5
330
1F
100
AcDbEntity
  8
0
  6
Continuous
 62
     1
370
    15
100
AcDbSpline
210
0.0
220
0.0
230
1.0
 70
     8
 71
     3
 72
    10
 73
     6
 74
     0
 42
0.000000001
 43
0.00000001
 40
0.0
 40
0.0
 40
0.0
 40
0.0
 40
0.5
 40
0.5
 40
1.0
 40
1.0
 40
1.0
 40
1.0
 10
36.73205080756887
 20
1.400000000000003
 30
0.0
 10
36.48316458524904
 20
1.332396900670979
 30
0.0
 10
36.23611631379676
 20
1.2550795225573
 30
0.0
 10
35.74632827190168
 20
1.077672677756317
 30
0.0
 10
35.50341991750827
 20
0.9782712124145908
 30
0.0
 10
35.26551150639109
 20
0.8616562015394881
 30
0.0
  0
LINE
  5
D6
330
1F
100
AcDbEntity
  8
0
  6
Continuous
 62
     1
370
    15
100
AcDbLine
 10
36.73205080756887
 20
0.000000000000004
 30
0.0
 11
36.73205080756887
 21
1.400000000000004
 31
0.0
  0
LINE
  5
D7
330
1F
100
AcDbEntity
  8
0
  6
Continuous
 62
   131
370
    15
100
AcDbLine
 10
5.732050807568866
 20
2.0
 30
0.0
 11
5.732050807568866
 21
-1.999999999999998
 31
0.0
  0
LINE
  5
D8
330
1F
100
AcDbEntity
  8
0
  6
Continuous
 62
   131
370
    15
100
AcDbLine
 10
2.0
 20
3.0
 30
0.0
 11
2.0
 21
-3.0
 31
0.0
  0
LINE
  5
D9
330
1F
100
AcDbEntity
  8
0
  6
Continuous
 62
   131
370
    15
100
AcDbLine
 10
-32.71794919243114
 20
2.999999999999995
 30
0.0
 11
-32.71794919243114
 21
-3.0
 31
0.0
  0
LINE
  5
DA
330
1F
100
AcDbEntity
  8
0
  6
Continuous
 62
   131
370
    15
100
AcDbLine
 10
-33.26794919243114
 20
2.449999999999995
 30
0.0
 11
-33.26794919243114
 21
-2.450000000000001
 31
0.0
  0
SPLINE
  5
DB
330
1F
100
AcDbEntity
  8
0
  6
Continuous
 62
   131
370
    15
100
AcDbSpline
210
0.0
220
0.0
230
1.0
 70
     8
 71
     3
 72
     8
 73
     4
 74
     0
 42
0.000000001
 43
0.00000001
 40
0.0
 40
0.0
 40
0.0
 40
0.0
 40
1.0
 40
1.0
 40
1.0
 40
1.0
 10
6.732050807568887
 20
1.806362076476399
 30
0.0
 10
6.433297385831189
 20
1.880114950683692
 30
0.0
 10
6.14074705802792
 20
1.933431421455938
 30
0.0
 10
5.842191417134575
 20
1.965293591376082
 30
0.0
  0
SPLINE
  5
DC
330
1F
100
AcDbEntity
  8
0
  6
Continuous
 62
   131
370
    15
100
AcDbSpline
210
0.0
220
0.0
230
1.0
 70
     8
 71
     3
 72
     8
 73
     4
 74
     0
 42
0.000000001
 43
0.00000001
 40
0.0
 40
0.0
 40
0.0
 40
0.0
 40
1.0
 40
1.0
 40
1.0
 40
1.0
 10
6.732050807568887
 20
1.498998268226195
 30
0.0
 10
6.433273372927294
 20
1.612749229560987
 30
0.0
 10
6.140699400347401
 20
1.709173869012872
 30
0.0
 10
5.842119426073427
 20
1.786417850683967
 30
0.0
  0
SPLINE
  5
DD
330
1F
100
AcDbEntity
  8
0
  6
Continuous
 62
   131
370
    15
100
AcDbSpline
210
0.0
220
0.0
230
1.0
 70
     8
 71
     3
 72
     8
 73
     4
 74
     0
 42
0.000000001
 43
0.00000001
 40
0.0
 40
0.0
 40
0.0
 40
0.0
 40
1.0
 40
1.0
 40
1.0
 40
1.0
 10
6.732050807568887
 20
-1.806362076476399
 30
0.0
 10
6.433297385831189
 20
-1.880114950683692
 30
0.0
 10
6.14074705802792
 20
-1.933431421455937
 30
0.0
 10
5.842191417134575
 20
-1.965293591376081
 30
0.0
  0
LINE
  5
DE
330
1F
100
AcDbEntity
  8
0
  6
Continuous
 62
   131
370
    15
100
AcDbLine
 10
5.842119426073424
 20
1.965309488438064
 30
0.0
 11
5.842119426073424
 21
2.0
 31
0.0
  0
LINE
  5
DF
330
1F
100
AcDbEntity
  8
0
  6
Continuous
 62
   131
370
    15
100
AcDbLine
 10
5.842119426073424
 20
-2.0
 30
0.0
 11
5.842119426073427
 21
1.786724977439934
 31
0.0
  0
SPLINE
  5
E0
330
1F
100
AcDbEntity
  8
0
  6
Continuous
 62
   131
370
    15
100
AcDbSpline
210
0.0
220
0.0
230
1.0
 70
    24
 71
     3
 72
    14
 73
    10
 74
     0
 42
0.000000001
 43
0.00000001
 40
0.0
 40
0.0
 40
0.0
 40
0.0
 40
0.2499999999999999
 40
0.2499999999999999
 40
0.4999999999999999
 40
0.4999999999999999
 40
0.75
 40
0.75
 40
1.0
 40
1.0
 40
1.0
 40
1.0
 10
6.732050807568866
 20
1.010315130754518
 30
0.0
 10
6.732050807568866
 20
0.8632610629545914
 30
0.0
 10
6.732050807568866
 20
0.6993727373694154
 30
0.0
 10
6.732050807568866
 20
0.3494066524837062
 30
0.0
 10
6.732050807568866
 20
0.1634558766743135
 30
0.0
 10
6.732050807568866
 20
-0.2129599209647337
 30
0.0
 10
6.732050807568866
 20
-0.403224372720131
 30
0.0
 10
6.732050807568866
 20
-0.7696269567366919
 30
0.0
 10
6.732050807568866
 20
-0.9456150195568127
 30
0.0
 10
6.732050807568866
 20
-1.107606847846094
 30
0.0
  0
SPLINE
  5
E1
330
1F
100
AcDbEntity
  8
0
  6
Continuous
 62
   131
370
    15
100
AcDbSpline
210
0.0
220
0.0
230
1.0
 70
     8
 71
     3
 72
     8
 73
     4
 74
     0
 42
0.000000001
 43
0.00000001
 40
0.0
 40
0.0
 40
0.0
 40
0.0
 40
1.0
 40
1.0
 40
1.0
 40
1.0
 10
6.732050807568923
 20
-1.107606847846113
 30
0.0
 10
6.433282136928764
 20
-1.008409590850637
 30
0.0
 10
6.140716794020067
 20
-0.8976822625249153
 30
0.0
 10
5.84214570069612
 20
-0.777574679532456
 30
0.0
  0
SPLINE
  5
E2
330
1F
100
AcDbEntity
  8
0
  6
Continuous
 62
   131
370
    15
100
AcDbSpline
210
0.0
220
0.0
230
1.0
 70
     8
 71
     3
 72
     8
 73
     4
 74
     0
 42
0.000000001
 43
0.00000001
 40
0.0
 40
0.0
 40
0.0
 40
0.0
 40
1.0
 40
1.0
 40
1.0
 40
1.0
 10
6.732050807568953
 20
1.010315130754494
 30
0.0
 10
6.43327915453907
 20
1.09357752200906
 30
0.0
 10
6.140710874956502
 20
1.165116751475134
 30
0.0
 10
5.842136759443164
 20
1.223556402950045
 30
0.0
  0
LINE
  5
E3
330
1F
100
AcDbEntity
  8
0
  6
Continuous
 62
   131
370
    15
100
AcDbLine
 10
6.106604476965511
 20
-1.653821565086787
 30
0.0
 11
5.842191417134575
 21
-1.686467957057296
 31
0.0
  0
SPLINE
  5
E4
330
1F
100
AcDbEntity
  8
0
  6
Continuous
 62
   131
370
    15
100
AcDbSpline
210
0.0
220
0.0
230
1.0
 70
    24
 71
     3
 72
    11
 73
     7
 74
     0
 42
0.000000001
 43
0.00000001
 40
0.0
 40
0.0
 40
0.0
 40
0.0
 40
0.337433576622828
 40
0.582693962408023
 40
0.8350669159961066
 40
1.0
 40
1.0
 40
1.0
 40
1.0
 10
6.732050807568866
 20
-1.107606847846095
 30
0.0
 10
6.732050807568866
 20
-1.206308231606972
 30
0.0
 10
6.73205080756887
 20
-1.376749777390265
 30
0.0
 10
6.732050807568866
 20
-1.525423395608842
 30
0.0
 10
6.73205080756887
 20
-1.600123680146503
 30
0.0
 10
6.73205080756887
 20
-1.60476055405106
 30
0.0
 10
6.732050807568866
 20
-1.606593199266617
 30
0.0
  0
SPLINE
  5
E5
330
1F
100
AcDbEntity
  8
0
  6
Continuous
 62
   131
370
    15
100
AcDbSpline
210
0.0
220
0.0
230
1.0
 70
    24
 71
     3
 72
    10
 73
     6
 74
     0
 42
0.000000001
 43
0.00000001
 40
0.0
 40
0.0
 40
0.0
 40
0.0
 40
0.5
 40
0.5
 40
1.0
 40
1.0
 40
1.0
 40
1.0
 10
6.732050807568866
 20
1.498998268226204
 30
0.0
 10
6.732050807568866
 20
1.444457200999977
 30
0.0
 10
6.732050807568866
 20
1.370902610352577
 30
0.0
 10
6.732050807568866
 20
1.201140778635883
 30
0.0
 10
6.732050807568866
 20
1.105475989303838
 30
0.0
 10
6.732050807568866
 20
1.010315130754519
 30
0.0
  0
SPLINE
  5
E6
330
1F
100
AcDbEntity
  8
0
  6
Continuous
 62
   131
370
    15
100
AcDbSpline
210
0.0
220
0.0
230
1.0
 70
    24
 71
     3
 72
    10
 73
     6
 74
     0
 42
0.000000001
 43
0.00000001
 40
0.0
 40
0.0
 40
0.0
 40
0.0
 40
0.3333754818202721
 40
0.8350630906955421
 40
1.0
 40
1.0
 40
1.0
 40
1.0
 10
6.732050807568866
 20
-1.611161296756794
 30
0.0
 10
6.732050807568866
 20
-1.634218562848661
 30
0.0
 10
6.732050807568866
 20
-1.691974075583229
 30
0.0
 10
6.73205080756887
 20
-1.755764910877686
 30
0.0
 10
6.732050807568866
 20
-1.796326329461945
 30
0.0
 10
6.732050807568866
 20
-1.806362076476711
 30
0.0
  0
LINE
  5
E7
330
1F
100
AcDbEntity
  8
중심선
 62
     1
100
AcDbLine
 10
-36.26794919243114
 20
-0.0000000000000046
 30
0.0
 11
39.73205080756886
 21
0.0000000000000043
 31
0.0
  0
CIRCLE
  5
E8
330
1F
100
AcDbEntity
  8
외형선
100
AcDbCircle
 10
0.0000000000000104
 20
0.0
 30
0.0
 40
3.000000000000005
  0
INSERT
  5
E9
330
1F
100
AcDbEntity
  8
0
  6
Continuous
 62
     7
100
AcDbBlockReference
 66
     1
  2
블럭10
 10
-22.93944368806589
 20
-52.04609937292004
 30
0.0
  0
ATTRIB
  5
EA
330
E9
100
AcDbEntity
  8
FORMAT
 62
     2
100
AcDbText
 10
-39.05870472750145
 20
-49.97073246008785
 30
0.0
 40
4.233333333333333
  1
SEME7004030E [ 2 FLUTE ]
 41
0.75
  7
SLDTEXTSTYLE0
 11
-39.05870472750145
 21
-52.08739912675452
 31
0.0
100
AcDbAttribute
  2
AUTOATTR0
 70
     0
 74
     1
  0
SEQEND
  5
EB
330
E9
100
AcDbEntity
  8
0
  6
Continuous
 62
     7
  0
HATCH
  5
EC
330
1F
100
AcDbEntity
  8
중심선
100
AcDbHatch
 10
0.0
 20
0.0
 30
0.0
210
0.0
220
0.0
230
1.0
  2
SOLID
 70
     1
 71
     0
 91
        1
 92
        0
 93
        4
 72
     1
 10
-17.22453438368504
 20
-35.7989250712761
 11
-20.67080962752232
 21
-35.7989250712761
 72
     1
 10
-20.67080962752232
 20
-35.7989250712761
 11
-22.79903948672635
 21
-38.3352506518487
 72
     1
 10
-22.79903948672635
 20
-38.3352506518487
 11
-19.35273115777591
 21
-38.33521122254621
 72
     1
 10
-19.35273115777591
 20
-38.33521122254621
 11
-17.22453438368504
 21
-35.7989250712761
 97
        0
 75
     0
 76
     1
 98
        1
 10
0.0
 20
0.0
  0
HATCH
  5
ED
330
1F
100
AcDbEntity
  8
중심선
100
AcDbHatch
 10
0.0
 20
0.0
 30
0.0
210
0.0
220
0.0
230
1.0
  2
SOLID
 70
     1
 71
     0
 91
        1
 92
        0
 93
        4
 72
     1
 10
-12.21177039264909
 20
-35.7989250712761
 11
-15.65804563648637
 21
-35.7989250712761
 72
     1
 10
-15.65804563648637
 20
-35.7989250712761
 11
-20.18918364484376
 21
-41.19892507127612
 72
     1
 10
-20.18918364484376
 20
-41.19892507127612
 11
-16.74290840100648
 21
-41.19892507127612
 72
     1
 10
-16.74290840100648
 20
-41.19892507127612
 11
-12.21177039264909
 21
-35.7989250712761
 97
        0
 75
     0
 76
     1
 98
        1
 10
0.0
 20
0.0
  0
HATCH
  5
EE
330
1F
100
AcDbEntity
  8
중심선
100
AcDbHatch
 10
0.0
 20
0.0
 30
0.0
210
0.0
220
0.0
230
1.0
  2
SOLID
 70
     1
 71
     0
 91
        1
 92
        0
 93
        4
 72
     1
 10
-7.199006401613195
 20
-35.79892507127613
 11
-10.64528164545031
 21
-35.7989250712761
 72
     1
 10
-10.64528164545031
 20
-35.7989250712761
 11
-17.69371854733956
 21
-44.19892507127612
 72
     1
 10
-17.69371854733956
 20
-44.19892507127612
 11
-14.24744330350228
 21
-44.19892507127612
 72
     1
 10
-14.24744330350228
 20
-44.19892507127612
 11
-7.199006401613195
 21
-35.79892507127613
 97
        0
 75
     0
 76
     1
 98
        1
 10
0.0
 20
0.0
  0
HATCH
  5
EF
330
1F
100
AcDbEntity
  8
중심선
100
AcDbHatch
 10
0.0
 20
0.0
 30
0.0
210
0.0
220
0.0
230
1.0
  2
SOLID
 70
     1
 71
     0
 91
        1
 92
        0
 93
        6
 72
     3
 10
-2.399115970600996
 20
-39.99892507132738
 11
3.960054785062284
 21
1.540850780301639E-10
 40
0.3939339440162633
 50
17.09539180608433
 51
320.0019657685079
 73
     0
 72
     1
 10
-0.7161163149004002
 20
-38.58681907591441
 11
1.589185558800638
 21
-36.65249236586649
 72
     3
 10
-2.399115970653842
 20
-39.99892507127625
 11
6.600054785286829
 21
-1.249000902703301E-13
 40
0.6363583540795982
 50
39.99873849337408
 51
368.4976242363725
 73
     1
 72
     1
 10
4.026216521246767
 20
-39.03892507120613
 11
-3.71904866381792
 21
-39.0389250712061
 72
     1
 10
-3.71904866381792
 20
-39.0389250712061
 11
-3.719073708263854
 21
-40.95892507120602
 72
     1
 10
-3.719073708263854
 20
-40.95892507120602
 11
0.7223060612081831
 21
-40.95892507120599
 97
        0
 75
     0
 76
     1
 98
        1
 10
0.0
 20
0.0
  0
DIMENSION
  5
F0
330
1F
100
AcDbEntity
  8
치수문자_일반주서
100
AcDbDimension
  2
_D
 10
45.1012103516113
 20
2.000000000000142
 30
0.0
 11
45.10121035161126
 21
11.66650000000014
 31
0.0
 70
   160
  1
%%c<>
 71
     2
 42
3.999999999999998
 52
-270.0
  3
SLDDIMSTYLE0
100
AcDbAlignedDimension
 13
36.73205080756887
 23
-1.999999999999889
 33
0.0
 14
36.73205080756873
 24
2.000000000000109
 34
0.0
 50
90.0000000000002
100
AcDbRotatedDimension
  0
DIMENSION
  5
FE
330
1F
100
AcDbEntity
  8
치수문자_일반주서
100
AcDbDimension
  2
_D_1
 10
36.73205080756873
 20
24.23841044024269
 30
0.0
 11
1.732050807568795
 21
24.23841044024269
 31
0.0
 70
   160
  1
<>
 71
     2
 42
69.99999999999986
  3
SLDDIMSTYLE1
100
AcDbAlignedDimension
 13
-33.26794919243114
 23
2.449999999999995
 33
0.0
 14
36.73205080756873
 24
2.000000000000109
 34
0.0
 50
-0.0000000000000029
100
AcDbRotatedDimension
  0
DIMENSION
  5
109
330
1F
100
AcDbEntity
  8
치수문자_일반주서
100
AcDbDimension
  2
_D_2
 10
36.73205080756873
 20
15.15335988264392
 30
0.0
 11
21.73205080756887
 21
15.15335988264392
 31
0.0
 70
   160
  1
<>
 71
     2
 42
29.99999999999986
  3
SLDDIMSTYLE1
100
AcDbAlignedDimension
 13
6.732050807568866
 23
1.806362076476403
 33
0.0
 14
36.73205080756873
 24
2.000000000000109
 34
0.0
 50
-0.0000000000000068
100
AcDbRotatedDimension
  0
DIMENSION
  5
113
330
1F
100
AcDbEntity
  8
치수문자_일반주서
100
AcDbDimension
  2
_D_3
 10
-41.46424335647423
 20
-3.000000000000034
 30
0.0
 11
-41.46424335647428
 21
12.66649999999996
 31
0.0
 70
   160
  1
%%c<>
 71
     2
 42
5.999999999999995
 52
-270.0
  3
SLDDIMSTYLE0
100
AcDbAlignedDimension
 13
-32.71794919243114
 23
2.999999999999995
 33
0.0
 14
-32.71794919243114
 24
-2.999999999999999
 34
0.0
 50
90.0000000000002
100
AcDbRotatedDimension
  0
INSERT
  5
126
330
1F
100
AcDbEntity
  8
외형선
100
AcDbBlockReference
  2
SW_DOWELSYMBOL_0
 10
0.0000000000000104
 20
0.0
 30
0.0
  0
ENDSEC
  0
SECTION
  2
OBJECTS
  0
DICTIONARY
  5
C
330
0
100
AcDbDictionary
281
     1
  3
ACAD_GROUP
350
D
  3
ACAD_IMAGE_VARS
350
14A
  3
ACAD_LAYOUT
350
1A
  3
ACAD_MLINESTYLE
350
17
  3
ACAD_PLOTSETTINGS
350
19
  3
ACAD_PLOTSTYLENAME
350
E
  3
ACAD_SCALELIST
350
47
  3
APPDATA
350
148
  3
DWGPROPS
350
158
  0
DICTIONARY
  5
D
102
{ACAD_REACTORS
330
C
102
}
330
C
100
AcDbDictionary
281
     1
  0
RASTERVARIABLES
  5
14A
102
{ACAD_REACTORS
330
C
102
}
330
C
100
AcDbRasterVariables
 90
        0
 70
     1
 71
     1
 72
     1
  0
DICTIONARY
  5
1A
102
{ACAD_REACTORS
330
C
102
}
330
C
100
AcDbDictionary
281
     1
  3
Layout1
350
1E
  3
Layout2
350
26
  3
Model
350
22
  0
DICTIONARY
  5
17
102
{ACAD_REACTORS
330
C
102
}
330
C
100
AcDbDictionary
281
     1
  3
Standard
350
18
  0
DICTIONARY
  5
19
102
{ACAD_REACTORS
330
C
102
}
330
C
100
AcDbDictionary
281
     1
  0
ACDBDICTIONARYWDFLT
  5
E
102
{ACAD_REACTORS
330
C
102
}
330
C
100
AcDbDictionary
281
     1
  3
Normal
350
F
100
AcDbDictionaryWithDefault
340
F
  0
DICTIONARY
  5
47
102
{ACAD_REACTORS
330
C
102
}
330
C
100
AcDbDictionary
281
     1
  3
A0
350
48
  3
A1
350
49
  3
A2
350
4A
  3
A3
350
4B
  3
A4
350
4C
  3
A5
350
4D
  3
A6
350
4E
  3
A7
350
4F
  3
A8
350
50
  3
A9
350
51
  3
B0
350
52
  3
B1
350
53
  3
B2
350
54
  3
B3
350
55
  3
B4
350
56
  3
B5
350
57
  3
B6
350
58
  3
B7
350
59
  3
B8
350
5A
  3
B9
350
5B
  3
C0
350
5C
  3
C1
350
5D
  3
C2
350
5E
  3
C3
350
5F
  3
C4
350
60
  3
C5
350
61
  3
C6
350
62
  3
C7
350
63
  3
C8
350
64
  3
C9
350
65
  3
D0
350
66
  3
D1
350
67
  3
D2
350
68
  0
DICTIONARY
  5
148
102
{ACAD_REACTORS
330
C
102
}
330
C
100
AcDbDictionary
281
     1
  0
XRECORD
  5
158
102
{ACAD_REACTORS
330
C
102
}
330
C
100
AcDbXrecord
280
     1
  1
DWGPROPS COOKIE
  2

  3

  4

  6

  7

  8
12014102
  9

300
=
301
=
302
=
303
=
304
=
305
=
306
=
307
=
308
=
309
=
 40
0.0
 41
2458262.164476771
 42
2458266.010537465
  1

 90
        0
  0
LAYOUT
  5
1E
102
{ACAD_REACTORS
330
1A
102
}
330
1A
100
AcDbPlotSettings
  1

  2
none_device
  4

  6

 40
0.0
 41
0.0
 42
0.0
 43
0.0
 44
0.0
 45
0.0
 46
0.0
 47
0.0
 48
0.0
 49
0.0
140
0.0
141
0.0
142
1.0
143
1.0
 70
   688
 72
     1
 73
     0
 74
     5
  7

 75
    16
147
1.0
148
0.0
149
0.0
100
AcDbLayout
  1
Layout1
 70
     1
 71
     1
 10
0.0
 20
0.0
 11
420.0
 21
297.0
 12
0.0
 22
0.0
 32
0.0
 14
1.000000000000000E+20
 24
1.000000000000000E+20
 34
1.000000000000000E+20
 15
-1.000000000000000E+20
 25
-1.000000000000000E+20
 35
-1.000000000000000E+20
146
0.0
 13
0.0
 23
0.0
 33
0.0
 16
1.0
 26
0.0
 36
0.0
 17
0.0
 27
1.0
 37
0.0
 76
     0
330
1B
  0
LAYOUT
  5
26
102
{ACAD_REACTORS
330
1A
102
}
330
1A
100
AcDbPlotSettings
  1

  2
none_device
  4

  6

 40
0.0
 41
0.0
 42
0.0
 43
0.0
 44
0.0
 45
0.0
 46
0.0
 47
0.0
 48
0.0
 49
0.0
140
0.0
141
0.0
142
1.0
143
1.0
 70
   688
 72
     1
 73
     0
 74
     5
  7

 75
    16
147
1.0
148
0.0
149
0.0
100
AcDbLayout
  1
Layout2
 70
     1
 71
     2
 10
0.0
 20
0.0
 11
0.0
 21
0.0
 12
0.0
 22
0.0
 32
0.0
 14
0.0
 24
0.0
 34
0.0
 15
0.0
 25
0.0
 35
0.0
146
0.0
 13
0.0
 23
0.0
 33
0.0
 16
1.0
 26
0.0
 36
0.0
 17
0.0
 27
1.0
 37
0.0
 76
     0
330
23
  0
LAYOUT
  5
22
102
{ACAD_REACTORS
330
1A
102
}
330
1A
100
AcDbPlotSettings
  1

  2
none_device
  4
ANSI_A_(11.00_x_8.50_Inches)
  6

 40
6.35
 41
19.05
 42
6.35000508
 43
19.05000254
 44
279.4
 45
215.9
 46
128.6620425763414
 47
118.4377884955873
 48
0.0
 49
0.0
140
0.0
141
0.0
142
0.1058944507156154
143
1.0
 70
  1696
 72
     0
 73
     0
 74
     0
  7

 75
     0
147
0.0235690232323232
148
0.0
149
0.0
100
AcDbLayout
  1
Model
 70
     1
 71
     0
 10
0.0
 20
0.0
 11
420.0
 21
297.0
 12
0.0
 22
0.0
 32
0.0
 14
-45.83924335647428
 24
-49.97073246008785
 34
0.0
 15
45.65154368494466
 25
28.61341044024269
 35
0.0
146
0.0
 13
0.0
 23
0.0
 33
0.0
 16
1.0
 26
0.0
 36
0.0
 17
0.0
 27
1.0
 37
0.0
 76
     0
330
1F
331
29
  0
MLINESTYLE
  5
18
102
{ACAD_REACTORS
330
17
102
}
330
17
100
AcDbMlineStyle
  2
Standard
 70
     0
  3

 62
   256
 51
90.0
 52
90.0
 71
     2
 49
0.5
 62
   256
  6
BYLAYER
 49
-0.5
 62
   256
  6
BYLAYER
  0
ACDBPLACEHOLDER
  5
F
102
{ACAD_REACTORS
330
E
102
}
330
E
  0
SCALE
  5
48
102
{ACAD_REACTORS
330
47
102
}
330
47
100
AcDbScale
 70
     0
300
1:1
140
1.0
141
1.0
290
     1
  0
SCALE
  5
49
102
{ACAD_REACTORS
330
47
102
}
330
47
100
AcDbScale
 70
     0
300
1:2
140
1.0
141
2.0
290
     0
  0
SCALE
  5
4A
102
{ACAD_REACTORS
330
47
102
}
330
47
100
AcDbScale
 70
     0
300
1:4
140
1.0
141
4.0
290
     0
  0
SCALE
  5
4B
102
{ACAD_REACTORS
330
47
102
}
330
47
100
AcDbScale
 70
     0
300
1:5
140
1.0
141
5.0
290
     0
  0
SCALE
  5
4C
102
{ACAD_REACTORS
330
47
102
}
330
47
100
AcDbScale
 70
     0
300
1:8
140
1.0
141
8.0
290
     0
  0
SCALE
  5
4D
102
{ACAD_REACTORS
330
47
102
}
330
47
100
AcDbScale
 70
     0
300
1:10
140
1.0
141
10.0
290
     0
  0
SCALE
  5
4E
102
{ACAD_REACTORS
330
47
102
}
330
47
100
AcDbScale
 70
     0
300
1:16
140
1.0
141
16.0
290
     0
  0
SCALE
  5
4F
102
{ACAD_REACTORS
330
47
102
}
330
47
100
AcDbScale
 70
     0
300
1:20
140
1.0
141
20.0
290
     0
  0
SCALE
  5
50
102
{ACAD_REACTORS
330
47
102
}
330
47
100
AcDbScale
 70
     0
300
1:30
140
1.0
141
30.0
290
     0
  0
SCALE
  5
51
102
{ACAD_REACTORS
330
47
102
}
330
47
100
AcDbScale
 70
     0
300
1:40
140
1.0
141
40.0
290
     0
  0
SCALE
  5
52
102
{ACAD_REACTORS
330
47
102
}
330
47
100
AcDbScale
 70
     0
300
1:50
140
1.0
141
50.0
290
     0
  0
SCALE
  5
53
102
{ACAD_REACTORS
330
47
102
}
330
47
100
AcDbScale
 70
     0
300
1:100
140
1.0
141
100.0
290
     0
  0
SCALE
  5
54
102
{ACAD_REACTORS
330
47
102
}
330
47
100
AcDbScale
 70
     0
300
2:1
140
2.0
141
1.0
290
     0
  0
SCALE
  5
55
102
{ACAD_REACTORS
330
47
102
}
330
47
100
AcDbScale
 70
     0
300
4:1
140
4.0
141
1.0
290
     0
  0
SCALE
  5
56
102
{ACAD_REACTORS
330
47
102
}
330
47
100
AcDbScale
 70
     0
300
8:1
140
8.0
141
1.0
290
     0
  0
SCALE
  5
57
102
{ACAD_REACTORS
330
47
102
}
330
47
100
AcDbScale
 70
     0
300
10:1
140
10.0
141
1.0
290
     0
  0
SCALE
  5
58
102
{ACAD_REACTORS
330
47
102
}
330
47
100
AcDbScale
 70
     0
300
100:1
140
100.0
141
1.0
290
     0
  0
SCALE
  5
59
102
{ACAD_REACTORS
330
47
102
}
330
47
100
AcDbScale
 70
     0
300
1/128" = 1'-0"
140
0.0078125
141
12.0
290
     0
  0
SCALE
  5
5A
102
{ACAD_REACTORS
330
47
102
}
330
47
100
AcDbScale
 70
     0
300
1/64" = 1'-0"
140
0.015625
141
12.0
290
     0
  0
SCALE
  5
5B
102
{ACAD_REACTORS
330
47
102
}
330
47
100
AcDbScale
 70
     0
300
1/32" = 1'-0"
140
0.03125
141
12.0
290
     0
  0
SCALE
  5
5C
102
{ACAD_REACTORS
330
47
102
}
330
47
100
AcDbScale
 70
     0
300
1/16" = 1'-0"
140
0.0625
141
12.0
290
     0
  0
SCALE
  5
5D
102
{ACAD_REACTORS
330
47
102
}
330
47
100
AcDbScale
 70
     0
300
3/32" = 1'-0"
140
0.09375
141
12.0
290
     0
  0
SCALE
  5
5E
102
{ACAD_REACTORS
330
47
102
}
330
47
100
AcDbScale
 70
     0
300
1/8" = 1'-0"
140
0.125
141
12.0
290
     0
  0
SCALE
  5
5F
102
{ACAD_REACTORS
330
47
102
}
330
47
100
AcDbScale
 70
     0
300
3/16" = 1'-0"
140
0.1875
141
12.0
290
     0
  0
SCALE
  5
60
102
{ACAD_REACTORS
330
47
102
}
330
47
100
AcDbScale
 70
     0
300
1/4" = 1'-0"
140
0.25
141
12.0
290
     0
  0
SCALE
  5
61
102
{ACAD_REACTORS
330
47
102
}
330
47
100
AcDbScale
 70
     0
300
3/8" = 1'-0"
140
0.375
141
12.0
290
     0
  0
SCALE
  5
62
102
{ACAD_REACTORS
330
47
102
}
330
47
100
AcDbScale
 70
     0
300
1/2" = 1'-0"
140
0.5
141
12.0
290
     0
  0
SCALE
  5
63
102
{ACAD_REACTORS
330
47
102
}
330
47
100
AcDbScale
 70
     0
300
3/4" = 1'-0"
140
0.75
141
12.0
290
     0
  0
SCALE
  5
64
102
{ACAD_REACTORS
330
47
102
}
330
47
100
AcDbScale
 70
     0
300
1" = 1'-0"
140
1.0
141
12.0
290
     0
  0
SCALE
  5
65
102
{ACAD_REACTORS
330
47
102
}
330
47
100
AcDbScale
 70
     0
300
1-1/2" = 1'-0"
140
1.5
141
12.0
290
     0
  0
SCALE
  5
66
102
{ACAD_REACTORS
330
47
102
}
330
47
100
AcDbScale
 70
     0
300
3" = 1'-0"
140
3.0
141
12.0
290
     0
  0
SCALE
  5
67
102
{ACAD_REACTORS
330
47
102
}
330
47
100
AcDbScale
 70
     0
300
6" = 1'-0"
140
6.0
141
12.0
290
     0
  0
SCALE
  5
68
102
{ACAD_REACTORS
330
47
102
}
330
47
100
AcDbScale
 70
     0
300
1'-0" = 1'-0"
140
12.0
141
12.0
290
     0
  0
ENDSEC
  0
EOF
