  0
SECTION
  2
HEADER
  9
$ACADVER
  1
AC1015
  9
$ACADMAINTVER
 70
     6
  9
$DWGCODEPAGE
  3
ANSI_949
  9
$INSBASE
 10
0.0
 20
0.0
 30
0.0
  9
$EXTMIN
 10
-50.02724486045661
 20
-49.97073246008785
 30
0.0
  9
$EXTMAX
 10
42.07983671061371
 20
28.61341044024269
 30
0.0
  9
$LIMMIN
 10
0.0
 20
0.0
  9
$LIMMAX
 10
420.0
 20
297.0
  9
$ORTHOMODE
 70
     0
  9
$REGENMODE
 70
     1
  9
$FILLMODE
 70
     1
  9
$QTEXTMODE
 70
     0
  9
$MIRRTEXT
 70
     1
  9
$LTSCALE
 40
1.0
  9
$ATTMODE
 70
     1
  9
$TEXTSIZE
 40
3.5
  9
$TRACEWID
 40
1.0
  9
$TEXTSTYLE
  7
Standard
  9
$CLAYER
  8
0
  9
$CELTYPE
  6
ByLayer
  9
$CECOLOR
 62
   256
  9
$CELTSCALE
 40
1.0
  9
$DISPSILH
 70
     0
  9
$DIMSCALE
 40
1.0
  9
$DIMASZ
 40
3.302
  9
$DIMEXO
 40
1.0
  9
$DIMDLI
 40
3.75
  9
$DIMRND
 40
0.0
  9
$DIMDLE
 40
0.0
  9
$DIMEXE
 40
1.0
  9
$DIMTP
 40
0.0
  9
$DIMTM
 40
0.0
  9
$DIMTXT
 40
3.5
  9
$DIMCEN
 40
2.5
  9
$DIMTSZ
 40
0.0
  9
$DIMTOL
 70
     0
  9
$DIMLIM
 70
     0
  9
$DIMTIH
 70
     1
  9
$DIMTOH
 70
     1
  9
$DIMSE1
 70
     0
  9
$DIMSE2
 70
     0
  9
$DIMTAD
 70
     1
  9
$DIMZIN
 70
     0
  9
$DIMBLK
  1

  9
$DIMASO
 70
     1
  9
$DIMSHO
 70
     1
  9
$DIMPOST
  1

  9
$DIMAPOST
  1

  9
$DIMALT
 70
     0
  9
$DIMALTD
 70
     3
  9
$DIMALTF
 40
0.0393700787401575
  9
$DIMLFAC
 40
1.0
  9
$DIMTOFL
 70
     1
  9
$DIMTVP
 40
0.0
  9
$DIMTIX
 70
     0
  9
$DIMSOXD
 70
     0
  9
$DIMSAH
 70
     0
  9
$DIMBLK1
  1

  9
$DIMBLK2
  1

  9
$DIMSTYLE
  2
ISO-25
  9
$DIMCLRD
 70
     0
  9
$DIMCLRE
 70
     0
  9
$DIMCLRT
 70
     0
  9
$DIMTFAC
 40
1.0
  9
$DIMGAP
 40
1.524
  9
$DIMJUST
 70
     0
  9
$DIMSD1
 70
     0
  9
$DIMSD2
 70
     0
  9
$DIMTOLJ
 70
     0
  9
$DIMTZIN
 70
     0
  9
$DIMALTZ
 70
     0
  9
$DIMALTTZ
 70
     0
  9
$DIMUPT
 70
     0
  9
$DIMDEC
 70
     2
  9
$DIMTDEC
 70
     2
  9
$DIMALTU
 70
     2
  9
$DIMALTTD
 70
     3
  9
$DIMTXSTY
  7
Standard
  9
$DIMAUNIT
 70
     0
  9
$DIMADEC
 70
     2
  9
$DIMALTRND
 40
0.0
  9
$DIMAZIN
 70
     0
  9
$DIMDSEP
 70
    44
  9
$DIMATFIT
 70
     3
  9
$DIMFRAC
 70
     0
  9
$DIMLDRBLK
  1

  9
$DIMLUNIT
 70
     2
  9
$DIMLWD
 70
    -2
  9
$DIMLWE
 70
    -2
  9
$DIMTMOVE
 70
     0
  9
$LUNITS
 70
     2
  9
$LUPREC
 70
     2
  9
$SKETCHINC
 40
1.0
  9
$FILLETRAD
 40
10.0
  9
$AUNITS
 70
     0
  9
$AUPREC
 70
     2
  9
$MENU
  1
.
  9
$ELEVATION
 40
0.0
  9
$PELEVATION
 40
0.0
  9
$THICKNESS
 40
0.0
  9
$LIMCHECK
 70
     0
  9
$CHAMFERA
 40
0.0
  9
$CHAMFERB
 40
0.0
  9
$CHAMFERC
 40
0.0
  9
$CHAMFERD
 40
0.0
  9
$SKPOLY
 70
     0
  9
$TDCREATE
 40
2458262.53928904
  9
$TDUCREATE
 40
2458262.16428904
  9
$TDUPDATE
 40
2458266.383858808
  9
$TDUUPDATE
 40
2458266.008858808
  9
$TDINDWG
 40
0.0014993634
  9
$TDUSRTIMER
 40
2458266.007359491
  9
$USRTIMER
 70
     1
  9
$ANGBASE
 50
0.0
  9
$ANGDIR
 70
     0
  9
$PDMODE
 70
     0
  9
$PDSIZE
 40
-1.0
  9
$PLINEWID
 40
0.0
  9
$SPLFRAME
 70
     0
  9
$SPLINETYPE
 70
     6
  9
$SPLINESEGS
 70
     8
  9
$HANDSEED
  5
150
  9
$SURFTAB1
 70
     6
  9
$SURFTAB2
 70
     6
  9
$SURFTYPE
 70
     6
  9
$SURFU
 70
     6
  9
$SURFV
 70
     6
  9
$UCSBASE
  2

  9
$UCSNAME
  2

  9
$UCSORG
 10
0.0
 20
0.0
 30
0.0
  9
$UCSXDIR
 10
1.0
 20
0.0
 30
0.0
  9
$UCSYDIR
 10
0.0
 20
1.0
 30
0.0
  9
$UCSORTHOREF
  2

  9
$UCSORTHOVIEW
 70
     0
  9
$UCSORGTOP
 10
0.0
 20
0.0
 30
0.0
  9
$UCSORGBOTTOM
 10
0.0
 20
0.0
 30
0.0
  9
$UCSORGLEFT
 10
0.0
 20
0.0
 30
0.0
  9
$UCSORGRIGHT
 10
0.0
 20
0.0
 30
0.0
  9
$UCSORGFRONT
 10
0.0
 20
0.0
 30
0.0
  9
$UCSORGBACK
 10
0.0
 20
0.0
 30
0.0
  9
$PUCSBASE
  2

  9
$PUCSNAME
  2

  9
$PUCSORG
 10
0.0
 20
0.0
 30
0.0
  9
$PUCSXDIR
 10
1.0
 20
0.0
 30
0.0
  9
$PUCSYDIR
 10
0.0
 20
1.0
 30
0.0
  9
$PUCSORTHOREF
  2

  9
$PUCSORTHOVIEW
 70
     0
  9
$PUCSORGTOP
 10
0.0
 20
0.0
 30
0.0
  9
$PUCSORGBOTTOM
 10
0.0
 20
0.0
 30
0.0
  9
$PUCSORGLEFT
 10
0.0
 20
0.0
 30
0.0
  9
$PUCSORGRIGHT
 10
0.0
 20
0.0
 30
0.0
  9
$PUCSORGFRONT
 10
0.0
 20
0.0
 30
0.0
  9
$PUCSORGBACK
 10
0.0
 20
0.0
 30
0.0
  9
$USERI1
 70
     0
  9
$USERI2
 70
     0
  9
$USERI3
 70
     0
  9
$USERI4
 70
     0
  9
$USERI5
 70
     0
  9
$USERR1
 40
0.0
  9
$USERR2
 40
0.0
  9
$USERR3
 40
0.0
  9
$USERR4
 40
0.0
  9
$USERR5
 40
0.0
  9
$WORLDVIEW
 70
     1
  9
$SHADEDGE
 70
     3
  9
$SHADEDIF
 70
    70
  9
$TILEMODE
 70
     1
  9
$MAXACTVP
 70
    64
  9
$PINSBASE
 10
0.0
 20
0.0
 30
0.0
  9
$PLIMCHECK
 70
     0
  9
$PEXTMIN
 10
1.000000000000000E+20
 20
1.000000000000000E+20
 30
1.000000000000000E+20
  9
$PEXTMAX
 10
-1.000000000000000E+20
 20
-1.000000000000000E+20
 30
-1.000000000000000E+20
  9
$PLIMMIN
 10
0.0
 20
0.0
  9
$PLIMMAX
 10
0.0
 20
0.0
  9
$UNITMODE
 70
     0
  9
$VISRETAIN
 70
     1
  9
$PLINEGEN
 70
     0
  9
$PSLTSCALE
 70
     1
  9
$TREEDEPTH
 70
  3020
  9
$CMLSTYLE
  2
Standard
  9
$CMLJUST
 70
     0
  9
$CMLSCALE
 40
20.0
  9
$PROXYGRAPHICS
 70
     1
  9
$MEASUREMENT
 70
     1
  9
$CELWEIGHT
370
    -1
  9
$ENDCAPS
280
     0
  9
$JOINSTYLE
280
     0
  9
$LWDISPLAY
290
     1
  9
$INSUNITS
 70
     4
  9
$HYPERLINKBASE
  1

  9
$STYLESHEET
  1

  9
$XEDIT
290
     1
  9
$CEPSNTYPE
380
     0
  9
$PSTYLEMODE
290
     1
  9
$FINGERPRINTGUID
  2
{1F460CEE-E8C3-45FB-A184-13D59CC13C3F}
  9
$VERSIONGUID
  2
{FAEB1C32-E019-11D5-929B-00C0DF256EC4}
  9
$EXTNAMES
290
     1
  9
$PSVPSCALE
 40
0.0
  9
$OLESTARTUP
290
     0
  0
ENDSEC
  0
SECTION
  2
CLASSES
  0
CLASS
  1
ACDBDICTIONARYWDFLT
  2
AcDbDictionaryWithDefault
  3
ObjectDBX Classes
 90
        0
280
     0
281
     0
  0
CLASS
  1
VISUALSTYLE
  2
AcDbVisualStyle
  3
ObjectDBX Classes
 90
     4095
280
     0
281
     0
  0
CLASS
  1
MATERIAL
  2
AcDbMaterial
  3
ObjectDBX Classes
 90
     1153
280
     0
281
     0
  0
CLASS
  1
SCALE
  2
AcDbScale
  3
ObjectDBX Classes
 90
     1153
280
     0
281
     0
  0
CLASS
  1
SUN
  2
AcDbSun
  3
SCENEOE
 90
     1153
280
     0
281
     0
  0
CLASS
  1
ACDBPLACEHOLDER
  2
AcDbPlaceHolder
  3
ObjectDBX Classes
 90
        0
280
     0
281
     0
  0
CLASS
  1
LAYOUT
  2
AcDbLayout
  3
ObjectDBX Classes
 90
        0
280
     0
281
     0
  0
CLASS
  1
TABLESTYLE
  2
AcDbTableStyle
  3
ObjectDBX Classes
 90
     4095
280
     0
281
     0
  0
CLASS
  1
MLEADERSTYLE
  2
AcDbMLeaderStyle
  3
ACDB_MLEADERSTYLE_CLASS
 90
     4095
280
     0
281
     0
  0
CLASS
  1
RASTERVARIABLES
  2
AcDbRasterVariables
  3
ISM
 90
        0
280
     0
281
     0
  0
ENDSEC
  0
SECTION
  2
TABLES
  0
TABLE
  2
VPORT
  5
8
330
0
100
AcDbSymbolTable
 70
     1
  0
VPORT
  5
29
330
8
100
AcDbSymbolTableRecord
100
AcDbViewportTableRecord
  2
*Active
 70
     0
 10
0.0
 20
0.0
 11
1.0
 21
1.0
 12
-3.97370407492145
 22
-10.67866100992259
 13
0.0
 23
0.0
 14
10.0
 24
10.0
 15
10.0
 25
10.0
 16
0.0
 26
0.0
 36
1.0
 17
0.0
 27
0.0
 37
0.0
 40
81.52096273400068
 41
1.152454780361757
 42
50.0
 43
0.0
 44
0.0
 50
0.0
 51
0.0
 71
    16
 72
  2000
 73
     1
 74
     3
 75
     0
 76
     0
 77
     0
 78
     0
281
     0
 65
     1
110
0.0
120
0.0
130
0.0
111
1.0
121
0.0
131
0.0
112
0.0
122
1.0
132
0.0
 79
     0
146
0.0
  0
ENDTAB
  0
TABLE
  2
LTYPE
  5
5
330
0
100
AcDbSymbolTable
 70
     6
  0
LTYPE
  5
14
330
5
100
AcDbSymbolTableRecord
100
AcDbLinetypeTableRecord
  2
ByBlock
 70
     0
  3

 72
    65
 73
     0
 40
0.0
  0
LTYPE
  5
15
330
5
100
AcDbSymbolTableRecord
100
AcDbLinetypeTableRecord
  2
ByLayer
 70
     0
  3

 72
    65
 73
     0
 40
0.0
  0
LTYPE
  5
16
330
5
100
AcDbSymbolTableRecord
100
AcDbLinetypeTableRecord
  2
Continuous
 70
     0
  3
Solid line
 72
    65
 73
     0
 40
0.0
  0
LTYPE
  5
6A
330
5
100
AcDbSymbolTableRecord
100
AcDbLinetypeTableRecord
  2
HIDDEN
 70
     0
  3
Hidden __ __ __ __ __ __ __ __ __ __ __ __ __ __
 72
    65
 73
     2
 40
1.905
 49
1.27
 74
     0
 49
-0.635
 74
     0
  0
LTYPE
  5
6B
330
5
100
AcDbSymbolTableRecord
100
AcDbLinetypeTableRecord
  2
PHANTOM
 70
     0
  3
Phantom ______  __  __  ______  __  __  ______
 72
    65
 73
     6
 40
12.7
 49
6.35
 74
     0
 49
-1.27
 74
     0
 49
1.27
 74
     0
 49
-1.27
 74
     0
 49
1.27
 74
     0
 49
-1.27
 74
     0
  0
LTYPE
  5
6C
330
5
100
AcDbSymbolTableRecord
100
AcDbLinetypeTableRecord
  2
CENTER
 70
     0
  3
Center ____ _ ____ _ ____ _ ____ _ ____ _ ____
 72
    65
 73
     4
 40
10.16
 49
6.35
 74
     0
 49
-1.27
 74
     0
 49
1.27
 74
     0
 49
-1.27
 74
     0
  0
LTYPE
  5
6D
330
5
100
AcDbSymbolTableRecord
100
AcDbLinetypeTableRecord
  2
CENTERX2
 70
     0
  3
Center (2x) ________  __  ________  __  _____
 72
    65
 73
     4
 40
20.32
 49
12.7
 74
     0
 49
-2.54
 74
     0
 49
2.54
 74
     0
 49
-2.54
 74
     0
  0
LTYPE
  5
6E
330
5
100
AcDbSymbolTableRecord
100
AcDbLinetypeTableRecord
  2
DOT2
 70
     0
  3
Dot (.5x) ........................................
 72
    65
 73
     2
 40
0.635
 49
0.0
 74
     0
 49
-0.635
 74
     0
  0
ENDTAB
  0
TABLE
  2
LAYER
  5
2
330
0
100
AcDbSymbolTable
 70
    17
  0
LAYER
  5
10
330
2
100
AcDbSymbolTableRecord
100
AcDbLayerTableRecord
  2
0
 70
     0
 62
     7
  6
Continuous
370
    -3
390
F
  0
LAYER
  5
6F
330
2
100
AcDbSymbolTableRecord
100
AcDbLayerTableRecord
  2
FORMAT
 70
     0
 62
     2
  6
Continuous
370
    -3
390
F
  0
LAYER
  5
70
330
2
100
AcDbSymbolTableRecord
100
AcDbLayerTableRecord
  2
외형선
 70
     0
 62
   100
  6
Continuous
370
    30
390
F
  0
LAYER
  5
71
330
2
100
AcDbSymbolTableRecord
100
AcDbLayerTableRecord
  2
숨은선
 70
     0
 62
     2
  6
HIDDEN
370
    15
390
F
  0
LAYER
  5
72
330
2
100
AcDbSymbolTableRecord
100
AcDbLayerTableRecord
  2
중심선
 70
     0
 62
     1
  6
CENTERX2
370
    -3
390
F
  0
LAYER
  5
73
330
2
100
AcDbSymbolTableRecord
100
AcDbLayerTableRecord
  2
파단선
 70
     0
 62
     4
  6
Continuous
370
    -3
390
F
  0
LAYER
  5
74
330
2
100
AcDbSymbolTableRecord
100
AcDbLayerTableRecord
  2
해칭선
 70
     0
 62
     4
  6
Continuous
370
    -3
390
F
  0
LAYER
  5
75
330
2
100
AcDbSymbolTableRecord
100
AcDbLayerTableRecord
  2
가는실선
 70
     0
 62
     4
  6
Continuous
370
    -3
390
F
  0
LAYER
  5
76
330
2
100
AcDbSymbolTableRecord
100
AcDbLayerTableRecord
  2
치수_보조선
 70
     0
 62
     4
  6
Continuous
370
    -3
390
F
  0
LAYER
  5
77
330
2
100
AcDbSymbolTableRecord
100
AcDbLayerTableRecord
  2
치수문자_일반주서
 70
     0
 62
     7
  6
Continuous
370
    15
390
F
  0
LAYER
  5
78
330
2
100
AcDbSymbolTableRecord
100
AcDbLayerTableRecord
  2
개별주서
 70
     0
 62
   100
  6
Continuous
370
    30
390
F
  0
LAYER
  5
79
330
2
100
AcDbSymbolTableRecord
100
AcDbLayerTableRecord
  2
중간선
 70
     0
 62
     2
  6
Continuous
370
    15
390
F
  0
LAYER
  5
7A
330
2
100
AcDbSymbolTableRecord
100
AcDbLayerTableRecord
  2
윤곽선
 70
     0
 62
     3
  6
Continuous
370
    40
390
F
  0
LAYER
  5
7B
330
2
100
AcDbSymbolTableRecord
100
AcDbLayerTableRecord
  2
중심마크
 70
     0
 62
   100
  6
Continuous
370
    30
390
F
  0
LAYER
  5
7C
330
2
100
AcDbSymbolTableRecord
100
AcDbLayerTableRecord
  2
가상선
 70
     0
 62
     4
  6
PHANTOM
370
    -3
390
F
  0
LAYER
  5
7D
330
2
100
AcDbSymbolTableRecord
100
AcDbLayerTableRecord
  2
특수지정선
 70
     0
 62
     5
  6
CENTERX2
370
    60
390
F
  0
LAYER
  5
141
330
2
100
AcDbSymbolTableRecord
100
AcDbLayerTableRecord
  2
Defpoints
 70
     0
 62
     7
  6
Continuous
290
     0
370
    -3
390
F
  0
ENDTAB
  0
TABLE
  2
STYLE
  5
3
330
0
100
AcDbSymbolTable
 70
     2
  0
STYLE
  5
11
330
3
100
AcDbSymbolTableRecord
100
AcDbTextStyleTableRecord
  2
Standard
 70
     0
 40
0.0
 41
1.0
 50
0.0
 71
     0
 42
3.5
  3
txt
  4

  0
STYLE
  5
93
330
3
100
AcDbSymbolTableRecord
100
AcDbTextStyleTableRecord
  2
SLDTEXTSTYLE0
 70
     0
 40
0.0
 41
0.75
 50
0.0
 71
     0
 42
3.5
  3
TXT
  4

  0
ENDTAB
  0
TABLE
  2
VIEW
  5
6
330
0
100
AcDbSymbolTable
 70
     0
  0
ENDTAB
  0
TABLE
  2
UCS
  5
7
330
0
100
AcDbSymbolTable
 70
     0
  0
ENDTAB
  0
TABLE
  2
APPID
  5
9
330
0
100
AcDbSymbolTable
 70
     1
  0
APPID
  5
12
330
9
100
AcDbSymbolTableRecord
100
AcDbRegAppTableRecord
  2
ACAD
 70
     0
  0
ENDTAB
  0
TABLE
  2
DIMSTYLE
  5
A
330
0
100
AcDbSymbolTable
 70
     3
100
AcDbDimStyleTable
  0
DIMSTYLE
105
27
330
A
100
AcDbSymbolTableRecord
100
AcDbDimStyleTableRecord
  2
ISO-25
 70
     0
 41
2.5
 42
0.625
 43
3.75
 44
1.25
 73
     0
 74
     0
 77
     1
 78
     8
140
2.5
141
2.5
143
0.03937007874016
147
0.625
171
     3
172
     1
178
     0
271
     2
272
     2
274
     3
278
    44
283
     0
284
     8
340
11
  0
DIMSTYLE
105
E7
102
{ACAD_REACTORS
330
E6
330
109
102
}
330
A
100
AcDbSymbolTableRecord
100
AcDbDimStyleTableRecord
  2
SLDDIMSTYLE0
 70
     0
 41
3.302
 44
0.0
 45
0.000000001
 73
     0
 74
     0
 77
     1
 78
    12
 79
     3
140
3.5
147
0.875
172
     1
173
     1
178
     0
271
     2
272
     2
276
     2
284
    12
289
     0
340
93
  0
DIMSTYLE
105
F5
102
{ACAD_REACTORS
330
F4
330
FF
102
}
330
A
100
AcDbSymbolTableRecord
100
AcDbDimStyleTableRecord
  2
SLDDIMSTYLE1
 70
     0
 41
3.302
 44
0.0
 45
0.000000001
 73
     0
 74
     0
 77
     1
 78
    12
 79
     3
140
3.5
147
0.875
173
     1
178
     0
271
     2
272
     2
276
     2
284
    12
340
93
  0
ENDTAB
  0
TABLE
  2
BLOCK_RECORD
  5
1
330
0
100
AcDbSymbolTable
 70
     7
  0
BLOCK_RECORD
  5
1F
330
1
100
AcDbSymbolTableRecord
100
AcDbBlockTableRecord
  2
*Model_Space
340
22
  0
BLOCK_RECORD
  5
1B
330
1
100
AcDbSymbolTableRecord
100
AcDbBlockTableRecord
  2
*Paper_Space
340
1E
  0
BLOCK_RECORD
  5
23
330
1
100
AcDbSymbolTableRecord
100
AcDbBlockTableRecord
  2
*Paper_Space0
340
26
  0
BLOCK_RECORD
  5
7E
330
1
100
AcDbSymbolTableRecord
100
AcDbBlockTableRecord
  2
블럭10
340
0
102
{BLKREFS
331
DF
102
}
  0
BLOCK_RECORD
  5
E8
330
1
100
AcDbSymbolTableRecord
100
AcDbBlockTableRecord
  2
_D
340
0
  0
BLOCK_RECORD
  5
F6
330
1
100
AcDbSymbolTableRecord
100
AcDbBlockTableRecord
  2
_D_1
340
0
  0
BLOCK_RECORD
  5
100
330
1
100
AcDbSymbolTableRecord
100
AcDbBlockTableRecord
  2
_D_2
340
0
  0
BLOCK_RECORD
  5
10A
330
1
100
AcDbSymbolTableRecord
100
AcDbBlockTableRecord
  2
_D_3
340
0
  0
BLOCK_RECORD
  5
116
330
1
100
AcDbSymbolTableRecord
100
AcDbBlockTableRecord
  2
SW_DOWELSYMBOL_0
340
0
102
{BLKREFS
331
11C
102
}
  0
ENDTAB
  0
ENDSEC
  0
SECTION
  2
BLOCKS
  0
BLOCK
  5
20
330
1F
100
AcDbEntity
  8
0
100
AcDbBlockBegin
  2
*Model_Space
 70
     0
 10
0.0
 20
0.0
 30
0.0
  3
*Model_Space
  1

  0
ENDBLK
  5
21
330
1F
100
AcDbEntity
  8
0
100
AcDbBlockEnd
  0
BLOCK
  5
1C
330
1B
100
AcDbEntity
 67
     1
  8
0
100
AcDbBlockBegin
  2
*Paper_Space
 70
     0
 10
0.0
 20
0.0
 30
0.0
  3
*Paper_Space
  1

  0
ENDBLK
  5
1D
330
1B
100
AcDbEntity
 67
     1
  8
0
100
AcDbBlockEnd
  0
BLOCK
  5
24
330
23
100
AcDbEntity
  8
0
100
AcDbBlockBegin
  2
*Paper_Space0
 70
     0
 10
0.0
 20
0.0
 30
0.0
  3
*Paper_Space0
  1

  0
ENDBLK
  5
25
330
23
100
AcDbEntity
  8
0
100
AcDbBlockEnd
  0
BLOCK
  5
7F
330
7E
100
AcDbEntity
  8
0
100
AcDbBlockBegin
  2
블럭10
 70
     2
 10
0.0
 20
0.0
 30
0.0
  3
블럭10
  1

  0
ELLIPSE
  5
81
330
7E
100
AcDbEntity
  8
중심선
100
AcDbEllipse
 10
20.54032771741204
 20
12.0471743016438
 30
0.0
 11
6.600054785286829
 21
-1.261213355974178E-13
 31
0.0
210
0.0
220
0.0
230
1.0
 40
0.636358354079598
 41
0.9219305317359503
 42
6.513795318482858
  0
ELLIPSE
  5
82
330
7E
100
AcDbEntity
  8
중심선
100
AcDbEllipse
 10
20.54032771746488
 20
12.04717430159265
 30
0.0
 11
3.960054785062283
 21
1.540847449632565E-10
 31
0.0
210
0.0
220
0.0
230
1.0
 40
0.3939339440162632
 41
1.131841032648279
 42
5.62031148352944
  0
LINE
  5
83
330
7E
100
AcDbEntity
  8
중심선
100
AcDbLine
 10
2.268634060543552
 20
16.24717430164393
 30
0.0
 11
5.714909304380834
 21
16.24717430164393
 31
0.0
  0
LINE
  5
84
330
7E
100
AcDbEntity
  8
중심선
100
AcDbLine
 10
5.245725140726316
 20
7.84717430164391
 30
0.0
 11
8.692000384563599
 21
7.84717430164391
 31
0.0
  0
LINE
  5
85
330
7E
100
AcDbEntity
  8
중심선
100
AcDbLine
 10
15.74043728645272
 20
16.24717430164393
 30
0.0
 11
8.692000384563599
 21
7.84717430164391
 31
0.0
  0
LINE
  5
86
330
7E
100
AcDbEntity
  8
중심선
100
AcDbLine
 10
0.1404042013395286
 20
13.71084872107135
 30
0.0
 11
3.58671253028996
 21
13.71088815037384
 31
0.0
  0
LINE
  5
87
330
7E
100
AcDbEntity
  8
중심선
100
AcDbLine
 10
2.750260043222114
 20
10.84717430164391
 30
0.0
 11
6.196535287059397
 21
10.84717430164391
 31
0.0
  0
LINE
  5
88
330
7E
100
AcDbEntity
  8
중심선
100
AcDbLine
 10
12.29416204261559
 20
16.24717430164393
 30
0.0
 11
5.245725140726316
 21
7.84717430164391
 31
0.0
  0
LINE
  5
89
330
7E
100
AcDbEntity
  8
중심선
100
AcDbLine
 10
10.72767329541681
 20
16.24717430164393
 30
0.0
 11
6.196535287059397
 21
10.84717430164391
 31
0.0
  0
LINE
  5
8A
330
7E
100
AcDbEntity
  8
중심선
100
AcDbLine
 10
7.28139805157953
 20
16.24717430164393
 30
0.0
 11
2.750260043222114
 21
10.84717430164391
 31
0.0
  0
LINE
  5
8B
330
7E
100
AcDbEntity
  8
중심선
100
AcDbLine
 10
5.714909304380834
 20
16.24717430164393
 30
0.0
 11
3.58671253028996
 21
13.71088815037384
 31
0.0
  0
LINE
  5
8C
330
7E
100
AcDbEntity
  8
중심선
100
AcDbLine
 10
2.268634060543552
 20
16.24717430164393
 30
0.0
 11
0.1404042013395286
 21
13.71084872107135
 31
0.0
  0
LINE
  5
8D
330
7E
100
AcDbEntity
  8
중심선
100
AcDbLine
 10
7.28139805157953
 20
16.24717430164393
 30
0.0
 11
10.72767329541681
 21
16.24717430164393
 31
0.0
  0
LINE
  5
8E
330
7E
100
AcDbEntity
  8
중심선
100
AcDbLine
 10
12.29416204261559
 20
16.24717430164393
 30
0.0
 11
15.74043728645272
 21
16.24717430164393
 31
0.0
  0
LINE
  5
8F
330
7E
100
AcDbEntity
  8
중심선
100
AcDbLine
 10
19.22036997980202
 20
11.08717430171403
 30
0.0
 11
23.66174974927406
 21
11.08717430171406
 31
0.0
  0
LINE
  5
90
330
7E
100
AcDbEntity
  8
중심선
100
AcDbLine
 10
19.22039502424796
 20
13.00717430171391
 30
0.0
 11
19.22036997980202
 21
11.08717430171403
 31
0.0
  0
LINE
  5
91
330
7E
100
AcDbEntity
  8
중심선
100
AcDbLine
 10
19.22039502424796
 20
13.00717430171391
 30
0.0
 11
26.96566020931264
 21
13.00717430171391
 31
0.0
  0
LINE
  5
92
330
7E
100
AcDbEntity
  8
중심선
100
AcDbLine
 10
22.22332737316547
 20
13.45928029700563
 30
0.0
 11
24.52862924686651
 21
15.39360700705356
 31
0.0
  0
ATTDEF
  5
94
330
7E
100
AcDbEntity
  8
FORMAT
 62
     2
100
AcDbText
 10
-16.11926103943555
 20
2.075366912832191
 30
0.0
 40
4.233333333333333
  1
SEME7004026E [ 2 FLUTE ]
 41
0.75
  7
SLDTEXTSTYLE0
 11
-16.11926103943555
 21
-0.0412997538344756
 31
0.0
100
AcDbAttributeDefinition
  3

  2
AUTOATTR0
 70
     0
 74
     1
  0
ENDBLK
  5
80
330
7E
100
AcDbEntity
  8
0
100
AcDbBlockEnd
  0
BLOCK
  5
E9
330
E8
100
AcDbEntity
  8
0
100
AcDbBlockBegin
  2
_D
 70
     0
 10
0.0
 20
0.0
 30
0.0
  3
_D
  1

  0
LINE
  5
EB
330
E8
100
AcDbEntity
  8
치수문자_일반주서
 62
     0
370
    -2
100
AcDbLine
 10
32.79455080756875
 20
-1.999999999999903
 30
0.0
 11
41.52950337728037
 21
-1.999999999999872
 31
0.0
  0
LINE
  5
EC
330
E8
100
AcDbEntity
  8
치수문자_일반주서
 62
     0
370
    -2
100
AcDbLine
 10
32.79455080756873
 20
2.000000000000095
 30
0.0
 11
41.52950337728036
 21
2.000000000000128
 31
0.0
  0
LINE
  5
ED
330
E8
100
AcDbEntity
  8
치수문자_일반주서
 62
     0
370
    -2
100
AcDbLine
 10
41.52950337728037
 20
-1.999999999999872
 30
0.0
 11
41.52950337728031
 21
14.72900000000013
 31
0.0
  0
LINE
  5
EE
330
E8
100
AcDbEntity
  8
치수문자_일반주서
 62
     0
370
    -2
100
AcDbLine
 10
41.52950337728037
 20
-1.999999999999872
 30
0.0
 11
41.52950337728036
 21
2.000000000000128
 31
0.0
  0
LINE
  5
EF
330
E8
100
AcDbEntity
  8
치수문자_일반주서
 62
     0
370
    -2
100
AcDbLine
 10
41.52950337728038
 20
-5.301999999999872
 30
0.0
 11
41.5295033772804
 21
-8.603999999999871
 31
0.0
  0
LINE
  5
F0
330
E8
100
AcDbEntity
  8
치수문자_일반주서
 62
     0
370
    -2
100
AcDbLine
 10
41.52950337728034
 20
5.302000000000127
 30
0.0
 11
41.52950337728033
 21
8.604000000000127
 31
0.0
  0
SOLID
  5
F1
330
E8
100
AcDbEntity
  8
치수문자_일반주서
 62
     0
100
AcDbTrace
 10
42.07983671061372
 20
-5.30199999999987
 30
0.0
 11
40.97917004394705
 21
-5.301999999999873
 31
0.0
 12
41.52950337728037
 22
-1.999999999999872
 32
0.0
 13
41.52950337728037
 23
-1.999999999999872
 33
0.0
  0
SOLID
  5
F2
330
E8
100
AcDbEntity
  8
치수문자_일반주서
 62
     0
100
AcDbTrace
 10
40.97917004394701
 20
5.302000000000126
 30
0.0
 11
42.07983671061368
 21
5.302000000000129
 31
0.0
 12
41.52950337728036
 22
2.000000000000128
 32
0.0
 13
41.52950337728036
 23
2.000000000000128
 33
0.0
  0
MTEXT
  5
F3
330
E8
100
AcDbEntity
  8
치수문자_일반주서
 62
     0
100
AcDbMText
 10
37.15450337728032
 20
11.66650000000011
 30
0.0
 40
3.5
 41
0.0
 71
     2
 72
     1
  1
\A1;%%c4
  7
SLDTEXTSTYLE0
 11
-3.552713678800503E-15
 21
1.0
 31
0.0
 73
     1
 44
1.0
  0
POINT
  5
148
330
E8
100
AcDbEntity
  8
Defpoints
 62
     0
100
AcDbPoint
 10
32.73205080756875
 20
-1.999999999999903
 30
0.0
  0
POINT
  5
149
330
E8
100
AcDbEntity
  8
Defpoints
 62
     0
100
AcDbPoint
 10
32.73205080756873
 20
2.000000000000095
 30
0.0
  0
POINT
  5
14A
330
E8
100
AcDbEntity
  8
Defpoints
 62
     0
100
AcDbPoint
 10
41.52950337728036
 20
2.000000000000128
 30
0.0
  0
ENDBLK
  5
EA
330
E8
100
AcDbEntity
  8
0
100
AcDbBlockEnd
  0
BLOCK
  5
F7
330
F6
100
AcDbEntity
  8
0
100
AcDbBlockBegin
  2
_D_1
 70
     0
 10
0.0
 20
0.0
 30
0.0
  3
_D_1
  1

  0
LINE
  5
F9
330
F6
100
AcDbEntity
  8
치수문자_일반주서
 62
     0
370
    -2
100
AcDbLine
 10
-37.26794919243113
 20
2.512499999999995
 30
0.0
 11
-37.26794919243113
 21
24.23841044024269
 31
0.0
  0
LINE
  5
FA
330
F6
100
AcDbEntity
  8
치수문자_일반주서
 62
     0
370
    -2
100
AcDbLine
 10
32.73205080756873
 20
2.062500000000095
 30
0.0
 11
32.73205080756873
 21
24.23841044024269
 31
0.0
  0
LINE
  5
FB
330
F6
100
AcDbEntity
  8
치수문자_일반주서
 62
     0
370
    -2
100
AcDbLine
 10
-33.96594919243113
 20
24.23841044024269
 30
0.0
 11
29.43005080756873
 21
24.23841044024269
 31
0.0
  0
SOLID
  5
FC
330
F6
100
AcDbEntity
  8
치수문자_일반주서
 62
     0
100
AcDbTrace
 10
-33.96594919243113
 20
24.78874377357602
 30
0.0
 11
-33.96594919243113
 21
23.68807710690935
 31
0.0
 12
-37.26794919243113
 22
24.23841044024269
 32
0.0
 13
-37.26794919243113
 23
24.23841044024269
 33
0.0
  0
SOLID
  5
FD
330
F6
100
AcDbEntity
  8
치수문자_일반주서
 62
     0
100
AcDbTrace
 10
29.43005080756873
 20
23.68807710690935
 30
0.0
 11
29.43005080756873
 21
24.78874377357602
 31
0.0
 12
32.73205080756873
 22
24.23841044024269
 32
0.0
 13
32.73205080756873
 23
24.23841044024269
 33
0.0
  0
MTEXT
  5
FE
330
F6
100
AcDbEntity
  8
치수문자_일반주서
 62
     0
100
AcDbMText
 10
-2.267949192431198
 20
28.61341044024269
 30
0.0
 40
3.5
 41
0.0
 71
     2
 72
     1
  1
\A1;70
  7
SLDTEXTSTYLE0
 73
     1
 44
1.0
  0
POINT
  5
142
330
F6
100
AcDbEntity
  8
Defpoints
 62
     0
100
AcDbPoint
 10
-37.26794919243113
 20
2.449999999999995
 30
0.0
  0
POINT
  5
143
330
F6
100
AcDbEntity
  8
Defpoints
 62
     0
100
AcDbPoint
 10
32.73205080756873
 20
2.000000000000095
 30
0.0
  0
POINT
  5
144
330
F6
100
AcDbEntity
  8
Defpoints
 62
     0
100
AcDbPoint
 10
32.73205080756873
 20
24.23841044024269
 30
0.0
  0
ENDBLK
  5
F8
330
F6
100
AcDbEntity
  8
0
100
AcDbBlockEnd
  0
BLOCK
  5
101
330
100
100
AcDbEntity
  8
0
100
AcDbBlockBegin
  2
_D_2
 70
     0
 10
0.0
 20
0.0
 30
0.0
  3
_D_2
  1

  0
LINE
  5
103
330
100
100
AcDbEntity
  8
치수문자_일반주서
 62
     0
370
    -2
100
AcDbLine
 10
6.732050807568873
 20
1.566248992518296
 30
0.0
 11
6.732050807568875
 21
14.85074679868582
 31
0.0
  0
LINE
  5
104
330
100
100
AcDbEntity
  8
치수문자_일반주서
 62
     0
370
    -2
100
AcDbLine
 10
32.73205080756873
 20
2.062500000000095
 30
0.0
 11
32.73205080756873
 21
14.85074679868582
 31
0.0
  0
LINE
  5
105
330
100
100
AcDbEntity
  8
치수문자_일반주서
 62
     0
370
    -2
100
AcDbLine
 10
10.03405080756887
 20
14.85074679868582
 30
0.0
 11
29.43005080756873
 21
14.85074679868582
 31
0.0
  0
SOLID
  5
106
330
100
100
AcDbEntity
  8
치수문자_일반주서
 62
     0
100
AcDbTrace
 10
10.03405080756887
 20
15.40108013201915
 30
0.0
 11
10.03405080756887
 21
14.30041346535248
 31
0.0
 12
6.732050807568875
 22
14.85074679868582
 32
0.0
 13
6.732050807568875
 23
14.85074679868582
 33
0.0
  0
SOLID
  5
107
330
100
100
AcDbEntity
  8
치수문자_일반주서
 62
     0
100
AcDbTrace
 10
29.43005080756873
 20
14.30041346535248
 30
0.0
 11
29.43005080756873
 21
15.40108013201915
 31
0.0
 12
32.73205080756873
 22
14.85074679868582
 32
0.0
 13
32.73205080756873
 23
14.85074679868582
 33
0.0
  0
MTEXT
  5
108
330
100
100
AcDbEntity
  8
치수문자_일반주서
 62
     0
100
AcDbMText
 10
19.73205080756887
 20
19.22574679868582
 30
0.0
 40
3.5
 41
0.0
 71
     2
 72
     1
  1
\A1;26
  7
SLDTEXTSTYLE0
 73
     1
 44
1.0
  0
POINT
  5
145
330
100
100
AcDbEntity
  8
Defpoints
 62
     0
100
AcDbPoint
 10
6.732050807568873
 20
1.503748992518296
 30
0.0
  0
POINT
  5
146
330
100
100
AcDbEntity
  8
Defpoints
 62
     0
100
AcDbPoint
 10
32.73205080756873
 20
2.000000000000095
 30
0.0
  0
POINT
  5
147
330
100
100
AcDbEntity
  8
Defpoints
 62
     0
100
AcDbPoint
 10
32.73205080756873
 20
14.85074679868582
 30
0.0
  0
ENDBLK
  5
102
330
100
100
AcDbEntity
  8
0
100
AcDbBlockEnd
  0
BLOCK
  5
10B
330
10A
100
AcDbEntity
  8
0
100
AcDbBlockBegin
  2
_D_3
 70
     0
 10
0.0
 20
0.0
 30
0.0
  3
_D_3
  1

  0
LINE
  5
10D
330
10A
100
AcDbEntity
  8
치수문자_일반주서
 62
     0
370
    -2
100
AcDbLine
 10
-36.78044919243112
 20
2.999999999999996
 30
0.0
 11
-45.65224486045657
 21
2.999999999999963
 31
0.0
  0
LINE
  5
10E
330
10A
100
AcDbEntity
  8
치수문자_일반주서
 62
     0
370
    -2
100
AcDbLine
 10
-36.78044919243112
 20
-3.000000000000001
 30
0.0
 11
-45.65224486045655
 21
-3.000000000000036
 31
0.0
  0
LINE
  5
10F
330
10A
100
AcDbEntity
  8
치수문자_일반주서
 62
     0
370
    -2
100
AcDbLine
 10
-45.65224486045657
 20
2.999999999999963
 30
0.0
 11
-45.65224486045662
 21
15.72899999999996
 31
0.0
  0
LINE
  5
110
330
10A
100
AcDbEntity
  8
치수문자_일반주서
 62
     0
370
    -2
100
AcDbLine
 10
-45.65224486045657
 20
2.999999999999963
 30
0.0
 11
-45.65224486045655
 21
-3.000000000000036
 31
0.0
  0
LINE
  5
111
330
10A
100
AcDbEntity
  8
치수문자_일반주서
 62
     0
370
    -2
100
AcDbLine
 10
-45.65224486045658
 20
6.301999999999962
 30
0.0
 11
-45.6522448604566
 21
9.603999999999962
 31
0.0
  0
LINE
  5
112
330
10A
100
AcDbEntity
  8
치수문자_일반주서
 62
     0
370
    -2
100
AcDbLine
 10
-45.65224486045653
 20
-6.302000000000035
 30
0.0
 11
-45.65224486045652
 21
-9.604000000000035
 31
0.0
  0
SOLID
  5
113
330
10A
100
AcDbEntity
  8
치수문자_일반주서
 62
     0
100
AcDbTrace
 10
-46.20257819378992
 20
6.301999999999961
 30
0.0
 11
-45.10191152712325
 21
6.301999999999964
 31
0.0
 12
-45.65224486045657
 22
2.999999999999963
 32
0.0
 13
-45.65224486045657
 23
2.999999999999963
 33
0.0
  0
SOLID
  5
114
330
10A
100
AcDbEntity
  8
치수문자_일반주서
 62
     0
100
AcDbTrace
 10
-45.1019115271232
 20
-6.302000000000033
 30
0.0
 11
-46.20257819378987
 21
-6.302000000000037
 31
0.0
 12
-45.65224486045655
 22
-3.000000000000036
 32
0.0
 13
-45.65224486045655
 23
-3.000000000000036
 33
0.0
  0
MTEXT
  5
115
330
10A
100
AcDbEntity
  8
치수문자_일반주서
 62
     0
100
AcDbMText
 10
-50.02724486045661
 20
12.66649999999995
 30
0.0
 40
3.5
 41
0.0
 71
     2
 72
     1
  1
\A1;%%c6
  7
SLDTEXTSTYLE0
 11
-3.552713678800503E-15
 21
1.0
 31
0.0
 73
     1
 44
1.0
  0
POINT
  5
14B
330
10A
100
AcDbEntity
  8
Defpoints
 62
     0
100
AcDbPoint
 10
-36.71794919243112
 20
2.999999999999996
 30
0.0
  0
POINT
  5
14C
330
10A
100
AcDbEntity
  8
Defpoints
 62
     0
100
AcDbPoint
 10
-36.71794919243112
 20
-3.000000000000001
 30
0.0
  0
POINT
  5
14D
330
10A
100
AcDbEntity
  8
Defpoints
 62
     0
100
AcDbPoint
 10
-45.65224486045655
 20
-3.000000000000034
 30
0.0
  0
ENDBLK
  5
10C
330
10A
100
AcDbEntity
  8
0
100
AcDbBlockEnd
  0
BLOCK
  5
117
330
116
100
AcDbEntity
  8
0
100
AcDbBlockBegin
  2
SW_DOWELSYMBOL_0
 70
     0
 10
0.0
 20
0.0
 30
0.0
  3
SW_DOWELSYMBOL_0
  1

  0
CIRCLE
  5
119
330
116
100
AcDbEntity
  8
외형선
 62
     0
100
AcDbCircle
 10
0.0
 20
0.0
 30
0.0
 40
3.000000000000004
  0
HATCH
  5
11A
330
116
100
AcDbEntity
  8
0
  6
Continuous
 62
     0
370
    30
100
AcDbHatch
 10
0.0
 20
0.0
 30
0.0
210
0.0
220
0.0
230
1.0
  2
SOLID
 70
     1
 71
     0
 91
        1
 92
        0
 93
        3
 72
     2
 10
0.0000000000000104
 20
0.0
 40
3.000000000000004
 50
0.0
 51
90.0
 73
     1
 72
     1
 10
0.0000000000000104
 20
3.000000000000004
 11
0.0000000000000104
 21
0.0
 72
     1
 10
0.0000000000000104
 20
0.0
 11
3.000000000000015
 21
0.0
 97
        0
 75
     0
 76
     1
 98
        1
 10
0.0
 20
0.0
  0
HATCH
  5
11B
330
116
100
AcDbEntity
  8
0
  6
Continuous
 62
     0
370
    30
100
AcDbHatch
 10
0.0
 20
0.0
 30
0.0
210
0.0
220
0.0
230
1.0
  2
SOLID
 70
     1
 71
     0
 91
        1
 92
        0
 93
        3
 72
     2
 10
0.0000000000000104
 20
0.0
 40
3.000000000000004
 50
180.0
 51
270.0000000000008
 73
     1
 72
     1
 10
0.0000000000000104
 20
-3.000000000000004
 11
0.0000000000000104
 21
0.0
 72
     1
 10
0.0000000000000104
 20
0.0
 11
-2.999999999999994
 21
0.0
 97
        0
 75
     0
 76
     1
 98
        1
 10
0.0
 20
0.0
  0
ENDBLK
  5
118
330
116
100
AcDbEntity
  8
0
100
AcDbBlockEnd
  0
ENDSEC
  0
SECTION
  2
ENTITIES
  0
LINE
  5
95
330
1F
100
AcDbEntity
  8
0
  6
Continuous
 62
     1
370
    15
100
AcDbLine
 10
16.13841718681157
 20
0.7772109985456152
 30
0.0
 11
16.11386362198966
 21
0.7899450534639717
 31
0.0
  0
SPLINE
  5
96
330
1F
100
AcDbEntity
  8
0
  6
Continuous
 62
     1
370
    15
100
AcDbSpline
210
0.0
220
0.0
230
1.0
 70
     8
 71
     3
 72
     9
 73
     5
 74
     0
 42
0.000000001
 43
0.00000001
 40
0.0
 40
0.0
 40
0.0
 40
0.0
 40
0.5861911825439462
 40
1.0
 40
1.0
 40
1.0
 40
1.0
 10
16.66651594224825
 20
0.5126528632732094
 30
0.0
 10
16.56345014041743
 20
0.5620852862473564
 30
0.0
 10
16.38762729473157
 20
0.6464134447836564
 30
0.0
 10
16.21135868978085
 20
0.7389277594116482
 30
0.0
 10
16.13841718681157
 20
0.7772109985456152
 30
0.0
  0
SPLINE
  5
97
330
1F
100
AcDbEntity
  8
0
  6
Continuous
 62
     1
370
    15
100
AcDbSpline
210
0.0
220
0.0
230
1.0
 70
     8
 71
     3
 72
     9
 73
     5
 74
     0
 42
0.000000001
 43
0.00000001
 40
0.0
 40
0.0
 40
0.0
 40
0.0
 40
0.5222030050624626
 40
1.0
 40
1.0
 40
1.0
 40
1.0
 10
27.54957155626385
 20
0.5125315644068444
 30
0.0
 10
27.45333314931056
 20
0.5586459401423371
 30
0.0
 10
27.26904005635568
 20
0.6469533134979859
 30
0.0
 10
27.08462097953021
 20
0.7437684671803787
 30
0.0
 10
26.99650609881385
 20
0.7900264566742421
 30
0.0
  0
LINE
  5
98
330
1F
100
AcDbEntity
  8
0
  6
Continuous
 62
     1
370
    15
100
AcDbLine
 10
21.99158955060518
 20
-2.000000000000003
 30
0.0
 11
22.96075403166908
 21
-2.000000000000003
 31
0.0
  0
LINE
  5
99
330
1F
100
AcDbEntity
  8
0
  6
Continuous
 62
     1
370
    15
100
AcDbLine
 10
12.07830458448697
 20
2.000000000000003
 30
0.0
 11
11.10907723742376
 21
2.000000000000003
 31
0.0
  0
LINE
  5
9A
330
1F
100
AcDbEntity
  8
0
  6
Continuous
 62
     1
370
    15
100
AcDbLine
 10
11.10907723742379
 20
-2.000000000000003
 30
0.0
 11
12.07830458448694
 21
-2.000000000000003
 31
0.0
  0
LINE
  5
9B
330
1F
100
AcDbEntity
  8
0
  6
Continuous
 62
     1
370
    15
100
AcDbLine
 10
22.96075403166907
 20
2.000000000000003
 30
0.0
 11
21.99158955060517
 21
2.000000000000003
 31
0.0
  0
SPLINE
  5
9C
330
1F
100
AcDbEntity
  8
0
  6
Continuous
 62
     1
370
    15
100
AcDbSpline
210
0.0
220
0.0
230
1.0
 70
     8
 71
     3
 72
    17
 73
    13
 74
     0
 42
0.000000001
 43
0.00000001
 40
0.0
 40
0.0
 40
0.0
 40
0.0
 40
0.1323119282903902
 40
0.2275971378339636
 40
0.3108990100584156
 40
0.398697214527751
 40
0.4867921617330671
 40
0.5772097286068529
 40
0.6681722812274581
 40
0.7472159272093679
 40
0.8497945282300744
 40
1.0
 40
1.0
 40
1.0
 40
1.0
 10
12.99954719334282
 20
-1.664251302751923
 30
0.0
 10
13.13272066256639
 20
-1.651521988267463
 30
0.0
 10
13.36179978507892
 20
-1.629625583455849
 30
0.0
 10
13.67280909587267
 20
-1.606793627800329
 30
0.0
 10
13.93892310471016
 20
-1.590432126282275
 30
0.0
 10
14.19888586174741
 20
-1.577791643859646
 30
0.0
 10
14.46565581836411
 20
-1.568465476397327
 30
0.0
 10
14.73590018874798
 20
-1.562937454123618
 30
0.0
 10
14.99703529136034
 20
-1.561304552115882
 30
0.0
 10
15.27028725393972
 20
-1.563382250384421
 30
0.0
 10
15.60242012072557
 20
-1.570369162820628
 30
0.0
 10
15.85623651251287
 20
-1.58222716769164
 30
0.0
 10
16.00705539303201
 20
-1.589273249338468
 30
0.0
  0
SPLINE
  5
9D
330
1F
100
AcDbEntity
  8
0
  6
Continuous
 62
     1
370
    15
100
AcDbSpline
210
0.0
220
0.0
230
1.0
 70
     8
 71
     3
 72
    13
 73
     9
 74
     0
 42
0.000000001
 43
0.00000001
 40
0.0
 40
0.0
 40
0.0
 40
0.0
 40
0.2518362567865058
 40
0.4265636187703929
 40
0.5775816188849767
 40
0.7398944549744297
 40
0.9076915427356229
 40
1.0
 40
1.0
 40
1.0
 40
1.0
 10
26.88994573929011
 20
1.589278259953401
 30
0.0
 10
26.75078478336719
 20
1.582699326079286
 30
0.0
 10
26.51507209565699
 20
1.571555839923626
 30
0.0
 10
26.19882599641593
 20
1.564166072791139
 30
0.0
 10
25.93202908416853
 20
1.561359911681498
 30
0.0
 10
25.66737110860933
 20
1.56247309212072
 30
0.0
 10
25.43523743177783
 20
1.566114984322201
 30
0.0
 10
25.29238135296391
 20
1.571122750027126
 30
0.0
 10
25.24168337862872
 20
1.572899948304531
 30
0.0
  0
SPLINE
  5
9E
330
1F
100
AcDbEntity
  8
0
  6
Continuous
 62
     1
370
    15
100
AcDbSpline
210
0.0
220
0.0
230
1.0
 70
     8
 71
     3
 72
    18
 73
    14
 74
     0
 42
0.000000001
 43
0.00000001
 40
0.0
 40
0.0
 40
0.0
 40
0.0
 40
0.1328288629904694
 40
0.2304819150152116
 40
0.3022539173808187
 40
0.3767486433424114
 40
0.451540526112151
 40
0.5245654814140105
 40
0.6098958940933589
 40
0.6895881683110748
 40
0.7598684496881055
 40
0.8582291124862959
 40
0.9999999999999999
 40
0.9999999999999999
 40
0.9999999999999999
 40
0.9999999999999999
 10
23.88223188888485
 20
-1.664262491916854
 30
0.0
 10
24.01584258746779
 20
-1.651493466882706
 30
0.0
 10
24.24768112754567
 20
-1.62933691689433
 30
0.0
 10
24.5508550563242
 20
-1.607156188009603
 30
0.0
 10
24.79412277258558
 20
-1.592114364170923
 30
0.0
 10
25.01564336581968
 20
-1.580850557593342
 30
0.0
 10
25.23835866532129
 20
-1.57203149352841
 30
0.0
 10
25.47212757149813
 20
-1.565604322705946
 30
0.0
 10
25.71083808793934
 20
-1.562040998074802
 30
0.0
 10
25.94678324765568
 20
-1.561581290118009
 30
0.0
 10
26.19568263027148
 20
-1.564156983069736
 30
0.0
 10
26.50645001136042
 20
-1.571224577457105
 30
0.0
 10
26.74758338618271
 20
-1.582576321612908
 30
0.0
 10
26.88994573929011
 20
-1.589278259953398
 30
0.0
  0
SPLINE
  5
9F
330
1F
100
AcDbEntity
  8
0
  6
Continuous
 62
     1
370
    15
100
AcDbSpline
210
0.0
220
0.0
230
1.0
 70
     8
 71
     3
 72
    15
 73
    11
 74
     0
 42
0.000000001
 43
0.00000001
 40
0.0
 40
0.0
 40
0.0
 40
0.0
 40
0.2351568814163437
 40
0.4052309061614156
 40
0.5208515492066795
 40
0.6325463249948977
 40
0.7461490674459685
 40
0.8578575839035418
 40
0.9671079477599375
 40
1.0
 40
1.0
 40
1.0
 40
1.0
 10
16.007055393032
 20
1.589273249338469
 30
0.0
 10
15.87795113110552
 20
1.583121029148737
 30
0.0
 10
15.65547396295009
 20
1.572519299157364
 30
0.0
 10
15.37047934136029
 20
1.565323003349535
 30
0.0
 10
15.1539632560984
 20
1.56229906391028
 30
0.0
 10
14.96768114905323
 20
1.561617123260942
 30
0.0
 10
14.78319923385936
 20
1.562677607661797
 30
0.0
 10
14.60012213286278
 20
1.565710354540064
 30
0.0
 10
14.46119468383559
 20
1.568797006934838
 30
0.0
 10
14.38346031304464
 20
1.571748725063182
 30
0.0
 10
14.3654724171363
 20
1.572431758808785
 30
0.0
  0
SPLINE
  5
A0
330
1F
100
AcDbEntity
  8
0
  6
Continuous
 62
     1
370
    15
100
AcDbSpline
210
0.0
220
0.0
230
1.0
 70
     8
 71
     3
 72
     9
 73
     5
 74
     0
 42
0.000000001
 43
0.00000001
 40
0.0
 40
0.0
 40
0.0
 40
0.0
 40
0.5004319399906652
 40
1.0
 40
1.0
 40
1.0
 40
1.0
 10
17.61151111296788
 20
-1.504276464346009
 30
0.0
 10
17.862116123511
 20
-1.46711616092406
 30
0.0
 10
18.36289353301809
 20
-1.392859702747864
 30
0.0
 10
18.86332649438966
 20
-1.360902084365465
 30
0.0
 10
19.11332681806678
 20
-1.344937078947652
 30
0.0
  0
SPLINE
  5
A1
330
1F
100
AcDbEntity
  8
0
  6
Continuous
 62
     1
370
    15
100
AcDbSpline
210
0.0
220
0.0
230
1.0
 70
     8
 71
     3
 72
    12
 73
     8
 74
     0
 42
0.000000001
 43
0.00000001
 40
0.0
 40
0.0
 40
0.0
 40
0.0
 40
0.21375496471769
 40
0.4794268960027952
 40
0.6681124587187024
 40
0.7737396052644306
 40
1.0
 40
1.0
 40
1.0
 40
1.0
 10
31.98822618650225
 20
1.367910613220158
 30
0.0
 10
31.73910923163488
 20
1.350246970648793
 30
0.0
 10
31.18036960857409
 20
1.310629526715846
 30
0.0
 10
30.40315325894301
 20
1.31457106855546
 30
0.0
 10
29.7501648937688
 20
1.353059416795233
 30
0.0
 10
29.14521547510365
 20
1.410455788786605
 30
0.0
 10
28.75805675911215
 20
1.466261682274961
 30
0.0
 10
28.49411589659178
 20
1.504306688244453
 30
0.0
  0
SPLINE
  5
A2
330
1F
100
AcDbEntity
  8
0
  6
Continuous
 62
     1
370
    15
100
AcDbSpline
210
0.0
220
0.0
230
1.0
 70
     8
 71
     3
 72
    19
 73
    15
 74
     0
 42
0.000000001
 43
0.00000001
 40
0.0
 40
0.0
 40
0.0
 40
0.0
 40
0.1081951894365541
 40
0.1877279065544899
 40
0.2518869341192516
 40
0.3196725093336993
 40
0.388393796226196
 40
0.4565549421504281
 40
0.5595638990883586
 40
0.6482180261247483
 40
0.6987335770139294
 40
0.7762370536938473
 40
0.882288179233399
 40
1.0
 40
1.0
 40
1.0
 40
1.0
 10
10.22235196295938
 20
1.367886419667767
 30
0.0
 10
10.09890098416857
 20
1.358142426126545
 30
0.0
 10
9.8847029784052
 20
1.341235764023542
 30
0.0
 10
9.598616801992483
 20
1.327220023454024
 30
0.0
 10
9.35840746682945
 20
1.319432042094832
 30
0.0
 10
9.1299930860807
 20
1.315837768629738
 30
0.0
 10
8.897115454898286
 20
1.316115059634714
 30
0.0
 10
8.624544466022558
 20
1.32121016777579
 30
0.0
 10
8.32852638065789
 20
1.333036505777355
 30
0.0
 10
8.053782863089141
 20
1.350389291400789
 30
0.0
 10
7.805062258468494
 20
1.370301172267801
 30
0.0
 10
7.534180362571417
 20
1.396396987296615
 30
0.0
 10
7.184827343359329
 20
1.435753026994889
 30
0.0
 10
6.925269593271677
 20
1.472609009021712
 30
0.0
 10
6.788727704360825
 20
1.491997316255487
 30
0.0
  0
SPLINE
  5
A3
330
1F
100
AcDbEntity
  8
0
  6
Continuous
 62
     1
370
    15
100
AcDbSpline
210
0.0
220
0.0
230
1.0
 70
     8
 71
     3
 72
    13
 73
     9
 74
     0
 42
0.000000001
 43
0.00000001
 40
0.0
 40
0.0
 40
0.0
 40
0.0
 40
0.2929587154234313
 40
0.5107845107038287
 40
0.6622254539174166
 40
0.8196713808610596
 40
0.9940129365885118
 40
1.0
 40
1.0
 40
1.0
 40
1.0
 10
6.73205080756853
 20
-1.499753637555264
 30
0.0
 10
6.87897250875193
 20
-1.479157589592214
 30
0.0
 10
7.13513600654127
 20
-1.44324760730671
 30
0.0
 10
7.468482210335257
 20
-1.404021047433303
 30
0.0
 10
7.727762684757115
 20
-1.377305529189685
 30
0.0
 10
7.96449628436878
 20
-1.357281046920122
 30
0.0
 10
8.130388339751955
 20
-1.344828352146334
 30
0.0
 10
8.2189075320368
 20
-1.340402950449341
 30
0.0
 10
8.221846444450554
 20
-1.34025602335198
 30
0.0
  0
SPLINE
  5
A4
330
1F
100
AcDbEntity
  8
0
  6
Continuous
 62
     1
370
    15
100
AcDbSpline
210
0.0
220
0.0
230
1.0
 70
     8
 71
     3
 72
    12
 73
     8
 74
     0
 42
0.000000001
 43
0.00000001
 40
0.0
 40
0.0
 40
0.0
 40
0.0
 40
0.3021507553411145
 40
0.5141890365194998
 40
0.6464402940685199
 40
0.769751483111512
 40
0.9999999999999999
 40
0.9999999999999999
 40
0.9999999999999999
 40
0.9999999999999999
 10
28.49411589659178
 20
-1.504306688244449
 30
0.0
 10
28.6444166546849
 20
-1.481784630991829
 30
0.0
 10
28.90019295385316
 20
-1.443457422754048
 30
0.0
 10
29.22088949611961
 20
-1.40552426935081
 30
0.0
 10
29.45283083201254
 20
-1.381514975715958
 30
0.0
 10
29.69375434982637
 20
-1.359439025176759
 30
0.0
 10
29.86934261759504
 20
-1.348126443199386
 30
0.0
 10
29.9836908805857
 20
-1.34075935589059
 30
0.0
  0
SPLINE
  5
A5
330
1F
100
AcDbEntity
  8
0
  6
Continuous
 62
     1
370
    15
100
AcDbSpline
210
0.0
220
0.0
230
1.0
 70
     8
 71
     3
 72
    17
 73
    13
 74
     0
 42
0.000000001
 43
0.00000001
 40
0.0
 40
0.0
 40
0.0
 40
0.0
 40
0.1278134027643132
 40
0.2178788696467874
 40
0.2747334847780371
 40
0.3277267076194303
 40
0.531952599084624
 40
0.7027698340536024
 40
0.7420357866755959
 40
0.7977673726645352
 40
0.8840460194742085
 40
1.0
 40
1.0
 40
1.0
 40
1.0
 10
21.10532572411996
 20
1.367901663401681
 30
0.0
 10
20.95620426769134
 20
1.356339445296243
 30
0.0
 10
20.7020023321818
 20
1.336629751657401
 30
0.0
 10
20.38254737597481
 20
1.323408399417261
 30
0.0
 10
20.14972233829847
 20
1.317719175865877
 30
0.0
 10
19.78395340451102
 20
1.313996574598946
 30
0.0
 10
19.28600501767809
 20
1.32556801282857
 30
0.0
 10
18.80313173658183
 20
1.359317674918185
 30
0.0
 10
18.49388877614204
 20
1.38918514295204
 30
0.0
 10
18.2830968968381
 20
1.411845285371063
 30
0.0
 10
17.9827970338949
 20
1.448353571524636
 30
0.0
 10
17.74681561473196
 20
1.483896970473713
 30
0.0
 10
17.61151111296787
 20
1.504276464346011
 30
0.0
  0
LINE
  5
A6
330
1F
100
AcDbEntity
  8
0
  6
Continuous
 62
   131
370
    15
100
AcDbLine
 10
2.0
 20
-3.0
 30
0.0
 11
5.73205080756887
 21
-2.0
 31
0.0
  0
LINE
  5
A7
330
1F
100
AcDbEntity
  8
0
  6
Continuous
 62
   131
370
    15
100
AcDbLine
 10
5.73205080756887
 20
2.0
 30
0.0
 11
2.0
 21
3.0
 31
0.0
  0
LINE
  5
A8
330
1F
100
AcDbEntity
  8
0
  6
Continuous
 62
   131
370
    15
100
AcDbLine
 10
2.0
 20
2.999999999999999
 30
0.0
 11
-36.71794919243112
 21
2.999999999999997
 31
0.0
  0
LINE
  5
A9
330
1F
100
AcDbEntity
  8
0
  6
Continuous
 62
   131
370
    15
100
AcDbLine
 10
-36.71794919243112
 20
-3.000000000000002
 30
0.0
 11
2.0
 21
-3.0
 31
0.0
  0
LINE
  5
AA
330
1F
100
AcDbEntity
  8
0
  6
Continuous
 62
   131
370
    15
100
AcDbLine
 10
-36.71794919243112
 20
2.999999999999996
 30
0.0
 11
-37.26794919243113
 21
2.449999999999994
 31
0.0
  0
LINE
  5
AB
330
1F
100
AcDbEntity
  8
0
  6
Continuous
 62
   131
370
    15
100
AcDbLine
 10
-37.26794919243113
 20
-2.45
 30
0.0
 11
-36.71794919243112
 21
-3.000000000000001
 31
0.0
  0
LINE
  5
AC
330
1F
100
AcDbEntity
  8
0
  6
Continuous
 62
   131
370
    15
100
AcDbLine
 10
5.841942589960681
 20
2.0
 30
0.0
 11
5.73205080756887
 21
2.0
 31
0.0
  0
LINE
  5
AD
330
1F
100
AcDbEntity
  8
0
  6
Continuous
 62
   131
370
    15
100
AcDbLine
 10
5.73205080756887
 20
-2.0
 30
0.0
 11
5.841942589960681
 21
-2.0
 31
0.0
  0
SPLINE
  5
AE
330
1F
100
AcDbEntity
  8
0
  6
Continuous
 62
   131
370
    15
100
AcDbSpline
210
0.0
220
0.0
230
1.0
 70
     8
 71
     3
 72
     9
 73
     5
 74
     0
 42
0.000000001
 43
0.00000001
 40
0.0
 40
0.0
 40
0.0
 40
0.0
 40
0.4980649327137252
 40
1.0
 40
1.0
 40
1.0
 40
1.0
 10
6.619751071563174
 20
-1.520765262512775
 30
0.0
 10
6.638455844235496
 20
-1.51733119977367
 30
0.0
 10
6.676010732049837
 20
-1.510436390455548
 30
0.0
 10
6.713322648350118
 20
-1.503323730838615
 30
0.0
 10
6.732050807568877
 20
-1.499753637555205
 30
0.0
  0
SPLINE
  5
AF
330
1F
100
AcDbEntity
  8
0
  6
Continuous
 62
   131
370
    15
100
AcDbSpline
210
0.0
220
0.0
230
1.0
 70
     8
 71
     3
 72
     9
 73
     5
 74
     0
 42
0.000000001
 43
0.00000001
 40
0.0
 40
0.0
 40
0.0
 40
0.0
 40
0.1681973791563323
 40
0.9999999999999999
 40
0.9999999999999999
 40
0.9999999999999999
 40
0.9999999999999999
 10
6.68709076728039
 20
1.508271036319259
 30
0.0
 10
6.68333025545609
 20
1.508984931801259
 30
0.0
 10
6.660972524062407
 20
1.513229323037199
 30
0.0
 10
6.638469306723177
 20
1.517343270353276
 30
0.0
 10
6.619751071562989
 20
1.520765262512802
 30
0.0
  0
SPLINE
  5
B0
330
1F
100
AcDbEntity
  8
0
  6
Continuous
 62
     1
370
    15
100
AcDbSpline
210
0.0
220
0.0
230
1.0
 70
     8
 71
     3
 72
    15
 73
    11
 74
     0
 42
0.000000001
 43
0.00000001
 40
0.0
 40
0.0
 40
0.0
 40
0.0
 40
0.1431587180611109
 40
0.2875015838224076
 40
0.4192176458566932
 40
0.5518516862881271
 40
0.6835131433936484
 40
0.816090334839982
 40
0.9477519080345478
 40
1.0
 40
1.0
 40
1.0
 40
1.0
 10
6.73205080756887
 20
-0.6053700062880156
 30
0.0
 10
6.941125140368502
 20
-0.718076639427508
 30
0.0
 10
7.361003179447119
 20
-0.9444221667817202
 30
0.0
 10
7.971618205206861
 20
-1.241456399267918
 30
0.0
 10
8.569014593379807
 20
-1.492182872435668
 30
0.0
 10
9.145642425761414
 20
-1.695661217078815
 30
0.0
 10
9.72569876461075
 20
-1.851348436309137
 30
0.0
 10
10.30235292165175
 20
-1.953138537637976
 30
0.0
 10
10.76471711941697
 20
-2.00091710056499
 30
0.0
 10
11.03289020324013
 20
-1.994978690176273
 30
0.0
 10
11.10907723742379
 20
-1.993291608576465
 30
0.0
  0
SPLINE
  5
B1
330
1F
100
AcDbEntity
  8
0
  6
Continuous
 62
     1
370
    15
100
AcDbSpline
210
0.0
220
0.0
230
1.0
 70
     8
 71
     3
 72
    30
 73
    26
 74
     0
 42
0.000000001
 43
0.00000001
 40
0.0
 40
0.0
 40
0.0
 40
0.0
 40
0.0324587722123412
 40
0.0745686215730448
 40
0.116969783008025
 40
0.159009364708062
 40
0.2013395324304868
 40
0.2433786668461398
 40
0.2857089915233068
 40
0.3277478554002116
 40
0.3700773166943843
 40
0.4121159634499348
 40
0.454444740633485
 40
0.4964832224559821
 40
0.5388114508669619
 40
0.580849819018271
 40
0.6231775993655775
 40
0.6652159044710884
 40
0.707543311748467
 40
0.7495816040781463
 40
0.7919086961915804
 40
0.8339470259356648
 40
0.8762738521418759
 40
0.9376845560414133
 40
1.0
 40
1.0
 40
1.0
 40
1.0
 10
19.10693365695644
 20
1.342327644140874
 30
0.0
 10
19.25447254779924
 20
1.404422715564103
 30
0.0
 10
19.59341856974336
 20
1.547075797209302
 30
0.0
 10
20.12398210766673
 20
1.723807929177918
 30
0.0
 10
20.69928222986492
 20
1.870954968520685
 30
0.0
 10
21.27463381488715
 20
1.966336995261808
 30
0.0
 10
21.8488333394681
 20
2.007471164785877
 30
0.0
 10
22.42435145852964
 20
1.993608324828044
 30
0.0
 10
22.99805707186366
 20
1.924800087413755
 30
0.0
 10
23.57404038504522
 20
1.803549100587774
 30
0.0
 10
24.14734439473711
 20
1.631935245355503
 30
0.0
 10
24.72366699431306
 20
1.416868623279303
 30
0.0
 10
25.29669348370218
 20
1.160960104783417
 30
0.0
 10
25.87322821183079
 20
0.8756582106003952
 30
0.0
 10
26.44610244505371
 20
0.5633677755909154
 30
0.0
 10
27.02272183600231
 20
0.2388761692440118
 30
0.0
 10
27.59556873172766
 20
-0.0955891163667009
 30
0.0
 10
28.17214519416991
 20
-0.4240581557346321
 30
0.0
 10
28.74508975835049
 20
-0.7440210850659019
 30
0.0
 10
29.3214943740531
 20
-1.040831984523107
 30
0.0
 10
29.89466572155507
 20
-1.311195351697812
 30
0.0
 10
30.47075409638569
 20
-1.544280501330696
 30
0.0
 10
31.132243782418
 20
-1.763812296379532
 30
0.0
 10
31.88659360934891
 20
-1.943785505871617
 30
0.0
 10
32.44886122538674
 20
-1.980046536723337
 30
0.0
 10
32.73205080756875
 20
-1.999999999999903
 30
0.0
  0
SPLINE
  5
B2
330
1F
100
AcDbEntity
  8
0
  6
Continuous
 62
     1
370
    15
100
AcDbSpline
210
0.0
220
0.0
230
1.0
 70
     8
 71
     3
 72
    14
 73
    10
 74
     0
 42
0.000000001
 43
0.00000001
 40
0.0
 40
0.0
 40
0.0
 40
0.0
 40
0.0933063646982859
 40
0.2617650830889891
 40
0.4302299831079496
 40
0.5987005087119457
 40
0.7671761014976134
 40
0.9356562009325181
 40
1.0
 40
1.0
 40
1.0
 40
1.0
 10
27.75188395105128
 20
-0.1833696229687186
 30
0.0
 10
27.54504666497973
 20
-0.1007826141663373
 30
0.0
 10
26.9647777889015
 20
0.1309099964195681
 30
0.0
 10
26.01105845341559
 20
0.5153263021679612
 30
0.0
 10
24.89071435167202
 20
0.9096219842837464
 30
0.0
 10
23.7703288037169
 20
1.212856186238833
 30
0.0
 10
22.64990598954335
 20
1.381134648367518
 30
0.0
 10
21.76030807841811
 20
1.427631130932436
 30
0.0
 10
21.24418410541018
 20
1.367360355382613
 30
0.0
 10
21.1015467841268
 20
1.350703772031143
 30
0.0
  0
SPLINE
  5
B3
330
1F
100
AcDbEntity
  8
0
  6
Continuous
 62
     1
370
    15
100
AcDbSpline
210
0.0
220
0.0
230
1.0
 70
     8
 71
     3
 72
    32
 73
    28
 74
     0
 42
0.000000001
 43
0.00000001
 40
0.0
 40
0.0
 40
0.0
 40
0.0
 40
0.0249810787008101
 40
0.0671428785406991
 40
0.1089955129251639
 40
0.1511392415706363
 40
0.1929919128575662
 40
0.2351353329710934
 40
0.2769881043489774
 40
0.3191312801307499
 40
0.3609841928844107
 40
0.4031272188302235
 40
0.444980246975486
 40
0.4871232755042669
 40
0.5289656427817953
 40
0.5710978698985315
 40
0.6129131994475966
 40
0.6550181011370118
 40
0.6967963376333931
 40
0.7388638237078248
 40
0.7805938568588278
 40
0.8226127268788922
 40
0.8642823978537584
 40
0.9062403357892143
 40
0.9478404736181633
 40
0.9897281599453047
 40
1.0
 40
1.0
 40
1.0
 40
1.0
 10
8.223102616797847
 20
1.3407826378112
 30
0.0
 10
8.337878832969585
 20
1.39010623673414
 30
0.0
 10
8.64636853567926
 20
1.522675708666738
 30
0.0
 10
9.145645797229326
 20
1.694788180976233
 30
0.0
 10
9.725694585324506
 20
1.851042524152859
 30
0.0
 10
10.30236632623815
 20
1.955252383478462
 30
0.0
 10
10.88202147414507
 20
2.004939527649523
 30
0.0
 10
11.4590719648749
 20
1.999038508531013
 30
0.0
 10
12.03825091754896
 20
1.93744999981478
 30
0.0
 10
12.61581678197918
 20
1.822268452260821
 30
0.0
 10
13.19443850151599
 20
1.655711712250147
 30
0.0
 10
13.77254705223546
 20
1.444495025295757
 30
0.0
 10
14.35071083416733
 20
1.190976608871737
 30
0.0
 10
14.9291715384864
 20
0.9073411912234512
 30
0.0
 10
15.50692922529709
 20
0.5948076926382013
 30
0.0
 10
16.08540689862823
 20
0.2701693241740836
 30
0.0
 10
16.66271227297116
 20
-0.0666211137708053
 30
0.0
 10
17.24084959266998
 20
-0.3965010232673655
 30
0.0
 10
17.81768564365387
 20
-0.7200909748193195
 30
0.0
 10
18.39518440753057
 20
-1.019060914250565
 30
0.0
 10
18.97154746999944
 20
-1.293638064745462
 30
0.0
 10
19.5481028274166
 20
-1.529087176749157
 30
0.0
 10
20.1239649590748
 20
-1.724397818403993
 30
0.0
 10
20.69928926909453
 20
-1.871486753253798
 30
0.0
 10
21.27462276028459
 20
-1.96364526313972
 30
0.0
 10
21.70505174707503
 20
-2.004210116755976
 30
0.0
 10
21.94444545212582
 20
-1.996451269076194
 30
0.0
 10
21.99158955060518
 20
-1.994923309604475
 30
0.0
  0
SPLINE
  5
B4
330
1F
100
AcDbEntity
  8
0
  6
Continuous
 62
     1
370
    15
100
AcDbSpline
210
0.0
220
0.0
230
1.0
 70
     8
 71
     3
 72
    13
 73
     9
 74
     0
 42
0.000000001
 43
0.00000001
 40
0.0
 40
0.0
 40
0.0
 40
0.0
 40
0.1743022569932629
 40
0.3846996925928509
 40
0.5371206234671138
 40
0.6900985660131777
 40
0.8447593175257864
 40
1.0
 40
1.0
 40
1.0
 40
1.0
 10
29.99128926463317
 20
1.343826505350074
 30
0.0
 10
30.15065495993511
 20
1.410288236945826
 30
0.0
 10
30.50238840877319
 20
1.55697484993135
 30
0.0
 10
30.99251807640741
 20
1.717880638434415
 30
0.0
 10
31.46450953667615
 20
1.840835490533193
 30
0.0
 10
31.88376136260523
 20
1.923475268245159
 30
0.0
 10
32.30744042207794
 20
1.979416515013082
 30
0.0
 10
32.59033754683298
 20
1.992004073443192
 30
0.0
 10
32.73205080756873
 20
2.000000000000095
 30
0.0
  0
SPLINE
  5
B5
330
1F
100
AcDbEntity
  8
0
  6
Continuous
 62
     1
370
    15
100
AcDbSpline
210
0.0
220
0.0
230
1.0
 70
    24
 71
     3
 72
    10
 73
     6
 74
     0
 42
0.000000001
 43
0.00000001
 40
0.0
 40
0.0
 40
0.0
 40
0.0
 40
0.5
 40
0.5
 40
1.0
 40
1.0
 40
1.0
 40
1.0
 10
32.73205080756887
 20
1.400000000000003
 30
0.0
 10
32.73205080756886
 20
1.484864513614631
 30
0.0
 10
32.73205080756887
 20
1.583484937734239
 30
0.0
 10
32.73205080756886
 20
1.790390321921717
 30
0.0
 10
32.73205080756887
 20
1.898146871602951
 30
0.0
 10
32.73205080756873
 20
2.000000000000095
 30
0.0
  0
LINE
  5
B6
330
1F
100
AcDbEntity
  8
0
  6
Continuous
 62
     1
370
    15
100
AcDbLine
 10
32.73205080756887
 20
1.400000000000003
 30
0.0
 11
31.98482008819276
 21
1.351583544866399
 31
0.0
  0
SPLINE
  5
B7
330
1F
100
AcDbEntity
  8
0
  6
Continuous
 62
     1
370
    15
100
AcDbSpline
210
0.0
220
0.0
230
1.0
 70
     8
 71
     3
 72
    14
 73
    10
 74
     0
 42
0.000000001
 43
0.00000001
 40
0.0
 40
0.0
 40
0.0
 40
0.0
 40
0.1431650874621674
 40
0.3114340977644537
 40
0.4797036504024623
 40
0.6479731770782595
 40
0.81624210950489
 40
0.9845098796466563
 40
1.0
 40
1.0
 40
1.0
 40
1.0
 10
16.88021377024246
 20
-0.1896033247818439
 30
0.0
 10
16.56241684136628
 20
-0.0612081511104393
 30
0.0
 10
15.87109745916688
 20
0.2180962224522217
 30
0.0
 10
14.80625339353267
 20
0.6359440875216028
 30
0.0
 10
13.6856823488043
 20
1.007057885185902
 30
0.0
 10
12.56511142842868
 20
1.278039815700759
 30
0.0
 10
11.44454502054814
 20
1.401904117003042
 30
0.0
 10
10.66311778530757
 20
1.424552986346436
 30
0.0
 10
10.2552136386277
 20
1.366772837907649
 30
0.0
 10
10.22082880591289
 20
1.361902182008523
 30
0.0
  0
SPLINE
  5
B8
330
1F
100
AcDbEntity
  8
0
  6
Continuous
 62
     1
370
    15
100
AcDbSpline
210
0.0
220
0.0
230
1.0
 70
     8
 71
     3
 72
    22
 73
    18
 74
     0
 42
0.000000001
 43
0.00000001
 40
0.0
 40
0.0
 40
0.0
 40
0.0
 40
0.0146595572402052
 40
0.0876893375288245
 40
0.1606749946689183
 40
0.2336148763964344
 40
0.3065254393145066
 40
0.3794233294753983
 40
0.4523252750674442
 40
0.525247977978148
 40
0.5982080057174343
 40
0.671221685176754
 40
0.7442366230642898
 40
0.817197585778951
 40
0.8901208868956434
 40
0.9630230900576268
 40
1.0
 40
1.0
 40
1.0
 40
1.0
 10
25.24313066646223
 20
-1.572337581893207
 30
0.0
 10
25.17879519768704
 20
-1.597940190013124
 30
0.0
 10
24.79395856557996
 20
-1.751087772048438
 30
0.0
 10
24.08864005124811
 20
-1.912962199922039
 30
0.0
 10
23.12773509189849
 20
-2.025115501906097
 30
0.0
 10
22.1674508701644
 20
-1.972510284556241
 30
0.0
 10
21.20763530039762
 20
-1.772009207182468
 30
0.0
 10
20.24801776632144
 20
-1.435532704939892
 30
0.0
 10
19.2883375976925
 20
-0.9896612186514643
 30
0.0
 10
18.3283264946141
 20
-0.4681211394677681
 30
0.0
 10
17.36773936049337
 20
0.0892472321600371
 30
0.0
 10
16.40655932507015
 20
0.6398683298149088
 30
0.0
 10
15.44536878114105
 20
1.14104445151562
 30
0.0
 10
14.48476883123285
 20
1.557291821324869
 30
0.0
 10
13.52474379246904
 20
1.846515558488893
 30
0.0
 10
12.72268180858105
 20
1.995333130780241
 30
0.0
 10
12.24055246571048
 20
1.984128349959012
 30
0.0
 10
12.07830458448697
 20
1.980357677265676
 30
0.0
  0
SPLINE
  5
B9
330
1F
100
AcDbEntity
  8
0
  6
Continuous
 62
     1
370
    15
100
AcDbSpline
210
0.0
220
0.0
230
1.0
 70
     8
 71
     3
 72
    17
 73
    13
 74
     0
 42
0.000000001
 43
0.00000001
 40
0.0
 40
0.0
 40
0.0
 40
0.0
 40
0.0547212251562556
 40
0.170694063922598
 40
0.2869038657018425
 40
0.4032278984911036
 40
0.5192536021516084
 40
0.6351963409867324
 40
0.7512870390771719
 40
0.8676535424738339
 40
0.983773452291786
 40
1.0
 40
1.0
 40
1.0
 40
1.0
 10
23.88490037797776
 20
-1.651721945896863
 30
0.0
 10
23.75292564909411
 20
-1.667577398210295
 30
0.0
 10
23.34125170093402
 20
-1.717035932498999
 30
0.0
 10
22.64937027570672
 20
-1.693981637961738
 30
0.0
 10
21.80857944118036
 20
-1.586675538131102
 30
0.0
 10
20.96743317424549
 20
-1.381444349527531
 30
0.0
 10
20.12746043088197
 20
-1.096277622603724
 30
0.0
 10
19.2880812695957
 20
-0.7468723547199417
 30
0.0
 10
18.44776522176321
 20
-0.3527396806642671
 30
0.0
 10
17.60649323752821
 20
0.0577841022469798
 30
0.0
 10
17.00656342629655
 20
0.3580991469385573
 30
0.0
 10
16.6873881747868
 20
0.5015717842943287
 30
0.0
 10
16.64825518594287
 20
0.5191624749587647
 30
0.0
  0
SPLINE
  5
BA
330
1F
100
AcDbEntity
  8
0
  6
Continuous
 62
     1
370
    15
100
AcDbSpline
210
0.0
220
0.0
230
1.0
 70
     8
 71
     3
 72
    18
 73
    14
 74
     0
 42
0.000000001
 43
0.00000001
 40
0.0
 40
0.0
 40
0.0
 40
0.0
 40
0.0983730920751794
 40
0.1966736756771631
 40
0.2949237441884515
 40
0.3931456166243913
 40
0.4913617945289041
 40
0.5895948163766329
 40
0.6878671114693738
 40
0.7862008553263234
 40
0.8845947887066944
 40
0.9829292744190127
 40
1.0
 40
1.0
 40
1.0
 40
1.0
 10
32.73205080756887
 20
-1.897881738463799
 30
0.0
 10
32.4115770008597
 20
-1.825439160554734
 30
0.0
 10
31.77086560108408
 20
-1.680607400442764
 30
0.0
 10
30.81027148957804
 20
-1.296080018379078
 30
0.0
 10
29.85025559647196
 20
-0.8230692173266507
 30
0.0
 10
28.89057337223221
 20
-0.2844755303477631
 30
0.0
 10
27.93095675694651
 20
0.2750033517358931
 30
0.0
 10
26.97114365603844
 20
0.81399285230422
 30
0.0
 10
26.01086888524828
 20
1.289865977140823
 30
0.0
 10
25.049956768068
 20
1.671011836924976
 30
0.0
 10
24.08865463254534
 20
1.910566740387697
 30
0.0
 10
23.39222086504974
 20
2.015948043276476
 30
0.0
 10
23.01635244511473
 20
1.992481269947254
 30
0.0
 10
22.96075403166907
 20
1.989010067535465
 30
0.0
  0
SPLINE
  5
BB
330
1F
100
AcDbEntity
  8
0
  6
Continuous
 62
     1
370
    15
100
AcDbSpline
210
0.0
220
0.0
230
1.0
 70
     8
 71
     3
 72
    15
 73
    11
 74
     0
 42
0.000000001
 43
0.00000001
 40
0.0
 40
0.0
 40
0.0
 40
0.0
 40
0.110087916911681
 40
0.2358271091711651
 40
0.3630971209242345
 40
0.4903825125544385
 40
0.6177048428318762
 40
0.7450854730360782
 40
0.8725453647147213
 40
1.0
 40
1.0
 40
1.0
 40
1.0
 10
14.36488454194691
 20
-1.572610463188523
 30
0.0
 10
14.08480680315723
 20
-1.665644411199801
 30
0.0
 10
13.48483247959043
 20
-1.864939008007202
 30
0.0
 10
12.56116016624218
 20
-2.004416985092779
 30
0.0
 10
11.59368514221724
 20
-2.00713035634669
 30
0.0
 10
10.62217737265056
 20
-1.849701884221201
 30
0.0
 10
9.650323089805196
 20
-1.548465107150862
 30
0.0
 10
8.677951900076588
 20
-1.125682030177745
 30
0.0
 10
7.705067441055256
 20
-0.6152854228307203
 30
0.0
 10
7.056385226739263
 20
-0.242008534166654
 30
0.0
 10
6.732050807565914
 20
-0.0553739383602112
 30
0.0
  0
SPLINE
  5
BC
330
1F
100
AcDbEntity
  8
0
  6
Continuous
 62
   131
370
    15
100
AcDbSpline
210
0.0
220
0.0
230
1.0
 70
    24
 71
     3
 72
     8
 73
     4
 74
     0
 42
0.000000001
 43
0.00000001
 40
0.0
 40
0.0
 40
0.0
 40
0.0
 40
1.0
 40
1.0
 40
1.0
 40
1.0
 10
6.732050807568877
 20
0.0554407426351907
 30
0.0
 10
6.732050807568877
 20
0.0266867888199976
 30
0.0
 10
6.732050807568877
 20
-0.0104525250559337
 30
0.0
 10
6.732050807568877
 20
-0.0553739383581851
 30
0.0
  0
SPLINE
  5
BD
330
1F
100
AcDbEntity
  8
0
  6
Continuous
 62
     1
370
    15
100
AcDbSpline
210
0.0
220
0.0
230
1.0
 70
     8
 71
     3
 72
    14
 73
    10
 74
     0
 42
0.000000001
 43
0.00000001
 40
0.0
 40
0.0
 40
0.0
 40
0.0
 40
0.1618477543225799
 40
0.3233133927668028
 40
0.484716555704712
 40
0.6463783993267239
 40
0.8083543605041584
 40
0.9699307486601869
 40
1.0
 40
1.0
 40
1.0
 40
1.0
 10
32.73205080756887
 20
-1.577944528736429
 30
0.0
 10
32.45150237424861
 20
-1.517827212425798
 30
0.0
 10
31.89106787089799
 20
-1.397734514310964
 30
0.0
 10
31.05129493035401
 20
-1.110610841769468
 30
0.0
 10
30.21185458555999
 20
-0.7653281843231352
 30
0.0
 10
29.37133949526354
 20
-0.3725634843652973
 30
0.0
 10
28.5300746134333
 20
0.0376723477500056
 30
0.0
 10
27.91735789655996
 20
0.3443779467772964
 30
0.0
 10
27.58532815000569
 20
0.4942088196516008
 30
0.0
 10
27.53323259527406
 20
0.5177173230893679
 30
0.0
  0
SPLINE
  5
BE
330
1F
100
AcDbEntity
  8
0
  6
Continuous
 62
     1
370
    15
100
AcDbSpline
210
0.0
220
0.0
230
1.0
 70
     8
 71
     3
 72
    15
 73
    11
 74
     0
 42
0.000000001
 43
0.00000001
 40
0.0
 40
0.0
 40
0.0
 40
0.0
 40
0.0697222133703025
 40
0.2035521691434988
 40
0.337612099620698
 40
0.4719043480627509
 40
0.6058562911135549
 40
0.7396685909720058
 40
0.8736078304448892
 40
1.0
 40
1.0
 40
1.0
 40
1.0
 10
13.00213861509441
 20
-1.65166433336952
 30
0.0
 10
12.85643858551489
 20
-1.668499731328023
 30
0.0
 10
12.431071179181
 20
-1.717650233114975
 30
0.0
 10
11.7256531309956
 20
-1.691106821560153
 30
0.0
 10
10.88505940264037
 20
-1.578693213974285
 30
0.0
 10
10.04381399013623
 20
-1.36934003278444
 30
0.0
 10
9.203640555329079
 20
-1.080652559263385
 30
0.0
 10
8.364280200922574
 20
-0.7284913927205741
 30
0.0
 10
7.54064487066114
 20
-0.3410541854710591
 30
0.0
 10
6.996322146539391
 20
-0.0741449794574801
 30
0.0
 10
6.73205080756893
 20
0.0554407426351647
 30
0.0
  0
LINE
  5
BF
330
1F
100
AcDbEntity
  8
0
  6
Continuous
 62
     1
370
    15
100
AcDbLine
 10
32.73205080756873
 20
-1.8978817384638
 30
0.0
 11
32.73205080756887
 21
-1.577944528736429
 31
0.0
  0
LINE
  5
C0
330
1F
100
AcDbEntity
  8
0
  6
Continuous
 62
   131
370
    15
100
AcDbLine
 10
6.732050807568873
 20
-0.6053700062880144
 30
0.0
 11
6.732050807568873
 21
-0.0553739383546666
 31
0.0
  0
LINE
  5
C1
330
1F
100
AcDbEntity
  8
0
  6
Continuous
 62
     1
370
    15
100
AcDbLine
 10
32.73205080756875
 20
-1.999999999999903
 30
0.0
 11
32.73205080756885
 21
-1.897881738463795
 31
0.0
  0
SPLINE
  5
C2
330
1F
100
AcDbEntity
  8
0
  6
Continuous
 62
     1
370
    15
100
AcDbSpline
210
0.0
220
0.0
230
1.0
 70
     8
 71
     3
 72
     8
 73
     4
 74
     0
 42
0.000000001
 43
0.00000001
 40
0.0
 40
0.0
 40
0.0
 40
0.0
 40
1.0
 40
1.0
 40
1.0
 40
1.0
 10
31.49388441220247
 20
0.56012005550904
 30
0.0
 10
31.40440448181037
 20
0.6661245607298922
 30
0.0
 10
31.32678444586557
 20
0.767422058259436
 30
0.0
 10
31.26551150639243
 20
0.8616562015384642
 30
0.0
  0
LINE
  5
C3
330
1F
100
AcDbEntity
  8
0
  6
Continuous
 62
     1
370
    15
100
AcDbLine
 10
31.26551150639243
 20
0.8616562015384649
 30
0.0
 11
32.73205080756887
 21
0.0000000000000035
 31
0.0
  0
LINE
  5
C4
330
1F
100
AcDbEntity
  8
0
  6
Continuous
 62
     1
370
    15
100
AcDbLine
 10
32.73205080756887
 20
0.0000000000000035
 30
0.0
 11
32.73205080756887
 21
-0.5344858920592862
 31
0.0
  0
SPLINE
  5
C5
330
1F
100
AcDbEntity
  8
0
  6
Continuous
 62
     1
370
    15
100
AcDbSpline
210
0.0
220
0.0
230
1.0
 70
     8
 71
     3
 72
    10
 73
     6
 74
     0
 42
0.000000001
 43
0.00000001
 40
0.0
 40
0.0
 40
0.0
 40
0.0
 40
0.5
 40
0.5
 40
1.0
 40
1.0
 40
1.0
 40
1.0
 10
32.73205080756887
 20
-0.5344858920592862
 30
0.0
 10
32.51770992799074
 20
-0.3659754071021835
 30
0.0
 10
32.30695314548211
 20
-0.1905497606416759
 30
0.0
 10
31.89277919016851
 20
0.1744625846972683
 30
0.0
 10
31.6874351748084
 20
0.365978024393509
 30
0.0
 10
31.49388441220071
 20
0.5601200555101735
 30
0.0
  0
SPLINE
  5
C6
330
1F
100
AcDbEntity
  8
0
  6
Continuous
 62
     1
370
    15
100
AcDbSpline
210
0.0
220
0.0
230
1.0
 70
     8
 71
     3
 72
    12
 73
     8
 74
     0
 42
0.000000001
 43
0.00000001
 40
0.0
 40
0.0
 40
0.0
 40
0.0
 40
0.2303782872900469
 40
0.4607641153428159
 40
0.7039815146972401
 40
0.9472091607170466
 40
1.0
 40
1.0
 40
1.0
 40
1.0
 10
31.49388441220069
 20
0.5601200555101834
 30
0.0
 10
31.14021257632897
 20
0.7078449460661681
 30
0.0
 10
30.43285732816734
 20
1.003299562522479
 30
0.0
 10
29.35213164902038
 20
1.348590260696774
 30
0.0
 10
28.25160159922029
 20
1.55748367763206
 30
0.0
 10
27.4237402031842
 20
1.632320117898461
 30
0.0
 10
26.96927291844909
 20
1.583853124215799
 30
0.0
 10
26.88822490766937
 20
1.575209700237014
 30
0.0
  0
SPLINE
  5
C7
330
1F
100
AcDbEntity
  8
0
  6
Continuous
 62
     1
370
    15
100
AcDbSpline
210
0.0
220
0.0
230
1.0
 70
     8
 71
     3
 72
    18
 73
    14
 74
     0
 42
0.000000001
 43
0.00000001
 40
0.0
 40
0.0
 40
0.0
 40
0.0
 40
0.0527037862708426
 40
0.1556004386449422
 40
0.2584977522770706
 40
0.3613953888221619
 40
0.4642930097993679
 40
0.5671902767343859
 40
0.6700868513017856
 40
0.7729823954672002
 40
0.8485226987853077
 40
0.9241592237457116
 40
0.9999999999999999
 40
0.9999999999999999
 40
0.9999999999999999
 40
0.9999999999999999
 10
17.6213265115361
 20
-1.483284687143701
 30
0.0
 10
17.43000929279101
 20
-1.517193316862252
 30
0.0
 10
16.86517239465838
 20
-1.61730372697475
 30
0.0
 10
15.92681162864165
 20
-1.607437744442325
 30
0.0
 10
14.80624436472652
 20
-1.458518010313992
 30
0.0
 10
13.68567114886531
 20
-1.150416833444796
 30
0.0
 10
12.5651051652901
 20
-0.7251409728078975
 30
0.0
 10
11.44451735654782
 20
-0.224063711713757
 30
0.0
 10
10.32403581176939
 20
0.2999787084507368
 30
0.0
 10
9.302523616604413
 20
0.7496673176505553
 30
0.0
 10
8.380964870117195
 20
1.095886249641882
 30
0.0
 10
7.557235918896842
 20
1.349203778729658
 30
0.0
 10
7.007359661547435
 20
1.452187633603871
 30
0.0
 10
6.732050807568877
 20
1.503748992518296
 30
0.0
  0
SPLINE
  5
C8
330
1F
100
AcDbEntity
  8
0
  6
Continuous
 62
     1
370
    15
100
AcDbSpline
210
0.0
220
0.0
230
1.0
 70
    24
 71
     3
 72
    10
 73
     6
 74
     0
 42
0.000000001
 43
0.00000001
 40
0.0
 40
0.0
 40
0.0
 40
0.0
 40
0.5
 40
0.5
 40
1.0
 40
1.0
 40
1.0
 40
1.0
 10
32.73205080756887
 20
-1.577944528736428
 30
0.0
 10
32.73205080756886
 20
-1.456982778007607
 30
0.0
 10
32.73205080756886
 20
-1.304142967812934
 30
0.0
 10
32.73205080756887
 20
-0.9488051183013565
 30
0.0
 10
32.73205080756887
 20
-0.7466148861026163
 30
0.0
 10
32.73205080756887
 20
-0.5344858920593503
 30
0.0
  0
SPLINE
  5
C9
330
1F
100
AcDbEntity
  8
0
  6
Continuous
 62
   131
370
    15
100
AcDbSpline
210
0.0
220
0.0
230
1.0
 70
    24
 71
     3
 72
    10
 73
     6
 74
     0
 42
0.000000001
 43
0.00000001
 40
0.0
 40
0.0
 40
0.0
 40
0.0
 40
0.5
 40
0.5
 40
1.0
 40
1.0
 40
1.0
 40
1.0
 10
6.732050807568877
 20
1.503748992518296
 30
0.0
 10
6.732050807568877
 20
1.365565155996314
 30
0.0
 10
6.732050807568877
 20
1.159825675337961
 30
0.0
 10
6.732050807568877
 20
0.6535701746537768
 30
0.0
 10
6.732050807568877
 20
0.3552332762120554
 30
0.0
 10
6.732050807568877
 20
0.0554407426351906
 30
0.0
  0
SPLINE
  5
CA
330
1F
100
AcDbEntity
  8
0
  6
Continuous
 62
     1
370
    15
100
AcDbSpline
210
0.0
220
0.0
230
1.0
 70
     8
 71
     3
 72
    19
 73
    15
 74
     0
 42
0.000000001
 43
0.00000001
 40
0.0
 40
0.0
 40
0.0
 40
0.0
 40
0.0200152881713003
 40
0.1096672048363744
 40
0.1993226128603668
 40
0.2889812253052871
 40
0.3786427538984024
 40
0.4683069091502873
 40
0.5579734004739567
 40
0.6476419363049738
 40
0.7373122242224318
 40
0.8269839710706964
 40
0.9166568830818094
 40
1.0
 40
1.0
 40
1.0
 40
1.0
 10
28.50172098952354
 20
-1.490039757737859
 30
0.0
 10
28.41835405240868
 20
-1.507280442073299
 30
0.0
 10
27.96157227185624
 20
-1.601745115494538
 30
0.0
 10
27.13135485919623
 20
-1.618371856271268
 30
0.0
 10
26.01105571220274
 20
-1.520323477778
 30
0.0
 10
24.89071068599734
 20
-1.251948601815536
 30
0.0
 10
23.77032454380123
 20
-0.8571429563289302
 30
0.0
 10
22.64990119645151
 20
-0.3725584897438683
 30
0.0
 10
21.52944480449723
 20
0.1504928941476613
 30
0.0
 10
20.40895947752778
 20
0.6577391315024966
 30
0.0
 10
19.28844936426675
 20
1.097766314144427
 30
0.0
 10
18.16791858235819
 20
1.420212553847036
 30
0.0
 10
17.07374063147964
 20
1.604905892515939
 30
0.0
 10
16.35307286818
 20
1.5906298607971
 30
0.0
 10
16.00592180924317
 20
1.583752989399496
 30
0.0
  0
SPLINE
  5
CB
330
1F
100
AcDbEntity
  8
0
  6
Continuous
 62
     1
370
    15
100
AcDbSpline
210
0.0
220
0.0
230
1.0
 70
     8
 71
     3
 72
    10
 73
     6
 74
     0
 42
0.000000001
 43
0.00000001
 40
0.0
 40
0.0
 40
0.0
 40
0.0
 40
0.5
 40
0.5
 40
1.0
 40
1.0
 40
1.0
 40
1.0
 10
32.73205080756887
 20
1.400000000000003
 30
0.0
 10
32.48316458524903
 20
1.332396900670978
 30
0.0
 10
32.23611631379677
 20
1.2550795225573
 30
0.0
 10
31.7463282719017
 20
1.077672677756316
 30
0.0
 10
31.50341991750825
 20
0.9782712124145919
 30
0.0
 10
31.26551150639109
 20
0.8616562015394907
 30
0.0
  0
SPLINE
  5
CC
330
1F
100
AcDbEntity
  8
0
  6
Continuous
 62
   131
370
    15
100
AcDbSpline
210
0.0
220
0.0
230
1.0
 70
    24
 71
     3
 72
    13
 73
     9
 74
     0
 42
0.000000001
 43
0.00000001
 40
0.0
 40
0.0
 40
0.0
 40
0.0
 40
0.1072203329467012
 40
0.3027791155695411
 40
0.4928265108543954
 40
0.6883852934772318
 40
0.8765105223753162
 40
1.0
 40
1.0
 40
1.0
 40
1.0
 10
6.732050807568493
 20
-0.6053700062878145
 30
0.0
 10
6.732050807568646
 20
-0.6613580191605519
 30
0.0
 10
6.732050807569072
 20
-0.8194623689066983
 30
0.0
 10
6.732050807568807
 20
-1.032612958218126
 30
0.0
 10
6.732050807568891
 20
-1.24177612060709
 30
0.0
 10
6.73205080756887
 20
-1.389510579939921
 30
0.0
 10
6.732050807568873
 20
-1.477087206121797
 30
0.0
 10
6.732050807568873
 20
-1.488128912007548
 30
0.0
 10
6.732050807568873
 20
-1.49250461849179
 30
0.0
  0
LINE
  5
CD
330
1F
100
AcDbEntity
  8
0
  6
Continuous
 62
     1
370
    15
100
AcDbLine
 10
32.73205080756887
 20
0.0000000000000035
 30
0.0
 11
32.73205080756887
 21
1.400000000000003
 31
0.0
  0
LINE
  5
CE
330
1F
100
AcDbEntity
  8
0
  6
Continuous
 62
   131
370
    15
100
AcDbLine
 10
5.73205080756887
 20
2.0
 30
0.0
 11
5.73205080756887
 21
-1.999999999999998
 31
0.0
  0
LINE
  5
CF
330
1F
100
AcDbEntity
  8
0
  6
Continuous
 62
   131
370
    15
100
AcDbLine
 10
2.0
 20
3.0
 30
0.0
 11
2.0
 21
-3.0
 31
0.0
  0
LINE
  5
D0
330
1F
100
AcDbEntity
  8
0
  6
Continuous
 62
   131
370
    15
100
AcDbLine
 10
-36.71794919243112
 20
2.999999999999996
 30
0.0
 11
-36.71794919243112
 21
-3.000000000000002
 31
0.0
  0
LINE
  5
D1
330
1F
100
AcDbEntity
  8
0
  6
Continuous
 62
   131
370
    15
100
AcDbLine
 10
-37.26794919243113
 20
2.449999999999995
 30
0.0
 11
-37.26794919243113
 21
-2.450000000000001
 31
0.0
  0
SPLINE
  5
D2
330
1F
100
AcDbEntity
  8
0
  6
Continuous
 62
   131
370
    15
100
AcDbSpline
210
0.0
220
0.0
230
1.0
 70
     8
 71
     3
 72
    10
 73
     6
 74
     0
 42
0.000000001
 43
0.00000001
 40
0.0
 40
0.0
 40
0.0
 40
0.0
 40
0.5
 40
0.5
 40
1.0
 40
1.0
 40
1.0
 40
1.0
 10
6.732050807568868
 20
-0.0553739383619206
 30
0.0
 10
6.584460421588558
 20
0.0300965715786801
 30
0.0
 10
6.437986098303558
 20
0.1155049450407337
 30
0.0
 10
6.140347514923631
 20
0.2861175279136031
 30
0.0
 10
5.990617773238482
 20
0.3710408023341661
 30
0.0
 10
5.841829150006921
 20
0.4545310770491944
 30
0.0
  0
SPLINE
  5
D3
330
1F
100
AcDbEntity
  8
0
  6
Continuous
 62
   131
370
    15
100
AcDbSpline
210
0.0
220
0.0
230
1.0
 70
     8
 71
     3
 72
    10
 73
     6
 74
     0
 42
0.000000001
 43
0.00000001
 40
0.0
 40
0.0
 40
0.0
 40
0.0
 40
0.5
 40
0.5
 40
1.0
 40
1.0
 40
1.0
 40
1.0
 10
5.841942589960681
 20
-0.1011206796361658
 30
0.0
 10
5.990712784034569
 20
-0.1867339210201885
 30
0.0
 10
6.140423388067353
 20
-0.2722466585330886
 30
0.0
 10
6.438023688225899
 20
-0.4409564917759619
 30
0.0
 10
6.584479175956806
 20
-0.5238879768774735
 30
0.0
 10
6.732050807568996
 20
-0.6053700062880776
 30
0.0
  0
LINE
  5
D4
330
1F
100
AcDbEntity
  8
0
  6
Continuous
 62
   131
370
    15
100
AcDbLine
 10
5.841942589960681
 20
0.4546145481025788
 30
0.0
 11
5.841942589960681
 21
2.0
 31
0.0
  0
LINE
  5
D5
330
1F
100
AcDbEntity
  8
0
  6
Continuous
 62
   131
370
    15
100
AcDbLine
 10
5.841942589960681
 20
-2.0
 30
0.0
 11
5.841942589960681
 21
-0.1004382682909712
 31
0.0
  0
SPLINE
  5
D6
330
1F
100
AcDbEntity
  8
0
  6
Continuous
 62
   131
370
    15
100
AcDbSpline
210
0.0
220
0.0
230
1.0
 70
    24
 71
     3
 72
     8
 73
     4
 74
     0
 42
0.000000001
 43
0.00000001
 40
0.0
 40
0.0
 40
0.0
 40
0.0
 40
1.0
 40
1.0
 40
1.0
 40
1.0
 10
6.732050807568877
 20
0.0554407426351907
 30
0.0
 10
6.732050807568877
 20
0.0266867888199976
 30
0.0
 10
6.732050807568877
 20
-0.0104525250559337
 30
0.0
 10
6.732050807568877
 20
-0.0553739383581851
 30
0.0
  0
SPLINE
  5
D7
330
1F
100
AcDbEntity
  8
0
  6
Continuous
 62
   131
370
    15
100
AcDbSpline
210
0.0
220
0.0
230
1.0
 70
     8
 71
     3
 72
    10
 73
     6
 74
     0
 42
0.000000001
 43
0.00000001
 40
0.0
 40
0.0
 40
0.0
 40
0.0
 40
0.5
 40
0.5
 40
1.0
 40
1.0
 40
1.0
 40
1.0
 10
6.73205080756893
 20
0.0554407426351647
 30
0.0
 10
6.584460421588609
 20
0.1280798789478026
 30
0.0
 10
6.437986098303602
 20
0.200386264304443
 30
0.0
 10
6.140347514923651
 20
0.3442612405162225
 30
0.0
 10
5.990617773238492
 20
0.4155906660028197
 30
0.0
 10
5.841829150006921
 20
0.4854301778679893
 30
0.0
  0
LINE
  5
D8
330
1F
100
AcDbEntity
  8
0
  6
Continuous
 62
   131
370
    15
100
AcDbLine
 10
5.998247950461709
 20
-0.18966819692177
 30
0.0
 11
5.841915268019344
 21
-0.1281876550036904
 31
0.0
  0
SPLINE
  5
D9
330
1F
100
AcDbEntity
  8
0
  6
Continuous
 62
   131
370
    15
100
AcDbSpline
210
0.0
220
0.0
230
1.0
 70
     8
 71
     3
 72
    10
 73
     6
 74
     0
 42
0.000000001
 43
0.00000001
 40
0.0
 40
0.0
 40
0.0
 40
0.0
 40
0.5
 40
0.5
 40
1.0
 40
1.0
 40
1.0
 40
1.0
 10
6.732050807568957
 20
1.503748992518283
 30
0.0
 10
6.584472329309088
 20
1.527113881326968
 30
0.0
 10
6.438009965302264
 20
1.54631419989535
 30
0.0
 10
6.140395689107327
 20
1.576298809327204
 30
0.0
 10
5.990678098490692
 20
1.58700028866371
 30
0.0
 10
5.841901176451993
 20
1.593279508849982
 30
0.0
  0
SPLINE
  5
DA
330
1F
100
AcDbEntity
  8
0
  6
Continuous
 62
   131
370
    15
100
AcDbSpline
210
0.0
220
0.0
230
1.0
 70
    24
 71
     3
 72
    10
 73
     6
 74
     0
 42
0.000000001
 43
0.00000001
 40
0.0
 40
0.0
 40
0.0
 40
0.0
 40
0.5
 40
0.5
 40
1.0
 40
1.0
 40
1.0
 40
1.0
 10
6.732050807568868
 20
1.503748992518298
 30
0.0
 10
6.732050807568868
 20
1.365565155996316
 30
0.0
 10
6.732050807568868
 20
1.159825675337965
 30
0.0
 10
6.732050807568868
 20
0.6535701746537812
 30
0.0
 10
6.732050807568868
 20
0.35523327621206
 30
0.0
 10
6.732050807568868
 20
0.0554407426351954
 30
0.0
  0
LINE
  5
DB
330
1F
100
AcDbEntity
  8
0
  6
Continuous
 62
   131
370
    15
100
AcDbLine
 10
6.620583471379433
 20
-1.514960285332782
 30
0.0
 11
5.841901176451996
 21
-1.593279508849982
 31
0.0
  0
SPLINE
  5
DC
330
1F
100
AcDbEntity
  8
0
  6
Continuous
 62
   131
370
    15
100
AcDbSpline
210
0.0
220
0.0
230
1.0
 70
    24
 71
     3
 72
    13
 73
     9
 74
     0
 42
0.000000001
 43
0.00000001
 40
0.0
 40
0.0
 40
0.0
 40
0.0
 40
0.1067442927458385
 40
0.301434827345176
 40
0.4906384442370849
 40
0.6853289788364191
 40
0.8726189634362368
 40
1.0
 40
1.0
 40
1.0
 40
1.0
 10
6.73205080756849
 20
-0.6053700062878143
 30
0.0
 10
6.732050807568642
 20
-0.6613578589895429
 30
0.0
 10
6.732050807569076
 20
-0.8194617564293492
 30
0.0
 10
6.732050807568807
 20
-1.032617846461874
 30
0.0
 10
6.732050807568891
 20
-1.241758490569342
 30
0.0
 10
6.73205080756887
 20
-1.389577401211913
 30
0.0
 10
6.732050807568873
 20
-1.477650793550592
 30
0.0
 10
6.732050807568873
 20
-1.488734478801819
 30
0.0
 10
6.732050807568873
 20
-1.493221232335802
 30
0.0
  0
LINE
  5
DD
330
1F
100
AcDbEntity
  8
중심선
 62
     1
100
AcDbLine
 10
-40.26794919243113
 20
-0.0000000000000046
 30
0.0
 11
35.73205080756887
 21
0.0000000000000038
 31
0.0
  0
CIRCLE
  5
DE
330
1F
100
AcDbEntity
  8
외형선
100
AcDbCircle
 10
0.0000000000000104
 20
0.0
 30
0.0
 40
3.000000000000005
  0
INSERT
  5
DF
330
1F
100
AcDbEntity
  8
0
  6
Continuous
 62
     7
100
AcDbBlockReference
 66
     1
  2
블럭10
 10
-22.93944368806589
 20
-52.04609937292004
 30
0.0
  0
ATTRIB
  5
E0
330
DF
100
AcDbEntity
  8
FORMAT
 62
     2
100
AcDbText
 10
-39.05870472750145
 20
-49.97073246008785
 30
0.0
 40
4.233333333333333
  1
SEME7004026E [ 2 FLUTE ]
 41
0.75
  7
SLDTEXTSTYLE0
 11
-39.05870472750145
 21
-52.08739912675452
 31
0.0
100
AcDbAttribute
  2
AUTOATTR0
 70
     0
 74
     1
  0
SEQEND
  5
E1
330
DF
100
AcDbEntity
  8
0
  6
Continuous
 62
     7
  0
HATCH
  5
E2
330
1F
100
AcDbEntity
  8
중심선
100
AcDbHatch
 10
0.0
 20
0.0
 30
0.0
210
0.0
220
0.0
230
1.0
  2
SOLID
 70
     1
 71
     0
 91
        1
 92
        0
 93
        4
 72
     1
 10
-17.22453438368504
 20
-35.7989250712761
 11
-20.67080962752232
 21
-35.7989250712761
 72
     1
 10
-20.67080962752232
 20
-35.7989250712761
 11
-22.79903948672635
 21
-38.3352506518487
 72
     1
 10
-22.79903948672635
 20
-38.3352506518487
 11
-19.35273115777591
 21
-38.33521122254621
 72
     1
 10
-19.35273115777591
 20
-38.33521122254621
 11
-17.22453438368504
 21
-35.7989250712761
 97
        0
 75
     0
 76
     1
 98
        1
 10
0.0
 20
0.0
  0
HATCH
  5
E3
330
1F
100
AcDbEntity
  8
중심선
100
AcDbHatch
 10
0.0
 20
0.0
 30
0.0
210
0.0
220
0.0
230
1.0
  2
SOLID
 70
     1
 71
     0
 91
        1
 92
        0
 93
        4
 72
     1
 10
-12.21177039264909
 20
-35.7989250712761
 11
-15.65804563648637
 21
-35.7989250712761
 72
     1
 10
-15.65804563648637
 20
-35.7989250712761
 11
-20.18918364484376
 21
-41.19892507127612
 72
     1
 10
-20.18918364484376
 20
-41.19892507127612
 11
-16.74290840100648
 21
-41.19892507127612
 72
     1
 10
-16.74290840100648
 20
-41.19892507127612
 11
-12.21177039264909
 21
-35.7989250712761
 97
        0
 75
     0
 76
     1
 98
        1
 10
0.0
 20
0.0
  0
HATCH
  5
E4
330
1F
100
AcDbEntity
  8
중심선
100
AcDbHatch
 10
0.0
 20
0.0
 30
0.0
210
0.0
220
0.0
230
1.0
  2
SOLID
 70
     1
 71
     0
 91
        1
 92
        0
 93
        4
 72
     1
 10
-7.199006401613195
 20
-35.79892507127613
 11
-10.64528164545031
 21
-35.7989250712761
 72
     1
 10
-10.64528164545031
 20
-35.7989250712761
 11
-17.69371854733956
 21
-44.19892507127612
 72
     1
 10
-17.69371854733956
 20
-44.19892507127612
 11
-14.24744330350228
 21
-44.19892507127612
 72
     1
 10
-14.24744330350228
 20
-44.19892507127612
 11
-7.199006401613195
 21
-35.79892507127613
 97
        0
 75
     0
 76
     1
 98
        1
 10
0.0
 20
0.0
  0
HATCH
  5
E5
330
1F
100
AcDbEntity
  8
중심선
100
AcDbHatch
 10
0.0
 20
0.0
 30
0.0
210
0.0
220
0.0
230
1.0
  2
SOLID
 70
     1
 71
     0
 91
        1
 92
        0
 93
        6
 72
     3
 10
-2.399115970600996
 20
-39.99892507132738
 11
3.960054785062284
 21
1.540850780301639E-10
 40
0.3939339440162633
 50
17.09539180608433
 51
320.0019657685079
 73
     0
 72
     1
 10
-0.7161163149004002
 20
-38.58681907591441
 11
1.589185558800638
 21
-36.65249236586649
 72
     3
 10
-2.399115970653842
 20
-39.99892507127625
 11
6.600054785286829
 21
-1.249000902703301E-13
 40
0.6363583540795982
 50
39.99873849337408
 51
368.4976242363725
 73
     1
 72
     1
 10
4.026216521246767
 20
-39.03892507120613
 11
-3.71904866381792
 21
-39.0389250712061
 72
     1
 10
-3.71904866381792
 20
-39.0389250712061
 11
-3.719073708263854
 21
-40.95892507120602
 72
     1
 10
-3.719073708263854
 20
-40.95892507120602
 11
0.7223060612081831
 21
-40.95892507120599
 97
        0
 75
     0
 76
     1
 98
        1
 10
0.0
 20
0.0
  0
DIMENSION
  5
E6
330
1F
100
AcDbEntity
  8
치수문자_일반주서
100
AcDbDimension
  2
_D
 10
41.52950337728036
 20
2.000000000000128
 30
0.0
 11
41.52950337728032
 21
11.66650000000013
 31
0.0
 70
   160
  1
%%c<>
 71
     2
 42
3.999999999999998
 52
-270.0
  3
SLDDIMSTYLE0
100
AcDbAlignedDimension
 13
32.73205080756875
 23
-1.999999999999903
 33
0.0
 14
32.73205080756873
 24
2.000000000000095
 34
0.0
 50
90.0000000000002
100
AcDbRotatedDimension
  0
DIMENSION
  5
F4
330
1F
100
AcDbEntity
  8
치수문자_일반주서
100
AcDbDimension
  2
_D_1
 10
32.73205080756873
 20
24.23841044024269
 30
0.0
 11
-2.267949192431198
 21
24.23841044024269
 31
0.0
 70
   160
  1
<>
 71
     2
 42
69.99999999999986
  3
SLDDIMSTYLE1
100
AcDbAlignedDimension
 13
-37.26794919243113
 23
2.449999999999995
 33
0.0
 14
32.73205080756873
 24
2.000000000000095
 34
0.0
 50
-0.0000000000000058
100
AcDbRotatedDimension
  0
DIMENSION
  5
FF
330
1F
100
AcDbEntity
  8
치수문자_일반주서
100
AcDbDimension
  2
_D_2
 10
32.73205080756873
 20
14.85074679868582
 30
0.0
 11
19.73205080756887
 21
14.85074679868582
 31
0.0
 70
   160
  1
<>
 71
     2
 42
25.99999999999985
  3
SLDDIMSTYLE1
100
AcDbAlignedDimension
 13
6.732050807568873
 23
1.503748992518296
 33
0.0
 14
32.73205080756873
 24
2.000000000000095
 34
0.0
 50
-0.0000000000000039
100
AcDbRotatedDimension
  0
DIMENSION
  5
109
330
1F
100
AcDbEntity
  8
치수문자_일반주서
100
AcDbDimension
  2
_D_3
 10
-45.65224486045655
 20
-3.000000000000036
 30
0.0
 11
-45.65224486045661
 21
12.66649999999996
 31
0.0
 70
   160
  1
%%c<>
 71
     2
 42
5.999999999999996
 52
-270.0
  3
SLDDIMSTYLE0
100
AcDbAlignedDimension
 13
-36.71794919243112
 23
2.999999999999996
 33
0.0
 14
-36.71794919243112
 24
-3.000000000000001
 34
0.0
 50
90.0000000000002
100
AcDbRotatedDimension
  0
INSERT
  5
11C
330
1F
100
AcDbEntity
  8
외형선
100
AcDbBlockReference
  2
SW_DOWELSYMBOL_0
 10
0.0000000000000104
 20
0.0
 30
0.0
  0
ENDSEC
  0
SECTION
  2
OBJECTS
  0
DICTIONARY
  5
C
330
0
100
AcDbDictionary
281
     1
  3
ACAD_GROUP
350
D
  3
ACAD_IMAGE_VARS
350
140
  3
ACAD_LAYOUT
350
1A
  3
ACAD_MLINESTYLE
350
17
  3
ACAD_PLOTSETTINGS
350
19
  3
ACAD_PLOTSTYLENAME
350
E
  3
ACAD_SCALELIST
350
47
  3
APPDATA
350
13E
  3
DWGPROPS
350
14F
  0
DICTIONARY
  5
D
102
{ACAD_REACTORS
330
C
102
}
330
C
100
AcDbDictionary
281
     1
  0
RASTERVARIABLES
  5
140
102
{ACAD_REACTORS
330
C
102
}
330
C
100
AcDbRasterVariables
 90
        0
 70
     1
 71
     1
 72
     1
  0
DICTIONARY
  5
1A
102
{ACAD_REACTORS
330
C
102
}
330
C
100
AcDbDictionary
281
     1
  3
Layout1
350
1E
  3
Layout2
350
26
  3
Model
350
22
  0
DICTIONARY
  5
17
102
{ACAD_REACTORS
330
C
102
}
330
C
100
AcDbDictionary
281
     1
  3
Standard
350
18
  0
DICTIONARY
  5
19
102
{ACAD_REACTORS
330
C
102
}
330
C
100
AcDbDictionary
281
     1
  0
ACDBDICTIONARYWDFLT
  5
E
102
{ACAD_REACTORS
330
C
102
}
330
C
100
AcDbDictionary
281
     1
  3
Normal
350
F
100
AcDbDictionaryWithDefault
340
F
  0
DICTIONARY
  5
47
102
{ACAD_REACTORS
330
C
102
}
330
C
100
AcDbDictionary
281
     1
  3
A0
350
48
  3
A1
350
49
  3
A2
350
4A
  3
A3
350
4B
  3
A4
350
4C
  3
A5
350
4D
  3
A6
350
4E
  3
A7
350
4F
  3
A8
350
50
  3
A9
350
51
  3
B0
350
52
  3
B1
350
53
  3
B2
350
54
  3
B3
350
55
  3
B4
350
56
  3
B5
350
57
  3
B6
350
58
  3
B7
350
59
  3
B8
350
5A
  3
B9
350
5B
  3
C0
350
5C
  3
C1
350
5D
  3
C2
350
5E
  3
C3
350
5F
  3
C4
350
60
  3
C5
350
61
  3
C6
350
62
  3
C7
350
63
  3
C8
350
64
  3
C9
350
65
  3
D0
350
66
  3
D1
350
67
  3
D2
350
68
  0
DICTIONARY
  5
13E
102
{ACAD_REACTORS
330
C
102
}
330
C
100
AcDbDictionary
281
     1
  0
XRECORD
  5
14F
102
{ACAD_REACTORS
330
C
102
}
330
C
100
AcDbXrecord
280
     1
  1
DWGPROPS COOKIE
  2

  3

  4

  6

  7

  8
12014102
  9

300
=
301
=
302
=
303
=
304
=
305
=
306
=
307
=
308
=
309
=
 40
0.0
 41
2458262.16428904
 42
2458266.008858808
  1

 90
        0
  0
LAYOUT
  5
1E
102
{ACAD_REACTORS
330
1A
102
}
330
1A
100
AcDbPlotSettings
  1

  2
none_device
  4

  6

 40
0.0
 41
0.0
 42
0.0
 43
0.0
 44
0.0
 45
0.0
 46
0.0
 47
0.0
 48
0.0
 49
0.0
140
0.0
141
0.0
142
1.0
143
1.0
 70
   688
 72
     1
 73
     0
 74
     5
  7

 75
    16
147
1.0
148
0.0
149
0.0
100
AcDbLayout
  1
Layout1
 70
     1
 71
     1
 10
0.0
 20
0.0
 11
420.0
 21
297.0
 12
0.0
 22
0.0
 32
0.0
 14
1.000000000000000E+20
 24
1.000000000000000E+20
 34
1.000000000000000E+20
 15
-1.000000000000000E+20
 25
-1.000000000000000E+20
 35
-1.000000000000000E+20
146
0.0
 13
0.0
 23
0.0
 33
0.0
 16
1.0
 26
0.0
 36
0.0
 17
0.0
 27
1.0
 37
0.0
 76
     0
330
1B
  0
LAYOUT
  5
26
102
{ACAD_REACTORS
330
1A
102
}
330
1A
100
AcDbPlotSettings
  1

  2
none_device
  4

  6

 40
0.0
 41
0.0
 42
0.0
 43
0.0
 44
0.0
 45
0.0
 46
0.0
 47
0.0
 48
0.0
 49
0.0
140
0.0
141
0.0
142
1.0
143
1.0
 70
   688
 72
     1
 73
     0
 74
     5
  7

 75
    16
147
1.0
148
0.0
149
0.0
100
AcDbLayout
  1
Layout2
 70
     1
 71
     2
 10
0.0
 20
0.0
 11
0.0
 21
0.0
 12
0.0
 22
0.0
 32
0.0
 14
0.0
 24
0.0
 34
0.0
 15
0.0
 25
0.0
 35
0.0
146
0.0
 13
0.0
 23
0.0
 33
0.0
 16
1.0
 26
0.0
 36
0.0
 17
0.0
 27
1.0
 37
0.0
 76
     0
330
23
  0
LAYOUT
  5
22
102
{ACAD_REACTORS
330
1A
102
}
330
1A
100
AcDbPlotSettings
  1

  2
none_device
  4
ANSI_A_(11.00_x_8.50_Inches)
  6

 40
6.35
 41
19.05
 42
6.35000508
 43
19.05000254
 44
279.4
 45
215.9
 46
137.695857613605
 47
118.4377884955873
 48
0.0
 49
0.0
140
0.0
141
0.0
142
0.1058944507156154
143
1.0
 70
  1696
 72
     0
 73
     0
 74
     0
  7

 75
     0
147
0.0235690232323232
148
0.0
149
0.0
100
AcDbLayout
  1
Model
 70
     1
 71
     0
 10
0.0
 20
0.0
 11
420.0
 21
297.0
 12
0.0
 22
0.0
 32
0.0
 14
-50.02724486045661
 24
-49.97073246008785
 34
0.0
 15
42.07983671061371
 25
28.61341044024269
 35
0.0
146
0.0
 13
0.0
 23
0.0
 33
0.0
 16
1.0
 26
0.0
 36
0.0
 17
0.0
 27
1.0
 37
0.0
 76
     0
330
1F
331
29
  0
MLINESTYLE
  5
18
102
{ACAD_REACTORS
330
17
102
}
330
17
100
AcDbMlineStyle
  2
Standard
 70
     0
  3

 62
   256
 51
90.0
 52
90.0
 71
     2
 49
0.5
 62
   256
  6
BYLAYER
 49
-0.5
 62
   256
  6
BYLAYER
  0
ACDBPLACEHOLDER
  5
F
102
{ACAD_REACTORS
330
E
102
}
330
E
  0
SCALE
  5
48
102
{ACAD_REACTORS
330
47
102
}
330
47
100
AcDbScale
 70
     0
300
1:1
140
1.0
141
1.0
290
     1
  0
SCALE
  5
49
102
{ACAD_REACTORS
330
47
102
}
330
47
100
AcDbScale
 70
     0
300
1:2
140
1.0
141
2.0
290
     0
  0
SCALE
  5
4A
102
{ACAD_REACTORS
330
47
102
}
330
47
100
AcDbScale
 70
     0
300
1:4
140
1.0
141
4.0
290
     0
  0
SCALE
  5
4B
102
{ACAD_REACTORS
330
47
102
}
330
47
100
AcDbScale
 70
     0
300
1:5
140
1.0
141
5.0
290
     0
  0
SCALE
  5
4C
102
{ACAD_REACTORS
330
47
102
}
330
47
100
AcDbScale
 70
     0
300
1:8
140
1.0
141
8.0
290
     0
  0
SCALE
  5
4D
102
{ACAD_REACTORS
330
47
102
}
330
47
100
AcDbScale
 70
     0
300
1:10
140
1.0
141
10.0
290
     0
  0
SCALE
  5
4E
102
{ACAD_REACTORS
330
47
102
}
330
47
100
AcDbScale
 70
     0
300
1:16
140
1.0
141
16.0
290
     0
  0
SCALE
  5
4F
102
{ACAD_REACTORS
330
47
102
}
330
47
100
AcDbScale
 70
     0
300
1:20
140
1.0
141
20.0
290
     0
  0
SCALE
  5
50
102
{ACAD_REACTORS
330
47
102
}
330
47
100
AcDbScale
 70
     0
300
1:30
140
1.0
141
30.0
290
     0
  0
SCALE
  5
51
102
{ACAD_REACTORS
330
47
102
}
330
47
100
AcDbScale
 70
     0
300
1:40
140
1.0
141
40.0
290
     0
  0
SCALE
  5
52
102
{ACAD_REACTORS
330
47
102
}
330
47
100
AcDbScale
 70
     0
300
1:50
140
1.0
141
50.0
290
     0
  0
SCALE
  5
53
102
{ACAD_REACTORS
330
47
102
}
330
47
100
AcDbScale
 70
     0
300
1:100
140
1.0
141
100.0
290
     0
  0
SCALE
  5
54
102
{ACAD_REACTORS
330
47
102
}
330
47
100
AcDbScale
 70
     0
300
2:1
140
2.0
141
1.0
290
     0
  0
SCALE
  5
55
102
{ACAD_REACTORS
330
47
102
}
330
47
100
AcDbScale
 70
     0
300
4:1
140
4.0
141
1.0
290
     0
  0
SCALE
  5
56
102
{ACAD_REACTORS
330
47
102
}
330
47
100
AcDbScale
 70
     0
300
8:1
140
8.0
141
1.0
290
     0
  0
SCALE
  5
57
102
{ACAD_REACTORS
330
47
102
}
330
47
100
AcDbScale
 70
     0
300
10:1
140
10.0
141
1.0
290
     0
  0
SCALE
  5
58
102
{ACAD_REACTORS
330
47
102
}
330
47
100
AcDbScale
 70
     0
300
100:1
140
100.0
141
1.0
290
     0
  0
SCALE
  5
59
102
{ACAD_REACTORS
330
47
102
}
330
47
100
AcDbScale
 70
     0
300
1/128" = 1'-0"
140
0.0078125
141
12.0
290
     0
  0
SCALE
  5
5A
102
{ACAD_REACTORS
330
47
102
}
330
47
100
AcDbScale
 70
     0
300
1/64" = 1'-0"
140
0.015625
141
12.0
290
     0
  0
SCALE
  5
5B
102
{ACAD_REACTORS
330
47
102
}
330
47
100
AcDbScale
 70
     0
300
1/32" = 1'-0"
140
0.03125
141
12.0
290
     0
  0
SCALE
  5
5C
102
{ACAD_REACTORS
330
47
102
}
330
47
100
AcDbScale
 70
     0
300
1/16" = 1'-0"
140
0.0625
141
12.0
290
     0
  0
SCALE
  5
5D
102
{ACAD_REACTORS
330
47
102
}
330
47
100
AcDbScale
 70
     0
300
3/32" = 1'-0"
140
0.09375
141
12.0
290
     0
  0
SCALE
  5
5E
102
{ACAD_REACTORS
330
47
102
}
330
47
100
AcDbScale
 70
     0
300
1/8" = 1'-0"
140
0.125
141
12.0
290
     0
  0
SCALE
  5
5F
102
{ACAD_REACTORS
330
47
102
}
330
47
100
AcDbScale
 70
     0
300
3/16" = 1'-0"
140
0.1875
141
12.0
290
     0
  0
SCALE
  5
60
102
{ACAD_REACTORS
330
47
102
}
330
47
100
AcDbScale
 70
     0
300
1/4" = 1'-0"
140
0.25
141
12.0
290
     0
  0
SCALE
  5
61
102
{ACAD_REACTORS
330
47
102
}
330
47
100
AcDbScale
 70
     0
300
3/8" = 1'-0"
140
0.375
141
12.0
290
     0
  0
SCALE
  5
62
102
{ACAD_REACTORS
330
47
102
}
330
47
100
AcDbScale
 70
     0
300
1/2" = 1'-0"
140
0.5
141
12.0
290
     0
  0
SCALE
  5
63
102
{ACAD_REACTORS
330
47
102
}
330
47
100
AcDbScale
 70
     0
300
3/4" = 1'-0"
140
0.75
141
12.0
290
     0
  0
SCALE
  5
64
102
{ACAD_REACTORS
330
47
102
}
330
47
100
AcDbScale
 70
     0
300
1" = 1'-0"
140
1.0
141
12.0
290
     0
  0
SCALE
  5
65
102
{ACAD_REACTORS
330
47
102
}
330
47
100
AcDbScale
 70
     0
300
1-1/2" = 1'-0"
140
1.5
141
12.0
290
     0
  0
SCALE
  5
66
102
{ACAD_REACTORS
330
47
102
}
330
47
100
AcDbScale
 70
     0
300
3" = 1'-0"
140
3.0
141
12.0
290
     0
  0
SCALE
  5
67
102
{ACAD_REACTORS
330
47
102
}
330
47
100
AcDbScale
 70
     0
300
6" = 1'-0"
140
6.0
141
12.0
290
     0
  0
SCALE
  5
68
102
{ACAD_REACTORS
330
47
102
}
330
47
100
AcDbScale
 70
     0
300
1'-0" = 1'-0"
140
12.0
141
12.0
290
     0
  0
ENDSEC
  0
EOF
