  0
SECTION
  2
HEADER
  9
$ACADVER
  1
AC1015
  9
$ACADMAINTVER
 70
     6
  9
$DWGCODEPAGE
  3
ANSI_949
  9
$INSBASE
 10
0.0
 20
0.0
 30
0.0
  9
$EXTMIN
 10
-59.3142405473766
 20
-49.97073246008785
 30
0.0
  9
$EXTMAX
 10
34.43874752149667
 20
28.61341044024269
 30
0.0
  9
$LIMMIN
 10
0.0
 20
0.0
  9
$LIMMAX
 10
420.0
 20
297.0
  9
$ORTHOMODE
 70
     0
  9
$REGENMODE
 70
     1
  9
$FILLMODE
 70
     1
  9
$QTEXTMODE
 70
     0
  9
$MIRRTEXT
 70
     1
  9
$LTSCALE
 40
1.0
  9
$ATTMODE
 70
     1
  9
$TEXTSIZE
 40
3.5
  9
$TRACEWID
 40
1.0
  9
$TEXTSTYLE
  7
Standard
  9
$CLAYER
  8
0
  9
$CELTYPE
  6
ByLayer
  9
$CECOLOR
 62
   256
  9
$CELTSCALE
 40
1.0
  9
$DISPSILH
 70
     0
  9
$DIMSCALE
 40
1.0
  9
$DIMASZ
 40
3.302
  9
$DIMEXO
 40
1.0
  9
$DIMDLI
 40
3.75
  9
$DIMRND
 40
0.0
  9
$DIMDLE
 40
0.0
  9
$DIMEXE
 40
1.0
  9
$DIMTP
 40
0.0
  9
$DIMTM
 40
0.0
  9
$DIMTXT
 40
3.5
  9
$DIMCEN
 40
2.5
  9
$DIMTSZ
 40
0.0
  9
$DIMTOL
 70
     0
  9
$DIMLIM
 70
     0
  9
$DIMTIH
 70
     1
  9
$DIMTOH
 70
     1
  9
$DIMSE1
 70
     0
  9
$DIMSE2
 70
     0
  9
$DIMTAD
 70
     1
  9
$DIMZIN
 70
     0
  9
$DIMBLK
  1

  9
$DIMASO
 70
     1
  9
$DIMSHO
 70
     1
  9
$DIMPOST
  1

  9
$DIMAPOST
  1

  9
$DIMALT
 70
     0
  9
$DIMALTD
 70
     3
  9
$DIMALTF
 40
0.0393700787401575
  9
$DIMLFAC
 40
1.0
  9
$DIMTOFL
 70
     1
  9
$DIMTVP
 40
0.0
  9
$DIMTIX
 70
     0
  9
$DIMSOXD
 70
     0
  9
$DIMSAH
 70
     0
  9
$DIMBLK1
  1

  9
$DIMBLK2
  1

  9
$DIMSTYLE
  2
ISO-25
  9
$DIMCLRD
 70
     0
  9
$DIMCLRE
 70
     0
  9
$DIMCLRT
 70
     0
  9
$DIMTFAC
 40
1.0
  9
$DIMGAP
 40
1.524
  9
$DIMJUST
 70
     0
  9
$DIMSD1
 70
     0
  9
$DIMSD2
 70
     0
  9
$DIMTOLJ
 70
     0
  9
$DIMTZIN
 70
     0
  9
$DIMALTZ
 70
     0
  9
$DIMALTTZ
 70
     0
  9
$DIMUPT
 70
     0
  9
$DIMDEC
 70
     2
  9
$DIMTDEC
 70
     2
  9
$DIMALTU
 70
     2
  9
$DIMALTTD
 70
     3
  9
$DIMTXSTY
  7
Standard
  9
$DIMAUNIT
 70
     0
  9
$DIMADEC
 70
     2
  9
$DIMALTRND
 40
0.0
  9
$DIMAZIN
 70
     0
  9
$DIMDSEP
 70
    44
  9
$DIMATFIT
 70
     3
  9
$DIMFRAC
 70
     0
  9
$DIMLDRBLK
  1

  9
$DIMLUNIT
 70
     2
  9
$DIMLWD
 70
    -2
  9
$DIMLWE
 70
    -2
  9
$DIMTMOVE
 70
     0
  9
$LUNITS
 70
     2
  9
$LUPREC
 70
     2
  9
$SKETCHINC
 40
1.0
  9
$FILLETRAD
 40
10.0
  9
$AUNITS
 70
     0
  9
$AUPREC
 70
     2
  9
$MENU
  1
.
  9
$ELEVATION
 40
0.0
  9
$PELEVATION
 40
0.0
  9
$THICKNESS
 40
0.0
  9
$LIMCHECK
 70
     0
  9
$CHAMFERA
 40
0.0
  9
$CHAMFERB
 40
0.0
  9
$CHAMFERC
 40
0.0
  9
$CHAMFERD
 40
0.0
  9
$SKPOLY
 70
     0
  9
$TDCREATE
 40
2458262.539101667
  9
$TDUCREATE
 40
2458262.164101667
  9
$TDUPDATE
 40
2458266.382252199
  9
$TDUUPDATE
 40
2458266.007252199
  9
$TDINDWG
 40
0.0016266551
  9
$TDUSRTIMER
 40
2458266.00562559
  9
$USRTIMER
 70
     1
  9
$ANGBASE
 50
0.0
  9
$ANGDIR
 70
     0
  9
$PDMODE
 70
     0
  9
$PDSIZE
 40
-1.0
  9
$PLINEWID
 40
0.0
  9
$SPLFRAME
 70
     0
  9
$SPLINETYPE
 70
     6
  9
$SPLINESEGS
 70
     8
  9
$HANDSEED
  5
14C
  9
$SURFTAB1
 70
     6
  9
$SURFTAB2
 70
     6
  9
$SURFTYPE
 70
     6
  9
$SURFU
 70
     6
  9
$SURFV
 70
     6
  9
$UCSBASE
  2

  9
$UCSNAME
  2

  9
$UCSORG
 10
0.0
 20
0.0
 30
0.0
  9
$UCSXDIR
 10
1.0
 20
0.0
 30
0.0
  9
$UCSYDIR
 10
0.0
 20
1.0
 30
0.0
  9
$UCSORTHOREF
  2

  9
$UCSORTHOVIEW
 70
     0
  9
$UCSORGTOP
 10
0.0
 20
0.0
 30
0.0
  9
$UCSORGBOTTOM
 10
0.0
 20
0.0
 30
0.0
  9
$UCSORGLEFT
 10
0.0
 20
0.0
 30
0.0
  9
$UCSORGRIGHT
 10
0.0
 20
0.0
 30
0.0
  9
$UCSORGFRONT
 10
0.0
 20
0.0
 30
0.0
  9
$UCSORGBACK
 10
0.0
 20
0.0
 30
0.0
  9
$PUCSBASE
  2

  9
$PUCSNAME
  2

  9
$PUCSORG
 10
0.0
 20
0.0
 30
0.0
  9
$PUCSXDIR
 10
1.0
 20
0.0
 30
0.0
  9
$PUCSYDIR
 10
0.0
 20
1.0
 30
0.0
  9
$PUCSORTHOREF
  2

  9
$PUCSORTHOVIEW
 70
     0
  9
$PUCSORGTOP
 10
0.0
 20
0.0
 30
0.0
  9
$PUCSORGBOTTOM
 10
0.0
 20
0.0
 30
0.0
  9
$PUCSORGLEFT
 10
0.0
 20
0.0
 30
0.0
  9
$PUCSORGRIGHT
 10
0.0
 20
0.0
 30
0.0
  9
$PUCSORGFRONT
 10
0.0
 20
0.0
 30
0.0
  9
$PUCSORGBACK
 10
0.0
 20
0.0
 30
0.0
  9
$USERI1
 70
     0
  9
$USERI2
 70
     0
  9
$USERI3
 70
     0
  9
$USERI4
 70
     0
  9
$USERI5
 70
     0
  9
$USERR1
 40
0.0
  9
$USERR2
 40
0.0
  9
$USERR3
 40
0.0
  9
$USERR4
 40
0.0
  9
$USERR5
 40
0.0
  9
$WORLDVIEW
 70
     1
  9
$SHADEDGE
 70
     3
  9
$SHADEDIF
 70
    70
  9
$TILEMODE
 70
     1
  9
$MAXACTVP
 70
    64
  9
$PINSBASE
 10
0.0
 20
0.0
 30
0.0
  9
$PLIMCHECK
 70
     0
  9
$PEXTMIN
 10
1.000000000000000E+20
 20
1.000000000000000E+20
 30
1.000000000000000E+20
  9
$PEXTMAX
 10
-1.000000000000000E+20
 20
-1.000000000000000E+20
 30
-1.000000000000000E+20
  9
$PLIMMIN
 10
0.0
 20
0.0
  9
$PLIMMAX
 10
0.0
 20
0.0
  9
$UNITMODE
 70
     0
  9
$VISRETAIN
 70
     1
  9
$PLINEGEN
 70
     0
  9
$PSLTSCALE
 70
     1
  9
$TREEDEPTH
 70
  3020
  9
$CMLSTYLE
  2
Standard
  9
$CMLJUST
 70
     0
  9
$CMLSCALE
 40
20.0
  9
$PROXYGRAPHICS
 70
     1
  9
$MEASUREMENT
 70
     1
  9
$CELWEIGHT
370
    -1
  9
$ENDCAPS
280
     0
  9
$JOINSTYLE
280
     0
  9
$LWDISPLAY
290
     1
  9
$INSUNITS
 70
     4
  9
$HYPERLINKBASE
  1

  9
$STYLESHEET
  1

  9
$XEDIT
290
     1
  9
$CEPSNTYPE
380
     0
  9
$PSTYLEMODE
290
     1
  9
$FINGERPRINTGUID
  2
{27C81BEF-D643-4720-A351-B600EE857B1A}
  9
$VERSIONGUID
  2
{FAEB1C32-E019-11D5-929B-00C0DF256EC4}
  9
$EXTNAMES
290
     1
  9
$PSVPSCALE
 40
0.0
  9
$OLESTARTUP
290
     0
  0
ENDSEC
  0
SECTION
  2
CLASSES
  0
CLASS
  1
ACDBDICTIONARYWDFLT
  2
AcDbDictionaryWithDefault
  3
ObjectDBX Classes
 90
        0
280
     0
281
     0
  0
CLASS
  1
VISUALSTYLE
  2
AcDbVisualStyle
  3
ObjectDBX Classes
 90
     4095
280
     0
281
     0
  0
CLASS
  1
MATERIAL
  2
AcDbMaterial
  3
ObjectDBX Classes
 90
     1153
280
     0
281
     0
  0
CLASS
  1
SCALE
  2
AcDbScale
  3
ObjectDBX Classes
 90
     1153
280
     0
281
     0
  0
CLASS
  1
SUN
  2
AcDbSun
  3
SCENEOE
 90
     1153
280
     0
281
     0
  0
CLASS
  1
ACDBPLACEHOLDER
  2
AcDbPlaceHolder
  3
ObjectDBX Classes
 90
        0
280
     0
281
     0
  0
CLASS
  1
LAYOUT
  2
AcDbLayout
  3
ObjectDBX Classes
 90
        0
280
     0
281
     0
  0
CLASS
  1
TABLESTYLE
  2
AcDbTableStyle
  3
ObjectDBX Classes
 90
     4095
280
     0
281
     0
  0
CLASS
  1
MLEADERSTYLE
  2
AcDbMLeaderStyle
  3
ACDB_MLEADERSTYLE_CLASS
 90
     4095
280
     0
281
     0
  0
CLASS
  1
RASTERVARIABLES
  2
AcDbRasterVariables
  3
ISM
 90
        0
280
     0
281
     0
  0
ENDSEC
  0
SECTION
  2
TABLES
  0
TABLE
  2
VPORT
  5
8
330
0
100
AcDbSymbolTable
 70
     1
  0
VPORT
  5
29
330
8
100
AcDbSymbolTableRecord
100
AcDbViewportTableRecord
  2
*Active
 70
     0
 10
0.0
 20
0.0
 11
1.0
 21
1.0
 12
-12.43774651293997
 22
-10.67866100992259
 13
0.0
 23
0.0
 14
10.0
 24
10.0
 15
10.0
 25
10.0
 16
0.0
 26
0.0
 36
1.0
 17
0.0
 27
0.0
 37
0.0
 40
82.97770069575569
 41
1.152454780361757
 42
50.0
 43
0.0
 44
0.0
 50
0.0
 51
0.0
 71
    16
 72
  2000
 73
     1
 74
     3
 75
     0
 76
     0
 77
     0
 78
     0
281
     0
 65
     1
110
0.0
120
0.0
130
0.0
111
1.0
121
0.0
131
0.0
112
0.0
122
1.0
132
0.0
 79
     0
146
0.0
  0
ENDTAB
  0
TABLE
  2
LTYPE
  5
5
330
0
100
AcDbSymbolTable
 70
     6
  0
LTYPE
  5
14
330
5
100
AcDbSymbolTableRecord
100
AcDbLinetypeTableRecord
  2
ByBlock
 70
     0
  3

 72
    65
 73
     0
 40
0.0
  0
LTYPE
  5
15
330
5
100
AcDbSymbolTableRecord
100
AcDbLinetypeTableRecord
  2
ByLayer
 70
     0
  3

 72
    65
 73
     0
 40
0.0
  0
LTYPE
  5
16
330
5
100
AcDbSymbolTableRecord
100
AcDbLinetypeTableRecord
  2
Continuous
 70
     0
  3
Solid line
 72
    65
 73
     0
 40
0.0
  0
LTYPE
  5
6A
330
5
100
AcDbSymbolTableRecord
100
AcDbLinetypeTableRecord
  2
HIDDEN
 70
     0
  3
Hidden __ __ __ __ __ __ __ __ __ __ __ __ __ __
 72
    65
 73
     2
 40
1.905
 49
1.27
 74
     0
 49
-0.635
 74
     0
  0
LTYPE
  5
6B
330
5
100
AcDbSymbolTableRecord
100
AcDbLinetypeTableRecord
  2
PHANTOM
 70
     0
  3
Phantom ______  __  __  ______  __  __  ______
 72
    65
 73
     6
 40
12.7
 49
6.35
 74
     0
 49
-1.27
 74
     0
 49
1.27
 74
     0
 49
-1.27
 74
     0
 49
1.27
 74
     0
 49
-1.27
 74
     0
  0
LTYPE
  5
6C
330
5
100
AcDbSymbolTableRecord
100
AcDbLinetypeTableRecord
  2
CENTER
 70
     0
  3
Center ____ _ ____ _ ____ _ ____ _ ____ _ ____
 72
    65
 73
     4
 40
10.16
 49
6.35
 74
     0
 49
-1.27
 74
     0
 49
1.27
 74
     0
 49
-1.27
 74
     0
  0
LTYPE
  5
6D
330
5
100
AcDbSymbolTableRecord
100
AcDbLinetypeTableRecord
  2
CENTERX2
 70
     0
  3
Center (2x) ________  __  ________  __  _____
 72
    65
 73
     4
 40
20.32
 49
12.7
 74
     0
 49
-2.54
 74
     0
 49
2.54
 74
     0
 49
-2.54
 74
     0
  0
LTYPE
  5
6E
330
5
100
AcDbSymbolTableRecord
100
AcDbLinetypeTableRecord
  2
DOT2
 70
     0
  3
Dot (.5x) ........................................
 72
    65
 73
     2
 40
0.635
 49
0.0
 74
     0
 49
-0.635
 74
     0
  0
ENDTAB
  0
TABLE
  2
LAYER
  5
2
330
0
100
AcDbSymbolTable
 70
    17
  0
LAYER
  5
10
330
2
100
AcDbSymbolTableRecord
100
AcDbLayerTableRecord
  2
0
 70
     0
 62
     7
  6
Continuous
370
    -3
390
F
  0
LAYER
  5
6F
330
2
100
AcDbSymbolTableRecord
100
AcDbLayerTableRecord
  2
FORMAT
 70
     0
 62
     2
  6
Continuous
370
    -3
390
F
  0
LAYER
  5
70
330
2
100
AcDbSymbolTableRecord
100
AcDbLayerTableRecord
  2
외형선
 70
     0
 62
   100
  6
Continuous
370
    30
390
F
  0
LAYER
  5
71
330
2
100
AcDbSymbolTableRecord
100
AcDbLayerTableRecord
  2
숨은선
 70
     0
 62
     2
  6
HIDDEN
370
    15
390
F
  0
LAYER
  5
72
330
2
100
AcDbSymbolTableRecord
100
AcDbLayerTableRecord
  2
중심선
 70
     0
 62
     1
  6
CENTERX2
370
    -3
390
F
  0
LAYER
  5
73
330
2
100
AcDbSymbolTableRecord
100
AcDbLayerTableRecord
  2
파단선
 70
     0
 62
     4
  6
Continuous
370
    -3
390
F
  0
LAYER
  5
74
330
2
100
AcDbSymbolTableRecord
100
AcDbLayerTableRecord
  2
해칭선
 70
     0
 62
     4
  6
Continuous
370
    -3
390
F
  0
LAYER
  5
75
330
2
100
AcDbSymbolTableRecord
100
AcDbLayerTableRecord
  2
가는실선
 70
     0
 62
     4
  6
Continuous
370
    -3
390
F
  0
LAYER
  5
76
330
2
100
AcDbSymbolTableRecord
100
AcDbLayerTableRecord
  2
치수_보조선
 70
     0
 62
     4
  6
Continuous
370
    -3
390
F
  0
LAYER
  5
77
330
2
100
AcDbSymbolTableRecord
100
AcDbLayerTableRecord
  2
치수문자_일반주서
 70
     0
 62
     7
  6
Continuous
370
    15
390
F
  0
LAYER
  5
78
330
2
100
AcDbSymbolTableRecord
100
AcDbLayerTableRecord
  2
개별주서
 70
     0
 62
   100
  6
Continuous
370
    30
390
F
  0
LAYER
  5
79
330
2
100
AcDbSymbolTableRecord
100
AcDbLayerTableRecord
  2
중간선
 70
     0
 62
     2
  6
Continuous
370
    15
390
F
  0
LAYER
  5
7A
330
2
100
AcDbSymbolTableRecord
100
AcDbLayerTableRecord
  2
윤곽선
 70
     0
 62
     3
  6
Continuous
370
    40
390
F
  0
LAYER
  5
7B
330
2
100
AcDbSymbolTableRecord
100
AcDbLayerTableRecord
  2
중심마크
 70
     0
 62
   100
  6
Continuous
370
    30
390
F
  0
LAYER
  5
7C
330
2
100
AcDbSymbolTableRecord
100
AcDbLayerTableRecord
  2
가상선
 70
     0
 62
     4
  6
PHANTOM
370
    -3
390
F
  0
LAYER
  5
7D
330
2
100
AcDbSymbolTableRecord
100
AcDbLayerTableRecord
  2
특수지정선
 70
     0
 62
     5
  6
CENTERX2
370
    60
390
F
  0
LAYER
  5
13D
330
2
100
AcDbSymbolTableRecord
100
AcDbLayerTableRecord
  2
Defpoints
 70
     0
 62
     7
  6
Continuous
290
     0
370
    -3
390
F
  0
ENDTAB
  0
TABLE
  2
STYLE
  5
3
330
0
100
AcDbSymbolTable
 70
     2
  0
STYLE
  5
11
330
3
100
AcDbSymbolTableRecord
100
AcDbTextStyleTableRecord
  2
Standard
 70
     0
 40
0.0
 41
1.0
 50
0.0
 71
     0
 42
3.5
  3
txt
  4

  0
STYLE
  5
93
330
3
100
AcDbSymbolTableRecord
100
AcDbTextStyleTableRecord
  2
SLDTEXTSTYLE0
 70
     0
 40
0.0
 41
0.75
 50
0.0
 71
     0
 42
3.5
  3
TXT
  4

  0
ENDTAB
  0
TABLE
  2
VIEW
  5
6
330
0
100
AcDbSymbolTable
 70
     0
  0
ENDTAB
  0
TABLE
  2
UCS
  5
7
330
0
100
AcDbSymbolTable
 70
     0
  0
ENDTAB
  0
TABLE
  2
APPID
  5
9
330
0
100
AcDbSymbolTable
 70
     1
  0
APPID
  5
12
330
9
100
AcDbSymbolTableRecord
100
AcDbRegAppTableRecord
  2
ACAD
 70
     0
  0
ENDTAB
  0
TABLE
  2
DIMSTYLE
  5
A
330
0
100
AcDbSymbolTable
 70
     3
100
AcDbDimStyleTable
  0
DIMSTYLE
105
27
330
A
100
AcDbSymbolTableRecord
100
AcDbDimStyleTableRecord
  2
ISO-25
 70
     0
 41
2.5
 42
0.625
 43
3.75
 44
1.25
 73
     0
 74
     0
 77
     1
 78
     8
140
2.5
141
2.5
143
0.03937007874016
147
0.625
171
     3
172
     1
178
     0
271
     2
272
     2
274
     3
278
    44
283
     0
284
     8
340
11
  0
DIMSTYLE
105
E3
102
{ACAD_REACTORS
330
E2
330
FB
330
105
102
}
330
A
100
AcDbSymbolTableRecord
100
AcDbDimStyleTableRecord
  2
SLDDIMSTYLE0
 70
     0
 41
3.302
 44
0.0
 45
0.000000001
 73
     0
 74
     0
 77
     1
 78
    12
 79
     3
140
3.5
147
0.875
172
     1
173
     1
178
     0
271
     2
272
     2
276
     2
284
    12
289
     0
340
93
  0
DIMSTYLE
105
F1
102
{ACAD_REACTORS
330
F0
102
}
330
A
100
AcDbSymbolTableRecord
100
AcDbDimStyleTableRecord
  2
SLDDIMSTYLE1
 70
     0
 41
3.302
 44
0.0
 45
0.000000001
 73
     0
 74
     0
 77
     1
 78
    12
 79
     3
140
3.5
147
0.875
173
     1
178
     0
271
     2
272
     2
276
     2
284
    12
340
93
  0
ENDTAB
  0
TABLE
  2
BLOCK_RECORD
  5
1
330
0
100
AcDbSymbolTable
 70
     7
  0
BLOCK_RECORD
  5
1F
330
1
100
AcDbSymbolTableRecord
100
AcDbBlockTableRecord
  2
*Model_Space
340
22
  0
BLOCK_RECORD
  5
1B
330
1
100
AcDbSymbolTableRecord
100
AcDbBlockTableRecord
  2
*Paper_Space
340
1E
  0
BLOCK_RECORD
  5
23
330
1
100
AcDbSymbolTableRecord
100
AcDbBlockTableRecord
  2
*Paper_Space0
340
26
  0
BLOCK_RECORD
  5
7E
330
1
100
AcDbSymbolTableRecord
100
AcDbBlockTableRecord
  2
블럭10
340
0
102
{BLKREFS
331
DB
102
}
  0
BLOCK_RECORD
  5
E4
330
1
100
AcDbSymbolTableRecord
100
AcDbBlockTableRecord
  2
_D
340
0
  0
BLOCK_RECORD
  5
F2
330
1
100
AcDbSymbolTableRecord
100
AcDbBlockTableRecord
  2
_D_1
340
0
  0
BLOCK_RECORD
  5
FC
330
1
100
AcDbSymbolTableRecord
100
AcDbBlockTableRecord
  2
_D_2
340
0
  0
BLOCK_RECORD
  5
106
330
1
100
AcDbSymbolTableRecord
100
AcDbBlockTableRecord
  2
_D_3
340
0
  0
BLOCK_RECORD
  5
112
330
1
100
AcDbSymbolTableRecord
100
AcDbBlockTableRecord
  2
SW_DOWELSYMBOL_0
340
0
102
{BLKREFS
331
118
102
}
  0
ENDTAB
  0
ENDSEC
  0
SECTION
  2
BLOCKS
  0
BLOCK
  5
20
330
1F
100
AcDbEntity
  8
0
100
AcDbBlockBegin
  2
*Model_Space
 70
     0
 10
0.0
 20
0.0
 30
0.0
  3
*Model_Space
  1

  0
ENDBLK
  5
21
330
1F
100
AcDbEntity
  8
0
100
AcDbBlockEnd
  0
BLOCK
  5
1C
330
1B
100
AcDbEntity
 67
     1
  8
0
100
AcDbBlockBegin
  2
*Paper_Space
 70
     0
 10
0.0
 20
0.0
 30
0.0
  3
*Paper_Space
  1

  0
ENDBLK
  5
1D
330
1B
100
AcDbEntity
 67
     1
  8
0
100
AcDbBlockEnd
  0
BLOCK
  5
24
330
23
100
AcDbEntity
  8
0
100
AcDbBlockBegin
  2
*Paper_Space0
 70
     0
 10
0.0
 20
0.0
 30
0.0
  3
*Paper_Space0
  1

  0
ENDBLK
  5
25
330
23
100
AcDbEntity
  8
0
100
AcDbBlockEnd
  0
BLOCK
  5
7F
330
7E
100
AcDbEntity
  8
0
100
AcDbBlockBegin
  2
블럭10
 70
     2
 10
0.0
 20
0.0
 30
0.0
  3
블럭10
  1

  0
ELLIPSE
  5
81
330
7E
100
AcDbEntity
  8
중심선
100
AcDbEllipse
 10
20.54032771741204
 20
12.0471743016438
 30
0.0
 11
6.600054785286829
 21
-1.261213355974178E-13
 31
0.0
210
0.0
220
0.0
230
1.0
 40
0.636358354079598
 41
0.9219305317359503
 42
6.513795318482858
  0
ELLIPSE
  5
82
330
7E
100
AcDbEntity
  8
중심선
100
AcDbEllipse
 10
20.54032771746488
 20
12.04717430159265
 30
0.0
 11
3.960054785062283
 21
1.540847449632565E-10
 31
0.0
210
0.0
220
0.0
230
1.0
 40
0.3939339440162632
 41
1.131841032648279
 42
5.62031148352944
  0
LINE
  5
83
330
7E
100
AcDbEntity
  8
중심선
100
AcDbLine
 10
2.268634060543552
 20
16.24717430164393
 30
0.0
 11
5.714909304380834
 21
16.24717430164393
 31
0.0
  0
LINE
  5
84
330
7E
100
AcDbEntity
  8
중심선
100
AcDbLine
 10
5.245725140726316
 20
7.84717430164391
 30
0.0
 11
8.692000384563599
 21
7.84717430164391
 31
0.0
  0
LINE
  5
85
330
7E
100
AcDbEntity
  8
중심선
100
AcDbLine
 10
15.74043728645272
 20
16.24717430164393
 30
0.0
 11
8.692000384563599
 21
7.84717430164391
 31
0.0
  0
LINE
  5
86
330
7E
100
AcDbEntity
  8
중심선
100
AcDbLine
 10
0.1404042013395286
 20
13.71084872107135
 30
0.0
 11
3.58671253028996
 21
13.71088815037384
 31
0.0
  0
LINE
  5
87
330
7E
100
AcDbEntity
  8
중심선
100
AcDbLine
 10
2.750260043222114
 20
10.84717430164391
 30
0.0
 11
6.196535287059397
 21
10.84717430164391
 31
0.0
  0
LINE
  5
88
330
7E
100
AcDbEntity
  8
중심선
100
AcDbLine
 10
12.29416204261559
 20
16.24717430164393
 30
0.0
 11
5.245725140726316
 21
7.84717430164391
 31
0.0
  0
LINE
  5
89
330
7E
100
AcDbEntity
  8
중심선
100
AcDbLine
 10
10.72767329541681
 20
16.24717430164393
 30
0.0
 11
6.196535287059397
 21
10.84717430164391
 31
0.0
  0
LINE
  5
8A
330
7E
100
AcDbEntity
  8
중심선
100
AcDbLine
 10
7.28139805157953
 20
16.24717430164393
 30
0.0
 11
2.750260043222114
 21
10.84717430164391
 31
0.0
  0
LINE
  5
8B
330
7E
100
AcDbEntity
  8
중심선
100
AcDbLine
 10
5.714909304380834
 20
16.24717430164393
 30
0.0
 11
3.58671253028996
 21
13.71088815037384
 31
0.0
  0
LINE
  5
8C
330
7E
100
AcDbEntity
  8
중심선
100
AcDbLine
 10
2.268634060543552
 20
16.24717430164393
 30
0.0
 11
0.1404042013395286
 21
13.71084872107135
 31
0.0
  0
LINE
  5
8D
330
7E
100
AcDbEntity
  8
중심선
100
AcDbLine
 10
7.28139805157953
 20
16.24717430164393
 30
0.0
 11
10.72767329541681
 21
16.24717430164393
 31
0.0
  0
LINE
  5
8E
330
7E
100
AcDbEntity
  8
중심선
100
AcDbLine
 10
12.29416204261559
 20
16.24717430164393
 30
0.0
 11
15.74043728645272
 21
16.24717430164393
 31
0.0
  0
LINE
  5
8F
330
7E
100
AcDbEntity
  8
중심선
100
AcDbLine
 10
19.22036997980202
 20
11.08717430171403
 30
0.0
 11
23.66174974927406
 21
11.08717430171406
 31
0.0
  0
LINE
  5
90
330
7E
100
AcDbEntity
  8
중심선
100
AcDbLine
 10
19.22039502424796
 20
13.00717430171391
 30
0.0
 11
19.22036997980202
 21
11.08717430171403
 31
0.0
  0
LINE
  5
91
330
7E
100
AcDbEntity
  8
중심선
100
AcDbLine
 10
19.22039502424796
 20
13.00717430171391
 30
0.0
 11
26.96566020931264
 21
13.00717430171391
 31
0.0
  0
LINE
  5
92
330
7E
100
AcDbEntity
  8
중심선
100
AcDbLine
 10
22.22332737316547
 20
13.45928029700563
 30
0.0
 11
24.52862924686651
 21
15.39360700705356
 31
0.0
  0
ATTDEF
  5
94
330
7E
100
AcDbEntity
  8
FORMAT
 62
     2
100
AcDbText
 10
-16.11926103943555
 20
2.075366912832191
 30
0.0
 40
4.233333333333333
  1
SEME7004020E [ 2 FLUTE ]
 41
0.75
  7
SLDTEXTSTYLE0
 11
-16.11926103943555
 21
-0.0412997538344756
 31
0.0
100
AcDbAttributeDefinition
  3

  2
AUTOATTR0
 70
     0
 74
     1
  0
ENDBLK
  5
80
330
7E
100
AcDbEntity
  8
0
100
AcDbBlockEnd
  0
BLOCK
  5
E5
330
E4
100
AcDbEntity
  8
0
100
AcDbBlockBegin
  2
_D
 70
     0
 10
0.0
 20
0.0
 30
0.0
  3
_D
  1

  0
LINE
  5
E7
330
E4
100
AcDbEntity
  8
치수문자_일반주서
 62
     0
370
    -2
100
AcDbLine
 10
26.79455080756887
 20
-1.999999999999925
 30
0.0
 11
33.88841418816332
 21
-1.999999999999899
 31
0.0
  0
LINE
  5
E8
330
E4
100
AcDbEntity
  8
치수문자_일반주서
 62
     0
370
    -2
100
AcDbLine
 10
26.79455080756887
 20
2.000000000000073
 30
0.0
 11
33.8884141881633
 21
2.000000000000099
 31
0.0
  0
LINE
  5
E9
330
E4
100
AcDbEntity
  8
치수문자_일반주서
 62
     0
370
    -2
100
AcDbLine
 10
33.88841418816332
 20
-1.999999999999899
 30
0.0
 11
33.88841418816325
 21
14.7290000000001
 31
0.0
  0
LINE
  5
EA
330
E4
100
AcDbEntity
  8
치수문자_일반주서
 62
     0
370
    -2
100
AcDbLine
 10
33.88841418816332
 20
-1.999999999999899
 30
0.0
 11
33.8884141881633
 21
2.000000000000099
 31
0.0
  0
LINE
  5
EB
330
E4
100
AcDbEntity
  8
치수문자_일반주서
 62
     0
370
    -2
100
AcDbLine
 10
33.88841418816333
 20
-5.301999999999898
 30
0.0
 11
33.88841418816335
 21
-8.603999999999898
 31
0.0
  0
LINE
  5
EC
330
E4
100
AcDbEntity
  8
치수문자_일반주서
 62
     0
370
    -2
100
AcDbLine
 10
33.88841418816329
 20
5.302000000000099
 30
0.0
 11
33.88841418816327
 21
8.604000000000099
 31
0.0
  0
SOLID
  5
ED
330
E4
100
AcDbEntity
  8
치수문자_일반주서
 62
     0
100
AcDbTrace
 10
34.43874752149667
 20
-5.301999999999897
 30
0.0
 11
33.33808085483
 21
-5.3019999999999
 31
0.0
 12
33.88841418816332
 22
-1.999999999999899
 32
0.0
 13
33.88841418816332
 23
-1.999999999999899
 33
0.0
  0
SOLID
  5
EE
330
E4
100
AcDbEntity
  8
치수문자_일반주서
 62
     0
100
AcDbTrace
 10
33.33808085482995
 20
5.302000000000097
 30
0.0
 11
34.43874752149662
 21
5.302000000000101
 31
0.0
 12
33.8884141881633
 22
2.000000000000099
 32
0.0
 13
33.8884141881633
 23
2.000000000000099
 33
0.0
  0
MTEXT
  5
EF
330
E4
100
AcDbEntity
  8
치수문자_일반주서
 62
     0
100
AcDbMText
 10
29.51341418816327
 20
11.66650000000008
 30
0.0
 40
3.5
 41
0.0
 71
     2
 72
     1
  1
\A1;%%c4
  7
SLDTEXTSTYLE0
 11
-3.552713678800503E-15
 21
1.0
 31
0.0
 73
     1
 44
1.0
  0
POINT
  5
144
330
E4
100
AcDbEntity
  8
Defpoints
 62
     0
100
AcDbPoint
 10
26.73205080756887
 20
-1.999999999999926
 30
0.0
  0
POINT
  5
145
330
E4
100
AcDbEntity
  8
Defpoints
 62
     0
100
AcDbPoint
 10
26.73205080756887
 20
2.000000000000073
 30
0.0
  0
POINT
  5
146
330
E4
100
AcDbEntity
  8
Defpoints
 62
     0
100
AcDbPoint
 10
33.8884141881633
 20
2.000000000000099
 30
0.0
  0
ENDBLK
  5
E6
330
E4
100
AcDbEntity
  8
0
100
AcDbBlockEnd
  0
BLOCK
  5
F3
330
F2
100
AcDbEntity
  8
0
100
AcDbBlockBegin
  2
_D_1
 70
     0
 10
0.0
 20
0.0
 30
0.0
  3
_D_1
  1

  0
LINE
  5
F5
330
F2
100
AcDbEntity
  8
치수문자_일반주서
 62
     0
370
    -2
100
AcDbLine
 10
-43.26794919243113
 20
2.512499999999994
 30
0.0
 11
-43.26794919243113
 21
24.23841044024269
 31
0.0
  0
LINE
  5
F6
330
F2
100
AcDbEntity
  8
치수문자_일반주서
 62
     0
370
    -2
100
AcDbLine
 10
26.73205080756887
 20
2.062500000000073
 30
0.0
 11
26.73205080756887
 21
24.23841044024269
 31
0.0
  0
LINE
  5
F7
330
F2
100
AcDbEntity
  8
치수문자_일반주서
 62
     0
370
    -2
100
AcDbLine
 10
-39.96594919243113
 20
24.23841044024269
 30
0.0
 11
23.43005080756887
 21
24.23841044024269
 31
0.0
  0
SOLID
  5
F8
330
F2
100
AcDbEntity
  8
치수문자_일반주서
 62
     0
100
AcDbTrace
 10
-39.96594919243113
 20
24.78874377357602
 30
0.0
 11
-39.96594919243113
 21
23.68807710690935
 31
0.0
 12
-43.26794919243113
 22
24.23841044024269
 32
0.0
 13
-43.26794919243113
 23
24.23841044024269
 33
0.0
  0
SOLID
  5
F9
330
F2
100
AcDbEntity
  8
치수문자_일반주서
 62
     0
100
AcDbTrace
 10
23.43005080756887
 20
23.68807710690935
 30
0.0
 11
23.43005080756887
 21
24.78874377357602
 31
0.0
 12
26.73205080756887
 22
24.23841044024269
 32
0.0
 13
26.73205080756887
 23
24.23841044024269
 33
0.0
  0
MTEXT
  5
FA
330
F2
100
AcDbEntity
  8
치수문자_일반주서
 62
     0
100
AcDbMText
 10
-8.26794919243113
 20
28.61341044024269
 30
0.0
 40
3.5
 41
0.0
 71
     2
 72
     1
  1
\A1;70
  7
SLDTEXTSTYLE0
 73
     1
 44
1.0
  0
POINT
  5
13E
330
F2
100
AcDbEntity
  8
Defpoints
 62
     0
100
AcDbPoint
 10
-43.26794919243113
 20
2.449999999999994
 30
0.0
  0
POINT
  5
13F
330
F2
100
AcDbEntity
  8
Defpoints
 62
     0
100
AcDbPoint
 10
26.73205080756887
 20
2.000000000000073
 30
0.0
  0
POINT
  5
140
330
F2
100
AcDbEntity
  8
Defpoints
 62
     0
100
AcDbPoint
 10
26.73205080756887
 20
24.23841044024269
 30
0.0
  0
ENDBLK
  5
F4
330
F2
100
AcDbEntity
  8
0
100
AcDbBlockEnd
  0
BLOCK
  5
FD
330
FC
100
AcDbEntity
  8
0
100
AcDbBlockBegin
  2
_D_2
 70
     0
 10
0.0
 20
0.0
 30
0.0
  3
_D_2
  1

  0
LINE
  5
FF
330
FC
100
AcDbEntity
  8
치수문자_일반주서
 62
     0
370
    -2
100
AcDbLine
 10
6.732050807568866
 20
2.027035713562639
 30
0.0
 11
6.732050807568864
 21
15.31153351973016
 31
0.0
  0
LINE
  5
100
330
FC
100
AcDbEntity
  8
치수문자_일반주서
 62
     0
370
    -2
100
AcDbLine
 10
26.73205080756887
 20
2.062500000000073
 30
0.0
 11
26.73205080756887
 21
15.31153351973016
 31
0.0
  0
LINE
  5
101
330
FC
100
AcDbEntity
  8
치수문자_일반주서
 62
     0
370
    -2
100
AcDbLine
 10
10.03405080756886
 20
15.31153351973016
 30
0.0
 11
23.43005080756887
 21
15.31153351973016
 31
0.0
  0
SOLID
  5
102
330
FC
100
AcDbEntity
  8
치수문자_일반주서
 62
     0
100
AcDbTrace
 10
10.03405080756886
 20
15.86186685306349
 30
0.0
 11
10.03405080756886
 21
14.76120018639683
 31
0.0
 12
6.732050807568864
 22
15.31153351973016
 32
0.0
 13
6.732050807568864
 23
15.31153351973016
 33
0.0
  0
SOLID
  5
103
330
FC
100
AcDbEntity
  8
치수문자_일반주서
 62
     0
100
AcDbTrace
 10
23.43005080756887
 20
14.76120018639683
 30
0.0
 11
23.43005080756887
 21
15.86186685306349
 31
0.0
 12
26.73205080756887
 22
15.31153351973016
 32
0.0
 13
26.73205080756887
 23
15.31153351973016
 33
0.0
  0
MTEXT
  5
104
330
FC
100
AcDbEntity
  8
치수문자_일반주서
 62
     0
100
AcDbMText
 10
16.73205080756887
 20
19.68653351973016
 30
0.0
 40
3.5
 41
0.0
 71
     2
 72
     1
  1
\A1;20
  7
SLDTEXTSTYLE0
 73
     1
 44
1.0
  0
POINT
  5
141
330
FC
100
AcDbEntity
  8
Defpoints
 62
     0
100
AcDbPoint
 10
6.732050807568866
 20
1.964535713562639
 30
0.0
  0
POINT
  5
142
330
FC
100
AcDbEntity
  8
Defpoints
 62
     0
100
AcDbPoint
 10
26.73205080756887
 20
2.000000000000073
 30
0.0
  0
POINT
  5
143
330
FC
100
AcDbEntity
  8
Defpoints
 62
     0
100
AcDbPoint
 10
26.73205080756887
 20
15.31153351973016
 30
0.0
  0
ENDBLK
  5
FE
330
FC
100
AcDbEntity
  8
0
100
AcDbBlockEnd
  0
BLOCK
  5
107
330
106
100
AcDbEntity
  8
0
100
AcDbBlockBegin
  2
_D_3
 70
     0
 10
0.0
 20
0.0
 30
0.0
  3
_D_3
  1

  0
LINE
  5
109
330
106
100
AcDbEntity
  8
치수문자_일반주서
 62
     0
370
    -2
100
AcDbLine
 10
-42.78044919243113
 20
2.999999999999994
 30
0.0
 11
-54.93924054737656
 21
2.999999999999948
 31
0.0
  0
LINE
  5
10A
330
106
100
AcDbEntity
  8
치수문자_일반주서
 62
     0
370
    -2
100
AcDbLine
 10
-42.78044919243113
 20
-3.0
 30
0.0
 11
-54.93924054737654
 21
-3.000000000000046
 31
0.0
  0
LINE
  5
10B
330
106
100
AcDbEntity
  8
치수문자_일반주서
 62
     0
370
    -2
100
AcDbLine
 10
-54.93924054737656
 20
2.999999999999948
 30
0.0
 11
-54.93924054737661
 21
15.72899999999995
 31
0.0
  0
LINE
  5
10C
330
106
100
AcDbEntity
  8
치수문자_일반주서
 62
     0
370
    -2
100
AcDbLine
 10
-54.93924054737656
 20
2.999999999999948
 30
0.0
 11
-54.93924054737654
 21
-3.000000000000046
 31
0.0
  0
LINE
  5
10D
330
106
100
AcDbEntity
  8
치수문자_일반주서
 62
     0
370
    -2
100
AcDbLine
 10
-54.93924054737657
 20
6.301999999999948
 30
0.0
 11
-54.93924054737658
 21
9.603999999999948
 31
0.0
  0
LINE
  5
10E
330
106
100
AcDbEntity
  8
치수문자_일반주서
 62
     0
370
    -2
100
AcDbLine
 10
-54.93924054737652
 20
-6.302000000000046
 30
0.0
 11
-54.93924054737651
 21
-9.604000000000045
 31
0.0
  0
SOLID
  5
10F
330
106
100
AcDbEntity
  8
치수문자_일반주서
 62
     0
100
AcDbTrace
 10
-55.48957388070991
 20
6.301999999999946
 30
0.0
 11
-54.38890721404324
 21
6.30199999999995
 31
0.0
 12
-54.93924054737656
 22
2.999999999999948
 32
0.0
 13
-54.93924054737656
 23
2.999999999999948
 33
0.0
  0
SOLID
  5
110
330
106
100
AcDbEntity
  8
치수문자_일반주서
 62
     0
100
AcDbTrace
 10
-54.38890721404319
 20
-6.302000000000044
 30
0.0
 11
-55.48957388070986
 21
-6.302000000000048
 31
0.0
 12
-54.93924054737654
 22
-3.000000000000046
 32
0.0
 13
-54.93924054737654
 23
-3.000000000000046
 33
0.0
  0
MTEXT
  5
111
330
106
100
AcDbEntity
  8
치수문자_일반주서
 62
     0
100
AcDbMText
 10
-59.31424054737659
 20
12.66649999999993
 30
0.0
 40
3.5
 41
0.0
 71
     2
 72
     1
  1
\A1;%%c6
  7
SLDTEXTSTYLE0
 11
-3.552713678800504E-15
 21
1.0
 31
0.0
 73
     1
 44
1.0
  0
POINT
  5
147
330
106
100
AcDbEntity
  8
Defpoints
 62
     0
100
AcDbPoint
 10
-42.71794919243113
 20
2.999999999999994
 30
0.0
  0
POINT
  5
148
330
106
100
AcDbEntity
  8
Defpoints
 62
     0
100
AcDbPoint
 10
-42.71794919243113
 20
-3.0
 30
0.0
  0
POINT
  5
149
330
106
100
AcDbEntity
  8
Defpoints
 62
     0
100
AcDbPoint
 10
-54.93924054737654
 20
-3.000000000000046
 30
0.0
  0
ENDBLK
  5
108
330
106
100
AcDbEntity
  8
0
100
AcDbBlockEnd
  0
BLOCK
  5
113
330
112
100
AcDbEntity
  8
0
100
AcDbBlockBegin
  2
SW_DOWELSYMBOL_0
 70
     0
 10
0.0
 20
0.0
 30
0.0
  3
SW_DOWELSYMBOL_0
  1

  0
CIRCLE
  5
115
330
112
100
AcDbEntity
  8
외형선
 62
     0
100
AcDbCircle
 10
0.0
 20
0.0
 30
0.0
 40
3.000000000000004
  0
HATCH
  5
116
330
112
100
AcDbEntity
  8
0
  6
Continuous
 62
     0
370
    30
100
AcDbHatch
 10
0.0
 20
0.0
 30
0.0
210
0.0
220
0.0
230
1.0
  2
SOLID
 70
     1
 71
     0
 91
        1
 92
        0
 93
        3
 72
     2
 10
0.0000000000000104
 20
0.0
 40
3.000000000000004
 50
0.0
 51
90.0
 73
     1
 72
     1
 10
0.0000000000000104
 20
3.000000000000004
 11
0.0000000000000104
 21
0.0
 72
     1
 10
0.0000000000000104
 20
0.0
 11
3.000000000000015
 21
0.0
 97
        0
 75
     0
 76
     1
 98
        1
 10
0.0
 20
0.0
  0
HATCH
  5
117
330
112
100
AcDbEntity
  8
0
  6
Continuous
 62
     0
370
    30
100
AcDbHatch
 10
0.0
 20
0.0
 30
0.0
210
0.0
220
0.0
230
1.0
  2
SOLID
 70
     1
 71
     0
 91
        1
 92
        0
 93
        3
 72
     2
 10
0.0000000000000104
 20
0.0
 40
3.000000000000004
 50
180.0
 51
270.0000000000008
 73
     1
 72
     1
 10
0.0000000000000104
 20
-3.000000000000004
 11
0.0000000000000104
 21
0.0
 72
     1
 10
0.0000000000000104
 20
0.0
 11
-2.999999999999994
 21
0.0
 97
        0
 75
     0
 76
     1
 98
        1
 10
0.0
 20
0.0
  0
ENDBLK
  5
114
330
112
100
AcDbEntity
  8
0
100
AcDbBlockEnd
  0
ENDSEC
  0
SECTION
  2
ENTITIES
  0
LINE
  5
95
330
1F
100
AcDbEntity
  8
0
  6
Continuous
 62
     1
370
    15
100
AcDbLine
 10
20.54887801302569
 20
0.5056600870647543
 30
0.0
 11
20.4219078651826
 21
0.5750719046677459
 31
0.0
  0
LINE
  5
96
330
1F
100
AcDbEntity
  8
0
  6
Continuous
 62
     1
370
    15
100
AcDbLine
 10
9.582816691165712
 20
0.5512647787214887
 30
0.0
 11
9.53923827934147
 21
0.575001880766438
 31
0.0
  0
LINE
  5
97
330
1F
100
AcDbEntity
  8
0
  6
Continuous
 62
     1
370
    15
100
AcDbLine
 10
16.9610144740658
 20
2.000000000000002
 30
0.0
 11
15.99201058023628
 21
2.000000000000002
 31
0.0
  0
LINE
  5
98
330
1F
100
AcDbEntity
  8
0
  6
Continuous
 62
     1
370
    15
100
AcDbLine
 10
15.99201058023628
 20
-2.000000000000002
 30
0.0
 11
16.96101447406582
 21
-2.000000000000002
 31
0.0
  0
SPLINE
  5
99
330
1F
100
AcDbEntity
  8
0
  6
Continuous
 62
     1
370
    15
100
AcDbSpline
210
0.0
220
0.0
230
1.0
 70
     8
 71
     3
 72
     9
 73
     5
 74
     0
 42
0.000000001
 43
0.00000001
 40
0.0
 40
0.0
 40
0.0
 40
0.0
 40
0.4368327016853013
 40
1.0
 40
1.0
 40
1.0
 40
1.0
 10
10.66659522670146
 20
0.5126157931295919
 30
0.0
 10
10.58609834097241
 20
0.5510221873099119
 30
0.0
 10
10.40182439486331
 20
0.6389423316401052
 30
0.0
 10
10.21751920270882
 20
0.7355899368960973
 30
0.0
 10
10.1137245455778
 20
0.7900187076366997
 30
0.0
  0
LINE
  5
9A
330
1F
100
AcDbEntity
  8
0
  6
Continuous
 62
     1
370
    15
100
AcDbLine
 10
21.03209370897683
 20
0.7716141664669021
 30
0.0
 11
20.99663570229669
 21
0.7899578195097613
 31
0.0
  0
SPLINE
  5
9B
330
1F
100
AcDbEntity
  8
0
  6
Continuous
 62
     1
370
    15
100
AcDbSpline
210
0.0
220
0.0
230
1.0
 70
     8
 71
     3
 72
     9
 73
     5
 74
     0
 42
0.000000001
 43
0.00000001
 40
0.0
 40
0.0
 40
0.0
 40
0.0
 40
0.5434429251720877
 40
1.0
 40
1.0
 40
1.0
 40
1.0
 10
21.54946667597906
 20
0.5125806026604635
 30
0.0
 10
21.45576840440709
 20
0.5573993010942502
 30
0.0
 10
21.28335237462384
 20
0.6398710683356663
 30
0.0
 10
21.11085061002481
 20
0.7303193593144466
 30
0.0
 10
21.03209370897683
 20
0.7716141664669021
 30
0.0
  0
SPLINE
  5
9C
330
1F
100
AcDbEntity
  8
0
  6
Continuous
 62
     1
370
    15
100
AcDbSpline
210
0.0
220
0.0
230
1.0
 70
     8
 71
     3
 72
    21
 73
    17
 74
     0
 42
0.000000001
 43
0.00000001
 40
0.0
 40
0.0
 40
0.0
 40
0.0
 40
0.1279257864233738
 40
0.2121339970148094
 40
0.2668247217611981
 40
0.3233705743973199
 40
0.3810302436792727
 40
0.438301777222605
 40
0.4959147777583499
 40
0.5535569139558902
 40
0.6087716041210613
 40
0.6615157877359711
 40
0.7149134357456001
 40
0.77181011044947
 40
0.8635975307076038
 40
1.0
 40
1.0
 40
1.0
 40
1.0
 10
7.016192675422717
 20
-1.662560833601124
 30
0.0
 10
7.143926869480591
 20
-1.650417313336859
 30
0.0
 10
7.355743156865246
 20
-1.630280220077464
 30
0.0
 10
7.621380415794162
 20
-1.610557719828483
 30
0.0
 10
7.814904316599444
 20
-1.597942365563767
 30
0.0
 10
7.983278913847327
 20
-1.588356444578914
 30
0.0
 10
8.154371856299482
 20
-1.580060722404016
 30
0.0
 10
8.32638895665349
 20
-1.573212020375009
 30
0.0
 10
8.498494945300811
 20
-1.567973177711369
 30
0.0
 10
8.668620964288303
 20
-1.564349128679352
 30
0.0
 10
8.833616337624813
 20
-1.562303706801461
 30
0.0
 10
8.993979598802687
 20
-1.5616720466889
 30
0.0
 10
9.156580243999214
 20
-1.56238495562175
 30
0.0
 10
9.358651990103604
 20
-1.565128462776846
 30
0.0
 10
9.642895884176175
 20
-1.572027399536571
 30
0.0
 10
9.870918701399054
 20
-1.582826701486939
 30
0.0
 10
10.00722130177049
 20
-1.589282077119776
 30
0.0
  0
SPLINE
  5
9D
330
1F
100
AcDbEntity
  8
0
  6
Continuous
 62
     1
370
    15
100
AcDbSpline
210
0.0
220
0.0
230
1.0
 70
     8
 71
     3
 72
    10
 73
     6
 74
     0
 42
0.000000001
 43
0.00000001
 40
0.0
 40
0.0
 40
0.0
 40
0.0
 40
0.3781121042130364
 40
0.9062353835194356
 40
1.0
 40
1.0
 40
1.0
 40
1.0
 10
20.89002659828844
 20
1.58928256180545
 30
0.0
 10
20.68077220298036
 20
1.580361389749237
 30
0.0
 10
20.17924438868351
 20
1.558979683927808
 30
0.0
 10
19.62618401403017
 20
1.557280202369318
 30
0.0
 10
19.28226207343532
 20
1.572270958969384
 30
0.0
 10
19.23040753650416
 20
1.574531177495716
 30
0.0
  0
SPLINE
  5
9E
330
1F
100
AcDbEntity
  8
0
  6
Continuous
 62
     1
370
    15
100
AcDbSpline
210
0.0
220
0.0
230
1.0
 70
     8
 71
     3
 72
    12
 73
     8
 74
     0
 42
0.000000001
 43
0.00000001
 40
0.0
 40
0.0
 40
0.0
 40
0.0
 40
0.2081668605864562
 40
0.4999733054013709
 40
0.698419256685574
 40
0.7913790815609899
 40
1.0
 40
1.0
 40
1.0
 40
1.0
 10
17.88220330212763
 20
-1.664265360608798
 30
0.0
 10
18.09096905560398
 20
-1.645074869051729
 30
0.0
 10
18.59238077659609
 20
-1.598983317932431
 30
0.0
 10
19.29220331031214
 20
-1.5660674784781
 30
0.0
 10
19.87732674840158
 20
-1.560231895317097
 30
0.0
 10
20.37809948535992
 20
-1.566504114569446
 30
0.0
 10
20.68070014469372
 20
-1.579968478886436
 30
0.0
 10
20.89002659828844
 20
-1.589282561805447
 30
0.0
  0
SPLINE
  5
9F
330
1F
100
AcDbEntity
  8
0
  6
Continuous
 62
     1
370
    15
100
AcDbSpline
210
0.0
220
0.0
230
1.0
 70
     8
 71
     3
 72
    15
 73
    11
 74
     0
 42
0.000000001
 43
0.00000001
 40
0.0
 40
0.0
 40
0.0
 40
0.0
 40
0.2497141996717457
 40
0.4177509097738218
 40
0.5219125694663932
 40
0.6196685045770272
 40
0.7162281318848228
 40
0.8173105553647316
 40
0.9228369434324091
 40
1.0
 40
1.0
 40
1.0
 40
1.0
 10
10.00722130177049
 20
1.589282077119777
 30
0.0
 10
9.870918698430634
 20
1.58282665143193
 30
0.0
 10
9.64289587624184
 20
1.572027265743729
 30
0.0
 10
9.358652007102046
 20
1.565128749413218
 30
0.0
 10
9.156580207165993
 20
1.562384334521347
 30
0.0
 10
8.993979728317646
 20
1.561674230635931
 30
0.0
 10
8.833615849822253
 20
1.562295481226813
 30
0.0
 10
8.668622917035202
 20
1.564382056889904
 30
0.0
 10
8.513920884536303
 20
1.567530393723626
 30
0.0
 10
8.414384588692899
 20
1.570729858688303
 30
0.0
 10
8.372343162369516
 20
1.572081225739357
 30
0.0
  0
SPLINE
  5
A0
330
1F
100
AcDbEntity
  8
0
  6
Continuous
 62
     1
370
    15
100
AcDbSpline
210
0.0
220
0.0
230
1.0
 70
     8
 71
     3
 72
    13
 73
     9
 74
     0
 42
0.000000001
 43
0.00000001
 40
0.0
 40
0.0
 40
0.0
 40
0.0
 40
0.2208659349187773
 40
0.3646097329396755
 40
0.5095585028384396
 40
0.6782492915372456
 40
0.8511191007800448
 40
1.0
 40
1.0
 40
1.0
 40
1.0
 10
22.49414339826621
 20
-1.504302345778043
 30
0.0
 10
22.60270529382385
 20
-1.487753304265917
 30
0.0
 10
22.78192135881481
 20
-1.460433828275367
 30
0.0
 10
23.0385437989222
 20
-1.42723006869693
 30
0.0
 10
23.26850191105584
 20
-1.400320538695371
 30
0.0
 10
23.51046584710168
 20
-1.375699770727431
 30
0.0
 10
23.75488446666086
 20
-1.354838812374482
 30
0.0
 10
23.91529121879168
 20
-1.344887208829568
 30
0.0
 10
23.98951483623851
 20
-1.340282390112848
 30
0.0
  0
SPLINE
  5
A1
330
1F
100
AcDbEntity
  8
0
  6
Continuous
 62
     1
370
    15
100
AcDbSpline
210
0.0
220
0.0
230
1.0
 70
     8
 71
     3
 72
    23
 73
    19
 74
     0
 42
0.000000001
 43
0.00000001
 40
0.0
 40
0.0
 40
0.0
 40
0.0
 40
0.0949633542577358
 40
0.1568222726092444
 40
0.2013429159174062
 40
0.2492970100314652
 40
0.3014256726837083
 40
0.3588200093745642
 40
0.4195558724925153
 40
0.4805946700611111
 40
0.5933114645606106
 40
0.6899413346799318
 40
0.7394020396446777
 40
0.7873448917382384
 40
0.820111552804586
 40
0.8665929866769702
 40
0.9266992816147943
 40
1.0
 40
1.0
 40
1.0
 40
1.0
 10
15.10529256659793
 20
1.367898817317144
 30
0.0
 10
14.99478350274434
 20
1.359095442197748
 30
0.0
 10
14.81228907978616
 20
1.34455756804991
 30
0.0
 10
14.57822415387037
 20
1.331858693722661
 30
0.0
 10
14.3977276048128
 20
1.324368329957873
 30
0.0
 10
14.2291490263246
 20
1.31940627566337
 30
0.0
 10
14.04568661652231
 20
1.316327833959258
 30
0.0
 10
13.8473160542239
 20
1.315769800032875
 30
0.0
 10
13.63886204684931
 20
1.318380117843386
 30
0.0
 10
13.36595803045885
 20
1.326094462395603
 30
0.0
 10
13.05088848172253
 20
1.341862131725775
 30
0.0
 10
12.74928054934007
 20
1.364769397176501
 30
0.0
 10
12.5235263433537
 20
1.386179470871652
 30
0.0
 10
12.3737680202303
 20
1.402009104093272
 30
0.0
 10
12.22633182613725
 20
1.418880506656964
 30
0.0
 10
12.06385677531773
 20
1.438950307343647
 30
0.0
 10
11.85359818923262
 20
1.467167857883968
 30
0.0
 10
11.69730013875767
 20
1.491126457596038
 30
0.0
 10
11.61142189970077
 20
1.504290552396256
 30
0.0
  0
SPLINE
  5
A2
330
1F
100
AcDbEntity
  8
0
  6
Continuous
 62
     1
370
    15
100
AcDbSpline
210
0.0
220
0.0
230
1.0
 70
     8
 71
     3
 72
    15
 73
    11
 74
     0
 42
0.000000001
 43
0.00000001
 40
0.0
 40
0.0
 40
0.0
 40
0.0
 40
0.1718770392323752
 40
0.3128155217019624
 40
0.4986203911964431
 40
0.611037781526688
 40
0.7270142646357912
 40
0.8419939195518652
 40
0.9535980390362951
 40
1.0
 40
1.0
 40
1.0
 40
1.0
 10
11.61142189970078
 20
-1.504290552396254
 30
0.0
 10
11.69729960122506
 20
-1.491127906587725
 30
0.0
 10
11.85359667339283
 20
-1.467171944034713
 30
0.0
 10
12.10215196938652
 20
-1.433797006029691
 30
0.0
 10
12.32031896243731
 20
-1.407639973678063
 30
0.0
 10
12.52352372863197
 20
-1.386190251472599
 30
0.0
 10
12.6939007058547
 20
-1.369992701407362
 30
0.0
 10
12.86408907482876
 20
-1.35615128826051
 30
0.0
 10
12.9997381136127
 20
-1.346328316469026
 30
0.0
 10
13.07824946988627
 20
-1.341946907316717
 30
0.0
 10
13.10130605656117
 20
-1.340660210147374
 30
0.0
  0
SPLINE
  5
A3
330
1F
100
AcDbEntity
  8
0
  6
Continuous
 62
     1
370
    15
100
AcDbSpline
210
0.0
220
0.0
230
1.0
 70
     8
 71
     3
 72
    20
 73
    16
 74
     0
 42
0.000000001
 43
0.00000001
 40
0.0
 40
0.0
 40
0.0
 40
0.0
 40
0.1008369204003032
 40
0.1629119096431115
 40
0.2231944108624375
 40
0.2930555409331532
 40
0.3660139702444831
 40
0.4375689266869859
 40
0.5036986412549632
 40
0.621530065482386
 40
0.7290841982744358
 40
0.7651380643097418
 40
0.8143454558983401
 40
0.8928896924376065
 40
0.9999999999999999
 40
0.9999999999999999
 40
0.9999999999999999
 40
0.9999999999999999
 10
25.99914542630385
 20
1.368840871716865
 30
0.0
 10
25.88212713878227
 20
1.359447605344639
 30
0.0
 10
25.693072647554
 20
1.344271864590054
 30
0.0
 10
25.43021635995213
 20
1.33026233556876
 30
0.0
 10
25.20402200629391
 20
1.321558603531303
 30
0.0
 10
24.9670712191276
 20
1.316447643826268
 30
0.0
 10
24.71659269514955
 20
1.315573678553089
 30
0.0
 10
24.47085197184911
 20
1.319356326650937
 30
0.0
 10
24.16710602747019
 20
1.329367219452662
 30
0.0
 10
23.83155097309856
 20
1.348405530625939
 30
0.0
 10
23.52696814965243
 20
1.374090524162068
 30
0.0
 10
23.30195470184059
 20
1.397067663574672
 30
0.0
 10
23.11094513490267
 20
1.418405620377641
 30
0.0
 10
22.83672256899001
 20
1.452514597207848
 30
0.0
 10
22.61947866352135
 20
1.485355393485825
 30
0.0
 10
22.49414339826621
 20
1.504302345778045
 30
0.0
  0
LINE
  5
A4
330
1F
100
AcDbEntity
  8
0
  6
Continuous
 62
   131
370
    15
100
AcDbLine
 10
2.0
 20
-3.0
 30
0.0
 11
5.732050807568866
 21
-2.0
 31
0.0
  0
LINE
  5
A5
330
1F
100
AcDbEntity
  8
0
  6
Continuous
 62
   131
370
    15
100
AcDbLine
 10
5.732050807568866
 20
2.0
 30
0.0
 11
2.0
 21
3.0
 31
0.0
  0
LINE
  5
A6
330
1F
100
AcDbEntity
  8
0
  6
Continuous
 62
   131
370
    15
100
AcDbLine
 10
2.0
 20
2.999999999999998
 30
0.0
 11
-42.71794919243113
 21
2.999999999999996
 31
0.0
  0
LINE
  5
A7
330
1F
100
AcDbEntity
  8
0
  6
Continuous
 62
   131
370
    15
100
AcDbLine
 10
-42.71794919243113
 20
-3.000000000000001
 30
0.0
 11
2.0
 21
-2.999999999999999
 31
0.0
  0
LINE
  5
A8
330
1F
100
AcDbEntity
  8
0
  6
Continuous
 62
   131
370
    15
100
AcDbLine
 10
-42.71794919243113
 20
2.999999999999994
 30
0.0
 11
-43.26794919243113
 21
2.449999999999994
 31
0.0
  0
LINE
  5
A9
330
1F
100
AcDbEntity
  8
0
  6
Continuous
 62
   131
370
    15
100
AcDbLine
 10
-43.26794919243113
 20
-2.45
 30
0.0
 11
-42.71794919243113
 21
-3.0
 31
0.0
  0
LINE
  5
AA
330
1F
100
AcDbEntity
  8
0
  6
Continuous
 62
   131
370
    15
100
AcDbLine
 10
6.078529821910957
 20
2.0
 30
0.0
 11
5.732050807568866
 21
2.0
 31
0.0
  0
LINE
  5
AB
330
1F
100
AcDbEntity
  8
0
  6
Continuous
 62
   131
370
    15
100
AcDbLine
 10
5.732050807568866
 20
-2.0
 30
0.0
 11
6.078529821910957
 21
-2.0
 31
0.0
  0
SPLINE
  5
AC
330
1F
100
AcDbEntity
  8
0
  6
Continuous
 62
     1
370
    15
100
AcDbSpline
210
0.0
220
0.0
230
1.0
 70
     8
 71
     3
 72
    23
 73
    19
 74
     0
 42
0.000000001
 43
0.00000001
 40
0.0
 40
0.0
 40
0.0
 40
0.0
 40
0.0037157616704621
 40
0.0803201824525512
 40
0.1569248907404283
 40
0.2335305314126646
 40
0.2973596437696139
 40
0.3613066944629899
 40
0.4252560222585687
 40
0.4890862879322058
 40
0.5528763257922518
 40
0.6167057249131217
 40
0.680653345942474
 40
0.7446021081054662
 40
0.8084320838847504
 40
0.8722221206915932
 40
0.9360518076199312
 40
1.0
 40
1.0
 40
1.0
 40
1.0
 10
13.10228707913649
 20
1.341125814280266
 30
0.0
 10
13.11917178041764
 20
1.349178526415049
 30
0.0
 10
13.4841527473994
 20
1.523246554794045
 30
0.0
 10
14.1972420915127
 20
1.756399031473392
 30
0.0
 10
15.24148441399641
 20
1.985235119730277
 30
0.0
 10
16.22791489255213
 20
2.020503483548053
 30
0.0
 10
17.15606712342371
 20
1.907934281462715
 30
0.0
 10
18.02739469116343
 20
1.682052844017428
 30
0.0
 10
18.89868896870703
 20
1.350802887947109
 30
0.0
 10
19.76881005647358
 20
0.9343554235461461
 30
0.0
 10
20.63832100029444
 20
0.459385380317392
 30
0.0
 10
21.50842641293287
 20
-0.0446287077063981
 30
0.0
 10
22.37971853252561
 20
-0.5455046999903491
 30
0.0
 10
23.25101923590534
 20
-1.011969561244067
 30
0.0
 10
24.12113312879013
 20
-1.415845820514351
 30
0.0
 10
24.9906448197011
 20
-1.72821500613355
 30
0.0
 10
25.86075436809304
 20
-1.941084275665581
 30
0.0
 10
26.44143914562337
 20
-1.979222721907217
 30
0.0
 10
26.73205080756887
 20
-1.999999999999926
 30
0.0
  0
SPLINE
  5
AD
330
1F
100
AcDbEntity
  8
0
  6
Continuous
 62
     1
370
    15
100
AcDbSpline
210
0.0
220
0.0
230
1.0
 70
     8
 71
     3
 72
    16
 73
    12
 74
     0
 42
0.000000001
 43
0.00000001
 40
0.0
 40
0.0
 40
0.0
 40
0.0
 40
0.0384110025241255
 40
0.1690084002027666
 40
0.2995181921525926
 40
0.4301175340410858
 40
0.5609818510598618
 40
0.6918410607888822
 40
0.8224378151166479
 40
0.9529476118307628
 40
1.0
 40
1.0
 40
1.0
 40
1.0
 10
21.76385497605523
 20
-0.1893302307686186
 30
0.0
 10
21.67855946521724
 20
-0.155698458283793
 30
0.0
 10
21.30325924174215
 20
-0.0077186688973087
 30
0.0
 10
20.63835739744923
 20
0.2653555805226883
 30
0.0
 10
19.76879712319714
 20
0.6017274749638423
 30
0.0
 10
18.89862124799036
 20
0.9016375033065673
 30
0.0
 10
18.02740014813715
 20
1.143943839598446
 30
0.0
 10
17.15619472241708
 20
1.316093058790735
 30
0.0
 10
16.28602711906481
 20
1.400002231071407
 30
0.0
 10
15.60196476298902
 20
1.413384064109095
 30
0.0
 10
15.20775587980922
 20
1.369392095581771
 30
0.0
 10
15.10329405758439
 20
1.357734618057285
 30
0.0
  0
SPLINE
  5
AE
330
1F
100
AcDbEntity
  8
0
  6
Continuous
 62
     1
370
    15
100
AcDbSpline
210
0.0
220
0.0
230
1.0
 70
     8
 71
     3
 72
    17
 73
    13
 74
     0
 42
0.000000001
 43
0.00000001
 40
0.0
 40
0.0
 40
0.0
 40
0.0
 40
0.0934671516426692
 40
0.186984173729033
 40
0.2806737934065764
 40
0.3743866729163631
 40
0.467915523741474
 40
0.5806787184933744
 40
0.693440437693144
 40
0.8062016305187807
 40
0.9189632465510058
 40
1.0
 40
1.0
 40
1.0
 40
1.0
 10
6.732050807567379
 20
1.78456811100671
 30
0.0
 10
7.020438858663173
 20
1.69853241552461
 30
0.0
 10
7.597368833523518
 20
1.526415119253232
 30
0.0
 10
8.463402677263263
 20
1.143279233138362
 30
0.0
 10
9.33063350706423
 20
0.6972076232852821
 30
0.0
 10
10.19803189834639
 20
0.2058028943814703
 30
0.0
 10
11.12356801557824
 20
-0.333170405344869
 30
0.0
 10
12.10868554486617
 20
-0.8825128842904738
 30
0.0
 10
13.1529283557537
 20
-1.38707855581597
 30
0.0
 10
14.19723357837257
 20
-1.760167275781692
 30
0.0
 10
15.14358549886098
 20
-1.97572635651986
 30
0.0
 10
15.74184745186199
 20
-1.979919556857484
 30
0.0
 10
15.99201058023628
 20
-1.981672942826787
 30
0.0
  0
SPLINE
  5
AF
330
1F
100
AcDbEntity
  8
0
  6
Continuous
 62
     1
370
    15
100
AcDbSpline
210
0.0
220
0.0
230
1.0
 70
     8
 71
     3
 72
    11
 73
     7
 74
     0
 42
0.000000001
 43
0.00000001
 40
0.0
 40
0.0
 40
0.0
 40
0.0
 40
0.0472447498289343
 40
0.3645019070230504
 40
0.6819562624860132
 40
1.0
 40
1.0
 40
1.0
 40
1.0
 10
23.99185443110727
 20
1.341355180756093
 30
0.0
 10
24.03500481181966
 20
1.361385243340507
 30
0.0
 10
24.36791791042609
 20
1.515920848592849
 30
0.0
 10
24.99063224847313
 20
1.723454862713814
 30
0.0
 10
25.86075751852358
 20
1.942277198207149
 30
0.0
 10
26.44144019641598
 20
1.979620608535318
 30
0.0
 10
26.73205080756887
 20
2.000000000000073
 30
0.0
  0
SPLINE
  5
B0
330
1F
100
AcDbEntity
  8
0
  6
Continuous
 62
     1
370
    15
100
AcDbSpline
210
0.0
220
0.0
230
1.0
 70
    24
 71
     3
 72
    10
 73
     6
 74
     0
 42
0.000000001
 43
0.00000001
 40
0.0
 40
0.0
 40
0.0
 40
0.0
 40
0.5
 40
0.5
 40
1.0
 40
1.0
 40
1.0
 40
1.0
 10
26.73205080756887
 20
1.400000000000003
 30
0.0
 10
26.73205080756887
 20
1.48486451361463
 30
0.0
 10
26.73205080756887
 20
1.583484937734238
 30
0.0
 10
26.73205080756887
 20
1.790390321921715
 30
0.0
 10
26.73205080756887
 20
1.89814687160295
 30
0.0
 10
26.73205080756887
 20
2.000000000000073
 30
0.0
  0
LINE
  5
B1
330
1F
100
AcDbEntity
  8
0
  6
Continuous
 62
     1
370
    15
100
AcDbLine
 10
26.73205080756887
 20
1.400000000000002
 30
0.0
 11
25.99756404108728
 21
1.362919273577811
 31
0.0
  0
SPLINE
  5
B2
330
1F
100
AcDbEntity
  8
0
  6
Continuous
 62
     1
370
    15
100
AcDbSpline
210
0.0
220
0.0
230
1.0
 70
     8
 71
     3
 72
    12
 73
     8
 74
     0
 42
0.000000001
 43
0.00000001
 40
0.0
 40
0.0
 40
0.0
 40
0.0
 40
0.1653746560798957
 40
0.3754915139086121
 40
0.5855920464306964
 40
0.7928641120796615
 40
0.9999999999999999
 40
0.9999999999999999
 40
0.9999999999999999
 40
0.9999999999999999
 10
10.88053250025905
 20
-0.1895792051326588
 30
0.0
 10
10.65187337956239
 20
-0.0974975610453781
 30
0.0
 10
10.13269129063386
 20
0.1115784652401901
 30
0.0
 10
9.322749862632426
 20
0.4363892167267262
 30
0.0
 10
8.454877428135168
 20
0.7545963380033734
 30
0.0
 10
7.59140501723734
 20
1.030723809286475
 30
0.0
 10
7.018439450453885
 20
1.158362325996544
 30
0.0
 10
6.732050807568866
 20
1.222160612838916
 30
0.0
  0
SPLINE
  5
B3
330
1F
100
AcDbEntity
  8
0
  6
Continuous
 62
   131
370
    15
100
AcDbSpline
210
0.0
220
0.0
230
1.0
 70
    24
 71
     3
 72
    10
 73
     6
 74
     0
 42
0.000000001
 43
0.00000001
 40
0.0
 40
0.0
 40
0.0
 40
0.0
 40
0.5
 40
0.5
 40
1.0
 40
1.0
 40
1.0
 40
1.0
 10
6.732050807568866
 20
1.784568111006322
 30
0.0
 10
6.732050807568866
 20
1.709629890942136
 30
0.0
 10
6.732050807568866
 20
1.618526685584746
 30
0.0
 10
6.732050807568866
 20
1.423496342156035
 30
0.0
 10
6.732050807568866
 20
1.32014402026859
 30
0.0
 10
6.732050807568866
 20
1.222160612838917
 30
0.0
  0
SPLINE
  5
B4
330
1F
100
AcDbEntity
  8
0
  6
Continuous
 62
     1
370
    15
100
AcDbSpline
210
0.0
220
0.0
230
1.0
 70
     8
 71
     3
 72
    18
 73
    14
 74
     0
 42
0.000000001
 43
0.00000001
 40
0.0
 40
0.0
 40
0.0
 40
0.0
 40
0.089209073364858
 40
0.1782528227782174
 40
0.2672412617966212
 40
0.3562854275974702
 40
0.4454953221977914
 40
0.5347035719920933
 40
0.6415899850846392
 40
0.7484706270537714
 40
0.8553463861077222
 40
0.9622181541757816
 40
1.0
 40
1.0
 40
1.0
 40
1.0
 10
26.73205080756887
 20
-1.897881738463798
 30
0.0
 10
26.44144086057324
 20
-1.833439289287891
 30
0.0
 10
25.86075953046309
 20
-1.704673816908572
 30
0.0
 10
24.99065588853865
 20
-1.372264733000162
 30
0.0
 10
24.12114720161477
 20
-0.962316394110743
 30
0.0
 10
23.25104695555877
 20
-0.4894310048472761
 30
0.0
 10
22.37971967339494
 20
0.0131515719780374
 30
0.0
 10
21.45043333304164
 20
0.5487904741992957
 30
0.0
 10
20.46347340549121
 20
1.077180802669255
 30
0.0
 10
19.41901132914992
 20
1.542177895219359
 30
0.0
 10
18.3745962134544
 20
1.856041573339705
 30
0.0
 10
17.55527108695318
 20
2.006126416808584
 30
0.0
 10
17.08408326651999
 20
1.984833279588331
 30
0.0
 10
16.9610144740658
 20
1.979271759167772
 30
0.0
  0
SPLINE
  5
B5
330
1F
100
AcDbEntity
  8
0
  6
Continuous
 62
     1
370
    15
100
AcDbSpline
210
0.0
220
0.0
230
1.0
 70
     8
 71
     3
 72
     9
 73
     5
 74
     0
 42
0.000000001
 43
0.00000001
 40
0.0
 40
0.0
 40
0.0
 40
0.0
 40
0.4725136510555419
 40
1.0
 40
1.0
 40
1.0
 40
1.0
 10
8.372343162369516
 20
-1.572081225739356
 30
0.0
 10
8.113968563431756
 20
-1.659553504067583
 30
0.0
 10
7.567159813334102
 20
-1.844674670689591
 30
0.0
 10
7.02043872064089
 20
-1.923144139798935
 30
0.0
 10
6.732050807565225
 20
-1.964535713563032
 30
0.0
  0
LINE
  5
B6
330
1F
100
AcDbEntity
  8
0
  6
Continuous
 62
     1
370
    15
100
AcDbLine
 10
26.73205080756887
 20
-1.999999999999926
 30
0.0
 11
26.73205080756887
 21
-1.897881738463802
 31
0.0
  0
SPLINE
  5
B7
330
1F
100
AcDbEntity
  8
0
  6
Continuous
 62
     1
370
    15
100
AcDbSpline
210
0.0
220
0.0
230
1.0
 70
     8
 71
     3
 72
    20
 73
    16
 74
     0
 42
0.000000001
 43
0.00000001
 40
0.0
 40
0.0
 40
0.0
 40
0.0
 40
0.06814364840233
 40
0.1517246136269549
 40
0.2353031575612639
 40
0.3188799819863076
 40
0.4024557899980133
 40
0.4860312854699801
 40
0.5696071725150016
 40
0.6531841549461953
 40
0.7225071436308615
 40
0.7919665317466996
 40
0.8614085961329009
 40
0.9307227724052053
 40
1.0
 40
1.0
 40
1.0
 40
1.0
 10
19.22606197201112
 20
-1.575856896156813
 30
0.0
 10
18.94223582037533
 20
-1.670862140945161
 30
0.0
 10
18.31028531282526
 20
-1.882395194956889
 30
0.0
 10
17.33023024091773
 20
-2.016305002782108
 30
0.0
 10
16.28590026267609
 20
-1.992859102303493
 30
0.0
 10
15.24159501888085
 20
-1.785381752666916
 30
0.0
 10
14.19730983051321
 20
-1.417955710850096
 30
0.0
 10
13.15301110548013
 20
-0.922296969190436
 30
0.0
 10
12.10877458319402
 20
-0.3435001539137466
 30
0.0
 10
11.12365485925275
 20
0.2316187265807713
 30
0.0
 10
10.19810773401484
 20
0.7529775556645056
 30
0.0
 10
9.330690054098435
 20
1.194036653526847
 30
0.0
 10
8.463440512058915
 20
1.558611633142263
 30
0.0
 10
7.597387854889183
 20
1.835136608047415
 30
0.0
 10
7.020445218747264
 20
1.921410345294027
 30
0.0
 10
6.732050807565225
 20
1.964535713563033
 30
0.0
  0
LINE
  5
B8
330
1F
100
AcDbEntity
  8
0
  6
Continuous
 62
   131
370
    15
100
AcDbLine
 10
6.732050807568866
 20
1.784568111006322
 30
0.0
 11
6.732050807568866
 21
1.964535713552173
 31
0.0
  0
SPLINE
  5
B9
330
1F
100
AcDbEntity
  8
0
  6
Continuous
 62
     1
370
    15
100
AcDbSpline
210
0.0
220
0.0
230
1.0
 70
     8
 71
     3
 72
    16
 73
    12
 74
     0
 42
0.000000001
 43
0.00000001
 40
0.0
 40
0.0
 40
0.0
 40
0.0
 40
0.1006492463050979
 40
0.2209608205622705
 40
0.3411954861682591
 40
0.4615099995243302
 40
0.5820595673855461
 40
0.7026022028462652
 40
0.8229131958657286
 40
0.9431478681157888
 40
1.0
 40
1.0
 40
1.0
 40
1.0
 10
17.88355929332067
 20
-1.656729060535385
 30
0.0
 10
17.64092336522339
 20
-1.676935664897084
 30
0.0
 10
17.10825138069858
 20
-1.72129633369935
 30
0.0
 10
16.28607289089808
 20
-1.660588869930437
 30
0.0
 10
15.41654347805845
 20
-1.502955113302533
 30
0.0
 10
14.54639508293393
 20
-1.247841945365874
 30
0.0
 10
13.67513345060228
 20
-0.9155160024443197
 30
0.0
 10
12.80389764046204
 20
-0.5250299248472751
 30
0.0
 10
11.93376689665509
 20
-0.1031107216134257
 30
0.0
 10
11.21718694634323
 20
0.2554284030549729
 30
0.0
 10
10.79042173450197
 20
0.4521749812955375
 30
0.0
 10
10.65341258678028
 20
0.5153387075177284
 30
0.0
  0
SPLINE
  5
BA
330
1F
100
AcDbEntity
  8
0
  6
Continuous
 62
   131
370
    15
100
AcDbSpline
210
0.0
220
0.0
230
1.0
 70
    24
 71
     3
 72
     8
 73
     4
 74
     0
 42
0.000000001
 43
0.00000001
 40
0.0
 40
0.0
 40
0.0
 40
0.0
 40
1.0
 40
1.0
 40
1.0
 40
1.0
 10
6.732050807568978
 20
-1.686029484017949
 30
0.0
 10
6.732050807568978
 20
-1.782551962546603
 30
0.0
 10
6.732050807568978
 20
-1.876000389128333
 30
0.0
 10
6.732050807568978
 20
-1.964535713551689
 30
0.0
  0
SPLINE
  5
BB
330
1F
100
AcDbEntity
  8
0
  6
Continuous
 62
     1
370
    15
100
AcDbSpline
210
0.0
220
0.0
230
1.0
 70
     8
 71
     3
 72
    13
 73
     9
 74
     0
 42
0.000000001
 43
0.00000001
 40
0.0
 40
0.0
 40
0.0
 40
0.0
 40
0.1675102999023484
 40
0.3346963055634801
 40
0.5017738055854049
 40
0.6689606280782747
 40
0.8364725387729347
 40
0.9999999999999999
 40
0.9999999999999999
 40
0.9999999999999999
 40
0.9999999999999999
 10
26.73205080756887
 20
-1.57794452873643
 30
0.0
 10
26.44144671029388
 20
-1.515319115548717
 30
0.0
 10
25.86080111538868
 20
-1.390189529842447
 30
0.0
 10
24.99066606951435
 20
-1.088409492190617
 30
0.0
 10
24.12113739597264
 20
-0.7252931886856444
 30
0.0
 10
23.25100294573417
 20
-0.3151913247369723
 30
0.0
 10
22.38663576319452
 20
0.1128272830884135
 30
0.0
 10
21.81238628596251
 20
0.3867069617467178
 30
0.0
 10
21.52871743238299
 20
0.5219985685205092
 30
0.0
  0
LINE
  5
BC
330
1F
100
AcDbEntity
  8
0
  6
Continuous
 62
     1
370
    15
100
AcDbLine
 10
7.01897386768877
 20
-1.650914697179393
 30
0.0
 11
6.732050807568866
 21
-1.686029484017957
 31
0.0
  0
LINE
  5
BD
330
1F
100
AcDbEntity
  8
0
  6
Continuous
 62
     1
370
    15
100
AcDbLine
 10
26.73205080756887
 20
-1.8978817384638
 30
0.0
 11
26.73205080756887
 21
-1.57794452873643
 31
0.0
  0
SPLINE
  5
BE
330
1F
100
AcDbEntity
  8
0
  6
Continuous
 62
     1
370
    15
100
AcDbSpline
210
0.0
220
0.0
230
1.0
 70
     8
 71
     3
 72
     8
 73
     4
 74
     0
 42
0.000000001
 43
0.00000001
 40
0.0
 40
0.0
 40
0.0
 40
0.0
 40
1.0
 40
1.0
 40
1.0
 40
1.0
 10
25.49388441220074
 20
0.5601200555101534
 30
0.0
 10
25.404404481809
 20
0.6661245607306371
 30
0.0
 10
25.32678444586534
 20
0.7674220582597918
 30
0.0
 10
25.26551150639243
 20
0.8616562015384647
 30
0.0
  0
LINE
  5
BF
330
1F
100
AcDbEntity
  8
0
  6
Continuous
 62
     1
370
    15
100
AcDbLine
 10
25.26551150639242
 20
0.8616562015384657
 30
0.0
 11
26.73205080756887
 21
0.0000000000000028
 31
0.0
  0
LINE
  5
C0
330
1F
100
AcDbEntity
  8
0
  6
Continuous
 62
     1
370
    15
100
AcDbLine
 10
26.73205080756887
 20
0.0000000000000028
 30
0.0
 11
26.73205080756887
 21
-0.5344858920592869
 31
0.0
  0
SPLINE
  5
C1
330
1F
100
AcDbEntity
  8
0
  6
Continuous
 62
     1
370
    15
100
AcDbSpline
210
0.0
220
0.0
230
1.0
 70
     8
 71
     3
 72
    10
 73
     6
 74
     0
 42
0.000000001
 43
0.00000001
 40
0.0
 40
0.0
 40
0.0
 40
0.0
 40
0.5
 40
0.5
 40
1.0
 40
1.0
 40
1.0
 40
1.0
 10
26.73205080756887
 20
-0.5344858920592869
 30
0.0
 10
26.517709927991
 20
-0.3659754071023852
 30
0.0
 10
26.30695314548261
 20
-0.190549760642096
 30
0.0
 10
25.89277919016946
 20
0.1744625846963782
 30
0.0
 10
25.6874351748096
 20
0.3659780243923616
 30
0.0
 10
25.49388441220209
 20
0.5601200555087854
 30
0.0
  0
SPLINE
  5
C2
330
1F
100
AcDbEntity
  8
0
  6
Continuous
 62
   131
370
    15
100
AcDbSpline
210
0.0
220
0.0
230
1.0
 70
    24
 71
     3
 72
    10
 73
     6
 74
     0
 42
0.000000001
 43
0.00000001
 40
0.0
 40
0.0
 40
0.0
 40
0.0
 40
0.5
 40
0.5
 40
1.0
 40
1.0
 40
1.0
 40
1.0
 10
6.732050807568864
 20
-0.7804328983328835
 30
0.0
 10
6.732050807568864
 20
-1.030537832407141
 30
0.0
 10
6.732050807568864
 20
-1.252978923729257
 30
0.0
 10
6.732050807568864
 20
-1.569529805035697
 30
0.0
 10
6.732050807568864
 20
-1.662277036278452
 30
0.0
 10
6.732050807568864
 20
-1.686029484017956
 30
0.0
  0
SPLINE
  5
C3
330
1F
100
AcDbEntity
  8
0
  6
Continuous
 62
     1
370
    15
100
AcDbSpline
210
0.0
220
0.0
230
1.0
 70
     8
 71
     3
 72
    13
 73
     9
 74
     0
 42
0.000000001
 43
0.00000001
 40
0.0
 40
0.0
 40
0.0
 40
0.0
 40
0.1494359532683449
 40
0.2980317326663844
 40
0.4868905929861619
 40
0.6761217898726428
 40
0.8653493669528778
 40
1.0
 40
1.0
 40
1.0
 40
1.0
 10
25.49388441220071
 20
0.5601200555101769
 30
0.0
 10
25.26434072531517
 20
0.6569743208894346
 30
0.0
 10
24.80654391518423
 20
0.8501383078402551
 30
0.0
 10
24.05963917776388
 20
1.124681341075821
 30
0.0
 10
23.25093200238923
 20
1.365822010408748
 30
0.0
 10
22.37974242550756
 20
1.53540728637701
 30
0.0
 10
21.59172598729632
 20
1.61377743653791
 30
0.0
 10
21.09452940376134
 20
1.589169838243779
 30
0.0
 10
20.88782258425802
 20
1.578939360908576
 30
0.0
  0
SPLINE
  5
C4
330
1F
100
AcDbEntity
  8
0
  6
Continuous
 62
     1
370
    15
100
AcDbSpline
210
0.0
220
0.0
230
1.0
 70
     8
 71
     3
 72
    13
 73
     9
 74
     0
 42
0.000000001
 43
0.00000001
 40
0.0
 40
0.0
 40
0.0
 40
0.0
 40
0.1132692796633913
 40
0.2913193924157013
 40
0.469722952454566
 40
0.6481129559435651
 40
0.8241127767638896
 40
1.0
 40
1.0
 40
1.0
 40
1.0
 10
11.61768156402172
 20
-1.492349269104111
 30
0.0
 10
11.43324591295414
 20
-1.522172294178452
 30
0.0
 10
10.95889239037085
 20
-1.598874693721148
 30
0.0
 10
10.19401549508804
 20
-1.611326728132172
 30
0.0
 10
9.322764008716833
 20
-1.53905965793177
 30
0.0
 10
8.45486018905052
 20
-1.366057364031402
 30
0.0
 10
7.591406348097237
 20
-1.113378828021015
 30
0.0
 10
7.018441541568631
 20
-0.8913911975334583
 30
0.0
 10
6.732050807568864
 20
-0.7804328983328827
 30
0.0
  0
SPLINE
  5
C5
330
1F
100
AcDbEntity
  8
0
  6
Continuous
 62
     1
370
    15
100
AcDbSpline
210
0.0
220
0.0
230
1.0
 70
    24
 71
     3
 72
    10
 73
     6
 74
     0
 42
0.000000001
 43
0.00000001
 40
0.0
 40
0.0
 40
0.0
 40
0.0
 40
0.5
 40
0.5
 40
1.0
 40
1.0
 40
1.0
 40
1.0
 10
26.73205080756887
 20
-1.577944528736429
 30
0.0
 10
26.73205080756887
 20
-1.456982778007607
 30
0.0
 10
26.73205080756887
 20
-1.304142967812935
 30
0.0
 10
26.73205080756887
 20
-0.9488051183013574
 30
0.0
 10
26.73205080756887
 20
-0.7466148861026171
 30
0.0
 10
26.73205080756887
 20
-0.5344858920593508
 30
0.0
  0
SPLINE
  5
C6
330
1F
100
AcDbEntity
  8
0
  6
Continuous
 62
     1
370
    15
100
AcDbSpline
210
0.0
220
0.0
230
1.0
 70
     8
 71
     3
 72
    23
 73
    19
 74
     0
 42
0.000000001
 43
0.00000001
 40
0.0
 40
0.0
 40
0.0
 40
0.0
 40
0.0094028760838329
 40
0.0791799128350279
 40
0.1488203118514678
 40
0.2184152164680503
 40
0.288056629329761
 40
0.3578356624260048
 40
0.4276120320539932
 40
0.4972520955930965
 40
0.5668470027042201
 40
0.6364887559851529
 40
0.7062684457209361
 40
0.7760441494266772
 40
0.8456838787241306
 40
0.9152787895770653
 40
0.9849208845124746
 40
1.0
 40
1.0
 40
1.0
 40
1.0
 10
22.49719708897455
 20
-1.498544829910569
 30
0.0
 10
22.45803950121558
 20
-1.506447146471957
 30
0.0
 10
22.12830056198658
 20
-1.572991119927202
 30
0.0
 10
21.50848559063383
 20
-1.608059547250595
 30
0.0
 10
20.6383502493653
 20
-1.589894333634693
 30
0.0
 10
19.76881046427028
 20
-1.462886502177925
 30
0.0
 10
18.89865313151358
 20
-1.246285650648372
 30
0.0
 10
18.02740659123346
 20
-0.950980906360411
 30
0.0
 10
17.15617425945677
 20
-0.5961730546229048
 30
0.0
 10
16.28603422152609
 20
-0.2035506546695633
 30
0.0
 10
15.41649687640884
 20
0.2017026126275155
 30
0.0
 10
14.54633432263597
 20
0.5944058102416545
 30
0.0
 10
13.67508477472143
 20
0.9495880369032252
 30
0.0
 10
12.80385494967053
 20
1.244610207751965
 30
0.0
 10
11.93372296872813
 20
1.463904411569655
 30
0.0
 10
11.06417220887693
 20
1.582773196427267
 30
0.0
 10
10.42177051340134
 20
1.620214205992868
 30
0.0
 10
10.06894413406743
 20
1.586737787057619
 30
0.0
 10
10.00614628575457
 20
1.580779482346042
 30
0.0
  0
SPLINE
  5
C7
330
1F
100
AcDbEntity
  8
0
  6
Continuous
 62
   131
370
    15
100
AcDbSpline
210
0.0
220
0.0
230
1.0
 70
    24
 71
     3
 72
    14
 73
    10
 74
     0
 42
0.000000001
 43
0.00000001
 40
0.0
 40
0.0
 40
0.0
 40
0.0
 40
0.25
 40
0.25
 40
0.4999999999999999
 40
0.4999999999999999
 40
0.75
 40
0.75
 40
1.0
 40
1.0
 40
1.0
 40
1.0
 10
6.732050807568866
 20
1.222160612838916
 30
0.0
 10
6.732050807568866
 20
1.104796722601358
 30
0.0
 10
6.732050807568866
 20
0.9673957945650578
 30
0.0
 10
6.732050807568866
 20
0.6603446350231441
 30
0.0
 10
6.732050807568866
 20
0.4907809624335441
 30
0.0
 10
6.732050807568866
 20
0.1348623585043379
 30
0.0
 10
6.732050807568866
 20
-0.051302924522772
 30
0.0
 10
6.732050807568866
 20
-0.4216115839192098
 30
0.0
 10
6.732050807568866
 20
-0.6055795528007619
 30
0.0
 10
6.732050807568866
 20
-0.7804328983328835
 30
0.0
  0
SPLINE
  5
C8
330
1F
100
AcDbEntity
  8
0
  6
Continuous
 62
     1
370
    15
100
AcDbSpline
210
0.0
220
0.0
230
1.0
 70
     8
 71
     3
 72
    10
 73
     6
 74
     0
 42
0.000000001
 43
0.00000001
 40
0.0
 40
0.0
 40
0.0
 40
0.0
 40
0.5
 40
0.5
 40
1.0
 40
1.0
 40
1.0
 40
1.0
 10
26.73205080756887
 20
1.400000000000002
 30
0.0
 10
26.48319454705531
 20
1.332405038971869
 30
0.0
 10
26.23594032527392
 20
1.255022631580775
 30
0.0
 10
25.74609645397615
 20
1.077581850852742
 30
0.0
 10
25.50331292662732
 20
0.9782187689425865
 30
0.0
 10
25.26551150639242
 20
0.8616562015384641
 30
0.0
  0
LINE
  5
C9
330
1F
100
AcDbEntity
  8
0
  6
Continuous
 62
     1
370
    15
100
AcDbLine
 10
26.73205080756887
 20
0.0000000000000028
 30
0.0
 11
26.73205080756887
 21
1.400000000000003
 31
0.0
  0
LINE
  5
CA
330
1F
100
AcDbEntity
  8
0
  6
Continuous
 62
   131
370
    15
100
AcDbLine
 10
5.732050807568866
 20
2.0
 30
0.0
 11
5.732050807568866
 21
-1.999999999999998
 31
0.0
  0
LINE
  5
CB
330
1F
100
AcDbEntity
  8
0
  6
Continuous
 62
   131
370
    15
100
AcDbLine
 10
2.0
 20
3.0
 30
0.0
 11
2.0
 21
-3.0
 31
0.0
  0
LINE
  5
CC
330
1F
100
AcDbEntity
  8
0
  6
Continuous
 62
   131
370
    15
100
AcDbLine
 10
-42.71794919243113
 20
2.999999999999994
 30
0.0
 11
-42.71794919243113
 21
-3.000000000000001
 31
0.0
  0
LINE
  5
CD
330
1F
100
AcDbEntity
  8
0
  6
Continuous
 62
   131
370
    15
100
AcDbLine
 10
-43.26794919243113
 20
2.449999999999994
 30
0.0
 11
-43.26794919243113
 21
-2.450000000000001
 31
0.0
  0
SPLINE
  5
CE
330
1F
100
AcDbEntity
  8
0
  6
Continuous
 62
   131
370
    15
100
AcDbSpline
210
0.0
220
0.0
230
1.0
 70
     8
 71
     3
 72
    10
 73
     6
 74
     0
 42
0.000000001
 43
0.00000001
 40
0.0
 40
0.0
 40
0.0
 40
0.0
 40
0.5
 40
0.5
 40
1.0
 40
1.0
 40
1.0
 40
1.0
 10
6.732050807567383
 20
-1.964535713562799
 30
0.0
 10
6.582917473427372
 20
-1.980623895824399
 30
0.0
 10
6.433233910389408
 20
-1.991284440729053
 30
0.0
 10
6.1364654461927
 20
-2.001541452957234
 30
0.0
 10
5.990576438467713
 20
-2.001179526706249
 30
0.0
 10
5.842297963355486
 20
-1.995330080287511
 30
0.0
  0
LINE
  5
CF
330
1F
100
AcDbEntity
  8
0
  6
Continuous
 62
   131
370
    15
100
AcDbLine
 10
6.732050807567379
 20
1.9645357135628
 30
0.0
 11
6.078529821910957
 21
1.987154090144023
 31
0.0
  0
SPLINE
  5
D0
330
1F
100
AcDbEntity
  8
0
  6
Continuous
 62
   131
370
    15
100
AcDbSpline
210
0.0
220
0.0
230
1.0
 70
     8
 71
     3
 72
    10
 73
     6
 74
     0
 42
0.000000001
 43
0.00000001
 40
0.0
 40
0.0
 40
0.0
 40
0.0
 40
0.5
 40
0.5
 40
1.0
 40
1.0
 40
1.0
 40
1.0
 10
6.732050807567379
 20
1.784568111006707
 30
0.0
 10
6.582896284716405
 20
1.823315286950849
 30
0.0
 10
6.433191377701188
 20
1.857159921350367
 30
0.0
 10
6.136381485361932
 20
1.914257749111863
 30
0.0
 10
5.990471879071192
 20
1.937486536159614
 30
0.0
 10
5.842171559503397
 20
1.955463036661754
 30
0.0
  0
LINE
  5
D1
330
1F
100
AcDbEntity
  8
0
  6
Continuous
 62
   131
370
    15
100
AcDbLine
 10
5.842171559503397
 20
-1.995324224428347
 30
0.0
 11
5.842171559503397
 21
1.955606315317744
 31
0.0
  0
SPLINE
  5
D2
330
1F
100
AcDbEntity
  8
0
  6
Continuous
 62
   131
370
    15
100
AcDbSpline
210
0.0
220
0.0
230
1.0
 70
    24
 71
     3
 72
    14
 73
    10
 74
     0
 42
0.000000001
 43
0.00000001
 40
0.0
 40
0.0
 40
0.0
 40
0.0
 40
0.25
 40
0.25
 40
0.4999999999999999
 40
0.4999999999999999
 40
0.75
 40
0.75
 40
1.0
 40
1.0
 40
1.0
 40
1.0
 10
6.732050807568866
 20
1.222160612838916
 30
0.0
 10
6.732050807568866
 20
1.104796722601358
 30
0.0
 10
6.732050807568866
 20
0.9673957945650578
 30
0.0
 10
6.732050807568866
 20
0.6603446350231441
 30
0.0
 10
6.732050807568866
 20
0.4907809624335441
 30
0.0
 10
6.732050807568866
 20
0.1348623585043379
 30
0.0
 10
6.732050807568866
 20
-0.051302924522772
 30
0.0
 10
6.732050807568866
 20
-0.4216115839192098
 30
0.0
 10
6.732050807568866
 20
-0.6055795528007619
 30
0.0
 10
6.732050807568866
 20
-0.7804328983328835
 30
0.0
  0
SPLINE
  5
D3
330
1F
100
AcDbEntity
  8
0
  6
Continuous
 62
   131
370
    15
100
AcDbSpline
210
0.0
220
0.0
230
1.0
 70
     8
 71
     3
 72
    10
 73
     6
 74
     0
 42
0.000000001
 43
0.00000001
 40
0.0
 40
0.0
 40
0.0
 40
0.0
 40
0.4999999999999999
 40
0.4999999999999999
 40
1.0
 40
1.0
 40
1.0
 40
1.0
 10
6.732050807566077
 20
-0.7804328983317632
 30
0.0
 10
6.582904023569293
 20
-0.7204987147607819
 30
0.0
 10
6.43320691211937
 20
-0.6583274597159116
 30
0.0
 10
6.136412150737394
 20
-0.5310676004037213
 30
0.0
 10
5.990510067883289
 20
-0.4661666281574707
 30
0.0
 10
5.842217726662041
 20
-0.3998164215382439
 30
0.0
  0
SPLINE
  5
D4
330
1F
100
AcDbEntity
  8
0
  6
Continuous
 62
   131
370
    15
100
AcDbSpline
210
0.0
220
0.0
230
1.0
 70
     8
 71
     3
 72
    10
 73
     6
 74
     0
 42
0.000000001
 43
0.00000001
 40
0.0
 40
0.0
 40
0.0
 40
0.0
 40
0.5
 40
0.5
 40
1.0
 40
1.0
 40
1.0
 40
1.0
 10
6.7320508075652
 20
1.222160612839636
 30
0.0
 10
6.582901390771331
 20
1.251463178715282
 30
0.0
 10
6.433201627231247
 20
1.277411830959117
 30
0.0
 10
6.136401718216254
 20
1.321994398402241
 30
0.0
 10
5.990497075867218
 20
1.340604450291243
 30
0.0
 10
5.842202020371298
 20
1.355587222682931
 30
0.0
  0
SPLINE
  5
D5
330
1F
100
AcDbEntity
  8
0
  6
Continuous
 62
   131
370
    15
100
AcDbSpline
210
0.0
220
0.0
230
1.0
 70
    24
 71
     3
 72
    10
 73
     6
 74
     0
 42
0.000000001
 43
0.00000001
 40
0.0
 40
0.0
 40
0.0
 40
0.0
 40
0.5
 40
0.5
 40
1.0
 40
1.0
 40
1.0
 40
1.0
 10
6.732050807568864
 20
-0.7804328983328835
 30
0.0
 10
6.732050807568864
 20
-1.030537832407141
 30
0.0
 10
6.732050807568864
 20
-1.252978923729257
 30
0.0
 10
6.732050807568864
 20
-1.569529805035697
 30
0.0
 10
6.732050807568864
 20
-1.662277036278452
 30
0.0
 10
6.732050807568864
 20
-1.686029484017956
 30
0.0
  0
SPLINE
  5
D6
330
1F
100
AcDbEntity
  8
0
  6
Continuous
 62
   131
370
    15
100
AcDbSpline
210
0.0
220
0.0
230
1.0
 70
     8
 71
     3
 72
    10
 73
     6
 74
     0
 42
0.000000001
 43
0.00000001
 40
0.0
 40
0.0
 40
0.0
 40
0.0
 40
0.5
 40
0.5
 40
1.0
 40
1.0
 40
1.0
 40
1.0
 10
6.732050807566466
 20
-1.686029484018106
 30
0.0
 10
6.582917473426605
 20
-1.695361313370839
 30
0.0
 10
6.433233910388797
 20
-1.700029533803281
 30
0.0
 10
6.136465446192402
 20
-1.699970183866059
 30
0.0
 10
5.99057643846756
 20
-1.69528987119558
 30
0.0
 10
5.842297963355486
 20
-1.685949316120507
 30
0.0
  0
SPLINE
  5
D7
330
1F
100
AcDbEntity
  8
0
  6
Continuous
 62
   131
370
    15
100
AcDbSpline
210
0.0
220
0.0
230
1.0
 70
    24
 71
     3
 72
    10
 73
     6
 74
     0
 42
0.000000001
 43
0.00000001
 40
0.0
 40
0.0
 40
0.0
 40
0.0
 40
0.5
 40
0.5
 40
1.0
 40
1.0
 40
1.0
 40
1.0
 10
6.732050807568866
 20
1.784568111006323
 30
0.0
 10
6.732050807568866
 20
1.709629890942137
 30
0.0
 10
6.732050807568866
 20
1.618526685584746
 30
0.0
 10
6.732050807568866
 20
1.423496342156035
 30
0.0
 10
6.732050807568866
 20
1.32014402026859
 30
0.0
 10
6.732050807568866
 20
1.222160612838917
 30
0.0
  0
SPLINE
  5
D8
330
1F
100
AcDbEntity
  8
0
  6
Continuous
 62
   131
370
    15
100
AcDbSpline
210
0.0
220
0.0
230
1.0
 70
    24
 71
     3
 72
     8
 73
     4
 74
     0
 42
0.000000001
 43
0.00000001
 40
0.0
 40
0.0
 40
0.0
 40
0.0
 40
1.0
 40
1.0
 40
1.0
 40
1.0
 10
6.732050807568978
 20
-1.686029484017949
 30
0.0
 10
6.732050807568978
 20
-1.782551962546603
 30
0.0
 10
6.732050807568978
 20
-1.876000389128332
 30
0.0
 10
6.732050807568978
 20
-1.964535713551688
 30
0.0
  0
LINE
  5
D9
330
1F
100
AcDbEntity
  8
중심선
 62
     1
100
AcDbLine
 10
-46.26794919243114
 20
-0.0000000000000046
 30
0.0
 11
29.73205080756887
 21
0.0000000000000031
 31
0.0
  0
CIRCLE
  5
DA
330
1F
100
AcDbEntity
  8
외형선
100
AcDbCircle
 10
0.0000000000000104
 20
0.0
 30
0.0
 40
3.000000000000005
  0
INSERT
  5
DB
330
1F
100
AcDbEntity
  8
0
  6
Continuous
 62
     7
100
AcDbBlockReference
 66
     1
  2
블럭10
 10
-22.93944368806589
 20
-52.04609937292004
 30
0.0
  0
ATTRIB
  5
DC
330
DB
100
AcDbEntity
  8
FORMAT
 62
     2
100
AcDbText
 10
-39.05870472750145
 20
-49.97073246008785
 30
0.0
 40
4.233333333333333
  1
SEME7004020E [ 2 FLUTE ]
 41
0.75
  7
SLDTEXTSTYLE0
 11
-39.05870472750145
 21
-52.08739912675452
 31
0.0
100
AcDbAttribute
  2
AUTOATTR0
 70
     0
 74
     1
  0
SEQEND
  5
DD
330
DB
100
AcDbEntity
  8
0
  6
Continuous
 62
     7
  0
HATCH
  5
DE
330
1F
100
AcDbEntity
  8
중심선
100
AcDbHatch
 10
0.0
 20
0.0
 30
0.0
210
0.0
220
0.0
230
1.0
  2
SOLID
 70
     1
 71
     0
 91
        1
 92
        0
 93
        4
 72
     1
 10
-17.22453438368504
 20
-35.7989250712761
 11
-20.67080962752232
 21
-35.7989250712761
 72
     1
 10
-20.67080962752232
 20
-35.7989250712761
 11
-22.79903948672635
 21
-38.3352506518487
 72
     1
 10
-22.79903948672635
 20
-38.3352506518487
 11
-19.35273115777591
 21
-38.33521122254621
 72
     1
 10
-19.35273115777591
 20
-38.33521122254621
 11
-17.22453438368504
 21
-35.7989250712761
 97
        0
 75
     0
 76
     1
 98
        1
 10
0.0
 20
0.0
  0
HATCH
  5
DF
330
1F
100
AcDbEntity
  8
중심선
100
AcDbHatch
 10
0.0
 20
0.0
 30
0.0
210
0.0
220
0.0
230
1.0
  2
SOLID
 70
     1
 71
     0
 91
        1
 92
        0
 93
        4
 72
     1
 10
-12.21177039264909
 20
-35.7989250712761
 11
-15.65804563648637
 21
-35.7989250712761
 72
     1
 10
-15.65804563648637
 20
-35.7989250712761
 11
-20.18918364484376
 21
-41.19892507127612
 72
     1
 10
-20.18918364484376
 20
-41.19892507127612
 11
-16.74290840100648
 21
-41.19892507127612
 72
     1
 10
-16.74290840100648
 20
-41.19892507127612
 11
-12.21177039264909
 21
-35.7989250712761
 97
        0
 75
     0
 76
     1
 98
        1
 10
0.0
 20
0.0
  0
HATCH
  5
E0
330
1F
100
AcDbEntity
  8
중심선
100
AcDbHatch
 10
0.0
 20
0.0
 30
0.0
210
0.0
220
0.0
230
1.0
  2
SOLID
 70
     1
 71
     0
 91
        1
 92
        0
 93
        4
 72
     1
 10
-7.199006401613195
 20
-35.79892507127613
 11
-10.64528164545031
 21
-35.7989250712761
 72
     1
 10
-10.64528164545031
 20
-35.7989250712761
 11
-17.69371854733956
 21
-44.19892507127612
 72
     1
 10
-17.69371854733956
 20
-44.19892507127612
 11
-14.24744330350228
 21
-44.19892507127612
 72
     1
 10
-14.24744330350228
 20
-44.19892507127612
 11
-7.199006401613195
 21
-35.79892507127613
 97
        0
 75
     0
 76
     1
 98
        1
 10
0.0
 20
0.0
  0
HATCH
  5
E1
330
1F
100
AcDbEntity
  8
중심선
100
AcDbHatch
 10
0.0
 20
0.0
 30
0.0
210
0.0
220
0.0
230
1.0
  2
SOLID
 70
     1
 71
     0
 91
        1
 92
        0
 93
        6
 72
     3
 10
-2.399115970600996
 20
-39.99892507132738
 11
3.960054785062284
 21
1.540850780301639E-10
 40
0.3939339440162633
 50
17.09539180608433
 51
320.0019657685079
 73
     0
 72
     1
 10
-0.7161163149004002
 20
-38.58681907591441
 11
1.589185558800638
 21
-36.65249236586649
 72
     3
 10
-2.399115970653842
 20
-39.99892507127625
 11
6.600054785286829
 21
-1.249000902703301E-13
 40
0.6363583540795982
 50
39.99873849337408
 51
368.4976242363725
 73
     1
 72
     1
 10
4.026216521246767
 20
-39.03892507120613
 11
-3.71904866381792
 21
-39.0389250712061
 72
     1
 10
-3.71904866381792
 20
-39.0389250712061
 11
-3.719073708263854
 21
-40.95892507120602
 72
     1
 10
-3.719073708263854
 20
-40.95892507120602
 11
0.7223060612081831
 21
-40.95892507120599
 97
        0
 75
     0
 76
     1
 98
        1
 10
0.0
 20
0.0
  0
DIMENSION
  5
E2
330
1F
100
AcDbEntity
  8
치수문자_일반주서
100
AcDbDimension
  2
_D
 10
33.8884141881633
 20
2.000000000000099
 30
0.0
 11
33.88841418816327
 21
11.6665000000001
 31
0.0
 70
   160
  1
%%c<>
 71
     2
 42
3.999999999999998
 52
-270.0
  3
SLDDIMSTYLE0
100
AcDbAlignedDimension
 13
26.73205080756887
 23
-1.999999999999926
 33
0.0
 14
26.73205080756887
 24
2.000000000000073
 34
0.0
 50
90.0000000000002
100
AcDbRotatedDimension
  0
DIMENSION
  5
F0
330
1F
100
AcDbEntity
  8
치수문자_일반주서
100
AcDbDimension
  2
_D_1
 10
26.73205080756887
 20
24.23841044024269
 30
0.0
 11
-8.26794919243113
 21
24.23841044024269
 31
0.0
 70
   160
  1
<>
 71
     2
 42
70.0
  3
SLDDIMSTYLE1
100
AcDbAlignedDimension
 13
-43.26794919243113
 23
2.449999999999994
 33
0.0
 14
26.73205080756887
 24
2.000000000000073
 34
0.0
 50
-0.0000000000000058
100
AcDbRotatedDimension
  0
DIMENSION
  5
FB
330
1F
100
AcDbEntity
  8
치수문자_일반주서
100
AcDbDimension
  2
_D_2
 10
26.73205080756887
 20
15.31153351973016
 30
0.0
 11
16.73205080756887
 21
15.31153351973016
 31
0.0
 70
   160
  1
<>
 71
     2
 42
20.00000000000001
  3
SLDDIMSTYLE0
100
AcDbAlignedDimension
 13
6.732050807568866
 23
1.964535713562639
 33
0.0
 14
26.73205080756887
 24
2.000000000000073
 34
0.0
 50
-0.0000000000000051
100
AcDbRotatedDimension
  0
DIMENSION
  5
105
330
1F
100
AcDbEntity
  8
치수문자_일반주서
100
AcDbDimension
  2
_D_3
 10
-54.93924054737654
 20
-3.000000000000046
 30
0.0
 11
-54.93924054737659
 21
12.66649999999995
 31
0.0
 70
   160
  1
%%c<>
 71
     2
 42
5.999999999999995
 52
-270.0
  3
SLDDIMSTYLE0
100
AcDbAlignedDimension
 13
-42.71794919243113
 23
2.999999999999994
 33
0.0
 14
-42.71794919243113
 24
-3.0
 34
0.0
 50
90.0000000000002
100
AcDbRotatedDimension
  0
INSERT
  5
118
330
1F
100
AcDbEntity
  8
외형선
100
AcDbBlockReference
  2
SW_DOWELSYMBOL_0
 10
0.0000000000000104
 20
0.0
 30
0.0
  0
ENDSEC
  0
SECTION
  2
OBJECTS
  0
DICTIONARY
  5
C
330
0
100
AcDbDictionary
281
     1
  3
ACAD_GROUP
350
D
  3
ACAD_IMAGE_VARS
350
13C
  3
ACAD_LAYOUT
350
1A
  3
ACAD_MLINESTYLE
350
17
  3
ACAD_PLOTSETTINGS
350
19
  3
ACAD_PLOTSTYLENAME
350
E
  3
ACAD_SCALELIST
350
47
  3
APPDATA
350
13A
  3
DWGPROPS
350
14B
  0
DICTIONARY
  5
D
102
{ACAD_REACTORS
330
C
102
}
330
C
100
AcDbDictionary
281
     1
  0
RASTERVARIABLES
  5
13C
102
{ACAD_REACTORS
330
C
102
}
330
C
100
AcDbRasterVariables
 90
        0
 70
     1
 71
     1
 72
     1
  0
DICTIONARY
  5
1A
102
{ACAD_REACTORS
330
C
102
}
330
C
100
AcDbDictionary
281
     1
  3
Layout1
350
1E
  3
Layout2
350
26
  3
Model
350
22
  0
DICTIONARY
  5
17
102
{ACAD_REACTORS
330
C
102
}
330
C
100
AcDbDictionary
281
     1
  3
Standard
350
18
  0
DICTIONARY
  5
19
102
{ACAD_REACTORS
330
C
102
}
330
C
100
AcDbDictionary
281
     1
  0
ACDBDICTIONARYWDFLT
  5
E
102
{ACAD_REACTORS
330
C
102
}
330
C
100
AcDbDictionary
281
     1
  3
Normal
350
F
100
AcDbDictionaryWithDefault
340
F
  0
DICTIONARY
  5
47
102
{ACAD_REACTORS
330
C
102
}
330
C
100
AcDbDictionary
281
     1
  3
A0
350
48
  3
A1
350
49
  3
A2
350
4A
  3
A3
350
4B
  3
A4
350
4C
  3
A5
350
4D
  3
A6
350
4E
  3
A7
350
4F
  3
A8
350
50
  3
A9
350
51
  3
B0
350
52
  3
B1
350
53
  3
B2
350
54
  3
B3
350
55
  3
B4
350
56
  3
B5
350
57
  3
B6
350
58
  3
B7
350
59
  3
B8
350
5A
  3
B9
350
5B
  3
C0
350
5C
  3
C1
350
5D
  3
C2
350
5E
  3
C3
350
5F
  3
C4
350
60
  3
C5
350
61
  3
C6
350
62
  3
C7
350
63
  3
C8
350
64
  3
C9
350
65
  3
D0
350
66
  3
D1
350
67
  3
D2
350
68
  0
DICTIONARY
  5
13A
102
{ACAD_REACTORS
330
C
102
}
330
C
100
AcDbDictionary
281
     1
  0
XRECORD
  5
14B
102
{ACAD_REACTORS
330
C
102
}
330
C
100
AcDbXrecord
280
     1
  1
DWGPROPS COOKIE
  2

  3

  4

  6

  7

  8
12014102
  9

300
=
301
=
302
=
303
=
304
=
305
=
306
=
307
=
308
=
309
=
 40
0.0
 41
2458262.164101667
 42
2458266.007252199
  1

 90
        0
  0
LAYOUT
  5
1E
102
{ACAD_REACTORS
330
1A
102
}
330
1A
100
AcDbPlotSettings
  1

  2
none_device
  4

  6

 40
0.0
 41
0.0
 42
0.0
 43
0.0
 44
0.0
 45
0.0
 46
0.0
 47
0.0
 48
0.0
 49
0.0
140
0.0
141
0.0
142
1.0
143
1.0
 70
   688
 72
     1
 73
     0
 74
     5
  7

 75
    16
147
1.0
148
0.0
149
0.0
100
AcDbLayout
  1
Layout1
 70
     1
 71
     1
 10
0.0
 20
0.0
 11
420.0
 21
297.0
 12
0.0
 22
0.0
 32
0.0
 14
1.000000000000000E+20
 24
1.000000000000000E+20
 34
1.000000000000000E+20
 15
-1.000000000000000E+20
 25
-1.000000000000000E+20
 35
-1.000000000000000E+20
146
0.0
 13
0.0
 23
0.0
 33
0.0
 16
1.0
 26
0.0
 36
0.0
 17
0.0
 27
1.0
 37
0.0
 76
     0
330
1B
  0
LAYOUT
  5
26
102
{ACAD_REACTORS
330
1A
102
}
330
1A
100
AcDbPlotSettings
  1

  2
none_device
  4

  6

 40
0.0
 41
0.0
 42
0.0
 43
0.0
 44
0.0
 45
0.0
 46
0.0
 47
0.0
 48
0.0
 49
0.0
140
0.0
141
0.0
142
1.0
143
1.0
 70
   688
 72
     1
 73
     0
 74
     5
  7

 75
    16
147
1.0
148
0.0
149
0.0
100
AcDbLayout
  1
Layout2
 70
     1
 71
     2
 10
0.0
 20
0.0
 11
0.0
 21
0.0
 12
0.0
 22
0.0
 32
0.0
 14
0.0
 24
0.0
 34
0.0
 15
0.0
 25
0.0
 35
0.0
146
0.0
 13
0.0
 23
0.0
 33
0.0
 16
1.0
 26
0.0
 36
0.0
 17
0.0
 27
1.0
 37
0.0
 76
     0
330
23
  0
LAYOUT
  5
22
102
{ACAD_REACTORS
330
1A
102
}
330
1A
100
AcDbPlotSettings
  1

  2
none_device
  4
ANSI_A_(11.00_x_8.50_Inches)
  6

 40
6.35
 41
19.05
 42
6.35000508
 43
19.05000254
 44
279.4
 45
215.9
 46
145.765014758135
 47
118.4377884955873
 48
0.0
 49
0.0
140
0.0
141
0.0
142
0.1058944507156154
143
1.0
 70
  1696
 72
     0
 73
     0
 74
     0
  7

 75
     0
147
0.0235690232323232
148
0.0
149
0.0
100
AcDbLayout
  1
Model
 70
     1
 71
     0
 10
0.0
 20
0.0
 11
420.0
 21
297.0
 12
0.0
 22
0.0
 32
0.0
 14
-59.3142405473766
 24
-49.97073246008785
 34
0.0
 15
34.43874752149667
 25
28.61341044024269
 35
0.0
146
0.0
 13
0.0
 23
0.0
 33
0.0
 16
1.0
 26
0.0
 36
0.0
 17
0.0
 27
1.0
 37
0.0
 76
     0
330
1F
331
29
  0
MLINESTYLE
  5
18
102
{ACAD_REACTORS
330
17
102
}
330
17
100
AcDbMlineStyle
  2
Standard
 70
     0
  3

 62
   256
 51
90.0
 52
90.0
 71
     2
 49
0.5
 62
   256
  6
BYLAYER
 49
-0.5
 62
   256
  6
BYLAYER
  0
ACDBPLACEHOLDER
  5
F
102
{ACAD_REACTORS
330
E
102
}
330
E
  0
SCALE
  5
48
102
{ACAD_REACTORS
330
47
102
}
330
47
100
AcDbScale
 70
     0
300
1:1
140
1.0
141
1.0
290
     1
  0
SCALE
  5
49
102
{ACAD_REACTORS
330
47
102
}
330
47
100
AcDbScale
 70
     0
300
1:2
140
1.0
141
2.0
290
     0
  0
SCALE
  5
4A
102
{ACAD_REACTORS
330
47
102
}
330
47
100
AcDbScale
 70
     0
300
1:4
140
1.0
141
4.0
290
     0
  0
SCALE
  5
4B
102
{ACAD_REACTORS
330
47
102
}
330
47
100
AcDbScale
 70
     0
300
1:5
140
1.0
141
5.0
290
     0
  0
SCALE
  5
4C
102
{ACAD_REACTORS
330
47
102
}
330
47
100
AcDbScale
 70
     0
300
1:8
140
1.0
141
8.0
290
     0
  0
SCALE
  5
4D
102
{ACAD_REACTORS
330
47
102
}
330
47
100
AcDbScale
 70
     0
300
1:10
140
1.0
141
10.0
290
     0
  0
SCALE
  5
4E
102
{ACAD_REACTORS
330
47
102
}
330
47
100
AcDbScale
 70
     0
300
1:16
140
1.0
141
16.0
290
     0
  0
SCALE
  5
4F
102
{ACAD_REACTORS
330
47
102
}
330
47
100
AcDbScale
 70
     0
300
1:20
140
1.0
141
20.0
290
     0
  0
SCALE
  5
50
102
{ACAD_REACTORS
330
47
102
}
330
47
100
AcDbScale
 70
     0
300
1:30
140
1.0
141
30.0
290
     0
  0
SCALE
  5
51
102
{ACAD_REACTORS
330
47
102
}
330
47
100
AcDbScale
 70
     0
300
1:40
140
1.0
141
40.0
290
     0
  0
SCALE
  5
52
102
{ACAD_REACTORS
330
47
102
}
330
47
100
AcDbScale
 70
     0
300
1:50
140
1.0
141
50.0
290
     0
  0
SCALE
  5
53
102
{ACAD_REACTORS
330
47
102
}
330
47
100
AcDbScale
 70
     0
300
1:100
140
1.0
141
100.0
290
     0
  0
SCALE
  5
54
102
{ACAD_REACTORS
330
47
102
}
330
47
100
AcDbScale
 70
     0
300
2:1
140
2.0
141
1.0
290
     0
  0
SCALE
  5
55
102
{ACAD_REACTORS
330
47
102
}
330
47
100
AcDbScale
 70
     0
300
4:1
140
4.0
141
1.0
290
     0
  0
SCALE
  5
56
102
{ACAD_REACTORS
330
47
102
}
330
47
100
AcDbScale
 70
     0
300
8:1
140
8.0
141
1.0
290
     0
  0
SCALE
  5
57
102
{ACAD_REACTORS
330
47
102
}
330
47
100
AcDbScale
 70
     0
300
10:1
140
10.0
141
1.0
290
     0
  0
SCALE
  5
58
102
{ACAD_REACTORS
330
47
102
}
330
47
100
AcDbScale
 70
     0
300
100:1
140
100.0
141
1.0
290
     0
  0
SCALE
  5
59
102
{ACAD_REACTORS
330
47
102
}
330
47
100
AcDbScale
 70
     0
300
1/128" = 1'-0"
140
0.0078125
141
12.0
290
     0
  0
SCALE
  5
5A
102
{ACAD_REACTORS
330
47
102
}
330
47
100
AcDbScale
 70
     0
300
1/64" = 1'-0"
140
0.015625
141
12.0
290
     0
  0
SCALE
  5
5B
102
{ACAD_REACTORS
330
47
102
}
330
47
100
AcDbScale
 70
     0
300
1/32" = 1'-0"
140
0.03125
141
12.0
290
     0
  0
SCALE
  5
5C
102
{ACAD_REACTORS
330
47
102
}
330
47
100
AcDbScale
 70
     0
300
1/16" = 1'-0"
140
0.0625
141
12.0
290
     0
  0
SCALE
  5
5D
102
{ACAD_REACTORS
330
47
102
}
330
47
100
AcDbScale
 70
     0
300
3/32" = 1'-0"
140
0.09375
141
12.0
290
     0
  0
SCALE
  5
5E
102
{ACAD_REACTORS
330
47
102
}
330
47
100
AcDbScale
 70
     0
300
1/8" = 1'-0"
140
0.125
141
12.0
290
     0
  0
SCALE
  5
5F
102
{ACAD_REACTORS
330
47
102
}
330
47
100
AcDbScale
 70
     0
300
3/16" = 1'-0"
140
0.1875
141
12.0
290
     0
  0
SCALE
  5
60
102
{ACAD_REACTORS
330
47
102
}
330
47
100
AcDbScale
 70
     0
300
1/4" = 1'-0"
140
0.25
141
12.0
290
     0
  0
SCALE
  5
61
102
{ACAD_REACTORS
330
47
102
}
330
47
100
AcDbScale
 70
     0
300
3/8" = 1'-0"
140
0.375
141
12.0
290
     0
  0
SCALE
  5
62
102
{ACAD_REACTORS
330
47
102
}
330
47
100
AcDbScale
 70
     0
300
1/2" = 1'-0"
140
0.5
141
12.0
290
     0
  0
SCALE
  5
63
102
{ACAD_REACTORS
330
47
102
}
330
47
100
AcDbScale
 70
     0
300
3/4" = 1'-0"
140
0.75
141
12.0
290
     0
  0
SCALE
  5
64
102
{ACAD_REACTORS
330
47
102
}
330
47
100
AcDbScale
 70
     0
300
1" = 1'-0"
140
1.0
141
12.0
290
     0
  0
SCALE
  5
65
102
{ACAD_REACTORS
330
47
102
}
330
47
100
AcDbScale
 70
     0
300
1-1/2" = 1'-0"
140
1.5
141
12.0
290
     0
  0
SCALE
  5
66
102
{ACAD_REACTORS
330
47
102
}
330
47
100
AcDbScale
 70
     0
300
3" = 1'-0"
140
3.0
141
12.0
290
     0
  0
SCALE
  5
67
102
{ACAD_REACTORS
330
47
102
}
330
47
100
AcDbScale
 70
     0
300
6" = 1'-0"
140
6.0
141
12.0
290
     0
  0
SCALE
  5
68
102
{ACAD_REACTORS
330
47
102
}
330
47
100
AcDbScale
 70
     0
300
1'-0" = 1'-0"
140
12.0
141
12.0
290
     0
  0
ENDSEC
  0
EOF
