  0
SECTION
  2
HEADER
  9
$ACADVER
  1
AC1015
  9
$ACADMAINTVER
 70
     6
  9
$DWGCODEPAGE
  3
ANSI_949
  9
$INSBASE
 10
0.0
 20
0.0
 30
0.0
  9
$EXTMIN
 10
-51.56535704455341
 20
-49.97073246008785
 30
0.0
  9
$EXTMAX
 10
44.15696483297744
 20
28.61341044024268
 30
0.0
  9
$LIMMIN
 10
0.0
 20
0.0
  9
$LIMMAX
 10
420.0
 20
297.0
  9
$ORTHOMODE
 70
     0
  9
$REGENMODE
 70
     1
  9
$FILLMODE
 70
     1
  9
$QTEXTMODE
 70
     0
  9
$MIRRTEXT
 70
     1
  9
$LTSCALE
 40
1.0
  9
$ATTMODE
 70
     1
  9
$TEXTSIZE
 40
3.5
  9
$TRACEWID
 40
1.0
  9
$TEXTSTYLE
  7
Standard
  9
$CLAYER
  8
0
  9
$CELTYPE
  6
ByLayer
  9
$CECOLOR
 62
   256
  9
$CELTSCALE
 40
1.0
  9
$DISPSILH
 70
     0
  9
$DIMSCALE
 40
1.0
  9
$DIMASZ
 40
3.302
  9
$DIMEXO
 40
1.0
  9
$DIMDLI
 40
3.75
  9
$DIMRND
 40
0.0
  9
$DIMDLE
 40
0.0
  9
$DIMEXE
 40
1.0
  9
$DIMTP
 40
0.0
  9
$DIMTM
 40
0.0
  9
$DIMTXT
 40
3.5
  9
$DIMCEN
 40
2.5
  9
$DIMTSZ
 40
0.0
  9
$DIMTOL
 70
     0
  9
$DIMLIM
 70
     0
  9
$DIMTIH
 70
     1
  9
$DIMTOH
 70
     1
  9
$DIMSE1
 70
     0
  9
$DIMSE2
 70
     0
  9
$DIMTAD
 70
     1
  9
$DIMZIN
 70
     0
  9
$DIMBLK
  1

  9
$DIMASO
 70
     1
  9
$DIMSHO
 70
     1
  9
$DIMPOST
  1

  9
$DIMAPOST
  1

  9
$DIMALT
 70
     0
  9
$DIMALTD
 70
     3
  9
$DIMALTF
 40
0.0393700787401575
  9
$DIMLFAC
 40
1.0
  9
$DIMTOFL
 70
     1
  9
$DIMTVP
 40
0.0
  9
$DIMTIX
 70
     0
  9
$DIMSOXD
 70
     0
  9
$DIMSAH
 70
     0
  9
$DIMBLK1
  1

  9
$DIMBLK2
  1

  9
$DIMSTYLE
  2
ISO-25
  9
$DIMCLRD
 70
     0
  9
$DIMCLRE
 70
     0
  9
$DIMCLRT
 70
     0
  9
$DIMTFAC
 40
1.0
  9
$DIMGAP
 40
1.524
  9
$DIMJUST
 70
     0
  9
$DIMSD1
 70
     0
  9
$DIMSD2
 70
     0
  9
$DIMTOLJ
 70
     0
  9
$DIMTZIN
 70
     0
  9
$DIMALTZ
 70
     0
  9
$DIMALTTZ
 70
     0
  9
$DIMUPT
 70
     0
  9
$DIMDEC
 70
     2
  9
$DIMTDEC
 70
     2
  9
$DIMALTU
 70
     2
  9
$DIMALTTD
 70
     3
  9
$DIMTXSTY
  7
Standard
  9
$DIMAUNIT
 70
     0
  9
$DIMADEC
 70
     2
  9
$DIMALTRND
 40
0.0
  9
$DIMAZIN
 70
     0
  9
$DIMDSEP
 70
    44
  9
$DIMATFIT
 70
     3
  9
$DIMFRAC
 70
     0
  9
$DIMLDRBLK
  1

  9
$DIMLUNIT
 70
     2
  9
$DIMLWD
 70
    -2
  9
$DIMLWE
 70
    -2
  9
$DIMTMOVE
 70
     0
  9
$LUNITS
 70
     2
  9
$LUPREC
 70
     2
  9
$SKETCHINC
 40
1.0
  9
$FILLETRAD
 40
10.0
  9
$AUNITS
 70
     0
  9
$AUPREC
 70
     2
  9
$MENU
  1
.
  9
$ELEVATION
 40
0.0
  9
$PELEVATION
 40
0.0
  9
$THICKNESS
 40
0.0
  9
$LIMCHECK
 70
     0
  9
$CHAMFERA
 40
0.0
  9
$CHAMFERB
 40
0.0
  9
$CHAMFERC
 40
0.0
  9
$CHAMFERD
 40
0.0
  9
$SKPOLY
 70
     0
  9
$TDCREATE
 40
2458262.538163009
  9
$TDUCREATE
 40
2458262.163163009
  9
$TDUPDATE
 40
2458266.372807083
  9
$TDUUPDATE
 40
2458265.997807083
  9
$TDINDWG
 40
0.0017229514
  9
$TDUSRTIMER
 40
2458265.996084178
  9
$USRTIMER
 70
     1
  9
$ANGBASE
 50
0.0
  9
$ANGDIR
 70
     0
  9
$PDMODE
 70
     0
  9
$PDSIZE
 40
-1.0
  9
$PLINEWID
 40
0.0
  9
$SPLFRAME
 70
     0
  9
$SPLINETYPE
 70
     6
  9
$SPLINESEGS
 70
     8
  9
$HANDSEED
  5
160
  9
$SURFTAB1
 70
     6
  9
$SURFTAB2
 70
     6
  9
$SURFTYPE
 70
     6
  9
$SURFU
 70
     6
  9
$SURFV
 70
     6
  9
$UCSBASE
  2

  9
$UCSNAME
  2

  9
$UCSORG
 10
0.0
 20
0.0
 30
0.0
  9
$UCSXDIR
 10
1.0
 20
0.0
 30
0.0
  9
$UCSYDIR
 10
0.0
 20
1.0
 30
0.0
  9
$UCSORTHOREF
  2

  9
$UCSORTHOVIEW
 70
     0
  9
$UCSORGTOP
 10
0.0
 20
0.0
 30
0.0
  9
$UCSORGBOTTOM
 10
0.0
 20
0.0
 30
0.0
  9
$UCSORGLEFT
 10
0.0
 20
0.0
 30
0.0
  9
$UCSORGRIGHT
 10
0.0
 20
0.0
 30
0.0
  9
$UCSORGFRONT
 10
0.0
 20
0.0
 30
0.0
  9
$UCSORGBACK
 10
0.0
 20
0.0
 30
0.0
  9
$PUCSBASE
  2

  9
$PUCSNAME
  2

  9
$PUCSORG
 10
0.0
 20
0.0
 30
0.0
  9
$PUCSXDIR
 10
1.0
 20
0.0
 30
0.0
  9
$PUCSYDIR
 10
0.0
 20
1.0
 30
0.0
  9
$PUCSORTHOREF
  2

  9
$PUCSORTHOVIEW
 70
     0
  9
$PUCSORGTOP
 10
0.0
 20
0.0
 30
0.0
  9
$PUCSORGBOTTOM
 10
0.0
 20
0.0
 30
0.0
  9
$PUCSORGLEFT
 10
0.0
 20
0.0
 30
0.0
  9
$PUCSORGRIGHT
 10
0.0
 20
0.0
 30
0.0
  9
$PUCSORGFRONT
 10
0.0
 20
0.0
 30
0.0
  9
$PUCSORGBACK
 10
0.0
 20
0.0
 30
0.0
  9
$USERI1
 70
     0
  9
$USERI2
 70
     0
  9
$USERI3
 70
     0
  9
$USERI4
 70
     0
  9
$USERI5
 70
     0
  9
$USERR1
 40
0.0
  9
$USERR2
 40
0.0
  9
$USERR3
 40
0.0
  9
$USERR4
 40
0.0
  9
$USERR5
 40
0.0
  9
$WORLDVIEW
 70
     1
  9
$SHADEDGE
 70
     3
  9
$SHADEDIF
 70
    70
  9
$TILEMODE
 70
     1
  9
$MAXACTVP
 70
    64
  9
$PINSBASE
 10
0.0
 20
0.0
 30
0.0
  9
$PLIMCHECK
 70
     0
  9
$PEXTMIN
 10
1.000000000000000E+20
 20
1.000000000000000E+20
 30
1.000000000000000E+20
  9
$PEXTMAX
 10
-1.000000000000000E+20
 20
-1.000000000000000E+20
 30
-1.000000000000000E+20
  9
$PLIMMIN
 10
0.0
 20
0.0
  9
$PLIMMAX
 10
0.0
 20
0.0
  9
$UNITMODE
 70
     0
  9
$VISRETAIN
 70
     1
  9
$PLINEGEN
 70
     0
  9
$PSLTSCALE
 70
     1
  9
$TREEDEPTH
 70
  3020
  9
$CMLSTYLE
  2
Standard
  9
$CMLJUST
 70
     0
  9
$CMLSCALE
 40
20.0
  9
$PROXYGRAPHICS
 70
     1
  9
$MEASUREMENT
 70
     1
  9
$CELWEIGHT
370
    -1
  9
$ENDCAPS
280
     0
  9
$JOINSTYLE
280
     0
  9
$LWDISPLAY
290
     1
  9
$INSUNITS
 70
     4
  9
$HYPERLINKBASE
  1

  9
$STYLESHEET
  1

  9
$XEDIT
290
     1
  9
$CEPSNTYPE
380
     0
  9
$PSTYLEMODE
290
     1
  9
$FINGERPRINTGUID
  2
{AA55856B-70E3-4115-AD0B-06FB40BCD3D5}
  9
$VERSIONGUID
  2
{FAEB1C32-E019-11D5-929B-00C0DF256EC4}
  9
$EXTNAMES
290
     1
  9
$PSVPSCALE
 40
0.0
  9
$OLESTARTUP
290
     0
  0
ENDSEC
  0
SECTION
  2
CLASSES
  0
CLASS
  1
ACDBDICTIONARYWDFLT
  2
AcDbDictionaryWithDefault
  3
ObjectDBX Classes
 90
        0
280
     0
281
     0
  0
CLASS
  1
VISUALSTYLE
  2
AcDbVisualStyle
  3
ObjectDBX Classes
 90
     4095
280
     0
281
     0
  0
CLASS
  1
MATERIAL
  2
AcDbMaterial
  3
ObjectDBX Classes
 90
     1153
280
     0
281
     0
  0
CLASS
  1
SCALE
  2
AcDbScale
  3
ObjectDBX Classes
 90
     1153
280
     0
281
     0
  0
CLASS
  1
SUN
  2
AcDbSun
  3
SCENEOE
 90
     1153
280
     0
281
     0
  0
CLASS
  1
ACDBPLACEHOLDER
  2
AcDbPlaceHolder
  3
ObjectDBX Classes
 90
        0
280
     0
281
     0
  0
CLASS
  1
LAYOUT
  2
AcDbLayout
  3
ObjectDBX Classes
 90
        0
280
     0
281
     0
  0
CLASS
  1
TABLESTYLE
  2
AcDbTableStyle
  3
ObjectDBX Classes
 90
     4095
280
     0
281
     0
  0
CLASS
  1
MLEADERSTYLE
  2
AcDbMLeaderStyle
  3
ACDB_MLEADERSTYLE_CLASS
 90
     4095
280
     0
281
     0
  0
CLASS
  1
RASTERVARIABLES
  2
AcDbRasterVariables
  3
ISM
 90
        0
280
     0
281
     0
  0
ENDSEC
  0
SECTION
  2
TABLES
  0
TABLE
  2
VPORT
  5
8
330
0
100
AcDbSymbolTable
 70
     1
  0
VPORT
  5
29
330
8
100
AcDbSymbolTableRecord
100
AcDbViewportTableRecord
  2
*Active
 70
     0
 10
0.0
 20
0.0
 11
1.0
 21
1.0
 12
-3.704196105787986
 22
-10.67866100992259
 13
0.0
 23
0.0
 14
10.0
 24
10.0
 15
10.0
 25
10.0
 16
0.0
 26
0.0
 36
1.0
 17
0.0
 27
0.0
 37
0.0
 40
84.72069358281733
 41
1.152454780361757
 42
50.0
 43
0.0
 44
0.0
 50
0.0
 51
0.0
 71
    16
 72
  2000
 73
     1
 74
     3
 75
     0
 76
     0
 77
     0
 78
     0
281
     0
 65
     1
110
0.0
120
0.0
130
0.0
111
1.0
121
0.0
131
0.0
112
0.0
122
1.0
132
0.0
 79
     0
146
0.0
  0
ENDTAB
  0
TABLE
  2
LTYPE
  5
5
330
0
100
AcDbSymbolTable
 70
     6
  0
LTYPE
  5
14
330
5
100
AcDbSymbolTableRecord
100
AcDbLinetypeTableRecord
  2
ByBlock
 70
     0
  3

 72
    65
 73
     0
 40
0.0
  0
LTYPE
  5
15
330
5
100
AcDbSymbolTableRecord
100
AcDbLinetypeTableRecord
  2
ByLayer
 70
     0
  3

 72
    65
 73
     0
 40
0.0
  0
LTYPE
  5
16
330
5
100
AcDbSymbolTableRecord
100
AcDbLinetypeTableRecord
  2
Continuous
 70
     0
  3
Solid line
 72
    65
 73
     0
 40
0.0
  0
LTYPE
  5
6A
330
5
100
AcDbSymbolTableRecord
100
AcDbLinetypeTableRecord
  2
HIDDEN
 70
     0
  3
Hidden __ __ __ __ __ __ __ __ __ __ __ __ __ __
 72
    65
 73
     2
 40
1.905
 49
1.27
 74
     0
 49
-0.635
 74
     0
  0
LTYPE
  5
6B
330
5
100
AcDbSymbolTableRecord
100
AcDbLinetypeTableRecord
  2
PHANTOM
 70
     0
  3
Phantom ______  __  __  ______  __  __  ______
 72
    65
 73
     6
 40
12.7
 49
6.35
 74
     0
 49
-1.27
 74
     0
 49
1.27
 74
     0
 49
-1.27
 74
     0
 49
1.27
 74
     0
 49
-1.27
 74
     0
  0
LTYPE
  5
6C
330
5
100
AcDbSymbolTableRecord
100
AcDbLinetypeTableRecord
  2
CENTER
 70
     0
  3
Center ____ _ ____ _ ____ _ ____ _ ____ _ ____
 72
    65
 73
     4
 40
10.16
 49
6.35
 74
     0
 49
-1.27
 74
     0
 49
1.27
 74
     0
 49
-1.27
 74
     0
  0
LTYPE
  5
6D
330
5
100
AcDbSymbolTableRecord
100
AcDbLinetypeTableRecord
  2
CENTERX2
 70
     0
  3
Center (2x) ________  __  ________  __  _____
 72
    65
 73
     4
 40
20.32
 49
12.7
 74
     0
 49
-2.54
 74
     0
 49
2.54
 74
     0
 49
-2.54
 74
     0
  0
LTYPE
  5
6E
330
5
100
AcDbSymbolTableRecord
100
AcDbLinetypeTableRecord
  2
DOT2
 70
     0
  3
Dot (.5x) ........................................
 72
    65
 73
     2
 40
0.635
 49
0.0
 74
     0
 49
-0.635
 74
     0
  0
ENDTAB
  0
TABLE
  2
LAYER
  5
2
330
0
100
AcDbSymbolTable
 70
    17
  0
LAYER
  5
10
330
2
100
AcDbSymbolTableRecord
100
AcDbLayerTableRecord
  2
0
 70
     0
 62
     7
  6
Continuous
370
    -3
390
F
  0
LAYER
  5
6F
330
2
100
AcDbSymbolTableRecord
100
AcDbLayerTableRecord
  2
FORMAT
 70
     0
 62
     2
  6
Continuous
370
    -3
390
F
  0
LAYER
  5
70
330
2
100
AcDbSymbolTableRecord
100
AcDbLayerTableRecord
  2
외형선
 70
     0
 62
   100
  6
Continuous
370
    30
390
F
  0
LAYER
  5
71
330
2
100
AcDbSymbolTableRecord
100
AcDbLayerTableRecord
  2
숨은선
 70
     0
 62
     2
  6
HIDDEN
370
    15
390
F
  0
LAYER
  5
72
330
2
100
AcDbSymbolTableRecord
100
AcDbLayerTableRecord
  2
중심선
 70
     0
 62
     1
  6
CENTERX2
370
    -3
390
F
  0
LAYER
  5
73
330
2
100
AcDbSymbolTableRecord
100
AcDbLayerTableRecord
  2
파단선
 70
     0
 62
     4
  6
Continuous
370
    -3
390
F
  0
LAYER
  5
74
330
2
100
AcDbSymbolTableRecord
100
AcDbLayerTableRecord
  2
해칭선
 70
     0
 62
     4
  6
Continuous
370
    -3
390
F
  0
LAYER
  5
75
330
2
100
AcDbSymbolTableRecord
100
AcDbLayerTableRecord
  2
가는실선
 70
     0
 62
     4
  6
Continuous
370
    -3
390
F
  0
LAYER
  5
76
330
2
100
AcDbSymbolTableRecord
100
AcDbLayerTableRecord
  2
치수_보조선
 70
     0
 62
     4
  6
Continuous
370
    -3
390
F
  0
LAYER
  5
77
330
2
100
AcDbSymbolTableRecord
100
AcDbLayerTableRecord
  2
치수문자_일반주서
 70
     0
 62
     7
  6
Continuous
370
    15
390
F
  0
LAYER
  5
78
330
2
100
AcDbSymbolTableRecord
100
AcDbLayerTableRecord
  2
개별주서
 70
     0
 62
   100
  6
Continuous
370
    30
390
F
  0
LAYER
  5
79
330
2
100
AcDbSymbolTableRecord
100
AcDbLayerTableRecord
  2
중간선
 70
     0
 62
     2
  6
Continuous
370
    15
390
F
  0
LAYER
  5
7A
330
2
100
AcDbSymbolTableRecord
100
AcDbLayerTableRecord
  2
윤곽선
 70
     0
 62
     3
  6
Continuous
370
    40
390
F
  0
LAYER
  5
7B
330
2
100
AcDbSymbolTableRecord
100
AcDbLayerTableRecord
  2
중심마크
 70
     0
 62
   100
  6
Continuous
370
    30
390
F
  0
LAYER
  5
7C
330
2
100
AcDbSymbolTableRecord
100
AcDbLayerTableRecord
  2
가상선
 70
     0
 62
     4
  6
PHANTOM
370
    -3
390
F
  0
LAYER
  5
7D
330
2
100
AcDbSymbolTableRecord
100
AcDbLayerTableRecord
  2
특수지정선
 70
     0
 62
     5
  6
CENTERX2
370
    60
390
F
  0
LAYER
  5
152
330
2
100
AcDbSymbolTableRecord
100
AcDbLayerTableRecord
  2
Defpoints
 70
     0
 62
     7
  6
Continuous
290
     0
370
    -3
390
F
  0
ENDTAB
  0
TABLE
  2
STYLE
  5
3
330
0
100
AcDbSymbolTable
 70
     2
  0
STYLE
  5
11
330
3
100
AcDbSymbolTableRecord
100
AcDbTextStyleTableRecord
  2
Standard
 70
     0
 40
0.0
 41
1.0
 50
0.0
 71
     0
 42
3.5
  3
txt
  4

  0
STYLE
  5
93
330
3
100
AcDbSymbolTableRecord
100
AcDbTextStyleTableRecord
  2
SLDTEXTSTYLE0
 70
     0
 40
0.0
 41
0.75
 50
0.0
 71
     0
 42
3.5
  3
TXT
  4

  0
ENDTAB
  0
TABLE
  2
VIEW
  5
6
330
0
100
AcDbSymbolTable
 70
     0
  0
ENDTAB
  0
TABLE
  2
UCS
  5
7
330
0
100
AcDbSymbolTable
 70
     0
  0
ENDTAB
  0
TABLE
  2
APPID
  5
9
330
0
100
AcDbSymbolTable
 70
     1
  0
APPID
  5
12
330
9
100
AcDbSymbolTableRecord
100
AcDbRegAppTableRecord
  2
ACAD
 70
     0
  0
ENDTAB
  0
TABLE
  2
DIMSTYLE
  5
A
330
0
100
AcDbSymbolTable
 70
     3
100
AcDbDimStyleTable
  0
DIMSTYLE
105
27
330
A
100
AcDbSymbolTableRecord
100
AcDbDimStyleTableRecord
  2
ISO-25
 70
     0
 41
2.5
 42
0.625
 43
3.75
 44
1.25
 73
     0
 74
     0
 77
     1
 78
     8
140
2.5
141
2.5
143
0.03937007874016
147
0.625
171
     3
172
     1
178
     0
271
     2
272
     2
274
     3
278
    44
283
     0
284
     8
340
11
  0
DIMSTYLE
105
F8
102
{ACAD_REACTORS
330
F7
330
11A
102
}
330
A
100
AcDbSymbolTableRecord
100
AcDbDimStyleTableRecord
  2
SLDDIMSTYLE0
 70
     0
 41
3.302
 44
0.0
 45
0.000000001
 73
     0
 74
     0
 77
     1
 78
    12
 79
     3
140
3.5
147
0.875
172
     1
173
     1
178
     0
271
     2
272
     2
276
     2
284
    12
289
     0
340
93
  0
DIMSTYLE
105
106
102
{ACAD_REACTORS
330
105
330
110
102
}
330
A
100
AcDbSymbolTableRecord
100
AcDbDimStyleTableRecord
  2
SLDDIMSTYLE1
 70
     0
 41
3.302
 44
0.0
 45
0.000000001
 73
     0
 74
     0
 77
     1
 78
    12
 79
     3
140
3.5
147
0.875
173
     1
178
     0
271
     2
272
     2
276
     2
284
    12
340
93
  0
ENDTAB
  0
TABLE
  2
BLOCK_RECORD
  5
1
330
0
100
AcDbSymbolTable
 70
     7
  0
BLOCK_RECORD
  5
1F
330
1
100
AcDbSymbolTableRecord
100
AcDbBlockTableRecord
  2
*Model_Space
340
22
  0
BLOCK_RECORD
  5
1B
330
1
100
AcDbSymbolTableRecord
100
AcDbBlockTableRecord
  2
*Paper_Space
340
1E
  0
BLOCK_RECORD
  5
23
330
1
100
AcDbSymbolTableRecord
100
AcDbBlockTableRecord
  2
*Paper_Space0
340
26
  0
BLOCK_RECORD
  5
7E
330
1
100
AcDbSymbolTableRecord
100
AcDbBlockTableRecord
  2
블럭10
340
0
102
{BLKREFS
331
F0
102
}
  0
BLOCK_RECORD
  5
F9
330
1
100
AcDbSymbolTableRecord
100
AcDbBlockTableRecord
  2
_D
340
0
  0
BLOCK_RECORD
  5
107
330
1
100
AcDbSymbolTableRecord
100
AcDbBlockTableRecord
  2
_D_1
340
0
  0
BLOCK_RECORD
  5
111
330
1
100
AcDbSymbolTableRecord
100
AcDbBlockTableRecord
  2
_D_2
340
0
  0
BLOCK_RECORD
  5
11B
330
1
100
AcDbSymbolTableRecord
100
AcDbBlockTableRecord
  2
_D_3
340
0
  0
BLOCK_RECORD
  5
127
330
1
100
AcDbSymbolTableRecord
100
AcDbBlockTableRecord
  2
SW_DOWELSYMBOL_0
340
0
102
{BLKREFS
331
12D
102
}
  0
ENDTAB
  0
ENDSEC
  0
SECTION
  2
BLOCKS
  0
BLOCK
  5
20
330
1F
100
AcDbEntity
  8
0
100
AcDbBlockBegin
  2
*Model_Space
 70
     0
 10
0.0
 20
0.0
 30
0.0
  3
*Model_Space
  1

  0
ENDBLK
  5
21
330
1F
100
AcDbEntity
  8
0
100
AcDbBlockEnd
  0
BLOCK
  5
1C
330
1B
100
AcDbEntity
 67
     1
  8
0
100
AcDbBlockBegin
  2
*Paper_Space
 70
     0
 10
0.0
 20
0.0
 30
0.0
  3
*Paper_Space
  1

  0
ENDBLK
  5
1D
330
1B
100
AcDbEntity
 67
     1
  8
0
100
AcDbBlockEnd
  0
BLOCK
  5
24
330
23
100
AcDbEntity
  8
0
100
AcDbBlockBegin
  2
*Paper_Space0
 70
     0
 10
0.0
 20
0.0
 30
0.0
  3
*Paper_Space0
  1

  0
ENDBLK
  5
25
330
23
100
AcDbEntity
  8
0
100
AcDbBlockEnd
  0
BLOCK
  5
7F
330
7E
100
AcDbEntity
  8
0
100
AcDbBlockBegin
  2
블럭10
 70
     2
 10
0.0
 20
0.0
 30
0.0
  3
블럭10
  1

  0
ELLIPSE
  5
81
330
7E
100
AcDbEntity
  8
중심선
100
AcDbEllipse
 10
20.54032771741204
 20
12.0471743016438
 30
0.0
 11
6.600054785286829
 21
-1.261213355974178E-13
 31
0.0
210
0.0
220
0.0
230
1.0
 40
0.636358354079598
 41
0.9219305317359503
 42
6.513795318482858
  0
ELLIPSE
  5
82
330
7E
100
AcDbEntity
  8
중심선
100
AcDbEllipse
 10
20.54032771746488
 20
12.04717430159265
 30
0.0
 11
3.960054785062283
 21
1.540847449632565E-10
 31
0.0
210
0.0
220
0.0
230
1.0
 40
0.3939339440162632
 41
1.131841032648279
 42
5.62031148352944
  0
LINE
  5
83
330
7E
100
AcDbEntity
  8
중심선
100
AcDbLine
 10
2.268634060543552
 20
16.24717430164393
 30
0.0
 11
5.714909304380834
 21
16.24717430164393
 31
0.0
  0
LINE
  5
84
330
7E
100
AcDbEntity
  8
중심선
100
AcDbLine
 10
5.245725140726316
 20
7.84717430164391
 30
0.0
 11
8.692000384563599
 21
7.84717430164391
 31
0.0
  0
LINE
  5
85
330
7E
100
AcDbEntity
  8
중심선
100
AcDbLine
 10
15.74043728645272
 20
16.24717430164393
 30
0.0
 11
8.692000384563599
 21
7.84717430164391
 31
0.0
  0
LINE
  5
86
330
7E
100
AcDbEntity
  8
중심선
100
AcDbLine
 10
0.1404042013395286
 20
13.71084872107135
 30
0.0
 11
3.58671253028996
 21
13.71088815037384
 31
0.0
  0
LINE
  5
87
330
7E
100
AcDbEntity
  8
중심선
100
AcDbLine
 10
2.750260043222114
 20
10.84717430164391
 30
0.0
 11
6.196535287059397
 21
10.84717430164391
 31
0.0
  0
LINE
  5
88
330
7E
100
AcDbEntity
  8
중심선
100
AcDbLine
 10
12.29416204261559
 20
16.24717430164393
 30
0.0
 11
5.245725140726316
 21
7.84717430164391
 31
0.0
  0
LINE
  5
89
330
7E
100
AcDbEntity
  8
중심선
100
AcDbLine
 10
10.72767329541681
 20
16.24717430164393
 30
0.0
 11
6.196535287059397
 21
10.84717430164391
 31
0.0
  0
LINE
  5
8A
330
7E
100
AcDbEntity
  8
중심선
100
AcDbLine
 10
7.28139805157953
 20
16.24717430164393
 30
0.0
 11
2.750260043222114
 21
10.84717430164391
 31
0.0
  0
LINE
  5
8B
330
7E
100
AcDbEntity
  8
중심선
100
AcDbLine
 10
5.714909304380834
 20
16.24717430164393
 30
0.0
 11
3.58671253028996
 21
13.71088815037384
 31
0.0
  0
LINE
  5
8C
330
7E
100
AcDbEntity
  8
중심선
100
AcDbLine
 10
2.268634060543552
 20
16.24717430164393
 30
0.0
 11
0.1404042013395286
 21
13.71084872107135
 31
0.0
  0
LINE
  5
8D
330
7E
100
AcDbEntity
  8
중심선
100
AcDbLine
 10
7.28139805157953
 20
16.24717430164393
 30
0.0
 11
10.72767329541681
 21
16.24717430164393
 31
0.0
  0
LINE
  5
8E
330
7E
100
AcDbEntity
  8
중심선
100
AcDbLine
 10
12.29416204261559
 20
16.24717430164393
 30
0.0
 11
15.74043728645272
 21
16.24717430164393
 31
0.0
  0
LINE
  5
8F
330
7E
100
AcDbEntity
  8
중심선
100
AcDbLine
 10
19.22036997980202
 20
11.08717430171403
 30
0.0
 11
23.66174974927406
 21
11.08717430171406
 31
0.0
  0
LINE
  5
90
330
7E
100
AcDbEntity
  8
중심선
100
AcDbLine
 10
19.22039502424796
 20
13.00717430171391
 30
0.0
 11
19.22036997980202
 21
11.08717430171403
 31
0.0
  0
LINE
  5
91
330
7E
100
AcDbEntity
  8
중심선
100
AcDbLine
 10
19.22039502424796
 20
13.00717430171391
 30
0.0
 11
26.96566020931264
 21
13.00717430171391
 31
0.0
  0
LINE
  5
92
330
7E
100
AcDbEntity
  8
중심선
100
AcDbLine
 10
22.22332737316547
 20
13.45928029700563
 30
0.0
 11
24.52862924686651
 21
15.39360700705356
 31
0.0
  0
ATTDEF
  5
94
330
7E
100
AcDbEntity
  8
FORMAT
 62
     2
100
AcDbText
 10
-16.11926103943555
 20
2.075366912832191
 30
0.0
 40
4.233333333333333
  1
SEME7003026E [ 2 FLUTE ]
 41
0.75
  7
SLDTEXTSTYLE0
 11
-16.11926103943555
 21
-0.0412997538344756
 31
0.0
100
AcDbAttributeDefinition
  3

  2
AUTOATTR0
 70
     0
 74
     1
  0
ENDBLK
  5
80
330
7E
100
AcDbEntity
  8
0
100
AcDbBlockEnd
  0
BLOCK
  5
FA
330
F9
100
AcDbEntity
  8
0
100
AcDbBlockBegin
  2
_D
 70
     0
 10
0.0
 20
0.0
 30
0.0
  3
_D
  1

  0
LINE
  5
FC
330
F9
100
AcDbEntity
  8
치수문자_일반주서
 62
     0
370
    -2
100
AcDbLine
 10
34.66057621135331
 20
-1.499999999999902
 30
0.0
 11
43.6066314996441
 21
-1.499999999999869
 31
0.0
  0
LINE
  5
FD
330
F9
100
AcDbEntity
  8
치수문자_일반주서
 62
     0
370
    -2
100
AcDbLine
 10
34.66057621135324
 20
1.500000000000093
 30
0.0
 11
43.60663149964409
 21
1.500000000000126
 31
0.0
  0
LINE
  5
FE
330
F9
100
AcDbEntity
  8
치수문자_일반주서
 62
     0
370
    -2
100
AcDbLine
 10
43.6066314996441
 20
-1.499999999999869
 30
0.0
 11
43.60663149964406
 21
14.22900000000013
 31
0.0
  0
LINE
  5
FF
330
F9
100
AcDbEntity
  8
치수문자_일반주서
 62
     0
370
    -2
100
AcDbLine
 10
43.6066314996441
 20
-1.499999999999869
 30
0.0
 11
43.60663149964409
 21
1.500000000000126
 31
0.0
  0
LINE
  5
100
330
F9
100
AcDbEntity
  8
치수문자_일반주서
 62
     0
370
    -2
100
AcDbLine
 10
43.6066314996441
 20
-4.801999999999868
 30
0.0
 11
43.60663149964411
 21
-8.103999999999868
 31
0.0
  0
LINE
  5
101
330
F9
100
AcDbEntity
  8
치수문자_일반주서
 62
     0
370
    -2
100
AcDbLine
 10
43.60663149964408
 20
4.802000000000126
 30
0.0
 11
43.60663149964407
 21
8.104000000000125
 31
0.0
  0
SOLID
  5
102
330
F9
100
AcDbEntity
  8
치수문자_일반주서
 62
     0
100
AcDbTrace
 10
44.15696483297744
 20
-4.801999999999867
 30
0.0
 11
43.05629816631077
 21
-4.801999999999869
 31
0.0
 12
43.6066314996441
 22
-1.499999999999869
 32
0.0
 13
43.6066314996441
 23
-1.499999999999869
 33
0.0
  0
SOLID
  5
103
330
F9
100
AcDbEntity
  8
치수문자_일반주서
 62
     0
100
AcDbTrace
 10
43.05629816631075
 20
4.802000000000125
 30
0.0
 11
44.15696483297742
 21
4.802000000000127
 31
0.0
 12
43.60663149964409
 22
1.500000000000126
 32
0.0
 13
43.60663149964409
 23
1.500000000000126
 33
0.0
  0
MTEXT
  5
104
330
F9
100
AcDbEntity
  8
치수문자_일반주서
 62
     0
100
AcDbMText
 10
39.23163149964407
 20
11.16650000000011
 30
0.0
 40
3.5
 41
0.0
 71
     2
 72
     1
  1
\A1;%%c3
  7
SLDTEXTSTYLE0
 11
-2.368475785867005E-15
 21
1.0
 31
0.0
 73
     1
 44
1.0
  0
POINT
  5
15C
330
F9
100
AcDbEntity
  8
Defpoints
 62
     0
100
AcDbPoint
 10
34.59807621135331
 20
-1.499999999999902
 30
0.0
  0
POINT
  5
15D
330
F9
100
AcDbEntity
  8
Defpoints
 62
     0
100
AcDbPoint
 10
34.59807621135324
 20
1.500000000000093
 30
0.0
  0
POINT
  5
15E
330
F9
100
AcDbEntity
  8
Defpoints
 62
     0
100
AcDbPoint
 10
43.60663149964409
 20
1.500000000000126
 30
0.0
  0
ENDBLK
  5
FB
330
F9
100
AcDbEntity
  8
0
100
AcDbBlockEnd
  0
BLOCK
  5
108
330
107
100
AcDbEntity
  8
0
100
AcDbBlockBegin
  2
_D_1
 70
     0
 10
0.0
 20
0.0
 30
0.0
  3
_D_1
  1

  0
LINE
  5
10A
330
107
100
AcDbEntity
  8
치수문자_일반주서
 62
     0
370
    -2
100
AcDbLine
 10
-35.4019237886467
 20
2.512499999999995
 30
0.0
 11
-35.4019237886467
 21
24.23841044024269
 31
0.0
  0
LINE
  5
10B
330
107
100
AcDbEntity
  8
치수문자_일반주서
 62
     0
370
    -2
100
AcDbLine
 10
34.59807621135316
 20
1.548411303847855
 30
0.0
 11
34.59807621135316
 21
24.23841044024269
 31
0.0
  0
LINE
  5
10C
330
107
100
AcDbEntity
  8
치수문자_일반주서
 62
     0
370
    -2
100
AcDbLine
 10
-32.0999237886467
 20
24.23841044024269
 30
0.0
 11
31.29607621135316
 21
24.23841044024269
 31
0.0
  0
SOLID
  5
10D
330
107
100
AcDbEntity
  8
치수문자_일반주서
 62
     0
100
AcDbTrace
 10
-32.0999237886467
 20
24.78874377357602
 30
0.0
 11
-32.0999237886467
 21
23.68807710690935
 31
0.0
 12
-35.4019237886467
 22
24.23841044024269
 32
0.0
 13
-35.4019237886467
 23
24.23841044024269
 33
0.0
  0
SOLID
  5
10E
330
107
100
AcDbEntity
  8
치수문자_일반주서
 62
     0
100
AcDbTrace
 10
31.29607621135316
 20
23.68807710690935
 30
0.0
 11
31.29607621135316
 21
24.78874377357602
 31
0.0
 12
34.59807621135316
 22
24.23841044024269
 32
0.0
 13
34.59807621135316
 23
24.23841044024269
 33
0.0
  0
MTEXT
  5
10F
330
107
100
AcDbEntity
  8
치수문자_일반주서
 62
     0
100
AcDbMText
 10
-0.4019237886467639
 20
28.61341044024269
 30
0.0
 40
3.5
 41
0.0
 71
     2
 72
     1
  1
\A1;70
  7
SLDTEXTSTYLE0
 73
     1
 44
1.0
  0
POINT
  5
153
330
107
100
AcDbEntity
  8
Defpoints
 62
     0
100
AcDbPoint
 10
-35.4019237886467
 20
2.449999999999995
 30
0.0
  0
POINT
  5
154
330
107
100
AcDbEntity
  8
Defpoints
 62
     0
100
AcDbPoint
 10
34.59807621135316
 20
1.485911303847855
 30
0.0
  0
POINT
  5
155
330
107
100
AcDbEntity
  8
Defpoints
 62
     0
100
AcDbPoint
 10
34.59807621135316
 20
24.23841044024269
 30
0.0
  0
ENDBLK
  5
109
330
107
100
AcDbEntity
  8
0
100
AcDbBlockEnd
  0
BLOCK
  5
112
330
111
100
AcDbEntity
  8
0
100
AcDbBlockBegin
  2
_D_2
 70
     0
 10
0.0
 20
0.0
 30
0.0
  3
_D_2
  1

  0
LINE
  5
114
330
111
100
AcDbEntity
  8
치수문자_일반주서
 62
     0
370
    -2
100
AcDbLine
 10
8.598076211353304
 20
1.280278791526357
 30
0.0
 11
8.598076211353302
 21
14.33428766198015
 31
0.0
  0
LINE
  5
115
330
111
100
AcDbEntity
  8
치수문자_일반주서
 62
     0
370
    -2
100
AcDbLine
 10
34.5980762113533
 20
1.561232222844473
 30
0.0
 11
34.5980762113533
 21
14.33428766198015
 31
0.0
  0
LINE
  5
116
330
111
100
AcDbEntity
  8
치수문자_일반주서
 62
     0
370
    -2
100
AcDbLine
 10
11.9000762113533
 20
14.33428766198015
 30
0.0
 11
31.2960762113533
 21
14.33428766198015
 31
0.0
  0
SOLID
  5
117
330
111
100
AcDbEntity
  8
치수문자_일반주서
 62
     0
100
AcDbTrace
 10
11.9000762113533
 20
14.88462099531348
 30
0.0
 11
11.9000762113533
 21
13.78395432864682
 31
0.0
 12
8.598076211353302
 22
14.33428766198015
 32
0.0
 13
8.598076211353302
 23
14.33428766198015
 33
0.0
  0
SOLID
  5
118
330
111
100
AcDbEntity
  8
치수문자_일반주서
 62
     0
100
AcDbTrace
 10
31.2960762113533
 20
13.78395432864682
 30
0.0
 11
31.2960762113533
 21
14.88462099531348
 31
0.0
 12
34.5980762113533
 22
14.33428766198015
 32
0.0
 13
34.5980762113533
 23
14.33428766198015
 33
0.0
  0
MTEXT
  5
119
330
111
100
AcDbEntity
  8
치수문자_일반주서
 62
     0
100
AcDbMText
 10
21.59807621135331
 20
18.70928766198015
 30
0.0
 40
3.5
 41
0.0
 71
     2
 72
     1
  1
\A1;26
  7
SLDTEXTSTYLE0
 73
     1
 44
1.0
  0
POINT
  5
156
330
111
100
AcDbEntity
  8
Defpoints
 62
     0
100
AcDbPoint
 10
8.598076211353304
 20
1.217778791526357
 30
0.0
  0
POINT
  5
157
330
111
100
AcDbEntity
  8
Defpoints
 62
     0
100
AcDbPoint
 10
34.5980762113533
 20
1.498732222844473
 30
0.0
  0
POINT
  5
158
330
111
100
AcDbEntity
  8
Defpoints
 62
     0
100
AcDbPoint
 10
34.5980762113533
 20
14.33428766198015
 30
0.0
  0
ENDBLK
  5
113
330
111
100
AcDbEntity
  8
0
100
AcDbBlockEnd
  0
BLOCK
  5
11C
330
11B
100
AcDbEntity
  8
0
100
AcDbBlockBegin
  2
_D_3
 70
     0
 10
0.0
 20
0.0
 30
0.0
  3
_D_3
  1

  0
LINE
  5
11E
330
11B
100
AcDbEntity
  8
치수문자_일반주서
 62
     0
370
    -2
100
AcDbLine
 10
-34.91442378864669
 20
2.999999999999996
 30
0.0
 11
-47.19035704455337
 21
2.99999999999995
 31
0.0
  0
LINE
  5
11F
330
11B
100
AcDbEntity
  8
치수문자_일반주서
 62
     0
370
    -2
100
AcDbLine
 10
-34.91442378864669
 20
-3.000000000000001
 30
0.0
 11
-47.19035704455334
 21
-3.000000000000046
 31
0.0
  0
LINE
  5
120
330
11B
100
AcDbEntity
  8
치수문자_일반주서
 62
     0
370
    -2
100
AcDbLine
 10
-47.19035704455337
 20
2.99999999999995
 30
0.0
 11
-47.19035704455342
 21
15.72899999999995
 31
0.0
  0
LINE
  5
121
330
11B
100
AcDbEntity
  8
치수문자_일반주서
 62
     0
370
    -2
100
AcDbLine
 10
-47.19035704455337
 20
2.99999999999995
 30
0.0
 11
-47.19035704455334
 21
-3.000000000000046
 31
0.0
  0
LINE
  5
122
330
11B
100
AcDbEntity
  8
치수문자_일반주서
 62
     0
370
    -2
100
AcDbLine
 10
-47.19035704455338
 20
6.30199999999995
 30
0.0
 11
-47.19035704455339
 21
9.60399999999995
 31
0.0
  0
LINE
  5
123
330
11B
100
AcDbEntity
  8
치수문자_일반주서
 62
     0
370
    -2
100
AcDbLine
 10
-47.19035704455333
 20
-6.302000000000046
 30
0.0
 11
-47.19035704455332
 21
-9.604000000000045
 31
0.0
  0
SOLID
  5
124
330
11B
100
AcDbEntity
  8
치수문자_일반주서
 62
     0
100
AcDbTrace
 10
-47.74069037788671
 20
6.301999999999948
 30
0.0
 11
-46.64002371122005
 21
6.301999999999952
 31
0.0
 12
-47.19035704455337
 22
2.99999999999995
 32
0.0
 13
-47.19035704455337
 23
2.99999999999995
 33
0.0
  0
SOLID
  5
125
330
11B
100
AcDbEntity
  8
치수문자_일반주서
 62
     0
100
AcDbTrace
 10
-46.64002371122
 20
-6.302000000000044
 30
0.0
 11
-47.74069037788666
 21
-6.302000000000048
 31
0.0
 12
-47.19035704455334
 22
-3.000000000000046
 32
0.0
 13
-47.19035704455334
 23
-3.000000000000046
 33
0.0
  0
MTEXT
  5
126
330
11B
100
AcDbEntity
  8
치수문자_일반주서
 62
     0
100
AcDbMText
 10
-51.5653570445534
 20
12.66649999999994
 30
0.0
 40
3.5
 41
0.0
 71
     2
 72
     1
  1
\A1;%%c6
  7
SLDTEXTSTYLE0
 11
-3.552713678800503E-15
 21
1.0
 31
0.0
 73
     1
 44
1.0
  0
POINT
  5
159
330
11B
100
AcDbEntity
  8
Defpoints
 62
     0
100
AcDbPoint
 10
-34.85192378864669
 20
2.999999999999996
 30
0.0
  0
POINT
  5
15A
330
11B
100
AcDbEntity
  8
Defpoints
 62
     0
100
AcDbPoint
 10
-34.85192378864669
 20
-3.000000000000001
 30
0.0
  0
POINT
  5
15B
330
11B
100
AcDbEntity
  8
Defpoints
 62
     0
100
AcDbPoint
 10
-47.19035704455334
 20
-3.000000000000047
 30
0.0
  0
ENDBLK
  5
11D
330
11B
100
AcDbEntity
  8
0
100
AcDbBlockEnd
  0
BLOCK
  5
128
330
127
100
AcDbEntity
  8
0
100
AcDbBlockBegin
  2
SW_DOWELSYMBOL_0
 70
     0
 10
0.0
 20
0.0
 30
0.0
  3
SW_DOWELSYMBOL_0
  1

  0
CIRCLE
  5
12A
330
127
100
AcDbEntity
  8
외형선
 62
     0
100
AcDbCircle
 10
0.0
 20
0.0
 30
0.0
 40
3.000000000000004
  0
HATCH
  5
12B
330
127
100
AcDbEntity
  8
0
  6
Continuous
 62
     0
370
    30
100
AcDbHatch
 10
0.0
 20
0.0
 30
0.0
210
0.0
220
0.0
230
1.0
  2
SOLID
 70
     1
 71
     0
 91
        1
 92
        0
 93
        3
 72
     2
 10
0.0000000000000104
 20
0.0
 40
3.000000000000004
 50
0.0
 51
90.0
 73
     1
 72
     1
 10
0.0000000000000104
 20
3.000000000000004
 11
0.0000000000000104
 21
0.0
 72
     1
 10
0.0000000000000104
 20
0.0
 11
3.000000000000015
 21
0.0
 97
        0
 75
     0
 76
     1
 98
        1
 10
0.0
 20
0.0
  0
HATCH
  5
12C
330
127
100
AcDbEntity
  8
0
  6
Continuous
 62
     0
370
    30
100
AcDbHatch
 10
0.0
 20
0.0
 30
0.0
210
0.0
220
0.0
230
1.0
  2
SOLID
 70
     1
 71
     0
 91
        1
 92
        0
 93
        3
 72
     2
 10
0.0000000000000104
 20
0.0
 40
3.000000000000004
 50
180.0
 51
270.0000000000008
 73
     1
 72
     1
 10
0.0000000000000104
 20
-3.000000000000004
 11
0.0000000000000104
 21
0.0
 72
     1
 10
0.0000000000000104
 20
0.0
 11
-2.999999999999994
 21
0.0
 97
        0
 75
     0
 76
     1
 98
        1
 10
0.0
 20
0.0
  0
ENDBLK
  5
129
330
127
100
AcDbEntity
  8
0
100
AcDbBlockEnd
  0
ENDSEC
  0
SECTION
  2
ENTITIES
  0
SPLINE
  5
95
330
1F
100
AcDbEntity
  8
0
  6
Continuous
 62
     1
370
    15
100
AcDbSpline
210
0.0
220
0.0
230
1.0
 70
     8
 71
     3
 72
     9
 73
     5
 74
     0
 42
0.000000001
 43
0.00000001
 40
0.0
 40
0.0
 40
0.0
 40
0.0
 40
0.500016081003074
 40
1.0
 40
1.0
 40
1.0
 40
1.0
 10
30.71335823742194
 20
0.384075066171518
 30
0.0
 10
30.64352662873819
 20
0.4172214874315137
 30
0.0
 10
30.50386790307552
 20
0.483512197909267
 30
0.0
 10
30.36432248544848
 20
0.5563253158508354
 30
0.0
 10
30.29455202066525
 20
0.5927307039136464
 30
0.0
  0
LINE
  5
96
330
1F
100
AcDbEntity
  8
0
  6
Continuous
 62
     1
370
    15
100
AcDbLine
 10
14.00264254720298
 20
0.5761337898460642
 30
0.0
 11
13.97074264431002
 21
0.5925268548940124
 31
0.0
  0
SPLINE
  5
97
330
1F
100
AcDbEntity
  8
0
  6
Continuous
 62
     1
370
    15
100
AcDbSpline
210
0.0
220
0.0
230
1.0
 70
     8
 71
     3
 72
     9
 73
     5
 74
     0
 42
0.000000001
 43
0.00000001
 40
0.0
 40
0.0
 40
0.0
 40
0.0
 40
0.5413142914840829
 40
1.0
 40
1.0
 40
1.0
 40
1.0
 10
14.38901578832849
 20
0.3841442466945966
 30
0.0
 10
14.31927290418861
 20
0.417204233063404
 30
0.0
 10
14.19043299503219
 20
0.4782777847669241
 30
0.0
 10
14.06169350938914
 20
0.5453628357191952
 30
0.0
 10
14.00264254720298
 20
0.5761337898460642
 30
0.0
  0
SPLINE
  5
98
330
1F
100
AcDbEntity
  8
0
  6
Continuous
 62
     1
370
    15
100
AcDbSpline
210
0.0
220
0.0
230
1.0
 70
     8
 71
     3
 72
     9
 73
     5
 74
     0
 42
0.000000001
 43
0.00000001
 40
0.0
 40
0.0
 40
0.0
 40
0.0
 40
0.5000168959609922
 40
1.0
 40
1.0
 40
1.0
 40
1.0
 10
22.5512740029611
 20
0.3840690409884743
 30
0.0
 10
22.48147638115555
 20
0.4171989223624166
 30
0.0
 10
22.34188585457663
 20
0.4834564461412267
 30
0.0
 10
22.20240673506208
 20
0.55623098415433
 30
0.0
 10
22.13266953193856
 20
0.5926170235651262
 30
0.0
  0
LINE
  5
99
330
1F
100
AcDbEntity
  8
0
  6
Continuous
 62
     1
370
    15
100
AcDbLine
 10
21.91291413892767
 20
0.3173248560491695
 30
0.0
 11
21.7056097294282
 21
0.4309152228023583
 31
0.0
  0
LINE
  5
9A
330
1F
100
AcDbEntity
  8
0
  6
Continuous
 62
     1
370
    15
100
AcDbLine
 10
13.61567681339176
 20
0.3912293217302294
 30
0.0
 11
13.54330478680333
 21
0.4310301169392977
 31
0.0
  0
LINE
  5
9B
330
1F
100
AcDbEntity
  8
0
  6
Continuous
 62
     1
370
    15
100
AcDbLine
 10
29.90265083889933
 20
0.4117391484266808
 30
0.0
 11
29.86785444338864
 21
0.4308336267349901
 31
0.0
  0
LINE
  5
9C
330
1F
100
AcDbEntity
  8
0
  6
Continuous
 62
     1
370
    15
100
AcDbLine
 10
26.54328105878827
 20
-1.500000000000002
 30
0.0
 11
27.26973092676484
 21
-1.500000000000002
 31
0.0
  0
LINE
  5
9D
330
1F
100
AcDbEntity
  8
0
  6
Continuous
 62
     1
370
    15
100
AcDbLine
 10
10.21871435942553
 20
-1.500000000000002
 30
0.0
 11
10.94572412444863
 21
-1.500000000000002
 31
0.0
  0
LINE
  5
9E
330
1F
100
AcDbEntity
  8
0
  6
Continuous
 62
     1
370
    15
100
AcDbLine
 10
19.10732520385196
 20
1.500000000000003
 30
0.0
 11
18.38045794027652
 21
1.500000000000003
 31
0.0
  0
LINE
  5
9F
330
1F
100
AcDbEntity
  8
0
  6
Continuous
 62
     1
370
    15
100
AcDbLine
 10
18.38079133404942
 20
-1.500000000000002
 30
0.0
 11
19.10732520385194
 21
-1.500000000000002
 31
0.0
  0
LINE
  5
A0
330
1F
100
AcDbEntity
  8
0
  6
Continuous
 62
     1
370
    15
100
AcDbLine
 10
10.94572412444863
 20
1.500000000000003
 30
0.0
 11
10.21860529371396
 21
1.500000000000003
 31
0.0
  0
LINE
  5
A1
330
1F
100
AcDbEntity
  8
0
  6
Continuous
 62
     1
370
    15
100
AcDbLine
 10
27.26973092676484
 20
1.500000000000003
 30
0.0
 11
26.54251762351569
 21
1.500000000000003
 31
0.0
  0
SPLINE
  5
A2
330
1F
100
AcDbEntity
  8
0
  6
Continuous
 62
     1
370
    15
100
AcDbSpline
210
0.0
220
0.0
230
1.0
 70
     8
 71
     3
 72
    14
 73
    10
 74
     0
 42
0.000000001
 43
0.00000001
 40
0.0
 40
0.0
 40
0.0
 40
0.0
 40
0.1593288912643256
 40
0.2792299067878428
 40
0.384574775030658
 40
0.4749335728327364
 40
0.5917370612397633
 40
0.7678602898450791
 40
1.0
 40
1.0
 40
1.0
 40
1.0
 10
11.63685635313761
 20
-1.248178733204971
 30
0.0
 10
11.7550222840164
 20
-1.236960070469028
 30
0.0
 10
11.96211254619643
 20
-1.217298939802874
 30
0.0
 10
12.25186691522748
 20
-1.197533079302265
 30
0.0
 10
12.49187452040884
 20
-1.185178634544674
 30
0.0
 10
12.72722034380519
 20
-1.176474510159478
 30
0.0
 10
13.01459571230255
 20
-1.170647963345376
 30
0.0
 10
13.40904804679376
 20
-1.171061076692933
 30
0.0
 10
13.71631606559534
 20
-1.184383355985734
 30
0.0
 10
13.89102971714814
 20
-1.191958449779515
 30
0.0
  0
SPLINE
  5
A3
330
1F
100
AcDbEntity
  8
0
  6
Continuous
 62
     1
370
    15
100
AcDbSpline
210
0.0
220
0.0
230
1.0
 70
     8
 71
     3
 72
    11
 73
     7
 74
     0
 42
0.000000001
 43
0.00000001
 40
0.0
 40
0.0
 40
0.0
 40
0.0
 40
0.3517554391079878
 40
0.5118051786239414
 40
0.6691946534978361
 40
1.0
 40
1.0
 40
1.0
 40
1.0
 10
27.96076659773505
 20
-1.248207078104474
 30
0.0
 10
28.22691216269369
 20
-1.224996400166974
 30
0.0
 10
28.61415472746838
 20
-1.191224796811218
 30
0.0
 10
29.11259778593968
 20
-1.17435633514266
 30
0.0
 10
29.5951160259446
 20
-1.167473480215115
 30
0.0
 10
29.96468871908558
 20
-1.182065149325739
 30
0.0
 10
30.21511460944558
 20
-1.191952599877915
 30
0.0
  0
SPLINE
  5
A4
330
1F
100
AcDbEntity
  8
0
  6
Continuous
 62
     1
370
    15
100
AcDbSpline
210
0.0
220
0.0
230
1.0
 70
     8
 71
     3
 72
    13
 73
     9
 74
     0
 42
0.000000001
 43
0.00000001
 40
0.0
 40
0.0
 40
0.0
 40
0.0
 40
0.3228324022526479
 40
0.563077141848041
 40
0.7173201068538545
 40
0.8413378200073421
 40
0.9654921814491609
 40
1.0
 40
1.0
 40
1.0
 40
1.0
 10
22.05309685875735
 20
1.191956845744121
 30
0.0
 10
21.91636963976731
 20
1.18569597600086
 30
0.0
 10
21.67789304589217
 20
1.174775905351449
 30
0.0
 10
21.37488901071438
 20
1.170962081349603
 30
0.0
 10
21.15723490649184
 20
1.171609822387822
 30
0.0
 10
20.98918013567499
 20
1.17446005628563
 30
0.0
 10
20.87138738499904
 20
1.177227146610185
 30
0.0
 10
20.80477178892949
 20
1.179913722509121
 30
0.0
 10
20.79028340296421
 20
1.180498032353142
 30
0.0
  0
SPLINE
  5
A5
330
1F
100
AcDbEntity
  8
0
  6
Continuous
 62
     1
370
    15
100
AcDbSpline
210
0.0
220
0.0
230
1.0
 70
     8
 71
     3
 72
    16
 73
    12
 74
     0
 42
0.000000001
 43
0.00000001
 40
0.0
 40
0.0
 40
0.0
 40
0.0
 40
0.2137796349798474
 40
0.3671496898467525
 40
0.4344125948624685
 40
0.4818085367607897
 40
0.5281392932585999
 40
0.5976940956048744
 40
0.6842006007764807
 40
0.8189408322513922
 40
1.0
 40
1.0
 40
1.0
 40
1.0
 10
19.79880208729797
 20
-1.248193844406024
 30
0.0
 10
19.96015587566158
 20
-1.233279488877433
 30
0.0
 10
20.23726830201071
 20
-1.207665257628968
 30
0.0
 10
20.56415254051784
 20
-1.189243981581503
 30
0.0
 10
20.76515032180125
 20
-1.180963442373426
 30
0.0
 10
20.88499904376646
 20
-1.17712030225979
 30
0.0
 10
21.00660101123194
 20
-1.174067784660104
 30
0.0
 10
21.15720724700383
 20
-1.171648124429413
 30
0.0
 10
21.37490203816738
 20
-1.170944041317668
 30
0.0
 10
21.67788767834713
 20
-1.174783338169184
 30
0.0
 10
21.91636768379171
 20
-1.185698684578073
 30
0.0
 10
22.05309685875736
 20
-1.191956845744119
 30
0.0
  0
SPLINE
  5
A6
330
1F
100
AcDbEntity
  8
0
  6
Continuous
 62
     1
370
    15
100
AcDbSpline
210
0.0
220
0.0
230
1.0
 70
     8
 71
     3
 72
    10
 73
     6
 74
     0
 42
0.000000001
 43
0.00000001
 40
0.0
 40
0.0
 40
0.0
 40
0.0
 40
0.5938754271199986
 40
0.8764275158430117
 40
1.0
 40
1.0
 40
1.0
 40
1.0
 10
30.21511460944558
 20
1.191952599877919
 30
0.0
 10
29.96463408653103
 20
1.18235615811915
 30
0.0
 10
29.59498076793918
 20
1.168193953004255
 30
0.0
 10
29.18067436899749
 20
1.17242885283111
 30
0.0
 10
29.01185919227501
 20
1.179033631263482
 30
0.0
 10
28.96049339925474
 20
1.181043282815484
 30
0.0
  0
SPLINE
  5
A7
330
1F
100
AcDbEntity
  8
0
  6
Continuous
 62
     1
370
    15
100
AcDbSpline
210
0.0
220
0.0
230
1.0
 70
     8
 71
     3
 72
    10
 73
     6
 74
     0
 42
0.000000001
 43
0.00000001
 40
0.0
 40
0.0
 40
0.0
 40
0.0
 40
0.5985315041079466
 40
0.8850005387953431
 40
1.0
 40
1.0
 40
1.0
 40
1.0
 10
13.89102971714814
 20
1.191958449779517
 30
0.0
 10
13.64295967498793
 20
1.182504030231894
 30
0.0
 10
13.27615839641868
 20
1.168524538198113
 30
0.0
 10
12.866834343172
 20
1.172055382216212
 30
0.0
 10
12.70158656584122
 20
1.178708870192722
 30
0.0
 10
12.65425182960973
 20
1.180614742111091
 30
0.0
  0
SPLINE
  5
A8
330
1F
100
AcDbEntity
  8
0
  6
Continuous
 62
     1
370
    15
100
AcDbSpline
210
0.0
220
0.0
230
1.0
 70
     8
 71
     3
 72
    13
 73
     9
 74
     0
 42
0.000000001
 43
0.00000001
 40
0.0
 40
0.0
 40
0.0
 40
0.0
 40
0.3067541973117465
 40
0.5160481219670764
 40
0.647485600668651
 40
0.7717457529408922
 40
0.897396475318713
 40
1.0
 40
1.0
 40
1.0
 40
1.0
 10
15.0960876557023
 20
-1.12820299775067
 30
0.0
 10
15.21084573995462
 20
-1.111084674420284
 30
0.0
 10
15.40390159502662
 20
-1.082286768203232
 30
0.0
 10
15.64479168398632
 20
-1.053461154546117
 30
0.0
 10
15.8182967543727
 20
-1.035631518531056
 30
0.0
 10
15.96061512662024
 20
-1.022989792790336
 30
0.0
 10
16.09218172079854
 20
-1.012801428988513
 30
0.0
 10
16.17734168472936
 20
-1.007646253549092
 30
0.0
 10
16.21562229757058
 20
-1.005328928998728
 30
0.0
  0
SPLINE
  5
A9
330
1F
100
AcDbEntity
  8
0
  6
Continuous
 62
     1
370
    15
100
AcDbSpline
210
0.0
220
0.0
230
1.0
 70
     8
 71
     3
 72
    13
 73
     9
 74
     0
 42
0.000000001
 43
0.00000001
 40
0.0
 40
0.0
 40
0.0
 40
0.0
 40
0.3062495621313155
 40
0.5130400942754108
 40
0.6431325539162185
 40
0.7678026116948375
 40
0.8937212640807762
 40
1.0
 40
1.0
 40
1.0
 40
1.0
 10
31.42052290263712
 20
-1.128165264770873
 30
0.0
 10
31.53722688348157
 20
-1.110771083649446
 30
0.0
 10
31.73273351839089
 20
-1.081631736444262
 30
0.0
 10
31.97646166550627
 20
-1.052615664690166
 30
0.0
 10
32.15194016157972
 20
-1.034720740438207
 30
0.0
 10
32.29666704310373
 20
-1.022000836192286
 30
0.0
 10
32.43234061091577
 20
-1.011673548890573
 30
0.0
 10
32.52058748609453
 20
-1.006460477849571
 30
0.0
 10
32.56097883765657
 20
-1.004074410527546
 30
0.0
  0
SPLINE
  5
AA
330
1F
100
AcDbEntity
  8
0
  6
Continuous
 62
     1
370
    15
100
AcDbSpline
210
0.0
220
0.0
230
1.0
 70
     8
 71
     3
 72
    19
 73
    15
 74
     0
 42
0.000000001
 43
0.00000001
 40
0.0
 40
0.0
 40
0.0
 40
0.0
 40
0.1489532352120355
 40
0.2552470022662297
 40
0.3422464886252651
 40
0.4236291919536472
 40
0.501289692319277
 40
0.5560228810973175
 40
0.6109526934700806
 40
0.6657673617941774
 40
0.7200337620501494
 40
0.7766522348286529
 40
0.866666921847023
 40
1.0
 40
1.0
 40
1.0
 40
1.0
 10
25.87786942536069
 20
1.025909586857852
 30
0.0
 10
25.74682467708603
 20
1.015956096325998
 30
0.0
 10
25.52226574681354
 20
0.9988997456081051
 30
0.0
 10
25.22491143266852
 20
0.9889491354952392
 30
0.0
 10
24.98638055940678
 20
0.9863019100830788
 30
0.0
 10
24.77125999645953
 20
0.9886027055018016
 30
0.0
 10
24.58491863625259
 20
0.9944684157491775
 30
0.0
 10
24.42140125528191
 20
1.002363470397517
 30
0.0
 10
24.2777872609955
 20
1.011222636194743
 30
0.0
 10
24.13454052683954
 20
1.021970606275239
 30
0.0
 10
23.98981756897437
 20
1.034732215583547
 30
0.0
 10
23.81434825679363
 20
1.052613499242774
 30
0.0
 10
23.57059902051297
 20
1.081638220476856
 30
0.0
 10
23.37506368778978
 20
1.11078170587842
 30
0.0
 10
23.25833394223067
 20
1.128179644083515
 30
0.0
  0
SPLINE
  5
AB
330
1F
100
AcDbEntity
  8
0
  6
Continuous
 62
     1
370
    15
100
AcDbSpline
210
0.0
220
0.0
230
1.0
 70
     8
 71
     3
 72
     9
 73
     5
 74
     0
 42
0.000000001
 43
0.00000001
 40
0.0
 40
0.0
 40
0.0
 40
0.0
 40
0.5077768706046072
 40
1.0
 40
1.0
 40
1.0
 40
1.0
 10
9.553970891495236
 20
1.025934927568946
 30
0.0
 10
9.391250638301491
 20
1.013741519754908
 30
0.0
 10
9.070794424925731
 20
0.9897282010712116
 30
0.0
 10
8.75400653693477
 20
0.988094165538869
 30
0.0
 10
8.598076211353304
 20
0.987289855455596
 30
0.0
  0
SPLINE
  5
AC
330
1F
100
AcDbEntity
  8
0
  6
Continuous
 62
     1
370
    15
100
AcDbSpline
210
0.0
220
0.0
230
1.0
 70
     8
 71
     3
 72
    13
 73
     9
 74
     0
 42
0.000000001
 43
0.00000001
 40
0.0
 40
0.0
 40
0.0
 40
0.0
 40
0.310638656664679
 40
0.520354368945736
 40
0.6522637688482883
 40
0.7786933233974016
 40
0.9064002298124858
 40
1.0
 40
1.0
 40
1.0
 40
1.0
 10
23.25833394223067
 20
-1.128179644083512
 30
0.0
 10
23.37506370578562
 20
-1.110780830168544
 30
0.0
 10
23.57059906865383
 20
-1.081635877855346
 30
0.0
 10
23.81434815283014
 20
-1.05261855829539
 30
0.0
 10
23.98981779980565
 20
-1.034720982914662
 30
0.0
 10
24.1345396883025
 20
-1.022011411009261
 30
0.0
 10
24.26490336099854
 20
-1.012052576154054
 30
0.0
 10
24.34783981415828
 20
-1.007137699942749
 30
0.0
 10
24.38291707922362
 20
-1.005058994993851
 30
0.0
  0
SPLINE
  5
AD
330
1F
100
AcDbEntity
  8
0
  6
Continuous
 62
     1
370
    15
100
AcDbSpline
210
0.0
220
0.0
230
1.0
 70
     8
 71
     3
 72
    20
 73
    16
 74
     0
 42
0.000000001
 43
0.00000001
 40
0.0
 40
0.0
 40
0.0
 40
0.0
 40
0.1400784620232435
 40
0.2379956925879734
 40
0.3069245129845552
 40
0.3746956739316596
 40
0.4411286692684062
 40
0.505100978724296
 40
0.5594208517543778
 40
0.6139314041037437
 40
0.6683255863589782
 40
0.7221804022745414
 40
0.7783775805769676
 40
0.867706696486083
 40
1.0
 40
1.0
 40
1.0
 40
1.0
 10
34.06329445539757
 20
1.027867603969272
 30
0.0
 10
33.93866104507644
 20
1.018116424706063
 30
0.0
 10
33.72690675836777
 20
1.001549005070117
 30
0.0
 10
33.45591383248839
 20
0.9909960489609054
 30
0.0
 10
33.25082911110648
 20
0.9870976984237105
 30
0.0
 10
33.07218051352074
 20
0.9868632343465664
 30
0.0
 10
32.89780133119083
 20
0.989633960202143
 30
0.0
 10
32.73551646048837
 20
0.9950258501139235
 30
0.0
 10
32.5835181875634
 20
1.002361846632743
 30
0.0
 10
32.43990729157722
 20
1.011221244407281
 30
0.0
 10
32.2966676827345
 20
1.021968133312263
 30
0.0
 10
32.15193998546692
 20
1.034729744689536
 30
0.0
 10
31.97646174481446
 20
1.052611609840364
 30
0.0
 10
31.73273348167636
 20
1.081633613575717
 30
0.0
 10
31.53722686975772
 20
1.110771785319098
 30
0.0
 10
31.42052290263712
 20
1.128165264770876
 30
0.0
  0
SPLINE
  5
AE
330
1F
100
AcDbEntity
  8
0
  6
Continuous
 62
     1
370
    15
100
AcDbSpline
210
0.0
220
0.0
230
1.0
 70
     8
 71
     3
 72
    18
 73
    14
 74
     0
 42
0.000000001
 43
0.00000001
 40
0.0
 40
0.0
 40
0.0
 40
0.0
 40
0.1310893782008795
 40
0.2227933398756542
 40
0.2832931916576202
 40
0.3467815565439814
 40
0.4164222667762467
 40
0.4859641514460752
 40
0.5683215483976408
 40
0.6450216164026797
 40
0.7216091929336561
 40
0.8373819918199235
 40
0.9999999999999999
 40
0.9999999999999999
 40
0.9999999999999999
 40
0.9999999999999999
 10
17.7159367592639
 20
1.02592368128946
 30
0.0
 10
17.60119600866751
 20
1.017076829368419
 30
0.0
 10
17.40618802712048
 20
1.002041136058061
 30
0.0
 10
17.15944820894918
 20
0.9920084785043148
 30
0.0
 10
16.97109192090565
 20
0.9877384201125273
 30
0.0
 10
16.80192133827094
 20
0.9866312613994905
 30
0.0
 10
16.6248243324312
 20
0.9884558771279853
 30
0.0
 10
16.43164082440749
 20
0.993964317304129
 30
0.0
 10
16.23212632208112
 20
1.00354325544294
 30
0.0
 10
16.02626099198137
 20
1.017396333770219
 30
0.0
 10
15.79119902494608
 20
1.037633223683102
 30
0.0
 10
15.48213525677379
 20
1.071171598269127
 30
0.0
 10
15.2384392137179
 20
1.10717318549572
 30
0.0
 10
15.0960876557023
 20
1.128202997750672
 30
0.0
  0
LINE
  5
AF
330
1F
100
AcDbEntity
  8
0
  6
Continuous
 62
   131
370
    15
100
AcDbLine
 10
2.0
 20
-3.0
 30
0.0
 11
7.598076211353304
 21
-1.5
 31
0.0
  0
LINE
  5
B0
330
1F
100
AcDbEntity
  8
0
  6
Continuous
 62
   131
370
    15
100
AcDbLine
 10
7.598076211353304
 20
1.5
 30
0.0
 11
2.0
 21
3.0
 31
0.0
  0
LINE
  5
B1
330
1F
100
AcDbEntity
  8
0
  6
Continuous
 62
   131
370
    15
100
AcDbLine
 10
2.0
 20
2.999999999999999
 30
0.0
 11
-34.85192378864669
 21
2.999999999999997
 31
0.0
  0
LINE
  5
B2
330
1F
100
AcDbEntity
  8
0
  6
Continuous
 62
   131
370
    15
100
AcDbLine
 10
-34.85192378864669
 20
-3.000000000000002
 30
0.0
 11
2.0
 21
-3.0
 31
0.0
  0
LINE
  5
B3
330
1F
100
AcDbEntity
  8
0
  6
Continuous
 62
   131
370
    15
100
AcDbLine
 10
-34.85192378864669
 20
2.999999999999996
 30
0.0
 11
-35.4019237886467
 21
2.449999999999994
 31
0.0
  0
LINE
  5
B4
330
1F
100
AcDbEntity
  8
0
  6
Continuous
 62
   131
370
    15
100
AcDbLine
 10
-35.4019237886467
 20
-2.45
 30
0.0
 11
-34.85192378864669
 21
-3.000000000000001
 31
0.0
  0
LINE
  5
B5
330
1F
100
AcDbEntity
  8
0
  6
Continuous
 62
   131
370
    15
100
AcDbLine
 10
7.707988012211361
 20
1.5
 30
0.0
 11
7.598076211353304
 21
1.5
 31
0.0
  0
LINE
  5
B6
330
1F
100
AcDbEntity
  8
0
  6
Continuous
 62
   131
370
    15
100
AcDbLine
 10
7.598076211353304
 20
-1.5
 30
0.0
 11
7.707988012211361
 21
-1.5
 31
0.0
  0
SPLINE
  5
B7
330
1F
100
AcDbEntity
  8
0
  6
Continuous
 62
   131
370
    15
100
AcDbSpline
210
0.0
220
0.0
230
1.0
 70
     8
 71
     3
 72
    11
 73
     7
 74
     0
 42
0.000000001
 43
0.00000001
 40
0.0
 40
0.0
 40
0.0
 40
0.0
 40
0.31595420693983
 40
0.5039098400608792
 40
0.6942942330035112
 40
1.0
 40
1.0
 40
1.0
 40
1.0
 10
8.598076211353307
 20
0.9872898554555956
 30
0.0
 10
8.50485570204826
 20
0.988558892551987
 30
0.0
 10
8.356179941756059
 20
0.9905828576273927
 30
0.0
 10
8.151662278975426
 20
0.9994745587467213
 30
0.0
 10
7.949943634675899
 20
1.010815577170426
 30
0.0
 10
7.80353157047581
 20
1.023165185131116
 30
0.0
 10
7.713308026454458
 20
1.030775387224606
 30
0.0
  0
SPLINE
  5
B8
330
1F
100
AcDbEntity
  8
0
  6
Continuous
 62
   131
370
    15
100
AcDbSpline
210
0.0
220
0.0
230
1.0
 70
     8
 71
     3
 72
     9
 73
     5
 74
     0
 42
0.000000001
 43
0.00000001
 40
0.0
 40
0.0
 40
0.0
 40
0.0
 40
0.7511039008385852
 40
1.0
 40
1.0
 40
1.0
 40
1.0
 10
7.70258313196172
 20
-1.031618091718599
 30
0.0
 10
7.796392125747639
 20
-1.02351196543631
 30
0.0
 10
7.921286955452542
 20
-1.012719681874423
 30
0.0
 10
8.046045417394854
 20
-1.005847239465467
 30
0.0
 10
8.077097311909672
 20
-1.004136715358166
 30
0.0
  0
SPLINE
  5
B9
330
1F
100
AcDbEntity
  8
0
  6
Continuous
 62
     1
370
    15
100
AcDbSpline
210
0.0
220
0.0
230
1.0
 70
     8
 71
     3
 72
    16
 73
    12
 74
     0
 42
0.000000001
 43
0.00000001
 40
0.0
 40
0.0
 40
0.0
 40
0.0
 40
0.1147516858783738
 40
0.2294602299099539
 40
0.3441328621345932
 40
0.4587769240827725
 40
0.5733998464379283
 40
0.6880091261084639
 40
0.8026123028589204
 40
0.9172169356548465
 40
1.0
 40
1.0
 40
1.0
 40
1.0
 10
34.59807621135331
 20
-1.423411303847848
 30
0.0
 10
34.31770823057987
 20
-1.35792937544068
 30
0.0
 10
33.75707767569767
 20
-1.226990137099715
 30
0.0
 10
32.91635481838209
 20
-0.863702491440943
 30
0.0
 10
32.07594214296992
 20
-0.4215066886340607
 30
0.0
 10
31.2357818876361
 20
0.0672938061970057
 30
0.0
 10
30.39580695541603
 20
0.5479324188784288
 30
0.0
 10
29.55595220575837
 20
0.9733953232805189
 30
0.0
 10
28.71615035007486
 20
1.292492033230302
 30
0.0
 10
27.95408715947711
 20
1.478767639493457
 30
0.0
 10
27.47194012856411
 20
1.482680962952846
 30
0.0
 10
27.26973092676484
 20
1.484322184328008
 30
0.0
  0
SPLINE
  5
BA
330
1F
100
AcDbEntity
  8
0
  6
Continuous
 62
     1
370
    15
100
AcDbSpline
210
0.0
220
0.0
230
1.0
 70
     8
 71
     3
 72
    20
 73
    16
 74
     0
 42
0.000000001
 43
0.00000001
 40
0.0
 40
0.0
 40
0.0
 40
0.0
 40
0.0486622051667407
 40
0.133992131258003
 40
0.2193084662477321
 40
0.304616804907438
 40
0.3899227671462484
 40
0.4752319803520852
 40
0.5605500616827498
 40
0.645882600425517
 40
0.7312351405430412
 40
0.8166131635212635
 40
0.9020220716315656
 40
0.9874449802207328
 40
1.0
 40
1.0
 40
1.0
 40
1.0
 10
20.79096450972533
 20
-1.180268782790981
 30
0.0
 10
20.63126459908171
 20
-1.238044389739726
 30
0.0
 10
20.19152843596436
 20
-1.397130413138396
 30
0.0
 10
19.47184488493854
 20
-1.507719579397862
 30
0.0
 10
18.63192248072366
 20
-1.501872020612308
 30
0.0
 10
17.79209650197691
 20
-1.334604672614998
 30
0.0
 10
16.95229804246238
 20
-1.030533054569426
 30
0.0
 10
16.1124613365692
 20
-0.6191979038677081
 30
0.0
 10
15.27251992230371
 20
-0.1438373465182758
 30
0.0
 10
14.43240774140982
 20
0.3467757032946013
 30
0.0
 10
13.59205988373314
 20
0.8004352207598524
 30
0.0
 10
12.75140980217017
 20
1.174982703019436
 30
0.0
 10
11.91047382145145
 20
1.413267644881839
 30
0.0
 10
11.30849291868932
 20
1.517302305976878
 30
0.0
 10
10.9869296605654
 20
1.493487310191429
 30
0.0
 10
10.94572412444863
 20
1.490435625509903
 30
0.0
  0
SPLINE
  5
BB
330
1F
100
AcDbEntity
  8
0
  6
Continuous
 62
     1
370
    15
100
AcDbSpline
210
0.0
220
0.0
230
1.0
 70
     8
 71
     3
 72
    12
 73
     8
 74
     0
 42
0.000000001
 43
0.00000001
 40
0.0
 40
0.0
 40
0.0
 40
0.0
 40
0.2159134147042777
 40
0.4317420371189189
 40
0.6475000726321472
 40
0.8632019484115409
 40
1.0
 40
1.0
 40
1.0
 40
1.0
 10
34.5980762113533
 20
-1.183458396552321
 30
0.0
 10
34.3177092693932
 20
-1.120304773352863
 30
0.0
 10
33.75708548958572
 20
-0.9940223282860802
 30
0.0
 10
32.916360369954
 20
-0.6681743747538004
 30
0.0
 10
32.07594737316838
 20
-0.2834300052566939
 30
0.0
 10
31.33817132127206
 20
0.087379011879281
 30
0.0
 10
30.88053195939509
 20
0.3010679025930305
 30
0.0
 10
30.70293143192144
 20
0.3839962144199849
 30
0.0
  0
SPLINE
  5
BC
330
1F
100
AcDbEntity
  8
0
  6
Continuous
 62
     1
370
    15
100
AcDbSpline
210
0.0
220
0.0
230
1.0
 70
     8
 71
     3
 72
    15
 73
    11
 74
     0
 42
0.000000001
 43
0.00000001
 40
0.0
 40
0.0
 40
0.0
 40
0.0
 40
0.0607811470977957
 40
0.2154537743771991
 40
0.3701112549138788
 40
0.5247642339533004
 40
0.6794233710789152
 40
0.8340993062615044
 40
0.9888026260409352
 40
1.0
 40
1.0
 40
1.0
 40
1.0
 10
19.80186582618933
 20
-1.232284987297073
 30
0.0
 10
19.69184468476983
 20
-1.247285835061477
 30
0.0
 10
19.30184759995046
 20
-1.300460041604477
 30
0.0
 10
18.63192553617238
 20
-1.254159132726517
 30
0.0
 10
17.79209672192809
 20
-1.095943409782884
 30
0.0
 10
16.95229725370761
 20
-0.8164994013002014
 30
0.0
 10
16.11245996751381
 20
-0.4530633496539986
 30
0.0
 10
15.27251445014123
 20
-0.0476547292350999
 30
0.0
 10
14.69223998868679
 20
0.2501032369261326
 30
0.0
 10
14.39192820825783
 20
0.3816511914585137
 30
0.0
 10
14.37165883364583
 20
0.3905299466177355
 30
0.0
  0
LINE
  5
BD
330
1F
100
AcDbEntity
  8
0
  6
Continuous
 62
   131
370
    15
100
AcDbLine
 10
34.59807621135316
 20
-1.423411303847851
 30
0.0
 11
34.5980762113533
 21
-1.183458396552321
 31
0.0
  0
SPLINE
  5
BE
330
1F
100
AcDbEntity
  8
0
  6
Continuous
 62
     1
370
    15
100
AcDbSpline
210
0.0
220
0.0
230
1.0
 70
     8
 71
     3
 72
    20
 73
    16
 74
     0
 42
0.000000001
 43
0.00000001
 40
0.0
 40
0.0
 40
0.0
 40
0.0
 40
0.0248008931731398
 40
0.1100416454947489
 40
0.195289099602067
 40
0.2805488532262662
 40
0.3658264654969718
 40
0.45112743967383
 40
0.5364572062492842
 40
0.6218155623995414
 40
0.7071527005345822
 40
0.7924598108935602
 40
0.8777423049161119
 40
0.9630056706263699
 40
1.0
 40
1.0
 40
1.0
 40
1.0
 10
28.96049339925474
 20
-1.181043282815481
 30
0.0
 10
28.87904692947404
 20
-1.213093101973881
 30
0.0
 10
28.51766867217341
 20
-1.355298256174501
 30
0.0
 10
27.87633682155629
 20
-1.479396265730508
 30
0.0
 10
27.03644343101907
 20
-1.521691896199294
 30
0.0
 10
26.19640479633773
 20
-1.397341362595021
 30
0.0
 10
25.35615556781418
 20
-1.130469617374228
 30
0.0
 10
24.51562885478284
 20
-0.7456743767656894
 30
0.0
 10
23.67478623704116
 20
-0.2836868929733857
 30
0.0
 10
22.83373600409891
 20
0.2078691638442717
 30
0.0
 10
21.99283012271651
 20
0.6772737667752428
 30
0.0
 10
21.15223187973475
 20
1.078808435081492
 30
0.0
 10
20.31192568020192
 20
1.359373328420739
 30
0.0
 10
19.63032142077104
 20
1.499995923500056
 30
0.0
 10
19.22881750120751
 20
1.485242896438192
 30
0.0
 10
19.10732520385195
 20
1.480778732918586
 30
0.0
  0
SPLINE
  5
BF
330
1F
100
AcDbEntity
  8
0
  6
Continuous
 62
     1
370
    15
100
AcDbSpline
210
0.0
220
0.0
230
1.0
 70
     8
 71
     3
 72
    12
 73
     8
 74
     0
 42
0.000000001
 43
0.00000001
 40
0.0
 40
0.0
 40
0.0
 40
0.0
 40
0.1840994786779188
 40
0.3912611126234136
 40
0.5942663083223362
 40
0.7971706247710002
 40
1.0
 40
1.0
 40
1.0
 40
1.0
 10
12.65800093463531
 20
-1.179520123297121
 30
0.0
 10
12.40883882682846
 20
-1.260657636454193
 30
0.0
 10
11.87930205559916
 20
-1.433096765023764
 30
0.0
 10
11.074946404032
 20
-1.522349449125138
 30
0.0
 10
10.24526158397649
 20
-1.469777034838414
 30
0.0
 10
9.421513583177344
 20
-1.274701471330855
 30
0.0
 10
8.8725215346889
 20
-1.04391076773654
 30
0.0
 10
8.59807621135336
 20
-0.928536730088502
 30
0.0
  0
SPLINE
  5
C0
330
1F
100
AcDbEntity
  8
0
  6
Continuous
 62
   131
370
    15
100
AcDbSpline
210
0.0
220
0.0
230
1.0
 70
    24
 71
     3
 72
     8
 73
     4
 74
     0
 42
0.000000001
 43
0.00000001
 40
0.0
 40
0.0
 40
0.0
 40
0.0
 40
1.0
 40
1.0
 40
1.0
 40
1.0
 10
8.598076211353304
 20
-0.7274681058605822
 30
0.0
 10
8.598076211353304
 20
-0.7906446282764507
 30
0.0
 10
8.598076211353304
 20
-0.8580811935973162
 30
0.0
 10
8.598076211353304
 20
-0.9285367300881163
 30
0.0
  0
SPLINE
  5
C1
330
1F
100
AcDbEntity
  8
0
  6
Continuous
 62
     1
370
    15
100
AcDbSpline
210
0.0
220
0.0
230
1.0
 70
     8
 71
     3
 72
    15
 73
    11
 74
     0
 42
0.000000001
 43
0.00000001
 40
0.0
 40
0.0
 40
0.0
 40
0.0
 40
0.0157708712563836
 40
0.1707295786152752
 40
0.3257116454309255
 40
0.4807276285394486
 40
0.6357879773905133
 40
0.7909030015789354
 40
0.9460723125207505
 40
1.0
 40
1.0
 40
1.0
 40
1.0
 10
27.96183364874844
 20
-1.242242156183413
 30
0.0
 10
27.9333412831896
 20
-1.246999036057225
 30
0.0
 10
27.62489354517106
 20
-1.298495245948013
 30
0.0
 10
27.03644029012263
 20
-1.274562229878279
 30
0.0
 10
26.19640094702073
 20
-1.156670840453747
 30
0.0
 10
25.35615048426821
 20
-0.9060498797811616
 30
0.0
 10
24.51562217702232
 20
-0.5641288907692797
 30
0.0
 10
23.67478087070096
 20
-0.1656389588896361
 30
0.0
 10
23.01661438093821
 20
0.1679678226476655
 30
0.0
 10
22.63878671568794
 20
0.3389816734203235
 30
0.0
 10
22.54134212104294
 20
0.3830874308856676
 30
0.0
  0
SPLINE
  5
C2
330
1F
100
AcDbEntity
  8
0
  6
Continuous
 62
     1
370
    15
100
AcDbSpline
210
0.0
220
0.0
230
1.0
 70
     8
 71
     3
 72
    11
 73
     7
 74
     0
 42
0.000000001
 43
0.00000001
 40
0.0
 40
0.0
 40
0.0
 40
0.0
 40
0.1875606557177521
 40
0.4639504221745109
 40
0.7402455974218144
 40
0.9999999999999999
 40
0.9999999999999999
 40
0.9999999999999999
 40
0.9999999999999999
 10
11.63994362476347
 20
-1.233469955317891
 30
0.0
 10
11.4497406730778
 20
-1.252540806589954
 30
0.0
 10
10.97925426218468
 20
-1.299714503360428
 30
0.0
 10
10.22864759836808
 20
-1.220905599757089
 30
0.0
 10
9.404821428887445
 20
-1.033346556985459
 30
0.0
 10
8.861401888496946
 20
-0.8273083633737267
 30
0.0
 10
8.598076211353332
 20
-0.7274681058605923
 30
0.0
  0
SPLINE
  5
C3
330
1F
100
AcDbEntity
  8
0
  6
Continuous
 62
     1
370
    15
100
AcDbSpline
210
0.0
220
0.0
230
1.0
 70
     8
 71
     3
 72
    10
 73
     6
 74
     0
 42
0.000000001
 43
0.00000001
 40
0.0
 40
0.0
 40
0.0
 40
0.0
 40
0.2891812333856417
 40
0.5807288598848007
 40
1.0
 40
1.0
 40
1.0
 40
1.0
 10
8.598076211353304
 20
-1.217778791525914
 30
0.0
 10
8.754442943924657
 20
-1.266051738657914
 30
0.0
 10
9.068455970520253
 20
-1.362992654301154
 30
0.0
 10
9.607600717787514
 20
-1.475928599630632
 30
0.0
 10
9.991986988670563
 20
-1.48215929465516
 30
0.0
 10
10.21871435942553
 20
-1.485834423575978
 30
0.0
  0
SPLINE
  5
C4
330
1F
100
AcDbEntity
  8
0
  6
Continuous
 62
     1
370
    15
100
AcDbSpline
210
0.0
220
0.0
230
1.0
 70
     8
 71
     3
 72
    20
 73
    16
 74
     0
 42
0.000000001
 43
0.00000001
 40
0.0
 40
0.0
 40
0.0
 40
0.0
 40
0.0257027020044227
 40
0.1092560081020329
 40
0.1928101287910205
 40
0.2763630887421601
 40
0.3599151392206128
 40
0.4434664866502988
 40
0.5293770424513116
 40
0.6139359646315999
 40
0.6980040170420547
 40
0.7820718181522303
 40
0.8661394360187742
 40
0.950206927767272
 40
1.0
 40
1.0
 40
1.0
 40
1.0
 10
16.23163120748462
 20
1.004286164343217
 30
0.0
 10
16.31998176427827
 20
1.044988427085438
 30
0.0
 10
16.69553874452129
 20
1.218003962462611
 30
0.0
 10
17.35834423496246
 20
1.406086738623621
 30
0.0
 10
18.21998821572058
 20
1.526088676012309
 30
0.0
 10
19.0815936384527
 20
1.472244671331166
 30
0.0
 10
19.94317160182635
 20
1.260074503802736
 30
0.0
 10
20.8127973952737
 20
0.9067723646901436
 30
0.0
 10
21.68598602867992
 20
0.4502463255879222
 30
0.0
 10
22.56086412161485
 20
-0.0578983019218624
 30
0.0
 10
23.42939495826914
 20
-0.5553260887891206
 30
0.0
 10
24.2962277620101
 20
-0.9924955306646539
 30
0.0
 10
25.16305107626829
 20
-1.312880106550712
 30
0.0
 10
25.91206773956898
 20
-1.488082084755882
 30
0.0
 10
26.3721434159619
 20
-1.482105293024859
 30
0.0
 10
26.54328105878827
 20
-1.47988206301946
 30
0.0
  0
SPLINE
  5
C5
330
1F
100
AcDbEntity
  8
0
  6
Continuous
 62
     1
370
    15
100
AcDbSpline
210
0.0
220
0.0
230
1.0
 70
     8
 71
     3
 72
    10
 73
     6
 74
     0
 42
0.000000001
 43
0.00000001
 40
0.0
 40
0.0
 40
0.0
 40
0.0
 40
0.1975726839661572
 40
0.6348417441084343
 40
1.0
 40
1.0
 40
1.0
 40
1.0
 10
32.56097883765657
 20
1.004074410527549
 30
0.0
 10
32.69513096456888
 20
1.063746358922966
 30
0.0
 10
33.12618939084133
 20
1.255484624725864
 30
0.0
 10
33.80529926411054
 20
1.438650837028284
 30
0.0
 10
34.35013802649815
 20
1.479941982040099
 30
0.0
 10
34.59807621135324
 20
1.500000000000093
 30
0.0
  0
SPLINE
  5
C6
330
1F
100
AcDbEntity
  8
0
  6
Continuous
 62
   131
370
    15
100
AcDbSpline
210
0.0
220
0.0
230
1.0
 70
    24
 71
     3
 72
    10
 73
     6
 74
     0
 42
0.000000001
 43
0.00000001
 40
0.0
 40
0.0
 40
0.0
 40
0.0
 40
0.5
 40
0.5
 40
1.0
 40
1.0
 40
1.0
 40
1.0
 10
34.5980762113533
 20
1.050000000000003
 30
0.0
 10
34.59807621135329
 20
1.113648385210974
 30
0.0
 10
34.5980762113533
 20
1.18761370330068
 30
0.0
 10
34.59807621135329
 20
1.342792741441289
 30
0.0
 10
34.59807621135331
 20
1.423610153702216
 30
0.0
 10
34.59807621135324
 20
1.500000000000093
 30
0.0
  0
LINE
  5
C7
330
1F
100
AcDbEntity
  8
0
  6
Continuous
 62
     1
370
    15
100
AcDbLine
 10
34.5980762113533
 20
1.050000000000003
 30
0.0
 11
34.05968303222569
 21
1.0151299111182
 31
0.0
  0
SPLINE
  5
C8
330
1F
100
AcDbEntity
  8
0
  6
Continuous
 62
     1
370
    15
100
AcDbSpline
210
0.0
220
0.0
230
1.0
 70
     8
 71
     3
 72
    14
 73
    10
 74
     0
 42
0.000000001
 43
0.00000001
 40
0.0
 40
0.0
 40
0.0
 40
0.0
 40
0.1458052438885617
 40
0.3136428993897263
 40
0.4814278855477565
 40
0.6491719425481265
 40
0.8168869414475803
 40
0.9845848465417573
 40
1.0
 40
1.0
 40
1.0
 40
1.0
 10
22.72303735347386
 20
-0.1479991378982508
 30
0.0
 10
22.47961419616038
 20
-0.0496916832584252
 30
0.0
 10
21.95598457350597
 20
0.1617783179743478
 30
0.0
 10
21.15227819472001
 20
0.4771328556867723
 30
0.0
 10
20.31197017348655
 20
0.7554177710261707
 30
0.0
 10
19.4718890235151
 20
0.9585893535056504
 30
0.0
 10
18.63196804504106
 20
1.051433096916063
 30
0.0
 10
18.04633613327096
 20
1.068403548812986
 30
0.0
 10
17.74066894090335
 20
1.025088384701468
 30
0.0
 10
17.71493671451411
 20
1.021441949503856
 30
0.0
  0
SPLINE
  5
C9
330
1F
100
AcDbEntity
  8
0
  6
Continuous
 62
     1
370
    15
100
AcDbSpline
210
0.0
220
0.0
230
1.0
 70
     8
 71
     3
 72
    28
 73
    24
 74
     0
 42
0.000000001
 43
0.00000001
 40
0.0
 40
0.0
 40
0.0
 40
0.0
 40
0.0478966572594958
 40
0.0961852566881711
 40
0.1404111898915102
 40
0.1849455000453571
 40
0.2291105373976649
 40
0.2735828725595134
 40
0.3177268814642369
 40
0.3621779179249967
 40
0.4506413126139066
 40
0.5416235859580488
 40
0.5860547404027039
 40
0.6307993875366361
 40
0.6748271628296899
 40
0.7191600658406616
 40
0.7631180399718988
 40
0.8073799451092638
 40
0.8512710587239668
 40
0.8954651076699711
 40
0.9393564269176571
 40
0.9835511502146752
 40
1.0
 40
1.0
 40
1.0
 40
1.0
 10
8.598076211353304
 20
1.217778791525915
 30
0.0
 10
8.754456111666832
 20
1.266447987401628
 30
0.0
 10
9.068495581499464
 20
1.36418464306739
 30
0.0
 10
9.525360344697003
 20
1.45408920971723
 30
0.0
 10
9.973208431177282
 20
1.500281092422532
 30
0.0
 10
10.40546509183312
 20
1.502957751531666
 30
0.0
 10
10.84082395372422
 20
1.464313943700595
 30
0.0
 10
11.2725031822877
 20
1.384139500173413
 30
0.0
 10
11.70753387951295
 20
1.266884704679247
 30
0.0
 10
12.28343293099425
 20
1.061708718904768
 30
0.0
 10
13.0149882970162
 20
0.7257226679857504
 30
0.0
 10
13.74513693020764
 20
0.3189670626173044
 30
0.0
 10
14.33346810847015
 20
-0.0185631204489909
 30
0.0
 10
14.76681307565103
 20
-0.2706780228632432
 30
0.0
 10
15.2016849524006
 20
-0.5118538656809086
 30
0.0
 10
15.63228194022461
 20
-0.740301842917718
 30
0.0
 10
16.0650928360071
 20
-0.9464808820528072
 30
0.0
 10
16.49535572382289
 20
-1.12760682033708
 30
0.0
 10
16.92710673698812
 20
-1.276903730820719
 30
0.0
 10
17.35738295500379
 20
-1.391929516850858
 30
0.0
 10
17.78845120827992
 20
-1.466297923165824
 30
0.0
 10
18.12960894686631
 20
-1.501041445870654
 30
0.0
 10
18.32719772261778
 20
-1.496439327479659
 30
0.0
 10
18.38079133404942
 20
-1.495191057460923
 30
0.0
  0
SPLINE
  5
CA
330
1F
100
AcDbEntity
  8
0
  6
Continuous
 62
     1
370
    15
100
AcDbSpline
210
0.0
220
0.0
230
1.0
 70
     8
 71
     3
 72
    29
 73
    25
 74
     0
 42
0.000000001
 43
0.00000001
 40
0.0
 40
0.0
 40
0.0
 40
0.0
 40
0.0344607790715032
 40
0.0770141855420837
 40
0.1192749665352048
 40
0.1618283141291265
 40
0.2040889630477987
 40
0.2466423418869877
 40
0.2889028357924664
 40
0.3314563322215181
 40
0.3737166981768536
 40
0.4162703500780554
 40
0.4585306274095595
 40
0.5010844487864539
 40
0.5433446764571623
 40
0.5858986745208788
 40
0.628158891288694
 40
0.6707130722935305
 40
0.7129599811592671
 40
0.7555007414856728
 40
0.8401643814872153
 40
0.9272388339918783
 40
0.9635266578665574
 40
0.9999999999999999
 40
0.9999999999999999
 40
0.9999999999999999
 40
0.9999999999999999
 10
24.37588878554212
 20
1.005492477408531
 30
0.0
 10
24.49315116212227
 20
1.054951031483312
 30
0.0
 10
24.75521332874686
 20
1.165482782731738
 30
0.0
 10
25.16229752015585
 20
1.298265239263358
 30
0.0
 10
25.59553676429886
 20
1.408347113839073
 30
0.0
 10
26.02902352510117
 20
1.477448005015677
 30
0.0
 10
26.46258920445822
 20
1.506302855817059
 30
0.0
 10
26.89570582150227
 20
1.4930701086447
 30
0.0
 10
27.32968637258131
 20
1.438467449194489
 30
0.0
 10
27.76238241670956
 20
1.343781190805728
 30
0.0
 10
28.19675649159922
 20
1.212202205609093
 30
0.0
 10
28.62908101370919
 20
1.04611708299
 30
0.0
 10
29.06377778693293
 20
0.8523532795783993
 30
0.0
 10
29.49581101080879
 20
0.6329863410853422
 30
0.0
 10
29.93075136028737
 20
0.3985143349040979
 30
0.0
 10
30.36257645455171
 20
0.1500306196178008
 30
0.0
 10
30.79767698158673
 20
-0.0993299990414568
 30
0.0
 10
31.22934688278971
 20
-0.3493772844194198
 30
0.0
 10
31.66437543006055
 20
-0.5863113549543889
 30
0.0
 10
32.24032541066586
 20
-0.8843301984333459
 30
0.0
 10
32.97189823690959
 20
-1.201424451566577
 30
0.0
 10
33.68099861648166
 20
-1.399240602632193
 30
0.0
 10
34.22615948189188
 20
-1.480860931078889
 30
0.0
 10
34.47389342013111
 20
-1.492765008362319
 30
0.0
 10
34.59807621135331
 20
-1.499999999999902
 30
0.0
  0
SPLINE
  5
CB
330
1F
100
AcDbEntity
  8
0
  6
Continuous
 62
     1
370
    15
100
AcDbSpline
210
0.0
220
0.0
230
1.0
 70
     8
 71
     3
 72
    14
 73
    10
 74
     0
 42
0.000000001
 43
0.00000001
 40
0.0
 40
0.0
 40
0.0
 40
0.0
 40
0.0946079893559622
 40
0.2628135555462279
 40
0.4310093794627163
 40
0.5992075310615662
 40
0.7674200728039978
 40
0.9356590208546742
 40
1.0
 40
1.0
 40
1.0
 40
1.0
 10
30.86816398608446
 20
-0.1401163028876301
 30
0.0
 10
30.71070495888968
 20
-0.0772328015741851
 30
0.0
 10
30.27329616211024
 20
0.0974526206389532
 30
0.0
 10
29.55596768563738
 20
0.3866649502341876
 30
0.0
 10
28.71616554553103
 20
0.6823157245471738
 30
0.0
 10
27.87635166575763
 20
0.9096765474823343
 30
0.0
 10
27.0364569629963
 20
1.035859123038503
 30
0.0
 10
26.3694065526611
 20
1.070713585523331
 30
0.0
 10
25.98230440726592
 20
1.02550495415028
 30
0.0
 10
25.87521635644289
 20
1.012998425132791
 30
0.0
  0
SPLINE
  5
CC
330
1F
100
AcDbEntity
  8
0
  6
Continuous
 62
     1
370
    15
100
AcDbSpline
210
0.0
220
0.0
230
1.0
 70
     8
 71
     3
 72
    14
 73
    10
 74
     0
 42
0.000000001
 43
0.00000001
 40
0.0
 40
0.0
 40
0.0
 40
0.0
 40
0.02172546968217
 40
0.1901563731508748
 40
0.3586419797503846
 40
0.5271938764206052
 40
0.6957757152723831
 40
0.8642902311642656
 40
1.0
 40
1.0
 40
1.0
 40
1.0
 10
14.54090852143569
 20
-0.1386024857464364
 30
0.0
 10
14.50477884729899
 20
-0.1245656688068008
 30
0.0
 10
14.18854689017835
 20
-0.0017057150809464
 30
0.0
 10
13.59210166722813
 20
0.2466489164106045
 30
0.0
 10
12.75145471855149
 20
0.562545108084266
 30
0.0
 10
11.91051701678485
 20
0.8231500036956153
 30
0.0
 10
11.06950604614171
 20
0.9945957438035251
 30
0.0
 10
10.28316460298977
 20
1.069646972609382
 30
0.0
 10
9.777218380034506
 20
1.033427727600538
 30
0.0
 10
9.551523560759819
 20
1.017270880122185
 30
0.0
  0
SPLINE
  5
CD
330
1F
100
AcDbEntity
  8
0
  6
Continuous
 62
   131
370
    15
100
AcDbSpline
210
0.0
220
0.0
230
1.0
 70
    24
 71
     3
 72
    10
 73
     6
 74
     0
 42
0.000000001
 43
0.00000001
 40
0.0
 40
0.0
 40
0.0
 40
0.0
 40
0.1376494948829342
 40
0.8569201442403707
 40
1.0
 40
1.0
 40
1.0
 40
1.0
 10
8.598076211353304
 20
1.217778791526357
 30
0.0
 10
8.598076211353304
 20
1.205781425207751
 30
0.0
 10
8.598076211353284
 20
1.131093284252429
 30
0.0
 10
8.598076211353673
 20
1.042282116211886
 30
0.0
 10
8.598076211353547
 20
0.9951156433401471
 30
0.0
 10
8.598076211353527
 20
0.9872898554555994
 30
0.0
  0
LINE
  5
CE
330
1F
100
AcDbEntity
  8
0
  6
Continuous
 62
   131
370
    15
100
AcDbLine
 10
8.598076211353304
 20
-1.217778791526357
 30
0.0
 11
8.598076211353304
 21
-0.9285367300887631
 31
0.0
  0
LINE
  5
CF
330
1F
100
AcDbEntity
  8
0
  6
Continuous
 62
   131
370
    15
100
AcDbLine
 10
34.59807621135331
 20
-1.499999999999902
 30
0.0
 11
34.598076211353
 21
-1.423411303847844
 31
0.0
  0
SPLINE
  5
D0
330
1F
100
AcDbEntity
  8
0
  6
Continuous
 62
     1
370
    15
100
AcDbSpline
210
0.0
220
0.0
230
1.0
 70
     8
 71
     3
 72
     8
 73
     4
 74
     0
 42
0.000000001
 43
0.00000001
 40
0.0
 40
0.0
 40
0.0
 40
0.0
 40
1.0
 40
1.0
 40
1.0
 40
1.0
 10
33.66972178071382
 20
0.4198106250614639
 30
0.0
 10
33.60246172502252
 20
0.4994278928803898
 30
0.0
 10
33.544123698091
 20
0.5755240816840845
 30
0.0
 10
33.49810783634287
 20
0.6462796946959494
 30
0.0
  0
LINE
  5
D1
330
1F
100
AcDbEntity
  8
0
  6
Continuous
 62
     1
370
    15
100
AcDbLine
 10
33.49810783634288
 20
0.6462796946959538
 30
0.0
 11
34.5980762113533
 21
0.0000000000000035
 31
0.0
  0
LINE
  5
D2
330
1F
100
AcDbEntity
  8
0
  6
Continuous
 62
   131
370
    15
100
AcDbLine
 10
34.5980762113533
 20
0.0000000000000035
 30
0.0
 11
34.5980762113533
 21
-0.4008644190444637
 31
0.0
  0
SPLINE
  5
D3
330
1F
100
AcDbEntity
  8
0
  6
Continuous
 62
     1
370
    15
100
AcDbSpline
210
0.0
220
0.0
230
1.0
 70
     8
 71
     3
 72
    10
 73
     6
 74
     0
 42
0.000000001
 43
0.00000001
 40
0.0
 40
0.0
 40
0.0
 40
0.0
 40
0.5
 40
0.5
 40
1.0
 40
1.0
 40
1.0
 40
1.0
 10
34.5980762113533
 20
-0.4008644190444637
 30
0.0
 10
34.43737116823809
 20
-0.2745204871375534
 30
0.0
 10
34.27935281651366
 20
-0.1429921789881847
 30
0.0
 10
33.96881396173779
 20
0.1306733655047712
 30
0.0
 10
33.81483384628666
 20
0.2742501368963185
 30
0.0
 10
33.66972178071379
 20
0.41981062506149
 30
0.0
  0
SPLINE
  5
D4
330
1F
100
AcDbEntity
  8
0
  6
Continuous
 62
   131
370
    15
100
AcDbSpline
210
0.0
220
0.0
230
1.0
 70
    24
 71
     3
 72
    10
 73
     6
 74
     0
 42
0.000000001
 43
0.00000001
 40
0.0
 40
0.0
 40
0.0
 40
0.0
 40
0.5
 40
0.5
 40
1.0
 40
1.0
 40
1.0
 40
1.0
 10
8.598076211353304
 20
0.6599970470037312
 30
0.0
 10
8.598076211353304
 20
0.453356398770417
 30
0.0
 10
8.598076211353304
 20
0.2137099335993584
 30
0.0
 10
8.598076211353304
 20
-0.2712778897468626
 30
0.0
 10
8.598076211353304
 20
-0.5145316707352943
 30
0.0
 10
8.598076211353304
 20
-0.727468105860582
 30
0.0
  0
SPLINE
  5
D5
330
1F
100
AcDbEntity
  8
0
  6
Continuous
 62
     1
370
    15
100
AcDbSpline
210
0.0
220
0.0
230
1.0
 70
     8
 71
     3
 72
    19
 73
    15
 74
     0
 42
0.000000001
 43
0.00000001
 40
0.0
 40
0.0
 40
0.0
 40
0.0
 40
0.0201892225424759
 40
0.1098134490185701
 40
0.1994263741662448
 40
0.2890342443134763
 40
0.3786433219456785
 40
0.4682598656873342
 40
0.5578901103097625
 40
0.6475402469001953
 40
0.737216403325458
 40
0.8269246251201744
 40
0.9166646719307624
 40
1.0
 40
1.0
 40
1.0
 40
1.0
 10
31.42496057492789
 20
-1.117315806417055
 30
0.0
 10
31.36188779954296
 20
-1.130357802698717
 30
0.0
 10
31.01882164186302
 20
-1.201295977299721
 30
0.0
 10
30.39582045582347
 20
-1.213786180482856
 30
0.0
 10
29.55596410295603
 20
-1.140153169657259
 30
0.0
 10
28.71616345092022
 20
-0.9388602654204781
 30
0.0
 10
27.87634942659986
 20
-0.6427770771383171
 30
0.0
 10
27.03645638068033
 20
-0.2793843822988752
 30
0.0
 10
26.19641787299051
 20
0.112867356969074
 30
0.0
 10
25.356168767251
 20
0.4932962464770101
 30
0.0
 10
24.51564236577997
 20
0.8233473294053231
 30
0.0
 10
23.6748003848015
 20
1.065212577514096
 30
0.0
 10
22.85370500054699
 20
1.203695586422655
 30
0.0
 10
22.31295133224744
 20
1.192953604626325
 30
0.0
 10
22.05257989359723
 20
1.187781369247766
 30
0.0
  0
SPLINE
  5
D6
330
1F
100
AcDbEntity
  8
0
  6
Continuous
 62
     1
370
    15
100
AcDbSpline
210
0.0
220
0.0
230
1.0
 70
     8
 71
     3
 72
    15
 73
    11
 74
     0
 42
0.000000001
 43
0.00000001
 40
0.0
 40
0.0
 40
0.0
 40
0.0
 40
0.1028526039834909
 40
0.2320719994245
 40
0.3613322698784101
 40
0.4906420753784329
 40
0.6199742685408295
 40
0.7492561554572578
 40
0.8784931842231445
 40
1.0
 40
1.0
 40
1.0
 40
1.0
 10
15.10135245586137
 20
-1.117749650152247
 30
0.0
 10
14.87840654479203
 20
-1.149688446478759
 30
0.0
 10
14.37536139725561
 20
-1.221753713041144
 30
0.0
 10
13.59209713435145
 20
-1.186270917728069
 30
0.0
 10
12.75144954726906
 20
-1.038383454369945
 30
0.0
 10
11.9105106342861
 20
-0.7793074770677925
 30
0.0
 10
11.0694884818275
 20
-0.4400473027352481
 30
0.0
 10
10.22870119117906
 20
-0.0561014186279189
 30
0.0
 10
9.404865144306633
 20
0.3304644355032162
 30
0.0
 10
8.86142122238163
 20
0.5524338843657328
 30
0.0
 10
8.598076211353304
 20
0.6599970470037312
 30
0.0
  0
SPLINE
  5
D7
330
1F
100
AcDbEntity
  8
0
  6
Continuous
 62
     1
370
    15
100
AcDbSpline
210
0.0
220
0.0
230
1.0
 70
     8
 71
     3
 72
    12
 73
     8
 74
     0
 42
0.000000001
 43
0.00000001
 40
0.0
 40
0.0
 40
0.0
 40
0.0
 40
0.2180312458085857
 40
0.4612413872558638
 40
0.7043873362722909
 40
0.9474857865203742
 40
1.0
 40
1.0
 40
1.0
 40
1.0
 10
33.66972177932235
 20
0.4198106256688703
 30
0.0
 10
33.41857004282446
 20
0.5247466256995713
 30
0.0
 10
32.88726282158468
 20
0.7467369466177668
 30
0.0
 10
32.07595630206504
 20
1.008832627346028
 30
0.0
 10
31.2357936750991
 20
1.168167104430562
 30
0.0
 10
30.61528501618191
 20
1.224250829510608
 30
0.0
 10
30.27482303291058
 20
1.187913395795914
 30
0.0
 10
30.21434154661108
 20
1.181458219866262
 30
0.0
  0
SPLINE
  5
D8
330
1F
100
AcDbEntity
  8
0
  6
Continuous
 62
     1
370
    15
100
AcDbSpline
210
0.0
220
0.0
230
1.0
 70
     8
 71
     3
 72
    19
 73
    15
 74
     0
 42
0.000000001
 43
0.00000001
 40
0.0
 40
0.0
 40
0.0
 40
0.0
 40
0.0460637890820057
 40
0.1357540694795093
 40
0.2254109236283668
 40
0.315040373825051
 40
0.4046485289758261
 40
0.4942415656054781
 40
0.5838257084125393
 40
0.6734072104999048
 40
0.7629923334134614
 40
0.8525873271235577
 40
0.94219841008483
 40
1.0
 40
1.0
 40
1.0
 40
1.0
 10
23.26561163389626
 20
-1.112323522471985
 30
0.0
 10
23.12164151603354
 20
-1.137825435784611
 30
0.0
 10
22.69734881730407
 20
-1.21298183478469
 30
0.0
 10
21.99286578552278
 20
-1.205569090713244
 30
0.0
 10
21.15226850808715
 20
-1.093789452385958
 30
0.0
 10
20.31196156749314
 20
-0.8626661546492778
 30
0.0
 10
19.47188063614559
 20
-0.5436965902952802
 30
0.0
 10
18.63196007796759
 20
-0.1679816274922278
 30
0.0
 10
17.79213391944137
 20
0.225114220649826
 30
0.0
 10
16.95233568586131
 20
0.594544161480611
 30
0.0
 10
16.1124993818357
 20
0.9036700201343607
 30
0.0
 10
15.27255704190406
 20
1.114162559716419
 30
0.0
 10
14.53192130404535
 20
1.214244705665857
 30
0.0
 10
14.07124426089141
 20
1.187888751268207
 30
0.0
 10
13.89060941442854
 20
1.177554388297984
 30
0.0
  0
SPLINE
  5
D9
330
1F
100
AcDbEntity
  8
0
  6
Continuous
 62
   131
370
    15
100
AcDbSpline
210
0.0
220
0.0
230
1.0
 70
    24
 71
     3
 72
    10
 73
     6
 74
     0
 42
0.000000001
 43
0.00000001
 40
0.0
 40
0.0
 40
0.0
 40
0.0
 40
0.5000000000000001
 40
0.5000000000000001
 40
1.0
 40
1.0
 40
1.0
 40
1.0
 10
34.5980762113533
 20
-1.18345839655232
 30
0.0
 10
34.59807621135331
 20
-1.092737083505704
 30
0.0
 10
34.59807621135331
 20
-0.9781072258596999
 30
0.0
 10
34.59807621135331
 20
-0.7116038387260167
 30
0.0
 10
34.59807621135329
 20
-0.5599611645769617
 30
0.0
 10
34.59807621135329
 20
-0.400864419044512
 30
0.0
  0
SPLINE
  5
DA
330
1F
100
AcDbEntity
  8
0
  6
Continuous
 62
   131
370
    15
100
AcDbSpline
210
0.0
220
0.0
230
1.0
 70
    24
 71
     3
 72
    12
 73
     8
 74
     0
 42
0.000000001
 43
0.00000001
 40
0.0
 40
0.0
 40
0.0
 40
0.0
 40
0.207859812567234
 40
0.3366754340884456
 40
0.5949777593908189
 40
0.7237933809120303
 40
1.0
 40
1.0
 40
1.0
 40
1.0
 10
8.598076211353307
 20
0.9837032281203048
 30
0.0
 10
8.598076211353304
 20
0.9827132385877503
 30
0.0
 10
8.598076211353304
 20
0.9811097292248816
 30
0.0
 10
8.598076211353307
 20
0.9431489437633692
 30
0.0
 10
8.598076211353304
 20
0.8898031386445205
 30
0.0
 10
8.598076211353307
 20
0.7947185359362237
 30
0.0
 10
8.598076211353307
 20
0.7146203449554409
 30
0.0
 10
8.598076211353307
 20
0.6599970470037311
 30
0.0
  0
SPLINE
  5
DB
330
1F
100
AcDbEntity
  8
0
  6
Continuous
 62
     1
370
    15
100
AcDbSpline
210
0.0
220
0.0
230
1.0
 70
     8
 71
     3
 72
    10
 73
     6
 74
     0
 42
0.000000001
 43
0.00000001
 40
0.0
 40
0.0
 40
0.0
 40
0.0
 40
0.5
 40
0.5
 40
1.0
 40
1.0
 40
1.0
 40
1.0
 10
34.5980762113533
 20
1.050000000000003
 30
0.0
 10
34.41145438658835
 20
0.9992768964052667
 30
0.0
 10
34.22600375673781
 20
0.9412774357134577
 30
0.0
 10
33.85864548367678
 20
0.8081941083851681
 30
0.0
 10
33.67653523851509
 20
0.7336371918611952
 30
0.0
 10
33.49810783634285
 20
0.6462796946959783
 30
0.0
  0
SPLINE
  5
DC
330
1F
100
AcDbEntity
  8
0
  6
Continuous
 62
   131
370
    15
100
AcDbSpline
210
0.0
220
0.0
230
1.0
 70
    24
 71
     3
 72
    10
 73
     6
 74
     0
 42
0.000000001
 43
0.00000001
 40
0.0
 40
0.0
 40
0.0
 40
0.0
 40
0.4555217660925711
 40
0.9110435321851276
 40
1.0
 40
1.0
 40
1.0
 40
1.0
 10
8.598076211353304
 20
-0.8769245887561695
 30
0.0
 10
8.598076211353304
 20
-0.9049579471396535
 30
0.0
 10
8.598076211353307
 20
-0.9610246639066204
 30
0.0
 10
8.598076211353304
 20
-0.9912299976173858
 30
0.0
 10
8.598076211353307
 20
-0.9847602507726738
 30
0.0
 10
8.598076211353307
 20
-0.9837032281203046
 30
0.0
  0
LINE
  5
DD
330
1F
100
AcDbEntity
  8
0
  6
Continuous
 62
   131
370
    15
100
AcDbLine
 10
34.5980762113533
 20
0.0000000000000035
 30
0.0
 11
34.5980762113533
 21
1.050000000000003
 31
0.0
  0
LINE
  5
DE
330
1F
100
AcDbEntity
  8
0
  6
Continuous
 62
   131
370
    15
100
AcDbLine
 10
7.598076211353304
 20
1.5
 30
0.0
 11
7.598076211353304
 21
-1.5
 31
0.0
  0
LINE
  5
DF
330
1F
100
AcDbEntity
  8
0
  6
Continuous
 62
   131
370
    15
100
AcDbLine
 10
2.0
 20
3.0
 30
0.0
 11
2.0
 21
-3.0
 31
0.0
  0
LINE
  5
E0
330
1F
100
AcDbEntity
  8
0
  6
Continuous
 62
   131
370
    15
100
AcDbLine
 10
-34.85192378864669
 20
2.999999999999996
 30
0.0
 11
-34.85192378864669
 21
-3.000000000000002
 31
0.0
  0
LINE
  5
E1
330
1F
100
AcDbEntity
  8
0
  6
Continuous
 62
   131
370
    15
100
AcDbLine
 10
-35.4019237886467
 20
2.449999999999995
 30
0.0
 11
-35.4019237886467
 21
-2.450000000000001
 31
0.0
  0
LINE
  5
E2
330
1F
100
AcDbEntity
  8
0
  6
Continuous
 62
   131
370
    15
100
AcDbLine
 10
8.077097311909672
 20
1.004136715358167
 30
0.0
 11
8.598076211352877
 21
1.217778791526214
 31
0.0
  0
SPLINE
  5
E3
330
1F
100
AcDbEntity
  8
0
  6
Continuous
 62
   131
370
    15
100
AcDbSpline
210
0.0
220
0.0
230
1.0
 70
     8
 71
     3
 72
    10
 73
     6
 74
     0
 42
0.000000001
 43
0.00000001
 40
0.0
 40
0.0
 40
0.0
 40
0.0
 40
0.5
 40
0.5
 40
1.0
 40
1.0
 40
1.0
 40
1.0
 10
8.598076211353304
 20
-0.9285367300884763
 30
0.0
 10
8.448949152468888
 20
-0.8611438252230683
 30
0.0
 10
8.303160678880708
 20
-0.7897236239612152
 30
0.0
 10
8.007311551188842
 20
-0.6392284532986242
 30
0.0
 10
7.85710229622298
 20
-0.5600818364500766
 30
0.0
 10
7.707895464571539
 20
-0.4787450396763874
 30
0.0
  0
SPLINE
  5
E4
330
1F
100
AcDbEntity
  8
0
  6
Continuous
 62
   131
370
    15
100
AcDbSpline
210
0.0
220
0.0
230
1.0
 70
     8
 71
     3
 72
    10
 73
     6
 74
     0
 42
0.000000001
 43
0.00000001
 40
0.0
 40
0.0
 40
0.0
 40
0.0
 40
0.5000000000000001
 40
0.5000000000000001
 40
1.0
 40
1.0
 40
1.0
 40
1.0
 10
7.707988012211361
 20
-0.8527730474538456
 30
0.0
 10
7.857179835192884
 20
-0.923372100548269
 30
0.0
 10
8.007373189126094
 20
-0.9899080457840622
 30
0.0
 10
8.303190792964534
 20
-1.112019081339703
 30
0.0
 10
8.448964568806982
 20
-1.167682606418381
 30
0.0
 10
8.598076211352877
 20
-1.217778791526216
 30
0.0
  0
LINE
  5
E5
330
1F
100
AcDbEntity
  8
0
  6
Continuous
 62
   131
370
    15
100
AcDbLine
 10
7.707988012211361
 20
-1.5
 30
0.0
 11
7.707988012211361
 21
-0.8523514112630757
 31
0.0
  0
LINE
  5
E6
330
1F
100
AcDbEntity
  8
0
  6
Continuous
 62
   131
370
    15
100
AcDbLine
 10
7.707988012211361
 20
-0.4786841156213128
 30
0.0
 11
7.707988012211361
 21
1.5
 31
0.0
  0
SPLINE
  5
E7
330
1F
100
AcDbEntity
  8
0
  6
Continuous
 62
   131
370
    15
100
AcDbSpline
210
0.0
220
0.0
230
1.0
 70
    24
 71
     3
 72
     8
 73
     4
 74
     0
 42
0.000000001
 43
0.00000001
 40
0.0
 40
0.0
 40
0.0
 40
0.0
 40
1.0
 40
1.0
 40
1.0
 40
1.0
 10
8.598076211353304
 20
-0.7274681058605822
 30
0.0
 10
8.598076211353304
 20
-0.7906446282764504
 30
0.0
 10
8.598076211353304
 20
-0.8580811935973156
 30
0.0
 10
8.598076211353304
 20
-0.9285367300881157
 30
0.0
  0
SPLINE
  5
E8
330
1F
100
AcDbEntity
  8
0
  6
Continuous
 62
   131
370
    15
100
AcDbSpline
210
0.0
220
0.0
230
1.0
 70
     8
 71
     3
 72
    10
 73
     6
 74
     0
 42
0.000000001
 43
0.00000001
 40
0.0
 40
0.0
 40
0.0
 40
0.0
 40
0.5
 40
0.5
 40
1.0
 40
1.0
 40
1.0
 40
1.0
 10
8.598076211353318
 20
-0.727468105860588
 30
0.0
 10
8.448949152468899
 20
-0.6675669514459116
 30
0.0
 10
8.303160678880717
 20
-0.604563762357511
 30
0.0
 10
8.007311551188845
 20
-0.4726987682152073
 30
0.0
 10
7.85710229622298
 20
-0.403779785806901
 30
0.0
 10
7.707895464571539
 20
-0.3333658569576492
 30
0.0
  0
SPLINE
  5
E9
330
1F
100
AcDbEntity
  8
0
  6
Continuous
 62
   131
370
    15
100
AcDbSpline
210
0.0
220
0.0
230
1.0
 70
    24
 71
     3
 72
    10
 73
     6
 74
     0
 42
0.000000001
 43
0.00000001
 40
0.0
 40
0.0
 40
0.0
 40
0.0
 40
0.5
 40
0.5
 40
1.0
 40
1.0
 40
1.0
 40
1.0
 10
8.598076211353304
 20
0.6599970470037312
 30
0.0
 10
8.598076211353304
 20
0.453356398770417
 30
0.0
 10
8.598076211353304
 20
0.2137099335993584
 30
0.0
 10
8.598076211353304
 20
-0.2712778897468626
 30
0.0
 10
8.598076211353304
 20
-0.5145316707352943
 30
0.0
 10
8.598076211353304
 20
-0.727468105860582
 30
0.0
  0
SPLINE
  5
EA
330
1F
100
AcDbEntity
  8
0
  6
Continuous
 62
   131
370
    15
100
AcDbSpline
210
0.0
220
0.0
230
1.0
 70
     8
 71
     3
 72
    10
 73
     6
 74
     0
 42
0.000000001
 43
0.00000001
 40
0.0
 40
0.0
 40
0.0
 40
0.0
 40
0.5000000000000001
 40
0.5000000000000001
 40
1.0
 40
1.0
 40
1.0
 40
1.0
 10
8.598076211353616
 20
0.6599970470036097
 30
0.0
 10
8.448958942568272
 20
0.7173259141463006
 30
0.0
 10
8.303179802752517
 20
0.7710047045854865
 30
0.0
 10
8.007350694194981
 20
0.8708691005887308
 30
0.0
 10
7.857151537124114
 20
0.9170193418828947
 30
0.0
 10
7.707954236640514
 20
0.9583392824198121
 30
0.0
  0
SPLINE
  5
EB
330
1F
100
AcDbEntity
  8
0
  6
Continuous
 62
   131
370
    15
100
AcDbSpline
210
0.0
220
0.0
230
1.0
 70
    24
 71
     3
 72
    12
 73
     8
 74
     0
 42
0.000000001
 43
0.00000001
 40
0.0
 40
0.0
 40
0.0
 40
0.0
 40
0.2019297482754384
 40
0.3317097002643227
 40
0.5919457103109684
 40
0.7217256622998524
 40
1.0
 40
1.0
 40
1.0
 40
1.0
 10
8.598076211353302
 20
0.983326215291675
 30
0.0
 10
8.598076211353298
 20
0.9823395779439852
 30
0.0
 10
8.598076211353298
 20
0.9807188302252026
 30
0.0
 10
8.598076211353314
 20
0.9431090020358847
 30
0.0
 10
8.598076211353295
 20
0.8898092318957478
 30
0.0
 10
8.59807621135331
 20
0.7947158979201372
 30
0.0
 10
8.598076211353307
 20
0.71461927536261
 30
0.0
 10
8.598076211353307
 20
0.659997047003731
 30
0.0
  0
SPLINE
  5
EC
330
1F
100
AcDbEntity
  8
0
  6
Continuous
 62
   131
370
    15
100
AcDbSpline
210
0.0
220
0.0
230
1.0
 70
    24
 71
     3
 72
    12
 73
     8
 74
     0
 42
0.000000001
 43
0.00000001
 40
0.0
 40
0.0
 40
0.0
 40
0.0
 40
0.2239958281548631
 40
0.4495468982455862
 40
0.6735427264004438
 40
0.8990937964911607
 40
1.0
 40
1.0
 40
1.0
 40
1.0
 10
8.598076211353304
 20
-0.8769245887561702
 30
0.0
 10
8.598076211353302
 20
-0.8922824258913562
 30
0.0
 10
8.598076211353298
 20
-0.9231047322921276
 30
0.0
 10
8.598076211353298
 20
-0.9556685247398365
 30
0.0
 10
8.598076211353302
 20
-0.9772345861160799
 30
0.0
 10
8.598076211353298
 20
-0.9873845228831517
 30
0.0
 10
8.598076211353302
 20
-0.9862390240939521
 30
0.0
 10
8.598076211353304
 20
-0.9858849565228194
 30
0.0
  0
SPLINE
  5
ED
330
1F
100
AcDbEntity
  8
0
  6
Continuous
 62
   131
370
    15
100
AcDbSpline
210
0.0
220
0.0
230
1.0
 70
    24
 71
     3
 72
    10
 73
     6
 74
     0
 42
0.000000001
 43
0.00000001
 40
0.0
 40
0.0
 40
0.0
 40
0.0
 40
0.1376494948829338
 40
0.8569201442403697
 40
1.0
 40
1.0
 40
1.0
 40
1.0
 10
8.598076211353304
 20
1.217778791526357
 30
0.0
 10
8.598076211353304
 20
1.20578142520775
 30
0.0
 10
8.598076211353288
 20
1.131093284252431
 30
0.0
 10
8.598076211353673
 20
1.042282116211886
 30
0.0
 10
8.598076211353547
 20
0.9951156433401471
 30
0.0
 10
8.598076211353527
 20
0.9872898554555994
 30
0.0
  0
LINE
  5
EE
330
1F
100
AcDbEntity
  8
중심선
 62
     1
100
AcDbLine
 10
-38.4019237886467
 20
-0.0000000000000046
 30
0.0
 11
37.5980762113533
 21
0.0000000000000038
 31
0.0
  0
CIRCLE
  5
EF
330
1F
100
AcDbEntity
  8
외형선
100
AcDbCircle
 10
0.0000000000000104
 20
0.0
 30
0.0
 40
3.000000000000005
  0
INSERT
  5
F0
330
1F
100
AcDbEntity
  8
0
  6
Continuous
 62
     7
100
AcDbBlockReference
 66
     1
  2
블럭10
 10
-22.93944368806589
 20
-52.04609937292004
 30
0.0
  0
ATTRIB
  5
F1
330
F0
100
AcDbEntity
  8
FORMAT
 62
     2
100
AcDbText
 10
-39.05870472750145
 20
-49.97073246008785
 30
0.0
 40
4.233333333333333
  1
SEME7003026E [ 2 FLUTE ]
 41
0.75
  7
SLDTEXTSTYLE0
 11
-39.05870472750145
 21
-52.08739912675452
 31
0.0
100
AcDbAttribute
  2
AUTOATTR0
 70
     0
 74
     1
  0
SEQEND
  5
F2
330
F0
100
AcDbEntity
  8
0
  6
Continuous
 62
     7
  0
HATCH
  5
F3
330
1F
100
AcDbEntity
  8
중심선
100
AcDbHatch
 10
0.0
 20
0.0
 30
0.0
210
0.0
220
0.0
230
1.0
  2
SOLID
 70
     1
 71
     0
 91
        1
 92
        0
 93
        4
 72
     1
 10
-17.22453438368504
 20
-35.7989250712761
 11
-20.67080962752232
 21
-35.7989250712761
 72
     1
 10
-20.67080962752232
 20
-35.7989250712761
 11
-22.79903948672635
 21
-38.3352506518487
 72
     1
 10
-22.79903948672635
 20
-38.3352506518487
 11
-19.35273115777591
 21
-38.33521122254621
 72
     1
 10
-19.35273115777591
 20
-38.33521122254621
 11
-17.22453438368504
 21
-35.7989250712761
 97
        0
 75
     0
 76
     1
 98
        1
 10
0.0
 20
0.0
  0
HATCH
  5
F4
330
1F
100
AcDbEntity
  8
중심선
100
AcDbHatch
 10
0.0
 20
0.0
 30
0.0
210
0.0
220
0.0
230
1.0
  2
SOLID
 70
     1
 71
     0
 91
        1
 92
        0
 93
        4
 72
     1
 10
-12.21177039264909
 20
-35.7989250712761
 11
-15.65804563648637
 21
-35.7989250712761
 72
     1
 10
-15.65804563648637
 20
-35.7989250712761
 11
-20.18918364484376
 21
-41.19892507127612
 72
     1
 10
-20.18918364484376
 20
-41.19892507127612
 11
-16.74290840100648
 21
-41.19892507127612
 72
     1
 10
-16.74290840100648
 20
-41.19892507127612
 11
-12.21177039264909
 21
-35.7989250712761
 97
        0
 75
     0
 76
     1
 98
        1
 10
0.0
 20
0.0
  0
HATCH
  5
F5
330
1F
100
AcDbEntity
  8
중심선
100
AcDbHatch
 10
0.0
 20
0.0
 30
0.0
210
0.0
220
0.0
230
1.0
  2
SOLID
 70
     1
 71
     0
 91
        1
 92
        0
 93
        4
 72
     1
 10
-7.199006401613195
 20
-35.79892507127613
 11
-10.64528164545031
 21
-35.7989250712761
 72
     1
 10
-10.64528164545031
 20
-35.7989250712761
 11
-17.69371854733956
 21
-44.19892507127612
 72
     1
 10
-17.69371854733956
 20
-44.19892507127612
 11
-14.24744330350228
 21
-44.19892507127612
 72
     1
 10
-14.24744330350228
 20
-44.19892507127612
 11
-7.199006401613195
 21
-35.79892507127613
 97
        0
 75
     0
 76
     1
 98
        1
 10
0.0
 20
0.0
  0
HATCH
  5
F6
330
1F
100
AcDbEntity
  8
중심선
100
AcDbHatch
 10
0.0
 20
0.0
 30
0.0
210
0.0
220
0.0
230
1.0
  2
SOLID
 70
     1
 71
     0
 91
        1
 92
        0
 93
        6
 72
     3
 10
-2.399115970600996
 20
-39.99892507132738
 11
3.960054785062284
 21
1.540850780301639E-10
 40
0.3939339440162633
 50
17.09539180608433
 51
320.0019657685079
 73
     0
 72
     1
 10
-0.7161163149004002
 20
-38.58681907591441
 11
1.589185558800638
 21
-36.65249236586649
 72
     3
 10
-2.399115970653842
 20
-39.99892507127625
 11
6.600054785286829
 21
-1.249000902703301E-13
 40
0.6363583540795982
 50
39.99873849337408
 51
368.4976242363725
 73
     1
 72
     1
 10
4.026216521246767
 20
-39.03892507120613
 11
-3.71904866381792
 21
-39.0389250712061
 72
     1
 10
-3.71904866381792
 20
-39.0389250712061
 11
-3.719073708263854
 21
-40.95892507120602
 72
     1
 10
-3.719073708263854
 20
-40.95892507120602
 11
0.7223060612081831
 21
-40.95892507120599
 97
        0
 75
     0
 76
     1
 98
        1
 10
0.0
 20
0.0
  0
DIMENSION
  5
F7
330
1F
100
AcDbEntity
  8
치수문자_일반주서
100
AcDbDimension
  2
_D
 10
43.60663149964409
 20
1.500000000000126
 30
0.0
 11
43.60663149964407
 21
11.16650000000013
 31
0.0
 70
   160
  1
%%c<>
 71
     2
 42
2.999999999999995
 52
-270.0
  3
SLDDIMSTYLE0
100
AcDbAlignedDimension
 13
34.59807621135331
 23
-1.499999999999902
 33
0.0
 14
34.59807621135324
 24
1.500000000000093
 34
0.0
 50
90.0000000000002
100
AcDbRotatedDimension
  0
DIMENSION
  5
105
330
1F
100
AcDbEntity
  8
치수문자_일반주서
100
AcDbDimension
  2
_D_1
 10
34.59807621135316
 20
24.23841044024269
 30
0.0
 11
-0.4019237886467639
 21
24.23841044024269
 31
0.0
 70
   160
  1
<>
 71
     2
 42
69.99999999999986
  3
SLDDIMSTYLE1
100
AcDbAlignedDimension
 13
-35.4019237886467
 23
2.449999999999995
 33
0.0
 14
34.59807621135316
 24
1.485911303847855
 34
0.0
 50
-0.0000000000000058
100
AcDbRotatedDimension
  0
DIMENSION
  5
110
330
1F
100
AcDbEntity
  8
치수문자_일반주서
100
AcDbDimension
  2
_D_2
 10
34.5980762113533
 20
14.33428766198015
 30
0.0
 11
21.59807621135331
 21
14.33428766198015
 31
0.0
 70
   160
  1
<>
 71
     2
 42
26.0
  3
SLDDIMSTYLE1
100
AcDbAlignedDimension
 13
8.598076211353304
 23
1.217778791526357
 33
0.0
 14
34.5980762113533
 24
1.498732222844473
 34
0.0
100
AcDbRotatedDimension
  0
DIMENSION
  5
11A
330
1F
100
AcDbEntity
  8
치수문자_일반주서
100
AcDbDimension
  2
_D_3
 10
-47.19035704455334
 20
-3.000000000000046
 30
0.0
 11
-47.1903570445534
 21
12.66649999999995
 31
0.0
 70
   160
  1
%%c<>
 71
     2
 42
5.999999999999996
 52
-270.0
  3
SLDDIMSTYLE0
100
AcDbAlignedDimension
 13
-34.85192378864669
 23
2.999999999999996
 33
0.0
 14
-34.85192378864669
 24
-3.000000000000001
 34
0.0
 50
90.0000000000002
100
AcDbRotatedDimension
  0
INSERT
  5
12D
330
1F
100
AcDbEntity
  8
외형선
100
AcDbBlockReference
  2
SW_DOWELSYMBOL_0
 10
0.0000000000000104
 20
0.0
 30
0.0
  0
ENDSEC
  0
SECTION
  2
OBJECTS
  0
DICTIONARY
  5
C
330
0
100
AcDbDictionary
281
     1
  3
ACAD_GROUP
350
D
  3
ACAD_IMAGE_VARS
350
151
  3
ACAD_LAYOUT
350
1A
  3
ACAD_MLINESTYLE
350
17
  3
ACAD_PLOTSETTINGS
350
19
  3
ACAD_PLOTSTYLENAME
350
E
  3
ACAD_SCALELIST
350
47
  3
APPDATA
350
14F
  3
DWGPROPS
350
15F
  0
DICTIONARY
  5
D
102
{ACAD_REACTORS
330
C
102
}
330
C
100
AcDbDictionary
281
     1
  0
RASTERVARIABLES
  5
151
102
{ACAD_REACTORS
330
C
102
}
330
C
100
AcDbRasterVariables
 90
        0
 70
     1
 71
     1
 72
     1
  0
DICTIONARY
  5
1A
102
{ACAD_REACTORS
330
C
102
}
330
C
100
AcDbDictionary
281
     1
  3
Layout1
350
1E
  3
Layout2
350
26
  3
Model
350
22
  0
DICTIONARY
  5
17
102
{ACAD_REACTORS
330
C
102
}
330
C
100
AcDbDictionary
281
     1
  3
Standard
350
18
  0
DICTIONARY
  5
19
102
{ACAD_REACTORS
330
C
102
}
330
C
100
AcDbDictionary
281
     1
  0
ACDBDICTIONARYWDFLT
  5
E
102
{ACAD_REACTORS
330
C
102
}
330
C
100
AcDbDictionary
281
     1
  3
Normal
350
F
100
AcDbDictionaryWithDefault
340
F
  0
DICTIONARY
  5
47
102
{ACAD_REACTORS
330
C
102
}
330
C
100
AcDbDictionary
281
     1
  3
A0
350
48
  3
A1
350
49
  3
A2
350
4A
  3
A3
350
4B
  3
A4
350
4C
  3
A5
350
4D
  3
A6
350
4E
  3
A7
350
4F
  3
A8
350
50
  3
A9
350
51
  3
B0
350
52
  3
B1
350
53
  3
B2
350
54
  3
B3
350
55
  3
B4
350
56
  3
B5
350
57
  3
B6
350
58
  3
B7
350
59
  3
B8
350
5A
  3
B9
350
5B
  3
C0
350
5C
  3
C1
350
5D
  3
C2
350
5E
  3
C3
350
5F
  3
C4
350
60
  3
C5
350
61
  3
C6
350
62
  3
C7
350
63
  3
C8
350
64
  3
C9
350
65
  3
D0
350
66
  3
D1
350
67
  3
D2
350
68
  0
DICTIONARY
  5
14F
102
{ACAD_REACTORS
330
C
102
}
330
C
100
AcDbDictionary
281
     1
  0
XRECORD
  5
15F
102
{ACAD_REACTORS
330
C
102
}
330
C
100
AcDbXrecord
280
     1
  1
DWGPROPS COOKIE
  2

  3

  4

  6

  7

  8
12014102
  9

300
=
301
=
302
=
303
=
304
=
305
=
306
=
307
=
308
=
309
=
 40
0.0
 41
2458262.163163009
 42
2458265.997807083
  1

 90
        0
  0
LAYOUT
  5
1E
102
{ACAD_REACTORS
330
1A
102
}
330
1A
100
AcDbPlotSettings
  1

  2
none_device
  4

  6

 40
0.0
 41
0.0
 42
0.0
 43
0.0
 44
0.0
 45
0.0
 46
0.0
 47
0.0
 48
0.0
 49
0.0
140
0.0
141
0.0
142
1.0
143
1.0
 70
   688
 72
     1
 73
     0
 74
     5
  7

 75
    16
147
1.0
148
0.0
149
0.0
100
AcDbLayout
  1
Layout1
 70
     1
 71
     1
 10
0.0
 20
0.0
 11
420.0
 21
297.0
 12
0.0
 22
0.0
 32
0.0
 14
1.000000000000000E+20
 24
1.000000000000000E+20
 34
1.000000000000000E+20
 15
-1.000000000000000E+20
 25
-1.000000000000000E+20
 35
-1.000000000000000E+20
146
0.0
 13
0.0
 23
0.0
 33
0.0
 16
1.0
 26
0.0
 36
0.0
 17
0.0
 27
1.0
 37
0.0
 76
     0
330
1B
  0
LAYOUT
  5
26
102
{ACAD_REACTORS
330
1A
102
}
330
1A
100
AcDbPlotSettings
  1

  2
none_device
  4

  6

 40
0.0
 41
0.0
 42
0.0
 43
0.0
 44
0.0
 45
0.0
 46
0.0
 47
0.0
 48
0.0
 49
0.0
140
0.0
141
0.0
142
1.0
143
1.0
 70
   688
 72
     1
 73
     0
 74
     5
  7

 75
    16
147
1.0
148
0.0
149
0.0
100
AcDbLayout
  1
Layout2
 70
     1
 71
     2
 10
0.0
 20
0.0
 11
0.0
 21
0.0
 12
0.0
 22
0.0
 32
0.0
 14
0.0
 24
0.0
 34
0.0
 15
0.0
 25
0.0
 35
0.0
146
0.0
 13
0.0
 23
0.0
 33
0.0
 16
1.0
 26
0.0
 36
0.0
 17
0.0
 27
1.0
 37
0.0
 76
     0
330
23
  0
LAYOUT
  5
22
102
{ACAD_REACTORS
330
1A
102
}
330
1A
100
AcDbPlotSettings
  1

  2
none_device
  4
ANSI_A_(11.00_x_8.50_Inches)
  6

 40
6.35
 41
19.05
 42
6.35000508
 43
19.05000254
 44
279.4
 45
215.9
 46
137.695857613605
 47
118.4377884955873
 48
0.0
 49
0.0
140
0.0
141
0.0
142
0.1058944507156154
143
1.0
 70
  1696
 72
     0
 73
     0
 74
     0
  7

 75
     0
147
0.0235690232323232
148
0.0
149
0.0
100
AcDbLayout
  1
Model
 70
     1
 71
     0
 10
0.0
 20
0.0
 11
420.0
 21
297.0
 12
0.0
 22
0.0
 32
0.0
 14
-51.56535704455341
 24
-49.97073246008785
 34
0.0
 15
44.15696483297744
 25
28.61341044024268
 35
0.0
146
0.0
 13
0.0
 23
0.0
 33
0.0
 16
1.0
 26
0.0
 36
0.0
 17
0.0
 27
1.0
 37
0.0
 76
     0
330
1F
331
29
  0
MLINESTYLE
  5
18
102
{ACAD_REACTORS
330
17
102
}
330
17
100
AcDbMlineStyle
  2
Standard
 70
     0
  3

 62
   256
 51
90.0
 52
90.0
 71
     2
 49
0.5
 62
   256
  6
BYLAYER
 49
-0.5
 62
   256
  6
BYLAYER
  0
ACDBPLACEHOLDER
  5
F
102
{ACAD_REACTORS
330
E
102
}
330
E
  0
SCALE
  5
48
102
{ACAD_REACTORS
330
47
102
}
330
47
100
AcDbScale
 70
     0
300
1:1
140
1.0
141
1.0
290
     1
  0
SCALE
  5
49
102
{ACAD_REACTORS
330
47
102
}
330
47
100
AcDbScale
 70
     0
300
1:2
140
1.0
141
2.0
290
     0
  0
SCALE
  5
4A
102
{ACAD_REACTORS
330
47
102
}
330
47
100
AcDbScale
 70
     0
300
1:4
140
1.0
141
4.0
290
     0
  0
SCALE
  5
4B
102
{ACAD_REACTORS
330
47
102
}
330
47
100
AcDbScale
 70
     0
300
1:5
140
1.0
141
5.0
290
     0
  0
SCALE
  5
4C
102
{ACAD_REACTORS
330
47
102
}
330
47
100
AcDbScale
 70
     0
300
1:8
140
1.0
141
8.0
290
     0
  0
SCALE
  5
4D
102
{ACAD_REACTORS
330
47
102
}
330
47
100
AcDbScale
 70
     0
300
1:10
140
1.0
141
10.0
290
     0
  0
SCALE
  5
4E
102
{ACAD_REACTORS
330
47
102
}
330
47
100
AcDbScale
 70
     0
300
1:16
140
1.0
141
16.0
290
     0
  0
SCALE
  5
4F
102
{ACAD_REACTORS
330
47
102
}
330
47
100
AcDbScale
 70
     0
300
1:20
140
1.0
141
20.0
290
     0
  0
SCALE
  5
50
102
{ACAD_REACTORS
330
47
102
}
330
47
100
AcDbScale
 70
     0
300
1:30
140
1.0
141
30.0
290
     0
  0
SCALE
  5
51
102
{ACAD_REACTORS
330
47
102
}
330
47
100
AcDbScale
 70
     0
300
1:40
140
1.0
141
40.0
290
     0
  0
SCALE
  5
52
102
{ACAD_REACTORS
330
47
102
}
330
47
100
AcDbScale
 70
     0
300
1:50
140
1.0
141
50.0
290
     0
  0
SCALE
  5
53
102
{ACAD_REACTORS
330
47
102
}
330
47
100
AcDbScale
 70
     0
300
1:100
140
1.0
141
100.0
290
     0
  0
SCALE
  5
54
102
{ACAD_REACTORS
330
47
102
}
330
47
100
AcDbScale
 70
     0
300
2:1
140
2.0
141
1.0
290
     0
  0
SCALE
  5
55
102
{ACAD_REACTORS
330
47
102
}
330
47
100
AcDbScale
 70
     0
300
4:1
140
4.0
141
1.0
290
     0
  0
SCALE
  5
56
102
{ACAD_REACTORS
330
47
102
}
330
47
100
AcDbScale
 70
     0
300
8:1
140
8.0
141
1.0
290
     0
  0
SCALE
  5
57
102
{ACAD_REACTORS
330
47
102
}
330
47
100
AcDbScale
 70
     0
300
10:1
140
10.0
141
1.0
290
     0
  0
SCALE
  5
58
102
{ACAD_REACTORS
330
47
102
}
330
47
100
AcDbScale
 70
     0
300
100:1
140
100.0
141
1.0
290
     0
  0
SCALE
  5
59
102
{ACAD_REACTORS
330
47
102
}
330
47
100
AcDbScale
 70
     0
300
1/128" = 1'-0"
140
0.0078125
141
12.0
290
     0
  0
SCALE
  5
5A
102
{ACAD_REACTORS
330
47
102
}
330
47
100
AcDbScale
 70
     0
300
1/64" = 1'-0"
140
0.015625
141
12.0
290
     0
  0
SCALE
  5
5B
102
{ACAD_REACTORS
330
47
102
}
330
47
100
AcDbScale
 70
     0
300
1/32" = 1'-0"
140
0.03125
141
12.0
290
     0
  0
SCALE
  5
5C
102
{ACAD_REACTORS
330
47
102
}
330
47
100
AcDbScale
 70
     0
300
1/16" = 1'-0"
140
0.0625
141
12.0
290
     0
  0
SCALE
  5
5D
102
{ACAD_REACTORS
330
47
102
}
330
47
100
AcDbScale
 70
     0
300
3/32" = 1'-0"
140
0.09375
141
12.0
290
     0
  0
SCALE
  5
5E
102
{ACAD_REACTORS
330
47
102
}
330
47
100
AcDbScale
 70
     0
300
1/8" = 1'-0"
140
0.125
141
12.0
290
     0
  0
SCALE
  5
5F
102
{ACAD_REACTORS
330
47
102
}
330
47
100
AcDbScale
 70
     0
300
3/16" = 1'-0"
140
0.1875
141
12.0
290
     0
  0
SCALE
  5
60
102
{ACAD_REACTORS
330
47
102
}
330
47
100
AcDbScale
 70
     0
300
1/4" = 1'-0"
140
0.25
141
12.0
290
     0
  0
SCALE
  5
61
102
{ACAD_REACTORS
330
47
102
}
330
47
100
AcDbScale
 70
     0
300
3/8" = 1'-0"
140
0.375
141
12.0
290
     0
  0
SCALE
  5
62
102
{ACAD_REACTORS
330
47
102
}
330
47
100
AcDbScale
 70
     0
300
1/2" = 1'-0"
140
0.5
141
12.0
290
     0
  0
SCALE
  5
63
102
{ACAD_REACTORS
330
47
102
}
330
47
100
AcDbScale
 70
     0
300
3/4" = 1'-0"
140
0.75
141
12.0
290
     0
  0
SCALE
  5
64
102
{ACAD_REACTORS
330
47
102
}
330
47
100
AcDbScale
 70
     0
300
1" = 1'-0"
140
1.0
141
12.0
290
     0
  0
SCALE
  5
65
102
{ACAD_REACTORS
330
47
102
}
330
47
100
AcDbScale
 70
     0
300
1-1/2" = 1'-0"
140
1.5
141
12.0
290
     0
  0
SCALE
  5
66
102
{ACAD_REACTORS
330
47
102
}
330
47
100
AcDbScale
 70
     0
300
3" = 1'-0"
140
3.0
141
12.0
290
     0
  0
SCALE
  5
67
102
{ACAD_REACTORS
330
47
102
}
330
47
100
AcDbScale
 70
     0
300
6" = 1'-0"
140
6.0
141
12.0
290
     0
  0
SCALE
  5
68
102
{ACAD_REACTORS
330
47
102
}
330
47
100
AcDbScale
 70
     0
300
1'-0" = 1'-0"
140
12.0
141
12.0
290
     0
  0
ENDSEC
  0
EOF
