  0
SECTION
  2
HEADER
  9
$ACADVER
  1
AC1015
  9
$ACADMAINTVER
 70
     6
  9
$DWGCODEPAGE
  3
ANSI_949
  9
$INSBASE
 10
0.0
 20
0.0
 30
0.0
  9
$EXTMIN
 10
-57.3066066786494
 20
-49.97073246008785
 30
0.0
  9
$EXTMAX
 10
36.90555769481373
 20
28.61341044024269
 30
0.0
  9
$LIMMIN
 10
0.0
 20
0.0
  9
$LIMMAX
 10
420.0
 20
297.0
  9
$ORTHOMODE
 70
     0
  9
$REGENMODE
 70
     1
  9
$FILLMODE
 70
     1
  9
$QTEXTMODE
 70
     0
  9
$MIRRTEXT
 70
     1
  9
$LTSCALE
 40
1.0
  9
$ATTMODE
 70
     1
  9
$TEXTSIZE
 40
3.5
  9
$TRACEWID
 40
1.0
  9
$TEXTSTYLE
  7
Standard
  9
$CLAYER
  8
0
  9
$CELTYPE
  6
ByLayer
  9
$CECOLOR
 62
   256
  9
$CELTSCALE
 40
1.0
  9
$DISPSILH
 70
     0
  9
$DIMSCALE
 40
1.0
  9
$DIMASZ
 40
3.302
  9
$DIMEXO
 40
1.0
  9
$DIMDLI
 40
3.75
  9
$DIMRND
 40
0.0
  9
$DIMDLE
 40
0.0
  9
$DIMEXE
 40
1.0
  9
$DIMTP
 40
0.0
  9
$DIMTM
 40
0.0
  9
$DIMTXT
 40
3.5
  9
$DIMCEN
 40
2.5
  9
$DIMTSZ
 40
0.0
  9
$DIMTOL
 70
     0
  9
$DIMLIM
 70
     0
  9
$DIMTIH
 70
     1
  9
$DIMTOH
 70
     1
  9
$DIMSE1
 70
     0
  9
$DIMSE2
 70
     0
  9
$DIMTAD
 70
     1
  9
$DIMZIN
 70
     0
  9
$DIMBLK
  1

  9
$DIMASO
 70
     1
  9
$DIMSHO
 70
     1
  9
$DIMPOST
  1

  9
$DIMAPOST
  1

  9
$DIMALT
 70
     0
  9
$DIMALTD
 70
     3
  9
$DIMALTF
 40
0.0393700787401575
  9
$DIMLFAC
 40
1.0
  9
$DIMTOFL
 70
     1
  9
$DIMTVP
 40
0.0
  9
$DIMTIX
 70
     0
  9
$DIMSOXD
 70
     0
  9
$DIMSAH
 70
     0
  9
$DIMBLK1
  1

  9
$DIMBLK2
  1

  9
$DIMSTYLE
  2
ISO-25
  9
$DIMCLRD
 70
     0
  9
$DIMCLRE
 70
     0
  9
$DIMCLRT
 70
     0
  9
$DIMTFAC
 40
1.0
  9
$DIMGAP
 40
1.524
  9
$DIMJUST
 70
     0
  9
$DIMSD1
 70
     0
  9
$DIMSD2
 70
     0
  9
$DIMTOLJ
 70
     0
  9
$DIMTZIN
 70
     0
  9
$DIMALTZ
 70
     0
  9
$DIMALTTZ
 70
     0
  9
$DIMUPT
 70
     0
  9
$DIMDEC
 70
     2
  9
$DIMTDEC
 70
     2
  9
$DIMALTU
 70
     2
  9
$DIMALTTD
 70
     3
  9
$DIMTXSTY
  7
Standard
  9
$DIMAUNIT
 70
     0
  9
$DIMADEC
 70
     2
  9
$DIMALTRND
 40
0.0
  9
$DIMAZIN
 70
     0
  9
$DIMDSEP
 70
    44
  9
$DIMATFIT
 70
     3
  9
$DIMFRAC
 70
     0
  9
$DIMLDRBLK
  1

  9
$DIMLUNIT
 70
     2
  9
$DIMLWD
 70
    -2
  9
$DIMLWE
 70
    -2
  9
$DIMTMOVE
 70
     0
  9
$LUNITS
 70
     2
  9
$LUPREC
 70
     2
  9
$SKETCHINC
 40
1.0
  9
$FILLETRAD
 40
10.0
  9
$AUNITS
 70
     0
  9
$AUPREC
 70
     2
  9
$MENU
  1
.
  9
$ELEVATION
 40
0.0
  9
$PELEVATION
 40
0.0
  9
$THICKNESS
 40
0.0
  9
$LIMCHECK
 70
     0
  9
$CHAMFERA
 40
0.0
  9
$CHAMFERB
 40
0.0
  9
$CHAMFERC
 40
0.0
  9
$CHAMFERD
 40
0.0
  9
$SKPOLY
 70
     0
  9
$TDCREATE
 40
2458262.537975451
  9
$TDUCREATE
 40
2458262.162975451
  9
$TDUPDATE
 40
2458266.37098625
  9
$TDUUPDATE
 40
2458265.99598625
  9
$TDINDWG
 40
0.0020152894
  9
$TDUSRTIMER
 40
2458265.993970995
  9
$USRTIMER
 70
     1
  9
$ANGBASE
 50
0.0
  9
$ANGDIR
 70
     0
  9
$PDMODE
 70
     0
  9
$PDSIZE
 40
-1.0
  9
$PLINEWID
 40
0.0
  9
$SPLFRAME
 70
     0
  9
$SPLINETYPE
 70
     6
  9
$SPLINESEGS
 70
     8
  9
$HANDSEED
  5
154
  9
$SURFTAB1
 70
     6
  9
$SURFTAB2
 70
     6
  9
$SURFTYPE
 70
     6
  9
$SURFU
 70
     6
  9
$SURFV
 70
     6
  9
$UCSBASE
  2

  9
$UCSNAME
  2

  9
$UCSORG
 10
0.0
 20
0.0
 30
0.0
  9
$UCSXDIR
 10
1.0
 20
0.0
 30
0.0
  9
$UCSYDIR
 10
0.0
 20
1.0
 30
0.0
  9
$UCSORTHOREF
  2

  9
$UCSORTHOVIEW
 70
     0
  9
$UCSORGTOP
 10
0.0
 20
0.0
 30
0.0
  9
$UCSORGBOTTOM
 10
0.0
 20
0.0
 30
0.0
  9
$UCSORGLEFT
 10
0.0
 20
0.0
 30
0.0
  9
$UCSORGRIGHT
 10
0.0
 20
0.0
 30
0.0
  9
$UCSORGFRONT
 10
0.0
 20
0.0
 30
0.0
  9
$UCSORGBACK
 10
0.0
 20
0.0
 30
0.0
  9
$PUCSBASE
  2

  9
$PUCSNAME
  2

  9
$PUCSORG
 10
0.0
 20
0.0
 30
0.0
  9
$PUCSXDIR
 10
1.0
 20
0.0
 30
0.0
  9
$PUCSYDIR
 10
0.0
 20
1.0
 30
0.0
  9
$PUCSORTHOREF
  2

  9
$PUCSORTHOVIEW
 70
     0
  9
$PUCSORGTOP
 10
0.0
 20
0.0
 30
0.0
  9
$PUCSORGBOTTOM
 10
0.0
 20
0.0
 30
0.0
  9
$PUCSORGLEFT
 10
0.0
 20
0.0
 30
0.0
  9
$PUCSORGRIGHT
 10
0.0
 20
0.0
 30
0.0
  9
$PUCSORGFRONT
 10
0.0
 20
0.0
 30
0.0
  9
$PUCSORGBACK
 10
0.0
 20
0.0
 30
0.0
  9
$USERI1
 70
     0
  9
$USERI2
 70
     0
  9
$USERI3
 70
     0
  9
$USERI4
 70
     0
  9
$USERI5
 70
     0
  9
$USERR1
 40
0.0
  9
$USERR2
 40
0.0
  9
$USERR3
 40
0.0
  9
$USERR4
 40
0.0
  9
$USERR5
 40
0.0
  9
$WORLDVIEW
 70
     1
  9
$SHADEDGE
 70
     3
  9
$SHADEDIF
 70
    70
  9
$TILEMODE
 70
     1
  9
$MAXACTVP
 70
    64
  9
$PINSBASE
 10
0.0
 20
0.0
 30
0.0
  9
$PLIMCHECK
 70
     0
  9
$PEXTMIN
 10
1.000000000000000E+20
 20
1.000000000000000E+20
 30
1.000000000000000E+20
  9
$PEXTMAX
 10
-1.000000000000000E+20
 20
-1.000000000000000E+20
 30
-1.000000000000000E+20
  9
$PLIMMIN
 10
0.0
 20
0.0
  9
$PLIMMAX
 10
0.0
 20
0.0
  9
$UNITMODE
 70
     0
  9
$VISRETAIN
 70
     1
  9
$PLINEGEN
 70
     0
  9
$PSLTSCALE
 70
     1
  9
$TREEDEPTH
 70
  3020
  9
$CMLSTYLE
  2
Standard
  9
$CMLJUST
 70
     0
  9
$CMLSCALE
 40
20.0
  9
$PROXYGRAPHICS
 70
     1
  9
$MEASUREMENT
 70
     1
  9
$CELWEIGHT
370
    -1
  9
$ENDCAPS
280
     0
  9
$JOINSTYLE
280
     0
  9
$LWDISPLAY
290
     1
  9
$INSUNITS
 70
     4
  9
$HYPERLINKBASE
  1

  9
$STYLESHEET
  1

  9
$XEDIT
290
     1
  9
$CEPSNTYPE
380
     0
  9
$PSTYLEMODE
290
     1
  9
$FINGERPRINTGUID
  2
{4C6F0910-A600-43D5-8419-A1604DD3E08C}
  9
$VERSIONGUID
  2
{FAEB1C32-E019-11D5-929B-00C0DF256EC4}
  9
$EXTNAMES
290
     1
  9
$PSVPSCALE
 40
0.0
  9
$OLESTARTUP
290
     0
  0
ENDSEC
  0
SECTION
  2
CLASSES
  0
CLASS
  1
ACDBDICTIONARYWDFLT
  2
AcDbDictionaryWithDefault
  3
ObjectDBX Classes
 90
        0
280
     0
281
     0
  0
CLASS
  1
VISUALSTYLE
  2
AcDbVisualStyle
  3
ObjectDBX Classes
 90
     4095
280
     0
281
     0
  0
CLASS
  1
MATERIAL
  2
AcDbMaterial
  3
ObjectDBX Classes
 90
     1153
280
     0
281
     0
  0
CLASS
  1
SCALE
  2
AcDbScale
  3
ObjectDBX Classes
 90
     1153
280
     0
281
     0
  0
CLASS
  1
SUN
  2
AcDbSun
  3
SCENEOE
 90
     1153
280
     0
281
     0
  0
CLASS
  1
ACDBPLACEHOLDER
  2
AcDbPlaceHolder
  3
ObjectDBX Classes
 90
        0
280
     0
281
     0
  0
CLASS
  1
LAYOUT
  2
AcDbLayout
  3
ObjectDBX Classes
 90
        0
280
     0
281
     0
  0
CLASS
  1
TABLESTYLE
  2
AcDbTableStyle
  3
ObjectDBX Classes
 90
     4095
280
     0
281
     0
  0
CLASS
  1
MLEADERSTYLE
  2
AcDbMLeaderStyle
  3
ACDB_MLEADERSTYLE_CLASS
 90
     4095
280
     0
281
     0
  0
CLASS
  1
RASTERVARIABLES
  2
AcDbRasterVariables
  3
ISM
 90
        0
280
     0
281
     0
  0
ENDSEC
  0
SECTION
  2
TABLES
  0
TABLE
  2
VPORT
  5
8
330
0
100
AcDbSymbolTable
 70
     1
  0
VPORT
  5
29
330
8
100
AcDbSymbolTableRecord
100
AcDbViewportTableRecord
  2
*Active
 70
     0
 10
0.0
 20
0.0
 11
1.0
 21
1.0
 12
-10.20052449191783
 22
-10.67866100992259
 13
0.0
 23
0.0
 14
10.0
 24
10.0
 15
10.0
 25
10.0
 16
0.0
 26
0.0
 36
1.0
 17
0.0
 27
0.0
 37
0.0
 40
83.38410261161623
 41
1.152454780361757
 42
50.0
 43
0.0
 44
0.0
 50
0.0
 51
0.0
 71
    16
 72
  2000
 73
     1
 74
     3
 75
     0
 76
     0
 77
     0
 78
     0
281
     0
 65
     1
110
0.0
120
0.0
130
0.0
111
1.0
121
0.0
131
0.0
112
0.0
122
1.0
132
0.0
 79
     0
146
0.0
  0
ENDTAB
  0
TABLE
  2
LTYPE
  5
5
330
0
100
AcDbSymbolTable
 70
     6
  0
LTYPE
  5
14
330
5
100
AcDbSymbolTableRecord
100
AcDbLinetypeTableRecord
  2
ByBlock
 70
     0
  3

 72
    65
 73
     0
 40
0.0
  0
LTYPE
  5
15
330
5
100
AcDbSymbolTableRecord
100
AcDbLinetypeTableRecord
  2
ByLayer
 70
     0
  3

 72
    65
 73
     0
 40
0.0
  0
LTYPE
  5
16
330
5
100
AcDbSymbolTableRecord
100
AcDbLinetypeTableRecord
  2
Continuous
 70
     0
  3
Solid line
 72
    65
 73
     0
 40
0.0
  0
LTYPE
  5
6A
330
5
100
AcDbSymbolTableRecord
100
AcDbLinetypeTableRecord
  2
HIDDEN
 70
     0
  3
Hidden __ __ __ __ __ __ __ __ __ __ __ __ __ __
 72
    65
 73
     2
 40
1.905
 49
1.27
 74
     0
 49
-0.635
 74
     0
  0
LTYPE
  5
6B
330
5
100
AcDbSymbolTableRecord
100
AcDbLinetypeTableRecord
  2
PHANTOM
 70
     0
  3
Phantom ______  __  __  ______  __  __  ______
 72
    65
 73
     6
 40
12.7
 49
6.35
 74
     0
 49
-1.27
 74
     0
 49
1.27
 74
     0
 49
-1.27
 74
     0
 49
1.27
 74
     0
 49
-1.27
 74
     0
  0
LTYPE
  5
6C
330
5
100
AcDbSymbolTableRecord
100
AcDbLinetypeTableRecord
  2
CENTER
 70
     0
  3
Center ____ _ ____ _ ____ _ ____ _ ____ _ ____
 72
    65
 73
     4
 40
10.16
 49
6.35
 74
     0
 49
-1.27
 74
     0
 49
1.27
 74
     0
 49
-1.27
 74
     0
  0
LTYPE
  5
6D
330
5
100
AcDbSymbolTableRecord
100
AcDbLinetypeTableRecord
  2
CENTERX2
 70
     0
  3
Center (2x) ________  __  ________  __  _____
 72
    65
 73
     4
 40
20.32
 49
12.7
 74
     0
 49
-2.54
 74
     0
 49
2.54
 74
     0
 49
-2.54
 74
     0
  0
LTYPE
  5
6E
330
5
100
AcDbSymbolTableRecord
100
AcDbLinetypeTableRecord
  2
DOT2
 70
     0
  3
Dot (.5x) ........................................
 72
    65
 73
     2
 40
0.635
 49
0.0
 74
     0
 49
-0.635
 74
     0
  0
ENDTAB
  0
TABLE
  2
LAYER
  5
2
330
0
100
AcDbSymbolTable
 70
    17
  0
LAYER
  5
10
330
2
100
AcDbSymbolTableRecord
100
AcDbLayerTableRecord
  2
0
 70
     0
 62
     7
  6
Continuous
370
    -3
390
F
  0
LAYER
  5
6F
330
2
100
AcDbSymbolTableRecord
100
AcDbLayerTableRecord
  2
FORMAT
 70
     0
 62
     2
  6
Continuous
370
    -3
390
F
  0
LAYER
  5
70
330
2
100
AcDbSymbolTableRecord
100
AcDbLayerTableRecord
  2
외형선
 70
     0
 62
   100
  6
Continuous
370
    30
390
F
  0
LAYER
  5
71
330
2
100
AcDbSymbolTableRecord
100
AcDbLayerTableRecord
  2
숨은선
 70
     0
 62
     2
  6
HIDDEN
370
    15
390
F
  0
LAYER
  5
72
330
2
100
AcDbSymbolTableRecord
100
AcDbLayerTableRecord
  2
중심선
 70
     0
 62
     1
  6
CENTERX2
370
    -3
390
F
  0
LAYER
  5
73
330
2
100
AcDbSymbolTableRecord
100
AcDbLayerTableRecord
  2
파단선
 70
     0
 62
     4
  6
Continuous
370
    -3
390
F
  0
LAYER
  5
74
330
2
100
AcDbSymbolTableRecord
100
AcDbLayerTableRecord
  2
해칭선
 70
     0
 62
     4
  6
Continuous
370
    -3
390
F
  0
LAYER
  5
75
330
2
100
AcDbSymbolTableRecord
100
AcDbLayerTableRecord
  2
가는실선
 70
     0
 62
     4
  6
Continuous
370
    -3
390
F
  0
LAYER
  5
76
330
2
100
AcDbSymbolTableRecord
100
AcDbLayerTableRecord
  2
치수_보조선
 70
     0
 62
     4
  6
Continuous
370
    -3
390
F
  0
LAYER
  5
77
330
2
100
AcDbSymbolTableRecord
100
AcDbLayerTableRecord
  2
치수문자_일반주서
 70
     0
 62
     7
  6
Continuous
370
    15
390
F
  0
LAYER
  5
78
330
2
100
AcDbSymbolTableRecord
100
AcDbLayerTableRecord
  2
개별주서
 70
     0
 62
   100
  6
Continuous
370
    30
390
F
  0
LAYER
  5
79
330
2
100
AcDbSymbolTableRecord
100
AcDbLayerTableRecord
  2
중간선
 70
     0
 62
     2
  6
Continuous
370
    15
390
F
  0
LAYER
  5
7A
330
2
100
AcDbSymbolTableRecord
100
AcDbLayerTableRecord
  2
윤곽선
 70
     0
 62
     3
  6
Continuous
370
    40
390
F
  0
LAYER
  5
7B
330
2
100
AcDbSymbolTableRecord
100
AcDbLayerTableRecord
  2
중심마크
 70
     0
 62
   100
  6
Continuous
370
    30
390
F
  0
LAYER
  5
7C
330
2
100
AcDbSymbolTableRecord
100
AcDbLayerTableRecord
  2
가상선
 70
     0
 62
     4
  6
PHANTOM
370
    -3
390
F
  0
LAYER
  5
7D
330
2
100
AcDbSymbolTableRecord
100
AcDbLayerTableRecord
  2
특수지정선
 70
     0
 62
     5
  6
CENTERX2
370
    60
390
F
  0
LAYER
  5
146
330
2
100
AcDbSymbolTableRecord
100
AcDbLayerTableRecord
  2
Defpoints
 70
     0
 62
     7
  6
Continuous
290
     0
370
    -3
390
F
  0
ENDTAB
  0
TABLE
  2
STYLE
  5
3
330
0
100
AcDbSymbolTable
 70
     2
  0
STYLE
  5
11
330
3
100
AcDbSymbolTableRecord
100
AcDbTextStyleTableRecord
  2
Standard
 70
     0
 40
0.0
 41
1.0
 50
0.0
 71
     0
 42
3.5
  3
txt
  4

  0
STYLE
  5
93
330
3
100
AcDbSymbolTableRecord
100
AcDbTextStyleTableRecord
  2
SLDTEXTSTYLE0
 70
     0
 40
0.0
 41
0.75
 50
0.0
 71
     0
 42
3.5
  3
TXT
  4

  0
ENDTAB
  0
TABLE
  2
VIEW
  5
6
330
0
100
AcDbSymbolTable
 70
     0
  0
ENDTAB
  0
TABLE
  2
UCS
  5
7
330
0
100
AcDbSymbolTable
 70
     0
  0
ENDTAB
  0
TABLE
  2
APPID
  5
9
330
0
100
AcDbSymbolTable
 70
     1
  0
APPID
  5
12
330
9
100
AcDbSymbolTableRecord
100
AcDbRegAppTableRecord
  2
ACAD
 70
     0
  0
ENDTAB
  0
TABLE
  2
DIMSTYLE
  5
A
330
0
100
AcDbSymbolTable
 70
     3
100
AcDbDimStyleTable
  0
DIMSTYLE
105
27
330
A
100
AcDbSymbolTableRecord
100
AcDbDimStyleTableRecord
  2
ISO-25
 70
     0
 41
2.5
 42
0.625
 43
3.75
 44
1.25
 73
     0
 74
     0
 77
     1
 78
     8
140
2.5
141
2.5
143
0.03937007874016
147
0.625
171
     3
172
     1
178
     0
271
     2
272
     2
274
     3
278
    44
283
     0
284
     8
340
11
  0
DIMSTYLE
105
EC
102
{ACAD_REACTORS
330
EB
330
104
330
10E
102
}
330
A
100
AcDbSymbolTableRecord
100
AcDbDimStyleTableRecord
  2
SLDDIMSTYLE0
 70
     0
 41
3.302
 44
0.0
 45
0.000000001
 73
     0
 74
     0
 77
     1
 78
    12
 79
     3
140
3.5
147
0.875
172
     1
173
     1
178
     0
271
     2
272
     2
276
     2
284
    12
289
     0
340
93
  0
DIMSTYLE
105
FA
102
{ACAD_REACTORS
330
F9
102
}
330
A
100
AcDbSymbolTableRecord
100
AcDbDimStyleTableRecord
  2
SLDDIMSTYLE1
 70
     0
 41
3.302
 44
0.0
 45
0.000000001
 73
     0
 74
     0
 77
     1
 78
    12
 79
     3
140
3.5
147
0.875
173
     1
178
     0
271
     2
272
     2
276
     2
284
    12
340
93
  0
ENDTAB
  0
TABLE
  2
BLOCK_RECORD
  5
1
330
0
100
AcDbSymbolTable
 70
     7
  0
BLOCK_RECORD
  5
1F
330
1
100
AcDbSymbolTableRecord
100
AcDbBlockTableRecord
  2
*Model_Space
340
22
  0
BLOCK_RECORD
  5
1B
330
1
100
AcDbSymbolTableRecord
100
AcDbBlockTableRecord
  2
*Paper_Space
340
1E
  0
BLOCK_RECORD
  5
23
330
1
100
AcDbSymbolTableRecord
100
AcDbBlockTableRecord
  2
*Paper_Space0
340
26
  0
BLOCK_RECORD
  5
7E
330
1
100
AcDbSymbolTableRecord
100
AcDbBlockTableRecord
  2
블럭10
340
0
102
{BLKREFS
331
E4
102
}
  0
BLOCK_RECORD
  5
ED
330
1
100
AcDbSymbolTableRecord
100
AcDbBlockTableRecord
  2
_D
340
0
  0
BLOCK_RECORD
  5
FB
330
1
100
AcDbSymbolTableRecord
100
AcDbBlockTableRecord
  2
_D_1
340
0
  0
BLOCK_RECORD
  5
105
330
1
100
AcDbSymbolTableRecord
100
AcDbBlockTableRecord
  2
_D_2
340
0
  0
BLOCK_RECORD
  5
10F
330
1
100
AcDbSymbolTableRecord
100
AcDbBlockTableRecord
  2
_D_3
340
0
  0
BLOCK_RECORD
  5
11B
330
1
100
AcDbSymbolTableRecord
100
AcDbBlockTableRecord
  2
SW_DOWELSYMBOL_0
340
0
102
{BLKREFS
331
121
102
}
  0
ENDTAB
  0
ENDSEC
  0
SECTION
  2
BLOCKS
  0
BLOCK
  5
20
330
1F
100
AcDbEntity
  8
0
100
AcDbBlockBegin
  2
*Model_Space
 70
     0
 10
0.0
 20
0.0
 30
0.0
  3
*Model_Space
  1

  0
ENDBLK
  5
21
330
1F
100
AcDbEntity
  8
0
100
AcDbBlockEnd
  0
BLOCK
  5
1C
330
1B
100
AcDbEntity
 67
     1
  8
0
100
AcDbBlockBegin
  2
*Paper_Space
 70
     0
 10
0.0
 20
0.0
 30
0.0
  3
*Paper_Space
  1

  0
ENDBLK
  5
1D
330
1B
100
AcDbEntity
 67
     1
  8
0
100
AcDbBlockEnd
  0
BLOCK
  5
24
330
23
100
AcDbEntity
  8
0
100
AcDbBlockBegin
  2
*Paper_Space0
 70
     0
 10
0.0
 20
0.0
 30
0.0
  3
*Paper_Space0
  1

  0
ENDBLK
  5
25
330
23
100
AcDbEntity
  8
0
100
AcDbBlockEnd
  0
BLOCK
  5
7F
330
7E
100
AcDbEntity
  8
0
100
AcDbBlockBegin
  2
블럭10
 70
     2
 10
0.0
 20
0.0
 30
0.0
  3
블럭10
  1

  0
ELLIPSE
  5
81
330
7E
100
AcDbEntity
  8
중심선
100
AcDbEllipse
 10
20.54032771741204
 20
12.0471743016438
 30
0.0
 11
6.600054785286829
 21
-1.261213355974178E-13
 31
0.0
210
0.0
220
0.0
230
1.0
 40
0.636358354079598
 41
0.9219305317359503
 42
6.513795318482858
  0
ELLIPSE
  5
82
330
7E
100
AcDbEntity
  8
중심선
100
AcDbEllipse
 10
20.54032771746488
 20
12.04717430159265
 30
0.0
 11
3.960054785062283
 21
1.540847449632565E-10
 31
0.0
210
0.0
220
0.0
230
1.0
 40
0.3939339440162632
 41
1.131841032648279
 42
5.62031148352944
  0
LINE
  5
83
330
7E
100
AcDbEntity
  8
중심선
100
AcDbLine
 10
2.268634060543552
 20
16.24717430164393
 30
0.0
 11
5.714909304380834
 21
16.24717430164393
 31
0.0
  0
LINE
  5
84
330
7E
100
AcDbEntity
  8
중심선
100
AcDbLine
 10
5.245725140726316
 20
7.84717430164391
 30
0.0
 11
8.692000384563599
 21
7.84717430164391
 31
0.0
  0
LINE
  5
85
330
7E
100
AcDbEntity
  8
중심선
100
AcDbLine
 10
15.74043728645272
 20
16.24717430164393
 30
0.0
 11
8.692000384563599
 21
7.84717430164391
 31
0.0
  0
LINE
  5
86
330
7E
100
AcDbEntity
  8
중심선
100
AcDbLine
 10
0.1404042013395286
 20
13.71084872107135
 30
0.0
 11
3.58671253028996
 21
13.71088815037384
 31
0.0
  0
LINE
  5
87
330
7E
100
AcDbEntity
  8
중심선
100
AcDbLine
 10
2.750260043222114
 20
10.84717430164391
 30
0.0
 11
6.196535287059397
 21
10.84717430164391
 31
0.0
  0
LINE
  5
88
330
7E
100
AcDbEntity
  8
중심선
100
AcDbLine
 10
12.29416204261559
 20
16.24717430164393
 30
0.0
 11
5.245725140726316
 21
7.84717430164391
 31
0.0
  0
LINE
  5
89
330
7E
100
AcDbEntity
  8
중심선
100
AcDbLine
 10
10.72767329541681
 20
16.24717430164393
 30
0.0
 11
6.196535287059397
 21
10.84717430164391
 31
0.0
  0
LINE
  5
8A
330
7E
100
AcDbEntity
  8
중심선
100
AcDbLine
 10
7.28139805157953
 20
16.24717430164393
 30
0.0
 11
2.750260043222114
 21
10.84717430164391
 31
0.0
  0
LINE
  5
8B
330
7E
100
AcDbEntity
  8
중심선
100
AcDbLine
 10
5.714909304380834
 20
16.24717430164393
 30
0.0
 11
3.58671253028996
 21
13.71088815037384
 31
0.0
  0
LINE
  5
8C
330
7E
100
AcDbEntity
  8
중심선
100
AcDbLine
 10
2.268634060543552
 20
16.24717430164393
 30
0.0
 11
0.1404042013395286
 21
13.71084872107135
 31
0.0
  0
LINE
  5
8D
330
7E
100
AcDbEntity
  8
중심선
100
AcDbLine
 10
7.28139805157953
 20
16.24717430164393
 30
0.0
 11
10.72767329541681
 21
16.24717430164393
 31
0.0
  0
LINE
  5
8E
330
7E
100
AcDbEntity
  8
중심선
100
AcDbLine
 10
12.29416204261559
 20
16.24717430164393
 30
0.0
 11
15.74043728645272
 21
16.24717430164393
 31
0.0
  0
LINE
  5
8F
330
7E
100
AcDbEntity
  8
중심선
100
AcDbLine
 10
19.22036997980202
 20
11.08717430171403
 30
0.0
 11
23.66174974927406
 21
11.08717430171406
 31
0.0
  0
LINE
  5
90
330
7E
100
AcDbEntity
  8
중심선
100
AcDbLine
 10
19.22039502424796
 20
13.00717430171391
 30
0.0
 11
19.22036997980202
 21
11.08717430171403
 31
0.0
  0
LINE
  5
91
330
7E
100
AcDbEntity
  8
중심선
100
AcDbLine
 10
19.22039502424796
 20
13.00717430171391
 30
0.0
 11
26.96566020931264
 21
13.00717430171391
 31
0.0
  0
LINE
  5
92
330
7E
100
AcDbEntity
  8
중심선
100
AcDbLine
 10
22.22332737316547
 20
13.45928029700563
 30
0.0
 11
24.52862924686651
 21
15.39360700705356
 31
0.0
  0
ATTDEF
  5
94
330
7E
100
AcDbEntity
  8
FORMAT
 62
     2
100
AcDbText
 10
-16.11926103943555
 20
2.075366912832191
 30
0.0
 40
4.233333333333333
  1
SEME7003020E [ 2 FLUTE ]
 41
0.75
  7
SLDTEXTSTYLE0
 11
-16.11926103943555
 21
-0.0412997538344756
 31
0.0
100
AcDbAttributeDefinition
  3

  2
AUTOATTR0
 70
     0
 74
     1
  0
ENDBLK
  5
80
330
7E
100
AcDbEntity
  8
0
100
AcDbBlockEnd
  0
BLOCK
  5
EE
330
ED
100
AcDbEntity
  8
0
100
AcDbBlockBegin
  2
_D
 70
     0
 10
0.0
 20
0.0
 30
0.0
  3
_D
  1

  0
LINE
  5
F0
330
ED
100
AcDbEntity
  8
치수문자_일반주서
 62
     0
370
    -2
100
AcDbLine
 10
28.66057621135331
 20
-1.499999999999922
 30
0.0
 11
36.3552243614804
 21
-1.499999999999893
 31
0.0
  0
LINE
  5
F1
330
ED
100
AcDbEntity
  8
치수문자_일반주서
 62
     0
370
    -2
100
AcDbLine
 10
28.66057621135331
 20
1.500000000000071
 30
0.0
 11
36.35522436148039
 21
1.500000000000099
 31
0.0
  0
LINE
  5
F2
330
ED
100
AcDbEntity
  8
치수문자_일반주서
 62
     0
370
    -2
100
AcDbLine
 10
36.3552243614804
 20
-1.499999999999893
 30
0.0
 11
36.35522436148036
 21
14.2290000000001
 31
0.0
  0
LINE
  5
F3
330
ED
100
AcDbEntity
  8
치수문자_일반주서
 62
     0
370
    -2
100
AcDbLine
 10
36.3552243614804
 20
-1.499999999999893
 30
0.0
 11
36.35522436148039
 21
1.500000000000099
 31
0.0
  0
LINE
  5
F4
330
ED
100
AcDbEntity
  8
치수문자_일반주서
 62
     0
370
    -2
100
AcDbLine
 10
36.3552243614804
 20
-4.801999999999893
 30
0.0
 11
36.35522436148041
 21
-8.103999999999893
 31
0.0
  0
LINE
  5
F5
330
ED
100
AcDbEntity
  8
치수문자_일반주서
 62
     0
370
    -2
100
AcDbLine
 10
36.35522436148038
 20
4.802000000000099
 30
0.0
 11
36.35522436148037
 21
8.104000000000099
 31
0.0
  0
SOLID
  5
F6
330
ED
100
AcDbEntity
  8
치수문자_일반주서
 62
     0
100
AcDbTrace
 10
36.90555769481374
 20
-4.801999999999892
 30
0.0
 11
35.80489102814707
 21
-4.801999999999894
 31
0.0
 12
36.3552243614804
 22
-1.499999999999893
 32
0.0
 13
36.3552243614804
 23
-1.499999999999893
 33
0.0
  0
SOLID
  5
F7
330
ED
100
AcDbEntity
  8
치수문자_일반주서
 62
     0
100
AcDbTrace
 10
35.80489102814705
 20
4.802000000000098
 30
0.0
 11
36.90555769481372
 21
4.8020000000001
 31
0.0
 12
36.35522436148039
 22
1.500000000000099
 32
0.0
 13
36.35522436148039
 23
1.500000000000099
 33
0.0
  0
MTEXT
  5
F8
330
ED
100
AcDbEntity
  8
치수문자_일반주서
 62
     0
100
AcDbMText
 10
31.98022436148037
 20
11.16650000000009
 30
0.0
 40
3.5
 41
0.0
 71
     2
 72
     1
  1
\A1;%%c3
  7
SLDTEXTSTYLE0
 11
-2.368475785867006E-15
 21
1.0
 31
0.0
 73
     1
 44
1.0
  0
POINT
  5
14D
330
ED
100
AcDbEntity
  8
Defpoints
 62
     0
100
AcDbPoint
 10
28.59807621135331
 20
-1.499999999999923
 30
0.0
  0
POINT
  5
14E
330
ED
100
AcDbEntity
  8
Defpoints
 62
     0
100
AcDbPoint
 10
28.59807621135331
 20
1.500000000000071
 30
0.0
  0
POINT
  5
14F
330
ED
100
AcDbEntity
  8
Defpoints
 62
     0
100
AcDbPoint
 10
36.35522436148039
 20
1.5000000000001
 30
0.0
  0
ENDBLK
  5
EF
330
ED
100
AcDbEntity
  8
0
100
AcDbBlockEnd
  0
BLOCK
  5
FC
330
FB
100
AcDbEntity
  8
0
100
AcDbBlockBegin
  2
_D_1
 70
     0
 10
0.0
 20
0.0
 30
0.0
  3
_D_1
  1

  0
LINE
  5
FE
330
FB
100
AcDbEntity
  8
치수문자_일반주서
 62
     0
370
    -2
100
AcDbLine
 10
-41.4019237886467
 20
2.512499999999994
 30
0.0
 11
-41.4019237886467
 21
24.23841044024269
 31
0.0
  0
LINE
  5
FF
330
FB
100
AcDbEntity
  8
치수문자_일반주서
 62
     0
370
    -2
100
AcDbLine
 10
28.59807621135331
 20
1.562500000000071
 30
0.0
 11
28.59807621135331
 21
24.23841044024269
 31
0.0
  0
LINE
  5
100
330
FB
100
AcDbEntity
  8
치수문자_일반주서
 62
     0
370
    -2
100
AcDbLine
 10
-38.0999237886467
 20
24.23841044024269
 30
0.0
 11
25.29607621135331
 21
24.23841044024269
 31
0.0
  0
SOLID
  5
101
330
FB
100
AcDbEntity
  8
치수문자_일반주서
 62
     0
100
AcDbTrace
 10
-38.0999237886467
 20
24.78874377357602
 30
0.0
 11
-38.0999237886467
 21
23.68807710690935
 31
0.0
 12
-41.4019237886467
 22
24.23841044024269
 32
0.0
 13
-41.4019237886467
 23
24.23841044024269
 33
0.0
  0
SOLID
  5
102
330
FB
100
AcDbEntity
  8
치수문자_일반주서
 62
     0
100
AcDbTrace
 10
25.29607621135331
 20
23.68807710690935
 30
0.0
 11
25.29607621135331
 21
24.78874377357602
 31
0.0
 12
28.59807621135331
 22
24.23841044024269
 32
0.0
 13
28.59807621135331
 23
24.23841044024269
 33
0.0
  0
MTEXT
  5
103
330
FB
100
AcDbEntity
  8
치수문자_일반주서
 62
     0
100
AcDbMText
 10
-6.401923788646693
 20
28.61341044024269
 30
0.0
 40
3.5
 41
0.0
 71
     2
 72
     1
  1
\A1;70
  7
SLDTEXTSTYLE0
 73
     1
 44
1.0
  0
POINT
  5
147
330
FB
100
AcDbEntity
  8
Defpoints
 62
     0
100
AcDbPoint
 10
-41.4019237886467
 20
2.449999999999994
 30
0.0
  0
POINT
  5
148
330
FB
100
AcDbEntity
  8
Defpoints
 62
     0
100
AcDbPoint
 10
28.59807621135331
 20
1.500000000000071
 30
0.0
  0
POINT
  5
149
330
FB
100
AcDbEntity
  8
Defpoints
 62
     0
100
AcDbPoint
 10
28.59807621135331
 20
24.23841044024269
 30
0.0
  0
ENDBLK
  5
FD
330
FB
100
AcDbEntity
  8
0
100
AcDbBlockEnd
  0
BLOCK
  5
106
330
105
100
AcDbEntity
  8
0
100
AcDbBlockBegin
  2
_D_2
 70
     0
 10
0.0
 20
0.0
 30
0.0
  3
_D_2
  1

  0
LINE
  5
108
330
105
100
AcDbEntity
  8
치수문자_일반주서
 62
     0
370
    -2
100
AcDbLine
 10
8.59807621135326
 20
1.247962067568503
 30
0.0
 11
8.59807621135326
 21
14.53245987373603
 31
0.0
  0
LINE
  5
109
330
105
100
AcDbEntity
  8
치수문자_일반주서
 62
     0
370
    -2
100
AcDbLine
 10
28.59807621135331
 20
1.562500000000071
 30
0.0
 11
28.59807621135331
 21
14.53245987373603
 31
0.0
  0
LINE
  5
10A
330
105
100
AcDbEntity
  8
치수문자_일반주서
 62
     0
370
    -2
100
AcDbLine
 10
11.90007621135326
 20
14.53245987373603
 30
0.0
 11
25.29607621135331
 21
14.53245987373603
 31
0.0
  0
SOLID
  5
10B
330
105
100
AcDbEntity
  8
치수문자_일반주서
 62
     0
100
AcDbTrace
 10
11.90007621135326
 20
15.08279320706936
 30
0.0
 11
11.90007621135326
 21
13.98212654040269
 31
0.0
 12
8.59807621135326
 22
14.53245987373603
 32
0.0
 13
8.59807621135326
 23
14.53245987373603
 33
0.0
  0
SOLID
  5
10C
330
105
100
AcDbEntity
  8
치수문자_일반주서
 62
     0
100
AcDbTrace
 10
25.29607621135331
 20
13.98212654040269
 30
0.0
 11
25.29607621135331
 21
15.08279320706936
 31
0.0
 12
28.59807621135331
 22
14.53245987373603
 32
0.0
 13
28.59807621135331
 23
14.53245987373603
 33
0.0
  0
MTEXT
  5
10D
330
105
100
AcDbEntity
  8
치수문자_일반주서
 62
     0
100
AcDbMText
 10
18.59807621135329
 20
18.90745987373602
 30
0.0
 40
3.5
 41
0.0
 71
     2
 72
     1
  1
\A1;20
  7
SLDTEXTSTYLE0
 73
     1
 44
1.0
  0
POINT
  5
14A
330
105
100
AcDbEntity
  8
Defpoints
 62
     0
100
AcDbPoint
 10
8.59807621135326
 20
1.185462067568503
 30
0.0
  0
POINT
  5
14B
330
105
100
AcDbEntity
  8
Defpoints
 62
     0
100
AcDbPoint
 10
28.59807621135331
 20
1.500000000000071
 30
0.0
  0
POINT
  5
14C
330
105
100
AcDbEntity
  8
Defpoints
 62
     0
100
AcDbPoint
 10
28.59807621135331
 20
14.53245987373603
 30
0.0
  0
ENDBLK
  5
107
330
105
100
AcDbEntity
  8
0
100
AcDbBlockEnd
  0
BLOCK
  5
110
330
10F
100
AcDbEntity
  8
0
100
AcDbBlockBegin
  2
_D_3
 70
     0
 10
0.0
 20
0.0
 30
0.0
  3
_D_3
  1

  0
LINE
  5
112
330
10F
100
AcDbEntity
  8
치수문자_일반주서
 62
     0
370
    -2
100
AcDbLine
 10
-40.9144237886467
 20
2.999999999999994
 30
0.0
 11
-52.93160667864936
 21
2.999999999999948
 31
0.0
  0
LINE
  5
113
330
10F
100
AcDbEntity
  8
치수문자_일반주서
 62
     0
370
    -2
100
AcDbLine
 10
-40.9144237886467
 20
-3.0
 30
0.0
 11
-52.93160667864934
 21
-3.000000000000046
 31
0.0
  0
LINE
  5
114
330
10F
100
AcDbEntity
  8
치수문자_일반주서
 62
     0
370
    -2
100
AcDbLine
 10
-52.93160667864936
 20
2.999999999999948
 30
0.0
 11
-52.93160667864941
 21
15.72899999999995
 31
0.0
  0
LINE
  5
115
330
10F
100
AcDbEntity
  8
치수문자_일반주서
 62
     0
370
    -2
100
AcDbLine
 10
-52.93160667864936
 20
2.999999999999948
 30
0.0
 11
-52.93160667864934
 21
-3.000000000000046
 31
0.0
  0
LINE
  5
116
330
10F
100
AcDbEntity
  8
치수문자_일반주서
 62
     0
370
    -2
100
AcDbLine
 10
-52.93160667864937
 20
6.301999999999948
 30
0.0
 11
-52.93160667864939
 21
9.603999999999948
 31
0.0
  0
LINE
  5
117
330
10F
100
AcDbEntity
  8
치수문자_일반주서
 62
     0
370
    -2
100
AcDbLine
 10
-52.93160667864932
 20
-6.302000000000046
 30
0.0
 11
-52.93160667864931
 21
-9.604000000000045
 31
0.0
  0
SOLID
  5
118
330
10F
100
AcDbEntity
  8
치수문자_일반주서
 62
     0
100
AcDbTrace
 10
-53.48194001198271
 20
6.301999999999946
 30
0.0
 11
-52.38127334531604
 21
6.30199999999995
 31
0.0
 12
-52.93160667864936
 22
2.999999999999948
 32
0.0
 13
-52.93160667864936
 23
2.999999999999948
 33
0.0
  0
SOLID
  5
119
330
10F
100
AcDbEntity
  8
치수문자_일반주서
 62
     0
100
AcDbTrace
 10
-52.38127334531599
 20
-6.302000000000044
 30
0.0
 11
-53.48194001198266
 21
-6.302000000000048
 31
0.0
 12
-52.93160667864934
 22
-3.000000000000046
 32
0.0
 13
-52.93160667864934
 23
-3.000000000000046
 33
0.0
  0
MTEXT
  5
11A
330
10F
100
AcDbEntity
  8
치수문자_일반주서
 62
     0
100
AcDbMText
 10
-57.30660667864939
 20
12.66649999999993
 30
0.0
 40
3.5
 41
0.0
 71
     2
 72
     1
  1
\A1;%%c6
  7
SLDTEXTSTYLE0
 11
-3.552713678800505E-15
 21
1.0
 31
0.0
 73
     1
 44
1.0
  0
POINT
  5
150
330
10F
100
AcDbEntity
  8
Defpoints
 62
     0
100
AcDbPoint
 10
-40.8519237886467
 20
2.999999999999995
 30
0.0
  0
POINT
  5
151
330
10F
100
AcDbEntity
  8
Defpoints
 62
     0
100
AcDbPoint
 10
-40.8519237886467
 20
-3.0
 30
0.0
  0
POINT
  5
152
330
10F
100
AcDbEntity
  8
Defpoints
 62
     0
100
AcDbPoint
 10
-52.93160667864934
 20
-3.000000000000045
 30
0.0
  0
ENDBLK
  5
111
330
10F
100
AcDbEntity
  8
0
100
AcDbBlockEnd
  0
BLOCK
  5
11C
330
11B
100
AcDbEntity
  8
0
100
AcDbBlockBegin
  2
SW_DOWELSYMBOL_0
 70
     0
 10
0.0
 20
0.0
 30
0.0
  3
SW_DOWELSYMBOL_0
  1

  0
CIRCLE
  5
11E
330
11B
100
AcDbEntity
  8
외형선
 62
     0
100
AcDbCircle
 10
0.0
 20
0.0
 30
0.0
 40
3.000000000000004
  0
HATCH
  5
11F
330
11B
100
AcDbEntity
  8
0
  6
Continuous
 62
     0
370
    30
100
AcDbHatch
 10
0.0
 20
0.0
 30
0.0
210
0.0
220
0.0
230
1.0
  2
SOLID
 70
     1
 71
     0
 91
        1
 92
        0
 93
        3
 72
     2
 10
0.0000000000000104
 20
0.0
 40
3.000000000000004
 50
0.0
 51
90.0
 73
     1
 72
     1
 10
0.0000000000000104
 20
3.000000000000004
 11
0.0000000000000104
 21
0.0
 72
     1
 10
0.0000000000000104
 20
0.0
 11
3.000000000000015
 21
0.0
 97
        0
 75
     0
 76
     1
 98
        1
 10
0.0
 20
0.0
  0
HATCH
  5
120
330
11B
100
AcDbEntity
  8
0
  6
Continuous
 62
     0
370
    30
100
AcDbHatch
 10
0.0
 20
0.0
 30
0.0
210
0.0
220
0.0
230
1.0
  2
SOLID
 70
     1
 71
     0
 91
        1
 92
        0
 93
        3
 72
     2
 10
0.0000000000000104
 20
0.0
 40
3.000000000000004
 50
180.0
 51
270.0000000000008
 73
     1
 72
     1
 10
0.0000000000000104
 20
-3.000000000000004
 11
0.0000000000000104
 21
0.0
 72
     1
 10
0.0000000000000104
 20
0.0
 11
-2.999999999999994
 21
0.0
 97
        0
 75
     0
 76
     1
 98
        1
 10
0.0
 20
0.0
  0
ENDBLK
  5
11D
330
11B
100
AcDbEntity
  8
0
100
AcDbBlockEnd
  0
ENDSEC
  0
SECTION
  2
ENTITIES
  0
LINE
  5
95
330
1F
100
AcDbEntity
  8
0
  6
Continuous
 62
     1
370
    15
100
AcDbLine
 10
16.16091785918148
 20
0.5780963017084105
 30
0.0
 11
16.13294536074211
 21
0.5924709379126206
 31
0.0
  0
SPLINE
  5
96
330
1F
100
AcDbEntity
  8
0
  6
Continuous
 62
     1
370
    15
100
AcDbSpline
210
0.0
220
0.0
230
1.0
 70
     8
 71
     3
 72
     9
 73
     5
 74
     0
 42
0.000000001
 43
0.00000001
 40
0.0
 40
0.0
 40
0.0
 40
0.0
 40
0.5358921449908878
 40
1.0
 40
1.0
 40
1.0
 40
1.0
 10
16.55095941677762
 20
0.3842159186429114
 30
0.0
 10
16.48125998156677
 20
0.4172625141541214
 30
0.0
 10
16.35119755041836
 20
0.4789290189165152
 30
0.0
 10
16.22123465828177
 20
0.5466612440067754
 30
0.0
 10
16.16091785918148
 20
0.5780963017084105
 30
0.0
  0
SPLINE
  5
97
330
1F
100
AcDbEntity
  8
0
  6
Continuous
 62
     1
370
    15
100
AcDbSpline
210
0.0
220
0.0
230
1.0
 70
     8
 71
     3
 72
     9
 73
     5
 74
     0
 42
0.000000001
 43
0.00000001
 40
0.0
 40
0.0
 40
0.0
 40
0.0
 40
0.5000238179413168
 40
1.0
 40
1.0
 40
1.0
 40
1.0
 10
24.71290547823336
 20
0.3842864530402444
 30
0.0
 10
24.64321097312222
 20
0.4173714190157624
 30
0.0
 10
24.5038286025022
 20
0.4835381990538305
 30
0.0
 10
24.36455301675136
 20
0.5562049469326604
 30
0.0
 10
24.29491854113366
 20
0.5925365900997389
 30
0.0
  0
LINE
  5
98
330
1F
100
AcDbEntity
  8
0
  6
Continuous
 62
     1
370
    15
100
AcDbLine
 10
15.75419065886892
 20
0.4048520888184394
 30
0.0
 11
15.70512660514622
 21
0.431182335507788
 31
0.0
  0
LINE
  5
99
330
1F
100
AcDbEntity
  8
0
  6
Continuous
 62
     1
370
    15
100
AcDbLine
 10
24.08919828102933
 20
0.3119972067875896
 30
0.0
 11
23.86711239170251
 21
0.4312438979470943
 31
0.0
  0
LINE
  5
9A
330
1F
100
AcDbEntity
  8
0
  6
Continuous
 62
     1
370
    15
100
AcDbLine
 10
20.54301379754026
 20
-1.500000000000001
 30
0.0
 11
21.26944986567517
 21
-1.500000000000001
 31
0.0
  0
LINE
  5
9B
330
1F
100
AcDbEntity
  8
0
  6
Continuous
 62
     1
370
    15
100
AcDbLine
 10
13.10771986366254
 20
1.500000000000002
 30
0.0
 11
12.38106624214756
 21
1.500000000000002
 31
0.0
  0
LINE
  5
9C
330
1F
100
AcDbEntity
  8
0
  6
Continuous
 62
     1
370
    15
100
AcDbLine
 10
12.38106624214757
 20
-1.500000000000001
 30
0.0
 11
13.10771986366253
 21
-1.500000000000001
 31
0.0
  0
LINE
  5
9D
330
1F
100
AcDbEntity
  8
0
  6
Continuous
 62
     1
370
    15
100
AcDbLine
 10
21.26944986567518
 20
1.500000000000002
 30
0.0
 11
20.54301379754028
 21
1.500000000000002
 31
0.0
  0
SPLINE
  5
9E
330
1F
100
AcDbEntity
  8
0
  6
Continuous
 62
     1
370
    15
100
AcDbSpline
210
0.0
220
0.0
230
1.0
 70
     8
 71
     3
 72
    17
 73
    13
 74
     0
 42
0.000000001
 43
0.00000001
 40
0.0
 40
0.0
 40
0.0
 40
0.0
 40
0.1137004893754702
 40
0.2038533517633091
 40
0.2970136650941251
 40
0.3580606776967349
 40
0.4328007529055753
 40
0.5213832418745663
 40
0.6303923618422717
 40
0.7193089685003743
 40
0.8333301525118676
 40
1.0
 40
1.0
 40
1.0
 40
1.0
 10
21.96070358743163
 20
-1.24821336413207
 30
0.0
 10
22.04622553031199
 20
-1.240024563359381
 30
0.0
 10
22.19955762941932
 20
-1.22534288086528
 30
0.0
 10
22.42241072963581
 20
-1.207993961182904
 30
0.0
 10
22.60588938112957
 20
-1.196212646186009
 30
0.0
 10
22.77822740896111
 20
-1.187187470960634
 30
0.0
 10
22.94698392290147
 20
-1.18008910002601
 30
0.0
 10
23.15159071508255
 20
-1.174033024725395
 30
0.0
 10
23.36709502288709
 20
-1.17106936984228
 30
0.0
 10
23.60387631459271
 20
-1.17160875927235
 30
0.0
 10
23.88167605899064
 20
-1.176389347487369
 30
0.0
 10
24.09094770704829
 20
-1.186157513477311
 30
0.0
 10
24.21520986633075
 20
-1.191957694292082
 30
0.0
  0
SPLINE
  5
9F
330
1F
100
AcDbEntity
  8
0
  6
Continuous
 62
     1
370
    15
100
AcDbSpline
210
0.0
220
0.0
230
1.0
 70
     8
 71
     3
 72
    12
 73
     8
 74
     0
 42
0.000000001
 43
0.00000001
 40
0.0
 40
0.0
 40
0.0
 40
0.0
 40
0.2863045154785855
 40
0.4954856200094835
 40
0.6654920336320769
 40
0.8579963895195372
 40
1.0
 40
1.0
 40
1.0
 40
1.0
 10
16.05296407884743
 20
1.191949743742988
 30
0.0
 10
15.93635781429816
 20
1.186434269982685
 30
0.0
 10
15.73455615151054
 20
1.176889055750902
 30
0.0
 10
15.45954928491748
 20
1.171688188516202
 30
0.0
 10
15.22054343938662
 20
1.17107256717198
 30
0.0
 10
15.01082984301797
 20
1.173353136973054
 30
0.0
 10
14.87230941015236
 20
1.177910103002019
 30
0.0
 10
14.81350542468734
 20
1.179844602906389
 30
0.0
  0
SPLINE
  5
A0
330
1F
100
AcDbEntity
  8
0
  6
Continuous
 62
     1
370
    15
100
AcDbSpline
210
0.0
220
0.0
230
1.0
 70
     8
 71
     3
 72
    16
 73
    12
 74
     0
 42
0.000000001
 43
0.00000001
 40
0.0
 40
0.0
 40
0.0
 40
0.0
 40
0.1207684428932495
 40
0.2161691862777496
 40
0.313509120499796
 40
0.3746192917867295
 40
0.4462359564185497
 40
0.5289590658175073
 40
0.6671116034878487
 40
0.7997166572258539
 40
1.0
 40
1.0
 40
1.0
 40
1.0
 10
13.79866901739201
 20
-1.248207122130878
 30
0.0
 10
13.8896895531348
 20
-1.239510494596193
 30
0.0
 10
14.05261154396873
 20
-1.223943986885274
 30
0.0
 10
14.28792922522539
 20
-1.206005755382389
 30
0.0
 10
14.47812843697577
 20
-1.194240339165991
 30
0.0
 10
14.64870521013509
 20
-1.185648202873105
 30
0.0
 10
14.81087687634402
 20
-1.17916333243096
 30
0.0
 10
15.0318013149193
 20
-1.172991981749146
 30
0.0
 10
15.29967705304378
 20
-1.170420805403023
 30
0.0
 10
15.65771853165352
 20
-1.173895041864027
 30
0.0
 10
15.90449203208336
 20
-1.185167583739627
 30
0.0
 10
16.05296407884742
 20
-1.191949743742985
 30
0.0
  0
SPLINE
  5
A1
330
1F
100
AcDbEntity
  8
0
  6
Continuous
 62
     1
370
    15
100
AcDbSpline
210
0.0
220
0.0
230
1.0
 70
     8
 71
     3
 72
    12
 73
     8
 74
     0
 42
0.000000001
 43
0.00000001
 40
0.0
 40
0.0
 40
0.0
 40
0.0
 40
0.2963767912343412
 40
0.4991323175599587
 40
0.6572462113801979
 40
0.8510891510493466
 40
1.0
 40
1.0
 40
1.0
 40
1.0
 10
24.21520986633075
 20
1.191957694292085
 30
0.0
 10
24.09094746254587
 20
1.186161217955056
 30
0.0
 10
23.88167540271824
 20
1.17639929072812
 30
0.0
 10
23.60387785553845
 20
1.171585412267786
 30
0.0
 10
23.36709018813863
 20
1.171142621542202
 30
0.0
 10
23.15525281485105
 20
1.173670769523649
 30
0.0
 10
23.01037845942122
 20
1.178721336455469
 30
0.0
 10
22.94743717627712
 20
1.180915576853301
 30
0.0
  0
SPLINE
  5
A2
330
1F
100
AcDbEntity
  8
0
  6
Continuous
 62
     1
370
    15
100
AcDbSpline
210
0.0
220
0.0
230
1.0
 70
     8
 71
     3
 72
     9
 73
     5
 74
     0
 42
0.000000001
 43
0.00000001
 40
0.0
 40
0.0
 40
0.0
 40
0.0
 40
0.7526584705521703
 40
1.0
 40
1.0
 40
1.0
 40
1.0
 10
17.25807005739846
 20
-1.128220960942419
 30
0.0
 10
17.54540154754896
 20
-1.086444468764479
 30
0.0
 10
17.92715702017351
 20
-1.03093922460335
 30
0.0
 10
18.30848843025277
 20
-1.011803727405648
 30
0.0
 10
18.40280752444827
 20
-1.007070724262024
 30
0.0
  0
SPLINE
  5
A3
330
1F
100
AcDbEntity
  8
0
  6
Continuous
 62
     1
370
    15
100
AcDbSpline
210
0.0
220
0.0
230
1.0
 70
     8
 71
     3
 72
    11
 73
     7
 74
     0
 42
0.000000001
 43
0.00000001
 40
0.0
 40
0.0
 40
0.0
 40
0.0
 40
0.3253774903323828
 40
0.5111870825400033
 40
0.6914817414856593
 40
1.0
 40
1.0
 40
1.0
 40
1.0
 10
28.04027338101494
 20
1.025935876040697
 30
0.0
 10
27.75597422933838
 20
1.007698271166691
 30
0.0
 10
27.30932362125335
 20
0.9790459264131048
 30
0.0
 10
26.70566320707492
 20
0.9935722409817643
 30
0.0
 10
26.11678296410663
 20
1.03058635574903
 30
0.0
 10
25.68973201337628
 20
1.090439657883796
 30
0.0
 10
25.42019532375513
 20
1.128216557555155
 30
0.0
  0
SPLINE
  5
A4
330
1F
100
AcDbEntity
  8
0
  6
Continuous
 62
     1
370
    15
100
AcDbSpline
210
0.0
220
0.0
230
1.0
 70
     8
 71
     3
 72
    18
 73
    14
 74
     0
 42
0.000000001
 43
0.00000001
 40
0.0
 40
0.0
 40
0.0
 40
0.0
 40
0.1345091593655325
 40
0.225443390175659
 40
0.2867565157010643
 40
0.3500497239715564
 40
0.4150073795574842
 40
0.4793200582848928
 40
0.6702158460133667
 40
0.7141444687206063
 40
0.7780962171591757
 40
0.8727569558876669
 40
1.0
 40
1.0
 40
1.0
 40
1.0
 10
11.71597541987999
 20
1.025926993695631
 30
0.0
 10
11.59789641294725
 20
1.016843205660775
 30
0.0
 10
11.3999906959161
 20
1.001618369078086
 30
0.0
 10
11.14994170431927
 20
0.9917002040118934
 30
0.0
 10
10.9628254702338
 20
0.9876225052431904
 30
0.0
 10
10.79738961448549
 20
0.9866764825391731
 30
0.0
 10
10.62913849825532
 20
0.9884488244004657
 30
0.0
 10
10.34986538667063
 20
0.9961182387031006
 30
0.0
 10
10.08853314328546
 20
1.011792441548542
 30
0.0
 10
9.827429295093358
 20
1.034774410552374
 30
0.0
 10
9.650812128900577
 20
1.052684246715349
 30
0.0
 10
9.401802342593127
 20
1.082549435293289
 30
0.0
 10
9.207450097128453
 20
1.111573188804312
 30
0.0
 10
9.096005528557347
 20
1.128215855734229
 30
0.0
  0
SPLINE
  5
A5
330
1F
100
AcDbEntity
  8
0
  6
Continuous
 62
     1
370
    15
100
AcDbSpline
210
0.0
220
0.0
230
1.0
 70
     8
 71
     3
 72
    13
 73
     9
 74
     0
 42
0.000000001
 43
0.00000001
 40
0.0
 40
0.0
 40
0.0
 40
0.0
 40
0.3254013355641716
 40
0.5392145776927789
 40
0.676434581091162
 40
0.812741552649104
 40
0.9508501764295009
 40
1.0
 40
1.0
 40
1.0
 40
1.0
 10
9.096005528557347
 20
-1.128215855734228
 30
0.0
 10
9.218364722958105
 20
-1.110011306627964
 30
0.0
 10
9.421123145019411
 20
-1.079844994490977
 30
0.0
 10
9.674081962957965
 20
-1.050179344979911
 30
0.0
 10
9.85694195533402
 20
-1.03193123261546
 30
0.0
 10
10.01135650585247
 20
-1.018905204513003
 30
0.0
 10
10.13275711850776
 20
-1.009947979979399
 30
0.0
 10
10.20297024233999
 20
-1.00610327668012
 30
0.0
 10
10.22139911803295
 20
-1.005094155374706
 30
0.0
  0
SPLINE
  5
A6
330
1F
100
AcDbEntity
  8
0
  6
Continuous
 62
     1
370
    15
100
AcDbSpline
210
0.0
220
0.0
230
1.0
 70
     8
 71
     3
 72
     9
 73
     5
 74
     0
 42
0.000000001
 43
0.00000001
 40
0.0
 40
0.0
 40
0.0
 40
0.0
 40
0.7478752854574824
 40
1.0
 40
1.0
 40
1.0
 40
1.0
 10
25.42019532375513
 20
-1.128216557555152
 30
0.0
 10
25.70513920785506
 20
-1.087057465258955
 30
0.0
 10
26.08614375452308
 20
-1.03202276482622
 30
0.0
 10
26.46682163272537
 20
-1.011574885784864
 30
0.0
 10
26.56279993409977
 20
-1.006419470118562
 30
0.0
  0
SPLINE
  5
A7
330
1F
100
AcDbEntity
  8
0
  6
Continuous
 62
     1
370
    15
100
AcDbSpline
210
0.0
220
0.0
230
1.0
 70
     8
 71
     3
 72
    11
 73
     7
 74
     0
 42
0.000000001
 43
0.00000001
 40
0.0
 40
0.0
 40
0.0
 40
0.0
 40
0.2140399849640857
 40
0.4833523793522245
 40
0.6763252144906435
 40
1.0
 40
1.0
 40
1.0
 40
1.0
 10
19.87814601933672
 20
1.025933287089642
 30
0.0
 10
19.69115905859517
 20
1.012642069510492
 30
0.0
 10
19.26889873934955
 20
0.9826273895783839
 30
0.0
 10
18.67846665441277
 20
0.9864872280686274
 30
0.0
 10
17.99220911374838
 20
1.026079821293103
 30
0.0
 10
17.5408452159055
 20
1.088878309567858
 30
0.0
 10
17.25807005739846
 20
1.128220960942421
 30
0.0
  0
LINE
  5
A8
330
1F
100
AcDbEntity
  8
0
  6
Continuous
 62
   131
370
    15
100
AcDbLine
 10
2.0
 20
-3.0
 30
0.0
 11
7.598076211353304
 21
-1.499999999999999
 31
0.0
  0
LINE
  5
A9
330
1F
100
AcDbEntity
  8
0
  6
Continuous
 62
   131
370
    15
100
AcDbLine
 10
7.598076211353304
 20
1.500000000000001
 30
0.0
 11
2.0
 21
3.0
 31
0.0
  0
LINE
  5
AA
330
1F
100
AcDbEntity
  8
0
  6
Continuous
 62
   131
370
    15
100
AcDbLine
 10
2.0
 20
2.999999999999999
 30
0.0
 11
-40.8519237886467
 21
2.999999999999996
 31
0.0
  0
LINE
  5
AB
330
1F
100
AcDbEntity
  8
0
  6
Continuous
 62
   131
370
    15
100
AcDbLine
 10
-40.8519237886467
 20
-3.000000000000001
 30
0.0
 11
2.0
 21
-2.999999999999998
 31
0.0
  0
LINE
  5
AC
330
1F
100
AcDbEntity
  8
0
  6
Continuous
 62
   131
370
    15
100
AcDbLine
 10
-40.8519237886467
 20
2.999999999999995
 30
0.0
 11
-41.4019237886467
 21
2.449999999999994
 31
0.0
  0
LINE
  5
AD
330
1F
100
AcDbEntity
  8
0
  6
Continuous
 62
   131
370
    15
100
AcDbLine
 10
-41.4019237886467
 20
-2.45
 30
0.0
 11
-40.8519237886467
 21
-3.0
 31
0.0
  0
LINE
  5
AE
330
1F
100
AcDbEntity
  8
0
  6
Continuous
 62
   131
370
    15
100
AcDbLine
 10
7.708116985404496
 20
1.500000000000001
 30
0.0
 11
7.598076211353304
 21
1.500000000000001
 31
0.0
  0
LINE
  5
AF
330
1F
100
AcDbEntity
  8
0
  6
Continuous
 62
   131
370
    15
100
AcDbLine
 10
7.598076211353304
 20
-1.499999999999999
 30
0.0
 11
7.708116985404496
 21
-1.499999999999999
 31
0.0
  0
LINE
  5
B0
330
1F
100
AcDbEntity
  8
0
  6
Continuous
 62
   131
370
    15
100
AcDbLine
 10
7.991088181308378
 20
0.5821966996642919
 30
0.0
 11
7.959738642751706
 21
0.5983506182758466
 31
0.0
  0
SPLINE
  5
B1
330
1F
100
AcDbEntity
  8
0
  6
Continuous
 62
   131
370
    15
100
AcDbSpline
210
0.0
220
0.0
230
1.0
 70
     8
 71
     3
 72
     9
 73
     5
 74
     0
 42
0.000000001
 43
0.00000001
 40
0.0
 40
0.0
 40
0.0
 40
0.0
 40
0.5399249030587067
 40
1.0
 40
1.0
 40
1.0
 40
1.0
 10
8.384241820898016
 20
0.3863723714114757
 30
0.0
 10
8.313440633002696
 20
0.4199928183182924
 30
0.0
 10
8.182309085829699
 20
0.4822615647983213
 30
0.0
 10
8.051342599981192
 20
0.5507067667439777
 30
0.0
 10
7.991088181308378
 20
0.5821966996642919
 30
0.0
  0
SPLINE
  5
B2
330
1F
100
AcDbEntity
  8
0
  6
Continuous
 62
   131
370
    15
100
AcDbSpline
210
0.0
220
0.0
230
1.0
 70
     8
 71
     3
 72
     9
 73
     5
 74
     0
 42
0.000000001
 43
0.00000001
 40
0.0
 40
0.0
 40
0.0
 40
0.0
 40
0.4992258333926911
 40
1.0
 40
1.0
 40
1.0
 40
1.0
 10
7.905228351211676
 20
1.192699557637765
 30
0.0
 10
7.872168374510316
 20
1.190753142523663
 30
0.0
 10
7.805945886630051
 20
1.186854275550225
 30
0.0
 10
7.740770618332423
 20
1.182112434837473
 30
0.0
 10
7.708132527667269
 20
1.17973784350636
 30
0.0
  0
SPLINE
  5
B3
330
1F
100
AcDbEntity
  8
0
  6
Continuous
 62
   131
370
    15
100
AcDbSpline
210
0.0
220
0.0
230
1.0
 70
     8
 71
     3
 72
     9
 73
     5
 74
     0
 42
0.000000001
 43
0.00000001
 40
0.0
 40
0.0
 40
0.0
 40
0.0
 40
0.5007741666073176
 40
0.9999999999999999
 40
0.9999999999999999
 40
0.9999999999999999
 40
0.9999999999999999
 10
7.708132527667269
 20
-1.179737843506359
 30
0.0
 10
7.740770618332343
 20
-1.182112434837471
 30
0.0
 10
7.805945886629818
 20
-1.186854275550219
 30
0.0
 10
7.872168374509927
 20
-1.190753142523645
 30
0.0
 10
7.905228351211212
 20
-1.192699557637741
 30
0.0
  0
SPLINE
  5
B4
330
1F
100
AcDbEntity
  8
0
  6
Continuous
 62
     1
370
    15
100
AcDbSpline
210
0.0
220
0.0
230
1.0
 70
     8
 71
     3
 72
    19
 73
    15
 74
     0
 42
0.000000001
 43
0.00000001
 40
0.0
 40
0.0
 40
0.0
 40
0.0
 40
0.0452015211390923
 40
0.1336353520343149
 40
0.2220650977253999
 40
0.3104916756129289
 40
0.3989160060922607
 40
0.4873390116856496
 40
0.5757616161700637
 40
0.664184743702465
 40
0.7526093179443145
 40
0.8410362611870847
 40
0.9294664934805459
 40
1.0
 40
1.0
 40
1.0
 40
1.0
 10
22.94866960462045
 20
-1.180491010710683
 30
0.0
 10
22.80039029131428
 20
-1.235160930162269
 30
0.0
 10
22.36201216301853
 20
-1.396788984871295
 30
0.0
 10
21.63355971341183
 20
-1.509011541589439
 30
0.0
 10
20.76331968880245
 20
-1.500589982641946
 30
0.0
 10
19.89311761850433
 20
-1.318558844925411
 30
0.0
 10
19.02294193579925
 20
-0.9917430553710145
 30
0.0
 10
18.15278193485072
 20
-0.5542099965069488
 30
0.0
 10
17.2826266649662
 20
-0.0550971316533045
 30
0.0
 10
16.41246520120735
 20
0.4498187449898948
 30
0.0
 10
15.54228673235688
 20
0.9060573611767009
 30
0.0
 10
14.67208000320478
 20
1.256573109875321
 30
0.0
 10
13.8605565155074
 20
1.470545197093762
 30
0.0
 10
13.33909610007044
 20
1.481579418263365
 30
0.0
 10
13.10771986366254
 20
1.486475392128948
 30
0.0
  0
SPLINE
  5
B5
330
1F
100
AcDbEntity
  8
0
  6
Continuous
 62
     1
370
    15
100
AcDbSpline
210
0.0
220
0.0
230
1.0
 70
     8
 71
     3
 72
    16
 73
    12
 74
     0
 42
0.000000001
 43
0.00000001
 40
0.0
 40
0.0
 40
0.0
 40
0.0
 40
0.1006127167628004
 40
0.2209372938830805
 40
0.3409716563553276
 40
0.4613045654983247
 40
0.5819740902814465
 40
0.7021017541169057
 40
0.8221926721250405
 40
0.9428089265452971
 40
1.0
 40
1.0
 40
1.0
 40
1.0
 10
21.96227710358581
 20
-1.242527090313784
 30
0.0
 10
21.78022109797008
 20
-1.257683961041902
 30
0.0
 10
21.38044100545225
 20
-1.290967209026358
 30
0.0
 10
20.76377853941473
 20
-1.245539216420468
 30
0.0
 10
20.11179108326172
 20
-1.127193788925657
 30
0.0
 10
19.45886234656282
 20
-0.9358308586204452
 30
0.0
 10
18.80524649988628
 20
-0.6872074084813152
 30
0.0
 10
18.15283855751692
 20
-0.3938492211472657
 30
0.0
 10
17.50057869921519
 20
-0.0769758621262656
 30
0.0
 10
16.96142650131797
 20
0.1914599728072693
 30
0.0
 10
16.63984136059615
 20
0.3396293732607304
 30
0.0
 10
16.53640468211518
 20
0.3872875162987517
 30
0.0
  0
SPLINE
  5
B6
330
1F
100
AcDbEntity
  8
0
  6
Continuous
 62
     1
370
    15
100
AcDbSpline
210
0.0
220
0.0
230
1.0
 70
     8
 71
     3
 72
    16
 73
    12
 74
     0
 42
0.000000001
 43
0.00000001
 40
0.0
 40
0.0
 40
0.0
 40
0.0
 40
0.1188297906018474
 40
0.23764567960536
 40
0.356448839168776
 40
0.4752404532760031
 40
0.5940217166751551
 40
0.7127938337957559
 40
0.83155801764666
 40
0.9503154886968369
 40
1.0
 40
1.0
 40
1.0
 40
1.0
 10
28.59807621135331
 20
-1.423411303847848
 30
0.0
 10
28.30776783517118
 20
-1.355040596609092
 30
0.0
 10
27.72718504525369
 20
-1.21830718064866
 30
0.0
 10
26.85638507845317
 20
-0.8352509691160607
 30
0.0
 10
25.98569537956048
 20
-0.3707294069193478
 30
0.0
 10
25.11510754547243
 20
0.1382401428298648
 30
0.0
 10
24.2446105942538
 20
0.63028830202765
 30
0.0
 10
23.37419394525948
 20
1.055116208557323
 30
0.0
 10
22.5038474580354
 20
1.352608457031888
 30
0.0
 10
21.80227325242368
 20
1.501109824760936
 30
0.0
 10
21.39081554270837
 20
1.484475916605704
 30
0.0
 10
21.26944986567518
 20
1.479569493716304
 30
0.0
  0
SPLINE
  5
B7
330
1F
100
AcDbEntity
  8
0
  6
Continuous
 62
     1
370
    15
100
AcDbSpline
210
0.0
220
0.0
230
1.0
 70
     8
 71
     3
 72
    15
 73
    11
 74
     0
 42
0.000000001
 43
0.00000001
 40
0.0
 40
0.0
 40
0.0
 40
0.0
 40
0.0229015299014449
 40
0.1628985503194517
 40
0.3029022293911038
 40
0.4422942349498508
 40
0.5816980931413126
 40
0.7211157337203262
 40
0.8605490706561963
 40
1.0
 40
1.0
 40
1.0
 40
1.0
 10
14.81444820338263
 20
-1.179467623688358
 30
0.0
 10
14.76699545094687
 20
-1.198892138758494
 30
0.0
 10
14.42946408890607
 20
-1.337058687421423
 30
0.0
 10
13.80183535077914
 20
-1.466948763864113
 30
0.0
 10
12.93282119051141
 20
-1.526632429939179
 30
0.0
 10
12.06504338980216
 20
-1.405961675273869
 30
0.0
 10
11.19846004902821
 20
-1.133408875644363
 30
0.0
 10
10.33177490766669
 20
-0.7356121923136619
 30
0.0
 10
9.464974122005401
 20
-0.2549657697855411
 30
0.0
 10
8.887054333562865
 20
0.0793730486672569
 30
0.0
 10
8.598076211349019
 20
0.2465530031728154
 30
0.0
  0
SPLINE
  5
B8
330
1F
100
AcDbEntity
  8
0
  6
Continuous
 62
   131
370
    15
100
AcDbSpline
210
0.0
220
0.0
230
1.0
 70
    24
 71
     3
 72
     8
 73
     4
 74
     0
 42
0.000000001
 43
0.00000001
 40
0.0
 40
0.0
 40
0.0
 40
0.0
 40
1.0
 40
1.0
 40
1.0
 40
1.0
 10
8.598076211353304
 20
0.2849905841909126
 30
0.0
 10
8.598076211353304
 20
0.2785484238757621
 30
0.0
 10
8.598076211353304
 20
0.265681817722844
 30
0.0
 10
8.598076211353304
 20
0.2465530031732351
 30
0.0
  0
SPLINE
  5
B9
330
1F
100
AcDbEntity
  8
0
  6
Continuous
 62
     1
370
    15
100
AcDbSpline
210
0.0
220
0.0
230
1.0
 70
     8
 71
     3
 72
    13
 73
     9
 74
     0
 42
0.000000001
 43
0.00000001
 40
0.0
 40
0.0
 40
0.0
 40
0.0
 40
0.1676361291295957
 40
0.3346313997806621
 40
0.5018032584152076
 40
0.6696953791550099
 40
0.8369563515846317
 40
1.0
 40
1.0
 40
1.0
 40
1.0
 10
28.59807621135331
 20
-1.183458396552321
 30
0.0
 10
28.38002613237613
 20
-1.136509433275752
 30
0.0
 10
27.94475956108703
 20
-1.042790988564206
 30
0.0
 10
27.29263006781812
 20
-0.8162807993413492
 30
0.0
 10
26.64006211600413
 20
-0.5435227582488402
 30
0.0
 10
25.98637038572908
 20
-0.2370363454335527
 30
0.0
 10
25.33876759615762
 20
0.0845141985353499
 30
0.0
 10
24.90945482698155
 20
0.2898497883333837
 30
0.0
 10
24.69753917161256
 20
0.3912067225008419
 30
0.0
  0
SPLINE
  5
BA
330
1F
100
AcDbEntity
  8
0
  6
Continuous
 62
     1
370
    15
100
AcDbSpline
210
0.0
220
0.0
230
1.0
 70
     8
 71
     3
 72
    16
 73
    12
 74
     0
 42
0.000000001
 43
0.00000001
 40
0.0
 40
0.0
 40
0.0
 40
0.0
 40
0.0418095964423588
 40
0.1670213478790511
 40
0.2927219988669471
 40
0.4184006490157
 40
0.543607418336774
 40
0.6689553181708213
 40
0.7948383408775979
 40
0.9202393806169421
 40
1.0
 40
1.0
 40
1.0
 40
1.0
 10
13.80022573382887
 20
-1.239248873241017
 30
0.0
 10
13.7277314811439
 20
-1.248940446970331
 30
0.0
 10
13.43813079548262
 20
-1.287656431937347
 30
0.0
 10
12.93082411149123
 20
-1.274402324937238
 30
0.0
 10
12.27746504782364
 20
-1.197538289123017
 30
0.0
 10
11.6241748891678
 20
-1.040267580626099
 30
0.0
 10
10.97205854341818
 20
-0.8186071028391866
 30
0.0
 10
10.3194679406676
 20
-0.5449278351765013
 30
0.0
 10
9.665799901959202
 20
-0.2387334773998554
 30
0.0
 10
9.091786701031527
 20
0.0457322575767609
 30
0.0
 10
8.736284619131034
 20
0.21801304763815
 30
0.0
 10
8.598076211353277
 20
0.2849905841909264
 30
0.0
  0
LINE
  5
BB
330
1F
100
AcDbEntity
  8
0
  6
Continuous
 62
     1
370
    15
100
AcDbLine
 10
28.59807621135331
 20
-1.42341130384785
 30
0.0
 11
28.59807621135331
 21
-1.183458396552321
 31
0.0
  0
SPLINE
  5
BC
330
1F
100
AcDbEntity
  8
0
  6
Continuous
 62
     1
370
    15
100
AcDbSpline
210
0.0
220
0.0
230
1.0
 70
     8
 71
     3
 72
    20
 73
    16
 74
     0
 42
0.000000001
 43
0.00000001
 40
0.0
 40
0.0
 40
0.0
 40
0.0
 40
0.01021195399211
 40
0.0942160843617309
 40
0.1782119081851363
 40
0.2622005887806657
 40
0.3465586271441096
 40
0.4309126545234986
 40
0.5152635454652066
 40
0.5996121774799509
 40
0.6839594302157835
 40
0.768306184626765
 40
0.8526533221389857
 40
0.9370017238156407
 40
0.9999999999999999
 40
0.9999999999999999
 40
0.9999999999999999
 40
0.9999999999999999
 10
10.22643193336592
 20
1.00745593254859
 30
0.0
 10
10.26155184999912
 20
1.024151230759889
 30
0.0
 10
10.58557025341612
 20
1.178183027802385
 30
0.0
 10
11.19843934992073
 20
1.365978801876799
 30
0.0
 10
12.06501793623385
 20
1.518444338683853
 30
0.0
 10
12.93279139783902
 20
1.493469235752606
 30
0.0
 10
13.80180507222051
 20
1.305688616683312
 30
0.0
 10
14.67205112337068
 20
0.9717259226805869
 30
0.0
 10
15.54225968311342
 20
0.5299537404965595
 30
0.0
 10
16.41243992329213
 20
0.0291083976264102
 30
0.0
 10
17.28260319960296
 20
-0.474559533989882
 30
0.0
 10
18.15276023145591
 20
-0.9269488883921477
 30
0.0
 10
19.02292220093935
 20
-1.270764119507291
 30
0.0
 10
19.81967275617354
 20
-1.475069909025383
 30
0.0
 10
20.32637328478675
 20
-1.481431289441308
 30
0.0
 10
20.54301379754027
 20
-1.484151106448205
 30
0.0
  0
SPLINE
  5
BD
330
1F
100
AcDbEntity
  8
0
  6
Continuous
 62
     1
370
    15
100
AcDbSpline
210
0.0
220
0.0
230
1.0
 70
     8
 71
     3
 72
    10
 73
     6
 74
     0
 42
0.000000001
 43
0.00000001
 40
0.0
 40
0.0
 40
0.0
 40
0.0
 40
0.1445895921347785
 40
0.5722697789328639
 40
1.0
 40
1.0
 40
1.0
 40
1.0
 10
26.5619604072516
 20
1.006048073614352
 30
0.0
 10
26.66009114632245
 20
1.050835896293618
 30
0.0
 10
27.04848187020141
 20
1.22810119599552
 30
0.0
 10
27.72718395454555
 20
1.424872529502368
 30
0.0
 10
28.30776747267671
 20
1.474111365045388
 30
0.0
 10
28.59807621135331
 20
1.500000000000071
 30
0.0
  0
SPLINE
  5
BE
330
1F
100
AcDbEntity
  8
0
  6
Continuous
 62
     1
370
    15
100
AcDbSpline
210
0.0
220
0.0
230
1.0
 70
    24
 71
     3
 72
    10
 73
     6
 74
     0
 42
0.000000001
 43
0.00000001
 40
0.0
 40
0.0
 40
0.0
 40
0.0
 40
0.5
 40
0.5
 40
1.0
 40
1.0
 40
1.0
 40
1.0
 10
28.59807621135331
 20
1.050000000000003
 30
0.0
 10
28.59807621135331
 20
1.113648385210973
 30
0.0
 10
28.59807621135331
 20
1.187613703300679
 30
0.0
 10
28.59807621135331
 20
1.342792741441287
 30
0.0
 10
28.59807621135331
 20
1.423610153702214
 30
0.0
 10
28.59807621135331
 20
1.500000000000071
 30
0.0
  0
LINE
  5
BF
330
1F
100
AcDbEntity
  8
0
  6
Continuous
 62
     1
370
    15
100
AcDbLine
 10
28.59807621135331
 20
1.050000000000003
 30
0.0
 11
28.03760026099295
 21
1.012416367243048
 31
0.0
  0
SPLINE
  5
C0
330
1F
100
AcDbEntity
  8
0
  6
Continuous
 62
     1
370
    15
100
AcDbSpline
210
0.0
220
0.0
230
1.0
 70
     8
 71
     3
 72
    14
 73
    10
 74
     0
 42
0.000000001
 43
0.00000001
 40
0.0
 40
0.0
 40
0.0
 40
0.0
 40
0.0597501016413631
 40
0.2338531042851519
 40
0.4079611795001731
 40
0.5820762975350423
 40
0.7562004218392082
 40
0.9303355071801953
 40
1.0
 40
1.0
 40
1.0
 40
1.0
 10
16.71108432503896
 20
-0.1411300545218197
 30
0.0
 10
16.61153967132327
 20
-0.1019363650310827
 30
0.0
 10
16.22193654686114
 20
0.0514619674238394
 30
0.0
 10
15.542265088138
 20
0.3303045675663333
 30
0.0
 10
14.67205687908786
 20
0.6451754257065551
 30
0.0
 10
13.80180988810409
 20
0.8915054551725223
 30
0.0
 10
12.93151283313381
 20
1.031379043998914
 30
0.0
 10
12.23523160205867
 20
1.072467326376483
 30
0.0
 10
11.82904545335348
 20
1.025312818175327
 30
0.0
 10
11.71297982168403
 20
1.011838656641567
 30
0.0
  0
SPLINE
  5
C1
330
1F
100
AcDbEntity
  8
0
  6
Continuous
 62
     1
370
    15
100
AcDbSpline
210
0.0
220
0.0
230
1.0
 70
     8
 71
     3
 72
    12
 73
     8
 74
     0
 42
0.000000001
 43
0.00000001
 40
0.0
 40
0.0
 40
0.0
 40
0.0
 40
0.2291545434533206
 40
0.4582801689862572
 40
0.6873799938355138
 40
0.9164571647000829
 40
1.0
 40
1.0
 40
1.0
 40
1.0
 10
8.598076211353915
 20
-0.1716731524002951
 30
0.0
 10
8.887052191453938
 20
-0.3353495884741386
 30
0.0
 10
9.464967684629332
 20
-0.6626818056434175
 30
0.0
 10
10.33176213443731
 20
-1.07825634938181
 30
0.0
 10
11.1984403861819
 20
-1.365565286190516
 30
0.0
 10
11.88152973497994
 20
-1.504837052945019
 30
0.0
 10
12.27572396423393
 20
-1.485808292612301
 30
0.0
 10
12.38106624214757
 20
-1.480723152317085
 30
0.0
  0
SPLINE
  5
C2
330
1F
100
AcDbEntity
  8
0
  6
Continuous
 62
     1
370
    15
100
AcDbSpline
210
0.0
220
0.0
230
1.0
 70
     8
 71
     3
 72
    19
 73
    15
 74
     0
 42
0.000000001
 43
0.00000001
 40
0.0
 40
0.0
 40
0.0
 40
0.0
 40
0.0609180599642534
 40
0.1462650961695953
 40
0.231614301789511
 40
0.3169665650543087
 40
0.4023227713039476
 40
0.4876838021564088
 40
0.5730505346835721
 40
0.6584238405962322
 40
0.7438045854398694
 40
0.829193627802735
 40
0.914591818537795
 40
1.0
 40
1.0
 40
1.0
 40
1.0
 10
18.40181636593611
 20
1.006681399836496
 30
0.0
 10
18.60885020663906
 20
1.093662386332874
 30
0.0
 10
19.10594129323221
 20
1.302504926004761
 30
0.0
 10
19.89309958269474
 20
1.47824312820993
 30
0.0
 10
20.76330354699529
 20
1.523486449563983
 30
0.0
 10
21.63354496563085
 20
1.395241253727004
 30
0.0
 10
22.50383459914136
 20
1.11295715174661
 30
0.0
 10
23.37418324749925
 20
0.7066370845920071
 30
0.0
 10
24.24460161718446
 20
0.2217472643229732
 30
0.0
 10
25.11510040083753
 20
-0.2876081154920264
 30
0.0
 10
25.98569002914051
 20
-0.7658499675924585
 30
0.0
 10
26.85638152217895
 20
-1.15572928769894
 30
0.0
 10
27.72718327106539
 20
-1.429042487105916
 30
0.0
 10
28.30776724484111
 20
-1.475501405113784
 30
0.0
 10
28.59807621135331
 20
-1.499999999999923
 30
0.0
  0
SPLINE
  5
C3
330
1F
100
AcDbEntity
  8
0
  6
Continuous
 62
     1
370
    15
100
AcDbSpline
210
0.0
220
0.0
230
1.0
 70
     8
 71
     3
 72
    14
 73
    10
 74
     0
 42
0.000000001
 43
0.00000001
 40
0.0
 40
0.0
 40
0.0
 40
0.0
 40
0.1251904380614299
 40
0.299566419565289
 40
0.4739297332018417
 40
0.6482823272464815
 40
0.8226261602919417
 40
0.9969631993782464
 40
1.0
 40
1.0
 40
1.0
 40
1.0
 10
24.8694897383339
 20
-0.1413136625697722
 30
0.0
 10
24.66118738675656
 20
-0.0575287769797754
 30
0.0
 10
24.16274365083453
 20
0.14295888468626
 30
0.0
 10
23.37418857082789
 20
0.4556818704283279
 30
0.0
 10
22.50383975985257
 20
0.7475607691498777
 30
0.0
 10
21.63355017499323
 20
0.9602956839564362
 30
0.0
 10
20.76330899768099
 20
1.052955219634336
 30
0.0
 10
20.17811068570902
 20
1.069639184990359
 30
0.0
 10
19.88299186826237
 20
1.025708165657213
 30
0.0
 10
19.87793916708734
 20
1.024956026857913
 30
0.0
  0
LINE
  5
C4
330
1F
100
AcDbEntity
  8
0
  6
Continuous
 62
   131
370
    15
100
AcDbLine
 10
8.598076211353304
 20
-0.1716731524018703
 30
0.0
 11
8.598076211353304
 21
0.2465530031763145
 31
0.0
  0
LINE
  5
C5
330
1F
100
AcDbEntity
  8
0
  6
Continuous
 62
     1
370
    15
100
AcDbLine
 10
28.59807621135331
 20
-1.499999999999923
 30
0.0
 11
28.59807621135331
 21
-1.423411303847852
 31
0.0
  0
SPLINE
  5
C6
330
1F
100
AcDbEntity
  8
0
  6
Continuous
 62
     1
370
    15
100
AcDbSpline
210
0.0
220
0.0
230
1.0
 70
     8
 71
     3
 72
     8
 73
     4
 74
     0
 42
0.000000001
 43
0.00000001
 40
0.0
 40
0.0
 40
0.0
 40
0.0
 40
1.0
 40
1.0
 40
1.0
 40
1.0
 10
27.66972178071457
 20
0.4198106250609797
 30
0.0
 10
27.60246172502312
 20
0.4994278928800658
 30
0.0
 10
27.54412369809111
 20
0.5755240816839299
 30
0.0
 10
27.49810783634288
 20
0.6462796946959488
 30
0.0
  0
LINE
  5
C7
330
1F
100
AcDbEntity
  8
0
  6
Continuous
 62
     1
370
    15
100
AcDbLine
 10
27.49810783634289
 20
0.6462796946959477
 30
0.0
 11
28.59807621135331
 21
0.0000000000000032
 31
0.0
  0
LINE
  5
C8
330
1F
100
AcDbEntity
  8
0
  6
Continuous
 62
     1
370
    15
100
AcDbLine
 10
28.59807621135331
 20
0.0000000000000032
 30
0.0
 11
28.59807621135331
 21
-0.400864419044464
 31
0.0
  0
SPLINE
  5
C9
330
1F
100
AcDbEntity
  8
0
  6
Continuous
 62
     1
370
    15
100
AcDbSpline
210
0.0
220
0.0
230
1.0
 70
     8
 71
     3
 72
    10
 73
     6
 74
     0
 42
0.000000001
 43
0.00000001
 40
0.0
 40
0.0
 40
0.0
 40
0.0
 40
0.5
 40
0.5
 40
1.0
 40
1.0
 40
1.0
 40
1.0
 10
28.59807621135331
 20
-0.400864419044464
 30
0.0
 10
28.43737116823809
 20
-0.274520487137552
 30
0.0
 10
28.27935281651364
 20
-0.1429921789881828
 30
0.0
 10
27.96881396173779
 20
0.1306733655047768
 30
0.0
 10
27.81483384628665
 20
0.2742501368963211
 30
0.0
 10
27.66972178071378
 20
0.4198106250614949
 30
0.0
  0
SPLINE
  5
CA
330
1F
100
AcDbEntity
  8
0
  6
Continuous
 62
     1
370
    15
100
AcDbSpline
210
0.0
220
0.0
230
1.0
 70
     8
 71
     3
 72
    23
 73
    19
 74
     0
 42
0.000000001
 43
0.00000001
 40
0.0
 40
0.0
 40
0.0
 40
0.0
 40
0.0094300535436395
 40
0.0789425700661985
 40
0.1486780990568946
 40
0.2185241867514346
 40
0.2880641141344508
 40
0.3576305281741062
 40
0.4275150119342939
 40
0.4971942724224345
 40
0.5667031051674696
 40
0.636387229212496
 40
0.7062690312713183
 40
0.7758326617491849
 40
0.8453746962753551
 40
0.9152251919814005
 40
0.9849551946646519
 40
1.0
 40
1.0
 40
1.0
 40
1.0
 10
25.42163862876924
 20
-1.123855630497562
 30
0.0
 10
25.39218963232114
 20
-1.129806101680339
 30
0.0
 10
25.14566086610309
 20
-1.179619762451133
 30
0.0
 10
24.68161069409044
 20
-1.206089950301766
 30
0.0
 10
24.02847581190739
 20
-1.19237664581816
 30
0.0
 10
23.37501972927512
 20
-1.097398343345429
 30
0.0
 10
22.72272905911229
 20
-0.9348733318564393
 30
0.0
 10
22.0702861082638
 20
-0.7129015612626253
 30
0.0
 10
21.41670146391372
 20
-0.4474194358445256
 30
0.0
 10
20.76378811573898
 20
-0.1529996691909074
 30
0.0
 10
20.1117654471892
 20
0.1513508209970974
 30
0.0
 10
19.45883459378293
 20
0.4458251518735285
 30
0.0
 10
18.80525836971722
 20
0.7116451935946634
 30
0.0
 10
18.15283031489448
 20
0.9334450520778151
 30
0.0
 10
17.50052467917033
 20
1.098048307179968
 30
0.0
 10
16.84705853124621
 20
1.186957754383408
 30
0.0
 10
16.36406361716793
 20
1.215215181661387
 30
0.0
 10
16.09939795845561
 20
1.190048192504604
 30
0.0
 10
16.05242830547327
 20
1.185581860328924
 30
0.0
  0
SPLINE
  5
CB
330
1F
100
AcDbEntity
  8
0
  6
Continuous
 62
     1
370
    15
100
AcDbSpline
210
0.0
220
0.0
230
1.0
 70
     8
 71
     3
 72
     9
 73
     5
 74
     0
 42
0.000000001
 43
0.00000001
 40
0.0
 40
0.0
 40
0.0
 40
0.0
 40
0.1699175481990303
 40
1.0
 40
1.0
 40
1.0
 40
1.0
 10
9.097633268456722
 20
-1.123963289793768
 30
0.0
 10
9.06932470361519
 20
-1.129750121586304
 30
0.0
 10
8.902722930334091
 20
-1.163806826463881
 30
0.0
 10
8.736256813640262
 20
-1.175639758408182
 30
0.0
 10
8.59807621135326
 20
-1.185462067568502
 30
0.0
  0
SPLINE
  5
CC
330
1F
100
AcDbEntity
  8
0
  6
Continuous
 62
     1
370
    15
100
AcDbSpline
210
0.0
220
0.0
230
1.0
 70
     8
 71
     3
 72
    13
 73
     9
 74
     0
 42
0.000000001
 43
0.00000001
 40
0.0
 40
0.0
 40
0.0
 40
0.0
 40
0.1091256065328351
 40
0.2978684051194287
 40
0.487435777965098
 40
0.6762806164501022
 40
0.8647931348466527
 40
1.0
 40
1.0
 40
1.0
 40
1.0
 10
27.66972177394601
 20
0.4198106280157228
 30
0.0
 10
27.54409470572923
 20
0.4732851489467167
 30
0.0
 10
27.20118403940179
 20
0.6192487845252089
 30
0.0
 10
26.64003669519995
 20
0.8300446574606961
 30
0.0
 10
25.98639520356635
 20
1.024011080552628
 30
0.0
 10
25.33364101516374
 20
1.151543883290526
 30
0.0
 10
24.74366807145533
 20
1.210323598984932
 30
0.0
 10
24.37079170752443
 20
1.191889744622865
 30
0.0
 10
24.21505359971011
 20
1.184190534171959
 30
0.0
  0
SPLINE
  5
CD
330
1F
100
AcDbEntity
  8
0
  6
Continuous
 62
     1
370
    15
100
AcDbSpline
210
0.0
220
0.0
230
1.0
 70
     8
 71
     3
 72
    21
 73
    17
 74
     0
 42
0.000000001
 43
0.00000001
 40
0.0
 40
0.0
 40
0.0
 40
0.0
 40
0.0479048305072184
 40
0.1233111030535694
 40
0.1984814497209046
 40
0.2737895858165961
 40
0.349380270453717
 40
0.4246394400094645
 40
0.4998232793362009
 40
0.5753047648193346
 40
0.6507729334540224
 40
0.725953757082233
 40
0.8012204786168915
 40
0.8768130338189258
 40
0.952112167122806
 40
1.0
 40
1.0
 40
1.0
 40
1.0
 10
17.26190298107888
 20
-1.119359042596589
 30
0.0
 10
17.12350617625133
 20
-1.141680300417619
 30
0.0
 10
16.76726104435793
 20
-1.199137114152502
 30
0.0
 10
16.19395316146286
 20
-1.208567840734755
 30
0.0
 10
15.54191039425801
 20
-1.154226436234304
 30
0.0
 10
14.88914489635133
 20
-1.024282987927875
 30
0.0
 10
14.23550997940334
 20
-0.8316057512778482
 30
0.0
 10
13.58293432219892
 20
-0.585644486811245
 30
0.0
 10
12.93076548437734
 20
-0.3027493081224681
 30
0.0
 10
12.27744943891411
 20
-0.0016979130620993
 30
0.0
 10
11.62417190022674
 20
0.2995371002719119
 30
0.0
 10
10.97203042787396
 20
0.5826769130543427
 30
0.0
 10
10.31941943092367
 20
0.8293131649809902
 30
0.0
 10
9.665796469304004
 20
1.02190160510887
 30
0.0
 10
9.091786139252193
 20
1.139232312677993
 30
0.0
 10
8.736277154140765
 20
1.172521279162864
 30
0.0
 10
8.59807621135326
 20
1.185462067568503
 30
0.0
  0
SPLINE
  5
CE
330
1F
100
AcDbEntity
  8
0
  6
Continuous
 62
     1
370
    15
100
AcDbSpline
210
0.0
220
0.0
230
1.0
 70
    24
 71
     3
 72
    10
 73
     6
 74
     0
 42
0.000000001
 43
0.00000001
 40
0.0
 40
0.0
 40
0.0
 40
0.0
 40
0.5
 40
0.5
 40
1.0
 40
1.0
 40
1.0
 40
1.0
 10
28.59807621135331
 20
-1.183458396552321
 30
0.0
 10
28.59807621135331
 20
-1.092737083505704
 30
0.0
 10
28.59807621135331
 20
-0.9781072258596997
 30
0.0
 10
28.59807621135331
 20
-0.7116038387260171
 30
0.0
 10
28.59807621135331
 20
-0.5599611645769614
 30
0.0
 10
28.59807621135331
 20
-0.4008644190445119
 30
0.0
  0
SPLINE
  5
CF
330
1F
100
AcDbEntity
  8
0
  6
Continuous
 62
   131
370
    15
100
AcDbSpline
210
0.0
220
0.0
230
1.0
 70
    24
 71
     3
 72
    10
 73
     6
 74
     0
 42
0.000000001
 43
0.00000001
 40
0.0
 40
0.0
 40
0.0
 40
0.0
 40
0.5
 40
0.5
 40
1.0
 40
1.0
 40
1.0
 40
1.0
 10
8.598076211353208
 20
1.185462067568507
 30
0.0
 10
8.598076211353208
 20
1.123381376905975
 30
0.0
 10
8.598076211353208
 20
1.009120967155865
 30
0.0
 10
8.598076211353208
 20
0.6943615630677332
 30
0.0
 10
8.598076211353208
 20
0.4952174162529947
 30
0.0
 10
8.598076211353208
 20
0.284990584190959
 30
0.0
  0
SPLINE
  5
D0
330
1F
100
AcDbEntity
  8
0
  6
Continuous
 62
     1
370
    15
100
AcDbSpline
210
0.0
220
0.0
230
1.0
 70
     8
 71
     3
 72
    10
 73
     6
 74
     0
 42
0.000000001
 43
0.00000001
 40
0.0
 40
0.0
 40
0.0
 40
0.0
 40
0.5
 40
0.5
 40
1.0
 40
1.0
 40
1.0
 40
1.0
 10
28.59807621135331
 20
1.050000000000003
 30
0.0
 10
28.41140927697568
 20
0.999264635783766
 30
0.0
 10
28.22610794677588
 20
0.9413115908220805
 30
0.0
 10
27.85875363526911
 20
0.8082368764621232
 30
0.0
 10
27.67657047998927
 20
0.733654445977805
 30
0.0
 10
27.4981078363417
 20
0.6462796946968256
 30
0.0
  0
SPLINE
  5
D1
330
1F
100
AcDbEntity
  8
0
  6
Continuous
 62
   131
370
    15
100
AcDbSpline
210
0.0
220
0.0
230
1.0
 70
    24
 71
     3
 72
    10
 73
     6
 74
     0
 42
0.000000001
 43
0.00000001
 40
0.0
 40
0.0
 40
0.0
 40
0.0
 40
0.3111636621496175
 40
0.6573717615434426
 40
1.0
 40
1.0
 40
1.0
 40
1.0
 10
8.598076211353304
 20
-0.2110748826465672
 30
0.0
 10
8.598076211353304
 20
-0.359649870756251
 30
0.0
 10
8.598076211353304
 20
-0.6735329282451313
 30
0.0
 10
8.598076211353304
 20
-1.026161145107635
 30
0.0
 10
8.598076211353304
 20
-1.132546053096444
 30
0.0
 10
8.598076211353304
 20
-1.185462067568499
 30
0.0
  0
LINE
  5
D2
330
1F
100
AcDbEntity
  8
0
  6
Continuous
 62
     1
370
    15
100
AcDbLine
 10
28.59807621135331
 20
0.0000000000000032
 30
0.0
 11
28.59807621135331
 21
1.050000000000003
 31
0.0
  0
LINE
  5
D3
330
1F
100
AcDbEntity
  8
0
  6
Continuous
 62
   131
370
    15
100
AcDbLine
 10
7.598076211353304
 20
1.500000000000001
 30
0.0
 11
7.598076211353304
 21
-1.499999999999999
 31
0.0
  0
LINE
  5
D4
330
1F
100
AcDbEntity
  8
0
  6
Continuous
 62
   131
370
    15
100
AcDbLine
 10
2.0
 20
3.0
 30
0.0
 11
2.0
 21
-3.0
 31
0.0
  0
LINE
  5
D5
330
1F
100
AcDbEntity
  8
0
  6
Continuous
 62
   131
370
    15
100
AcDbLine
 10
-40.8519237886467
 20
2.999999999999995
 30
0.0
 11
-40.8519237886467
 21
-3.000000000000001
 31
0.0
  0
LINE
  5
D6
330
1F
100
AcDbEntity
  8
0
  6
Continuous
 62
   131
370
    15
100
AcDbLine
 10
-41.4019237886467
 20
2.449999999999994
 30
0.0
 11
-41.4019237886467
 21
-2.450000000000001
 31
0.0
  0
LINE
  5
D7
330
1F
100
AcDbEntity
  8
0
  6
Continuous
 62
   131
370
    15
100
AcDbLine
 10
8.547182648785094
 20
-0.1424841385533697
 30
0.0
 11
7.70812724282024
 21
0.1948717485823032
 31
0.0
  0
SPLINE
  5
D8
330
1F
100
AcDbEntity
  8
0
  6
Continuous
 62
   131
370
    15
100
AcDbSpline
210
0.0
220
0.0
230
1.0
 70
     8
 71
     3
 72
     8
 73
     4
 74
     0
 42
0.000000001
 43
0.00000001
 40
0.0
 40
0.0
 40
0.0
 40
0.0
 40
1.0
 40
1.0
 40
1.0
 40
1.0
 10
8.598076211353304
 20
-0.1716731523999418
 30
0.0
 10
8.304626891910699
 20
-0.0021629564972349
 30
0.0
 10
8.001103591945917
 20
0.1726093061711081
 30
0.0
 10
7.708116985404496
 20
0.3387456679427779
 30
0.0
  0
SPLINE
  5
D9
330
1F
100
AcDbEntity
  8
0
  6
Continuous
 62
   131
370
    15
100
AcDbSpline
210
0.0
220
0.0
230
1.0
 70
     8
 71
     3
 72
     8
 73
     4
 74
     0
 42
0.000000001
 43
0.00000001
 40
0.0
 40
0.0
 40
0.0
 40
0.0
 40
1.0
 40
1.0
 40
1.0
 40
1.0
 10
8.598076211353304
 20
0.2465530031703576
 30
0.0
 10
8.304641078456262
 20
0.4148554936778621
 30
0.0
 10
8.001130735594986
 20
0.580086063227168
 30
0.0
 10
7.708159477846953
 20
0.7291179187927181
 30
0.0
  0
LINE
  5
DA
330
1F
100
AcDbEntity
  8
0
  6
Continuous
 62
   131
370
    15
100
AcDbLine
 10
7.708116985404496
 20
-1.499999999999999
 30
0.0
 11
7.708116985404496
 21
0.3392448691287975
 31
0.0
  0
LINE
  5
DB
330
1F
100
AcDbEntity
  8
0
  6
Continuous
 62
   131
370
    15
100
AcDbLine
 10
7.708116985404496
 20
0.7291740984362792
 30
0.0
 11
7.708116985404496
 21
1.500000000000001
 31
0.0
  0
LINE
  5
DC
330
1F
100
AcDbEntity
  8
0
  6
Continuous
 62
   131
370
    15
100
AcDbLine
 10
8.598076211353277
 20
0.2849905841909264
 30
0.0
 11
8.373668866125351
 21
0.3860565799787831
 31
0.0
  0
SPLINE
  5
DD
330
1F
100
AcDbEntity
  8
0
  6
Continuous
 62
   131
370
    15
100
AcDbSpline
210
0.0
220
0.0
230
1.0
 70
    24
 71
     3
 72
     8
 73
     4
 74
     0
 42
0.000000001
 43
0.00000001
 40
0.0
 40
0.0
 40
0.0
 40
0.0
 40
1.0
 40
1.0
 40
1.0
 40
1.0
 10
8.598076211353304
 20
0.2849905841909126
 30
0.0
 10
8.598076211353304
 20
0.278548423875762
 30
0.0
 10
8.598076211353304
 20
0.2656818177228432
 30
0.0
 10
8.598076211353304
 20
0.2465530031732334
 30
0.0
  0
LINE
  5
DE
330
1F
100
AcDbEntity
  8
0
  6
Continuous
 62
   131
370
    15
100
AcDbLine
 10
8.59807621135326
 20
1.185462067568503
 30
0.0
 11
7.904904056047146
 21
1.180547732940258
 31
0.0
  0
SPLINE
  5
DF
330
1F
100
AcDbEntity
  8
0
  6
Continuous
 62
   131
370
    15
100
AcDbSpline
210
0.0
220
0.0
230
1.0
 70
    24
 71
     3
 72
    10
 73
     6
 74
     0
 42
0.000000001
 43
0.00000001
 40
0.0
 40
0.0
 40
0.0
 40
0.0
 40
0.5
 40
0.5
 40
1.0
 40
1.0
 40
1.0
 40
1.0
 10
8.598076211353208
 20
1.185462067568507
 30
0.0
 10
8.598076211353208
 20
1.123381376905975
 30
0.0
 10
8.598076211353208
 20
1.009120967155865
 30
0.0
 10
8.598076211353208
 20
0.6943615630677332
 30
0.0
 10
8.598076211353208
 20
0.4952174162529947
 30
0.0
 10
8.598076211353208
 20
0.284990584190959
 30
0.0
  0
SPLINE
  5
E0
330
1F
100
AcDbEntity
  8
0
  6
Continuous
 62
   131
370
    15
100
AcDbSpline
210
0.0
220
0.0
230
1.0
 70
     8
 71
     3
 72
     8
 73
     4
 74
     0
 42
0.000000001
 43
0.00000001
 40
0.0
 40
0.0
 40
0.0
 40
0.0
 40
1.0
 40
1.0
 40
1.0
 40
1.0
 10
8.59807621135326
 20
-1.185462067568502
 30
0.0
 10
8.304632080850713
 20
-1.206645560282853
 30
0.0
 10
8.001113520159315
 20
-1.204472970073285
 30
0.0
 10
7.708132527667269
 20
-1.179152695461662
 30
0.0
  0
SPLINE
  5
E1
330
1F
100
AcDbEntity
  8
0
  6
Continuous
 62
   131
370
    15
100
AcDbSpline
210
0.0
220
0.0
230
1.0
 70
    24
 71
     3
 72
    10
 73
     6
 74
     0
 42
0.000000001
 43
0.00000001
 40
0.0
 40
0.0
 40
0.0
 40
0.0
 40
0.3111636621496175
 40
0.6573717615434426
 40
1.0
 40
1.0
 40
1.0
 40
1.0
 10
8.598076211353304
 20
-0.2110748826465672
 30
0.0
 10
8.598076211353304
 20
-0.359649870756251
 30
0.0
 10
8.598076211353304
 20
-0.6735329282451313
 30
0.0
 10
8.598076211353304
 20
-1.026161145107635
 30
0.0
 10
8.598076211353304
 20
-1.132546053096444
 30
0.0
 10
8.598076211353304
 20
-1.185462067568499
 30
0.0
  0
LINE
  5
E2
330
1F
100
AcDbEntity
  8
중심선
 62
     1
100
AcDbLine
 10
-44.40192378864671
 20
-0.0000000000000041
 30
0.0
 11
31.59807621135331
 21
0.0000000000000035
 31
0.0
  0
CIRCLE
  5
E3
330
1F
100
AcDbEntity
  8
외형선
100
AcDbCircle
 10
0.0000000000000104
 20
0.0
 30
0.0
 40
3.000000000000005
  0
INSERT
  5
E4
330
1F
100
AcDbEntity
  8
0
  6
Continuous
 62
     7
100
AcDbBlockReference
 66
     1
  2
블럭10
 10
-22.93944368806589
 20
-52.04609937292004
 30
0.0
  0
ATTRIB
  5
E5
330
E4
100
AcDbEntity
  8
FORMAT
 62
     2
100
AcDbText
 10
-39.05870472750145
 20
-49.97073246008785
 30
0.0
 40
4.233333333333333
  1
SEME7003020E [ 2 FLUTE ]
 41
0.75
  7
SLDTEXTSTYLE0
 11
-39.05870472750145
 21
-52.08739912675452
 31
0.0
100
AcDbAttribute
  2
AUTOATTR0
 70
     0
 74
     1
  0
SEQEND
  5
E6
330
E4
100
AcDbEntity
  8
0
  6
Continuous
 62
     7
  0
HATCH
  5
E7
330
1F
100
AcDbEntity
  8
중심선
100
AcDbHatch
 10
0.0
 20
0.0
 30
0.0
210
0.0
220
0.0
230
1.0
  2
SOLID
 70
     1
 71
     0
 91
        1
 92
        0
 93
        4
 72
     1
 10
-17.22453438368504
 20
-35.7989250712761
 11
-20.67080962752232
 21
-35.7989250712761
 72
     1
 10
-20.67080962752232
 20
-35.7989250712761
 11
-22.79903948672635
 21
-38.3352506518487
 72
     1
 10
-22.79903948672635
 20
-38.3352506518487
 11
-19.35273115777591
 21
-38.33521122254621
 72
     1
 10
-19.35273115777591
 20
-38.33521122254621
 11
-17.22453438368504
 21
-35.7989250712761
 97
        0
 75
     0
 76
     1
 98
        1
 10
0.0
 20
0.0
  0
HATCH
  5
E8
330
1F
100
AcDbEntity
  8
중심선
100
AcDbHatch
 10
0.0
 20
0.0
 30
0.0
210
0.0
220
0.0
230
1.0
  2
SOLID
 70
     1
 71
     0
 91
        1
 92
        0
 93
        4
 72
     1
 10
-12.21177039264909
 20
-35.7989250712761
 11
-15.65804563648637
 21
-35.7989250712761
 72
     1
 10
-15.65804563648637
 20
-35.7989250712761
 11
-20.18918364484376
 21
-41.19892507127612
 72
     1
 10
-20.18918364484376
 20
-41.19892507127612
 11
-16.74290840100648
 21
-41.19892507127612
 72
     1
 10
-16.74290840100648
 20
-41.19892507127612
 11
-12.21177039264909
 21
-35.7989250712761
 97
        0
 75
     0
 76
     1
 98
        1
 10
0.0
 20
0.0
  0
HATCH
  5
E9
330
1F
100
AcDbEntity
  8
중심선
100
AcDbHatch
 10
0.0
 20
0.0
 30
0.0
210
0.0
220
0.0
230
1.0
  2
SOLID
 70
     1
 71
     0
 91
        1
 92
        0
 93
        4
 72
     1
 10
-7.199006401613195
 20
-35.79892507127613
 11
-10.64528164545031
 21
-35.7989250712761
 72
     1
 10
-10.64528164545031
 20
-35.7989250712761
 11
-17.69371854733956
 21
-44.19892507127612
 72
     1
 10
-17.69371854733956
 20
-44.19892507127612
 11
-14.24744330350228
 21
-44.19892507127612
 72
     1
 10
-14.24744330350228
 20
-44.19892507127612
 11
-7.199006401613195
 21
-35.79892507127613
 97
        0
 75
     0
 76
     1
 98
        1
 10
0.0
 20
0.0
  0
HATCH
  5
EA
330
1F
100
AcDbEntity
  8
중심선
100
AcDbHatch
 10
0.0
 20
0.0
 30
0.0
210
0.0
220
0.0
230
1.0
  2
SOLID
 70
     1
 71
     0
 91
        1
 92
        0
 93
        6
 72
     3
 10
-2.399115970600996
 20
-39.99892507132738
 11
3.960054785062284
 21
1.540850780301639E-10
 40
0.3939339440162633
 50
17.09539180608433
 51
320.0019657685079
 73
     0
 72
     1
 10
-0.7161163149004002
 20
-38.58681907591441
 11
1.589185558800638
 21
-36.65249236586649
 72
     3
 10
-2.399115970653842
 20
-39.99892507127625
 11
6.600054785286829
 21
-1.249000902703301E-13
 40
0.6363583540795982
 50
39.99873849337408
 51
368.4976242363725
 73
     1
 72
     1
 10
4.026216521246767
 20
-39.03892507120613
 11
-3.71904866381792
 21
-39.0389250712061
 72
     1
 10
-3.71904866381792
 20
-39.0389250712061
 11
-3.719073708263854
 21
-40.95892507120602
 72
     1
 10
-3.719073708263854
 20
-40.95892507120602
 11
0.7223060612081831
 21
-40.95892507120599
 97
        0
 75
     0
 76
     1
 98
        1
 10
0.0
 20
0.0
  0
DIMENSION
  5
EB
330
1F
100
AcDbEntity
  8
치수문자_일반주서
100
AcDbDimension
  2
_D
 10
36.35522436148039
 20
1.500000000000099
 30
0.0
 11
36.35522436148037
 21
11.1665000000001
 31
0.0
 70
   160
  1
%%c<>
 71
     2
 42
2.999999999999993
 52
-270.0
  3
SLDDIMSTYLE0
100
AcDbAlignedDimension
 13
28.59807621135331
 23
-1.499999999999923
 33
0.0
 14
28.59807621135331
 24
1.500000000000071
 34
0.0
 50
90.0000000000002
100
AcDbRotatedDimension
  0
DIMENSION
  5
F9
330
1F
100
AcDbEntity
  8
치수문자_일반주서
100
AcDbDimension
  2
_D_1
 10
28.59807621135331
 20
24.23841044024269
 30
0.0
 11
-6.401923788646693
 21
24.23841044024269
 31
0.0
 70
   160
  1
<>
 71
     2
 42
70.0
  3
SLDDIMSTYLE1
100
AcDbAlignedDimension
 13
-41.4019237886467
 23
2.449999999999994
 33
0.0
 14
28.59807621135331
 24
1.500000000000071
 34
0.0
 50
-0.0000000000000058
100
AcDbRotatedDimension
  0
DIMENSION
  5
104
330
1F
100
AcDbEntity
  8
치수문자_일반주서
100
AcDbDimension
  2
_D_2
 10
28.59807621135331
 20
14.53245987373603
 30
0.0
 11
18.59807621135329
 21
14.53245987373603
 31
0.0
 70
   160
  1
<>
 71
     2
 42
20.00000000000005
  3
SLDDIMSTYLE0
100
AcDbAlignedDimension
 13
8.59807621135326
 23
1.185462067568503
 33
0.0
 14
28.59807621135331
 24
1.500000000000071
 34
0.0
100
AcDbRotatedDimension
  0
DIMENSION
  5
10E
330
1F
100
AcDbEntity
  8
치수문자_일반주서
100
AcDbDimension
  2
_D_3
 10
-52.93160667864934
 20
-3.000000000000046
 30
0.0
 11
-52.93160667864939
 21
12.66649999999995
 31
0.0
 70
   160
  1
%%c<>
 71
     2
 42
5.999999999999995
 52
-270.0
  3
SLDDIMSTYLE0
100
AcDbAlignedDimension
 13
-40.8519237886467
 23
2.999999999999995
 33
0.0
 14
-40.8519237886467
 24
-3.0
 34
0.0
 50
90.0000000000002
100
AcDbRotatedDimension
  0
INSERT
  5
121
330
1F
100
AcDbEntity
  8
외형선
100
AcDbBlockReference
  2
SW_DOWELSYMBOL_0
 10
0.0000000000000104
 20
0.0
 30
0.0
  0
ENDSEC
  0
SECTION
  2
OBJECTS
  0
DICTIONARY
  5
C
330
0
100
AcDbDictionary
281
     1
  3
ACAD_GROUP
350
D
  3
ACAD_IMAGE_VARS
350
145
  3
ACAD_LAYOUT
350
1A
  3
ACAD_MLINESTYLE
350
17
  3
ACAD_PLOTSETTINGS
350
19
  3
ACAD_PLOTSTYLENAME
350
E
  3
ACAD_SCALELIST
350
47
  3
APPDATA
350
143
  3
DWGPROPS
350
153
  0
DICTIONARY
  5
D
102
{ACAD_REACTORS
330
C
102
}
330
C
100
AcDbDictionary
281
     1
  0
RASTERVARIABLES
  5
145
102
{ACAD_REACTORS
330
C
102
}
330
C
100
AcDbRasterVariables
 90
        0
 70
     1
 71
     1
 72
     1
  0
DICTIONARY
  5
1A
102
{ACAD_REACTORS
330
C
102
}
330
C
100
AcDbDictionary
281
     1
  3
Layout1
350
1E
  3
Layout2
350
26
  3
Model
350
22
  0
DICTIONARY
  5
17
102
{ACAD_REACTORS
330
C
102
}
330
C
100
AcDbDictionary
281
     1
  3
Standard
350
18
  0
DICTIONARY
  5
19
102
{ACAD_REACTORS
330
C
102
}
330
C
100
AcDbDictionary
281
     1
  0
ACDBDICTIONARYWDFLT
  5
E
102
{ACAD_REACTORS
330
C
102
}
330
C
100
AcDbDictionary
281
     1
  3
Normal
350
F
100
AcDbDictionaryWithDefault
340
F
  0
DICTIONARY
  5
47
102
{ACAD_REACTORS
330
C
102
}
330
C
100
AcDbDictionary
281
     1
  3
A0
350
48
  3
A1
350
49
  3
A2
350
4A
  3
A3
350
4B
  3
A4
350
4C
  3
A5
350
4D
  3
A6
350
4E
  3
A7
350
4F
  3
A8
350
50
  3
A9
350
51
  3
B0
350
52
  3
B1
350
53
  3
B2
350
54
  3
B3
350
55
  3
B4
350
56
  3
B5
350
57
  3
B6
350
58
  3
B7
350
59
  3
B8
350
5A
  3
B9
350
5B
  3
C0
350
5C
  3
C1
350
5D
  3
C2
350
5E
  3
C3
350
5F
  3
C4
350
60
  3
C5
350
61
  3
C6
350
62
  3
C7
350
63
  3
C8
350
64
  3
C9
350
65
  3
D0
350
66
  3
D1
350
67
  3
D2
350
68
  0
DICTIONARY
  5
143
102
{ACAD_REACTORS
330
C
102
}
330
C
100
AcDbDictionary
281
     1
  0
XRECORD
  5
153
102
{ACAD_REACTORS
330
C
102
}
330
C
100
AcDbXrecord
280
     1
  1
DWGPROPS COOKIE
  2

  3

  4

  6

  7

  8
12014102
  9

300
=
301
=
302
=
303
=
304
=
305
=
306
=
307
=
308
=
309
=
 40
0.0
 41
2458262.162975451
 42
2458265.99598625
  1

 90
        0
  0
LAYOUT
  5
1E
102
{ACAD_REACTORS
330
1A
102
}
330
1A
100
AcDbPlotSettings
  1

  2
none_device
  4

  6

 40
0.0
 41
0.0
 42
0.0
 43
0.0
 44
0.0
 45
0.0
 46
0.0
 47
0.0
 48
0.0
 49
0.0
140
0.0
141
0.0
142
1.0
143
1.0
 70
   688
 72
     1
 73
     0
 74
     5
  7

 75
    16
147
1.0
148
0.0
149
0.0
100
AcDbLayout
  1
Layout1
 70
     1
 71
     1
 10
0.0
 20
0.0
 11
420.0
 21
297.0
 12
0.0
 22
0.0
 32
0.0
 14
1.000000000000000E+20
 24
1.000000000000000E+20
 34
1.000000000000000E+20
 15
-1.000000000000000E+20
 25
-1.000000000000000E+20
 35
-1.000000000000000E+20
146
0.0
 13
0.0
 23
0.0
 33
0.0
 16
1.0
 26
0.0
 36
0.0
 17
0.0
 27
1.0
 37
0.0
 76
     0
330
1B
  0
LAYOUT
  5
26
102
{ACAD_REACTORS
330
1A
102
}
330
1A
100
AcDbPlotSettings
  1

  2
none_device
  4

  6

 40
0.0
 41
0.0
 42
0.0
 43
0.0
 44
0.0
 45
0.0
 46
0.0
 47
0.0
 48
0.0
 49
0.0
140
0.0
141
0.0
142
1.0
143
1.0
 70
   688
 72
     1
 73
     0
 74
     5
  7

 75
    16
147
1.0
148
0.0
149
0.0
100
AcDbLayout
  1
Layout2
 70
     1
 71
     2
 10
0.0
 20
0.0
 11
0.0
 21
0.0
 12
0.0
 22
0.0
 32
0.0
 14
0.0
 24
0.0
 34
0.0
 15
0.0
 25
0.0
 35
0.0
146
0.0
 13
0.0
 23
0.0
 33
0.0
 16
1.0
 26
0.0
 36
0.0
 17
0.0
 27
1.0
 37
0.0
 76
     0
330
23
  0
LAYOUT
  5
22
102
{ACAD_REACTORS
330
1A
102
}
330
1A
100
AcDbPlotSettings
  1

  2
none_device
  4
ANSI_A_(11.00_x_8.50_Inches)
  6

 40
6.35
 41
19.05
 42
6.35000508
 43
19.05000254
 44
279.4
 45
215.9
 46
145.765014758135
 47
118.4377884955873
 48
0.0
 49
0.0
140
0.0
141
0.0
142
0.1058944507156154
143
1.0
 70
  1696
 72
     0
 73
     0
 74
     0
  7

 75
     0
147
0.0235690232323232
148
0.0
149
0.0
100
AcDbLayout
  1
Model
 70
     1
 71
     0
 10
0.0
 20
0.0
 11
420.0
 21
297.0
 12
0.0
 22
0.0
 32
0.0
 14
-57.3066066786494
 24
-49.97073246008785
 34
0.0
 15
36.90555769481373
 25
28.61341044024269
 35
0.0
146
0.0
 13
0.0
 23
0.0
 33
0.0
 16
1.0
 26
0.0
 36
0.0
 17
0.0
 27
1.0
 37
0.0
 76
     0
330
1F
331
29
  0
MLINESTYLE
  5
18
102
{ACAD_REACTORS
330
17
102
}
330
17
100
AcDbMlineStyle
  2
Standard
 70
     0
  3

 62
   256
 51
90.0
 52
90.0
 71
     2
 49
0.5
 62
   256
  6
BYLAYER
 49
-0.5
 62
   256
  6
BYLAYER
  0
ACDBPLACEHOLDER
  5
F
102
{ACAD_REACTORS
330
E
102
}
330
E
  0
SCALE
  5
48
102
{ACAD_REACTORS
330
47
102
}
330
47
100
AcDbScale
 70
     0
300
1:1
140
1.0
141
1.0
290
     1
  0
SCALE
  5
49
102
{ACAD_REACTORS
330
47
102
}
330
47
100
AcDbScale
 70
     0
300
1:2
140
1.0
141
2.0
290
     0
  0
SCALE
  5
4A
102
{ACAD_REACTORS
330
47
102
}
330
47
100
AcDbScale
 70
     0
300
1:4
140
1.0
141
4.0
290
     0
  0
SCALE
  5
4B
102
{ACAD_REACTORS
330
47
102
}
330
47
100
AcDbScale
 70
     0
300
1:5
140
1.0
141
5.0
290
     0
  0
SCALE
  5
4C
102
{ACAD_REACTORS
330
47
102
}
330
47
100
AcDbScale
 70
     0
300
1:8
140
1.0
141
8.0
290
     0
  0
SCALE
  5
4D
102
{ACAD_REACTORS
330
47
102
}
330
47
100
AcDbScale
 70
     0
300
1:10
140
1.0
141
10.0
290
     0
  0
SCALE
  5
4E
102
{ACAD_REACTORS
330
47
102
}
330
47
100
AcDbScale
 70
     0
300
1:16
140
1.0
141
16.0
290
     0
  0
SCALE
  5
4F
102
{ACAD_REACTORS
330
47
102
}
330
47
100
AcDbScale
 70
     0
300
1:20
140
1.0
141
20.0
290
     0
  0
SCALE
  5
50
102
{ACAD_REACTORS
330
47
102
}
330
47
100
AcDbScale
 70
     0
300
1:30
140
1.0
141
30.0
290
     0
  0
SCALE
  5
51
102
{ACAD_REACTORS
330
47
102
}
330
47
100
AcDbScale
 70
     0
300
1:40
140
1.0
141
40.0
290
     0
  0
SCALE
  5
52
102
{ACAD_REACTORS
330
47
102
}
330
47
100
AcDbScale
 70
     0
300
1:50
140
1.0
141
50.0
290
     0
  0
SCALE
  5
53
102
{ACAD_REACTORS
330
47
102
}
330
47
100
AcDbScale
 70
     0
300
1:100
140
1.0
141
100.0
290
     0
  0
SCALE
  5
54
102
{ACAD_REACTORS
330
47
102
}
330
47
100
AcDbScale
 70
     0
300
2:1
140
2.0
141
1.0
290
     0
  0
SCALE
  5
55
102
{ACAD_REACTORS
330
47
102
}
330
47
100
AcDbScale
 70
     0
300
4:1
140
4.0
141
1.0
290
     0
  0
SCALE
  5
56
102
{ACAD_REACTORS
330
47
102
}
330
47
100
AcDbScale
 70
     0
300
8:1
140
8.0
141
1.0
290
     0
  0
SCALE
  5
57
102
{ACAD_REACTORS
330
47
102
}
330
47
100
AcDbScale
 70
     0
300
10:1
140
10.0
141
1.0
290
     0
  0
SCALE
  5
58
102
{ACAD_REACTORS
330
47
102
}
330
47
100
AcDbScale
 70
     0
300
100:1
140
100.0
141
1.0
290
     0
  0
SCALE
  5
59
102
{ACAD_REACTORS
330
47
102
}
330
47
100
AcDbScale
 70
     0
300
1/128" = 1'-0"
140
0.0078125
141
12.0
290
     0
  0
SCALE
  5
5A
102
{ACAD_REACTORS
330
47
102
}
330
47
100
AcDbScale
 70
     0
300
1/64" = 1'-0"
140
0.015625
141
12.0
290
     0
  0
SCALE
  5
5B
102
{ACAD_REACTORS
330
47
102
}
330
47
100
AcDbScale
 70
     0
300
1/32" = 1'-0"
140
0.03125
141
12.0
290
     0
  0
SCALE
  5
5C
102
{ACAD_REACTORS
330
47
102
}
330
47
100
AcDbScale
 70
     0
300
1/16" = 1'-0"
140
0.0625
141
12.0
290
     0
  0
SCALE
  5
5D
102
{ACAD_REACTORS
330
47
102
}
330
47
100
AcDbScale
 70
     0
300
3/32" = 1'-0"
140
0.09375
141
12.0
290
     0
  0
SCALE
  5
5E
102
{ACAD_REACTORS
330
47
102
}
330
47
100
AcDbScale
 70
     0
300
1/8" = 1'-0"
140
0.125
141
12.0
290
     0
  0
SCALE
  5
5F
102
{ACAD_REACTORS
330
47
102
}
330
47
100
AcDbScale
 70
     0
300
3/16" = 1'-0"
140
0.1875
141
12.0
290
     0
  0
SCALE
  5
60
102
{ACAD_REACTORS
330
47
102
}
330
47
100
AcDbScale
 70
     0
300
1/4" = 1'-0"
140
0.25
141
12.0
290
     0
  0
SCALE
  5
61
102
{ACAD_REACTORS
330
47
102
}
330
47
100
AcDbScale
 70
     0
300
3/8" = 1'-0"
140
0.375
141
12.0
290
     0
  0
SCALE
  5
62
102
{ACAD_REACTORS
330
47
102
}
330
47
100
AcDbScale
 70
     0
300
1/2" = 1'-0"
140
0.5
141
12.0
290
     0
  0
SCALE
  5
63
102
{ACAD_REACTORS
330
47
102
}
330
47
100
AcDbScale
 70
     0
300
3/4" = 1'-0"
140
0.75
141
12.0
290
     0
  0
SCALE
  5
64
102
{ACAD_REACTORS
330
47
102
}
330
47
100
AcDbScale
 70
     0
300
1" = 1'-0"
140
1.0
141
12.0
290
     0
  0
SCALE
  5
65
102
{ACAD_REACTORS
330
47
102
}
330
47
100
AcDbScale
 70
     0
300
1-1/2" = 1'-0"
140
1.5
141
12.0
290
     0
  0
SCALE
  5
66
102
{ACAD_REACTORS
330
47
102
}
330
47
100
AcDbScale
 70
     0
300
3" = 1'-0"
140
3.0
141
12.0
290
     0
  0
SCALE
  5
67
102
{ACAD_REACTORS
330
47
102
}
330
47
100
AcDbScale
 70
     0
300
6" = 1'-0"
140
6.0
141
12.0
290
     0
  0
SCALE
  5
68
102
{ACAD_REACTORS
330
47
102
}
330
47
100
AcDbScale
 70
     0
300
1'-0" = 1'-0"
140
12.0
141
12.0
290
     0
  0
ENDSEC
  0
EOF
