  0
SECTION
  2
HEADER
  9
$ACADVER
  1
AC1015
  9
$ACADMAINTVER
 70
     6
  9
$DWGCODEPAGE
  3
ANSI_949
  9
$INSBASE
 10
0.0
 20
0.0
 30
0.0
  9
$EXTMIN
 10
-47.0443691083666
 20
-49.97073246008785
 30
0.0
  9
$EXTMAX
 10
36.61812956622447
 20
28.61341044024268
 30
0.0
  9
$LIMMIN
 10
0.0
 20
0.0
  9
$LIMMAX
 10
420.0
 20
297.0
  9
$ORTHOMODE
 70
     0
  9
$REGENMODE
 70
     1
  9
$FILLMODE
 70
     1
  9
$QTEXTMODE
 70
     0
  9
$MIRRTEXT
 70
     1
  9
$LTSCALE
 40
1.0
  9
$ATTMODE
 70
     1
  9
$TEXTSIZE
 40
3.5
  9
$TRACEWID
 40
1.0
  9
$TEXTSTYLE
  7
Standard
  9
$CLAYER
  8
0
  9
$CELTYPE
  6
ByLayer
  9
$CECOLOR
 62
   256
  9
$CELTSCALE
 40
1.0
  9
$DISPSILH
 70
     0
  9
$DIMSCALE
 40
1.0
  9
$DIMASZ
 40
3.302
  9
$DIMEXO
 40
1.0
  9
$DIMDLI
 40
3.75
  9
$DIMRND
 40
0.0
  9
$DIMDLE
 40
0.0
  9
$DIMEXE
 40
1.0
  9
$DIMTP
 40
0.0
  9
$DIMTM
 40
0.0
  9
$DIMTXT
 40
3.5
  9
$DIMCEN
 40
2.5
  9
$DIMTSZ
 40
0.0
  9
$DIMTOL
 70
     0
  9
$DIMLIM
 70
     0
  9
$DIMTIH
 70
     1
  9
$DIMTOH
 70
     1
  9
$DIMSE1
 70
     0
  9
$DIMSE2
 70
     0
  9
$DIMTAD
 70
     1
  9
$DIMZIN
 70
     0
  9
$DIMBLK
  1

  9
$DIMASO
 70
     1
  9
$DIMSHO
 70
     1
  9
$DIMPOST
  1

  9
$DIMAPOST
  1

  9
$DIMALT
 70
     0
  9
$DIMALTD
 70
     3
  9
$DIMALTF
 40
0.0393700787401575
  9
$DIMLFAC
 40
1.0
  9
$DIMTOFL
 70
     1
  9
$DIMTVP
 40
0.0
  9
$DIMTIX
 70
     0
  9
$DIMSOXD
 70
     0
  9
$DIMSAH
 70
     0
  9
$DIMBLK1
  1

  9
$DIMBLK2
  1

  9
$DIMSTYLE
  2
ISO-25
  9
$DIMCLRD
 70
     0
  9
$DIMCLRE
 70
     0
  9
$DIMCLRT
 70
     0
  9
$DIMTFAC
 40
1.0
  9
$DIMGAP
 40
1.524
  9
$DIMJUST
 70
     0
  9
$DIMSD1
 70
     0
  9
$DIMSD2
 70
     0
  9
$DIMTOLJ
 70
     0
  9
$DIMTZIN
 70
     0
  9
$DIMALTZ
 70
     0
  9
$DIMALTTZ
 70
     0
  9
$DIMUPT
 70
     0
  9
$DIMDEC
 70
     2
  9
$DIMTDEC
 70
     2
  9
$DIMALTU
 70
     2
  9
$DIMALTTD
 70
     3
  9
$DIMTXSTY
  7
Standard
  9
$DIMAUNIT
 70
     0
  9
$DIMADEC
 70
     2
  9
$DIMALTRND
 40
0.0
  9
$DIMAZIN
 70
     0
  9
$DIMDSEP
 70
    44
  9
$DIMATFIT
 70
     3
  9
$DIMFRAC
 70
     0
  9
$DIMLDRBLK
  1

  9
$DIMLUNIT
 70
     2
  9
$DIMLWD
 70
    -2
  9
$DIMLWE
 70
    -2
  9
$DIMTMOVE
 70
     0
  9
$LUNITS
 70
     2
  9
$LUPREC
 70
     2
  9
$SKETCHINC
 40
1.0
  9
$FILLETRAD
 40
10.0
  9
$AUNITS
 70
     0
  9
$AUPREC
 70
     2
  9
$MENU
  1
.
  9
$ELEVATION
 40
0.0
  9
$PELEVATION
 40
0.0
  9
$THICKNESS
 40
0.0
  9
$LIMCHECK
 70
     0
  9
$CHAMFERA
 40
0.0
  9
$CHAMFERB
 40
0.0
  9
$CHAMFERC
 40
0.0
  9
$CHAMFERD
 40
0.0
  9
$SKPOLY
 70
     0
  9
$TDCREATE
 40
2458262.536661852
  9
$TDUCREATE
 40
2458262.161661852
  9
$TDUPDATE
 40
2458264.798429734
  9
$TDUUPDATE
 40
2458264.423429734
  9
$TDINDWG
 40
0.0028944329
  9
$TDUSRTIMER
 40
2458264.422996609
  9
$USRTIMER
 70
     1
  9
$ANGBASE
 50
0.0
  9
$ANGDIR
 70
     0
  9
$PDMODE
 70
     0
  9
$PDSIZE
 40
-1.0
  9
$PLINEWID
 40
0.0
  9
$SPLFRAME
 70
     0
  9
$SPLINETYPE
 70
     6
  9
$SPLINESEGS
 70
     8
  9
$HANDSEED
  5
1A8
  9
$SURFTAB1
 70
     6
  9
$SURFTAB2
 70
     6
  9
$SURFTYPE
 70
     6
  9
$SURFU
 70
     6
  9
$SURFV
 70
     6
  9
$UCSBASE
  2

  9
$UCSNAME
  2

  9
$UCSORG
 10
0.0
 20
0.0
 30
0.0
  9
$UCSXDIR
 10
1.0
 20
0.0
 30
0.0
  9
$UCSYDIR
 10
0.0
 20
1.0
 30
0.0
  9
$UCSORTHOREF
  2

  9
$UCSORTHOVIEW
 70
     0
  9
$UCSORGTOP
 10
0.0
 20
0.0
 30
0.0
  9
$UCSORGBOTTOM
 10
0.0
 20
0.0
 30
0.0
  9
$UCSORGLEFT
 10
0.0
 20
0.0
 30
0.0
  9
$UCSORGRIGHT
 10
0.0
 20
0.0
 30
0.0
  9
$UCSORGFRONT
 10
0.0
 20
0.0
 30
0.0
  9
$UCSORGBACK
 10
0.0
 20
0.0
 30
0.0
  9
$PUCSBASE
  2

  9
$PUCSNAME
  2

  9
$PUCSORG
 10
0.0
 20
0.0
 30
0.0
  9
$PUCSXDIR
 10
1.0
 20
0.0
 30
0.0
  9
$PUCSYDIR
 10
0.0
 20
1.0
 30
0.0
  9
$PUCSORTHOREF
  2

  9
$PUCSORTHOVIEW
 70
     0
  9
$PUCSORGTOP
 10
0.0
 20
0.0
 30
0.0
  9
$PUCSORGBOTTOM
 10
0.0
 20
0.0
 30
0.0
  9
$PUCSORGLEFT
 10
0.0
 20
0.0
 30
0.0
  9
$PUCSORGRIGHT
 10
0.0
 20
0.0
 30
0.0
  9
$PUCSORGFRONT
 10
0.0
 20
0.0
 30
0.0
  9
$PUCSORGBACK
 10
0.0
 20
0.0
 30
0.0
  9
$USERI1
 70
     0
  9
$USERI2
 70
     0
  9
$USERI3
 70
     0
  9
$USERI4
 70
     0
  9
$USERI5
 70
     0
  9
$USERR1
 40
0.0
  9
$USERR2
 40
0.0
  9
$USERR3
 40
0.0
  9
$USERR4
 40
0.0
  9
$USERR5
 40
0.0
  9
$WORLDVIEW
 70
     1
  9
$SHADEDGE
 70
     3
  9
$SHADEDIF
 70
    70
  9
$TILEMODE
 70
     1
  9
$MAXACTVP
 70
    64
  9
$PINSBASE
 10
0.0
 20
0.0
 30
0.0
  9
$PLIMCHECK
 70
     0
  9
$PEXTMIN
 10
1.000000000000000E+20
 20
1.000000000000000E+20
 30
1.000000000000000E+20
  9
$PEXTMAX
 10
-1.000000000000000E+20
 20
-1.000000000000000E+20
 30
-1.000000000000000E+20
  9
$PLIMMIN
 10
0.0
 20
0.0
  9
$PLIMMAX
 10
0.0
 20
0.0
  9
$UNITMODE
 70
     0
  9
$VISRETAIN
 70
     1
  9
$PLINEGEN
 70
     0
  9
$PSLTSCALE
 70
     1
  9
$TREEDEPTH
 70
  3020
  9
$CMLSTYLE
  2
Standard
  9
$CMLJUST
 70
     0
  9
$CMLSCALE
 40
20.0
  9
$PROXYGRAPHICS
 70
     1
  9
$MEASUREMENT
 70
     1
  9
$CELWEIGHT
370
    -1
  9
$ENDCAPS
280
     0
  9
$JOINSTYLE
280
     0
  9
$LWDISPLAY
290
     1
  9
$INSUNITS
 70
     4
  9
$HYPERLINKBASE
  1

  9
$STYLESHEET
  1

  9
$XEDIT
290
     1
  9
$CEPSNTYPE
380
     0
  9
$PSTYLEMODE
290
     1
  9
$FINGERPRINTGUID
  2
{992DC03F-30B0-4FF3-AE3A-A69D3CBC5D0A}
  9
$VERSIONGUID
  2
{FAEB1C32-E019-11D5-929B-00C0DF256EC4}
  9
$EXTNAMES
290
     1
  9
$PSVPSCALE
 40
0.0
  9
$OLESTARTUP
290
     0
  0
ENDSEC
  0
SECTION
  2
CLASSES
  0
CLASS
  1
ACDBDICTIONARYWDFLT
  2
AcDbDictionaryWithDefault
  3
ObjectDBX Classes
 90
        0
280
     0
281
     0
  0
CLASS
  1
VISUALSTYLE
  2
AcDbVisualStyle
  3
ObjectDBX Classes
 90
     4095
280
     0
281
     0
  0
CLASS
  1
MATERIAL
  2
AcDbMaterial
  3
ObjectDBX Classes
 90
     1153
280
     0
281
     0
  0
CLASS
  1
SCALE
  2
AcDbScale
  3
ObjectDBX Classes
 90
     1153
280
     0
281
     0
  0
CLASS
  1
SUN
  2
AcDbSun
  3
SCENEOE
 90
     1153
280
     0
281
     0
  0
CLASS
  1
ACDBPLACEHOLDER
  2
AcDbPlaceHolder
  3
ObjectDBX Classes
 90
        0
280
     0
281
     0
  0
CLASS
  1
LAYOUT
  2
AcDbLayout
  3
ObjectDBX Classes
 90
        0
280
     0
281
     0
  0
CLASS
  1
TABLESTYLE
  2
AcDbTableStyle
  3
ObjectDBX Classes
 90
     4095
280
     0
281
     0
  0
CLASS
  1
MLEADERSTYLE
  2
AcDbMLeaderStyle
  3
ACDB_MLEADERSTYLE_CLASS
 90
     4095
280
     0
281
     0
  0
CLASS
  1
RASTERVARIABLES
  2
AcDbRasterVariables
  3
ISM
 90
        0
280
     0
281
     0
  0
ENDSEC
  0
SECTION
  2
TABLES
  0
TABLE
  2
VPORT
  5
8
330
0
100
AcDbSymbolTable
 70
     1
  0
VPORT
  5
29
330
8
100
AcDbSymbolTableRecord
100
AcDbViewportTableRecord
  2
*Active
 70
     0
 10
0.0
 20
0.0
 11
1.0
 21
1.0
 12
-5.213119771071064
 22
-10.67866100992259
 13
0.0
 23
0.0
 14
10.0
 24
10.0
 15
10.0
 25
10.0
 16
0.0
 26
0.0
 36
1.0
 17
0.0
 27
0.0
 37
0.0
 40
80.15582575833714
 41
1.653401797175867
 42
50.0
 43
0.0
 44
0.0
 50
0.0
 51
0.0
 71
    16
 72
  2000
 73
     1
 74
     3
 75
     0
 76
     0
 77
     0
 78
     0
281
     0
 65
     1
110
0.0
120
0.0
130
0.0
111
1.0
121
0.0
131
0.0
112
0.0
122
1.0
132
0.0
 79
     0
146
0.0
  0
ENDTAB
  0
TABLE
  2
LTYPE
  5
5
330
0
100
AcDbSymbolTable
 70
     6
  0
LTYPE
  5
14
330
5
100
AcDbSymbolTableRecord
100
AcDbLinetypeTableRecord
  2
ByBlock
 70
     0
  3

 72
    65
 73
     0
 40
0.0
  0
LTYPE
  5
15
330
5
100
AcDbSymbolTableRecord
100
AcDbLinetypeTableRecord
  2
ByLayer
 70
     0
  3

 72
    65
 73
     0
 40
0.0
  0
LTYPE
  5
16
330
5
100
AcDbSymbolTableRecord
100
AcDbLinetypeTableRecord
  2
Continuous
 70
     0
  3
Solid line
 72
    65
 73
     0
 40
0.0
  0
LTYPE
  5
6A
330
5
100
AcDbSymbolTableRecord
100
AcDbLinetypeTableRecord
  2
HIDDEN
 70
     0
  3
Hidden __ __ __ __ __ __ __ __ __ __ __ __ __ __
 72
    65
 73
     2
 40
1.905
 49
1.27
 74
     0
 49
-0.635
 74
     0
  0
LTYPE
  5
6B
330
5
100
AcDbSymbolTableRecord
100
AcDbLinetypeTableRecord
  2
PHANTOM
 70
     0
  3
Phantom ______  __  __  ______  __  __  ______
 72
    65
 73
     6
 40
12.7
 49
6.35
 74
     0
 49
-1.27
 74
     0
 49
1.27
 74
     0
 49
-1.27
 74
     0
 49
1.27
 74
     0
 49
-1.27
 74
     0
  0
LTYPE
  5
6C
330
5
100
AcDbSymbolTableRecord
100
AcDbLinetypeTableRecord
  2
CENTER
 70
     0
  3
Center ____ _ ____ _ ____ _ ____ _ ____ _ ____
 72
    65
 73
     4
 40
10.16
 49
6.35
 74
     0
 49
-1.27
 74
     0
 49
1.27
 74
     0
 49
-1.27
 74
     0
  0
LTYPE
  5
6D
330
5
100
AcDbSymbolTableRecord
100
AcDbLinetypeTableRecord
  2
CENTERX2
 70
     0
  3
Center (2x) ________  __  ________  __  _____
 72
    65
 73
     4
 40
20.32
 49
12.7
 74
     0
 49
-2.54
 74
     0
 49
2.54
 74
     0
 49
-2.54
 74
     0
  0
LTYPE
  5
6E
330
5
100
AcDbSymbolTableRecord
100
AcDbLinetypeTableRecord
  2
DOT2
 70
     0
  3
Dot (.5x) ........................................
 72
    65
 73
     2
 40
0.635
 49
0.0
 74
     0
 49
-0.635
 74
     0
  0
ENDTAB
  0
TABLE
  2
LAYER
  5
2
330
0
100
AcDbSymbolTable
 70
    17
  0
LAYER
  5
10
330
2
100
AcDbSymbolTableRecord
100
AcDbLayerTableRecord
  2
0
 70
     0
 62
     7
  6
Continuous
370
    -3
390
F
  0
LAYER
  5
6F
330
2
100
AcDbSymbolTableRecord
100
AcDbLayerTableRecord
  2
FORMAT
 70
     0
 62
     2
  6
Continuous
370
    -3
390
F
  0
LAYER
  5
70
330
2
100
AcDbSymbolTableRecord
100
AcDbLayerTableRecord
  2
외형선
 70
     0
 62
   100
  6
Continuous
370
    30
390
F
  0
LAYER
  5
71
330
2
100
AcDbSymbolTableRecord
100
AcDbLayerTableRecord
  2
숨은선
 70
     0
 62
     2
  6
HIDDEN
370
    15
390
F
  0
LAYER
  5
72
330
2
100
AcDbSymbolTableRecord
100
AcDbLayerTableRecord
  2
중심선
 70
     0
 62
     1
  6
CENTERX2
370
    -3
390
F
  0
LAYER
  5
73
330
2
100
AcDbSymbolTableRecord
100
AcDbLayerTableRecord
  2
파단선
 70
     0
 62
     4
  6
Continuous
370
    -3
390
F
  0
LAYER
  5
74
330
2
100
AcDbSymbolTableRecord
100
AcDbLayerTableRecord
  2
해칭선
 70
     0
 62
     4
  6
Continuous
370
    -3
390
F
  0
LAYER
  5
75
330
2
100
AcDbSymbolTableRecord
100
AcDbLayerTableRecord
  2
가는실선
 70
     0
 62
     4
  6
Continuous
370
    -3
390
F
  0
LAYER
  5
76
330
2
100
AcDbSymbolTableRecord
100
AcDbLayerTableRecord
  2
치수_보조선
 70
     0
 62
     4
  6
Continuous
370
    -3
390
F
  0
LAYER
  5
77
330
2
100
AcDbSymbolTableRecord
100
AcDbLayerTableRecord
  2
치수문자_일반주서
 70
     0
 62
     7
  6
Continuous
370
    15
390
F
  0
LAYER
  5
78
330
2
100
AcDbSymbolTableRecord
100
AcDbLayerTableRecord
  2
개별주서
 70
     0
 62
   100
  6
Continuous
370
    30
390
F
  0
LAYER
  5
79
330
2
100
AcDbSymbolTableRecord
100
AcDbLayerTableRecord
  2
중간선
 70
     0
 62
     2
  6
Continuous
370
    15
390
F
  0
LAYER
  5
7A
330
2
100
AcDbSymbolTableRecord
100
AcDbLayerTableRecord
  2
윤곽선
 70
     0
 62
     3
  6
Continuous
370
    40
390
F
  0
LAYER
  5
7B
330
2
100
AcDbSymbolTableRecord
100
AcDbLayerTableRecord
  2
중심마크
 70
     0
 62
   100
  6
Continuous
370
    30
390
F
  0
LAYER
  5
7C
330
2
100
AcDbSymbolTableRecord
100
AcDbLayerTableRecord
  2
가상선
 70
     0
 62
     4
  6
PHANTOM
370
    -3
390
F
  0
LAYER
  5
7D
330
2
100
AcDbSymbolTableRecord
100
AcDbLayerTableRecord
  2
특수지정선
 70
     0
 62
     5
  6
CENTERX2
370
    60
390
F
  0
LAYER
  5
152
330
2
100
AcDbSymbolTableRecord
100
AcDbLayerTableRecord
  2
Defpoints
 70
     0
 62
     7
  6
Continuous
290
     0
370
    -3
390
F
  0
ENDTAB
  0
TABLE
  2
STYLE
  5
3
330
0
100
AcDbSymbolTable
 70
     2
  0
STYLE
  5
11
330
3
100
AcDbSymbolTableRecord
100
AcDbTextStyleTableRecord
  2
Standard
 70
     0
 40
0.0
 41
1.0
 50
0.0
 71
     0
 42
3.5
  3
txt
  4

  0
STYLE
  5
93
330
3
100
AcDbSymbolTableRecord
100
AcDbTextStyleTableRecord
  2
SLDTEXTSTYLE0
 70
     0
 40
0.0
 41
0.75
 50
0.0
 71
     0
 42
3.5
  3
TXT
  4

  0
ENDTAB
  0
TABLE
  2
VIEW
  5
6
330
0
100
AcDbSymbolTable
 70
     0
  0
ENDTAB
  0
TABLE
  2
UCS
  5
7
330
0
100
AcDbSymbolTable
 70
     0
  0
ENDTAB
  0
TABLE
  2
APPID
  5
9
330
0
100
AcDbSymbolTable
 70
     1
  0
APPID
  5
12
330
9
100
AcDbSymbolTableRecord
100
AcDbRegAppTableRecord
  2
ACAD
 70
     0
  0
ENDTAB
  0
TABLE
  2
DIMSTYLE
  5
A
330
0
100
AcDbSymbolTable
 70
     4
100
AcDbDimStyleTable
  0
DIMSTYLE
105
27
330
A
100
AcDbSymbolTableRecord
100
AcDbDimStyleTableRecord
  2
ISO-25
 70
     0
 41
2.5
 42
0.625
 43
3.75
 44
1.25
 73
     0
 74
     0
 77
     1
 78
     8
140
2.5
141
2.5
143
0.03937007874016
147
0.625
171
     3
172
     1
178
     0
271
     2
272
     2
274
     3
278
    44
283
     0
284
     8
340
11
  0
DIMSTYLE
105
F7
102
{ACAD_REACTORS
330
F6
102
}
330
A
100
AcDbSymbolTableRecord
100
AcDbDimStyleTableRecord
  2
SLDDIMSTYLE0
 70
     0
 41
3.302
 44
0.0
 45
0.000000001
 73
     0
 74
     0
 77
     1
 78
     4
 79
     1
140
3.5
147
0.875
172
     1
173
     1
178
     0
271
     2
272
     2
276
     2
284
    12
289
     0
340
93
  0
DIMSTYLE
105
105
102
{ACAD_REACTORS
330
104
102
}
330
A
100
AcDbSymbolTableRecord
100
AcDbDimStyleTableRecord
  2
SLDDIMSTYLE1
 70
     0
 41
3.302
 44
0.0
 45
0.000000001
 73
     0
 74
     0
 77
     1
 78
    12
 79
     3
140
3.5
147
0.875
173
     1
178
     0
271
     2
272
     2
276
     2
284
    12
340
93
  0
DIMSTYLE
105
110
102
{ACAD_REACTORS
330
10F
330
11A
102
}
330
A
100
AcDbSymbolTableRecord
100
AcDbDimStyleTableRecord
  2
SLDDIMSTYLE2
 70
     0
 41
3.302
 44
0.0
 45
0.000000001
 73
     0
 74
     0
 77
     1
 78
    12
 79
     3
140
3.5
147
0.875
172
     1
173
     1
178
     0
271
     2
272
     2
276
     2
284
    12
289
     0
340
93
  0
ENDTAB
  0
TABLE
  2
BLOCK_RECORD
  5
1
330
0
100
AcDbSymbolTable
 70
     7
  0
BLOCK_RECORD
  5
1F
330
1
100
AcDbSymbolTableRecord
100
AcDbBlockTableRecord
  2
*Model_Space
340
22
  0
BLOCK_RECORD
  5
1B
330
1
100
AcDbSymbolTableRecord
100
AcDbBlockTableRecord
  2
*Paper_Space
340
1E
  0
BLOCK_RECORD
  5
23
330
1
100
AcDbSymbolTableRecord
100
AcDbBlockTableRecord
  2
*Paper_Space0
340
26
  0
BLOCK_RECORD
  5
7E
330
1
100
AcDbSymbolTableRecord
100
AcDbBlockTableRecord
  2
블럭10
340
0
102
{BLKREFS
331
EF
102
}
  0
BLOCK_RECORD
  5
F8
330
1
100
AcDbSymbolTableRecord
100
AcDbBlockTableRecord
  2
_D
340
0
  0
BLOCK_RECORD
  5
106
330
1
100
AcDbSymbolTableRecord
100
AcDbBlockTableRecord
  2
_D_1
340
0
  0
BLOCK_RECORD
  5
111
330
1
100
AcDbSymbolTableRecord
100
AcDbBlockTableRecord
  2
_D_2
340
0
  0
BLOCK_RECORD
  5
11B
330
1
100
AcDbSymbolTableRecord
100
AcDbBlockTableRecord
  2
_D_3
340
0
  0
BLOCK_RECORD
  5
127
330
1
100
AcDbSymbolTableRecord
100
AcDbBlockTableRecord
  2
SW_DOWELSYMBOL_0
340
0
102
{BLKREFS
331
12D
102
}
  0
ENDTAB
  0
ENDSEC
  0
SECTION
  2
BLOCKS
  0
BLOCK
  5
20
330
1F
100
AcDbEntity
  8
0
100
AcDbBlockBegin
  2
*Model_Space
 70
     0
 10
0.0
 20
0.0
 30
0.0
  3
*Model_Space
  1

  0
ENDBLK
  5
21
330
1F
100
AcDbEntity
  8
0
100
AcDbBlockEnd
  0
BLOCK
  5
1C
330
1B
100
AcDbEntity
 67
     1
  8
0
100
AcDbBlockBegin
  2
*Paper_Space
 70
     0
 10
0.0
 20
0.0
 30
0.0
  3
*Paper_Space
  1

  0
ENDBLK
  5
1D
330
1B
100
AcDbEntity
 67
     1
  8
0
100
AcDbBlockEnd
  0
BLOCK
  5
24
330
23
100
AcDbEntity
  8
0
100
AcDbBlockBegin
  2
*Paper_Space0
 70
     0
 10
0.0
 20
0.0
 30
0.0
  3
*Paper_Space0
  1

  0
ENDBLK
  5
25
330
23
100
AcDbEntity
  8
0
100
AcDbBlockEnd
  0
BLOCK
  5
7F
330
7E
100
AcDbEntity
  8
0
100
AcDbBlockBegin
  2
블럭10
 70
     2
 10
0.0
 20
0.0
 30
0.0
  3
블럭10
  1

  0
ELLIPSE
  5
81
330
7E
100
AcDbEntity
  8
중심선
100
AcDbEllipse
 10
20.54032771741204
 20
12.0471743016438
 30
0.0
 11
6.600054785286829
 21
-1.261213355974178E-13
 31
0.0
210
0.0
220
0.0
230
1.0
 40
0.636358354079598
 41
0.9219305317359503
 42
6.513795318482858
  0
ELLIPSE
  5
82
330
7E
100
AcDbEntity
  8
중심선
100
AcDbEllipse
 10
20.54032771746488
 20
12.04717430159265
 30
0.0
 11
3.960054785062283
 21
1.540847449632565E-10
 31
0.0
210
0.0
220
0.0
230
1.0
 40
0.3939339440162632
 41
1.131841032648279
 42
5.62031148352944
  0
LINE
  5
83
330
7E
100
AcDbEntity
  8
중심선
100
AcDbLine
 10
2.268634060543552
 20
16.24717430164393
 30
0.0
 11
5.714909304380834
 21
16.24717430164393
 31
0.0
  0
LINE
  5
84
330
7E
100
AcDbEntity
  8
중심선
100
AcDbLine
 10
5.245725140726316
 20
7.84717430164391
 30
0.0
 11
8.692000384563599
 21
7.84717430164391
 31
0.0
  0
LINE
  5
85
330
7E
100
AcDbEntity
  8
중심선
100
AcDbLine
 10
15.74043728645272
 20
16.24717430164393
 30
0.0
 11
8.692000384563599
 21
7.84717430164391
 31
0.0
  0
LINE
  5
86
330
7E
100
AcDbEntity
  8
중심선
100
AcDbLine
 10
0.1404042013395286
 20
13.71084872107135
 30
0.0
 11
3.58671253028996
 21
13.71088815037384
 31
0.0
  0
LINE
  5
87
330
7E
100
AcDbEntity
  8
중심선
100
AcDbLine
 10
2.750260043222114
 20
10.84717430164391
 30
0.0
 11
6.196535287059397
 21
10.84717430164391
 31
0.0
  0
LINE
  5
88
330
7E
100
AcDbEntity
  8
중심선
100
AcDbLine
 10
12.29416204261559
 20
16.24717430164393
 30
0.0
 11
5.245725140726316
 21
7.84717430164391
 31
0.0
  0
LINE
  5
89
330
7E
100
AcDbEntity
  8
중심선
100
AcDbLine
 10
10.72767329541681
 20
16.24717430164393
 30
0.0
 11
6.196535287059397
 21
10.84717430164391
 31
0.0
  0
LINE
  5
8A
330
7E
100
AcDbEntity
  8
중심선
100
AcDbLine
 10
7.28139805157953
 20
16.24717430164393
 30
0.0
 11
2.750260043222114
 21
10.84717430164391
 31
0.0
  0
LINE
  5
8B
330
7E
100
AcDbEntity
  8
중심선
100
AcDbLine
 10
5.714909304380834
 20
16.24717430164393
 30
0.0
 11
3.58671253028996
 21
13.71088815037384
 31
0.0
  0
LINE
  5
8C
330
7E
100
AcDbEntity
  8
중심선
100
AcDbLine
 10
2.268634060543552
 20
16.24717430164393
 30
0.0
 11
0.1404042013395286
 21
13.71084872107135
 31
0.0
  0
LINE
  5
8D
330
7E
100
AcDbEntity
  8
중심선
100
AcDbLine
 10
7.28139805157953
 20
16.24717430164393
 30
0.0
 11
10.72767329541681
 21
16.24717430164393
 31
0.0
  0
LINE
  5
8E
330
7E
100
AcDbEntity
  8
중심선
100
AcDbLine
 10
12.29416204261559
 20
16.24717430164393
 30
0.0
 11
15.74043728645272
 21
16.24717430164393
 31
0.0
  0
LINE
  5
8F
330
7E
100
AcDbEntity
  8
중심선
100
AcDbLine
 10
19.22036997980202
 20
11.08717430171403
 30
0.0
 11
23.66174974927406
 21
11.08717430171406
 31
0.0
  0
LINE
  5
90
330
7E
100
AcDbEntity
  8
중심선
100
AcDbLine
 10
19.22039502424796
 20
13.00717430171391
 30
0.0
 11
19.22036997980202
 21
11.08717430171403
 31
0.0
  0
LINE
  5
91
330
7E
100
AcDbEntity
  8
중심선
100
AcDbLine
 10
19.22039502424796
 20
13.00717430171391
 30
0.0
 11
26.96566020931264
 21
13.00717430171391
 31
0.0
  0
LINE
  5
92
330
7E
100
AcDbEntity
  8
중심선
100
AcDbLine
 10
22.22332737316547
 20
13.45928029700563
 30
0.0
 11
24.52862924686651
 21
15.39360700705356
 31
0.0
  0
ATTDEF
  5
94
330
7E
100
AcDbEntity
  8
FORMAT
 62
     2
100
AcDbText
 10
-16.11926103943555
 20
2.075366912832191
 30
0.0
 40
4.233333333333333
  1
SEME7002520E [ 2 FLUTE ]
 41
0.75
  7
SLDTEXTSTYLE0
 11
-16.11926103943555
 21
-0.0412997538344756
 31
0.0
100
AcDbAttributeDefinition
  3

  2
AUTOATTR0
 70
     0
 74
     1
  0
ENDBLK
  5
80
330
7E
100
AcDbEntity
  8
0
100
AcDbBlockEnd
  0
BLOCK
  5
F9
330
F8
100
AcDbEntity
  8
0
100
AcDbBlockBegin
  2
_D
 70
     0
 10
0.0
 20
0.0
 30
0.0
  3
_D
  1

  0
LINE
  5
FB
330
F8
100
AcDbEntity
  8
치수문자_일반주서
 62
     0
370
    -2
100
AcDbLine
 10
29.59358891324553
 20
-1.249999999999997
 30
0.0
 11
36.06779623289112
 21
-1.249999999999973
 31
0.0
  0
LINE
  5
FC
330
F8
100
AcDbEntity
  8
치수문자_일반주서
 62
     0
370
    -2
100
AcDbLine
 10
29.59358891324548
 20
1.250000000000003
 30
0.0
 11
36.06779623289111
 21
1.250000000000027
 31
0.0
  0
LINE
  5
FD
330
F8
100
AcDbEntity
  8
치수문자_일반주서
 62
     0
370
    -2
100
AcDbLine
 10
36.06779623289112
 20
-1.249999999999973
 30
0.0
 11
36.06779623289106
 21
19.66650000000009
 31
0.0
  0
LINE
  5
FE
330
F8
100
AcDbEntity
  8
치수문자_일반주서
 62
     0
370
    -2
100
AcDbLine
 10
36.06779623289112
 20
-1.249999999999973
 30
0.0
 11
36.06779623289111
 21
1.250000000000027
 31
0.0
  0
LINE
  5
FF
330
F8
100
AcDbEntity
  8
치수문자_일반주서
 62
     0
370
    -2
100
AcDbLine
 10
36.06779623289113
 20
-4.551999999999973
 30
0.0
 11
36.06779623289113
 21
-7.853999999999973
 31
0.0
  0
LINE
  5
100
330
F8
100
AcDbEntity
  8
치수문자_일반주서
 62
     0
370
    -2
100
AcDbLine
 10
36.06779623289111
 20
4.552000000000026
 30
0.0
 11
36.0677962328911
 21
7.854000000000026
 31
0.0
  0
SOLID
  5
101
330
F8
100
AcDbEntity
  8
치수문자_일반주서
 62
     0
100
AcDbTrace
 10
36.61812956622446
 20
-4.551999999999971
 30
0.0
 11
35.51746289955779
 21
-4.551999999999975
 31
0.0
 12
36.06779623289112
 22
-1.249999999999973
 32
0.0
 13
36.06779623289112
 23
-1.249999999999973
 33
0.0
  0
SOLID
  5
102
330
F8
100
AcDbEntity
  8
치수문자_일반주서
 62
     0
100
AcDbTrace
 10
35.51746289955777
 20
4.552000000000024
 30
0.0
 11
36.61812956622444
 21
4.552000000000028
 31
0.0
 12
36.06779623289111
 22
1.250000000000027
 32
0.0
 13
36.06779623289111
 23
1.250000000000027
 33
0.0
  0
MTEXT
  5
103
330
F8
100
AcDbEntity
  8
치수문자_일반주서
 62
     0
100
AcDbMText
 10
31.69279623289108
 20
13.76025000000008
 30
0.0
 40
3.5
 41
0.0
 71
     2
 72
     1
  1
\A1;%%c2.50
  7
SLDTEXTSTYLE0
 11
-2.842170943040401E-15
 21
1.0
 31
0.0
 73
     1
 44
1.0
  0
POINT
  5
156
330
F8
100
AcDbEntity
  8
Defpoints
 62
     0
100
AcDbPoint
 10
29.53108891324553
 20
-1.249999999999997
 30
0.0
  0
POINT
  5
157
330
F8
100
AcDbEntity
  8
Defpoints
 62
     0
100
AcDbPoint
 10
29.53108891324548
 20
1.250000000000003
 30
0.0
  0
POINT
  5
158
330
F8
100
AcDbEntity
  8
Defpoints
 62
     0
100
AcDbPoint
 10
36.06779623289111
 20
1.250000000000027
 30
0.0
  0
ENDBLK
  5
FA
330
F8
100
AcDbEntity
  8
0
100
AcDbBlockEnd
  0
BLOCK
  5
107
330
106
100
AcDbEntity
  8
0
100
AcDbBlockBegin
  2
_D_1
 70
     0
 10
0.0
 20
0.0
 30
0.0
  3
_D_1
  1

  0
LINE
  5
109
330
106
100
AcDbEntity
  8
치수문자_일반주서
 62
     0
370
    -2
100
AcDbLine
 10
-30.46891108675447
 20
2.512499999999995
 30
0.0
 11
-30.46891108675447
 21
24.23841044024269
 31
0.0
  0
LINE
  5
10A
330
106
100
AcDbEntity
  8
치수문자_일반주서
 62
     0
370
    -2
100
AcDbLine
 10
29.53108891324553
 20
1.311443519037061
 30
0.0
 11
29.53108891324553
 21
24.23841044024269
 31
0.0
  0
LINE
  5
10B
330
106
100
AcDbEntity
  8
치수문자_일반주서
 62
     0
370
    -2
100
AcDbLine
 10
-27.16691108675447
 20
24.23841044024269
 30
0.0
 11
26.22908891324553
 21
24.23841044024269
 31
0.0
  0
SOLID
  5
10C
330
106
100
AcDbEntity
  8
치수문자_일반주서
 62
     0
100
AcDbTrace
 10
-27.16691108675447
 20
24.78874377357602
 30
0.0
 11
-27.16691108675447
 21
23.68807710690935
 31
0.0
 12
-30.46891108675447
 22
24.23841044024269
 32
0.0
 13
-30.46891108675447
 23
24.23841044024269
 33
0.0
  0
SOLID
  5
10D
330
106
100
AcDbEntity
  8
치수문자_일반주서
 62
     0
100
AcDbTrace
 10
26.22908891324553
 20
23.68807710690935
 30
0.0
 11
26.22908891324553
 21
24.78874377357602
 31
0.0
 12
29.53108891324553
 22
24.23841044024269
 32
0.0
 13
29.53108891324553
 23
24.23841044024269
 33
0.0
  0
MTEXT
  5
10E
330
106
100
AcDbEntity
  8
치수문자_일반주서
 62
     0
100
AcDbMText
 10
-0.4689110867544741
 20
28.61341044024269
 30
0.0
 40
3.5
 41
0.0
 71
     2
 72
     1
  1
\A1;60
  7
SLDTEXTSTYLE0
 73
     1
 44
1.0
  0
POINT
  5
159
330
106
100
AcDbEntity
  8
Defpoints
 62
     0
100
AcDbPoint
 10
-30.46891108675447
 20
2.449999999999995
 30
0.0
  0
POINT
  5
15A
330
106
100
AcDbEntity
  8
Defpoints
 62
     0
100
AcDbPoint
 10
29.53108891324553
 20
1.248943519037061
 30
0.0
  0
POINT
  5
15B
330
106
100
AcDbEntity
  8
Defpoints
 62
     0
100
AcDbPoint
 10
29.53108891324553
 20
24.23841044024269
 30
0.0
  0
ENDBLK
  5
108
330
106
100
AcDbEntity
  8
0
100
AcDbBlockEnd
  0
BLOCK
  5
112
330
111
100
AcDbEntity
  8
0
100
AcDbBlockBegin
  2
_D_2
 70
     0
 10
0.0
 20
0.0
 30
0.0
  3
_D_2
  1

  0
LINE
  5
114
330
111
100
AcDbEntity
  8
치수문자_일반주서
 62
     0
370
    -2
100
AcDbLine
 10
9.531088913245519
 20
1.299202438353205
 30
0.0
 11
9.531088913245519
 21
14.58370024452072
 31
0.0
  0
LINE
  5
115
330
111
100
AcDbEntity
  8
치수문자_일반주서
 62
     0
370
    -2
100
AcDbLine
 10
29.53108891324553
 20
1.311176086539878
 30
0.0
 11
29.53108891324553
 21
14.58370024452072
 31
0.0
  0
LINE
  5
116
330
111
100
AcDbEntity
  8
치수문자_일반주서
 62
     0
370
    -2
100
AcDbLine
 10
12.83308891324552
 20
14.58370024452072
 30
0.0
 11
26.22908891324553
 21
14.58370024452072
 31
0.0
  0
SOLID
  5
117
330
111
100
AcDbEntity
  8
치수문자_일반주서
 62
     0
100
AcDbTrace
 10
12.83308891324552
 20
15.13403357785406
 30
0.0
 11
12.83308891324552
 21
14.03336691118739
 31
0.0
 12
9.531088913245519
 22
14.58370024452072
 32
0.0
 13
9.531088913245519
 23
14.58370024452072
 33
0.0
  0
SOLID
  5
118
330
111
100
AcDbEntity
  8
치수문자_일반주서
 62
     0
100
AcDbTrace
 10
26.22908891324553
 20
14.03336691118739
 30
0.0
 11
26.22908891324553
 21
15.13403357785406
 31
0.0
 12
29.53108891324553
 22
14.58370024452072
 32
0.0
 13
29.53108891324553
 23
14.58370024452072
 33
0.0
  0
MTEXT
  5
119
330
111
100
AcDbEntity
  8
치수문자_일반주서
 62
     0
100
AcDbMText
 10
19.53108891324552
 20
18.95870024452072
 30
0.0
 40
3.5
 41
0.0
 71
     2
 72
     1
  1
\A1;20
  7
SLDTEXTSTYLE0
 73
     1
 44
1.0
  0
POINT
  5
15C
330
111
100
AcDbEntity
  8
Defpoints
 62
     0
100
AcDbPoint
 10
9.531088913245519
 20
1.236702438353205
 30
0.0
  0
POINT
  5
15D
330
111
100
AcDbEntity
  8
Defpoints
 62
     0
100
AcDbPoint
 10
29.53108891324553
 20
1.248676086539878
 30
0.0
  0
POINT
  5
15E
330
111
100
AcDbEntity
  8
Defpoints
 62
     0
100
AcDbPoint
 10
29.53108891324553
 20
14.58370024452072
 30
0.0
  0
ENDBLK
  5
113
330
111
100
AcDbEntity
  8
0
100
AcDbBlockEnd
  0
BLOCK
  5
11C
330
11B
100
AcDbEntity
  8
0
100
AcDbBlockBegin
  2
_D_3
 70
     0
 10
0.0
 20
0.0
 30
0.0
  3
_D_3
  1

  0
LINE
  5
11E
330
11B
100
AcDbEntity
  8
치수문자_일반주서
 62
     0
370
    -2
100
AcDbLine
 10
-29.98141108675447
 20
2.999999999999995
 30
0.0
 11
-42.66936910836655
 21
2.999999999999947
 31
0.0
  0
LINE
  5
11F
330
11B
100
AcDbEntity
  8
치수문자_일반주서
 62
     0
370
    -2
100
AcDbLine
 10
-29.98141108675447
 20
-3.0
 30
0.0
 11
-42.66936910836653
 21
-3.000000000000046
 31
0.0
  0
LINE
  5
120
330
11B
100
AcDbEntity
  8
치수문자_일반주서
 62
     0
370
    -2
100
AcDbLine
 10
-42.66936910836655
 20
2.999999999999947
 30
0.0
 11
-42.6693691083666
 21
15.72899999999995
 31
0.0
  0
LINE
  5
121
330
11B
100
AcDbEntity
  8
치수문자_일반주서
 62
     0
370
    -2
100
AcDbLine
 10
-42.66936910836655
 20
2.999999999999947
 30
0.0
 11
-42.66936910836653
 21
-3.000000000000046
 31
0.0
  0
LINE
  5
122
330
11B
100
AcDbEntity
  8
치수문자_일반주서
 62
     0
370
    -2
100
AcDbLine
 10
-42.66936910836657
 20
6.301999999999946
 30
0.0
 11
-42.66936910836658
 21
9.603999999999946
 31
0.0
  0
LINE
  5
123
330
11B
100
AcDbEntity
  8
치수문자_일반주서
 62
     0
370
    -2
100
AcDbLine
 10
-42.66936910836652
 20
-6.302000000000046
 30
0.0
 11
-42.6693691083665
 21
-9.604000000000045
 31
0.0
  0
SOLID
  5
124
330
11B
100
AcDbEntity
  8
치수문자_일반주서
 62
     0
100
AcDbTrace
 10
-43.2197024416999
 20
6.301999999999945
 30
0.0
 11
-42.11903577503323
 21
6.301999999999948
 31
0.0
 12
-42.66936910836655
 22
2.999999999999947
 32
0.0
 13
-42.66936910836655
 23
2.999999999999947
 33
0.0
  0
SOLID
  5
125
330
11B
100
AcDbEntity
  8
치수문자_일반주서
 62
     0
100
AcDbTrace
 10
-42.11903577503318
 20
-6.302000000000044
 30
0.0
 11
-43.21970244169985
 21
-6.302000000000048
 31
0.0
 12
-42.66936910836653
 22
-3.000000000000046
 32
0.0
 13
-42.66936910836653
 23
-3.000000000000046
 33
0.0
  0
MTEXT
  5
126
330
11B
100
AcDbEntity
  8
치수문자_일반주서
 62
     0
100
AcDbMText
 10
-47.04436910836659
 20
12.66649999999994
 30
0.0
 40
3.5
 41
0.0
 71
     2
 72
     1
  1
\A1;%%c6
  7
SLDTEXTSTYLE0
 11
-3.552713678800505E-15
 21
1.0
 31
0.0
 73
     1
 44
1.0
  0
POINT
  5
153
330
11B
100
AcDbEntity
  8
Defpoints
 62
     0
100
AcDbPoint
 10
-29.91891108675447
 20
2.999999999999995
 30
0.0
  0
POINT
  5
154
330
11B
100
AcDbEntity
  8
Defpoints
 62
     0
100
AcDbPoint
 10
-29.91891108675447
 20
-2.999999999999999
 30
0.0
  0
POINT
  5
155
330
11B
100
AcDbEntity
  8
Defpoints
 62
     0
100
AcDbPoint
 10
-42.66936910836653
 20
-3.000000000000047
 30
0.0
  0
ENDBLK
  5
11D
330
11B
100
AcDbEntity
  8
0
100
AcDbBlockEnd
  0
BLOCK
  5
128
330
127
100
AcDbEntity
  8
0
100
AcDbBlockBegin
  2
SW_DOWELSYMBOL_0
 70
     0
 10
0.0
 20
0.0
 30
0.0
  3
SW_DOWELSYMBOL_0
  1

  0
CIRCLE
  5
12A
330
127
100
AcDbEntity
  8
외형선
 62
     0
100
AcDbCircle
 10
0.0
 20
0.0
 30
0.0
 40
3.000000000000004
  0
HATCH
  5
12B
330
127
100
AcDbEntity
  8
0
  6
Continuous
 62
     0
370
    30
100
AcDbHatch
 10
0.0
 20
0.0
 30
0.0
210
0.0
220
0.0
230
1.0
  2
SOLID
 70
     1
 71
     0
 91
        1
 92
        0
 93
        3
 72
     2
 10
0.0000000000000104
 20
0.0
 40
3.000000000000004
 50
0.0
 51
90.0
 73
     1
 72
     1
 10
0.0000000000000104
 20
3.000000000000004
 11
0.0000000000000104
 21
0.0
 72
     1
 10
0.0000000000000104
 20
0.0
 11
3.000000000000015
 21
0.0
 97
        0
 75
     0
 76
     1
 98
        1
 10
0.0
 20
0.0
  0
HATCH
  5
12C
330
127
100
AcDbEntity
  8
0
  6
Continuous
 62
     0
370
    30
100
AcDbHatch
 10
0.0
 20
0.0
 30
0.0
210
0.0
220
0.0
230
1.0
  2
SOLID
 70
     1
 71
     0
 91
        1
 92
        0
 93
        3
 72
     2
 10
0.0000000000000104
 20
0.0
 40
3.000000000000004
 50
180.0
 51
270.0000000000007
 73
     1
 72
     1
 10
0.0000000000000104
 20
-3.000000000000004
 11
0.0000000000000104
 21
0.0
 72
     1
 10
0.0000000000000104
 20
0.0
 11
-2.999999999999994
 21
0.0
 97
        0
 75
     0
 76
     1
 98
        1
 10
0.0
 20
0.0
  0
ENDBLK
  5
129
330
127
100
AcDbEntity
  8
0
100
AcDbBlockEnd
  0
ENDSEC
  0
SECTION
  2
ENTITIES
  0
SPLINE
  5
95
330
1F
100
AcDbEntity
  8
0
  6
Continuous
 62
     1
370
    15
100
AcDbSpline
210
0.0
220
0.0
230
1.0
 70
     8
 71
     3
 72
     9
 73
     5
 74
     0
 42
0.000000001
 43
0.00000001
 40
0.0
 40
0.0
 40
0.0
 40
0.0
 40
0.5000266442599473
 40
1.0
 40
1.0
 40
1.0
 40
1.0
 10
19.49142590645009
 20
0.3203662161382441
 30
0.0
 10
19.43334556465886
 20
0.3479406373541104
 30
0.0
 10
19.31719107077745
 20
0.4030865411422522
 30
0.0
 10
19.20112626883331
 20
0.4636489747983598
 30
0.0
 10
19.143096960322
 20
0.4939285779851882
 30
0.0
  0
LINE
  5
96
330
1F
100
AcDbEntity
  8
0
  6
Continuous
 62
     1
370
    15
100
AcDbLine
 10
25.9676799117968
 20
0.4821944602719659
 30
0.0
 11
25.94468980509544
 21
0.4940105440320924
 31
0.0
  0
SPLINE
  5
97
330
1F
100
AcDbEntity
  8
0
  6
Continuous
 62
     1
370
    15
100
AcDbSpline
210
0.0
220
0.0
230
1.0
 70
     8
 71
     3
 72
     9
 73
     5
 74
     0
 42
0.000000001
 43
0.00000001
 40
0.0
 40
0.0
 40
0.0
 40
0.0
 40
0.5353210502614344
 40
1.0
 40
1.0
 40
1.0
 40
1.0
 10
26.29343143046309
 20
0.3202458097005145
 30
0.0
 10
26.23528153459825
 20
0.3478189126650089
 30
0.0
 10
26.12665532638835
 20
0.3993265134795642
 30
0.0
 10
26.01811589894596
 20
0.4559040636704734
 30
0.0
 10
25.9676799117968
 20
0.4821944602719659
 30
0.0
  0
LINE
  5
98
330
1F
100
AcDbEntity
  8
0
  6
Continuous
 62
     1
370
    15
100
AcDbLine
 10
12.36110806200385
 20
0.4837693372340752
 30
0.0
 11
12.34168490530929
 21
0.4937508596083163
 31
0.0
  0
SPLINE
  5
99
330
1F
100
AcDbEntity
  8
0
  6
Continuous
 62
     1
370
    15
100
AcDbSpline
210
0.0
220
0.0
230
1.0
 70
     8
 71
     3
 72
     9
 73
     5
 74
     0
 42
0.000000001
 43
0.00000001
 40
0.0
 40
0.0
 40
0.0
 40
0.0
 40
0.5295691350810336
 40
1.0
 40
1.0
 40
1.0
 40
1.0
 10
12.6899222648433
 20
0.3202523149770398
 30
0.0
 10
12.63185734739063
 20
0.3477898736221177
 30
0.0
 10
12.5222117626951
 20
0.3997898049263924
 30
0.0
 10
12.4126495217664
 20
0.4569019985774083
 30
0.0
 10
12.36110806200385
 20
0.4837693372340752
 30
0.0
  0
LINE
  5
9A
330
1F
100
AcDbEntity
  8
0
  6
Continuous
 62
     1
370
    15
100
AcDbLine
 10
12.17552033067193
 20
0.2548866336975106
 30
0.0
 11
11.98514121961
 21
0.3593603019717319
 31
0.0
  0
LINE
  5
9B
330
1F
100
AcDbEntity
  8
0
  6
Continuous
 62
     1
370
    15
100
AcDbLine
 10
25.63044086620796
 20
0.3364615753378681
 30
0.0
 11
25.58912516484871
 21
0.3590901006859843
 31
0.0
  0
LINE
  5
9C
330
1F
100
AcDbEntity
  8
0
  6
Continuous
 62
     1
370
    15
100
AcDbLine
 10
22.81820453297957
 20
-1.250000000000002
 30
0.0
 11
23.423865417824
 21
-1.250000000000002
 31
0.0
  0
LINE
  5
9E
330
1F
100
AcDbEntity
  8
0
  6
Continuous
 62
     1
370
    15
100
AcDbLine
 10
16.62257342466687
 20
1.250000000000002
 30
0.0
 11
16.01628727005387
 21
1.250000000000002
 31
0.0
  0
LINE
  5
9F
330
1F
100
AcDbEntity
  8
0
  6
Continuous
 62
     1
370
    15
100
AcDbLine
 10
16.01640396729521
 20
-1.250000000000002
 30
0.0
 11
16.62257342466686
 21
-1.250000000000002
 31
0.0
  0
LINE
  5
A1
330
1F
100
AcDbEntity
  8
0
  6
Continuous
 62
     1
370
    15
100
AcDbLine
 10
23.42386541782403
 20
1.250000000000002
 30
0.0
 11
22.81857967395817
 21
1.250000000000002
 31
0.0
  0
SPLINE
  5
A2
330
1F
100
AcDbEntity
  8
0
  6
Continuous
 62
     1
370
    15
100
AcDbSpline
210
0.0
220
0.0
230
1.0
 70
     8
 71
     3
 72
    11
 73
     7
 74
     0
 42
0.000000001
 43
0.00000001
 40
0.0
 40
0.0
 40
0.0
 40
0.0
 40
0.3720181783839868
 40
0.520547626537525
 40
0.6832252742315734
 40
0.9999999999999999
 40
0.9999999999999999
 40
0.9999999999999999
 40
0.9999999999999999
 10
17.19838253192671
 20
-1.040159335988636
 30
0.0
 10
17.43315452586486
 20
-1.019878032990386
 30
0.0
 10
17.76165998963778
 20
-0.9914993548712471
 30
0.0
 10
18.18397787640772
 20
-0.9780606832106525
 30
0.0
 10
18.57506467183202
 20
-0.9731798585479184
 30
0.0
 10
18.87710366453472
 20
-0.985284759857098
 30
0.0
 10
19.07666116884699
 20
-0.9932824818518339
 30
0.0
  0
SPLINE
  5
A3
330
1F
100
AcDbEntity
  8
0
  6
Continuous
 62
     1
370
    15
100
AcDbSpline
210
0.0
220
0.0
230
1.0
 70
     8
 71
     3
 72
    10
 73
     6
 74
     0
 42
0.000000001
 43
0.00000001
 40
0.0
 40
0.0
 40
0.0
 40
0.0
 40
0.6311454758795765
 40
0.8975258995686526
 40
1.0
 40
1.0
 40
1.0
 40
1.0
 10
25.87854351374572
 20
0.9932896926222944
 30
0.0
 10
25.6588509945268
 20
0.9850876691633774
 30
0.0
 10
25.3464353415972
 20
0.9734239105457808
 30
0.0
 10
25.00594203394839
 20
0.9772772429539986
 30
0.0
 10
24.87909731286651
 20
0.982416290246417
 30
0.0
 10
24.84385767816682
 20
0.9838440055485961
 30
0.0
  0
SPLINE
  5
A4
330
1F
100
AcDbEntity
  8
0
  6
Continuous
 62
     1
370
    15
100
AcDbSpline
210
0.0
220
0.0
230
1.0
 70
     8
 71
     3
 72
    12
 73
     8
 74
     0
 42
0.000000001
 43
0.00000001
 40
0.0
 40
0.0
 40
0.0
 40
0.0
 40
0.3667595207207495
 40
0.5880157411910379
 40
0.7779550919709192
 40
0.9374316365884972
 40
1.0
 40
1.0
 40
1.0
 40
1.0
 10
12.27509812024631
 20
0.9932923590018536
 30
0.0
 10
12.15205820189052
 20
0.9877264709761033
 30
0.0
 10
11.95479158793626
 20
0.9788028314031862
 30
0.0
 10
11.69130368884838
 20
0.9756733690660486
 30
0.0
 10
11.49756216958121
 20
0.9767199563133261
 30
0.0
 10
11.35853212035031
 20
0.9789963053015258
 30
0.0
 10
11.28359651276757
 20
0.9818528104548249
 30
0.0
 10
11.26248097191003
 20
0.982657723542474
 30
0.0
  0
SPLINE
  5
A5
330
1F
100
AcDbEntity
  8
0
  6
Continuous
 62
     1
370
    15
100
AcDbSpline
210
0.0
220
0.0
230
1.0
 70
     8
 71
     3
 72
    11
 73
     7
 74
     0
 42
0.000000001
 43
0.00000001
 40
0.0
 40
0.0
 40
0.0
 40
0.0
 40
0.337891938686194
 40
0.4795062962556996
 40
0.6425992105037021
 40
1.0
 40
1.0
 40
1.0
 40
1.0
 10
10.39643341395408
 20
-1.040179440835445
 30
0.0
 10
10.60914752298671
 20
-1.021508457403406
 30
0.0
 10
10.91101253634026
 20
-0.9950122522919159
 30
0.0
 10
11.31041523591139
 20
-0.9798838394256796
 30
0.0
 10
11.72481227503883
 20
-0.9721319020589253
 30
0.0
 10
12.0510705212124
 20
-0.984677697358871
 30
0.0
 10
12.27509812024632
 20
-0.9932923590018532
 30
0.0
  0
SPLINE
  5
A6
330
1F
100
AcDbEntity
  8
0
  6
Continuous
 62
     1
370
    15
100
AcDbSpline
210
0.0
220
0.0
230
1.0
 70
     8
 71
     3
 72
    10
 73
     6
 74
     0
 42
0.000000001
 43
0.00000001
 40
0.0
 40
0.0
 40
0.0
 40
0.0
 40
0.3877740477649322
 40
0.5938784742859649
 40
0.9999999999999999
 40
0.9999999999999999
 40
0.9999999999999999
 40
0.9999999999999999
 10
24.00028259254685
 20
-1.040144119805201
 30
0.0
 10
24.24295737510722
 20
-1.019550508432181
 30
0.0
 10
24.61461538173585
 20
-0.9880112587770287
 30
0.0
 10
25.24073709533302
 20
-0.9706447256474854
 30
0.0
 10
25.62418346340452
 20
-0.9842587785809728
 30
0.0
 10
25.87854351374572
 20
-0.9932896926222918
 30
0.0
  0
SPLINE
  5
A7
330
1F
100
AcDbEntity
  8
0
  6
Continuous
 62
     1
370
    15
100
AcDbSpline
210
0.0
220
0.0
230
1.0
 70
     8
 71
     3
 72
    11
 73
     7
 74
     0
 42
0.000000001
 43
0.00000001
 40
0.0
 40
0.0
 40
0.0
 40
0.0
 40
0.3948182032464619
 40
0.6930863731976187
 40
0.855756883180257
 40
1.0
 40
1.0
 40
1.0
 40
1.0
 10
19.07666116884699
 20
0.9932824818518357
 30
0.0
 10
18.94134384554174
 20
0.987166373240823
 30
0.0
 10
18.70380010498151
 20
0.9764298076508032
 30
0.0
 10
18.40023005222876
 20
0.9755882084187
 30
0.0
 10
18.18893360907996
 20
0.9782842315030492
 30
0.0
 10
18.08207851218681
 20
0.9820034762853408
 30
0.0
 10
18.03185880580059
 20
0.9837514451363908
 30
0.0
  0
SPLINE
  5
A8
330
1F
100
AcDbEntity
  8
0
  6
Continuous
 62
     1
370
    15
100
AcDbSpline
210
0.0
220
0.0
230
1.0
 70
     8
 71
     3
 72
    13
 73
     9
 74
     0
 42
0.000000001
 43
0.00000001
 40
0.0
 40
0.0
 40
0.0
 40
0.0
 40
0.3064142146229378
 40
0.5134036549041802
 40
0.6438434076803351
 40
0.7690803974331643
 40
0.8957295736561792
 40
1.0
 40
1.0
 40
1.0
 40
1.0
 10
13.27943535146303
 20
-0.9401686061652803
 30
0.0
 10
13.37679928421857
 20
-0.9256559817442607
 30
0.0
 10
13.53993466288908
 20
-0.9013397651184366
 30
0.0
 10
13.74338814637735
 20
-0.877125101892157
 30
0.0
 10
13.89005222844164
 20
-0.8621786605375261
 30
0.0
 10
14.0112465779404
 20
-0.8515441144304318
 30
0.0
 10
14.1241477504157
 20
-0.8429666965151636
 30
0.0
 10
14.19732340713821
 20
-0.8386640574051589
 30
0.0
 10
14.23036545657719
 20
-0.8367212253137433
 30
0.0
  0
SPLINE
  5
A9
330
1F
100
AcDbEntity
  8
0
  6
Continuous
 62
     1
370
    15
100
AcDbSpline
210
0.0
220
0.0
230
1.0
 70
     8
 71
     3
 72
    13
 73
     9
 74
     0
 42
0.000000001
 43
0.00000001
 40
0.0
 40
0.0
 40
0.0
 40
0.0
 40
0.3084888639188243
 40
0.5164007408562973
 40
0.6477913585792826
 40
0.7768479339054967
 40
0.9103789136551216
 40
1.0
 40
1.0
 40
1.0
 40
1.0
 10
26.88289196297622
 20
-0.9401746527663803
 30
0.0
 10
26.98051388409925
 20
-0.9256244824167102
 30
0.0
 10
27.14392993663143
 20
-0.9012679508625202
 30
0.0
 10
27.3477801283361
 20
-0.8770257998137615
 30
0.0
 10
27.49558576283043
 20
-0.8619736775256784
 30
0.0
 10
27.61994916383376
 20
-0.8511166993569155
 30
0.0
 10
27.73116174133614
 20
-0.8426913691625805
 30
0.0
 10
27.80158033461917
 20
-0.8386683003834247
 30
0.0
 10
27.82986145672285
 20
-0.8370525779716257
 30
0.0
  0
SPLINE
  5
AA
330
1F
100
AcDbEntity
  8
0
  6
Continuous
 62
     1
370
    15
100
AcDbSpline
210
0.0
220
0.0
230
1.0
 70
     8
 71
     3
 72
    20
 73
    16
 74
     0
 42
0.000000001
 43
0.00000001
 40
0.0
 40
0.0
 40
0.0
 40
0.0
 40
0.1371846581530856
 40
0.233080452716019
 40
0.300255126034444
 40
0.3675141356551261
 40
0.4344422481420133
 40
0.4992462150706368
 40
0.5543714293809271
 40
0.6097094675777646
 40
0.6649184570228566
 40
0.719472932742953
 40
0.7762277919050945
 40
0.8663816133612909
 40
1.0
 40
1.0
 40
1.0
 40
1.0
 10
22.26424726493837
 20
0.8549244277352648
 30
0.0
 10
22.16397364990563
 20
0.8472311919165117
 30
0.0
 10
21.99360605995821
 20
0.8341601757283529
 30
0.0
 10
21.77547323380039
 20
0.8258127321095573
 30
0.0
 10
21.60850785463492
 20
0.8226182769310352
 30
0.0
 10
21.46203488404868
 20
0.8223634913099656
 30
0.0
 10
21.31720364971167
 20
0.8245779482984874
 30
0.0
 10
21.18143805647965
 20
0.8290128589448978
 30
0.0
 10
21.05393896659591
 20
0.8351115263076261
 30
0.0
 10
20.93337646121785
 20
0.8425091222327542
 30
0.0
 10
20.81319244048265
 20
0.85149891355
 30
0.0
 10
20.69199040909127
 20
0.8621687683848015
 30
0.0
 10
20.54536892523716
 20
0.8770958400698097
 30
0.0
 10
20.34180501414095
 20
0.90132272862073
 30
0.0
 10
20.17851849900539
 20
0.9256614635416351
 30
0.0
 10
20.08101720115424
 20
0.9401945573545152
 30
0.0
  0
SPLINE
  5
AB
330
1F
100
AcDbEntity
  8
0
  6
Continuous
 62
     1
370
    15
100
AcDbSpline
210
0.0
220
0.0
230
1.0
 70
     8
 71
     3
 72
    13
 73
     9
 74
     0
 42
0.000000001
 43
0.00000001
 40
0.0
 40
0.0
 40
0.0
 40
0.0
 40
0.3127156673220959
 40
0.5237084292279975
 40
0.6565354607700677
 40
0.7842127940276983
 40
0.9134219276717263
 40
1.0
 40
1.0
 40
1.0
 40
1.0
 10
20.08101720115424
 20
-0.9401945573545134
 30
0.0
 10
20.17851851975953
 20
-0.9256606349305287
 30
0.0
 10
20.3418050696523
 20
-0.9013205123253293
 30
0.0
 10
20.54536880540655
 20
-0.877100624316748
 30
0.0
 10
20.69199067571323
 20
-0.8621581234807313
 30
0.0
 10
20.81319146803214
 20
-0.8515377387189185
 30
0.0
 10
20.92002584951958
 20
-0.8433813250230567
 30
0.0
 10
20.98711884607051
 20
-0.8394209844722685
 30
0.0
 10
21.01403787624161
 20
-0.8378320179294851
 30
0.0
  0
SPLINE
  5
AC
330
1F
100
AcDbEntity
  8
0
  6
Continuous
 62
     1
370
    15
100
AcDbSpline
210
0.0
220
0.0
230
1.0
 70
     8
 71
     3
 72
    19
 73
    15
 74
     0
 42
0.000000001
 43
0.00000001
 40
0.0
 40
0.0
 40
0.0
 40
0.0
 40
0.126747545033438
 40
0.221487670355086
 40
0.3038865506167159
 40
0.3937993334243727
 40
0.4833236300430867
 40
0.5456233204823303
 40
0.6057808992824429
 40
0.6636034849830308
 40
0.7194885305433704
 40
0.7763842806366115
 40
0.8664158399416412
 40
1.0
 40
1.0
 40
1.0
 40
1.0
 10
29.06983840490317
 20
0.8552524993540759
 30
0.0
 10
28.97668968125958
 20
0.8480164338727192
 30
0.0
 10
28.8139149798567
 20
0.8353716186569317
 30
0.0
 10
28.59302451453421
 20
0.8261954801648697
 30
0.0
 10
28.39950391037582
 20
0.822243623675312
 30
0.0
 10
28.20844286105505
 20
0.8225748988502789
 30
0.0
 10
28.03247483624515
 20
0.8269604057365411
 30
0.0
 10
27.87812213436261
 20
0.8338527794028572
 30
0.0
 10
27.74672064907571
 20
0.8416878706666434
 30
0.0
 10
27.6199513467607
 20
0.8510721716007504
 30
0.0
 10
27.49558518413033
 20
0.8619854819598295
 30
0.0
 10
27.34778038510819
 20
0.8770205621280854
 30
0.0
 10
27.143929817669
 20
0.9012703774805454
 30
0.0
 10
26.98051383961017
 20
0.9256253899134645
 30
0.0
 10
26.88289196297622
 20
0.9401746527663828
 30
0.0
  0
SPLINE
  5
AD
330
1F
100
AcDbEntity
  8
0
  6
Continuous
 62
     1
370
    15
100
AcDbSpline
210
0.0
220
0.0
230
1.0
 70
     8
 71
     3
 72
    21
 73
    17
 74
     0
 42
0.000000001
 43
0.00000001
 40
0.0
 40
0.0
 40
0.0
 40
0.0
 40
0.1326570758101675
 40
0.2231349512609413
 40
0.2801247794957027
 40
0.3346828000775569
 40
0.3897632614012185
 40
0.444801592513472
 40
0.4995425093855297
 40
0.5546245147068289
 40
0.6099082134056746
 40
0.6650641498362174
 40
0.7196050766038389
 40
0.7764118157133633
 40
0.8665560768165076
 40
1.0
 40
1.0
 40
1.0
 40
1.0
 10
15.46267512274754
 20
0.8549394643395859
 30
0.0
 10
15.36591432474181
 20
0.8474863762129322
 30
0.0
 10
15.2031584685983
 20
0.8349499589451177
 30
0.0
 10
14.99982595466975
 20
0.8267338924745216
 30
0.0
 10
14.85274180998482
 20
0.8233474253688396
 30
0.0
 10
14.73145448117475
 20
0.8223175866865324
 30
0.0
 10
14.61160544355618
 20
0.8229642231022912
 30
0.0
 10
14.4916845458302
 20
0.8253062632206255
 30
0.0
 10
14.3718904609422
 20
0.8293838886935849
 30
0.0
 10
14.25177887680482
 20
0.8351342700559733
 30
0.0
 10
14.13133257791324
 20
0.8425299306403653
 30
0.0
 10
14.01124715915132
 20
0.8515153051698025
 30
0.0
 10
13.89005206882593
 20
0.8621865723132605
 30
0.0
 10
13.74338821806817
 20
0.8771215483465209
 30
0.0
 10
13.53993462973357
 20
0.901341408558864
 30
0.0
 10
13.3767992718264
 20
0.9256565959947269
 30
0.0
 10
13.27943535146303
 20
0.9401686061652816
 30
0.0
  0
LINE
  5
AE
330
1F
100
AcDbEntity
  8
0
  6
Continuous
 62
   131
370
    15
100
AcDbLine
 10
2.0
 20
-3.0
 30
0.0
 11
8.531088913245519
 21
-1.25
 31
0.0
  0
LINE
  5
AF
330
1F
100
AcDbEntity
  8
0
  6
Continuous
 62
   131
370
    15
100
AcDbLine
 10
8.531088913245519
 20
1.25
 30
0.0
 11
2.0
 21
2.999999999999999
 31
0.0
  0
LINE
  5
B0
330
1F
100
AcDbEntity
  8
0
  6
Continuous
 62
   131
370
    15
100
AcDbLine
 10
2.0
 20
2.999999999999998
 30
0.0
 11
-29.91891108675447
 21
2.999999999999996
 31
0.0
  0
LINE
  5
B1
330
1F
100
AcDbEntity
  8
0
  6
Continuous
 62
   131
370
    15
100
AcDbLine
 10
-29.91891108675447
 20
-3.0
 30
0.0
 11
2.0
 21
-2.999999999999999
 31
0.0
  0
LINE
  5
B2
330
1F
100
AcDbEntity
  8
0
  6
Continuous
 62
   131
370
    15
100
AcDbLine
 10
-29.91891108675447
 20
2.999999999999995
 30
0.0
 11
-30.46891108675447
 21
2.449999999999995
 31
0.0
  0
LINE
  5
B3
330
1F
100
AcDbEntity
  8
0
  6
Continuous
 62
   131
370
    15
100
AcDbLine
 10
-30.46891108675447
 20
-2.45
 30
0.0
 11
-29.91891108675447
 21
-2.999999999999999
 31
0.0
  0
LINE
  5
B4
330
1F
100
AcDbEntity
  8
0
  6
Continuous
 62
   131
370
    15
100
AcDbLine
 10
8.641019047113076
 20
1.25
 30
0.0
 11
8.531088913245519
 21
1.25
 31
0.0
  0
LINE
  5
B5
330
1F
100
AcDbEntity
  8
0
  6
Continuous
 62
   131
370
    15
100
AcDbLine
 10
9.531088913245519
 20
1.25
 30
0.0
 11
9.215009702216534
 21
1.25
 31
0.0
  0
LINE
  5
B6
330
1F
100
AcDbEntity
  8
0
  6
Continuous
 62
   131
370
    15
100
AcDbLine
 10
9.215009702216534
 20
-1.25
 30
0.0
 11
9.531088913245519
 21
-1.25
 31
0.0
  0
LINE
  5
B7
330
1F
100
AcDbEntity
  8
0
  6
Continuous
 62
   131
370
    15
100
AcDbLine
 10
8.531088913245519
 20
-1.25
 30
0.0
 11
8.641019047113076
 21
-1.25
 31
0.0
  0
SPLINE
  5
B8
330
1F
100
AcDbEntity
  8
0
  6
Continuous
 62
   131
370
    15
100
AcDbSpline
210
0.0
220
0.0
230
1.0
 70
     8
 71
     3
 72
     9
 73
     5
 74
     0
 42
0.000000001
 43
0.00000001
 40
0.0
 40
0.0
 40
0.0
 40
0.0
 40
0.4997111233610637
 40
1.0
 40
1.0
 40
1.0
 40
1.0
 10
8.758542317670436
 20
0.8624347269688998
 30
0.0
 10
8.738035304402757
 20
0.8604038039452572
 30
0.0
 10
8.696997568180777
 20
0.8563396097964806
 30
0.0
 10
8.656091301925848
 20
0.8526525605715234
 30
0.0
 10
8.635626351933677
 20
0.8508079708566572
 30
0.0
  0
SPLINE
  5
B9
330
1F
100
AcDbEntity
  8
0
  6
Continuous
 62
     1
370
    15
100
AcDbSpline
210
0.0
220
0.0
230
1.0
 70
     8
 71
     3
 72
    20
 73
    16
 74
     0
 42
0.000000001
 43
0.00000001
 40
0.0
 40
0.0
 40
0.0
 40
0.0
 40
0.0649886009370609
 40
0.1444389957751109
 40
0.22381789117302
 40
0.3031606509651785
 40
0.3825030256927313
 40
0.4618807700259405
 40
0.5413292600935063
 40
0.6208700503825134
 40
0.7003527368475043
 40
0.7797520377087888
 40
0.8591030991144343
 40
0.9384415826286182
 40
1.0
 40
1.0
 40
1.0
 40
1.0
 10
24.84233385207841
 20
-0.9843084512117853
 30
0.0
 10
24.66420390947092
 20
-1.043878792472582
 30
0.0
 10
24.2683050955755
 20
-1.176275553529541
 30
0.0
 10
23.65501844940284
 20
-1.260172642278582
 30
0.0
 10
23.00250603548791
 20
-1.245585426952493
 30
0.0
 10
22.35035193666705
 20
-1.116034284541205
 30
0.0
 10
21.69820216474689
 20
-0.8865338578435406
 30
0.0
 10
21.04569946372888
 20
-0.5768334762343409
 30
0.0
 10
20.39255558037321
 20
-0.2150090872814064
 30
0.0
 10
19.73888025367309
 20
0.1660572206488042
 30
0.0
 10
19.08550700358506
 20
0.53208443159796
 30
0.0
 10
18.43279811619496
 20
0.8509863588295107
 30
0.0
 10
17.7805596116506
 20
1.089508992527684
 30
0.0
 10
17.17722404513509
 20
1.231471608335089
 30
0.0
 10
16.79122009043015
 20
1.237514170406312
 30
0.0
 10
16.62257342466687
 20
1.240154189850564
 30
0.0
  0
SPLINE
  5
BA
330
1F
100
AcDbEntity
  8
0
  6
Continuous
 62
     1
370
    15
100
AcDbSpline
210
0.0
220
0.0
230
1.0
 70
     8
 71
     3
 72
    11
 73
     7
 74
     0
 42
0.000000001
 43
0.00000001
 40
0.0
 40
0.0
 40
0.0
 40
0.0
 40
0.0050695634308401
 40
0.3373539834357874
 40
0.6690724229153037
 40
1.0
 40
1.0
 40
1.0
 40
1.0
 10
11.26274437051888
 20
-0.9825477225498772
 30
0.0
 10
11.25981790669405
 20
-0.9837724195320499
 30
0.0
 10
11.06507643789651
 20
-1.065269852412434
 30
0.0
 10
10.67860299459871
 20
-1.160030107219653
 30
0.0
 10
10.10429785154628
 20
-1.25912562105632
 30
0.0
 10
9.72200647217058
 20
-1.245585463881985
 30
0.0
 10
9.531088913245519
 20
-1.25
 30
0.0
  0
SPLINE
  5
BB
330
1F
100
AcDbEntity
  8
0
  6
Continuous
 62
   131
370
    15
100
AcDbSpline
210
0.0
220
0.0
230
1.0
 70
    24
 71
     3
 72
     8
 73
     4
 74
     0
 42
0.000000001
 43
0.00000001
 40
0.0
 40
0.0
 40
0.0
 40
0.0
 40
1.0
 40
1.0
 40
1.0
 40
1.0
 10
9.531088913245533
 20
-1.042541122987806
 30
0.0
 10
9.531088913245533
 20
-1.108630721716581
 30
0.0
 10
9.531088913245533
 20
-1.174481611551058
 30
0.0
 10
9.531088913245533
 20
-1.23882346531262
 30
0.0
  0
SPLINE
  5
BC
330
1F
100
AcDbEntity
  8
0
  6
Continuous
 62
     1
370
    15
100
AcDbSpline
210
0.0
220
0.0
230
1.0
 70
     8
 71
     3
 72
    15
 73
    11
 74
     0
 42
0.000000001
 43
0.00000001
 40
0.0
 40
0.0
 40
0.0
 40
0.0
 40
0.0768237888772612
 40
0.2211572246242481
 40
0.3654220096579123
 40
0.5096860631243724
 40
0.6540173121220928
 40
0.7984829547417003
 40
0.9431239183275576
 40
1.0
 40
1.0
 40
1.0
 40
1.0
 10
24.00215126039425
 20
-1.028067429787397
 30
0.0
 10
23.88637825008682
 20
-1.041715823867565
 30
0.0
 10
23.55309557788102
 20
-1.081006270218377
 30
0.0
 10
23.00251674383459
 20
-1.040976378133262
 30
0.0
 10
22.35035088708469
 20
-0.9168214120566354
 30
0.0
 10
21.69819608126349
 20
-0.7055075242381923
 30
0.0
 10
21.04568579711581
 20
-0.4312422198418439
 30
0.0
 10
20.39253999676699
 20
-0.1195178809585899
 30
0.0
 10
19.87100606315867
 20
0.1432397949324966
 30
0.0
 10
19.56731619346839
 20
0.2816222893833327
 30
0.0
 10
19.48160289904479
 20
0.3206793033760382
 30
0.0
  0
SPLINE
  5
BD
330
1F
100
AcDbEntity
  8
0
  6
Continuous
 62
     1
370
    15
100
AcDbSpline
210
0.0
220
0.0
230
1.0
 70
     8
 71
     3
 72
     9
 73
     5
 74
     0
 42
0.000000001
 43
0.00000001
 40
0.0
 40
0.0
 40
0.0
 40
0.0
 40
0.5209011407718563
 40
1.0
 40
1.0
 40
1.0
 40
1.0
 10
10.39865503806931
 20
-1.029748715308228
 30
0.0
 10
10.24790727533296
 20
-1.045392083292688
 30
0.0
 10
9.958509247689971
 20
-1.075423440032048
 30
0.0
 10
9.669535774566274
 20
-1.053192122064969
 30
0.0
 10
9.531088913245515
 20
-1.042541122987804
 30
0.0
  0
SPLINE
  5
BE
330
1F
100
AcDbEntity
  8
0
  6
Continuous
 62
     1
370
    15
100
AcDbSpline
210
0.0
220
0.0
230
1.0
 70
     8
 71
     3
 72
    17
 73
    13
 74
     0
 42
0.000000001
 43
0.00000001
 40
0.0
 40
0.0
 40
0.0
 40
0.0
 40
0.1070262651877962
 40
0.213925433502874
 40
0.3207444834894636
 40
0.4275312480879376
 40
0.5343339061334074
 40
0.641200466069302
 40
0.7481782534992613
 40
0.8552382499594345
 40
0.962175477570792
 40
1.0
 40
1.0
 40
1.0
 40
1.0
 10
29.53108891324553
 20
-1.186176086539874
 30
0.0
 10
29.31315048510739
 20
-1.136076534537324
 30
0.0
 10
28.87753243719571
 20
-1.035936925240116
 30
0.0
 10
28.22460898270199
 20
-0.7634711200953672
 30
0.0
 10
27.57225614964657
 20
-0.4298780867191158
 30
0.0
 10
26.92014349820806
 20
-0.0555389492773877
 30
0.0
 10
26.26791314894559
 20
0.3234244222931194
 30
0.0
 10
25.615217470849
 20
0.672911167319918
 30
0.0
 10
24.96185613652212
 20
0.9636797898572591
 30
0.0
 10
24.30818125059559
 20
1.159853733177893
 30
0.0
 10
23.79551282309387
 20
1.253810044712572
 30
0.0
 10
23.50085579298332
 20
1.240515467389497
 30
0.0
 10
23.42386541782403
 20
1.237041752558041
 30
0.0
  0
SPLINE
  5
BF
330
1F
100
AcDbEntity
  8
0
  6
Continuous
 62
     1
370
    15
100
AcDbSpline
210
0.0
220
0.0
230
1.0
 70
     8
 71
     3
 72
    21
 73
    17
 74
     0
 42
0.000000001
 43
0.00000001
 40
0.0
 40
0.0
 40
0.0
 40
0.0
 40
0.0304971393949407
 40
0.1099234280263297
 40
0.1893729608688379
 40
0.2688813249006051
 40
0.3484834796248715
 40
0.4280903784369308
 40
0.5076020623124081
 40
0.5870533960226654
 40
0.6664799472775623
 40
0.7459175492824369
 40
0.8254019167656884
 40
0.8954896833848907
 40
0.9654580694114764
 40
1.0
 40
1.0
 40
1.0
 40
1.0
 10
18.0308945077355
 20
-0.9841028747436427
 30
0.0
 10
17.9474392290355
 20
-1.015971413283991
 30
0.0
 10
17.64663428458492
 20
-1.130837891650337
 30
0.0
 10
17.12845137974864
 20
-1.231083709089736
 30
0.0
 10
16.4761051698583
 20
-1.267105085575349
 30
0.0
 10
15.82319771109102
 20
-1.183173622627863
 30
0.0
 10
15.16965289015007
 20
-0.9939961828543104
 30
0.0
 10
14.51608487242167
 20
-0.7147631692541978
 30
0.0
 10
13.86314628981746
 20
-0.3710159786401846
 30
0.0
 10
13.2107832775048
 20
0.0060784735530594
 30
0.0
 10
12.55867314424749
 20
0.3826882642348954
 30
0.0
 10
11.90643467811327
 20
0.7243790327187429
 30
0.0
 10
11.27974448976325
 20
0.9913375091062989
 30
0.0
 10
10.67862640503923
 20
1.163695993293207
 30
0.0
 10
10.2007735830315
 20
1.247664310452618
 30
0.0
 10
9.914915641914003
 20
1.241189869197492
 30
0.0
 10
9.531088913245519
 20
1.250000000000002
 30
0.0
  0
SPLINE
  5
C0
330
1F
100
AcDbEntity
  8
0
  6
Continuous
 62
     1
370
    15
100
AcDbSpline
210
0.0
220
0.0
230
1.0
 70
     8
 71
     3
 72
    12
 73
     8
 74
     0
 42
0.000000001
 43
0.00000001
 40
0.0
 40
0.0
 40
0.0
 40
0.0
 40
0.2010930674594767
 40
0.4019366807878501
 40
0.6026230284412776
 40
0.8032459988933106
 40
1.0
 40
1.0
 40
1.0
 40
1.0
 10
29.53108891324553
 20
-0.9862153304602672
 30
0.0
 10
29.31315309977889
 20
-0.9377861178732836
 30
0.0
 10
28.87755182025082
 20
-0.8409877686994421
 30
0.0
 10
28.22461958073684
 20
-0.5958121991887065
 30
0.0
 10
27.57226000570082
 20
-0.3039234335308307
 30
0.0
 10
26.92436907979308
 20
0.0171325861813754
 30
0.0
 10
26.49386340256352
 20
0.2236897401393503
 30
0.0
 10
26.28070632362708
 20
0.3259627690444394
 30
0.0
  0
SPLINE
  5
C1
330
1F
100
AcDbEntity
  8
0
  6
Continuous
 62
     1
370
    15
100
AcDbSpline
210
0.0
220
0.0
230
1.0
 70
     8
 71
     3
 72
    15
 73
    11
 74
     0
 42
0.000000001
 43
0.00000001
 40
0.0
 40
0.0
 40
0.0
 40
0.0
 40
0.0156184632111209
 40
0.1598183229328159
 40
0.3041297443337345
 40
0.4486190024323853
 40
0.5931172551967646
 40
0.7374349717529944
 40
0.8816382465971822
 40
1.0
 40
1.0
 40
1.0
 40
1.0
 10
17.19914920911925
 20
-1.035585147966262
 30
0.0
 10
17.17560153405433
 20
-1.039401423336482
 30
0.0
 10
16.93464633334265
 20
-1.078452047029352
 30
0.0
 10
16.47609442163726
 20
-1.063962275302144
 30
0.0
 10
15.82317869099331
 20
-0.9821737763893758
 30
0.0
 10
15.16965173027108
 20
-0.8024857775373748
 30
0.0
 10
14.51610465576784
 20
-0.5527244902147714
 30
0.0
 10
13.86315653742826
 20
-0.2530810555597249
 30
0.0
 10
13.2496805586661
 20
0.0526309355331772
 30
0.0
 10
12.85381806148568
 20
0.2403939018714087
 30
0.0
 10
12.67536710940911
 20
0.3250356154624524
 30
0.0
  0
LINE
  5
C2
330
1F
100
AcDbEntity
  8
0
  6
Continuous
 62
     1
370
    15
100
AcDbLine
 10
29.53108891324553
 20
-1.186176086539875
 30
0.0
 11
29.53108891324553
 21
-0.9862153304602672
 31
0.0
  0
SPLINE
  5
C3
330
1F
100
AcDbEntity
  8
0
  6
Continuous
 62
     1
370
    15
100
AcDbSpline
210
0.0
220
0.0
230
1.0
 70
     8
 71
     3
 72
    32
 73
    28
 74
     0
 42
0.000000001
 43
0.00000001
 40
0.0
 40
0.0
 40
0.0
 40
0.0
 40
0.0093085487359881
 40
0.0514330718187214
 40
0.0932511297766396
 40
0.1353601291590138
 40
0.1771573142019527
 40
0.2192451592920986
 40
0.2610146263312035
 40
0.3030743160940536
 40
0.344807427499822
 40
0.3868301495489313
 40
0.428515887407534
 40
0.470490426637086
 40
0.5121145692313636
 40
0.5540264788734964
 40
0.5955905196712942
 40
0.6374414602650305
 40
0.6790056718857391
 40
0.7208571834854139
 40
0.7624211660355511
 40
0.8042718193866197
 40
0.845835703724841
 40
0.8876856196748855
 40
0.9292494811038834
 40
0.9710987781823902
 40
1.0
 40
1.0
 40
1.0
 40
1.0
 10
14.21122353729471
 20
0.8378962422140417
 30
0.0
 10
14.23795920665917
 20
0.8498690807111976
 30
0.0
 10
14.38568337307275
 20
0.9160233094490682
 30
0.0
 10
14.65241942048582
 20
1.014165502218604
 30
0.0
 10
15.01511048460648
 20
1.123603206389763
 30
0.0
 10
15.37475856419825
 20
1.201294563979743
 30
0.0
 10
15.73730107578785
 20
1.245233595265056
 30
0.0
 10
16.09674402379148
 20
1.254892809777911
 30
0.0
 10
16.45904168737562
 20
1.229900192071482
 30
0.0
 10
16.81827819433026
 20
1.170269812183462
 30
0.0
 10
17.18019301058853
 20
1.079261166300302
 30
0.0
 10
17.5392148804207
 20
0.957186749813265
 30
0.0
 10
17.90058394328348
 20
0.8101847206323189
 30
0.0
 10
18.25936585755698
 20
0.6395082666879295
 30
0.0
 10
18.61999493953391
 20
0.4526058698067116
 30
0.0
 10
18.97854483653775
 20
0.2524864313113968
 30
0.0
 10
19.338317367742
 20
0.0460120140506512
 30
0.0
 10
19.69689999203135
 20
-0.161492563695656
 30
0.0
 10
20.05611012873166
 20
-0.3653295272335166
 30
0.0
 10
20.41506419871263
 20
-0.5578376309409102
 30
0.0
 10
20.77392376622267
 20
-0.7367769662840502
 30
0.0
 10
21.13317113056291
 20
-0.8935670164042545
 30
0.0
 10
21.49176295092573
 20
-1.027758275200927
 30
0.0
 10
21.851215921357
 20
-1.132271110341675
 30
0.0
 10
22.20964409262234
 20
-1.205913005827111
 30
0.0
 10
22.53273510517095
 20
-1.245876995233827
 30
0.0
 10
22.73541204790955
 20
-1.245986962443664
 30
0.0
 10
22.81820453297958
 20
-1.24603188348133
 30
0.0
  0
SPLINE
  5
C4
330
1F
100
AcDbEntity
  8
0
  6
Continuous
 62
     1
370
    15
100
AcDbSpline
210
0.0
220
0.0
230
1.0
 70
     8
 71
     3
 72
    13
 73
     9
 74
     0
 42
0.000000001
 43
0.00000001
 40
0.0
 40
0.0
 40
0.0
 40
0.0
 40
0.1107334644416098
 40
0.3221087950379027
 40
0.4897058857865642
 40
0.6580459157106233
 40
0.8286329919512575
 40
1.0
 40
1.0
 40
1.0
 40
1.0
 10
27.81651547682964
 20
0.837848343564321
 30
0.0
 10
27.87982042590937
 20
0.8653787161757602
 30
0.0
 10
28.06396603149331
 20
0.9454608773682436
 30
0.0
 10
28.3435960354061
 20
1.042553690244559
 30
0.0
 10
28.65700722703688
 20
1.131497218057957
 30
0.0
 10
28.94563265510154
 20
1.193429329944388
 30
0.0
 10
29.23798307778754
 20
1.235244037132206
 30
0.0
 10
29.43323852132943
 20
1.244370086811316
 30
0.0
 10
29.53108891324547
 20
1.248943519037058
 30
0.0
  0
SPLINE
  5
C5
330
1F
100
AcDbEntity
  8
0
  6
Continuous
 62
     1
370
    15
100
AcDbSpline
210
0.0
220
0.0
230
1.0
 70
    24
 71
     3
 72
    10
 73
     6
 74
     0
 42
0.000000001
 43
0.00000001
 40
0.0
 40
0.0
 40
0.0
 40
0.0
 40
0.5
 40
0.5
 40
1.0
 40
1.0
 40
1.0
 40
1.0
 10
29.53108891324553
 20
0.8750000000000027
 30
0.0
 10
29.53108891324553
 20
0.9280403210091454
 30
0.0
 10
29.53108891324553
 20
0.9896780860839003
 30
0.0
 10
29.53108891324553
 20
1.118993951201074
 30
0.0
 10
29.53108891324553
 20
1.186341794751846
 30
0.0
 10
29.53108891324553
 20
1.248943519037061
 30
0.0
  0
LINE
  5
C6
330
1F
100
AcDbEntity
  8
0
  6
Continuous
 62
     1
370
    15
100
AcDbLine
 10
29.53108891324553
 20
0.8750000000000027
 30
0.0
 11
29.0674745276125
 21
0.8469809174481094
 31
0.0
  0
SPLINE
  5
C7
330
1F
100
AcDbEntity
  8
0
  6
Continuous
 62
     1
370
    15
100
AcDbSpline
210
0.0
220
0.0
230
1.0
 70
     8
 71
     3
 72
    14
 73
    10
 74
     0
 42
0.000000001
 43
0.00000001
 40
0.0
 40
0.0
 40
0.0
 40
0.0
 40
0.1293344069063241
 40
0.2860878113528496
 40
0.4427376364048757
 40
0.5993604697134559
 40
0.7560331959023038
 40
0.9128321509863403
 40
1.0
 40
1.0
 40
1.0
 40
1.0
 10
19.62386027624821
 20
-0.1187477958634098
 30
0.0
 10
19.44434584017802
 20
-0.0463861401175852
 30
0.0
 10
19.04725976424499
 20
0.1136779001743803
 30
0.0
 10
18.43284617790242
 20
0.3570510963397339
 30
0.0
 10
17.78059643106806
 20
0.5821030846796355
 30
0.0
 10
17.12847446146487
 20
0.7558721288405601
 30
0.0
 10
16.47611836071271
 20
0.8577768625329476
 30
0.0
 10
15.92011518553768
 20
0.8902439120785333
 30
0.0
 10
15.58147843278088
 20
0.8569689266848622
 30
0.0
 10
15.46048558933255
 20
0.8450799776392959
 30
0.0
  0
SPLINE
  5
C8
330
1F
100
AcDbEntity
  8
0
  6
Continuous
 62
     1
370
    15
100
AcDbSpline
210
0.0
220
0.0
230
1.0
 70
     8
 71
     3
 72
    17
 73
    13
 74
     0
 42
0.000000001
 43
0.00000001
 40
0.0
 40
0.0
 40
0.0
 40
0.0
 40
0.0602963559130753
 40
0.1210848617821056
 40
0.2326367035623107
 40
0.34410995693544
 40
0.4555802319714116
 40
0.5670404262287235
 40
0.6784817641943146
 40
0.7898941670763909
 40
0.9012656154297356
 40
1.0
 40
1.0
 40
1.0
 40
1.0
 10
9.531088913245519
 20
1.236702438361919
 30
0.0
 10
9.661284109744496
 20
1.221818161628629
 30
0.0
 10
9.92273717990183
 20
1.191928119955542
 30
0.0
 10
10.42556706571074
 20
1.071378827894989
 30
0.0
 10
11.03921189419261
 20
0.8478442901987179
 30
0.0
 10
11.76235128597468
 20
0.488962851580975
 30
0.0
 10
12.48531578567536
 20
0.076523942317924
 30
0.0
 10
13.20820726846615
 20
-0.3442008993250414
 30
0.0
 10
13.93097894103069
 20
-0.7277067749077435
 30
0.0
 10
14.65356404634386
 20
-1.027325827517111
 30
0.0
 10
15.34868320187658
 20
-1.218783577045046
 30
0.0
 10
15.80293760150462
 20
-1.235310002136476
 30
0.0
 10
16.01640396729521
 20
-1.243076213991918
 30
0.0
  0
SPLINE
  5
C9
330
1F
100
AcDbEntity
  8
0
  6
Continuous
 62
     1
370
    15
100
AcDbSpline
210
0.0
220
0.0
230
1.0
 70
     8
 71
     3
 72
    20
 73
    16
 74
     0
 42
0.000000001
 43
0.00000001
 40
0.0
 40
0.0
 40
0.0
 40
0.0
 40
0.0132918262612759
 40
0.0976483941817955
 40
0.1820042594980379
 40
0.2687419591905459
 40
0.354117134083929
 40
0.4389954763956285
 40
0.5238735681865525
 40
0.6087514775997772
 40
0.6936292618837565
 40
0.7785069704597506
 40
0.8633846479321129
 40
0.9310865452375743
 40
1.0
 40
1.0
 40
1.0
 40
1.0
 10
21.02061395613688
 20
0.8374286105936724
 30
0.0
 10
21.05832528862143
 20
0.8552683228890618
 30
0.0
 10
21.33537157159155
 20
0.9863277592725456
 30
0.0
 10
21.85173381986689
 20
1.143169995040658
 30
0.0
 10
22.57642895383349
 20
1.267159300394395
 30
0.0
 10
23.30409772893676
 20
1.241867856182278
 30
0.0
 10
24.03317696263469
 20
1.078585770069994
 30
0.0
 10
24.75696882081965
 20
0.7963973916726119
 30
0.0
 10
25.47934373653842
 20
0.427048026858745
 30
0.0
 10
26.20170541929213
 20
0.0104845294593177
 30
0.0
 10
26.92408232831089
 20
-0.4070567518829142
 30
0.0
 10
27.64638011279983
 20
-0.7803436170862696
 30
0.0
 10
28.32022154881148
 20
-1.045880955829878
 30
0.0
 10
28.94793154823488
 20
-1.20879871805662
 30
0.0
 10
29.33555725365571
 20
-1.235483036445941
 30
0.0
 10
29.53108891324547
 20
-1.248943519037055
 30
0.0
  0
SPLINE
  5
CA
330
1F
100
AcDbEntity
  8
0
  6
Continuous
 62
     1
370
    15
100
AcDbSpline
210
0.0
220
0.0
230
1.0
 70
     8
 71
     3
 72
    15
 73
    11
 74
     0
 42
0.000000001
 43
0.00000001
 40
0.0
 40
0.0
 40
0.0
 40
0.0
 40
0.0387772335850392
 40
0.1954243099983791
 40
0.3522487236461452
 40
0.5092041432753058
 40
0.6659638474128159
 40
0.8225701248593233
 40
0.9790988569918286
 40
1.0
 40
1.0
 40
1.0
 40
1.0
 10
26.42957841330646
 20
-0.1190146707028041
 30
0.0
 10
26.37573225797491
 20
-0.0978877724896407
 30
0.0
 10
26.10436561371298
 20
0.0085847404775129
 30
0.0
 10
25.61519593149487
 20
0.2103609498300013
 30
0.0
 10
24.96184208244134
 20
0.4565138788305544
 30
0.0
 10
24.30823089622879
 20
0.6619574646702446
 30
0.0
 10
23.65505984774018
 20
0.8094846694017201
 30
0.0
 10
23.00253572353949
 20
0.8766210960137379
 30
0.0
 10
22.5387019665684
 20
0.8876314452279024
 30
0.0
 10
22.29232389085517
 20
0.8543269441981746
 30
0.0
 10
22.26330068723471
 20
0.8504036920497626
 30
0.0
  0
SPLINE
  5
CB
330
1F
100
AcDbEntity
  8
0
  6
Continuous
 62
     1
370
    15
100
AcDbSpline
210
0.0
220
0.0
230
1.0
 70
     8
 71
     3
 72
    13
 73
     9
 74
     0
 42
0.000000001
 43
0.00000001
 40
0.0
 40
0.0
 40
0.0
 40
0.0
 40
0.0803519189176777
 40
0.278447595697522
 40
0.4766701870934132
 40
0.6751151913099536
 40
0.873733598469908
 40
1.0
 40
1.0
 40
1.0
 40
1.0
 10
12.82325798599993
 20
-0.118003471966799
 30
0.0
 10
12.73508611662764
 20
-0.0830651172528133
 30
0.0
 10
12.42953964847143
 20
0.0380085422039519
 30
0.0
 10
11.90647905356466
 20
0.2516922965449682
 30
0.0
 10
11.25377225387107
 20
0.493085936640932
 30
0.0
 10
10.60047360075114
 20
0.689577525638632
 30
0.0
 10
10.02586246336502
 20
0.8111186668854967
 30
0.0
 10
9.66956416130121
 20
0.8461232040884358
 30
0.0
 10
9.531088913245522
 20
0.8597277089209721
 30
0.0
  0
SPLINE
  5
CC
330
1F
100
AcDbEntity
  8
0
  6
Continuous
 62
   131
370
    15
100
AcDbSpline
210
0.0
220
0.0
230
1.0
 70
    24
 71
     3
 72
    10
 73
     6
 74
     0
 42
0.000000001
 43
0.00000001
 40
0.0
 40
0.0
 40
0.0
 40
0.0
 40
0.5
 40
0.5
 40
1.0
 40
1.0
 40
1.0
 40
1.0
 10
9.531088913245519
 20
1.236702438361915
 30
0.0
 10
9.531088913245519
 20
1.178173054478216
 30
0.0
 10
9.531088913245519
 20
1.112707480750083
 30
0.0
 10
9.531088913245519
 20
0.9822145392728144
 30
0.0
 10
9.531088913245519
 20
0.9175387238476272
 30
0.0
 10
9.531088913245519
 20
0.8597277089209725
 30
0.0
  0
LINE
  5
CD
330
1F
100
AcDbEntity
  8
0
  6
Continuous
 62
   131
370
    15
100
AcDbLine
 10
9.531088913245519
 20
-1.250000000000002
 30
0.0
 11
9.531088913245519
 21
-1.238823465298482
 31
0.0
  0
LINE
  5
CE
330
1F
100
AcDbEntity
  8
0
  6
Continuous
 62
   131
370
    15
100
AcDbLine
 10
9.531088913245519
 20
1.236702438353205
 30
0.0
 11
9.531088913245519
 21
1.250000000000002
 31
0.0
  0
LINE
  5
CF
330
1F
100
AcDbEntity
  8
0
  6
Continuous
 62
     1
370
    15
100
AcDbLine
 10
29.53108891324553
 20
-1.248943519037057
 30
0.0
 11
29.53108891324553
 21
-1.186176086539878
 31
0.0
  0
SPLINE
  5
D0
330
1F
100
AcDbEntity
  8
0
  6
Continuous
 62
     1
370
    15
100
AcDbSpline
210
0.0
220
0.0
230
1.0
 70
     8
 71
     3
 72
     8
 73
     4
 74
     0
 42
0.000000001
 43
0.00000001
 40
0.0
 40
0.0
 40
0.0
 40
0.0
 40
1.0
 40
1.0
 40
1.0
 40
1.0
 10
28.75746022104592
 20
0.3498421875512416
 30
0.0
 10
28.70141017463651
 20
0.4161899107336723
 30
0.0
 10
28.6527951521936
 20
0.4796034014034102
 30
0.0
 10
28.61444860073683
 20
0.5385664122466234
 30
0.0
  0
LINE
  5
D1
330
1F
100
AcDbEntity
  8
0
  6
Continuous
 62
     1
370
    15
100
AcDbLine
 10
28.61444860073684
 20
0.5385664122466253
 30
0.0
 11
29.53108891324553
 21
0.0000000000000028
 31
0.0
  0
LINE
  5
D2
330
1F
100
AcDbEntity
  8
0
  6
Continuous
 62
     1
370
    15
100
AcDbLine
 10
29.53108891324553
 20
0.0000000000000028
 30
0.0
 11
29.53108891324553
 21
-0.3340536825370533
 31
0.0
  0
SPLINE
  5
D3
330
1F
100
AcDbEntity
  8
0
  6
Continuous
 62
     1
370
    15
100
AcDbSpline
210
0.0
220
0.0
230
1.0
 70
     8
 71
     3
 72
    10
 73
     6
 74
     0
 42
0.000000001
 43
0.00000001
 40
0.0
 40
0.0
 40
0.0
 40
0.0
 40
0.5
 40
0.5
 40
1.0
 40
1.0
 40
1.0
 40
1.0
 10
29.53108891324553
 20
-0.3340536825370533
 30
0.0
 10
29.39716804398299
 20
-0.2287670726147491
 30
0.0
 10
29.26548608421278
 20
-0.1191601491570723
 30
0.0
 10
29.00670370523319
 20
0.1088944712534411
 30
0.0
 10
28.8783869423555
 20
0.228541780744291
 30
0.0
 10
28.75746022104475
 20
0.3498421875485039
 30
0.0
  0
SPLINE
  5
D4
330
1F
100
AcDbEntity
  8
0
  6
Continuous
 62
     1
370
    15
100
AcDbSpline
210
0.0
220
0.0
230
1.0
 70
     8
 71
     3
 72
    12
 73
     8
 74
     0
 42
0.000000001
 43
0.00000001
 40
0.0
 40
0.0
 40
0.0
 40
0.0
 40
0.1851011808640717
 40
0.4116559944952806
 40
0.638138260892356
 40
0.8646562495543123
 40
1.0
 40
1.0
 40
1.0
 40
1.0
 10
28.75746022083724
 20
0.3498421876423368
 30
0.0
 10
28.57978806631932
 20
0.4244506974723849
 30
0.0
 10
28.1846538639292
 20
0.5903763829192721
 30
0.0
 10
27.57227211587912
 20
0.7985171140180994
 30
0.0
 10
26.92014283804848
 20
0.9460649146225918
 30
0.0
 10
26.35554897911912
 20
1.012195267435275
 30
0.0
 10
26.00825011308378
 20
0.9904699940189623
 30
0.0
 10
25.87835317739042
 20
0.9823442938803602
 30
0.0
  0
SPLINE
  5
D5
330
1F
100
AcDbEntity
  8
0
  6
Continuous
 62
     1
370
    15
100
AcDbSpline
210
0.0
220
0.0
230
1.0
 70
     8
 71
     3
 72
    20
 73
    16
 74
     0
 42
0.000000001
 43
0.00000001
 40
0.0
 40
0.0
 40
0.0
 40
0.0
 40
0.0444831637508277
 40
0.1281201957194077
 40
0.2116642917084708
 40
0.2951546212241302
 40
0.3786309385985208
 40
0.4621331510970478
 40
0.5457008835257526
 40
0.6293730492977196
 40
0.7130504213667384
 40
0.796621797026356
 40
0.8801259859891393
 40
0.9636025915324348
 40
1.0
 40
1.0
 40
1.0
 40
1.0
 10
20.08634669830549
 20
-0.9287284628041689
 30
0.0
 10
19.97048640807349
 20
-0.9488505324881801
 30
0.0
 10
19.63678615366308
 20
-1.006806021460052
 30
0.0
 10
19.08554988777124
 20
-1.006297162716546
 30
0.0
 10
18.43283438520792
 20
-0.9304562024249226
 30
0.0
 10
17.78059028863654
 20
-0.7665304891631369
 30
0.0
 10
17.12847129745753
 20
-0.5346010170815075
 30
0.0
 10
16.4761209816706
 20
-0.2541221255109498
 30
0.0
 10
15.82320240192073
 20
0.049287782589599
 30
0.0
 10
15.16968298231286
 20
0.3482723606251394
 30
0.0
 10
14.51614408024087
 20
0.6154488293524387
 30
0.0
 10
13.86319510940907
 20
0.8285739099066886
 30
0.0
 10
13.21082556945283
 20
0.9616650249754364
 30
0.0
 10
12.68131575097276
 20
1.015020337179972
 30
0.0
 10
12.36920127040584
 20
0.9898016824223073
 30
0.0
 10
12.27443379030121
 20
0.9821445293204344
 30
0.0
  0
SPLINE
  5
D6
330
1F
100
AcDbEntity
  8
0
  6
Continuous
 62
     1
370
    15
100
AcDbSpline
210
0.0
220
0.0
230
1.0
 70
    24
 71
     3
 72
    10
 73
     6
 74
     0
 42
0.000000001
 43
0.00000001
 40
0.0
 40
0.0
 40
0.0
 40
0.0
 40
0.5
 40
0.5
 40
1.0
 40
1.0
 40
1.0
 40
1.0
 10
29.53108891324553
 20
-0.986215330460267
 30
0.0
 10
29.53108891324553
 20
-0.9106142362547534
 30
0.0
 10
29.53108891324553
 20
-0.815089354883083
 30
0.0
 10
29.53108891324553
 20
-0.5930031989383476
 30
0.0
 10
29.53108891324553
 20
-0.4666343038141346
 30
0.0
 10
29.53108891324553
 20
-0.3340536825370933
 30
0.0
  0
SPLINE
  5
D7
330
1F
100
AcDbEntity
  8
0
  6
Continuous
 62
   131
370
    15
100
AcDbSpline
210
0.0
220
0.0
230
1.0
 70
    24
 71
     3
 72
    10
 73
     6
 74
     0
 42
0.000000001
 43
0.00000001
 40
0.0
 40
0.0
 40
0.0
 40
0.0
 40
0.5
 40
0.5
 40
1.0
 40
1.0
 40
1.0
 40
1.0
 10
9.531088913245519
 20
-0.1860200261801843
 30
0.0
 10
9.531088913245519
 20
-0.3700444799966033
 30
0.0
 10
9.531088913245519
 20
-0.5503346624067305
 30
0.0
 10
9.531088913245519
 20
-0.849731228535458
 30
0.0
 10
9.531088913245519
 20
-0.9675488923911071
 30
0.0
 10
9.531088913245519
 20
-1.042541122987804
 30
0.0
  0
SPLINE
  5
D8
330
1F
100
AcDbEntity
  8
0
  6
Continuous
 62
     1
370
    15
100
AcDbSpline
210
0.0
220
0.0
230
1.0
 70
     8
 71
     3
 72
    20
 73
    16
 74
     0
 42
0.000000001
 43
0.00000001
 40
0.0
 40
0.0
 40
0.0
 40
0.0
 40
0.0789214464843739
 40
0.1625128012837186
 40
0.246196324738297
 40
0.3299479441586289
 40
0.4135978389631449
 40
0.4971679923985384
 40
0.5806978439308672
 40
0.6642272721034344
 40
0.7477961600813728
 40
0.8314439610904345
 40
0.915194682557627
 40
0.9988805770491451
 40
1.0
 40
1.0
 40
1.0
 40
1.0
 10
26.88413607733705
 20
-0.9377247933859966
 30
0.0
 10
26.67877292475254
 20
-0.9636523350480153
 30
0.0
 10
26.25589495312829
 20
-1.017041592513402
 30
0.0
 10
25.61520524707226
 20
-0.9854127928114553
 30
0.0
 10
24.96184861889523
 20
-0.871206522262474
 30
0.0
 10
24.30821600604525
 20
-0.6766359092274526
 30
0.0
 10
23.65504917371073
 20
-0.4213594644568212
 30
0.0
 10
23.0025293279205
 20
-0.1279981131440184
 30
0.0
 10
22.35036816821202
 20
0.1767662152603009
 30
0.0
 10
21.69821057234806
 20
0.4658002013636781
 30
0.0
 10
21.04570239607648
 20
0.7121031215135657
 30
0.0
 10
20.39254693936163
 20
0.8970457858515631
 30
0.0
 10
19.73892591917118
 20
0.990339693824752
 30
0.0
 10
19.30019517507852
 20
1.019602729821511
 30
0.0
 10
19.07949936494755
 20
0.9930443081518495
 30
0.0
 10
19.07658619909346
 20
0.9926937392529631
 30
0.0
  0
SPLINE
  5
D9
330
1F
100
AcDbEntity
  8
0
  6
Continuous
 62
     1
370
    15
100
AcDbSpline
210
0.0
220
0.0
230
1.0
 70
     8
 71
     3
 72
    14
 73
    10
 74
     0
 42
0.000000001
 43
0.00000001
 40
0.0
 40
0.0
 40
0.0
 40
0.0
 40
0.0187738903262661
 40
0.1926559704045764
 40
0.3665637145438819
 40
0.5405799630486625
 40
0.7147863757381779
 40
0.889141086596916
 40
1.0
 40
1.0
 40
1.0
 40
1.0
 10
13.28116190182465
 20
-0.935866122897653
 30
0.0
 10
13.25769462143772
 20
-0.9408610878118954
 30
0.0
 10
13.0168755052541
 20
-0.9921189675569286
 30
0.0
 10
12.55870689046494
 20
-1.009885782814278
 30
0.0
 10
11.90647649700437
 20
-0.975197562112324
 30
0.0
 10
11.25377175246412
 20
-0.8442513763675081
 30
0.0
 10
10.6004837709953
 20
-0.638996725202383
 30
0.0
 10
10.02579884159364
 20
-0.4085476442456252
 30
0.0
 10
9.66955598654912
 20
-0.2483045008533111
 30
0.0
 10
9.531088913245515
 20
-0.186020026180183
 30
0.0
  0
SPLINE
  5
DA
330
1F
100
AcDbEntity
  8
0
  6
Continuous
 62
   131
370
    15
100
AcDbSpline
210
0.0
220
0.0
230
1.0
 70
    24
 71
     3
 72
    10
 73
     6
 74
     0
 42
0.000000001
 43
0.00000001
 40
0.0
 40
0.0
 40
0.0
 40
0.0
 40
0.5
 40
0.5
 40
1.0
 40
1.0
 40
1.0
 40
1.0
 10
9.531088913245515
 20
0.8597277089209728
 30
0.0
 10
9.531088913245515
 20
0.7731507419084303
 30
0.0
 10
9.531088913245512
 20
0.6283129392894378
 30
0.0
 10
9.531088913245512
 20
0.2565938940983415
 30
0.0
 10
9.531088913245512
 20
0.0325927627501591
 30
0.0
 10
9.531088913245515
 20
-0.1860200261801832
 30
0.0
  0
SPLINE
  5
DB
330
1F
100
AcDbEntity
  8
0
  6
Continuous
 62
     1
370
    15
100
AcDbSpline
210
0.0
220
0.0
230
1.0
 70
     8
 71
     3
 72
    26
 73
    22
 74
     0
 42
0.000000001
 43
0.00000001
 40
0.0
 40
0.0
 40
0.0
 40
0.0
 40
0.0003251832059654
 40
0.0003251832059654
 40
0.0003251832059654
 40
0.0004877433287077
 40
0.0004877433287077
 40
0.0004877433287077
 40
0.0006503046402542
 40
0.0006503046402542
 40
0.0006503046402542
 40
0.0008128675623258
 40
0.0008128675623258
 40
0.0008128675623258
 40
0.0009754326885169
 40
0.0009754326885169
 40
0.0009754326885169
 40
0.0011380026871405
 40
0.0011380026871405
 40
0.0011380026871405
 40
0.0012440466926171
 40
0.0012440466926171
 40
0.0012440466926171
 40
0.0012440466926171
 10
29.53108891324553
 20
0.8750000000000027
 30
0.0
 10
29.44979730910987
 20
0.8529052505614073
 30
0.0
 10
29.36876130919195
 20
0.8291313440631894
 30
0.0
 10
29.28806805980299
 20
0.8035707163627128
 30
0.0
 10
29.24772520904615
 20
0.7907915979559059
 30
0.0
 10
29.20746408729003
 20
0.7775635916153408
 30
0.0
 10
29.1672984099735
 20
0.7638664044946553
 30
0.0
 10
29.12713255983714
 20
0.7501691584394331
 30
0.0
 10
29.0870588650713
 20
0.7360016959574386
 30
0.0
 10
29.04709374738649
 20
0.721337978382097
 30
0.0
 10
29.00712839682087
 20
0.7066741753597826
 30
0.0
 10
28.96726790635087
 20
0.6915128741723123
 30
0.0
 10
28.92753234145106
 20
0.6758209651678292
 30
0.0
 10
28.88779645993162
 20
0.6601289311275892
 30
0.0
 10
28.84818120198423
 20
0.643904762512727
 30
0.0
 10
28.80871162316872
 20
0.6271064402439585
 30
0.0
 10
28.76924138806366
 20
0.6103078386571994
 30
0.0
 10
28.72991066723923
 20
0.5929341875286774
 30
0.0
 10
28.6907734746346
 20
0.5748564280766529
 30
0.0
 10
28.66524766061291
 20
0.5630658653154725
 30
0.0
 10
28.63980083310647
 20
0.5509787857969133
 30
0.0
 10
28.61444860073681
 20
0.5385664122466494
 30
0.0
  0
LINE
  5
DC
330
1F
100
AcDbEntity
  8
0
  6
Continuous
 62
     1
370
    15
100
AcDbLine
 10
29.53108891324553
 20
0.0000000000000028
 30
0.0
 11
29.53108891324553
 21
0.8750000000000027
 31
0.0
  0
LINE
  5
DD
330
1F
100
AcDbEntity
  8
0
  6
Continuous
 62
   131
370
    15
100
AcDbLine
 10
8.531088913245519
 20
1.25
 30
0.0
 11
8.531088913245519
 21
-1.25
 31
0.0
  0
LINE
  5
DE
330
1F
100
AcDbEntity
  8
0
  6
Continuous
 62
   131
370
    15
100
AcDbLine
 10
2.0
 20
3.0
 30
0.0
 11
2.0
 21
-3.0
 31
0.0
  0
LINE
  5
DF
330
1F
100
AcDbEntity
  8
0
  6
Continuous
 62
   131
370
    15
100
AcDbLine
 10
-29.91891108675447
 20
2.999999999999995
 30
0.0
 11
-29.91891108675447
 21
-3.0
 31
0.0
  0
LINE
  5
E0
330
1F
100
AcDbEntity
  8
0
  6
Continuous
 62
   131
370
    15
100
AcDbLine
 10
-30.46891108675447
 20
2.449999999999995
 30
0.0
 11
-30.46891108675447
 21
-2.450000000000002
 31
0.0
  0
SPLINE
  5
E1
330
1F
100
AcDbEntity
  8
0
  6
Continuous
 62
   131
370
    15
100
AcDbSpline
210
0.0
220
0.0
230
1.0
 70
     8
 71
     3
 72
    10
 73
     6
 74
     0
 42
0.000000001
 43
0.00000001
 40
0.0
 40
0.0
 40
0.0
 40
0.0
 40
0.5
 40
0.5
 40
1.0
 40
1.0
 40
1.0
 40
1.0
 10
8.641019047113076
 20
1.206425059173152
 30
0.0
 10
8.790068524472893
 20
1.22886119268699
 30
0.0
 10
8.940236123931484
 20
1.242751674421933
 30
0.0
 10
9.233433817454646
 20
1.252855105546919
 30
0.0
 10
9.38178657311082
 20
1.249179752299502
 30
0.0
 10
9.531088913245565
 20
1.23670243836157
 30
0.0
  0
SPLINE
  5
E2
330
1F
100
AcDbEntity
  8
0
  6
Continuous
 62
   131
370
    15
100
AcDbSpline
210
0.0
220
0.0
230
1.0
 70
     8
 71
     3
 72
    10
 73
     6
 74
     0
 42
0.000000001
 43
0.00000001
 40
0.0
 40
0.0
 40
0.0
 40
0.0
 40
0.5
 40
0.5
 40
1.0
 40
1.0
 40
1.0
 40
1.0
 10
9.53108891324548
 20
-1.238823465326512
 30
0.0
 10
9.381774332789117
 20
-1.227378633352499
 30
0.0
 10
9.233410360325706
 20
-1.207168570692958
 30
0.0
 10
8.940187468838161
 20
-1.150444728239224
 30
0.0
 10
8.790007055406761
 20
-1.113541594344983
 30
0.0
 10
8.640945729657965
 20
-1.069122786623838
 30
0.0
  0
SPLINE
  5
E3
330
1F
100
AcDbEntity
  8
0
  6
Continuous
 62
   131
370
    15
100
AcDbSpline
210
0.0
220
0.0
230
1.0
 70
     8
 71
     3
 72
     9
 73
     5
 74
     0
 42
0.000000001
 43
0.00000001
 40
0.0
 40
0.0
 40
0.0
 40
0.0
 40
0.6809877076224814
 40
1.0
 40
1.0
 40
1.0
 40
1.0
 10
8.641019047113076
 20
-1.20642505917353
 30
0.0
 10
8.771428745632196
 20
-1.224057230739819
 30
0.0
 10
8.96292955696757
 20
-1.249949286306943
 30
0.0
 10
9.154042366685655
 20
-1.24607258961943
 30
0.0
 10
9.215009702216534
 20
-1.244835875722295
 30
0.0
  0
LINE
  5
E4
330
1F
100
AcDbEntity
  8
0
  6
Continuous
 62
   131
370
    15
100
AcDbLine
 10
8.641019047113076
 20
-1.25
 30
0.0
 11
8.641019047113076
 21
-1.206313215367312
 31
0.0
  0
LINE
  5
E5
330
1F
100
AcDbEntity
  8
0
  6
Continuous
 62
   131
370
    15
100
AcDbLine
 10
8.641019047113076
 20
-1.069095028326622
 30
0.0
 11
8.641019047113076
 21
1.25
 31
0.0
  0
SPLINE
  5
E6
330
1F
100
AcDbEntity
  8
0
  6
Continuous
 62
   131
370
    15
100
AcDbSpline
210
0.0
220
0.0
230
1.0
 70
    24
 71
     3
 72
    10
 73
     6
 74
     0
 42
0.000000001
 43
0.00000001
 40
0.0
 40
0.0
 40
0.0
 40
0.0
 40
0.5
 40
0.5
 40
1.0
 40
1.0
 40
1.0
 40
1.0
 10
9.531088913245519
 20
-0.1860200261801843
 30
0.0
 10
9.531088913245519
 20
-0.3700444799966033
 30
0.0
 10
9.531088913245519
 20
-0.5503346624067305
 30
0.0
 10
9.531088913245519
 20
-0.849731228535458
 30
0.0
 10
9.531088913245519
 20
-0.9675488923911071
 30
0.0
 10
9.531088913245519
 20
-1.042541122987804
 30
0.0
  0
SPLINE
  5
E7
330
1F
100
AcDbEntity
  8
0
  6
Continuous
 62
   131
370
    15
100
AcDbSpline
210
0.0
220
0.0
230
1.0
 70
     8
 71
     3
 72
    10
 73
     6
 74
     0
 42
0.000000001
 43
0.00000001
 40
0.0
 40
0.0
 40
0.0
 40
0.0
 40
0.5
 40
0.5
 40
1.0
 40
1.0
 40
1.0
 40
1.0
 10
9.531088913240115
 20
-1.042541122987295
 30
0.0
 10
9.381774332784637
 20
-1.028475559577002
 30
0.0
 10
9.233410360322235
 20
-1.007043415265116
 30
0.0
 10
8.940187468836363
 20
-0.9506777223148264
 30
0.0
 10
8.790007055405873
 20
-0.915365138696329
 30
0.0
 10
8.640945729657965
 20
-0.8739213671735039
 30
0.0
  0
SPLINE
  5
E8
330
1F
100
AcDbEntity
  8
0
  6
Continuous
 62
   131
370
    15
100
AcDbSpline
210
0.0
220
0.0
230
1.0
 70
     8
 71
     3
 72
    10
 73
     6
 74
     0
 42
0.000000001
 43
0.00000001
 40
0.0
 40
0.0
 40
0.0
 40
0.0
 40
0.5
 40
0.5
 40
1.0
 40
1.0
 40
1.0
 40
1.0
 10
9.531088913245508
 20
-0.186020026180183
 30
0.0
 10
9.38178210609842
 20
-0.1185999791714213
 30
0.0
 10
9.23342525696616
 20
-0.0500099651944913
 30
0.0
 10
8.940218367645567
 20
0.08637129372505
 30
0.0
 10
8.790046091819718
 20
0.1549823478328826
 30
0.0
 10
8.64099229044393
 20
0.2218523116897165
 30
0.0
  0
SPLINE
  5
E9
330
1F
100
AcDbEntity
  8
0
  6
Continuous
 62
   131
370
    15
100
AcDbSpline
210
0.0
220
0.0
230
1.0
 70
    24
 71
     3
 72
    10
 73
     6
 74
     0
 42
0.000000001
 43
0.00000001
 40
0.0
 40
0.0
 40
0.0
 40
0.0
 40
0.5
 40
0.5
 40
1.0
 40
1.0
 40
1.0
 40
1.0
 10
9.531088913245515
 20
0.8597277089209728
 30
0.0
 10
9.531088913245515
 20
0.7731507419084303
 30
0.0
 10
9.531088913245512
 20
0.6283129392894378
 30
0.0
 10
9.531088913245512
 20
0.2565938940983415
 30
0.0
 10
9.531088913245512
 20
0.0325927627501591
 30
0.0
 10
9.531088913245515
 20
-0.1860200261801832
 30
0.0
  0
LINE
  5
EA
330
1F
100
AcDbEntity
  8
0
  6
Continuous
 62
   131
370
    15
100
AcDbLine
 10
9.531088913245522
 20
0.8597277089209721
 30
0.0
 11
8.75635549337876
 21
0.8540425507838953
 31
0.0
  0
SPLINE
  5
EB
330
1F
100
AcDbEntity
  8
0
  6
Continuous
 62
   131
370
    15
100
AcDbSpline
210
0.0
220
0.0
230
1.0
 70
    24
 71
     3
 72
     8
 73
     4
 74
     0
 42
0.000000001
 43
0.00000001
 40
0.0
 40
0.0
 40
0.0
 40
0.0
 40
1.0
 40
1.0
 40
1.0
 40
1.0
 10
9.531088913245533
 20
-1.042541122987806
 30
0.0
 10
9.531088913245533
 20
-1.108630721716579
 30
0.0
 10
9.531088913245533
 20
-1.174481611551053
 30
0.0
 10
9.531088913245533
 20
-1.238823465312613
 30
0.0
  0
SPLINE
  5
EC
330
1F
100
AcDbEntity
  8
0
  6
Continuous
 62
   131
370
    15
100
AcDbSpline
210
0.0
220
0.0
230
1.0
 70
    24
 71
     3
 72
    10
 73
     6
 74
     0
 42
0.000000001
 43
0.00000001
 40
0.0
 40
0.0
 40
0.0
 40
0.0
 40
0.5
 40
0.5
 40
1.0
 40
1.0
 40
1.0
 40
1.0
 10
9.531088913245519
 20
1.236702438361915
 30
0.0
 10
9.531088913245519
 20
1.178173054478215
 30
0.0
 10
9.531088913245519
 20
1.112707480750083
 30
0.0
 10
9.531088913245519
 20
0.9822145392728144
 30
0.0
 10
9.531088913245519
 20
0.9175387238476272
 30
0.0
 10
9.531088913245519
 20
0.8597277089209725
 30
0.0
  0
LINE
  5
ED
330
1F
100
AcDbEntity
  8
중심선
 62
     1
100
AcDbLine
 10
-33.46891108675447
 20
-0.0000000000000046
 30
0.0
 11
31.03108891324553
 21
0.0000000000000029
 31
0.0
  0
CIRCLE
  5
EE
330
1F
100
AcDbEntity
  8
외형선
100
AcDbCircle
 10
0.0000000000000104
 20
0.0
 30
0.0
 40
3.000000000000005
  0
INSERT
  5
EF
330
1F
100
AcDbEntity
  8
0
  6
Continuous
 62
     7
100
AcDbBlockReference
 66
     1
  2
블럭10
 10
-22.93944368806589
 20
-52.04609937292004
 30
0.0
  0
ATTRIB
  5
F0
330
EF
100
AcDbEntity
  8
FORMAT
 62
     2
100
AcDbText
 10
-39.05870472750145
 20
-49.97073246008785
 30
0.0
 40
4.233333333333333
  1
SEME7002520E [ 2 FLUTE ]
 41
0.75
  7
SLDTEXTSTYLE0
 11
-39.05870472750145
 21
-52.08739912675452
 31
0.0
100
AcDbAttribute
  2
AUTOATTR0
 70
     0
 74
     1
  0
SEQEND
  5
F1
330
EF
100
AcDbEntity
  8
0
  6
Continuous
 62
     7
  0
HATCH
  5
F2
330
1F
100
AcDbEntity
  8
중심선
100
AcDbHatch
 10
0.0
 20
0.0
 30
0.0
210
0.0
220
0.0
230
1.0
  2
SOLID
 70
     1
 71
     0
 91
        1
 92
        0
 93
        4
 72
     1
 10
-17.22453438368504
 20
-35.7989250712761
 11
-20.67080962752232
 21
-35.7989250712761
 72
     1
 10
-20.67080962752232
 20
-35.7989250712761
 11
-22.79903948672635
 21
-38.3352506518487
 72
     1
 10
-22.79903948672635
 20
-38.3352506518487
 11
-19.35273115777591
 21
-38.33521122254621
 72
     1
 10
-19.35273115777591
 20
-38.33521122254621
 11
-17.22453438368504
 21
-35.7989250712761
 97
        0
 75
     0
 76
     1
 98
        1
 10
0.0
 20
0.0
  0
HATCH
  5
F3
330
1F
100
AcDbEntity
  8
중심선
100
AcDbHatch
 10
0.0
 20
0.0
 30
0.0
210
0.0
220
0.0
230
1.0
  2
SOLID
 70
     1
 71
     0
 91
        1
 92
        0
 93
        4
 72
     1
 10
-12.21177039264909
 20
-35.7989250712761
 11
-15.65804563648637
 21
-35.7989250712761
 72
     1
 10
-15.65804563648637
 20
-35.7989250712761
 11
-20.18918364484376
 21
-41.19892507127612
 72
     1
 10
-20.18918364484376
 20
-41.19892507127612
 11
-16.74290840100648
 21
-41.19892507127612
 72
     1
 10
-16.74290840100648
 20
-41.19892507127612
 11
-12.21177039264909
 21
-35.7989250712761
 97
        0
 75
     0
 76
     1
 98
        1
 10
0.0
 20
0.0
  0
HATCH
  5
F4
330
1F
100
AcDbEntity
  8
중심선
100
AcDbHatch
 10
0.0
 20
0.0
 30
0.0
210
0.0
220
0.0
230
1.0
  2
SOLID
 70
     1
 71
     0
 91
        1
 92
        0
 93
        4
 72
     1
 10
-7.199006401613195
 20
-35.79892507127613
 11
-10.64528164545031
 21
-35.7989250712761
 72
     1
 10
-10.64528164545031
 20
-35.7989250712761
 11
-17.69371854733956
 21
-44.19892507127612
 72
     1
 10
-17.69371854733956
 20
-44.19892507127612
 11
-14.24744330350228
 21
-44.19892507127612
 72
     1
 10
-14.24744330350228
 20
-44.19892507127612
 11
-7.199006401613195
 21
-35.79892507127613
 97
        0
 75
     0
 76
     1
 98
        1
 10
0.0
 20
0.0
  0
HATCH
  5
F5
330
1F
100
AcDbEntity
  8
중심선
100
AcDbHatch
 10
0.0
 20
0.0
 30
0.0
210
0.0
220
0.0
230
1.0
  2
SOLID
 70
     1
 71
     0
 91
        1
 92
        0
 93
        6
 72
     3
 10
-2.399115970600996
 20
-39.99892507132738
 11
3.960054785062284
 21
1.540850780301639E-10
 40
0.3939339440162633
 50
17.09539180608433
 51
320.0019657685079
 73
     0
 72
     1
 10
-0.7161163149004002
 20
-38.58681907591441
 11
1.589185558800638
 21
-36.65249236586649
 72
     3
 10
-2.399115970653842
 20
-39.99892507127625
 11
6.600054785286829
 21
-1.249000902703301E-13
 40
0.6363583540795982
 50
39.99873849337408
 51
368.4976242363724
 73
     1
 72
     1
 10
4.026216521246767
 20
-39.03892507120613
 11
-3.71904866381792
 21
-39.0389250712061
 72
     1
 10
-3.71904866381792
 20
-39.0389250712061
 11
-3.719073708263854
 21
-40.95892507120602
 72
     1
 10
-3.719073708263854
 20
-40.95892507120602
 11
0.7223060612081835
 21
-40.95892507120599
 97
        0
 75
     0
 76
     1
 98
        1
 10
0.0
 20
0.0
  0
DIMENSION
  5
F6
330
1F
100
AcDbEntity
  8
치수문자_일반주서
100
AcDbDimension
  2
_D
 10
36.06779623289111
 20
1.250000000000027
 30
0.0
 11
36.06779623289108
 21
13.76025000000009
 31
0.0
 70
   160
  1
%%c<>
 71
     2
 42
2.5
 52
-270.0
  3
SLDDIMSTYLE0
100
AcDbAlignedDimension
 13
29.53108891324553
 23
-1.249999999999997
 33
0.0
 14
29.53108891324548
 24
1.250000000000003
 34
0.0
 50
90.0000000000002
100
AcDbRotatedDimension
  0
DIMENSION
  5
104
330
1F
100
AcDbEntity
  8
치수문자_일반주서
100
AcDbDimension
  2
_D_1
 10
29.53108891324553
 20
24.23841044024269
 30
0.0
 11
-0.4689110867544741
 21
24.23841044024269
 31
0.0
 70
   160
  1
<>
 71
     2
 42
60.0
  3
SLDDIMSTYLE1
100
AcDbAlignedDimension
 13
-30.46891108675447
 23
2.449999999999995
 33
0.0
 14
29.53108891324553
 24
1.248943519037061
 34
0.0
 50
-0.0000000000000068
100
AcDbRotatedDimension
  0
DIMENSION
  5
10F
330
1F
100
AcDbEntity
  8
치수문자_일반주서
100
AcDbDimension
  2
_D_2
 10
29.53108891324553
 20
14.58370024452072
 30
0.0
 11
19.53108891324552
 21
14.58370024452072
 31
0.0
 70
   160
  1
<>
 71
     2
 42
20.00000000000001
  3
SLDDIMSTYLE2
100
AcDbAlignedDimension
 13
9.531088913245519
 23
1.236702438353205
 33
0.0
 14
29.53108891324553
 24
1.248676086539878
 34
0.0
100
AcDbRotatedDimension
  0
DIMENSION
  5
11A
330
1F
100
AcDbEntity
  8
치수문자_일반주서
100
AcDbDimension
  2
_D_3
 10
-42.66936910836653
 20
-3.000000000000046
 30
0.0
 11
-42.66936910836659
 21
12.66649999999995
 31
0.0
 70
   160
  1
%%c<>
 71
     2
 42
5.999999999999995
 52
-270.0
  3
SLDDIMSTYLE2
100
AcDbAlignedDimension
 13
-29.91891108675447
 23
2.999999999999995
 33
0.0
 14
-29.91891108675447
 24
-2.999999999999999
 34
0.0
 50
90.0000000000002
100
AcDbRotatedDimension
  0
INSERT
  5
12D
330
1F
100
AcDbEntity
  8
외형선
100
AcDbBlockReference
  2
SW_DOWELSYMBOL_0
 10
0.0000000000000104
 20
0.0
 30
0.0
  0
ENDSEC
  0
SECTION
  2
OBJECTS
  0
DICTIONARY
  5
C
330
0
100
AcDbDictionary
281
     1
  3
ACAD_GROUP
350
D
  3
ACAD_IMAGE_VARS
350
151
  3
ACAD_LAYOUT
350
1A
  3
ACAD_MLINESTYLE
350
17
  3
ACAD_PLOTSETTINGS
350
19
  3
ACAD_PLOTSTYLENAME
350
E
  3
ACAD_SCALELIST
350
47
  3
APPDATA
350
14F
  3
DWGPROPS
350
1A7
  0
DICTIONARY
  5
D
102
{ACAD_REACTORS
330
C
102
}
330
C
100
AcDbDictionary
281
     1
  0
RASTERVARIABLES
  5
151
102
{ACAD_REACTORS
330
C
102
}
330
C
100
AcDbRasterVariables
 90
        0
 70
     1
 71
     1
 72
     1
  0
DICTIONARY
  5
1A
102
{ACAD_REACTORS
330
C
102
}
330
C
100
AcDbDictionary
281
     1
  3
Layout1
350
1E
  3
Layout2
350
26
  3
Model
350
22
  0
DICTIONARY
  5
17
102
{ACAD_REACTORS
330
C
102
}
330
C
100
AcDbDictionary
281
     1
  3
Standard
350
18
  0
DICTIONARY
  5
19
102
{ACAD_REACTORS
330
C
102
}
330
C
100
AcDbDictionary
281
     1
  0
ACDBDICTIONARYWDFLT
  5
E
102
{ACAD_REACTORS
330
C
102
}
330
C
100
AcDbDictionary
281
     1
  3
Normal
350
F
100
AcDbDictionaryWithDefault
340
F
  0
DICTIONARY
  5
47
102
{ACAD_REACTORS
330
C
102
}
330
C
100
AcDbDictionary
281
     1
  3
A0
350
48
  3
A1
350
49
  3
A2
350
4A
  3
A3
350
4B
  3
A4
350
4C
  3
A5
350
4D
  3
A6
350
4E
  3
A7
350
4F
  3
A8
350
50
  3
A9
350
51
  3
B0
350
52
  3
B1
350
53
  3
B2
350
54
  3
B3
350
55
  3
B4
350
56
  3
B5
350
57
  3
B6
350
58
  3
B7
350
59
  3
B8
350
5A
  3
B9
350
5B
  3
C0
350
5C
  3
C1
350
5D
  3
C2
350
5E
  3
C3
350
5F
  3
C4
350
60
  3
C5
350
61
  3
C6
350
62
  3
C7
350
63
  3
C8
350
64
  3
C9
350
65
  3
D0
350
66
  3
D1
350
67
  3
D2
350
68
  0
DICTIONARY
  5
14F
102
{ACAD_REACTORS
330
C
102
}
330
C
100
AcDbDictionary
281
     1
  0
XRECORD
  5
1A7
102
{ACAD_REACTORS
330
C
102
}
330
C
100
AcDbXrecord
280
     1
  1
DWGPROPS COOKIE
  2

  3

  4

  6

  7

  8
12014102
  9

300
=
301
=
302
=
303
=
304
=
305
=
306
=
307
=
308
=
309
=
 40
0.0
 41
2458262.161661852
 42
2458264.423429734
  1

 90
        0
  0
LAYOUT
  5
1E
102
{ACAD_REACTORS
330
1A
102
}
330
1A
100
AcDbPlotSettings
  1

  2
none_device
  4

  6

 40
0.0
 41
0.0
 42
0.0
 43
0.0
 44
0.0
 45
0.0
 46
0.0
 47
0.0
 48
0.0
 49
0.0
140
0.0
141
0.0
142
1.0
143
1.0
 70
   688
 72
     1
 73
     0
 74
     5
  7

 75
    16
147
1.0
148
0.0
149
0.0
100
AcDbLayout
  1
Layout1
 70
     1
 71
     1
 10
0.0
 20
0.0
 11
420.0
 21
297.0
 12
0.0
 22
0.0
 32
0.0
 14
1.000000000000000E+20
 24
1.000000000000000E+20
 34
1.000000000000000E+20
 15
-1.000000000000000E+20
 25
-1.000000000000000E+20
 35
-1.000000000000000E+20
146
0.0
 13
0.0
 23
0.0
 33
0.0
 16
1.0
 26
0.0
 36
0.0
 17
0.0
 27
1.0
 37
0.0
 76
     0
330
1B
  0
LAYOUT
  5
26
102
{ACAD_REACTORS
330
1A
102
}
330
1A
100
AcDbPlotSettings
  1

  2
none_device
  4

  6

 40
0.0
 41
0.0
 42
0.0
 43
0.0
 44
0.0
 45
0.0
 46
0.0
 47
0.0
 48
0.0
 49
0.0
140
0.0
141
0.0
142
1.0
143
1.0
 70
   688
 72
     1
 73
     0
 74
     5
  7

 75
    16
147
1.0
148
0.0
149
0.0
100
AcDbLayout
  1
Layout2
 70
     1
 71
     2
 10
0.0
 20
0.0
 11
0.0
 21
0.0
 12
0.0
 22
0.0
 32
0.0
 14
0.0
 24
0.0
 34
0.0
 15
0.0
 25
0.0
 35
0.0
146
0.0
 13
0.0
 23
0.0
 33
0.0
 16
1.0
 26
0.0
 36
0.0
 17
0.0
 27
1.0
 37
0.0
 76
     0
330
23
  0
LAYOUT
  5
22
102
{ACAD_REACTORS
330
1A
102
}
330
1A
100
AcDbPlotSettings
  1

  2
none_device
  4
ANSI_A_(11.00_x_8.50_Inches)
  6

 40
6.35
 41
19.05
 42
6.35000508
 43
19.05000254
 44
279.4
 45
215.9
 46
132.3164195172518
 47
118.4377884955873
 48
0.0
 49
0.0
140
0.0
141
0.0
142
0.1058944507156154
143
1.0
 70
  1696
 72
     0
 73
     0
 74
     0
  7

 75
     0
147
0.0235690232323232
148
0.0
149
0.0
100
AcDbLayout
  1
Model
 70
     1
 71
     0
 10
0.0
 20
0.0
 11
420.0
 21
297.0
 12
0.0
 22
0.0
 32
0.0
 14
-47.0443691083666
 24
-49.97073246008785
 34
0.0
 15
36.61812956622447
 25
28.61341044024268
 35
0.0
146
0.0
 13
0.0
 23
0.0
 33
0.0
 16
1.0
 26
0.0
 36
0.0
 17
0.0
 27
1.0
 37
0.0
 76
     0
330
1F
331
29
  0
MLINESTYLE
  5
18
102
{ACAD_REACTORS
330
17
102
}
330
17
100
AcDbMlineStyle
  2
Standard
 70
     0
  3

 62
   256
 51
90.0
 52
90.0
 71
     2
 49
0.5
 62
   256
  6
BYLAYER
 49
-0.5
 62
   256
  6
BYLAYER
  0
ACDBPLACEHOLDER
  5
F
102
{ACAD_REACTORS
330
E
102
}
330
E
  0
SCALE
  5
48
102
{ACAD_REACTORS
330
47
102
}
330
47
100
AcDbScale
 70
     0
300
1:1
140
1.0
141
1.0
290
     1
  0
SCALE
  5
49
102
{ACAD_REACTORS
330
47
102
}
330
47
100
AcDbScale
 70
     0
300
1:2
140
1.0
141
2.0
290
     0
  0
SCALE
  5
4A
102
{ACAD_REACTORS
330
47
102
}
330
47
100
AcDbScale
 70
     0
300
1:4
140
1.0
141
4.0
290
     0
  0
SCALE
  5
4B
102
{ACAD_REACTORS
330
47
102
}
330
47
100
AcDbScale
 70
     0
300
1:5
140
1.0
141
5.0
290
     0
  0
SCALE
  5
4C
102
{ACAD_REACTORS
330
47
102
}
330
47
100
AcDbScale
 70
     0
300
1:8
140
1.0
141
8.0
290
     0
  0
SCALE
  5
4D
102
{ACAD_REACTORS
330
47
102
}
330
47
100
AcDbScale
 70
     0
300
1:10
140
1.0
141
10.0
290
     0
  0
SCALE
  5
4E
102
{ACAD_REACTORS
330
47
102
}
330
47
100
AcDbScale
 70
     0
300
1:16
140
1.0
141
16.0
290
     0
  0
SCALE
  5
4F
102
{ACAD_REACTORS
330
47
102
}
330
47
100
AcDbScale
 70
     0
300
1:20
140
1.0
141
20.0
290
     0
  0
SCALE
  5
50
102
{ACAD_REACTORS
330
47
102
}
330
47
100
AcDbScale
 70
     0
300
1:30
140
1.0
141
30.0
290
     0
  0
SCALE
  5
51
102
{ACAD_REACTORS
330
47
102
}
330
47
100
AcDbScale
 70
     0
300
1:40
140
1.0
141
40.0
290
     0
  0
SCALE
  5
52
102
{ACAD_REACTORS
330
47
102
}
330
47
100
AcDbScale
 70
     0
300
1:50
140
1.0
141
50.0
290
     0
  0
SCALE
  5
53
102
{ACAD_REACTORS
330
47
102
}
330
47
100
AcDbScale
 70
     0
300
1:100
140
1.0
141
100.0
290
     0
  0
SCALE
  5
54
102
{ACAD_REACTORS
330
47
102
}
330
47
100
AcDbScale
 70
     0
300
2:1
140
2.0
141
1.0
290
     0
  0
SCALE
  5
55
102
{ACAD_REACTORS
330
47
102
}
330
47
100
AcDbScale
 70
     0
300
4:1
140
4.0
141
1.0
290
     0
  0
SCALE
  5
56
102
{ACAD_REACTORS
330
47
102
}
330
47
100
AcDbScale
 70
     0
300
8:1
140
8.0
141
1.0
290
     0
  0
SCALE
  5
57
102
{ACAD_REACTORS
330
47
102
}
330
47
100
AcDbScale
 70
     0
300
10:1
140
10.0
141
1.0
290
     0
  0
SCALE
  5
58
102
{ACAD_REACTORS
330
47
102
}
330
47
100
AcDbScale
 70
     0
300
100:1
140
100.0
141
1.0
290
     0
  0
SCALE
  5
59
102
{ACAD_REACTORS
330
47
102
}
330
47
100
AcDbScale
 70
     0
300
1/128" = 1'-0"
140
0.0078125
141
12.0
290
     0
  0
SCALE
  5
5A
102
{ACAD_REACTORS
330
47
102
}
330
47
100
AcDbScale
 70
     0
300
1/64" = 1'-0"
140
0.015625
141
12.0
290
     0
  0
SCALE
  5
5B
102
{ACAD_REACTORS
330
47
102
}
330
47
100
AcDbScale
 70
     0
300
1/32" = 1'-0"
140
0.03125
141
12.0
290
     0
  0
SCALE
  5
5C
102
{ACAD_REACTORS
330
47
102
}
330
47
100
AcDbScale
 70
     0
300
1/16" = 1'-0"
140
0.0625
141
12.0
290
     0
  0
SCALE
  5
5D
102
{ACAD_REACTORS
330
47
102
}
330
47
100
AcDbScale
 70
     0
300
3/32" = 1'-0"
140
0.09375
141
12.0
290
     0
  0
SCALE
  5
5E
102
{ACAD_REACTORS
330
47
102
}
330
47
100
AcDbScale
 70
     0
300
1/8" = 1'-0"
140
0.125
141
12.0
290
     0
  0
SCALE
  5
5F
102
{ACAD_REACTORS
330
47
102
}
330
47
100
AcDbScale
 70
     0
300
3/16" = 1'-0"
140
0.1875
141
12.0
290
     0
  0
SCALE
  5
60
102
{ACAD_REACTORS
330
47
102
}
330
47
100
AcDbScale
 70
     0
300
1/4" = 1'-0"
140
0.25
141
12.0
290
     0
  0
SCALE
  5
61
102
{ACAD_REACTORS
330
47
102
}
330
47
100
AcDbScale
 70
     0
300
3/8" = 1'-0"
140
0.375
141
12.0
290
     0
  0
SCALE
  5
62
102
{ACAD_REACTORS
330
47
102
}
330
47
100
AcDbScale
 70
     0
300
1/2" = 1'-0"
140
0.5
141
12.0
290
     0
  0
SCALE
  5
63
102
{ACAD_REACTORS
330
47
102
}
330
47
100
AcDbScale
 70
     0
300
3/4" = 1'-0"
140
0.75
141
12.0
290
     0
  0
SCALE
  5
64
102
{ACAD_REACTORS
330
47
102
}
330
47
100
AcDbScale
 70
     0
300
1" = 1'-0"
140
1.0
141
12.0
290
     0
  0
SCALE
  5
65
102
{ACAD_REACTORS
330
47
102
}
330
47
100
AcDbScale
 70
     0
300
1-1/2" = 1'-0"
140
1.5
141
12.0
290
     0
  0
SCALE
  5
66
102
{ACAD_REACTORS
330
47
102
}
330
47
100
AcDbScale
 70
     0
300
3" = 1'-0"
140
3.0
141
12.0
290
     0
  0
SCALE
  5
67
102
{ACAD_REACTORS
330
47
102
}
330
47
100
AcDbScale
 70
     0
300
6" = 1'-0"
140
6.0
141
12.0
290
     0
  0
SCALE
  5
68
102
{ACAD_REACTORS
330
47
102
}
330
47
100
AcDbScale
 70
     0
300
1'-0" = 1'-0"
140
12.0
141
12.0
290
     0
  0
ENDSEC
  0
EOF
