  0
SECTION
  2
HEADER
  9
$ACADVER
  1
AC1015
  9
$ACADMAINTVER
 70
     6
  9
$DWGCODEPAGE
  3
ANSI_949
  9
$INSBASE
 10
0.0
 20
0.0
 30
0.0
  9
$EXTMIN
 10
-43.58998440551128
 20
-49.97073246008785
 30
0.0
  9
$EXTMAX
 10
37.57858005194617
 20
28.61341044024269
 30
0.0
  9
$LIMMIN
 10
0.0
 20
0.0
  9
$LIMMAX
 10
420.0
 20
297.0
  9
$ORTHOMODE
 70
     0
  9
$REGENMODE
 70
     1
  9
$FILLMODE
 70
     1
  9
$QTEXTMODE
 70
     0
  9
$MIRRTEXT
 70
     1
  9
$LTSCALE
 40
1.0
  9
$ATTMODE
 70
     1
  9
$TEXTSIZE
 40
3.5
  9
$TRACEWID
 40
1.0
  9
$TEXTSTYLE
  7
Standard
  9
$CLAYER
  8
0
  9
$CELTYPE
  6
ByLayer
  9
$CECOLOR
 62
   256
  9
$CELTSCALE
 40
1.0
  9
$DISPSILH
 70
     0
  9
$DIMSCALE
 40
1.0
  9
$DIMASZ
 40
3.302
  9
$DIMEXO
 40
1.0
  9
$DIMDLI
 40
3.75
  9
$DIMRND
 40
0.0
  9
$DIMDLE
 40
0.0
  9
$DIMEXE
 40
1.0
  9
$DIMTP
 40
0.0
  9
$DIMTM
 40
0.0
  9
$DIMTXT
 40
3.5
  9
$DIMCEN
 40
2.5
  9
$DIMTSZ
 40
0.0
  9
$DIMTOL
 70
     0
  9
$DIMLIM
 70
     0
  9
$DIMTIH
 70
     1
  9
$DIMTOH
 70
     1
  9
$DIMSE1
 70
     0
  9
$DIMSE2
 70
     0
  9
$DIMTAD
 70
     1
  9
$DIMZIN
 70
     0
  9
$DIMBLK
  1

  9
$DIMASO
 70
     1
  9
$DIMSHO
 70
     1
  9
$DIMPOST
  1

  9
$DIMAPOST
  1

  9
$DIMALT
 70
     0
  9
$DIMALTD
 70
     3
  9
$DIMALTF
 40
0.0393700787401575
  9
$DIMLFAC
 40
1.0
  9
$DIMTOFL
 70
     1
  9
$DIMTVP
 40
0.0
  9
$DIMTIX
 70
     0
  9
$DIMSOXD
 70
     0
  9
$DIMSAH
 70
     0
  9
$DIMBLK1
  1

  9
$DIMBLK2
  1

  9
$DIMSTYLE
  2
ISO-25
  9
$DIMCLRD
 70
     0
  9
$DIMCLRE
 70
     0
  9
$DIMCLRT
 70
     0
  9
$DIMTFAC
 40
1.0
  9
$DIMGAP
 40
1.524
  9
$DIMJUST
 70
     0
  9
$DIMSD1
 70
     0
  9
$DIMSD2
 70
     0
  9
$DIMTOLJ
 70
     0
  9
$DIMTZIN
 70
     0
  9
$DIMALTZ
 70
     0
  9
$DIMALTTZ
 70
     0
  9
$DIMUPT
 70
     0
  9
$DIMDEC
 70
     2
  9
$DIMTDEC
 70
     2
  9
$DIMALTU
 70
     2
  9
$DIMALTTD
 70
     3
  9
$DIMTXSTY
  7
Standard
  9
$DIMAUNIT
 70
     0
  9
$DIMADEC
 70
     2
  9
$DIMALTRND
 40
0.0
  9
$DIMAZIN
 70
     0
  9
$DIMDSEP
 70
    44
  9
$DIMATFIT
 70
     3
  9
$DIMFRAC
 70
     0
  9
$DIMLDRBLK
  1

  9
$DIMLUNIT
 70
     2
  9
$DIMLWD
 70
    -2
  9
$DIMLWE
 70
    -2
  9
$DIMTMOVE
 70
     0
  9
$LUNITS
 70
     2
  9
$LUPREC
 70
     2
  9
$SKETCHINC
 40
1.0
  9
$FILLETRAD
 40
10.0
  9
$AUNITS
 70
     0
  9
$AUPREC
 70
     2
  9
$MENU
  1
.
  9
$ELEVATION
 40
0.0
  9
$PELEVATION
 40
0.0
  9
$THICKNESS
 40
0.0
  9
$LIMCHECK
 70
     0
  9
$CHAMFERA
 40
0.0
  9
$CHAMFERB
 40
0.0
  9
$CHAMFERC
 40
0.0
  9
$CHAMFERD
 40
0.0
  9
$SKPOLY
 70
     0
  9
$TDCREATE
 40
2458262.534971748
  9
$TDUCREATE
 40
2458262.159971748
  9
$TDUPDATE
 40
2458264.772399664
  9
$TDUUPDATE
 40
2458264.397399664
  9
$TDINDWG
 40
0.001772338
  9
$TDUSRTIMER
 40
2458264.397161574
  9
$USRTIMER
 70
     1
  9
$ANGBASE
 50
0.0
  9
$ANGDIR
 70
     0
  9
$PDMODE
 70
     0
  9
$PDSIZE
 40
-1.0
  9
$PLINEWID
 40
0.0
  9
$SPLFRAME
 70
     0
  9
$SPLINETYPE
 70
     6
  9
$SPLINESEGS
 70
     8
  9
$HANDSEED
  5
191
  9
$SURFTAB1
 70
     6
  9
$SURFTAB2
 70
     6
  9
$SURFTYPE
 70
     6
  9
$SURFU
 70
     6
  9
$SURFV
 70
     6
  9
$UCSBASE
  2

  9
$UCSNAME
  2

  9
$UCSORG
 10
0.0
 20
0.0
 30
0.0
  9
$UCSXDIR
 10
1.0
 20
0.0
 30
0.0
  9
$UCSYDIR
 10
0.0
 20
1.0
 30
0.0
  9
$UCSORTHOREF
  2

  9
$UCSORTHOVIEW
 70
     0
  9
$UCSORGTOP
 10
0.0
 20
0.0
 30
0.0
  9
$UCSORGBOTTOM
 10
0.0
 20
0.0
 30
0.0
  9
$UCSORGLEFT
 10
0.0
 20
0.0
 30
0.0
  9
$UCSORGRIGHT
 10
0.0
 20
0.0
 30
0.0
  9
$UCSORGFRONT
 10
0.0
 20
0.0
 30
0.0
  9
$UCSORGBACK
 10
0.0
 20
0.0
 30
0.0
  9
$PUCSBASE
  2

  9
$PUCSNAME
  2

  9
$PUCSORG
 10
0.0
 20
0.0
 30
0.0
  9
$PUCSXDIR
 10
1.0
 20
0.0
 30
0.0
  9
$PUCSYDIR
 10
0.0
 20
1.0
 30
0.0
  9
$PUCSORTHOREF
  2

  9
$PUCSORTHOVIEW
 70
     0
  9
$PUCSORGTOP
 10
0.0
 20
0.0
 30
0.0
  9
$PUCSORGBOTTOM
 10
0.0
 20
0.0
 30
0.0
  9
$PUCSORGLEFT
 10
0.0
 20
0.0
 30
0.0
  9
$PUCSORGRIGHT
 10
0.0
 20
0.0
 30
0.0
  9
$PUCSORGFRONT
 10
0.0
 20
0.0
 30
0.0
  9
$PUCSORGBACK
 10
0.0
 20
0.0
 30
0.0
  9
$USERI1
 70
     0
  9
$USERI2
 70
     0
  9
$USERI3
 70
     0
  9
$USERI4
 70
     0
  9
$USERI5
 70
     0
  9
$USERR1
 40
0.0
  9
$USERR2
 40
0.0
  9
$USERR3
 40
0.0
  9
$USERR4
 40
0.0
  9
$USERR5
 40
0.0
  9
$WORLDVIEW
 70
     1
  9
$SHADEDGE
 70
     3
  9
$SHADEDIF
 70
    70
  9
$TILEMODE
 70
     1
  9
$MAXACTVP
 70
    64
  9
$PINSBASE
 10
0.0
 20
0.0
 30
0.0
  9
$PLIMCHECK
 70
     0
  9
$PEXTMIN
 10
1.000000000000000E+20
 20
1.000000000000000E+20
 30
1.000000000000000E+20
  9
$PEXTMAX
 10
-1.000000000000000E+20
 20
-1.000000000000000E+20
 30
-1.000000000000000E+20
  9
$PLIMMIN
 10
0.0
 20
0.0
  9
$PLIMMAX
 10
0.0
 20
0.0
  9
$UNITMODE
 70
     0
  9
$VISRETAIN
 70
     1
  9
$PLINEGEN
 70
     0
  9
$PSLTSCALE
 70
     1
  9
$TREEDEPTH
 70
  3020
  9
$CMLSTYLE
  2
Standard
  9
$CMLJUST
 70
     0
  9
$CMLSCALE
 40
20.0
  9
$PROXYGRAPHICS
 70
     1
  9
$MEASUREMENT
 70
     1
  9
$CELWEIGHT
370
    -1
  9
$ENDCAPS
280
     0
  9
$JOINSTYLE
280
     0
  9
$LWDISPLAY
290
     1
  9
$INSUNITS
 70
     4
  9
$HYPERLINKBASE
  1

  9
$STYLESHEET
  1

  9
$XEDIT
290
     1
  9
$CEPSNTYPE
380
     0
  9
$PSTYLEMODE
290
     1
  9
$FINGERPRINTGUID
  2
{460AA2C6-57A8-4C7A-A48D-626B1AA00F87}
  9
$VERSIONGUID
  2
{FAEB1C32-E019-11D5-929B-00C0DF256EC4}
  9
$EXTNAMES
290
     1
  9
$PSVPSCALE
 40
0.0
  9
$OLESTARTUP
290
     0
  0
ENDSEC
  0
SECTION
  2
CLASSES
  0
CLASS
  1
ACDBDICTIONARYWDFLT
  2
AcDbDictionaryWithDefault
  3
ObjectDBX Classes
 90
        0
280
     0
281
     0
  0
CLASS
  1
VISUALSTYLE
  2
AcDbVisualStyle
  3
ObjectDBX Classes
 90
     4095
280
     0
281
     0
  0
CLASS
  1
MATERIAL
  2
AcDbMaterial
  3
ObjectDBX Classes
 90
     1153
280
     0
281
     0
  0
CLASS
  1
SCALE
  2
AcDbScale
  3
ObjectDBX Classes
 90
     1153
280
     0
281
     0
  0
CLASS
  1
SUN
  2
AcDbSun
  3
SCENEOE
 90
     1153
280
     0
281
     0
  0
CLASS
  1
ACDBPLACEHOLDER
  2
AcDbPlaceHolder
  3
ObjectDBX Classes
 90
        0
280
     0
281
     0
  0
CLASS
  1
LAYOUT
  2
AcDbLayout
  3
ObjectDBX Classes
 90
        0
280
     0
281
     0
  0
CLASS
  1
TABLESTYLE
  2
AcDbTableStyle
  3
ObjectDBX Classes
 90
     4095
280
     0
281
     0
  0
CLASS
  1
MLEADERSTYLE
  2
AcDbMLeaderStyle
  3
ACDB_MLEADERSTYLE_CLASS
 90
     4095
280
     0
281
     0
  0
CLASS
  1
RASTERVARIABLES
  2
AcDbRasterVariables
  3
ISM
 90
        0
280
     0
281
     0
  0
ENDSEC
  0
SECTION
  2
TABLES
  0
TABLE
  2
VPORT
  5
8
330
0
100
AcDbSymbolTable
 70
     1
  0
VPORT
  5
29
330
8
100
AcDbSymbolTableRecord
100
AcDbViewportTableRecord
  2
*Active
 70
     0
 10
0.0
 20
0.0
 11
1.0
 21
1.0
 12
-3.005702176782549
 22
-10.67866100992259
 13
0.0
 23
0.0
 14
10.0
 24
10.0
 15
10.0
 25
10.0
 16
0.0
 26
0.0
 36
1.0
 17
0.0
 27
0.0
 37
0.0
 40
80.15582575833716
 41
1.268292682926829
 42
50.0
 43
0.0
 44
0.0
 50
0.0
 51
0.0
 71
    16
 72
  2000
 73
     1
 74
     3
 75
     0
 76
     0
 77
     0
 78
     0
281
     0
 65
     1
110
0.0
120
0.0
130
0.0
111
1.0
121
0.0
131
0.0
112
0.0
122
1.0
132
0.0
 79
     0
146
0.0
  0
ENDTAB
  0
TABLE
  2
LTYPE
  5
5
330
0
100
AcDbSymbolTable
 70
     6
  0
LTYPE
  5
14
330
5
100
AcDbSymbolTableRecord
100
AcDbLinetypeTableRecord
  2
ByBlock
 70
     0
  3

 72
    65
 73
     0
 40
0.0
  0
LTYPE
  5
15
330
5
100
AcDbSymbolTableRecord
100
AcDbLinetypeTableRecord
  2
ByLayer
 70
     0
  3

 72
    65
 73
     0
 40
0.0
  0
LTYPE
  5
16
330
5
100
AcDbSymbolTableRecord
100
AcDbLinetypeTableRecord
  2
Continuous
 70
     0
  3
Solid line
 72
    65
 73
     0
 40
0.0
  0
LTYPE
  5
6A
330
5
100
AcDbSymbolTableRecord
100
AcDbLinetypeTableRecord
  2
HIDDEN
 70
     0
  3
Hidden __ __ __ __ __ __ __ __ __ __ __ __ __ __
 72
    65
 73
     2
 40
1.905
 49
1.27
 74
     0
 49
-0.635
 74
     0
  0
LTYPE
  5
6B
330
5
100
AcDbSymbolTableRecord
100
AcDbLinetypeTableRecord
  2
PHANTOM
 70
     0
  3
Phantom ______  __  __  ______  __  __  ______
 72
    65
 73
     6
 40
12.7
 49
6.35
 74
     0
 49
-1.27
 74
     0
 49
1.27
 74
     0
 49
-1.27
 74
     0
 49
1.27
 74
     0
 49
-1.27
 74
     0
  0
LTYPE
  5
6C
330
5
100
AcDbSymbolTableRecord
100
AcDbLinetypeTableRecord
  2
CENTER
 70
     0
  3
Center ____ _ ____ _ ____ _ ____ _ ____ _ ____
 72
    65
 73
     4
 40
10.16
 49
6.35
 74
     0
 49
-1.27
 74
     0
 49
1.27
 74
     0
 49
-1.27
 74
     0
  0
LTYPE
  5
6D
330
5
100
AcDbSymbolTableRecord
100
AcDbLinetypeTableRecord
  2
CENTERX2
 70
     0
  3
Center (2x) ________  __  ________  __  _____
 72
    65
 73
     4
 40
20.32
 49
12.7
 74
     0
 49
-2.54
 74
     0
 49
2.54
 74
     0
 49
-2.54
 74
     0
  0
LTYPE
  5
6E
330
5
100
AcDbSymbolTableRecord
100
AcDbLinetypeTableRecord
  2
DOT2
 70
     0
  3
Dot (.5x) ........................................
 72
    65
 73
     2
 40
0.635
 49
0.0
 74
     0
 49
-0.635
 74
     0
  0
ENDTAB
  0
TABLE
  2
LAYER
  5
2
330
0
100
AcDbSymbolTable
 70
    17
  0
LAYER
  5
10
330
2
100
AcDbSymbolTableRecord
100
AcDbLayerTableRecord
  2
0
 70
     0
 62
     7
  6
Continuous
370
    -3
390
F
  0
LAYER
  5
6F
330
2
100
AcDbSymbolTableRecord
100
AcDbLayerTableRecord
  2
FORMAT
 70
     0
 62
     2
  6
Continuous
370
    -3
390
F
  0
LAYER
  5
70
330
2
100
AcDbSymbolTableRecord
100
AcDbLayerTableRecord
  2
외형선
 70
     0
 62
   100
  6
Continuous
370
    30
390
F
  0
LAYER
  5
71
330
2
100
AcDbSymbolTableRecord
100
AcDbLayerTableRecord
  2
숨은선
 70
     0
 62
     2
  6
HIDDEN
370
    15
390
F
  0
LAYER
  5
72
330
2
100
AcDbSymbolTableRecord
100
AcDbLayerTableRecord
  2
중심선
 70
     0
 62
     1
  6
CENTERX2
370
    -3
390
F
  0
LAYER
  5
73
330
2
100
AcDbSymbolTableRecord
100
AcDbLayerTableRecord
  2
파단선
 70
     0
 62
     4
  6
Continuous
370
    -3
390
F
  0
LAYER
  5
74
330
2
100
AcDbSymbolTableRecord
100
AcDbLayerTableRecord
  2
해칭선
 70
     0
 62
     4
  6
Continuous
370
    -3
390
F
  0
LAYER
  5
75
330
2
100
AcDbSymbolTableRecord
100
AcDbLayerTableRecord
  2
가는실선
 70
     0
 62
     4
  6
Continuous
370
    -3
390
F
  0
LAYER
  5
76
330
2
100
AcDbSymbolTableRecord
100
AcDbLayerTableRecord
  2
치수_보조선
 70
     0
 62
     4
  6
Continuous
370
    -3
390
F
  0
LAYER
  5
77
330
2
100
AcDbSymbolTableRecord
100
AcDbLayerTableRecord
  2
치수문자_일반주서
 70
     0
 62
     7
  6
Continuous
370
    15
390
F
  0
LAYER
  5
78
330
2
100
AcDbSymbolTableRecord
100
AcDbLayerTableRecord
  2
개별주서
 70
     0
 62
   100
  6
Continuous
370
    30
390
F
  0
LAYER
  5
79
330
2
100
AcDbSymbolTableRecord
100
AcDbLayerTableRecord
  2
중간선
 70
     0
 62
     2
  6
Continuous
370
    15
390
F
  0
LAYER
  5
7A
330
2
100
AcDbSymbolTableRecord
100
AcDbLayerTableRecord
  2
윤곽선
 70
     0
 62
     3
  6
Continuous
370
    40
390
F
  0
LAYER
  5
7B
330
2
100
AcDbSymbolTableRecord
100
AcDbLayerTableRecord
  2
중심마크
 70
     0
 62
   100
  6
Continuous
370
    30
390
F
  0
LAYER
  5
7C
330
2
100
AcDbSymbolTableRecord
100
AcDbLayerTableRecord
  2
가상선
 70
     0
 62
     4
  6
PHANTOM
370
    -3
390
F
  0
LAYER
  5
7D
330
2
100
AcDbSymbolTableRecord
100
AcDbLayerTableRecord
  2
특수지정선
 70
     0
 62
     5
  6
CENTERX2
370
    60
390
F
  0
LAYER
  5
162
330
2
100
AcDbSymbolTableRecord
100
AcDbLayerTableRecord
  2
Defpoints
 70
     0
 62
     7
  6
Continuous
290
     0
370
    -3
390
F
  0
ENDTAB
  0
TABLE
  2
STYLE
  5
3
330
0
100
AcDbSymbolTable
 70
     2
  0
STYLE
  5
11
330
3
100
AcDbSymbolTableRecord
100
AcDbTextStyleTableRecord
  2
Standard
 70
     0
 40
0.0
 41
1.0
 50
0.0
 71
     0
 42
3.5
  3
txt
  4

  0
STYLE
  5
93
330
3
100
AcDbSymbolTableRecord
100
AcDbTextStyleTableRecord
  2
SLDTEXTSTYLE0
 70
     0
 40
0.0
 41
0.75
 50
0.0
 71
     0
 42
3.5
  3
TXT
  4

  0
ENDTAB
  0
TABLE
  2
VIEW
  5
6
330
0
100
AcDbSymbolTable
 70
     0
  0
ENDTAB
  0
TABLE
  2
UCS
  5
7
330
0
100
AcDbSymbolTable
 70
     0
  0
ENDTAB
  0
TABLE
  2
APPID
  5
9
330
0
100
AcDbSymbolTable
 70
     1
  0
APPID
  5
12
330
9
100
AcDbSymbolTableRecord
100
AcDbRegAppTableRecord
  2
ACAD
 70
     0
  0
ENDTAB
  0
TABLE
  2
DIMSTYLE
  5
A
330
0
100
AcDbSymbolTable
 70
     4
100
AcDbDimStyleTable
  0
DIMSTYLE
105
27
330
A
100
AcDbSymbolTableRecord
100
AcDbDimStyleTableRecord
  2
ISO-25
 70
     0
 41
2.5
 42
0.625
 43
3.75
 44
1.25
 73
     0
 74
     0
 77
     1
 78
     8
140
2.5
141
2.5
143
0.03937007874016
147
0.625
171
     3
172
     1
178
     0
271
     2
272
     2
274
     3
278
    44
283
     0
284
     8
340
11
  0
DIMSTYLE
105
105
102
{ACAD_REACTORS
330
104
102
}
330
A
100
AcDbSymbolTableRecord
100
AcDbDimStyleTableRecord
  2
SLDDIMSTYLE0
 70
     0
 41
3.302
 44
0.0
 45
0.000000001
 73
     0
 74
     0
 77
     1
 78
     4
 79
     1
140
3.5
147
0.875
172
     1
173
     1
178
     0
271
     2
272
     2
276
     2
284
    12
289
     0
340
93
  0
DIMSTYLE
105
113
102
{ACAD_REACTORS
330
112
102
}
330
A
100
AcDbSymbolTableRecord
100
AcDbDimStyleTableRecord
  2
SLDDIMSTYLE1
 70
     0
 41
3.302
 44
0.0
 45
0.000000001
 73
     0
 74
     0
 77
     1
 78
    12
 79
     3
140
3.5
147
0.875
173
     1
178
     0
271
     2
272
     2
276
     2
284
    12
340
93
  0
DIMSTYLE
105
11E
102
{ACAD_REACTORS
330
11D
330
12A
102
}
330
A
100
AcDbSymbolTableRecord
100
AcDbDimStyleTableRecord
  2
SLDDIMSTYLE2
 70
     0
 41
3.302
 44
0.0
 45
0.000000001
 73
     0
 74
     0
 77
     1
 78
    12
 79
     3
140
3.5
147
0.875
172
     1
173
     1
178
     0
271
     2
272
     2
276
     2
284
    12
289
     0
340
93
  0
ENDTAB
  0
TABLE
  2
BLOCK_RECORD
  5
1
330
0
100
AcDbSymbolTable
 70
     7
  0
BLOCK_RECORD
  5
1F
330
1
100
AcDbSymbolTableRecord
100
AcDbBlockTableRecord
  2
*Model_Space
340
22
  0
BLOCK_RECORD
  5
1B
330
1
100
AcDbSymbolTableRecord
100
AcDbBlockTableRecord
  2
*Paper_Space
340
1E
  0
BLOCK_RECORD
  5
23
330
1
100
AcDbSymbolTableRecord
100
AcDbBlockTableRecord
  2
*Paper_Space0
340
26
  0
BLOCK_RECORD
  5
7E
330
1
100
AcDbSymbolTableRecord
100
AcDbBlockTableRecord
  2
블럭10
340
0
102
{BLKREFS
331
FD
102
}
  0
BLOCK_RECORD
  5
106
330
1
100
AcDbSymbolTableRecord
100
AcDbBlockTableRecord
  2
_D
340
0
  0
BLOCK_RECORD
  5
114
330
1
100
AcDbSymbolTableRecord
100
AcDbBlockTableRecord
  2
_D_1
340
0
  0
BLOCK_RECORD
  5
11F
330
1
100
AcDbSymbolTableRecord
100
AcDbBlockTableRecord
  2
_D_2
340
0
  0
BLOCK_RECORD
  5
12B
330
1
100
AcDbSymbolTableRecord
100
AcDbBlockTableRecord
  2
_D_3
340
0
  0
BLOCK_RECORD
  5
137
330
1
100
AcDbSymbolTableRecord
100
AcDbBlockTableRecord
  2
SW_DOWELSYMBOL_0
340
0
102
{BLKREFS
331
13D
102
}
  0
ENDTAB
  0
ENDSEC
  0
SECTION
  2
BLOCKS
  0
BLOCK
  5
20
330
1F
100
AcDbEntity
  8
0
100
AcDbBlockBegin
  2
*Model_Space
 70
     0
 10
0.0
 20
0.0
 30
0.0
  3
*Model_Space
  1

  0
ENDBLK
  5
21
330
1F
100
AcDbEntity
  8
0
100
AcDbBlockEnd
  0
BLOCK
  5
1C
330
1B
100
AcDbEntity
 67
     1
  8
0
100
AcDbBlockBegin
  2
*Paper_Space
 70
     0
 10
0.0
 20
0.0
 30
0.0
  3
*Paper_Space
  1

  0
ENDBLK
  5
1D
330
1B
100
AcDbEntity
 67
     1
  8
0
100
AcDbBlockEnd
  0
BLOCK
  5
24
330
23
100
AcDbEntity
  8
0
100
AcDbBlockBegin
  2
*Paper_Space0
 70
     0
 10
0.0
 20
0.0
 30
0.0
  3
*Paper_Space0
  1

  0
ENDBLK
  5
25
330
23
100
AcDbEntity
  8
0
100
AcDbBlockEnd
  0
BLOCK
  5
7F
330
7E
100
AcDbEntity
  8
0
100
AcDbBlockBegin
  2
블럭10
 70
     2
 10
0.0
 20
0.0
 30
0.0
  3
블럭10
  1

  0
ELLIPSE
  5
81
330
7E
100
AcDbEntity
  8
중심선
100
AcDbEllipse
 10
20.54032771741204
 20
12.0471743016438
 30
0.0
 11
6.600054785286829
 21
-1.261213355974178E-13
 31
0.0
210
0.0
220
0.0
230
1.0
 40
0.636358354079598
 41
0.9219305317359503
 42
6.513795318482858
  0
ELLIPSE
  5
82
330
7E
100
AcDbEntity
  8
중심선
100
AcDbEllipse
 10
20.54032771746488
 20
12.04717430159265
 30
0.0
 11
3.960054785062283
 21
1.540847449632565E-10
 31
0.0
210
0.0
220
0.0
230
1.0
 40
0.3939339440162632
 41
1.131841032648279
 42
5.62031148352944
  0
LINE
  5
83
330
7E
100
AcDbEntity
  8
중심선
100
AcDbLine
 10
2.268634060543552
 20
16.24717430164393
 30
0.0
 11
5.714909304380834
 21
16.24717430164393
 31
0.0
  0
LINE
  5
84
330
7E
100
AcDbEntity
  8
중심선
100
AcDbLine
 10
5.245725140726316
 20
7.84717430164391
 30
0.0
 11
8.692000384563599
 21
7.84717430164391
 31
0.0
  0
LINE
  5
85
330
7E
100
AcDbEntity
  8
중심선
100
AcDbLine
 10
15.74043728645272
 20
16.24717430164393
 30
0.0
 11
8.692000384563599
 21
7.84717430164391
 31
0.0
  0
LINE
  5
86
330
7E
100
AcDbEntity
  8
중심선
100
AcDbLine
 10
0.1404042013395286
 20
13.71084872107135
 30
0.0
 11
3.58671253028996
 21
13.71088815037384
 31
0.0
  0
LINE
  5
87
330
7E
100
AcDbEntity
  8
중심선
100
AcDbLine
 10
2.750260043222114
 20
10.84717430164391
 30
0.0
 11
6.196535287059397
 21
10.84717430164391
 31
0.0
  0
LINE
  5
88
330
7E
100
AcDbEntity
  8
중심선
100
AcDbLine
 10
12.29416204261559
 20
16.24717430164393
 30
0.0
 11
5.245725140726316
 21
7.84717430164391
 31
0.0
  0
LINE
  5
89
330
7E
100
AcDbEntity
  8
중심선
100
AcDbLine
 10
10.72767329541681
 20
16.24717430164393
 30
0.0
 11
6.196535287059397
 21
10.84717430164391
 31
0.0
  0
LINE
  5
8A
330
7E
100
AcDbEntity
  8
중심선
100
AcDbLine
 10
7.28139805157953
 20
16.24717430164393
 30
0.0
 11
2.750260043222114
 21
10.84717430164391
 31
0.0
  0
LINE
  5
8B
330
7E
100
AcDbEntity
  8
중심선
100
AcDbLine
 10
5.714909304380834
 20
16.24717430164393
 30
0.0
 11
3.58671253028996
 21
13.71088815037384
 31
0.0
  0
LINE
  5
8C
330
7E
100
AcDbEntity
  8
중심선
100
AcDbLine
 10
2.268634060543552
 20
16.24717430164393
 30
0.0
 11
0.1404042013395286
 21
13.71084872107135
 31
0.0
  0
LINE
  5
8D
330
7E
100
AcDbEntity
  8
중심선
100
AcDbLine
 10
7.28139805157953
 20
16.24717430164393
 30
0.0
 11
10.72767329541681
 21
16.24717430164393
 31
0.0
  0
LINE
  5
8E
330
7E
100
AcDbEntity
  8
중심선
100
AcDbLine
 10
12.29416204261559
 20
16.24717430164393
 30
0.0
 11
15.74043728645272
 21
16.24717430164393
 31
0.0
  0
LINE
  5
8F
330
7E
100
AcDbEntity
  8
중심선
100
AcDbLine
 10
19.22036997980202
 20
11.08717430171403
 30
0.0
 11
23.66174974927406
 21
11.08717430171406
 31
0.0
  0
LINE
  5
90
330
7E
100
AcDbEntity
  8
중심선
100
AcDbLine
 10
19.22039502424796
 20
13.00717430171391
 30
0.0
 11
19.22036997980202
 21
11.08717430171403
 31
0.0
  0
LINE
  5
91
330
7E
100
AcDbEntity
  8
중심선
100
AcDbLine
 10
19.22039502424796
 20
13.00717430171391
 30
0.0
 11
26.96566020931264
 21
13.00717430171391
 31
0.0
  0
LINE
  5
92
330
7E
100
AcDbEntity
  8
중심선
100
AcDbLine
 10
22.22332737316547
 20
13.45928029700563
 30
0.0
 11
24.52862924686651
 21
15.39360700705356
 31
0.0
  0
ATTDEF
  5
94
330
7E
100
AcDbEntity
  8
FORMAT
 62
     2
100
AcDbText
 10
-16.11926103943555
 20
2.075366912832191
 30
0.0
 40
4.233333333333333
  1
SEME7001516E [ 2 FLUTE ]
 41
0.75
  7
SLDTEXTSTYLE0
 11
-16.11926103943555
 21
-0.0412997538344756
 31
0.0
100
AcDbAttributeDefinition
  3

  2
AUTOATTR0
 70
     0
 74
     1
  0
ENDBLK
  5
80
330
7E
100
AcDbEntity
  8
0
100
AcDbBlockEnd
  0
BLOCK
  5
107
330
106
100
AcDbEntity
  8
0
100
AcDbBlockBegin
  2
_D
 70
     0
 10
0.0
 20
0.0
 30
0.0
  3
_D
  1

  0
LINE
  5
109
330
106
100
AcDbEntity
  8
치수문자_일반주서
 62
     0
370
    -2
100
AcDbLine
 10
27.45961431702995
 20
-0.7493661114222352
 30
0.0
 11
37.02824671861283
 21
-0.7493661114221997
 31
0.0
  0
LINE
  5
10A
330
106
100
AcDbEntity
  8
치수문자_일반주서
 62
     0
370
    -2
100
AcDbLine
 10
27.45961431702986
 20
0.7493661114222336
 30
0.0
 11
37.02824671861282
 21
0.7493661114222689
 31
0.0
  0
LINE
  5
10B
330
106
100
AcDbEntity
  8
치수문자_일반주서
 62
     0
370
    -2
100
AcDbLine
 10
37.02824671861283
 20
-0.7493661114221997
 30
0.0
 11
37.02824671861273
 21
18.29086611142227
 31
0.0
  0
LINE
  5
10C
330
106
100
AcDbEntity
  8
치수문자_일반주서
 62
     0
370
    -2
100
AcDbLine
 10
37.02824671861283
 20
-0.7493661114221997
 30
0.0
 11
37.02824671861282
 21
0.7493661114222689
 31
0.0
  0
LINE
  5
10D
330
106
100
AcDbEntity
  8
치수문자_일반주서
 62
     0
370
    -2
100
AcDbLine
 10
37.02824671861284
 20
-4.051366111422199
 30
0.0
 11
37.02824671861286
 21
-7.353366111422199
 31
0.0
  0
LINE
  5
10E
330
106
100
AcDbEntity
  8
치수문자_일반주서
 62
     0
370
    -2
100
AcDbLine
 10
37.02824671861281
 20
4.051366111422269
 30
0.0
 11
37.02824671861279
 21
7.353366111422268
 31
0.0
  0
SOLID
  5
10F
330
106
100
AcDbEntity
  8
치수문자_일반주서
 62
     0
100
AcDbTrace
 10
37.57858005194618
 20
-4.051366111422197
 30
0.0
 11
36.47791338527951
 21
-4.051366111422202
 31
0.0
 12
37.02824671861283
 22
-0.7493661114221997
 32
0.0
 13
37.02824671861283
 23
-0.7493661114221997
 33
0.0
  0
SOLID
  5
110
330
106
100
AcDbEntity
  8
치수문자_일반주서
 62
     0
100
AcDbTrace
 10
36.47791338527947
 20
4.051366111422266
 30
0.0
 11
37.57858005194614
 21
4.051366111422271
 31
0.0
 12
37.02824671861282
 22
0.7493661114222689
 32
0.0
 13
37.02824671861282
 23
0.7493661114222689
 33
0.0
  0
MTEXT
  5
111
330
106
100
AcDbEntity
  8
치수문자_일반주서
 62
     0
100
AcDbMText
 10
32.65324671861276
 20
12.82211611142225
 30
0.0
 40
3.5
 41
0.0
 71
     2
 72
     1
  1
\A1;%%c1.50
  7
SLDTEXTSTYLE0
 11
-4.740958557703852E-15
 21
1.0
 31
0.0
 73
     1
 44
1.0
  0
POINT
  5
16A
330
106
100
AcDbEntity
  8
Defpoints
 62
     0
100
AcDbPoint
 10
27.39711431702995
 20
-0.7493661114222354
 30
0.0
  0
POINT
  5
16B
330
106
100
AcDbEntity
  8
Defpoints
 62
     0
100
AcDbPoint
 10
27.39711431702986
 20
0.7493661114222334
 30
0.0
  0
POINT
  5
16C
330
106
100
AcDbEntity
  8
Defpoints
 62
     0
100
AcDbPoint
 10
37.02824671861282
 20
0.7493661114222694
 30
0.0
  0
ENDBLK
  5
108
330
106
100
AcDbEntity
  8
0
100
AcDbBlockEnd
  0
BLOCK
  5
115
330
114
100
AcDbEntity
  8
0
100
AcDbBlockBegin
  2
_D_1
 70
     0
 10
0.0
 20
0.0
 30
0.0
  3
_D_1
  1

  0
LINE
  5
117
330
114
100
AcDbEntity
  8
치수문자_일반주서
 62
     0
370
    -2
100
AcDbLine
 10
-32.60288568297005
 20
2.512499999999995
 30
0.0
 11
-32.60288568297005
 21
24.23841044024269
 31
0.0
  0
LINE
  5
118
330
114
100
AcDbEntity
  8
치수문자_일반주서
 62
     0
370
    -2
100
AcDbLine
 10
27.39711431702995
 20
0.8118661114222377
 30
0.0
 11
27.39711431702995
 21
24.23841044024269
 31
0.0
  0
LINE
  5
119
330
114
100
AcDbEntity
  8
치수문자_일반주서
 62
     0
370
    -2
100
AcDbLine
 10
-29.30088568297005
 20
24.23841044024269
 30
0.0
 11
24.09511431702995
 21
24.23841044024269
 31
0.0
  0
SOLID
  5
11A
330
114
100
AcDbEntity
  8
치수문자_일반주서
 62
     0
100
AcDbTrace
 10
-29.30088568297005
 20
24.78874377357602
 30
0.0
 11
-29.30088568297005
 21
23.68807710690935
 31
0.0
 12
-32.60288568297005
 22
24.23841044024269
 32
0.0
 13
-32.60288568297005
 23
24.23841044024269
 33
0.0
  0
SOLID
  5
11B
330
114
100
AcDbEntity
  8
치수문자_일반주서
 62
     0
100
AcDbTrace
 10
24.09511431702995
 20
23.68807710690935
 30
0.0
 11
24.09511431702995
 21
24.78874377357602
 31
0.0
 12
27.39711431702995
 22
24.23841044024269
 32
0.0
 13
27.39711431702995
 23
24.23841044024269
 33
0.0
  0
MTEXT
  5
11C
330
114
100
AcDbEntity
  8
치수문자_일반주서
 62
     0
100
AcDbMText
 10
-2.602885682970044
 20
28.61341044024269
 30
0.0
 40
3.5
 41
0.0
 71
     2
 72
     1
  1
\A1;60
  7
SLDTEXTSTYLE0
 73
     1
 44
1.0
  0
POINT
  5
164
330
114
100
AcDbEntity
  8
Defpoints
 62
     0
100
AcDbPoint
 10
-32.60288568297005
 20
2.449999999999995
 30
0.0
  0
POINT
  5
165
330
114
100
AcDbEntity
  8
Defpoints
 62
     0
100
AcDbPoint
 10
27.39711431702995
 20
0.7493661114222377
 30
0.0
  0
POINT
  5
166
330
114
100
AcDbEntity
  8
Defpoints
 62
     0
100
AcDbPoint
 10
27.39711431702995
 20
24.23841044024269
 30
0.0
  0
ENDBLK
  5
116
330
114
100
AcDbEntity
  8
0
100
AcDbBlockEnd
  0
BLOCK
  5
120
330
11F
100
AcDbEntity
  8
0
100
AcDbBlockBegin
  2
_D_2
 70
     0
 10
0.0
 20
0.0
 30
0.0
  3
_D_2
  1

  0
LINE
  5
122
330
11F
100
AcDbEntity
  8
치수문자_일반주서
 62
     0
370
    -2
100
AcDbLine
 10
11.39711431702995
 20
0.8125000000000002
 30
0.0
 11
11.39711431702995
 21
14.09699780616752
 31
0.0
  0
LINE
  5
123
330
11F
100
AcDbEntity
  8
치수문자_일반주서
 62
     0
370
    -2
100
AcDbLine
 10
27.39711431702986
 20
0.8118661114222335
 30
0.0
 11
27.39711431702986
 21
14.09699780616752
 31
0.0
  0
LINE
  5
124
330
11F
100
AcDbEntity
  8
치수문자_일반주서
 62
     0
370
    -2
100
AcDbLine
 10
14.69911431702995
 20
14.09699780616752
 30
0.0
 11
24.09511431702986
 21
14.09699780616752
 31
0.0
  0
SOLID
  5
125
330
11F
100
AcDbEntity
  8
치수문자_일반주서
 62
     0
100
AcDbTrace
 10
14.69911431702995
 20
14.64733113950085
 30
0.0
 11
14.69911431702995
 21
13.54666447283419
 31
0.0
 12
11.39711431702995
 22
14.09699780616752
 32
0.0
 13
11.39711431702995
 23
14.09699780616752
 33
0.0
  0
SOLID
  5
126
330
11F
100
AcDbEntity
  8
치수문자_일반주서
 62
     0
100
AcDbTrace
 10
24.09511431702986
 20
13.54666447283419
 30
0.0
 11
24.09511431702986
 21
14.64733113950085
 31
0.0
 12
27.39711431702986
 22
14.09699780616752
 32
0.0
 13
27.39711431702986
 23
14.09699780616752
 33
0.0
  0
MTEXT
  5
127
330
11F
100
AcDbEntity
  8
치수문자_일반주서
 62
     0
100
AcDbMText
 10
19.39711431702995
 20
18.47199780616752
 30
0.0
 40
3.5
 41
0.0
 71
     2
 72
     1
  1
\A1;16
  7
SLDTEXTSTYLE0
 73
     1
 44
1.0
  0
POINT
  5
128
330
11F
100
AcDbEntity
  8
Defpoints
 62
     0
100
AcDbPoint
 10
11.39711431702995
 20
0.7500000000000002
 30
0.0
  0
POINT
  5
129
330
11F
100
AcDbEntity
  8
Defpoints
 62
     0
100
AcDbPoint
 10
27.39711431702986
 20
0.7493661114222335
 30
0.0
  0
POINT
  5
163
330
11F
100
AcDbEntity
  8
Defpoints
 62
     0
100
AcDbPoint
 10
27.39711431702986
 20
14.09699780616752
 30
0.0
  0
ENDBLK
  5
121
330
11F
100
AcDbEntity
  8
0
100
AcDbBlockEnd
  0
BLOCK
  5
12C
330
12B
100
AcDbEntity
  8
0
100
AcDbBlockBegin
  2
_D_3
 70
     0
 10
0.0
 20
0.0
 30
0.0
  3
_D_3
  1

  0
LINE
  5
12E
330
12B
100
AcDbEntity
  8
치수문자_일반주서
 62
     0
370
    -2
100
AcDbLine
 10
-32.11538568297004
 20
2.999999999999995
 30
0.0
 11
-39.21498440551124
 21
2.99999999999997
 31
0.0
  0
LINE
  5
12F
330
12B
100
AcDbEntity
  8
치수문자_일반주서
 62
     0
370
    -2
100
AcDbLine
 10
-32.11538568297004
 20
-3.000000000000001
 30
0.0
 11
-39.21498440551122
 21
-3.000000000000027
 31
0.0
  0
LINE
  5
130
330
12B
100
AcDbEntity
  8
치수문자_일반주서
 62
     0
370
    -2
100
AcDbLine
 10
-39.21498440551124
 20
2.99999999999997
 30
0.0
 11
-39.21498440551129
 21
15.72899999999997
 31
0.0
  0
LINE
  5
131
330
12B
100
AcDbEntity
  8
치수문자_일반주서
 62
     0
370
    -2
100
AcDbLine
 10
-39.21498440551124
 20
2.99999999999997
 30
0.0
 11
-39.21498440551122
 21
-3.000000000000027
 31
0.0
  0
LINE
  5
132
330
12B
100
AcDbEntity
  8
치수문자_일반주서
 62
     0
370
    -2
100
AcDbLine
 10
-39.21498440551125
 20
6.301999999999969
 30
0.0
 11
-39.21498440551127
 21
9.603999999999969
 31
0.0
  0
LINE
  5
133
330
12B
100
AcDbEntity
  8
치수문자_일반주서
 62
     0
370
    -2
100
AcDbLine
 10
-39.2149844055112
 20
-6.302000000000026
 30
0.0
 11
-39.21498440551119
 21
-9.604000000000026
 31
0.0
  0
SOLID
  5
134
330
12B
100
AcDbEntity
  8
치수문자_일반주서
 62
     0
100
AcDbTrace
 10
-39.76531773884459
 20
6.301999999999968
 30
0.0
 11
-38.66465107217792
 21
6.301999999999971
 31
0.0
 12
-39.21498440551124
 22
2.99999999999997
 32
0.0
 13
-39.21498440551124
 23
2.99999999999997
 33
0.0
  0
SOLID
  5
135
330
12B
100
AcDbEntity
  8
치수문자_일반주서
 62
     0
100
AcDbTrace
 10
-38.66465107217787
 20
-6.302000000000024
 30
0.0
 11
-39.76531773884454
 21
-6.302000000000028
 31
0.0
 12
-39.21498440551122
 22
-3.000000000000027
 32
0.0
 13
-39.21498440551122
 23
-3.000000000000027
 33
0.0
  0
MTEXT
  5
136
330
12B
100
AcDbEntity
  8
치수문자_일반주서
 62
     0
100
AcDbMText
 10
-43.58998440551127
 20
12.66649999999996
 30
0.0
 40
3.5
 41
0.0
 71
     2
 72
     1
  1
\A1;%%c6
  7
SLDTEXTSTYLE0
 11
-3.552713678800503E-15
 21
1.0
 31
0.0
 73
     1
 44
1.0
  0
POINT
  5
167
330
12B
100
AcDbEntity
  8
Defpoints
 62
     0
100
AcDbPoint
 10
-32.05288568297004
 20
2.999999999999996
 30
0.0
  0
POINT
  5
168
330
12B
100
AcDbEntity
  8
Defpoints
 62
     0
100
AcDbPoint
 10
-32.05288568297004
 20
-3.0
 30
0.0
  0
POINT
  5
169
330
12B
100
AcDbEntity
  8
Defpoints
 62
     0
100
AcDbPoint
 10
-39.21498440551122
 20
-3.000000000000027
 30
0.0
  0
ENDBLK
  5
12D
330
12B
100
AcDbEntity
  8
0
100
AcDbBlockEnd
  0
BLOCK
  5
138
330
137
100
AcDbEntity
  8
0
100
AcDbBlockBegin
  2
SW_DOWELSYMBOL_0
 70
     0
 10
0.0
 20
0.0
 30
0.0
  3
SW_DOWELSYMBOL_0
  1

  0
CIRCLE
  5
13A
330
137
100
AcDbEntity
  8
외형선
 62
     0
100
AcDbCircle
 10
0.0
 20
0.0
 30
0.0
 40
3.000000000000004
  0
HATCH
  5
13B
330
137
100
AcDbEntity
  8
0
  6
Continuous
 62
     0
370
    30
100
AcDbHatch
 10
0.0
 20
0.0
 30
0.0
210
0.0
220
0.0
230
1.0
  2
SOLID
 70
     1
 71
     0
 91
        1
 92
        0
 93
        3
 72
     2
 10
0.0000000000000104
 20
0.0
 40
3.000000000000004
 50
0.0
 51
90.0
 73
     1
 72
     1
 10
0.0000000000000104
 20
3.000000000000004
 11
0.0000000000000104
 21
0.0
 72
     1
 10
0.0000000000000104
 20
0.0
 11
3.000000000000015
 21
0.0
 97
        0
 75
     0
 76
     1
 98
        1
 10
0.0
 20
0.0
  0
HATCH
  5
13C
330
137
100
AcDbEntity
  8
0
  6
Continuous
 62
     0
370
    30
100
AcDbHatch
 10
0.0
 20
0.0
 30
0.0
210
0.0
220
0.0
230
1.0
  2
SOLID
 70
     1
 71
     0
 91
        1
 92
        0
 93
        3
 72
     2
 10
0.0000000000000104
 20
0.0
 40
3.000000000000004
 50
180.0
 51
270.0000000000007
 73
     1
 72
     1
 10
0.0000000000000104
 20
-3.000000000000004
 11
0.0000000000000104
 21
0.0
 72
     1
 10
0.0000000000000104
 20
0.0
 11
-2.999999999999994
 21
0.0
 97
        0
 75
     0
 76
     1
 98
        1
 10
0.0
 20
0.0
  0
ENDBLK
  5
139
330
137
100
AcDbEntity
  8
0
100
AcDbBlockEnd
  0
ENDSEC
  0
SECTION
  2
ENTITIES
  0
SPLINE
  5
95
330
1F
100
AcDbEntity
  8
0
  6
Continuous
 62
     1
370
    15
100
AcDbSpline
210
0.0
220
0.0
230
1.0
 70
     8
 71
     3
 72
     9
 73
     5
 74
     0
 42
0.000000001
 43
0.00000001
 40
0.0
 40
0.0
 40
0.0
 40
0.0
 40
0.5000307711892368
 40
1.0
 40
1.0
 40
1.0
 40
1.0
 10
21.37361014010328
 20
0.1922346051453767
 30
0.0
 10
21.33870037149984
 20
0.2087533802136784
 30
0.0
 10
21.26888513088891
 20
0.2417888972659882
 30
0.0
 10
21.19912071994551
 20
0.2780657544297335
 30
0.0
 10
21.1642406612077
 20
0.2962030667295695
 30
0.0
  0
LINE
  5
96
330
1F
100
AcDbEntity
  8
0
  6
Continuous
 62
     1
370
    15
100
AcDbLine
 10
13.02544726428499
 20
0.28427220210794
 30
0.0
 11
13.00177044333959
 21
0.296399999637209
 31
0.0
  0
SPLINE
  5
97
330
1F
100
AcDbEntity
  8
0
  6
Continuous
 62
     1
370
    15
100
AcDbSpline
210
0.0
220
0.0
230
1.0
 70
     8
 71
     3
 72
     9
 73
     5
 74
     0
 42
0.000000001
 43
0.00000001
 40
0.0
 40
0.0
 40
0.0
 40
0.0
 40
0.5634436507831051
 40
0.9999999999999999
 40
0.9999999999999999
 40
0.9999999999999999
 40
0.9999999999999999
 10
13.212138762619
 20
0.1919434153327878
 30
0.0
 10
13.1770613592927
 20
0.2085014750171628
 30
0.0
 10
13.11480597088331
 20
0.2378887254748824
 30
0.0
 10
13.05260255878115
 20
0.2701766873486665
 30
0.0
 10
13.02544726428499
 20
0.28427220210794
 30
0.0
  0
SPLINE
  5
98
330
1F
100
AcDbEntity
  8
0
  6
Continuous
 62
     1
370
    15
100
AcDbSpline
210
0.0
220
0.0
230
1.0
 70
     8
 71
     3
 72
     9
 73
     5
 74
     0
 42
0.000000001
 43
0.00000001
 40
0.0
 40
0.0
 40
0.0
 40
0.0
 40
0.5000123171288702
 40
1.0
 40
1.0
 40
1.0
 40
1.0
 10
25.45524366596503
 20
0.191962405169089
 30
0.0
 10
25.42018245497236
 20
0.2085479542703601
 30
0.0
 10
25.35006176035825
 20
0.2417182353476491
 30
0.0
 10
25.27999887362871
 20
0.2781546960137518
 30
0.0
 10
25.24496829323753
 20
0.2963724775542216
 30
0.0
  0
LINE
  5
99
330
1F
100
AcDbEntity
  8
0
  6
Continuous
 62
     1
370
    15
100
AcDbLine
 10
17.10654790538539
 20
0.2842478420657879
 30
0.0
 11
17.08253477052034
 21
0.2965500264192876
 31
0.0
  0
SPLINE
  5
9A
330
1F
100
AcDbEntity
  8
0
  6
Continuous
 62
     1
370
    15
100
AcDbSpline
210
0.0
220
0.0
230
1.0
 70
     8
 71
     3
 72
     9
 73
     5
 74
     0
 42
0.000000001
 43
0.00000001
 40
0.0
 40
0.0
 40
0.0
 40
0.0
 40
0.5644838059987387
 40
1.0
 40
1.0
 40
1.0
 40
1.0
 10
17.2928572054668
 20
0.1920970421886282
 30
0.0
 10
17.25778691306319
 20
0.2086545558079314
 30
0.0
 10
17.19565883776514
 20
0.2379866880025974
 30
0.0
 10
17.13358295680182
 20
0.2702128337308773
 30
0.0
 10
17.10654790538539
 20
0.2842478420657879
 30
0.0
  0
LINE
  5
9B
330
1F
100
AcDbEntity
  8
0
  6
Continuous
 62
     1
370
    15
100
AcDbLine
 10
23.36951046640708
 20
-0.7500000000000013
 30
0.0
 11
23.73365491929277
 21
-0.7500000000000013
 31
0.0
  0
LINE
  5
9C
330
1F
100
AcDbEntity
  8
0
  6
Continuous
 62
     1
370
    15
100
AcDbLine
 10
15.20720666556085
 20
-0.7500000000000013
 30
0.0
 11
15.56988626841582
 21
-0.7500000000000013
 31
0.0
  0
LINE
  5
9D
330
1F
100
AcDbEntity
  8
0
  6
Continuous
 62
   131
370
    15
100
AcDbLine
 10
11.48947464842646
 20
0.7500000000000018
 30
0.0
 11
11.39711431702995
 21
0.7500000000000018
 31
0.0
  0
LINE
  5
9E
330
1F
100
AcDbEntity
  8
0
  6
Continuous
 62
     1
370
    15
100
AcDbLine
 10
19.65110163107914
 20
0.7500000000000018
 30
0.0
 11
19.28850795780298
 21
0.7500000000000018
 31
0.0
  0
LINE
  5
9F
330
1F
100
AcDbEntity
  8
0
  6
Continuous
 62
     1
370
    15
100
AcDbLine
 10
19.28836169604773
 20
-0.7500000000000013
 30
0.0
 11
19.65110163107915
 21
-0.7500000000000013
 31
0.0
  0
LINE
  5
A0
330
1F
100
AcDbEntity
  8
0
  6
Continuous
 62
   131
370
    15
100
AcDbLine
 10
11.39711431702995
 20
-0.7500000000000013
 30
0.0
 11
11.48947464842646
 21
-0.7500000000000013
 31
0.0
  0
LINE
  5
A1
330
1F
100
AcDbEntity
  8
0
  6
Continuous
 62
     1
370
    15
100
AcDbLine
 10
15.56988626841582
 20
0.7500000000000018
 30
0.0
 11
15.20731604290837
 21
0.7500000000000018
 31
0.0
  0
LINE
  5
A2
330
1F
100
AcDbEntity
  8
0
  6
Continuous
 62
     1
370
    15
100
AcDbLine
 10
23.73365491929276
 20
0.7500000000000018
 30
0.0
 11
23.36935681564171
 21
0.7500000000000018
 31
0.0
  0
SPLINE
  5
A3
330
1F
100
AcDbEntity
  8
0
  6
Continuous
 62
     1
370
    15
100
AcDbSpline
210
0.0
220
0.0
230
1.0
 70
     8
 71
     3
 72
     9
 73
     5
 74
     0
 42
0.000000001
 43
0.00000001
 40
0.0
 40
0.0
 40
0.0
 40
0.0
 40
0.4684042589719769
 40
1.0
 40
1.0
 40
1.0
 40
1.0
 10
11.85608022648582
 20
-0.621831897122707
 30
0.0
 10
12.02813951301848
 20
-0.6077230934946429
 30
0.0
 10
12.39547026041666
 20
-0.5776020957500253
 30
0.0
 10
12.76557933980752
 20
-0.5896107801410074
 30
0.0
 10
12.96232775012751
 20
-0.5959945456186031
 30
0.0
  0
SPLINE
  5
A4
330
1F
100
AcDbEntity
  8
0
  6
Continuous
 62
     1
370
    15
100
AcDbSpline
210
0.0
220
0.0
230
1.0
 70
     8
 71
     3
 72
    10
 73
     6
 74
     0
 42
0.000000001
 43
0.00000001
 40
0.0
 40
0.0
 40
0.0
 40
0.0
 40
0.3998810918130494
 40
0.5542184832529782
 40
1.0
 40
1.0
 40
1.0
 40
1.0
 10
19.99672768713074
 20
-0.62405495987296
 30
0.0
 10
20.14698532848235
 20
-0.6113399640271335
 30
0.0
 10
20.35523614051621
 20
-0.5937175111117147
 30
0.0
 10
20.73042864642177
 20
-0.582549264766872
 30
0.0
 10
20.95594707568636
 20
-0.5902346016153832
 30
0.0
 10
21.12346712226463
 20
-0.5959434387646599
 30
0.0
  0
SPLINE
  5
A5
330
1F
100
AcDbEntity
  8
0
  6
Continuous
 62
     1
370
    15
100
AcDbSpline
210
0.0
220
0.0
230
1.0
 70
     8
 71
     3
 72
     9
 73
     5
 74
     0
 42
0.000000001
 43
0.00000001
 40
0.0
 40
0.0
 40
0.0
 40
0.0
 40
0.8651202633885634
 40
0.9999999999999999
 40
0.9999999999999999
 40
0.9999999999999999
 40
0.9999999999999999
 10
25.20395906231609
 20
0.5959135863919003
 30
0.0
 10
25.0159069671754
 20
0.5869722708787639
 30
0.0
 10
24.79853592282589
 20
0.5766369268907332
 30
0.0
 10
24.58119069573936
 20
0.5916925810793782
 30
0.0
 10
24.55187522875618
 20
0.5937232837508554
 30
0.0
  0
SPLINE
  5
A6
330
1F
100
AcDbEntity
  8
0
  6
Continuous
 62
     1
370
    15
100
AcDbSpline
210
0.0
220
0.0
230
1.0
 70
     8
 71
     3
 72
    10
 73
     6
 74
     0
 42
0.000000001
 43
0.00000001
 40
0.0
 40
0.0
 40
0.0
 40
0.0
 40
0.5759901843123127
 40
0.808608510898222
 40
1.0
 40
1.0
 40
1.0
 40
1.0
 10
17.04304678907042
 20
0.5959769986544505
 30
0.0
 10
16.92386701810673
 20
0.5913010638086987
 30
0.0
 10
16.75655552608331
 20
0.5847367145964038
 30
0.0
 10
16.54973431077719
 20
0.5858769770160781
 30
0.0
 10
16.46204408568078
 20
0.5890594472158422
 30
0.0
 10
16.42246207097281
 20
0.5904959651642935
 30
0.0
  0
SPLINE
  5
A7
330
1F
100
AcDbEntity
  8
0
  6
Continuous
 62
     1
370
    15
100
AcDbSpline
210
0.0
220
0.0
230
1.0
 70
     8
 71
     3
 72
    10
 73
     6
 74
     0
 42
0.000000001
 43
0.00000001
 40
0.0
 40
0.0
 40
0.0
 40
0.0
 40
0.4407054389698855
 40
0.6217518402210527
 40
1.0
 40
1.0
 40
1.0
 40
1.0
 10
15.91535427889116
 20
-0.6240873558202142
 30
0.0
 10
16.08105554685413
 20
-0.6103176274176422
 30
0.0
 10
16.31482862785751
 20
-0.5908911506451865
 30
0.0
 10
16.69055172226532
 20
-0.5830419324770417
 30
0.0
 10
16.90083395184085
 20
-0.5907583938169001
 30
0.0
 10
17.04304678907042
 20
-0.5959769986544493
 30
0.0
  0
SPLINE
  5
A8
330
1F
100
AcDbEntity
  8
0
  6
Continuous
 62
     1
370
    15
100
AcDbSpline
210
0.0
220
0.0
230
1.0
 70
     8
 71
     3
 72
     9
 73
     5
 74
     0
 42
0.000000001
 43
0.00000001
 40
0.0
 40
0.0
 40
0.0
 40
0.0
 40
0.4993304658719499
 40
1.0
 40
1.0
 40
1.0
 40
1.0
 10
24.07723850245231
 20
-0.6241085691433725
 30
0.0
 10
24.26476266051853
 20
-0.6084570500563606
 30
0.0
 10
24.64031386534788
 20
-0.5771120387727396
 30
0.0
 10
25.01590968051562
 20
-0.5896408115582036
 30
0.0
 10
25.20395906231609
 20
-0.5959135863918982
 30
0.0
  0
SPLINE
  5
A9
330
1F
100
AcDbEntity
  8
0
  6
Continuous
 62
     1
370
    15
100
AcDbSpline
210
0.0
220
0.0
230
1.0
 70
     8
 71
     3
 72
    10
 73
     6
 74
     0
 42
0.000000001
 43
0.00000001
 40
0.0
 40
0.0
 40
0.0
 40
0.0
 40
0.5692412788902892
 40
0.7991683459822214
 40
1.0
 40
1.0
 40
1.0
 40
1.0
 10
21.12346712226463
 20
0.5959434387646617
 30
0.0
 10
21.00420967929735
 20
0.5912686286337723
 30
0.0
 10
20.83678195229198
 20
0.5847055763418393
 30
0.0
 10
20.62732924528691
 20
0.5859286889838132
 30
0.0
 10
20.53715739668486
 20
0.5892252208359903
 30
0.0
 10
20.49511678180436
 20
0.5907621553470073
 30
0.0
  0
SPLINE
  5
AA
330
1F
100
AcDbEntity
  8
0
  6
Continuous
 62
     1
370
    15
100
AcDbSpline
210
0.0
220
0.0
230
1.0
 70
     8
 71
     3
 72
     9
 73
     5
 74
     0
 42
0.000000001
 43
0.00000001
 40
0.0
 40
0.0
 40
0.0
 40
0.0
 40
0.8574246004714793
 40
1.0
 40
1.0
 40
1.0
 40
1.0
 10
12.96232775012751
 20
0.595994545618604
 30
0.0
 10
12.78229839197474
 20
0.5872787225699853
 30
0.0
 10
12.5723331564849
 20
0.5771136036267848
 30
0.0
 10
12.363691436612
 20
0.5909019160302613
 30
0.0
 10
12.33394426004281
 20
0.5928677901800108
 30
0.0
  0
SPLINE
  5
AB
330
1F
100
AcDbEntity
  8
0
  6
Continuous
 62
     1
370
    15
100
AcDbSpline
210
0.0
220
0.0
230
1.0
 70
     8
 71
     3
 72
     9
 73
     5
 74
     0
 42
0.000000001
 43
0.00000001
 40
0.0
 40
0.0
 40
0.0
 40
0.0
 40
0.5683081625190043
 40
0.9999999999999999
 40
0.9999999999999999
 40
0.9999999999999999
 40
0.9999999999999999
 10
17.64436738832914
 20
-0.564239175653728
 30
0.0
 10
17.75085104868664
 20
-0.5488414402676652
 30
0.0
 10
17.93822062628609
 20
-0.5217474507711694
 30
0.0
 10
18.12475016198692
 20
-0.5084193752799029
 30
0.0
 10
18.2052734399981
 20
-0.5026657538809925
 30
0.0
  0
SPLINE
  5
AC
330
1F
100
AcDbEntity
  8
0
  6
Continuous
 62
     1
370
    15
100
AcDbSpline
210
0.0
220
0.0
230
1.0
 70
     8
 71
     3
 72
    10
 73
     6
 74
     0
 42
0.000000001
 43
0.00000001
 40
0.0
 40
0.0
 40
0.0
 40
0.0
 40
0.5220512318907612
 40
0.8290079320749812
 40
1.0
 40
1.0
 40
1.0
 40
1.0
 10
25.80650636272159
 20
-0.5642326252472428
 30
0.0
 10
25.90427518831782
 20
-0.5502655643792344
 30
0.0
 10
26.0595303184233
 20
-0.5280861238568606
 30
0.0
 10
26.24542796321238
 20
-0.5103455054710674
 30
0.0
 10
26.33461066645378
 20
-0.5048330912261229
 30
0.0
 10
26.36651687872569
 20
-0.5028609570270303
 30
0.0
  0
SPLINE
  5
AD
330
1F
100
AcDbEntity
  8
0
  6
Continuous
 62
     1
370
    15
100
AcDbSpline
210
0.0
220
0.0
230
1.0
 70
     8
 71
     3
 72
    14
 73
    10
 74
     0
 42
0.000000001
 43
0.00000001
 40
0.0
 40
0.0
 40
0.0
 40
0.0
 40
0.1955981213065386
 40
0.3220950392063341
 40
0.3895013182827401
 40
0.4567858177701156
 40
0.56969975913422
 40
0.7420596508544502
 40
1.0
 40
1.0
 40
1.0
 40
1.0
 10
23.03860348850622
 20
0.5130599177241338
 30
0.0
 10
22.95262573084754
 20
0.5068202073594713
 30
0.0
 10
22.81104456923429
 20
0.4965451610496326
 30
0.0
 10
22.64142995797473
 20
0.4932782362670882
 30
0.0
 10
22.52712757812428
 20
0.4936972794454288
 30
0.0
 10
22.4186668919263
 20
0.4959816788754466
 30
0.0
 10
22.26409803930385
 20
0.5027834298669692
 30
0.0
 10
22.02744284341556
 20
0.5214695433590577
 30
0.0
 10
21.83834498903346
 20
0.5482513939695924
 30
0.0
 10
21.72499165582628
 20
0.5643055794921149
 30
0.0
  0
SPLINE
  5
AE
330
1F
100
AcDbEntity
  8
0
  6
Continuous
 62
     1
370
    15
100
AcDbSpline
210
0.0
220
0.0
230
1.0
 70
     8
 71
     3
 72
     9
 73
     5
 74
     0
 42
0.000000001
 43
0.00000001
 40
0.0
 40
0.0
 40
0.0
 40
0.0
 40
0.501157023349494
 40
1.0
 40
1.0
 40
1.0
 40
1.0
 10
14.87514287734186
 20
0.5129437591798289
 30
0.0
 10
14.65608469543411
 20
0.5011014947071464
 30
0.0
 10
14.21897981272954
 20
0.477471646334406
 30
0.0
 10
13.78207892872297
 20
0.5352760951361204
 30
0.0
 10
13.56413399124391
 20
0.5641114384400093
 30
0.0
  0
LINE
  5
AF
330
1F
100
AcDbEntity
  8
0
  6
Continuous
 62
     1
370
    15
100
AcDbLine
 10
13.5641339912439
 20
-0.5641114384400098
 30
0.0
 11
14.14123413588423
 21
-0.5056485821731319
 31
0.0
  0
SPLINE
  5
B0
330
1F
100
AcDbEntity
  8
0
  6
Continuous
 62
     1
370
    15
100
AcDbSpline
210
0.0
220
0.0
230
1.0
 70
     8
 71
     3
 72
     9
 73
     5
 74
     0
 42
0.000000001
 43
0.00000001
 40
0.0
 40
0.0
 40
0.0
 40
0.0
 40
0.7412866036202121
 40
1.0
 40
1.0
 40
1.0
 40
1.0
 10
21.72499165582628
 20
-0.5643055794921134
 30
0.0
 10
21.86509595697027
 20
-0.5444623134414157
 30
0.0
 10
22.05409748547459
 20
-0.5176936305139362
 30
0.0
 10
22.24223580594584
 20
-0.5056699389151972
 30
0.0
 10
22.29090970982415
 20
-0.5025592488246641
 30
0.0
  0
SPLINE
  5
B1
330
1F
100
AcDbEntity
  8
0
  6
Continuous
 62
     1
370
    15
100
AcDbSpline
210
0.0
220
0.0
230
1.0
 70
     8
 71
     3
 72
    14
 73
    10
 74
     0
 42
0.000000001
 43
0.00000001
 40
0.0
 40
0.0
 40
0.0
 40
0.0
 40
0.1991903164042374
 40
0.3194092302727153
 40
0.409282754823062
 40
0.4977478722893195
 40
0.6105360853704254
 40
0.7753387488710386
 40
1.0
 40
1.0
 40
1.0
 40
1.0
 10
27.02322406945676
 20
0.5034768585419844
 30
0.0
 10
26.9475763535387
 20
0.5001468075163138
 30
0.0
 10
26.82627237074748
 20
0.4948069443438505
 30
0.0
 10
26.6642419882658
 20
0.4929075968326598
 30
0.0
 10
26.53797850894133
 20
0.4949177577444162
 30
0.0
 10
26.41782749125855
 20
0.4993048788197987
 30
0.0
 10
26.26687653560304
 20
0.5085395761995591
 30
0.0
 10
26.06071018769786
 20
0.5276435162378792
 30
0.0
 10
25.8995000267907
 20
0.5508474792443372
 30
0.0
 10
25.80650636272159
 20
0.5642326252472452
 30
0.0
  0
SPLINE
  5
B2
330
1F
100
AcDbEntity
  8
0
  6
Continuous
 62
     1
370
    15
100
AcDbSpline
210
0.0
220
0.0
230
1.0
 70
     8
 71
     3
 72
    13
 73
     9
 74
     0
 42
0.000000001
 43
0.00000001
 40
0.0
 40
0.0
 40
0.0
 40
0.0
 40
0.2186963204487646
 40
0.3563048995215367
 40
0.46521824362656
 40
0.5687007257646443
 40
0.7571351815373906
 40
0.9999999999999999
 40
0.9999999999999999
 40
0.9999999999999999
 40
0.9999999999999999
 10
18.95707671592718
 20
0.5130192412197564
 30
0.0
 10
18.8611549503156
 20
0.5061981338370766
 30
0.0
 10
18.70487708067416
 20
0.495085034285954
 30
0.0
 10
18.50202817371766
 20
0.4927673903321546
 30
0.0
 10
18.34870913697953
 20
0.4954412351946514
 30
0.0
 10
18.17317855674842
 20
0.5033505231626426
 30
0.0
 10
17.94003078646748
 20
0.5221655948516709
 30
0.0
 10
17.75087890131634
 20
0.5490823426597452
 30
0.0
 10
17.64436738832914
 20
0.5642391756537293
 30
0.0
  0
LINE
  5
B3
330
1F
100
AcDbEntity
  8
0
  6
Continuous
 62
   131
370
    15
100
AcDbLine
 10
2.0
 20
-2.999999999999999
 30
0.0
 11
10.39711431702995
 21
-0.7499999999999998
 31
0.0
  0
LINE
  5
B4
330
1F
100
AcDbEntity
  8
0
  6
Continuous
 62
   131
370
    15
100
AcDbLine
 10
10.39711431702995
 20
0.7500000000000002
 30
0.0
 11
2.0
 21
2.999999999999999
 31
0.0
  0
LINE
  5
B5
330
1F
100
AcDbEntity
  8
0
  6
Continuous
 62
   131
370
    15
100
AcDbLine
 10
2.0
 20
2.999999999999998
 30
0.0
 11
-32.05288568297004
 21
2.999999999999996
 31
0.0
  0
LINE
  5
B6
330
1F
100
AcDbEntity
  8
0
  6
Continuous
 62
   131
370
    15
100
AcDbLine
 10
-32.05288568297004
 20
-3.000000000000001
 30
0.0
 11
2.0
 21
-2.999999999999999
 31
0.0
  0
LINE
  5
B7
330
1F
100
AcDbEntity
  8
0
  6
Continuous
 62
   131
370
    15
100
AcDbLine
 10
-32.05288568297004
 20
2.999999999999996
 30
0.0
 11
-32.60288568297005
 21
2.449999999999995
 31
0.0
  0
LINE
  5
B8
330
1F
100
AcDbEntity
  8
0
  6
Continuous
 62
   131
370
    15
100
AcDbLine
 10
-32.60288568297005
 20
-2.450000000000001
 30
0.0
 11
-32.05288568297004
 21
-3.0
 31
0.0
  0
LINE
  5
B9
330
1F
100
AcDbEntity
  8
0
  6
Continuous
 62
   131
370
    15
100
AcDbLine
 10
10.59694632640225
 20
0.7500000000000002
 30
0.0
 11
10.39711431702995
 21
0.7500000000000002
 31
0.0
  0
LINE
  5
BA
330
1F
100
AcDbEntity
  8
0
  6
Continuous
 62
   131
370
    15
100
AcDbLine
 10
11.39711431702995
 20
0.7500000000000003
 30
0.0
 11
11.12606897226897
 21
0.7500000000000002
 31
0.0
  0
LINE
  5
BB
330
1F
100
AcDbEntity
  8
0
  6
Continuous
 62
   131
370
    15
100
AcDbLine
 10
11.12606897226897
 20
-0.7499999999999998
 30
0.0
 11
11.39711431702995
 21
-0.7499999999999997
 31
0.0
  0
LINE
  5
BC
330
1F
100
AcDbEntity
  8
0
  6
Continuous
 62
   131
370
    15
100
AcDbLine
 10
10.39711431702995
 20
-0.7499999999999998
 30
0.0
 11
10.59694632640225
 21
-0.7499999999999998
 31
0.0
  0
SPLINE
  5
BD
330
1F
100
AcDbEntity
  8
0
  6
Continuous
 62
   131
370
    15
100
AcDbSpline
210
0.0
220
0.0
230
1.0
 70
     8
 71
     3
 72
     9
 73
     5
 74
     0
 42
0.000000001
 43
0.00000001
 40
0.0
 40
0.0
 40
0.0
 40
0.0
 40
0.5013580372312324
 40
1.0
 40
1.0
 40
1.0
 40
1.0
 10
10.79438963033333
 20
0.5129689656975905
 30
0.0
 10
10.76053106917581
 20
0.5102337696727509
 30
0.0
 10
10.6929973734072
 20
0.5047781953691158
 30
0.0
 10
10.62570749954566
 20
0.5012170609628561
 30
0.0
 10
10.59215394476888
 20
0.4994413299128354
 30
0.0
  0
SPLINE
  5
BE
330
1F
100
AcDbEntity
  8
0
  6
Continuous
 62
     1
370
    15
100
AcDbSpline
210
0.0
220
0.0
230
1.0
 70
     8
 71
     3
 72
    32
 73
    28
 74
     0
 42
0.000000001
 43
0.00000001
 40
0.0
 40
0.0
 40
0.0
 40
0.0
 40
0.0215388317692472
 40
0.0636122461738211
 40
0.1053966368940404
 40
0.1474702900796738
 40
0.1892535607388871
 40
0.231326957171889
 40
0.273072134768999
 40
0.3151049330418048
 40
0.3568519131599144
 40
0.3988885318942639
 40
0.4406352481885534
 40
0.4826700962376441
 40
0.5244154835849948
 40
0.5664504299458226
 40
0.6081415968536406
 40
0.6501185731533524
 40
0.6918085829187837
 40
0.7337887110652623
 40
0.7754780190817043
 40
0.817454081230891
 40
0.8591419453696233
 40
0.9011182382490188
 40
0.9428063486414986
 40
0.9847797046518895
 40
1.0
 40
1.0
 40
1.0
 40
1.0
 10
14.13349855888099
 20
0.5064322311302195
 30
0.0
 10
14.17050353036107
 20
0.5224621496758819
 30
0.0
 10
14.27979308611159
 20
0.5698045095400269
 30
0.0
 10
14.46156047852237
 20
0.6315523474387477
 30
0.0
 10
14.67687384635215
 20
0.6921461905201213
 30
0.0
 10
14.89343090680943
 20
0.7313701249400753
 30
0.0
 10
15.10997026540577
 20
0.7513778344123807
 30
0.0
 10
15.32498081190221
 20
0.7502546809560176
 30
0.0
 10
15.54215552444273
 20
0.7287984211224661
 30
0.0
 10
15.75724589469058
 20
0.6868806206510002
 30
0.0
 10
15.97333176295657
 20
0.625840946004463
 30
0.0
 10
16.18982186880116
 20
0.5489298363486403
 30
0.0
 10
16.40499982711106
 20
0.4544662927123554
 30
0.0
 10
16.62120731841284
 20
0.3496101465126244
 30
0.0
 10
16.8377493132495
 20
0.2348825661409279
 30
0.0
 10
17.05240704489103
 20
0.1117502069471337
 30
0.0
 10
17.26927019813126
 20
-0.0115840307512496
 30
0.0
 10
17.48433443147695
 20
-0.1363634951909358
 30
0.0
 10
17.69985515960472
 20
-0.257643796539071
 30
0.0
 10
17.91614169484294
 20
-0.3696532491052971
 30
0.0
 10
18.13111213232515
 20
-0.4744472686016883
 30
0.0
 10
18.34683084288573
 20
-0.5640849574417615
 30
0.0
 10
18.56325820541206
 20
-0.6384594463963181
 30
0.0
 10
18.77762685176621
 20
-0.6966745063300319
 30
0.0
 10
18.9942926758082
 20
-0.7331728891993914
 30
0.0
 10
19.16410796822354
 20
-0.7506167374080832
 30
0.0
 10
19.26224547781079
 20
-0.7482373090430959
 30
0.0
 10
19.28836169604773
 20
-0.7476040988595429
 30
0.0
  0
SPLINE
  5
BF
330
1F
100
AcDbEntity
  8
0
  6
Continuous
 62
     1
370
    15
100
AcDbSpline
210
0.0
220
0.0
230
1.0
 70
     8
 71
     3
 72
    31
 73
    27
 74
     0
 42
0.000000001
 43
0.00000001
 40
0.0
 40
0.0
 40
0.0
 40
0.0
 40
0.03088088852983
 40
0.0732125822909321
 40
0.1152568519650149
 40
0.1575917800166191
 40
0.1996354090850141
 40
0.2419690336926728
 40
0.2840117557536954
 40
0.3263443256319093
 40
0.3683883458624802
 40
0.4107212573208354
 40
0.452765572529881
 40
0.4950999097401823
 40
0.5371432466260337
 40
0.5794770342403295
 40
0.6215198129234845
 40
0.6638517683955427
 40
0.7058962078185181
 40
0.7482308589890413
 40
0.7902752212269869
 40
0.8326091154494628
 40
0.8737655697226561
 40
0.9151949113291262
 40
0.957451126496109
 40
1.0
 40
1.0
 40
1.0
 40
1.0
 10
22.28572945512764
 20
0.5026774907649479
 30
0.0
 10
22.33838291741289
 20
0.5249450645634752
 30
0.0
 10
22.46321403866569
 20
0.5777371523808087
 30
0.0
 10
22.66005454856219
 20
0.6430575179357322
 30
0.0
 10
22.87494268220322
 20
0.7000688385219398
 30
0.0
 10
23.09118758441323
 20
0.735987444159571
 30
0.0
 10
23.30683791749778
 20
0.7526529171265819
 30
0.0
 10
23.52175574524159
 20
0.7481235888828317
 30
0.0
 10
23.73854209324216
 20
0.7235767209481025
 30
0.0
 10
23.95305551113374
 20
0.6783925635782416
 30
0.0
 10
24.16919212913768
 20
0.6149211349639795
 30
0.0
 10
24.38518412466353
 20
0.5354844885354503
 30
0.0
 10
24.60003801386233
 20
0.4389540842103133
 30
0.0
 10
24.81616022153949
 20
0.3329437834455977
 30
0.0
 10
25.03208794592203
 20
0.2166831063750074
 30
0.0
 10
25.24675906713031
 20
0.0933418801986427
 30
0.0
 10
25.46357269604925
 20
-0.029983169744841
 30
0.0
 10
25.678267967429
 20
-0.1550266614541425
 30
0.0
 10
25.8941642343483
 20
-0.2747950101135117
 30
0.0
 10
26.11030388031766
 20
-0.3857464601513656
 30
0.0
 10
26.32516542267733
 20
-0.4888766290316538
 30
0.0
 10
26.53961773865192
 20
-0.5754233193179347
 30
0.0
 10
26.75275158892438
 20
-0.6468815272173181
 30
0.0
 10
26.96453706359387
 20
-0.7014806638180029
 30
0.0
 10
27.18048487067464
 20
-0.7379945449627884
 30
0.0
 10
27.32473856402793
 20
-0.7455668786809712
 30
0.0
 10
27.39711431702995
 20
-0.7493661114222354
 30
0.0
  0
SPLINE
  5
C0
330
1F
100
AcDbEntity
  8
0
  6
Continuous
 62
     1
370
    15
100
AcDbSpline
210
0.0
220
0.0
230
1.0
 70
     8
 71
     3
 72
    13
 73
     9
 74
     0
 42
0.000000001
 43
0.00000001
 40
0.0
 40
0.0
 40
0.0
 40
0.0
 40
0.0933623845283873
 40
0.3037054629536887
 40
0.5140471237950562
 40
0.724451772286992
 40
0.9349831986967805
 40
0.9999999999999999
 40
0.9999999999999999
 40
0.9999999999999999
 40
0.9999999999999999
 10
25.52924986160413
 20
-0.0682698093711894
 30
0.0
 10
25.45168193637936
 20
-0.0375521642014249
 30
0.0
 10
25.199355447936
 20
0.062371554480952
 30
0.0
 10
24.77229306767333
 20
0.2347197884087224
 30
0.0
 10
24.24798990668228
 20
0.4075163015190579
 30
0.0
 10
23.72351143009478
 20
0.5095799023483439
 30
0.0
 10
23.31975787966907
 20
0.5415580142711113
 30
0.0
 10
23.09078909984281
 20
0.5112046729905335
 30
0.0
 10
23.03676292160837
 20
0.5040426702612562
 30
0.0
  0
SPLINE
  5
C1
330
1F
100
AcDbEntity
  8
0
  6
Continuous
 62
     1
370
    15
100
AcDbSpline
210
0.0
220
0.0
230
1.0
 70
     8
 71
     3
 72
    12
 73
     8
 74
     0
 42
0.000000001
 43
0.00000001
 40
0.0
 40
0.0
 40
0.0
 40
0.0
 40
0.1897825272055448
 40
0.4003275224925693
 40
0.6106175636647736
 40
0.8207105735738169
 40
0.9999999999999999
 40
0.9999999999999999
 40
0.9999999999999999
 40
0.9999999999999999
 10
17.37220030868104
 20
-0.0712185397101656
 30
0.0
 10
17.21413938747868
 20
-0.0071521779087106
 30
0.0
 10
16.88072546408148
 20
0.1279894933122201
 30
0.0
 10
16.37212948654952
 20
0.3194345809355649
 30
0.0
 10
15.84671546813831
 20
0.4629192344060069
 30
0.0
 10
15.3473677754069
 20
0.5364585427597782
 30
0.0
 10
15.02315479361974
 20
0.5167038671138816
 30
0.0
 10
14.8738723552755
 20
0.5076079137906584
 30
0.0
  0
SPLINE
  5
C2
330
1F
100
AcDbEntity
  8
0
  6
Continuous
 62
     1
370
    15
100
AcDbSpline
210
0.0
220
0.0
230
1.0
 70
     8
 71
     3
 72
    16
 73
    12
 74
     0
 42
0.000000001
 43
0.00000001
 40
0.0
 40
0.0
 40
0.0
 40
0.0
 40
0.1229445226955446
 40
0.2366226868805916
 40
0.3502301650508889
 40
0.4637951406894044
 40
0.5773579755115004
 40
0.6908039844412082
 40
0.8042555005051722
 40
0.9177055107712648
 40
1.0
 40
1.0
 40
1.0
 40
1.0
 10
11.39711431702995
 20
0.7337972491077694
 30
0.0
 10
11.55322361356788
 20
0.7058646436589439
 30
0.0
 10
11.85367621108065
 20
0.652104720012373
 30
0.0
 10
12.29830576963523
 20
0.4719343042098912
 30
0.0
 10
12.73191682057315
 20
0.2521606204568117
 30
0.0
 10
13.16441002517848
 20
0.0016263850799116
 30
0.0
 10
13.59660243806911
 20
-0.2485825715531902
 30
0.0
 10
14.02900428780574
 20
-0.4715052180537806
 30
0.0
 10
14.46190919727912
 20
-0.6392363438867048
 30
0.0
 10
14.85428950808614
 20
-0.7386048713315047
 30
0.0
 10
15.10274959877403
 20
-0.7408036450859501
 30
0.0
 10
15.20720666556085
 20
-0.7417280489058202
 30
0.0
  0
SPLINE
  5
C3
330
1F
100
AcDbEntity
  8
0
  6
Continuous
 62
     1
370
    15
100
AcDbSpline
210
0.0
220
0.0
230
1.0
 70
     8
 71
     3
 72
    20
 73
    16
 74
     0
 42
0.000000001
 43
0.00000001
 40
0.0
 40
0.0
 40
0.0
 40
0.0
 40
0.0258395612727259
 40
0.1094929881191973
 40
0.1931450553272274
 40
0.2768035529962812
 40
0.3604580357849398
 40
0.4441111441859439
 40
0.5277638168984592
 40
0.6114209341933221
 40
0.6950752702547935
 40
0.7787280390859759
 40
0.8623817696335284
 40
0.9460379108642404
 40
1.0
 40
1.0
 40
1.0
 40
1.0
 10
18.21422691187883
 20
0.5020720268376526
 30
0.0
 10
18.25860698779806
 20
0.5225679446182736
 30
0.0
 10
18.44666386206404
 20
0.6094176886351863
 30
0.0
 10
18.77825780701303
 20
0.703655756020456
 30
0.0
 10
19.2100926873036
 20
0.7630402478837713
 30
0.0
 10
19.64148199751853
 20
0.7359103606336674
 30
0.0
 10
20.07239057660436
 20
0.6289770928641918
 30
0.0
 10
20.50335300704899
 20
0.4526731706432133
 30
0.0
 10
20.93528936824678
 20
0.2285788849909169
 30
0.0
 10
21.36650831416163
 20
-0.0215800571901093
 30
0.0
 10
21.79741291634003
 20
-0.269766683688892
 30
0.0
 10
22.22846358531516
 20
-0.4888627208477132
 30
0.0
 10
22.66044802584124
 20
-0.6503264747451607
 30
0.0
 10
23.04052030003595
 20
-0.741979607885182
 30
0.0
 10
23.2768443891783
 20
-0.740934630549721
 30
0.0
 10
23.36951046640708
 20
-0.7405248798940787
 30
0.0
  0
SPLINE
  5
C4
330
1F
100
AcDbEntity
  8
0
  6
Continuous
 62
     1
370
    15
100
AcDbSpline
210
0.0
220
0.0
230
1.0
 70
     8
 71
     3
 72
    10
 73
     6
 74
     0
 42
0.000000001
 43
0.00000001
 40
0.0
 40
0.0
 40
0.0
 40
0.0
 40
0.159911135480075
 40
0.5743933786332687
 40
1.0
 40
1.0
 40
1.0
 40
1.0
 10
26.37879554723009
 20
0.502318142876478
 30
0.0
 10
26.43306239782809
 20
0.5269490200312664
 30
0.0
 10
26.62798640714864
 20
0.6154219878778532
 30
0.0
 10
26.96705187762486
 20
0.7133948962016146
 30
0.0
 10
27.2525002105146
 20
0.7372703209677243
 30
0.0
 10
27.39711431702986
 20
0.7493661114222334
 30
0.0
  0
SPLINE
  5
C5
330
1F
100
AcDbEntity
  8
0
  6
Continuous
 62
     1
370
    15
100
AcDbSpline
210
0.0
220
0.0
230
1.0
 70
    24
 71
     3
 72
     8
 73
     4
 74
     0
 42
0.000000001
 43
0.00000001
 40
0.0
 40
0.0
 40
0.0
 40
0.0
 40
1.0
 40
1.0
 40
1.0
 40
1.0
 10
27.39711431702995
 20
0.525000000000002
 30
0.0
 10
27.39711431702995
 20
0.5886483852109733
 30
0.0
 10
27.39711431702995
 20
0.6742440422799797
 30
0.0
 10
27.39711431702995
 20
0.7493661114222377
 30
0.0
  0
LINE
  5
C6
330
1F
100
AcDbEntity
  8
0
  6
Continuous
 62
     1
370
    15
100
AcDbLine
 10
27.39711431702995
 20
0.5250000000000021
 30
0.0
 11
27.02176433945319
 21
0.4947842900282896
 31
0.0
  0
SPLINE
  5
C7
330
1F
100
AcDbEntity
  8
0
  6
Continuous
 62
     1
370
    15
100
AcDbSpline
210
0.0
220
0.0
230
1.0
 70
     8
 71
     3
 72
    13
 73
     9
 74
     0
 42
0.000000001
 43
0.00000001
 40
0.0
 40
0.0
 40
0.0
 40
0.0
 40
0.1445638951843461
 40
0.3543720166022045
 40
0.5640482660661836
 40
0.7736561268976616
 40
0.9832597498999027
 40
1.0
 40
1.0
 40
1.0
 40
1.0
 10
21.45781294755511
 20
-0.0729025277897002
 30
0.0
 10
21.33726225604942
 20
-0.0244444089828453
 30
0.0
 10
21.04175422759469
 20
0.094341829174591
 30
0.0
 10
20.57145994084627
 20
0.2778122442713861
 30
0.0
 10
20.04695946246342
 20
0.4387494478203691
 30
0.0
 10
19.52264712883428
 20
0.5209016800931721
 30
0.0
 10
19.15919445245333
 20
0.5415712716885704
 30
0.0
 10
18.97048253506494
 20
0.512149743805783
 30
0.0
 10
18.95652552067506
 20
0.5099737461596608
 30
0.0
  0
SPLINE
  5
C8
330
1F
100
AcDbEntity
  8
0
  6
Continuous
 62
     1
370
    15
100
AcDbSpline
210
0.0
220
0.0
230
1.0
 70
     8
 71
     3
 72
    12
 73
     8
 74
     0
 42
0.000000001
 43
0.00000001
 40
0.0
 40
0.0
 40
0.0
 40
0.0
 40
0.0346995498795271
 40
0.3119038599749358
 40
0.5893503278406141
 40
0.8671191711283176
 40
1.0
 40
1.0
 40
1.0
 40
1.0
 10
13.29003146461938
 20
-0.0697529552445735
 30
0.0
 10
13.26813792005952
 20
-0.0613478804961964
 30
0.0
 10
13.0713434059963
 20
0.0142028187635495
 30
0.0
 10
12.69945184479547
 20
0.1708108073344622
 30
0.0
 10
12.17423620058999
 20
0.3562573358982101
 30
0.0
 10
11.73974750681382
 20
0.4666886733957072
 30
0.0
 10
11.48088032863566
 20
0.4984763777781415
 30
0.0
 10
11.39711431702995
 20
0.5087624605212602
 30
0.0
  0
SPLINE
  5
C9
330
1F
100
AcDbEntity
  8
0
  6
Continuous
 62
   131
370
    15
100
AcDbSpline
210
0.0
220
0.0
230
1.0
 70
    24
 71
     3
 72
     8
 73
     4
 74
     0
 42
0.000000001
 43
0.00000001
 40
0.0
 40
0.0
 40
0.0
 40
0.0
 40
1.0
 40
1.0
 40
1.0
 40
1.0
 10
11.39711431702995
 20
0.7337972491077687
 30
0.0
 10
11.39711431702995
 20
0.6657421526817923
 30
0.0
 10
11.39711431702995
 20
0.5795108393212692
 30
0.0
 10
11.39711431702995
 20
0.5087624605212606
 30
0.0
  0
SPLINE
  5
CA
330
1F
100
AcDbEntity
  8
0
  6
Continuous
 62
     1
370
    15
100
AcDbSpline
210
0.0
220
0.0
230
1.0
 70
     8
 71
     3
 72
    17
 73
    13
 74
     0
 42
0.000000001
 43
0.00000001
 40
0.0
 40
0.0
 40
0.0
 40
0.0
 40
0.0620166428488632
 40
0.1690459943329343
 40
0.2761346076355941
 40
0.3833117469663825
 40
0.4906058444430705
 40
0.5979114107470926
 40
0.7050978249815716
 40
0.8121931440398377
 40
0.9192265687912575
 40
1.0
 40
1.0
 40
1.0
 40
1.0
 10
24.55187522875618
 20
-0.593723283750853
 30
0.0
 10
24.45059059084645
 20
-0.6297710035578237
 30
0.0
 10
24.17450724386766
 20
-0.72803047647149
 30
0.0
 10
23.72350364896099
 20
-0.7678377002436777
 30
0.0
 10
23.19868218671226
 20
-0.7069427389217039
 30
0.0
 10
22.67334952446588
 20
-0.5276697110647722
 30
0.0
 10
22.14751642079137
 20
-0.2644748076431179
 30
0.0
 10
21.62164815635381
 20
0.0413535967792472
 30
0.0
 10
21.09626391646911
 20
0.3415601578405848
 30
0.0
 10
20.57140234785597
 20
0.5827132245664676
 30
0.0
 10
20.08974316772751
 20
0.7313476091126568
 30
0.0
 10
19.78301965961071
 20
0.7365209753808082
 30
0.0
 10
19.65110163107914
 20
0.7387459769242384
 30
0.0
  0
SPLINE
  5
CB
330
1F
100
AcDbEntity
  8
0
  6
Continuous
 62
     1
370
    15
100
AcDbSpline
210
0.0
220
0.0
230
1.0
 70
     8
 71
     3
 72
    18
 73
    14
 74
     0
 42
0.000000001
 43
0.00000001
 40
0.0
 40
0.0
 40
0.0
 40
0.0
 40
0.0105632115288933
 40
0.1170016337834177
 40
0.2233483275114128
 40
0.3296322562856662
 40
0.435882978294082
 40
0.5421303681279628
 40
0.6484043321977646
 40
0.7547345235061497
 40
0.8430117305850789
 40
0.9310710269197033
 40
1.0
 40
1.0
 40
1.0
 40
1.0
 10
16.42401741990877
 20
-0.589845215059091
 30
0.0
 10
16.40663342464246
 20
-0.5972438621304135
 30
0.0
 10
16.21408252832856
 20
-0.6791937305737196
 30
0.0
 10
15.8466301861208
 20
-0.7475676717807102
 30
0.0
 10
15.3217402925213
 20
-0.7581872184039581
 30
0.0
 10
14.79723450956478
 20
-0.6377667630977086
 30
0.0
 10
14.27292027268486
 20
-0.4170914191055323
 30
0.0
 10
13.74863130157028
 20
-0.1285491078107431
 30
0.0
 10
13.22416768711124
 20
0.1802440818475166
 30
0.0
 10
12.72927099290678
 20
0.4452824593524544
 30
0.0
 10
12.26407001219524
 20
0.630502618030215
 30
0.0
 10
11.86063337098558
 20
0.7358479538005558
 30
0.0
 10
11.60271784010687
 20
0.7408334264502837
 30
0.0
 10
11.48947464842646
 20
0.7430224021702299
 30
0.0
  0
SPLINE
  5
CC
330
1F
100
AcDbEntity
  8
0
  6
Continuous
 62
     1
370
    15
100
AcDbSpline
210
0.0
220
0.0
230
1.0
 70
     8
 71
     3
 72
    13
 73
     9
 74
     0
 42
0.000000001
 43
0.00000001
 40
0.0
 40
0.0
 40
0.0
 40
0.0
 40
0.131572181925123
 40
0.3248690353862613
 40
0.5183328270683986
 40
0.7120171421412379
 40
0.9057230797111796
 40
1.0
 40
1.0
 40
1.0
 40
1.0
 10
24.08076222583554
 20
-0.6127749103802631
 30
0.0
 10
23.961706688229
 20
-0.6246180836102402
 30
0.0
 10
23.66774289517097
 20
-0.6538604371749512
 30
0.0
 10
23.19867217684831
 20
-0.5810200592548522
 30
0.0
 10
22.67333495371625
 20
-0.4194533349897097
 30
0.0
 10
22.14751787288406
 20
-0.1881881528875497
 30
0.0
 10
21.7114615812277
 20
0.0329979767889819
 30
0.0
 10
21.45081993355085
 20
0.1522540887253238
 30
0.0
 10
21.36549370259155
 20
0.1912949505411032
 30
0.0
  0
SPLINE
  5
CD
330
1F
100
AcDbEntity
  8
0
  6
Continuous
 62
     1
370
    15
100
AcDbSpline
210
0.0
220
0.0
230
1.0
 70
     8
 71
     3
 72
    14
 73
    10
 74
     0
 42
0.000000001
 43
0.00000001
 40
0.0
 40
0.0
 40
0.0
 40
0.0
 40
0.0257977358106602
 40
0.2192213539815065
 40
0.4125256989993625
 40
0.6057669366227639
 40
0.7990018414995411
 40
0.9922872495129852
 40
1.0
 40
1.0
 40
1.0
 40
1.0
 10
15.91649533346646
 20
-0.6182489914441883
 30
0.0
 10
15.89315881049364
 20
-0.6224340390785726
 30
0.0
 10
15.69485209858416
 20
-0.6579973077165808
 30
0.0
 10
15.32175427254405
 20
-0.6283944058653993
 30
0.0
 10
14.79723587348346
 20
-0.5211756621515604
 30
0.0
 10
14.27292289149512
 20
-0.3192972934639422
 30
0.0
 10
13.74862167562551
 20
-0.0734708357856453
 30
0.0
 10
13.39210257407538
 20
0.1146649101556425
 30
0.0
 10
13.2103101635981
 20
0.1922744560052902
 30
0.0
 10
13.20333438077051
 20
0.1952525084760918
 30
0.0
  0
SPLINE
  5
CE
330
1F
100
AcDbEntity
  8
0
  6
Continuous
 62
     1
370
    15
100
AcDbSpline
210
0.0
220
0.0
230
1.0
 70
     8
 71
     3
 72
    14
 73
    10
 74
     0
 42
0.000000001
 43
0.00000001
 40
0.0
 40
0.0
 40
0.0
 40
0.0
 40
0.1435295544451195
 40
0.2869009982693015
 40
0.430152306007379
 40
0.5733225808629447
 40
0.716451694223441
 40
0.8595799098074302
 40
1.0
 40
1.0
 40
1.0
 40
1.0
 10
27.39711431702995
 20
-0.711705651923924
 30
0.0
 10
27.22176619771787
 20
-0.6684817543167967
 30
0.0
 10
26.87126312070513
 20
-0.5820815740855075
 30
0.0
 10
26.3459047632242
 20
-0.3278147655950154
 30
0.0
 10
25.82106296024978
 20
-0.0292182548661036
 30
0.0
 10
25.29657959366098
 20
0.2768663086074354
 30
0.0
 10
24.77227493710453
 20
0.5353208268806934
 30
0.0
 10
24.2513332087412
 20
0.7156528275286685
 30
0.0
 10
23.90511211465498
 20
0.7378634831505188
 30
0.0
 10
23.73365491929276
 20
0.7488627457174901
 30
0.0
  0
SPLINE
  5
CF
330
1F
100
AcDbEntity
  8
0
  6
Continuous
 62
     1
370
    15
100
AcDbSpline
210
0.0
220
0.0
230
1.0
 70
     8
 71
     3
 72
    17
 73
    13
 74
     0
 42
0.000000001
 43
0.00000001
 40
0.0
 40
0.0
 40
0.0
 40
0.0
 40
0.0912533216372038
 40
0.1976956105969495
 40
0.3041358966071741
 40
0.410604134978372
 40
0.5171300145101894
 40
0.6237426772262759
 40
0.7304704490567087
 40
0.8372204643863139
 40
0.9438515798250717
 40
1.0
 40
1.0
 40
1.0
 40
1.0
 10
20.49633912497936
 20
-0.5904219596877711
 30
0.0
 10
20.3465103468585
 20
-0.6384675917565052
 30
0.0
 10
20.02191403360473
 20
-0.7425559733949038
 30
0.0
 10
19.52259935972045
 20
-0.7652065291531065
 30
0.0
 10
18.99830203360816
 20
-0.6754712600959947
 30
0.0
 10
18.47384178793873
 20
-0.4744005484951167
 30
0.0
 10
17.94903919102249
 20
-0.1974551742140175
 30
0.0
 10
17.42373244837841
 20
0.111179727604988
 30
0.0
 10
16.89791697811274
 20
0.4034102351457898
 30
0.0
 10
16.37203604328453
 20
0.6246583725281282
 30
0.0
 10
15.92937505645939
 20
0.7449572340394618
 30
0.0
 10
15.66208430427898
 20
0.7373969008182125
 30
0.0
 10
15.56988626841582
 20
0.7347890744426868
 30
0.0
  0
SPLINE
  5
D0
330
1F
100
AcDbEntity
  8
0
  6
Continuous
 62
     1
370
    15
100
AcDbSpline
210
0.0
220
0.0
230
1.0
 70
     8
 71
     3
 72
    10
 73
     6
 74
     0
 42
0.000000001
 43
0.00000001
 40
0.0
 40
0.0
 40
0.0
 40
0.0
 40
0.0796731293940415
 40
0.5408692059270489
 40
1.0
 40
1.0
 40
1.0
 40
1.0
 10
12.33884483498576
 20
-0.5909268765098007
 30
0.0
 10
12.31381247619174
 20
-0.6010706560347288
 30
0.0
 10
12.1438777425321
 20
-0.6699327431458345
 30
0.0
 10
11.82982938425705
 20
-0.7385295222442505
 30
0.0
 10
11.54113672345035
 20
-0.7449009586184626
 30
0.0
 10
11.39711431702866
 20
-0.7480795278152426
 30
0.0
  0
SPLINE
  5
D1
330
1F
100
AcDbEntity
  8
0
  6
Continuous
 62
   131
370
    15
100
AcDbSpline
210
0.0
220
0.0
230
1.0
 70
    24
 71
     3
 72
     8
 73
     4
 74
     0
 42
0.000000001
 43
0.00000001
 40
0.0
 40
0.0
 40
0.0
 40
0.0
 40
1.0
 40
1.0
 40
1.0
 40
1.0
 10
11.39711431702995
 20
-0.6319636582358709
 30
0.0
 10
11.39711431702995
 20
-0.6712629325873481
 30
0.0
 10
11.39711431702995
 20
-0.7102196182340608
 30
0.0
 10
11.39711431702995
 20
-0.7480795278151015
 30
0.0
  0
SPLINE
  5
D2
330
1F
100
AcDbEntity
  8
0
  6
Continuous
 62
     1
370
    15
100
AcDbSpline
210
0.0
220
0.0
230
1.0
 70
     8
 71
     3
 72
    11
 73
     7
 74
     0
 42
0.000000001
 43
0.00000001
 40
0.0
 40
0.0
 40
0.0
 40
0.0
 40
0.269313899909994
 40
0.5383179295643468
 40
0.8070864793909356
 40
1.0
 40
1.0
 40
1.0
 40
1.0
 10
27.39711431702995
 20
-0.5917291982761598
 30
0.0
 10
27.22176804811039
 20
-0.5502820004162366
 30
0.0
 10
26.87127726217934
 20
-0.4674352934855722
 30
0.0
 10
26.34591492192011
 20
-0.2431144194371418
 30
0.0
 10
25.8703352972727
 20
-0.0073269906065084
 30
0.0
 10
25.56987311271898
 20
0.1345339457840763
 30
0.0
 10
25.44432520530848
 20
0.1938104358807833
 30
0.0
  0
SPLINE
  5
D3
330
1F
100
AcDbEntity
  8
0
  6
Continuous
 62
     1
370
    15
100
AcDbSpline
210
0.0
220
0.0
230
1.0
 70
     8
 71
     3
 72
    13
 73
     9
 74
     0
 42
0.000000001
 43
0.00000001
 40
0.0
 40
0.0
 40
0.0
 40
0.0
 40
0.1751631090660261
 40
0.3682883220830128
 40
0.5614665308309257
 40
0.7547540168983895
 40
0.9482060122422118
 40
1.0
 40
1.0
 40
1.0
 40
1.0
 10
19.99808931320025
 20
-0.6196037820239454
 30
0.0
 10
19.83959100074101
 20
-0.629176926439631
 30
0.0
 10
19.50634116371854
 20
-0.6493048935253387
 30
0.0
 10
18.99829924962037
 20
-0.5522799700390304
 30
0.0
 10
18.47383617725086
 20
-0.3714028686591672
 30
0.0
 10
17.94902626275296
 20
-0.1310985614042657
 30
0.0
 10
17.55213608375596
 20
0.0740150159038965
 30
0.0
 10
17.3301274931631
 20
0.172069666211134
 30
0.0
 10
17.28324105662348
 20
0.192778023156997
 30
0.0
  0
SPLINE
  5
D4
330
1F
100
AcDbEntity
  8
0
  6
Continuous
 62
     1
370
    15
100
AcDbSpline
210
0.0
220
0.0
230
1.0
 70
     8
 71
     3
 72
     9
 73
     5
 74
     0
 42
0.000000001
 43
0.00000001
 40
0.0
 40
0.0
 40
0.0
 40
0.0
 40
0.4562156301637637
 40
1.0
 40
1.0
 40
1.0
 40
1.0
 10
11.85943600777087
 20
-0.6094941163617108
 30
0.0
 10
11.78905616028011
 20
-0.6207392533235658
 30
0.0
 10
11.63478733905295
 20
-0.6453879856737013
 30
0.0
 10
11.48083253379202
 20
-0.6366922586666613
 30
0.0
 10
11.39711431702995
 20
-0.6319636582358705
 30
0.0
  0
LINE
  5
D5
330
1F
100
AcDbEntity
  8
0
  6
Continuous
 62
     1
370
    15
100
AcDbLine
 10
27.39711431702995
 20
-0.7117056519239254
 30
0.0
 11
27.39711431702995
 21
-0.5917291982761598
 31
0.0
  0
LINE
  5
D6
330
1F
100
AcDbEntity
  8
0
  6
Continuous
 62
   131
370
    15
100
AcDbLine
 10
11.39711431702995
 20
0.733797249107768
 30
0.0
 11
11.39711431702995
 21
0.7500000000000018
 31
0.0
  0
LINE
  5
D7
330
1F
100
AcDbEntity
  8
0
  6
Continuous
 62
   131
370
    15
100
AcDbLine
 10
11.39711431702995
 20
-0.7500000000000013
 30
0.0
 11
11.39711431702995
 21
-0.7480795278158896
 31
0.0
  0
LINE
  5
D8
330
1F
100
AcDbEntity
  8
0
  6
Continuous
 62
     1
370
    15
100
AcDbLine
 10
27.39711431702995
 20
-0.7493661114222353
 30
0.0
 11
27.39711431702995
 21
-0.7117056519239274
 31
0.0
  0
SPLINE
  5
D9
330
1F
100
AcDbEntity
  8
0
  6
Continuous
 62
     1
370
    15
100
AcDbSpline
210
0.0
220
0.0
230
1.0
 70
     8
 71
     3
 72
     8
 73
     4
 74
     0
 42
0.000000001
 43
0.00000001
 40
0.0
 40
0.0
 40
0.0
 40
0.0
 40
1.0
 40
1.0
 40
1.0
 40
1.0
 10
26.93369306263447
 20
0.2091243521614279
 30
0.0
 10
26.89986049511978
 20
0.2491581138994939
 30
0.0
 10
26.87044788964089
 20
0.287465643682099
 30
0.0
 10
26.84726799057117
 20
0.3230588479328907
 30
0.0
  0
LINE
  5
DA
330
1F
100
AcDbEntity
  8
0
  6
Continuous
 62
     1
370
    15
100
AcDbLine
 10
26.84726799057117
 20
0.3230588479328869
 30
0.0
 11
27.39711431702995
 21
0.0000000000000023
 31
0.0
  0
LINE
  5
DB
330
1F
100
AcDbEntity
  8
0
  6
Continuous
 62
     1
370
    15
100
AcDbLine
 10
27.39711431702995
 20
0.0000000000000023
 30
0.0
 11
27.39711431702995
 21
-0.2004322095222313
 31
0.0
  0
SPLINE
  5
DC
330
1F
100
AcDbEntity
  8
0
  6
Continuous
 62
     1
370
    15
100
AcDbSpline
210
0.0
220
0.0
230
1.0
 70
     8
 71
     3
 72
    10
 73
     6
 74
     0
 42
0.000000001
 43
0.00000001
 40
0.0
 40
0.0
 40
0.0
 40
0.0
 40
0.5
 40
0.5
 40
1.0
 40
1.0
 40
1.0
 40
1.0
 10
27.39711431702995
 20
-0.2004322095222313
 30
0.0
 10
27.3169052604367
 20
-0.1373715394669064
 30
0.0
 10
27.23803532198719
 20
-0.0717255156068367
 30
0.0
 10
27.08302977800457
 20
0.064845542066227
 30
0.0
 10
27.00616674524157
 20
0.1364836568451802
 30
0.0
 10
26.93369306263398
 20
0.2091243521597823
 30
0.0
  0
SPLINE
  5
DD
330
1F
100
AcDbEntity
  8
0
  6
Continuous
 62
   131
370
    15
100
AcDbSpline
210
0.0
220
0.0
230
1.0
 70
    24
 71
     3
 72
    10
 73
     6
 74
     0
 42
0.000000001
 43
0.00000001
 40
0.0
 40
0.0
 40
0.0
 40
0.0
 40
0.5
 40
0.5
 40
1.0
 40
1.0
 40
1.0
 40
1.0
 10
11.39711431703006
 20
-0.1480684177847933
 30
0.0
 10
11.39711431703006
 20
-0.2561223797397643
 30
0.0
 10
11.39711431703006
 20
-0.3603207222096506
 30
0.0
 10
11.39711431703006
 20
-0.529466086984746
 30
0.0
 10
11.39711431703006
 20
-0.593685041516398
 30
0.0
 10
11.39711431703006
 20
-0.6319636582358772
 30
0.0
  0
SPLINE
  5
DE
330
1F
100
AcDbEntity
  8
0
  6
Continuous
 62
     1
370
    15
100
AcDbSpline
210
0.0
220
0.0
230
1.0
 70
     8
 71
     3
 72
    11
 73
     7
 74
     0
 42
0.000000001
 43
0.00000001
 40
0.0
 40
0.0
 40
0.0
 40
0.0
 40
0.3397893623406645
 40
0.6431990466597239
 40
0.9464268910945279
 40
1.0
 40
1.0
 40
1.0
 40
1.0
 10
26.9336930613048
 20
0.2091243527372245
 30
0.0
 10
26.73770311331822
 20
0.2903095757460786
 30
0.0
 10
26.36670695607691
 20
0.4439878948154062
 30
0.0
 10
25.82109024436649
 20
0.5715747304972061
 30
0.0
 10
25.44046581190444
 20
0.618520101624171
 30
0.0
 10
25.23477713351184
 20
0.5927966141435683
 30
0.0
 10
25.20389329795874
 20
0.5889342724560656
 30
0.0
  0
SPLINE
  5
DF
330
1F
100
AcDbEntity
  8
0
  6
Continuous
 62
     1
370
    15
100
AcDbSpline
210
0.0
220
0.0
230
1.0
 70
     8
 71
     3
 72
    17
 73
    13
 74
     0
 42
0.000000001
 43
0.00000001
 40
0.0
 40
0.0
 40
0.0
 40
0.0
 40
0.0228134337007339
 40
0.1349173226619141
 40
0.246920299768461
 40
0.3588547111386054
 40
0.4707535634755786
 40
0.582650208006659
 40
0.6945780173936996
 40
0.8065700622051882
 40
0.91865879355512
 40
1.0
 40
1.0
 40
1.0
 40
1.0
 10
21.7284361069494
 20
-0.5566209510126929
 30
0.0
 10
21.69279353501112
 20
-0.564469855948554
 30
0.0
 10
21.48200543350133
 20
-0.6108878241363149
 30
0.0
 10
21.09631280295972
 20
-0.6059608579622536
 30
0.0
 10
20.57144609075722
 20
-0.5296798531616136
 30
0.0
 10
20.04694998098577
 20
-0.3606179791749478
 30
0.0
 10
19.52264014059881
 20
-0.1354646163530063
 30
0.0
 10
18.99834231192144
 20
0.111797895010535
 30
0.0
 10
18.47388018654911
 20
0.3418249043002933
 30
0.0
 10
17.94907488861592
 20
0.5135829621761385
 30
0.0
 10
17.47199839421354
 20
0.6056376437982716
 30
0.0
 10
17.16979487873254
 20
0.5919278391251003
 30
0.0
 10
17.04271217984243
 20
0.5861625885907058
 30
0.0
  0
SPLINE
  5
E0
330
1F
100
AcDbEntity
  8
0
  6
Continuous
 62
     1
370
    15
100
AcDbSpline
210
0.0
220
0.0
230
1.0
 70
     8
 71
     3
 72
    12
 73
     8
 74
     0
 42
0.000000001
 43
0.00000001
 40
0.0
 40
0.0
 40
0.0
 40
0.0
 40
0.1587023633617362
 40
0.4002977835529967
 40
0.642098741554235
 40
0.8841733521411802
 40
1.0
 40
1.0
 40
1.0
 40
1.0
 10
13.5690063137888
 20
-0.5530955528114845
 30
0.0
 10
13.45411833071062
 20
-0.5716075827956361
 30
0.0
 10
13.16433433500388
 20
-0.6183008040858062
 30
0.0
 10
12.69944057248072
 20
-0.5831350525251635
 30
0.0
 10
12.1742425509805
 20
-0.4624464678935432
 30
0.0
 10
11.7396781826171
 20
-0.299184602009291
 30
0.0
 10
11.48087130854442
 20
-0.1850163805773171
 30
0.0
 10
11.39711431702995
 20
-0.1480684177847445
 30
0.0
  0
SPLINE
  5
E1
330
1F
100
AcDbEntity
  8
0
  6
Continuous
 62
     1
370
    15
100
AcDbSpline
210
0.0
220
0.0
230
1.0
 70
    24
 71
     3
 72
     8
 73
     4
 74
     0
 42
0.000000001
 43
0.00000001
 40
0.0
 40
0.0
 40
0.0
 40
0.0
 40
1.0
 40
1.0
 40
1.0
 40
1.0
 10
27.39711431702995
 20
-0.5917291982761594
 30
0.0
 10
27.39711431702995
 20
-0.501007885229543
 30
0.0
 10
27.39711431702995
 20
-0.3595289550547048
 30
0.0
 10
27.39711431702995
 20
-0.2004322095222554
 30
0.0
  0
SPLINE
  5
E2
330
1F
100
AcDbEntity
  8
0
  6
Continuous
 62
     1
370
    15
100
AcDbSpline
210
0.0
220
0.0
230
1.0
 70
     8
 71
     3
 72
    16
 73
    12
 74
     0
 42
0.000000001
 43
0.00000001
 40
0.0
 40
0.0
 40
0.0
 40
0.0
 40
0.1090155229101003
 40
0.2209596827539867
 40
0.3329031063546989
 40
0.4448791736063211
 40
0.5569209480229541
 40
0.6690608596679851
 40
0.7813304009203329
 40
0.8936125191656783
 40
1.0
 40
1.0
 40
1.0
 40
1.0
 10
25.80710699777848
 20
-0.5629229142070816
 30
0.0
 10
25.6369179691625
 20
-0.5816995616906241
 30
0.0
 10
25.29196788529042
 20
-0.619757280081503
 30
0.0
 10
24.77229014579088
 20
-0.5540276545389843
 30
0.0
 10
24.24798808060978
 20
-0.4054838470976883
 30
0.0
 10
23.7235145035661
 20
-0.1897285549949479
 30
0.0
 10
23.19869149753041
 20
0.0559859383401437
 30
0.0
 10
22.67335508929505
 20
0.2934633044329809
 30
0.0
 10
22.14754197187364
 20
0.4814701082774168
 30
0.0
 10
21.63069399567422
 20
0.5976680245029411
 30
0.0
 10
21.28926661433425
 20
0.5948961250622629
 30
0.0
 10
21.12315482219901
 20
0.5935475361415306
 30
0.0
  0
SPLINE
  5
E3
330
1F
100
AcDbEntity
  8
0
  6
Continuous
 62
     1
370
    15
100
AcDbSpline
210
0.0
220
0.0
230
1.0
 70
     8
 71
     3
 72
    17
 73
    13
 74
     0
 42
0.000000001
 43
0.00000001
 40
0.0
 40
0.0
 40
0.0
 40
0.0
 40
0.0483600539150865
 40
0.1605241179266608
 40
0.2727126881033173
 40
0.3847689216922611
 40
0.4967228869134028
 40
0.6086068784825371
 40
0.7204538650415566
 40
0.832297173704349
 40
0.9441701672913104
 40
0.9999999999999999
 40
0.9999999999999999
 40
0.9999999999999999
 40
0.9999999999999999
 10
17.65068039854847
 20
-0.5523370100197339
 30
0.0
 10
17.57510509038742
 20
-0.5669197942009674
 30
0.0
 10
17.32424392094189
 20
-0.615325211029444
 30
0.0
 10
16.8979643182271
 20
-0.5972094488205475
 30
0.0
 10
16.37211092494039
 20
-0.4981928614359887
 30
0.0
 10
15.84669675868419
 20
-0.3136077943783095
 30
0.0
 10
15.32181458043172
 20
-0.0798656181095356
 30
0.0
 10
14.79730481634513
 20
0.1667025992108825
 30
0.0
 10
14.27299121101162
 20
0.387623990769926
 30
0.0
 10
13.74869464781573
 20
0.5412191469076145
 30
0.0
 10
13.31191392973968
 20
0.6119490645572819
 30
0.0
 10
13.04985619866337
 20
0.590826020911244
 30
0.0
 10
12.96261473941559
 20
0.5837939629602493
 30
0.0
  0
SPLINE
  5
E4
330
1F
100
AcDbEntity
  8
0
  6
Continuous
 62
     1
370
    15
100
AcDbSpline
210
0.0
220
0.0
230
1.0
 70
     8
 71
     3
 72
     8
 73
     4
 74
     0
 42
0.000000001
 43
0.00000001
 40
0.0
 40
0.0
 40
0.0
 40
0.0
 40
1.0
 40
1.0
 40
1.0
 40
1.0
 10
27.39711431702995
 20
0.5250000000000021
 30
0.0
 10
27.21052535001349
 20
0.4741732592527877
 30
0.0
 10
27.02569126366118
 20
0.4101591326915534
 30
0.0
 10
26.84726799056493
 20
0.3230588479383583
 30
0.0
  0
SPLINE
  5
E5
330
1F
100
AcDbEntity
  8
0
  6
Continuous
 62
   131
370
    15
100
AcDbSpline
210
0.0
220
0.0
230
1.0
 70
    24
 71
     3
 72
    10
 73
     6
 74
     0
 42
0.000000001
 43
0.00000001
 40
0.0
 40
0.0
 40
0.0
 40
0.0
 40
0.5
 40
0.5
 40
1.0
 40
1.0
 40
1.0
 40
1.0
 10
11.39711431702995
 20
0.5087624605212602
 30
0.0
 10
11.39711431702995
 20
0.4493088652054142
 30
0.0
 10
11.39711431702995
 20
0.3552940063950948
 30
0.0
 10
11.39711431702995
 20
0.12181843791842
 30
0.0
 10
11.39711431702995
 20
-0.0158332829054743
 30
0.0
 10
11.39711431702995
 20
-0.1480684177847456
 30
0.0
  0
LINE
  5
E6
330
1F
100
AcDbEntity
  8
0
  6
Continuous
 62
     1
370
    15
100
AcDbLine
 10
27.39711431702995
 20
0.0000000000000023
 30
0.0
 11
27.39711431702995
 21
0.5250000000000021
 31
0.0
  0
LINE
  5
E7
330
1F
100
AcDbEntity
  8
0
  6
Continuous
 62
   131
370
    15
100
AcDbLine
 10
10.39711431702995
 20
0.7500000000000002
 30
0.0
 11
10.39711431702995
 21
-0.75
 31
0.0
  0
LINE
  5
E8
330
1F
100
AcDbEntity
  8
0
  6
Continuous
 62
   131
370
    15
100
AcDbLine
 10
2.0
 20
2.999999999999999
 30
0.0
 11
2.0
 21
-2.999999999999999
 31
0.0
  0
LINE
  5
E9
330
1F
100
AcDbEntity
  8
0
  6
Continuous
 62
   131
370
    15
100
AcDbLine
 10
-32.05288568297004
 20
2.999999999999996
 30
0.0
 11
-32.05288568297004
 21
-3.000000000000001
 31
0.0
  0
LINE
  5
EA
330
1F
100
AcDbEntity
  8
0
  6
Continuous
 62
   131
370
    15
100
AcDbLine
 10
-32.60288568297005
 20
2.449999999999995
 30
0.0
 11
-32.60288568297005
 21
-2.450000000000002
 31
0.0
  0
SPLINE
  5
EB
330
1F
100
AcDbEntity
  8
0
  6
Continuous
 62
   131
370
    15
100
AcDbSpline
210
0.0
220
0.0
230
1.0
 70
     8
 71
     3
 72
    12
 73
     8
 74
     0
 42
0.000000001
 43
0.00000001
 40
0.0
 40
0.0
 40
0.0
 40
0.0
 40
0.2500000000000001
 40
0.2500000000000001
 40
0.5000000000000001
 40
0.5000000000000001
 40
1.0
 40
1.0
 40
1.0
 40
1.0
 10
11.39711431702855
 20
-0.7480795278152377
 30
0.0
 10
11.32976242018196
 20
-0.7453209598341951
 30
0.0
 10
11.26221880566484
 20
-0.7395744087924481
 30
0.0
 10
11.12913157437219
 20
-0.7223789263244695
 30
0.0
 10
11.06469485233936
 20
-0.7110245851963305
 30
0.0
 10
10.86672566042741
 20
-0.6685328919408321
 30
0.0
 10
10.72960248625936
 20
-0.6286797094814623
 30
0.0
 10
10.59684553477308
 20
-0.5800075998144477
 30
0.0
  0
SPLINE
  5
EC
330
1F
100
AcDbEntity
  8
0
  6
Continuous
 62
   131
370
    15
100
AcDbSpline
210
0.0
220
0.0
230
1.0
 70
     8
 71
     3
 72
    10
 73
     6
 74
     0
 42
0.000000001
 43
0.00000001
 40
0.0
 40
0.0
 40
0.0
 40
0.0
 40
0.4411214875962617
 40
0.8858170608135345
 40
1.0
 40
1.0
 40
1.0
 40
1.0
 10
10.5969829553051
 20
-0.6888013849968492
 30
0.0
 10
10.67489194383985
 20
-0.7041277656598781
 30
0.0
 10
10.83134116060975
 20
-0.7349047054680328
 30
0.0
 10
11.00761578909843
 20
-0.7506228486623159
 30
0.0
 10
11.10597373047723
 20
-0.7489263682699489
 30
0.0
 10
11.12606897226897
 20
-0.7485797650043492
 30
0.0
  0
ELLIPSE
  5
ED
330
1F
100
AcDbEntity
  8
0
  6
Continuous
 62
   131
370
    15
100
AcDbEllipse
 10
10.59694360032489
 20
0.0000000000000002
 30
0.0
 11
-2.726077402925853E-6
 21
0.7500000000000001
 31
0.0
210
0.0
220
0.0
230
1.0
 40
0.0001239180483642
 41
3.141592653130087
 42
3.548708584456587
  0
SPLINE
  5
EE
330
1F
100
AcDbEntity
  8
0
  6
Continuous
 62
   131
370
    15
100
AcDbSpline
210
0.0
220
0.0
230
1.0
 70
     8
 71
     3
 72
    12
 73
     8
 74
     0
 42
0.000000001
 43
0.00000001
 40
0.0
 40
0.0
 40
0.0
 40
0.0
 40
0.5000000000000001
 40
0.5000000000000001
 40
0.75
 40
0.75
 40
1.0
 40
1.0
 40
1.0
 40
1.0
 10
10.59698295530552
 20
0.688801384993597
 30
0.0
 10
10.72971999976702
 20
0.7191709032665042
 30
0.0
 10
10.86681849260915
 20
0.738782099358612
 30
0.0
 10
11.06475089620884
 20
0.7501198390427948
 30
0.0
 10
11.12917715158625
 20
0.7509796504751141
 30
0.0
 10
11.2622421090608
 20
0.7468229370286812
 30
0.0
 10
11.32977403969948
 20
0.7417701978698636
 30
0.0
 10
11.39711431703031
 20
0.7337972491047674
 30
0.0
  0
ELLIPSE
  5
EF
330
1F
100
AcDbEntity
  8
0
  6
Continuous
 62
   131
370
    15
100
AcDbEllipse
 10
10.59694360032489
 20
0.0000000000000002
 30
0.0
 11
2.726077401149496E-6
 21
0.7500000000000001
 31
0.0
210
0.0
220
0.0
230
1.0
 40
0.0001239180483642
 41
5.876069376488581
 42
8.738036808391524
  0
SPLINE
  5
F0
330
1F
100
AcDbEntity
  8
0
  6
Continuous
 62
   131
370
    15
100
AcDbSpline
210
0.0
220
0.0
230
1.0
 70
    24
 71
     3
 72
     8
 73
     4
 74
     0
 42
0.000000001
 43
0.00000001
 40
0.0
 40
0.0
 40
0.0
 40
0.0
 40
1.0
 40
1.0
 40
1.0
 40
1.0
 10
10.5969829553051
 20
0.6887648593315419
 30
0.0
 10
10.5969829553051
 20
0.611748290358473
 30
0.0
 10
10.5969829553051
 20
0.5365853752897528
 30
0.0
 10
10.5969829553051
 20
0.4902916933542476
 30
0.0
  0
SPLINE
  5
F1
330
1F
100
AcDbEntity
  8
0
  6
Continuous
 62
   131
370
    15
100
AcDbSpline
210
0.0
220
0.0
230
1.0
 70
     8
 71
     3
 72
    11
 73
     7
 74
     0
 42
0.000000001
 43
0.00000001
 40
0.0
 40
0.0
 40
0.0
 40
0.0
 40
0.1258435968534846
 40
0.416689446042006
 40
0.7092214818472008
 40
0.9999999999999999
 40
0.9999999999999999
 40
0.9999999999999999
 40
0.9999999999999999
 10
10.59695396319039
 20
0.4935476257640843
 30
0.0
 10
10.59695026514605
 20
0.4954008519158181
 30
0.0
 10
10.59693802029541
 20
0.5015371973307984
 30
0.0
 10
10.59691741089912
 20
0.454157670750615
 30
0.0
 10
10.59689372454777
 20
0.3626663498578928
 30
0.0
 10
10.59688119258238
 20
0.2638245632022181
 30
0.0
 10
10.59687494543616
 20
0.2145522363768374
 30
0.0
  0
SPLINE
  5
F2
330
1F
100
AcDbEntity
  8
0
  6
Continuous
 62
   131
370
    15
100
AcDbSpline
210
0.0
220
0.0
230
1.0
 70
    24
 71
     3
 72
    10
 73
     6
 74
     0
 42
0.000000001
 43
0.00000001
 40
0.0
 40
0.0
 40
0.0
 40
0.0
 40
0.5
 40
0.5
 40
1.0
 40
1.0
 40
1.0
 40
1.0
 10
10.5969327536115
 20
0.2145596141526556
 30
0.0
 10
10.5969327536115
 20
0.1024693096665975
 30
0.0
 10
10.5969327536115
 20
-0.0213832289687576
 30
0.0
 10
10.5969327536115
 20
-0.2598945174686855
 30
0.0
 10
10.5969327536115
 20
-0.3735266215069465
 30
0.0
 10
10.5969327536115
 20
-0.4677793754639484
 30
0.0
  0
SPLINE
  5
F3
330
1F
100
AcDbEntity
  8
0
  6
Continuous
 62
   131
370
    15
100
AcDbSpline
210
0.0
220
0.0
230
1.0
 70
    24
 71
     3
 72
     8
 73
     4
 74
     0
 42
0.000000001
 43
0.00000001
 40
0.0
 40
0.0
 40
0.0
 40
0.0
 40
1.0
 40
1.0
 40
1.0
 40
1.0
 10
10.59684553477308
 20
-0.4677502476145131
 30
0.0
 10
10.59684553477308
 20
-0.5038386260474044
 30
0.0
 10
10.59684553477308
 20
-0.5414902722082543
 30
0.0
 10
10.59684553477308
 20
-0.5800015079296945
 30
0.0
  0
SPLINE
  5
F4
330
1F
100
AcDbEntity
  8
0
  6
Continuous
 62
   131
370
    15
100
AcDbSpline
210
0.0
220
0.0
230
1.0
 70
     8
 71
     3
 72
    12
 73
     8
 74
     0
 42
0.000000001
 43
0.00000001
 40
0.0
 40
0.0
 40
0.0
 40
0.0
 40
0.25
 40
0.25
 40
0.5
 40
0.5
 40
1.0
 40
1.0
 40
1.0
 40
1.0
 10
11.39711431702823
 20
-0.6319636582357606
 30
0.0
 10
11.32976242018167
 20
-0.627652104254881
 30
0.0
 10
11.26221880566457
 20
-0.6208145560290498
 30
0.0
 10
11.12913157437198
 20
-0.6023884737021067
 30
0.0
 10
11.06469485233918
 20
-0.5908903334344943
 30
0.0
 10
10.8667256604273
 20
-0.5493671063095488
 30
0.0
 10
10.72960248625931
 20
-0.5120879559167938
 30
0.0
 10
10.59684553477308
 20
-0.4677502476145131
 30
0.0
  0
SPLINE
  5
F5
330
1F
100
AcDbEntity
  8
0
  6
Continuous
 62
   131
370
    15
100
AcDbSpline
210
0.0
220
0.0
230
1.0
 70
     8
 71
     3
 72
    12
 73
     8
 74
     0
 42
0.000000001
 43
0.00000001
 40
0.0
 40
0.0
 40
0.0
 40
0.0
 40
0.2499999999999999
 40
0.2499999999999999
 40
0.4999999999999998
 40
0.4999999999999998
 40
1.0
 40
1.0
 40
1.0
 40
1.0
 10
11.39711431702995
 20
-0.1480684177847449
 30
0.0
 10
11.32976979495352
 20
-0.1181683828626383
 30
0.0
 10
11.2622335960579
 20
-0.0876503686977964
 30
0.0
 10
11.12916050165257
 20
-0.0264677056746572
 30
0.0
 10
11.0647304228265
 20
0.0040228542033079
 30
0.0
 10
10.86678458003677
 20
0.0958056239224255
 30
0.0
 10
10.72967707071551
 20
0.1572096813325318
 30
0.0
 10
10.5969327536115
 20
0.214559614152655
 30
0.0
  0
SPLINE
  5
F6
330
1F
100
AcDbEntity
  8
0
  6
Continuous
 62
   131
370
    15
100
AcDbSpline
210
0.0
220
0.0
230
1.0
 70
    24
 71
     3
 72
    10
 73
     6
 74
     0
 42
0.000000001
 43
0.00000001
 40
0.0
 40
0.0
 40
0.0
 40
0.0
 40
0.5
 40
0.5
 40
1.0
 40
1.0
 40
1.0
 40
1.0
 10
11.39711431703006
 20
-0.1480684177847933
 30
0.0
 10
11.39711431703006
 20
-0.2561223797397643
 30
0.0
 10
11.39711431703006
 20
-0.3603207222096506
 30
0.0
 10
11.39711431703006
 20
-0.529466086984746
 30
0.0
 10
11.39711431703006
 20
-0.593685041516398
 30
0.0
 10
11.39711431703006
 20
-0.6319636582358772
 30
0.0
  0
SPLINE
  5
F7
330
1F
100
AcDbEntity
  8
0
  6
Continuous
 62
   131
370
    15
100
AcDbSpline
210
0.0
220
0.0
230
1.0
 70
     8
 71
     3
 72
     9
 73
     5
 74
     0
 42
0.000000001
 43
0.00000001
 40
0.0
 40
0.0
 40
0.0
 40
0.0
 40
0.658909723165587
 40
1.0
 40
1.0
 40
1.0
 40
1.0
 10
11.39711431702995
 20
0.5087624605212602
 30
0.0
 10
11.26436364776895
 20
0.5192578639142177
 30
0.0
 10
11.06289345451814
 20
0.535186303006806
 30
0.0
 10
10.86118062029422
 20
0.5139788528531074
 30
0.0
 10
10.79237833382773
 20
0.5067451978092304
 30
0.0
  0
SPLINE
  5
F8
330
1F
100
AcDbEntity
  8
0
  6
Continuous
 62
   131
370
    15
100
AcDbSpline
210
0.0
220
0.0
230
1.0
 70
    24
 71
     3
 72
    10
 73
     6
 74
     0
 42
0.000000001
 43
0.00000001
 40
0.0
 40
0.0
 40
0.0
 40
0.0
 40
0.5
 40
0.5
 40
1.0
 40
1.0
 40
1.0
 40
1.0
 10
11.39711431702995
 20
0.5087624605212602
 30
0.0
 10
11.39711431702995
 20
0.4493088652054142
 30
0.0
 10
11.39711431702995
 20
0.3552940063950948
 30
0.0
 10
11.39711431702995
 20
0.12181843791842
 30
0.0
 10
11.39711431702995
 20
-0.0158332829054743
 30
0.0
 10
11.39711431702995
 20
-0.1480684177847456
 30
0.0
  0
SPLINE
  5
F9
330
1F
100
AcDbEntity
  8
0
  6
Continuous
 62
   131
370
    15
100
AcDbSpline
210
0.0
220
0.0
230
1.0
 70
    24
 71
     3
 72
     8
 73
     4
 74
     0
 42
0.000000001
 43
0.00000001
 40
0.0
 40
0.0
 40
0.0
 40
0.0
 40
1.0
 40
1.0
 40
1.0
 40
1.0
 10
11.39711431702995
 20
-0.6319636582358709
 30
0.0
 10
11.39711431702995
 20
-0.671262932587348
 30
0.0
 10
11.39711431702995
 20
-0.7102196182340605
 30
0.0
 10
11.39711431702995
 20
-0.7480795278151012
 30
0.0
  0
SPLINE
  5
FA
330
1F
100
AcDbEntity
  8
0
  6
Continuous
 62
   131
370
    15
100
AcDbSpline
210
0.0
220
0.0
230
1.0
 70
    24
 71
     3
 72
     8
 73
     4
 74
     0
 42
0.000000001
 43
0.00000001
 40
0.0
 40
0.0
 40
0.0
 40
0.0
 40
1.0
 40
1.0
 40
1.0
 40
1.0
 10
11.39711431702995
 20
0.7337972491077678
 30
0.0
 10
11.39711431702995
 20
0.6657421526817916
 30
0.0
 10
11.39711431702995
 20
0.5795108393212687
 30
0.0
 10
11.39711431702995
 20
0.5087624605212602
 30
0.0
  0
LINE
  5
FB
330
1F
100
AcDbEntity
  8
중심선
 62
     1
100
AcDbLine
 10
-35.60288568297005
 20
-0.0000000000000046
 30
0.0
 11
28.89711431702998
 21
-0.0000000000000046
 31
0.0
  0
CIRCLE
  5
FC
330
1F
100
AcDbEntity
  8
외형선
100
AcDbCircle
 10
0.0000000000000104
 20
0.0
 30
0.0
 40
3.000000000000005
  0
INSERT
  5
FD
330
1F
100
AcDbEntity
  8
0
  6
Continuous
 62
     7
100
AcDbBlockReference
 66
     1
  2
블럭10
 10
-22.93944368806589
 20
-52.04609937292004
 30
0.0
  0
ATTRIB
  5
FE
330
FD
100
AcDbEntity
  8
FORMAT
 62
     2
100
AcDbText
 10
-39.05870472750145
 20
-49.97073246008785
 30
0.0
 40
4.233333333333333
  1
SEME7001516E [ 2 FLUTE ]
 41
0.75
  7
SLDTEXTSTYLE0
 11
-39.05870472750145
 21
-52.08739912675452
 31
0.0
100
AcDbAttribute
  2
AUTOATTR0
 70
     0
 74
     1
  0
SEQEND
  5
FF
330
FD
100
AcDbEntity
  8
0
  6
Continuous
 62
     7
  0
HATCH
  5
100
330
1F
100
AcDbEntity
  8
중심선
100
AcDbHatch
 10
0.0
 20
0.0
 30
0.0
210
0.0
220
0.0
230
1.0
  2
SOLID
 70
     1
 71
     0
 91
        1
 92
        0
 93
        4
 72
     1
 10
-17.22453438368504
 20
-35.7989250712761
 11
-20.67080962752232
 21
-35.7989250712761
 72
     1
 10
-20.67080962752232
 20
-35.7989250712761
 11
-22.79903948672635
 21
-38.3352506518487
 72
     1
 10
-22.79903948672635
 20
-38.3352506518487
 11
-19.35273115777591
 21
-38.33521122254621
 72
     1
 10
-19.35273115777591
 20
-38.33521122254621
 11
-17.22453438368504
 21
-35.7989250712761
 97
        0
 75
     0
 76
     1
 98
        1
 10
0.0
 20
0.0
  0
HATCH
  5
101
330
1F
100
AcDbEntity
  8
중심선
100
AcDbHatch
 10
0.0
 20
0.0
 30
0.0
210
0.0
220
0.0
230
1.0
  2
SOLID
 70
     1
 71
     0
 91
        1
 92
        0
 93
        4
 72
     1
 10
-12.21177039264909
 20
-35.7989250712761
 11
-15.65804563648637
 21
-35.7989250712761
 72
     1
 10
-15.65804563648637
 20
-35.7989250712761
 11
-20.18918364484376
 21
-41.19892507127612
 72
     1
 10
-20.18918364484376
 20
-41.19892507127612
 11
-16.74290840100648
 21
-41.19892507127612
 72
     1
 10
-16.74290840100648
 20
-41.19892507127612
 11
-12.21177039264909
 21
-35.7989250712761
 97
        0
 75
     0
 76
     1
 98
        1
 10
0.0
 20
0.0
  0
HATCH
  5
102
330
1F
100
AcDbEntity
  8
중심선
100
AcDbHatch
 10
0.0
 20
0.0
 30
0.0
210
0.0
220
0.0
230
1.0
  2
SOLID
 70
     1
 71
     0
 91
        1
 92
        0
 93
        4
 72
     1
 10
-7.199006401613195
 20
-35.79892507127613
 11
-10.64528164545031
 21
-35.7989250712761
 72
     1
 10
-10.64528164545031
 20
-35.7989250712761
 11
-17.69371854733956
 21
-44.19892507127612
 72
     1
 10
-17.69371854733956
 20
-44.19892507127612
 11
-14.24744330350228
 21
-44.19892507127612
 72
     1
 10
-14.24744330350228
 20
-44.19892507127612
 11
-7.199006401613195
 21
-35.79892507127613
 97
        0
 75
     0
 76
     1
 98
        1
 10
0.0
 20
0.0
  0
HATCH
  5
103
330
1F
100
AcDbEntity
  8
중심선
100
AcDbHatch
 10
0.0
 20
0.0
 30
0.0
210
0.0
220
0.0
230
1.0
  2
SOLID
 70
     1
 71
     0
 91
        1
 92
        0
 93
        6
 72
     3
 10
-2.399115970600996
 20
-39.99892507132738
 11
3.960054785062284
 21
1.540850780301639E-10
 40
0.3939339440162633
 50
17.09539180608433
 51
320.0019657685079
 73
     0
 72
     1
 10
-0.7161163149004002
 20
-38.58681907591441
 11
1.589185558800638
 21
-36.65249236586649
 72
     3
 10
-2.399115970653842
 20
-39.99892507127625
 11
6.600054785286829
 21
-1.249000902703301E-13
 40
0.6363583540795982
 50
39.99873849337408
 51
368.4976242363724
 73
     1
 72
     1
 10
4.026216521246767
 20
-39.03892507120613
 11
-3.71904866381792
 21
-39.0389250712061
 72
     1
 10
-3.71904866381792
 20
-39.0389250712061
 11
-3.719073708263854
 21
-40.95892507120602
 72
     1
 10
-3.719073708263854
 20
-40.95892507120602
 11
0.7223060612081835
 21
-40.95892507120599
 97
        0
 75
     0
 76
     1
 98
        1
 10
0.0
 20
0.0
  0
DIMENSION
  5
104
330
1F
100
AcDbEntity
  8
치수문자_일반주서
100
AcDbDimension
  2
_D
 10
37.02824671861282
 20
0.7493661114222689
 30
0.0
 11
37.02824671861276
 21
12.82211611142227
 31
0.0
 70
   160
  1
%%c<>
 71
     2
 42
1.498732222844469
 52
-270.0
  3
SLDDIMSTYLE0
100
AcDbAlignedDimension
 13
27.39711431702995
 23
-0.7493661114222354
 33
0.0
 14
27.39711431702986
 24
0.7493661114222334
 34
0.0
 50
90.0000000000002
100
AcDbRotatedDimension
  0
DIMENSION
  5
112
330
1F
100
AcDbEntity
  8
치수문자_일반주서
100
AcDbDimension
  2
_D_1
 10
27.39711431702995
 20
24.23841044024269
 30
0.0
 11
-2.602885682970044
 21
24.23841044024269
 31
0.0
 70
   160
  1
<>
 71
     2
 42
60.0
  3
SLDDIMSTYLE1
100
AcDbAlignedDimension
 13
-32.60288568297005
 23
2.449999999999995
 33
0.0
 14
27.39711431702995
 24
0.7493661114222377
 34
0.0
 50
-0.0000000000000034
100
AcDbRotatedDimension
  0
DIMENSION
  5
11D
330
1F
100
AcDbEntity
  8
치수문자_일반주서
100
AcDbDimension
  2
_D_2
 10
27.39711431702986
 20
14.09699780616752
 30
0.0
 11
19.39711431702995
 21
14.09699780616752
 31
0.0
 70
   160
  1
<>
 71
     2
 42
15.9999999999999
  3
SLDDIMSTYLE2
100
AcDbAlignedDimension
 13
11.39711431702995
 23
0.7500000000000002
 33
0.0
 14
27.39711431702986
 24
0.7493661114222335
 34
0.0
100
AcDbRotatedDimension
  0
DIMENSION
  5
12A
330
1F
100
AcDbEntity
  8
치수문자_일반주서
100
AcDbDimension
  2
_D_3
 10
-39.21498440551122
 20
-3.000000000000027
 30
0.0
 11
-39.21498440551127
 21
12.66649999999997
 31
0.0
 70
   160
  1
%%c<>
 71
     2
 42
5.999999999999996
 52
-270.0
  3
SLDDIMSTYLE2
100
AcDbAlignedDimension
 13
-32.05288568297004
 23
2.999999999999996
 33
0.0
 14
-32.05288568297004
 24
-3.0
 34
0.0
 50
90.0000000000002
100
AcDbRotatedDimension
  0
INSERT
  5
13D
330
1F
100
AcDbEntity
  8
외형선
100
AcDbBlockReference
  2
SW_DOWELSYMBOL_0
 10
0.0000000000000104
 20
0.0
 30
0.0
  0
ENDSEC
  0
SECTION
  2
OBJECTS
  0
DICTIONARY
  5
C
330
0
100
AcDbDictionary
281
     1
  3
ACAD_GROUP
350
D
  3
ACAD_IMAGE_VARS
350
161
  3
ACAD_LAYOUT
350
1A
  3
ACAD_MLINESTYLE
350
17
  3
ACAD_PLOTSETTINGS
350
19
  3
ACAD_PLOTSTYLENAME
350
E
  3
ACAD_SCALELIST
350
47
  3
APPDATA
350
15F
  3
DWGPROPS
350
190
  0
DICTIONARY
  5
D
102
{ACAD_REACTORS
330
C
102
}
330
C
100
AcDbDictionary
281
     1
  0
RASTERVARIABLES
  5
161
102
{ACAD_REACTORS
330
C
102
}
330
C
100
AcDbRasterVariables
 90
        0
 70
     1
 71
     1
 72
     1
  0
DICTIONARY
  5
1A
102
{ACAD_REACTORS
330
C
102
}
330
C
100
AcDbDictionary
281
     1
  3
Layout1
350
1E
  3
Layout2
350
26
  3
Model
350
22
  0
DICTIONARY
  5
17
102
{ACAD_REACTORS
330
C
102
}
330
C
100
AcDbDictionary
281
     1
  3
Standard
350
18
  0
DICTIONARY
  5
19
102
{ACAD_REACTORS
330
C
102
}
330
C
100
AcDbDictionary
281
     1
  0
ACDBDICTIONARYWDFLT
  5
E
102
{ACAD_REACTORS
330
C
102
}
330
C
100
AcDbDictionary
281
     1
  3
Normal
350
F
100
AcDbDictionaryWithDefault
340
F
  0
DICTIONARY
  5
47
102
{ACAD_REACTORS
330
C
102
}
330
C
100
AcDbDictionary
281
     1
  3
A0
350
48
  3
A1
350
49
  3
A2
350
4A
  3
A3
350
4B
  3
A4
350
4C
  3
A5
350
4D
  3
A6
350
4E
  3
A7
350
4F
  3
A8
350
50
  3
A9
350
51
  3
B0
350
52
  3
B1
350
53
  3
B2
350
54
  3
B3
350
55
  3
B4
350
56
  3
B5
350
57
  3
B6
350
58
  3
B7
350
59
  3
B8
350
5A
  3
B9
350
5B
  3
C0
350
5C
  3
C1
350
5D
  3
C2
350
5E
  3
C3
350
5F
  3
C4
350
60
  3
C5
350
61
  3
C6
350
62
  3
C7
350
63
  3
C8
350
64
  3
C9
350
65
  3
D0
350
66
  3
D1
350
67
  3
D2
350
68
  0
DICTIONARY
  5
15F
102
{ACAD_REACTORS
330
C
102
}
330
C
100
AcDbDictionary
281
     1
  0
XRECORD
  5
190
102
{ACAD_REACTORS
330
C
102
}
330
C
100
AcDbXrecord
280
     1
  1
DWGPROPS COOKIE
  2

  3

  4

  6

  7

  8
12014102
  9

300
=
301
=
302
=
303
=
304
=
305
=
306
=
307
=
308
=
309
=
 40
0.0
 41
2458262.159971748
 42
2458264.397399664
  1

 90
        0
  0
LAYOUT
  5
1E
102
{ACAD_REACTORS
330
1A
102
}
330
1A
100
AcDbPlotSettings
  1

  2
none_device
  4

  6

 40
0.0
 41
0.0
 42
0.0
 43
0.0
 44
0.0
 45
0.0
 46
0.0
 47
0.0
 48
0.0
 49
0.0
140
0.0
141
0.0
142
1.0
143
1.0
 70
   688
 72
     1
 73
     0
 74
     5
  7

 75
    16
147
1.0
148
0.0
149
0.0
100
AcDbLayout
  1
Layout1
 70
     1
 71
     1
 10
0.0
 20
0.0
 11
420.0
 21
297.0
 12
0.0
 22
0.0
 32
0.0
 14
1.000000000000000E+20
 24
1.000000000000000E+20
 34
1.000000000000000E+20
 15
-1.000000000000000E+20
 25
-1.000000000000000E+20
 35
-1.000000000000000E+20
146
0.0
 13
0.0
 23
0.0
 33
0.0
 16
1.0
 26
0.0
 36
0.0
 17
0.0
 27
1.0
 37
0.0
 76
     0
330
1B
  0
LAYOUT
  5
26
102
{ACAD_REACTORS
330
1A
102
}
330
1A
100
AcDbPlotSettings
  1

  2
none_device
  4

  6

 40
0.0
 41
0.0
 42
0.0
 43
0.0
 44
0.0
 45
0.0
 46
0.0
 47
0.0
 48
0.0
 49
0.0
140
0.0
141
0.0
142
1.0
143
1.0
 70
   688
 72
     1
 73
     0
 74
     5
  7

 75
    16
147
1.0
148
0.0
149
0.0
100
AcDbLayout
  1
Layout2
 70
     1
 71
     2
 10
0.0
 20
0.0
 11
0.0
 21
0.0
 12
0.0
 22
0.0
 32
0.0
 14
0.0
 24
0.0
 34
0.0
 15
0.0
 25
0.0
 35
0.0
146
0.0
 13
0.0
 23
0.0
 33
0.0
 16
1.0
 26
0.0
 36
0.0
 17
0.0
 27
1.0
 37
0.0
 76
     0
330
23
  0
LAYOUT
  5
22
102
{ACAD_REACTORS
330
1A
102
}
330
1A
100
AcDbPlotSettings
  1

  2
none_device
  4
ANSI_A_(11.00_x_8.50_Inches)
  6

 40
6.35
 41
19.05
 42
6.35000508
 43
19.05000254
 44
279.4
 45
215.9
 46
137.6958576136051
 47
118.4377884955873
 48
0.0
 49
0.0
140
0.0
141
0.0
142
0.1058944507156154
143
1.0
 70
  1696
 72
     0
 73
     0
 74
     0
  7

 75
     0
147
0.0235690232323232
148
0.0
149
0.0
100
AcDbLayout
  1
Model
 70
     1
 71
     0
 10
0.0
 20
0.0
 11
420.0
 21
297.0
 12
0.0
 22
0.0
 32
0.0
 14
-43.58998440551128
 24
-49.97073246008785
 34
0.0
 15
37.57858005194617
 25
28.61341044024269
 35
0.0
146
0.0
 13
0.0
 23
0.0
 33
0.0
 16
1.0
 26
0.0
 36
0.0
 17
0.0
 27
1.0
 37
0.0
 76
     0
330
1F
331
29
  0
MLINESTYLE
  5
18
102
{ACAD_REACTORS
330
17
102
}
330
17
100
AcDbMlineStyle
  2
Standard
 70
     0
  3

 62
   256
 51
90.0
 52
90.0
 71
     2
 49
0.5
 62
   256
  6
BYLAYER
 49
-0.5
 62
   256
  6
BYLAYER
  0
ACDBPLACEHOLDER
  5
F
102
{ACAD_REACTORS
330
E
102
}
330
E
  0
SCALE
  5
48
102
{ACAD_REACTORS
330
47
102
}
330
47
100
AcDbScale
 70
     0
300
1:1
140
1.0
141
1.0
290
     1
  0
SCALE
  5
49
102
{ACAD_REACTORS
330
47
102
}
330
47
100
AcDbScale
 70
     0
300
1:2
140
1.0
141
2.0
290
     0
  0
SCALE
  5
4A
102
{ACAD_REACTORS
330
47
102
}
330
47
100
AcDbScale
 70
     0
300
1:4
140
1.0
141
4.0
290
     0
  0
SCALE
  5
4B
102
{ACAD_REACTORS
330
47
102
}
330
47
100
AcDbScale
 70
     0
300
1:5
140
1.0
141
5.0
290
     0
  0
SCALE
  5
4C
102
{ACAD_REACTORS
330
47
102
}
330
47
100
AcDbScale
 70
     0
300
1:8
140
1.0
141
8.0
290
     0
  0
SCALE
  5
4D
102
{ACAD_REACTORS
330
47
102
}
330
47
100
AcDbScale
 70
     0
300
1:10
140
1.0
141
10.0
290
     0
  0
SCALE
  5
4E
102
{ACAD_REACTORS
330
47
102
}
330
47
100
AcDbScale
 70
     0
300
1:16
140
1.0
141
16.0
290
     0
  0
SCALE
  5
4F
102
{ACAD_REACTORS
330
47
102
}
330
47
100
AcDbScale
 70
     0
300
1:20
140
1.0
141
20.0
290
     0
  0
SCALE
  5
50
102
{ACAD_REACTORS
330
47
102
}
330
47
100
AcDbScale
 70
     0
300
1:30
140
1.0
141
30.0
290
     0
  0
SCALE
  5
51
102
{ACAD_REACTORS
330
47
102
}
330
47
100
AcDbScale
 70
     0
300
1:40
140
1.0
141
40.0
290
     0
  0
SCALE
  5
52
102
{ACAD_REACTORS
330
47
102
}
330
47
100
AcDbScale
 70
     0
300
1:50
140
1.0
141
50.0
290
     0
  0
SCALE
  5
53
102
{ACAD_REACTORS
330
47
102
}
330
47
100
AcDbScale
 70
     0
300
1:100
140
1.0
141
100.0
290
     0
  0
SCALE
  5
54
102
{ACAD_REACTORS
330
47
102
}
330
47
100
AcDbScale
 70
     0
300
2:1
140
2.0
141
1.0
290
     0
  0
SCALE
  5
55
102
{ACAD_REACTORS
330
47
102
}
330
47
100
AcDbScale
 70
     0
300
4:1
140
4.0
141
1.0
290
     0
  0
SCALE
  5
56
102
{ACAD_REACTORS
330
47
102
}
330
47
100
AcDbScale
 70
     0
300
8:1
140
8.0
141
1.0
290
     0
  0
SCALE
  5
57
102
{ACAD_REACTORS
330
47
102
}
330
47
100
AcDbScale
 70
     0
300
10:1
140
10.0
141
1.0
290
     0
  0
SCALE
  5
58
102
{ACAD_REACTORS
330
47
102
}
330
47
100
AcDbScale
 70
     0
300
100:1
140
100.0
141
1.0
290
     0
  0
SCALE
  5
59
102
{ACAD_REACTORS
330
47
102
}
330
47
100
AcDbScale
 70
     0
300
1/128" = 1'-0"
140
0.0078125
141
12.0
290
     0
  0
SCALE
  5
5A
102
{ACAD_REACTORS
330
47
102
}
330
47
100
AcDbScale
 70
     0
300
1/64" = 1'-0"
140
0.015625
141
12.0
290
     0
  0
SCALE
  5
5B
102
{ACAD_REACTORS
330
47
102
}
330
47
100
AcDbScale
 70
     0
300
1/32" = 1'-0"
140
0.03125
141
12.0
290
     0
  0
SCALE
  5
5C
102
{ACAD_REACTORS
330
47
102
}
330
47
100
AcDbScale
 70
     0
300
1/16" = 1'-0"
140
0.0625
141
12.0
290
     0
  0
SCALE
  5
5D
102
{ACAD_REACTORS
330
47
102
}
330
47
100
AcDbScale
 70
     0
300
3/32" = 1'-0"
140
0.09375
141
12.0
290
     0
  0
SCALE
  5
5E
102
{ACAD_REACTORS
330
47
102
}
330
47
100
AcDbScale
 70
     0
300
1/8" = 1'-0"
140
0.125
141
12.0
290
     0
  0
SCALE
  5
5F
102
{ACAD_REACTORS
330
47
102
}
330
47
100
AcDbScale
 70
     0
300
3/16" = 1'-0"
140
0.1875
141
12.0
290
     0
  0
SCALE
  5
60
102
{ACAD_REACTORS
330
47
102
}
330
47
100
AcDbScale
 70
     0
300
1/4" = 1'-0"
140
0.25
141
12.0
290
     0
  0
SCALE
  5
61
102
{ACAD_REACTORS
330
47
102
}
330
47
100
AcDbScale
 70
     0
300
3/8" = 1'-0"
140
0.375
141
12.0
290
     0
  0
SCALE
  5
62
102
{ACAD_REACTORS
330
47
102
}
330
47
100
AcDbScale
 70
     0
300
1/2" = 1'-0"
140
0.5
141
12.0
290
     0
  0
SCALE
  5
63
102
{ACAD_REACTORS
330
47
102
}
330
47
100
AcDbScale
 70
     0
300
3/4" = 1'-0"
140
0.75
141
12.0
290
     0
  0
SCALE
  5
64
102
{ACAD_REACTORS
330
47
102
}
330
47
100
AcDbScale
 70
     0
300
1" = 1'-0"
140
1.0
141
12.0
290
     0
  0
SCALE
  5
65
102
{ACAD_REACTORS
330
47
102
}
330
47
100
AcDbScale
 70
     0
300
1-1/2" = 1'-0"
140
1.5
141
12.0
290
     0
  0
SCALE
  5
66
102
{ACAD_REACTORS
330
47
102
}
330
47
100
AcDbScale
 70
     0
300
3" = 1'-0"
140
3.0
141
12.0
290
     0
  0
SCALE
  5
67
102
{ACAD_REACTORS
330
47
102
}
330
47
100
AcDbScale
 70
     0
300
6" = 1'-0"
140
6.0
141
12.0
290
     0
  0
SCALE
  5
68
102
{ACAD_REACTORS
330
47
102
}
330
47
100
AcDbScale
 70
     0
300
1'-0" = 1'-0"
140
12.0
141
12.0
290
     0
  0
ENDSEC
  0
EOF
