  0
SECTION
  2
HEADER
  9
$ACADVER
  1
AC1015
  9
$ACADMAINTVER
 70
     6
  9
$DWGCODEPAGE
  3
ANSI_949
  9
$INSBASE
 10
0.0
 20
0.0
 30
0.0
  9
$EXTMIN
 10
-56.91135363351739
 20
-49.97180738881174
 30
0.0
  9
$EXTMAX
 10
38.24314504107366
 20
28.61448536896658
 30
0.0
  9
$LIMMIN
 10
0.0
 20
0.0
  9
$LIMMAX
 10
420.0
 20
297.0
  9
$ORTHOMODE
 70
     1
  9
$REGENMODE
 70
     1
  9
$FILLMODE
 70
     1
  9
$QTEXTMODE
 70
     0
  9
$MIRRTEXT
 70
     1
  9
$LTSCALE
 40
1.0
  9
$ATTMODE
 70
     1
  9
$TEXTSIZE
 40
3.5
  9
$TRACEWID
 40
1.0
  9
$TEXTSTYLE
  7
Standard
  9
$CLAYER
  8
0
  9
$CELTYPE
  6
ByLayer
  9
$CECOLOR
 62
   256
  9
$CELTSCALE
 40
1.0
  9
$DISPSILH
 70
     0
  9
$DIMSCALE
 40
1.0
  9
$DIMASZ
 40
3.302
  9
$DIMEXO
 40
1.0
  9
$DIMDLI
 40
3.75
  9
$DIMRND
 40
0.0
  9
$DIMDLE
 40
0.0
  9
$DIMEXE
 40
1.0
  9
$DIMTP
 40
0.0
  9
$DIMTM
 40
0.0
  9
$DIMTXT
 40
3.5
  9
$DIMCEN
 40
2.5
  9
$DIMTSZ
 40
0.0
  9
$DIMTOL
 70
     0
  9
$DIMLIM
 70
     0
  9
$DIMTIH
 70
     1
  9
$DIMTOH
 70
     1
  9
$DIMSE1
 70
     0
  9
$DIMSE2
 70
     0
  9
$DIMTAD
 70
     1
  9
$DIMZIN
 70
     0
  9
$DIMBLK
  1

  9
$DIMASO
 70
     1
  9
$DIMSHO
 70
     1
  9
$DIMPOST
  1

  9
$DIMAPOST
  1

  9
$DIMALT
 70
     0
  9
$DIMALTD
 70
     3
  9
$DIMALTF
 40
0.0393700787401575
  9
$DIMLFAC
 40
1.0
  9
$DIMTOFL
 70
     1
  9
$DIMTVP
 40
0.0
  9
$DIMTIX
 70
     0
  9
$DIMSOXD
 70
     0
  9
$DIMSAH
 70
     0
  9
$DIMBLK1
  1

  9
$DIMBLK2
  1

  9
$DIMSTYLE
  2
ISO-25
  9
$DIMCLRD
 70
     0
  9
$DIMCLRE
 70
     0
  9
$DIMCLRT
 70
     0
  9
$DIMTFAC
 40
1.0
  9
$DIMGAP
 40
1.524
  9
$DIMJUST
 70
     0
  9
$DIMSD1
 70
     0
  9
$DIMSD2
 70
     0
  9
$DIMTOLJ
 70
     0
  9
$DIMTZIN
 70
     0
  9
$DIMALTZ
 70
     0
  9
$DIMALTTZ
 70
     0
  9
$DIMUPT
 70
     0
  9
$DIMDEC
 70
     2
  9
$DIMTDEC
 70
     2
  9
$DIMALTU
 70
     2
  9
$DIMALTTD
 70
     3
  9
$DIMTXSTY
  7
Standard
  9
$DIMAUNIT
 70
     0
  9
$DIMADEC
 70
     2
  9
$DIMALTRND
 40
0.0
  9
$DIMAZIN
 70
     0
  9
$DIMDSEP
 70
    44
  9
$DIMATFIT
 70
     3
  9
$DIMFRAC
 70
     0
  9
$DIMLDRBLK
  1

  9
$DIMLUNIT
 70
     2
  9
$DIMLWD
 70
    -2
  9
$DIMLWE
 70
    -2
  9
$DIMTMOVE
 70
     0
  9
$LUNITS
 70
     2
  9
$LUPREC
 70
     2
  9
$SKETCHINC
 40
1.0
  9
$FILLETRAD
 40
10.0
  9
$AUNITS
 70
     0
  9
$AUPREC
 70
     2
  9
$MENU
  1
.
  9
$ELEVATION
 40
0.0
  9
$PELEVATION
 40
0.0
  9
$THICKNESS
 40
0.0
  9
$LIMCHECK
 70
     0
  9
$CHAMFERA
 40
0.0
  9
$CHAMFERB
 40
0.0
  9
$CHAMFERC
 40
0.0
  9
$CHAMFERD
 40
0.0
  9
$SKPOLY
 70
     0
  9
$TDCREATE
 40
2458262.534220463
  9
$TDUCREATE
 40
2458262.159220463
  9
$TDUPDATE
 40
2458264.770887269
  9
$TDUUPDATE
 40
2458264.395887269
  9
$TDINDWG
 40
0.0056373958
  9
$TDUSRTIMER
 40
2458264.395644225
  9
$USRTIMER
 70
     1
  9
$ANGBASE
 50
0.0
  9
$ANGDIR
 70
     0
  9
$PDMODE
 70
     0
  9
$PDSIZE
 40
-1.0
  9
$PLINEWID
 40
0.0
  9
$SPLFRAME
 70
     0
  9
$SPLINETYPE
 70
     6
  9
$SPLINESEGS
 70
     8
  9
$HANDSEED
  5
198
  9
$SURFTAB1
 70
     6
  9
$SURFTAB2
 70
     6
  9
$SURFTYPE
 70
     6
  9
$SURFU
 70
     6
  9
$SURFV
 70
     6
  9
$UCSBASE
  2

  9
$UCSNAME
  2

  9
$UCSORG
 10
0.0
 20
0.0
 30
0.0
  9
$UCSXDIR
 10
1.0
 20
0.0
 30
0.0
  9
$UCSYDIR
 10
0.0
 20
1.0
 30
0.0
  9
$UCSORTHOREF
  2

  9
$UCSORTHOVIEW
 70
     0
  9
$UCSORGTOP
 10
0.0
 20
0.0
 30
0.0
  9
$UCSORGBOTTOM
 10
0.0
 20
0.0
 30
0.0
  9
$UCSORGLEFT
 10
0.0
 20
0.0
 30
0.0
  9
$UCSORGRIGHT
 10
0.0
 20
0.0
 30
0.0
  9
$UCSORGFRONT
 10
0.0
 20
0.0
 30
0.0
  9
$UCSORGBACK
 10
0.0
 20
0.0
 30
0.0
  9
$PUCSBASE
  2

  9
$PUCSNAME
  2

  9
$PUCSORG
 10
0.0
 20
0.0
 30
0.0
  9
$PUCSXDIR
 10
1.0
 20
0.0
 30
0.0
  9
$PUCSYDIR
 10
0.0
 20
1.0
 30
0.0
  9
$PUCSORTHOREF
  2

  9
$PUCSORTHOVIEW
 70
     0
  9
$PUCSORGTOP
 10
0.0
 20
0.0
 30
0.0
  9
$PUCSORGBOTTOM
 10
0.0
 20
0.0
 30
0.0
  9
$PUCSORGLEFT
 10
0.0
 20
0.0
 30
0.0
  9
$PUCSORGRIGHT
 10
0.0
 20
0.0
 30
0.0
  9
$PUCSORGFRONT
 10
0.0
 20
0.0
 30
0.0
  9
$PUCSORGBACK
 10
0.0
 20
0.0
 30
0.0
  9
$USERI1
 70
     0
  9
$USERI2
 70
     0
  9
$USERI3
 70
     0
  9
$USERI4
 70
     0
  9
$USERI5
 70
     0
  9
$USERR1
 40
0.0
  9
$USERR2
 40
0.0
  9
$USERR3
 40
0.0
  9
$USERR4
 40
0.0
  9
$USERR5
 40
0.0
  9
$WORLDVIEW
 70
     1
  9
$SHADEDGE
 70
     3
  9
$SHADEDIF
 70
    70
  9
$TILEMODE
 70
     1
  9
$MAXACTVP
 70
    64
  9
$PINSBASE
 10
0.0
 20
0.0
 30
0.0
  9
$PLIMCHECK
 70
     0
  9
$PEXTMIN
 10
1.000000000000000E+20
 20
1.000000000000000E+20
 30
1.000000000000000E+20
  9
$PEXTMAX
 10
-1.000000000000000E+20
 20
-1.000000000000000E+20
 30
-1.000000000000000E+20
  9
$PLIMMIN
 10
0.0
 20
0.0
  9
$PLIMMAX
 10
0.0
 20
0.0
  9
$UNITMODE
 70
     0
  9
$VISRETAIN
 70
     1
  9
$PLINEGEN
 70
     0
  9
$PSLTSCALE
 70
     1
  9
$TREEDEPTH
 70
  3020
  9
$CMLSTYLE
  2
Standard
  9
$CMLJUST
 70
     0
  9
$CMLSCALE
 40
20.0
  9
$PROXYGRAPHICS
 70
     1
  9
$MEASUREMENT
 70
     1
  9
$CELWEIGHT
370
    -1
  9
$ENDCAPS
280
     0
  9
$JOINSTYLE
280
     0
  9
$LWDISPLAY
290
     1
  9
$INSUNITS
 70
     4
  9
$HYPERLINKBASE
  1

  9
$STYLESHEET
  1

  9
$XEDIT
290
     1
  9
$CEPSNTYPE
380
     0
  9
$PSTYLEMODE
290
     1
  9
$FINGERPRINTGUID
  2
{DFF00EB4-C00D-45F3-9735-8F114FC37B83}
  9
$VERSIONGUID
  2
{FAEB1C32-E019-11D5-929B-00C0DF256EC4}
  9
$EXTNAMES
290
     1
  9
$PSVPSCALE
 40
0.0
  9
$OLESTARTUP
290
     0
  0
ENDSEC
  0
SECTION
  2
CLASSES
  0
CLASS
  1
ACDBDICTIONARYWDFLT
  2
AcDbDictionaryWithDefault
  3
ObjectDBX Classes
 90
        0
280
     0
281
     0
  0
CLASS
  1
VISUALSTYLE
  2
AcDbVisualStyle
  3
ObjectDBX Classes
 90
     4095
280
     0
281
     0
  0
CLASS
  1
MATERIAL
  2
AcDbMaterial
  3
ObjectDBX Classes
 90
     1153
280
     0
281
     0
  0
CLASS
  1
SCALE
  2
AcDbScale
  3
ObjectDBX Classes
 90
     1153
280
     0
281
     0
  0
CLASS
  1
SUN
  2
AcDbSun
  3
SCENEOE
 90
     1153
280
     0
281
     0
  0
CLASS
  1
ACDBPLACEHOLDER
  2
AcDbPlaceHolder
  3
ObjectDBX Classes
 90
        0
280
     0
281
     0
  0
CLASS
  1
LAYOUT
  2
AcDbLayout
  3
ObjectDBX Classes
 90
        0
280
     0
281
     0
  0
CLASS
  1
TABLESTYLE
  2
AcDbTableStyle
  3
ObjectDBX Classes
 90
     4095
280
     0
281
     0
  0
CLASS
  1
MLEADERSTYLE
  2
AcDbMLeaderStyle
  3
ACDB_MLEADERSTYLE_CLASS
 90
     4095
280
     0
281
     0
  0
CLASS
  1
RASTERVARIABLES
  2
AcDbRasterVariables
  3
ISM
 90
        0
280
     0
281
     0
  0
ENDSEC
  0
SECTION
  2
TABLES
  0
TABLE
  2
VPORT
  5
8
330
0
100
AcDbSymbolTable
 70
     1
  0
VPORT
  5
29
330
8
100
AcDbSymbolTableRecord
100
AcDbViewportTableRecord
  2
*Active
 70
     0
 10
0.0
 20
0.0
 11
1.0
 21
1.0
 12
-9.334104296221867
 22
-10.67866100992258
 13
0.0
 23
0.0
 14
10.0
 24
10.0
 15
10.0
 25
10.0
 16
0.0
 26
0.0
 36
1.0
 17
0.0
 27
0.0
 37
0.0
 40
80.15801861293389
 41
1.319640564826701
 42
50.0
 43
0.0
 44
0.0
 50
0.0
 51
0.0
 71
    16
 72
  2000
 73
     1
 74
     3
 75
     0
 76
     0
 77
     0
 78
     0
281
     0
 65
     1
110
0.0
120
0.0
130
0.0
111
1.0
121
0.0
131
0.0
112
0.0
122
1.0
132
0.0
 79
     0
146
0.0
  0
ENDTAB
  0
TABLE
  2
LTYPE
  5
5
330
0
100
AcDbSymbolTable
 70
     6
  0
LTYPE
  5
14
330
5
100
AcDbSymbolTableRecord
100
AcDbLinetypeTableRecord
  2
ByBlock
 70
     0
  3

 72
    65
 73
     0
 40
0.0
  0
LTYPE
  5
15
330
5
100
AcDbSymbolTableRecord
100
AcDbLinetypeTableRecord
  2
ByLayer
 70
     0
  3

 72
    65
 73
     0
 40
0.0
  0
LTYPE
  5
16
330
5
100
AcDbSymbolTableRecord
100
AcDbLinetypeTableRecord
  2
Continuous
 70
     0
  3
Solid line
 72
    65
 73
     0
 40
0.0
  0
LTYPE
  5
6A
330
5
100
AcDbSymbolTableRecord
100
AcDbLinetypeTableRecord
  2
HIDDEN
 70
     0
  3
Hidden __ __ __ __ __ __ __ __ __ __ __ __ __ __
 72
    65
 73
     2
 40
1.905
 49
1.27
 74
     0
 49
-0.635
 74
     0
  0
LTYPE
  5
6B
330
5
100
AcDbSymbolTableRecord
100
AcDbLinetypeTableRecord
  2
PHANTOM
 70
     0
  3
Phantom ______  __  __  ______  __  __  ______
 72
    65
 73
     6
 40
12.7
 49
6.35
 74
     0
 49
-1.27
 74
     0
 49
1.27
 74
     0
 49
-1.27
 74
     0
 49
1.27
 74
     0
 49
-1.27
 74
     0
  0
LTYPE
  5
6C
330
5
100
AcDbSymbolTableRecord
100
AcDbLinetypeTableRecord
  2
CENTER
 70
     0
  3
Center ____ _ ____ _ ____ _ ____ _ ____ _ ____
 72
    65
 73
     4
 40
10.16
 49
6.35
 74
     0
 49
-1.27
 74
     0
 49
1.27
 74
     0
 49
-1.27
 74
     0
  0
LTYPE
  5
6D
330
5
100
AcDbSymbolTableRecord
100
AcDbLinetypeTableRecord
  2
CENTERX2
 70
     0
  3
Center (2x) ________  __  ________  __  _____
 72
    65
 73
     4
 40
20.32
 49
12.7
 74
     0
 49
-2.54
 74
     0
 49
2.54
 74
     0
 49
-2.54
 74
     0
  0
LTYPE
  5
6E
330
5
100
AcDbSymbolTableRecord
100
AcDbLinetypeTableRecord
  2
DOT2
 70
     0
  3
Dot (.5x) ........................................
 72
    65
 73
     2
 40
0.635
 49
0.0
 74
     0
 49
-0.635
 74
     0
  0
ENDTAB
  0
TABLE
  2
LAYER
  5
2
330
0
100
AcDbSymbolTable
 70
    17
  0
LAYER
  5
10
330
2
100
AcDbSymbolTableRecord
100
AcDbLayerTableRecord
  2
0
 70
     0
 62
     7
  6
Continuous
370
    -3
390
F
  0
LAYER
  5
6F
330
2
100
AcDbSymbolTableRecord
100
AcDbLayerTableRecord
  2
FORMAT
 70
     0
 62
     2
  6
Continuous
370
    -3
390
F
  0
LAYER
  5
70
330
2
100
AcDbSymbolTableRecord
100
AcDbLayerTableRecord
  2
외형선
 70
     0
 62
   100
  6
Continuous
370
    30
390
F
  0
LAYER
  5
71
330
2
100
AcDbSymbolTableRecord
100
AcDbLayerTableRecord
  2
숨은선
 70
     0
 62
     2
  6
HIDDEN
370
    15
390
F
  0
LAYER
  5
72
330
2
100
AcDbSymbolTableRecord
100
AcDbLayerTableRecord
  2
중심선
 70
     0
 62
     1
  6
CENTERX2
370
    -3
390
F
  0
LAYER
  5
73
330
2
100
AcDbSymbolTableRecord
100
AcDbLayerTableRecord
  2
파단선
 70
     0
 62
     4
  6
Continuous
370
    -3
390
F
  0
LAYER
  5
74
330
2
100
AcDbSymbolTableRecord
100
AcDbLayerTableRecord
  2
해칭선
 70
     0
 62
     4
  6
Continuous
370
    -3
390
F
  0
LAYER
  5
75
330
2
100
AcDbSymbolTableRecord
100
AcDbLayerTableRecord
  2
가는실선
 70
     0
 62
     4
  6
Continuous
370
    -3
390
F
  0
LAYER
  5
76
330
2
100
AcDbSymbolTableRecord
100
AcDbLayerTableRecord
  2
치수_보조선
 70
     0
 62
     4
  6
Continuous
370
    -3
390
F
  0
LAYER
  5
77
330
2
100
AcDbSymbolTableRecord
100
AcDbLayerTableRecord
  2
치수문자_일반주서
 70
     0
 62
     7
  6
Continuous
370
    15
390
F
  0
LAYER
  5
78
330
2
100
AcDbSymbolTableRecord
100
AcDbLayerTableRecord
  2
개별주서
 70
     0
 62
   100
  6
Continuous
370
    30
390
F
  0
LAYER
  5
79
330
2
100
AcDbSymbolTableRecord
100
AcDbLayerTableRecord
  2
중간선
 70
     0
 62
     2
  6
Continuous
370
    15
390
F
  0
LAYER
  5
7A
330
2
100
AcDbSymbolTableRecord
100
AcDbLayerTableRecord
  2
윤곽선
 70
     0
 62
     3
  6
Continuous
370
    40
390
F
  0
LAYER
  5
7B
330
2
100
AcDbSymbolTableRecord
100
AcDbLayerTableRecord
  2
중심마크
 70
     0
 62
   100
  6
Continuous
370
    30
390
F
  0
LAYER
  5
7C
330
2
100
AcDbSymbolTableRecord
100
AcDbLayerTableRecord
  2
가상선
 70
     0
 62
     4
  6
PHANTOM
370
    -3
390
F
  0
LAYER
  5
7D
330
2
100
AcDbSymbolTableRecord
100
AcDbLayerTableRecord
  2
특수지정선
 70
     0
 62
     5
  6
CENTERX2
370
    60
390
F
  0
LAYER
  5
146
330
2
100
AcDbSymbolTableRecord
100
AcDbLayerTableRecord
  2
Defpoints
 70
     0
 62
     7
  6
Continuous
290
     0
370
    -3
390
F
  0
ENDTAB
  0
TABLE
  2
STYLE
  5
3
330
0
100
AcDbSymbolTable
 70
     2
  0
STYLE
  5
11
330
3
100
AcDbSymbolTableRecord
100
AcDbTextStyleTableRecord
  2
Standard
 70
     0
 40
0.0
 41
1.0
 50
0.0
 71
     0
 42
3.5
  3
txt
  4

  0
STYLE
  5
93
330
3
100
AcDbSymbolTableRecord
100
AcDbTextStyleTableRecord
  2
SLDTEXTSTYLE0
 70
     0
 40
0.0
 41
0.75
 50
0.0
 71
     0
 42
3.5
  3
TXT
  4

  0
ENDTAB
  0
TABLE
  2
VIEW
  5
6
330
0
100
AcDbSymbolTable
 70
     0
  0
ENDTAB
  0
TABLE
  2
UCS
  5
7
330
0
100
AcDbSymbolTable
 70
     0
  0
ENDTAB
  0
TABLE
  2
APPID
  5
9
330
0
100
AcDbSymbolTable
 70
     1
  0
APPID
  5
12
330
9
100
AcDbSymbolTableRecord
100
AcDbRegAppTableRecord
  2
ACAD
 70
     0
  0
ENDTAB
  0
TABLE
  2
DIMSTYLE
  5
A
330
0
100
AcDbSymbolTable
 70
     4
100
AcDbDimStyleTable
  0
DIMSTYLE
105
27
330
A
100
AcDbSymbolTableRecord
100
AcDbDimStyleTableRecord
  2
ISO-25
 70
     0
 41
2.5
 42
0.625
 43
3.75
 44
1.25
 73
     0
 74
     0
 77
     1
 78
     8
140
2.5
141
2.5
143
0.03937007874016
147
0.625
171
     3
172
     1
178
     0
271
     2
272
     2
274
     3
278
    44
283
     0
284
     8
340
11
  0
DIMSTYLE
105
E9
102
{ACAD_REACTORS
330
E8
102
}
330
A
100
AcDbSymbolTableRecord
100
AcDbDimStyleTableRecord
  2
SLDDIMSTYLE0
 70
     0
 41
3.302
 44
0.0
 45
0.000000001
 73
     0
 74
     0
 77
     1
 78
     4
 79
     1
140
3.5
147
0.875
172
     1
173
     1
178
     0
271
     2
272
     2
276
     2
284
    12
289
     0
340
93
  0
DIMSTYLE
105
F7
102
{ACAD_REACTORS
330
F6
102
}
330
A
100
AcDbSymbolTableRecord
100
AcDbDimStyleTableRecord
  2
SLDDIMSTYLE1
 70
     0
 41
3.302
 44
0.0
 45
0.000000001
 73
     0
 74
     0
 77
     1
 78
    12
 79
     3
140
3.5
147
0.875
173
     1
178
     0
271
     2
272
     2
276
     2
284
    12
340
93
  0
DIMSTYLE
105
102
102
{ACAD_REACTORS
330
101
330
10E
102
}
330
A
100
AcDbSymbolTableRecord
100
AcDbDimStyleTableRecord
  2
SLDDIMSTYLE2
 70
     0
 41
3.302
 44
0.0
 45
0.000000001
 73
     0
 74
     0
 77
     1
 78
    12
 79
     3
140
3.5
147
0.875
172
     1
173
     1
178
     0
271
     2
272
     2
276
     2
284
    12
289
     0
340
93
  0
ENDTAB
  0
TABLE
  2
BLOCK_RECORD
  5
1
330
0
100
AcDbSymbolTable
 70
     7
  0
BLOCK_RECORD
  5
1F
330
1
100
AcDbSymbolTableRecord
100
AcDbBlockTableRecord
  2
*Model_Space
340
22
  0
BLOCK_RECORD
  5
1B
330
1
100
AcDbSymbolTableRecord
100
AcDbBlockTableRecord
  2
*Paper_Space
340
1E
  0
BLOCK_RECORD
  5
23
330
1
100
AcDbSymbolTableRecord
100
AcDbBlockTableRecord
  2
*Paper_Space0
340
26
  0
BLOCK_RECORD
  5
7E
330
1
100
AcDbSymbolTableRecord
100
AcDbBlockTableRecord
  2
블럭10
340
0
102
{BLKREFS
331
E1
102
}
  0
BLOCK_RECORD
  5
EA
330
1
100
AcDbSymbolTableRecord
100
AcDbBlockTableRecord
  2
_D
340
0
  0
BLOCK_RECORD
  5
F8
330
1
100
AcDbSymbolTableRecord
100
AcDbBlockTableRecord
  2
_D_1
340
0
  0
BLOCK_RECORD
  5
103
330
1
100
AcDbSymbolTableRecord
100
AcDbBlockTableRecord
  2
_D_2
340
0
  0
BLOCK_RECORD
  5
10F
330
1
100
AcDbSymbolTableRecord
100
AcDbBlockTableRecord
  2
_D_3
340
0
  0
BLOCK_RECORD
  5
11B
330
1
100
AcDbSymbolTableRecord
100
AcDbBlockTableRecord
  2
SW_DOWELSYMBOL_0
340
0
102
{BLKREFS
331
121
102
}
  0
ENDTAB
  0
ENDSEC
  0
SECTION
  2
BLOCKS
  0
BLOCK
  5
20
330
1F
100
AcDbEntity
  8
0
100
AcDbBlockBegin
  2
*Model_Space
 70
     0
 10
0.0
 20
0.0
 30
0.0
  3
*Model_Space
  1

  0
ENDBLK
  5
21
330
1F
100
AcDbEntity
  8
0
100
AcDbBlockEnd
  0
BLOCK
  5
1C
330
1B
100
AcDbEntity
 67
     1
  8
0
100
AcDbBlockBegin
  2
*Paper_Space
 70
     0
 10
0.0
 20
0.0
 30
0.0
  3
*Paper_Space
  1

  0
ENDBLK
  5
1D
330
1B
100
AcDbEntity
 67
     1
  8
0
100
AcDbBlockEnd
  0
BLOCK
  5
24
330
23
100
AcDbEntity
  8
0
100
AcDbBlockBegin
  2
*Paper_Space0
 70
     0
 10
0.0
 20
0.0
 30
0.0
  3
*Paper_Space0
  1

  0
ENDBLK
  5
25
330
23
100
AcDbEntity
  8
0
100
AcDbBlockEnd
  0
BLOCK
  5
7F
330
7E
100
AcDbEntity
  8
0
100
AcDbBlockBegin
  2
블럭10
 70
     2
 10
0.0
 20
0.0
 30
0.0
  3
블럭10
  1

  0
ELLIPSE
  5
81
330
7E
100
AcDbEntity
  8
중심선
100
AcDbEllipse
 10
20.54032771741204
 20
12.0471743016438
 30
0.0
 11
6.600054785286829
 21
-1.261213355974178E-13
 31
0.0
210
0.0
220
0.0
230
1.0
 40
0.636358354079598
 41
0.9219305317359503
 42
6.513795318482858
  0
ELLIPSE
  5
82
330
7E
100
AcDbEntity
  8
중심선
100
AcDbEllipse
 10
20.54032771746488
 20
12.04717430159265
 30
0.0
 11
3.960054785062283
 21
1.540847449632565E-10
 31
0.0
210
0.0
220
0.0
230
1.0
 40
0.3939339440162632
 41
1.131841032648279
 42
5.62031148352944
  0
LINE
  5
83
330
7E
100
AcDbEntity
  8
중심선
100
AcDbLine
 10
2.268634060543552
 20
16.24717430164393
 30
0.0
 11
5.714909304380834
 21
16.24717430164393
 31
0.0
  0
LINE
  5
84
330
7E
100
AcDbEntity
  8
중심선
100
AcDbLine
 10
5.245725140726316
 20
7.84717430164391
 30
0.0
 11
8.692000384563599
 21
7.84717430164391
 31
0.0
  0
LINE
  5
85
330
7E
100
AcDbEntity
  8
중심선
100
AcDbLine
 10
15.74043728645272
 20
16.24717430164393
 30
0.0
 11
8.692000384563599
 21
7.84717430164391
 31
0.0
  0
LINE
  5
86
330
7E
100
AcDbEntity
  8
중심선
100
AcDbLine
 10
0.1404042013395286
 20
13.71084872107135
 30
0.0
 11
3.58671253028996
 21
13.71088815037384
 31
0.0
  0
LINE
  5
87
330
7E
100
AcDbEntity
  8
중심선
100
AcDbLine
 10
2.750260043222114
 20
10.84717430164391
 30
0.0
 11
6.196535287059397
 21
10.84717430164391
 31
0.0
  0
LINE
  5
88
330
7E
100
AcDbEntity
  8
중심선
100
AcDbLine
 10
12.29416204261559
 20
16.24717430164393
 30
0.0
 11
5.245725140726316
 21
7.84717430164391
 31
0.0
  0
LINE
  5
89
330
7E
100
AcDbEntity
  8
중심선
100
AcDbLine
 10
10.72767329541681
 20
16.24717430164393
 30
0.0
 11
6.196535287059397
 21
10.84717430164391
 31
0.0
  0
LINE
  5
8A
330
7E
100
AcDbEntity
  8
중심선
100
AcDbLine
 10
7.28139805157953
 20
16.24717430164393
 30
0.0
 11
2.750260043222114
 21
10.84717430164391
 31
0.0
  0
LINE
  5
8B
330
7E
100
AcDbEntity
  8
중심선
100
AcDbLine
 10
5.714909304380834
 20
16.24717430164393
 30
0.0
 11
3.58671253028996
 21
13.71088815037384
 31
0.0
  0
LINE
  5
8C
330
7E
100
AcDbEntity
  8
중심선
100
AcDbLine
 10
2.268634060543552
 20
16.24717430164393
 30
0.0
 11
0.1404042013395286
 21
13.71084872107135
 31
0.0
  0
LINE
  5
8D
330
7E
100
AcDbEntity
  8
중심선
100
AcDbLine
 10
7.28139805157953
 20
16.24717430164393
 30
0.0
 11
10.72767329541681
 21
16.24717430164393
 31
0.0
  0
LINE
  5
8E
330
7E
100
AcDbEntity
  8
중심선
100
AcDbLine
 10
12.29416204261559
 20
16.24717430164393
 30
0.0
 11
15.74043728645272
 21
16.24717430164393
 31
0.0
  0
LINE
  5
8F
330
7E
100
AcDbEntity
  8
중심선
100
AcDbLine
 10
19.22036997980202
 20
11.08717430171403
 30
0.0
 11
23.66174974927406
 21
11.08717430171406
 31
0.0
  0
LINE
  5
90
330
7E
100
AcDbEntity
  8
중심선
100
AcDbLine
 10
19.22039502424796
 20
13.00717430171391
 30
0.0
 11
19.22036997980202
 21
11.08717430171403
 31
0.0
  0
LINE
  5
91
330
7E
100
AcDbEntity
  8
중심선
100
AcDbLine
 10
19.22039502424796
 20
13.00717430171391
 30
0.0
 11
26.96566020931264
 21
13.00717430171391
 31
0.0
  0
LINE
  5
92
330
7E
100
AcDbEntity
  8
중심선
100
AcDbLine
 10
22.22332737316547
 20
13.45928029700563
 30
0.0
 11
24.52862924686651
 21
15.39360700705356
 31
0.0
  0
ATTDEF
  5
94
330
7E
100
AcDbEntity
  8
FORMAT
 62
     2
100
AcDbText
 10
-16.11926103943555
 20
2.075366912832191
 30
0.0
 40
4.233333333333333
  1
SEME7001508E [ 2 FLUTE ]
 41
0.75
  7
SLDTEXTSTYLE0
 11
-16.11926103943555
 21
-0.0412997538344756
 31
0.0
100
AcDbAttributeDefinition
  3

  2
AUTOATTR0
 70
     0
 74
     1
  0
ENDBLK
  5
80
330
7E
100
AcDbEntity
  8
0
100
AcDbBlockEnd
  0
BLOCK
  5
EB
330
EA
100
AcDbEntity
  8
0
100
AcDbBlockBegin
  2
_D
 70
     0
 10
0.0
 20
0.0
 30
0.0
  3
_D
  1

  0
LINE
  5
ED
330
EA
100
AcDbEntity
  8
치수문자_일반주서
 62
     0
370
    -2
100
AcDbLine
 10
19.47260438809467
 20
-0.74829118269834
 30
0.0
 11
37.69281170774031
 21
-0.7482911826982726
 31
0.0
  0
LINE
  5
EE
330
EA
100
AcDbEntity
  8
치수문자_일반주서
 62
     0
370
    -2
100
AcDbLine
 10
19.47260438809467
 20
0.750441040146128
 30
0.0
 11
37.6928117077403
 21
0.7504410401461961
 31
0.0
  0
LINE
  5
EF
330
EA
100
AcDbEntity
  8
치수문자_일반주서
 62
     0
370
    -2
100
AcDbLine
 10
37.69281170774031
 20
-0.7482911826982726
 30
0.0
 11
37.69281170774022
 21
18.2919410401462
 31
0.0
  0
LINE
  5
F0
330
EA
100
AcDbEntity
  8
치수문자_일반주서
 62
     0
370
    -2
100
AcDbLine
 10
37.69281170774031
 20
-0.7482911826982726
 30
0.0
 11
37.6928117077403
 21
0.7504410401461961
 31
0.0
  0
LINE
  5
F1
330
EA
100
AcDbEntity
  8
치수문자_일반주서
 62
     0
370
    -2
100
AcDbLine
 10
37.69281170774033
 20
-4.050291182698272
 30
0.0
 11
37.69281170774034
 21
-7.352291182698272
 31
0.0
  0
LINE
  5
F2
330
EA
100
AcDbEntity
  8
치수문자_일반주서
 62
     0
370
    -2
100
AcDbLine
 10
37.69281170774029
 20
4.052441040146196
 30
0.0
 11
37.69281170774028
 21
7.354441040146195
 31
0.0
  0
SOLID
  5
F3
330
EA
100
AcDbEntity
  8
치수문자_일반주서
 62
     0
100
AcDbTrace
 10
38.24314504107366
 20
-4.050291182698269
 30
0.0
 11
37.14247837440699
 21
-4.050291182698275
 31
0.0
 12
37.69281170774031
 22
-0.7482911826982726
 32
0.0
 13
37.69281170774031
 23
-0.7482911826982726
 33
0.0
  0
SOLID
  5
F4
330
EA
100
AcDbEntity
  8
치수문자_일반주서
 62
     0
100
AcDbTrace
 10
37.14247837440696
 20
4.052441040146193
 30
0.0
 11
38.24314504107362
 21
4.052441040146198
 31
0.0
 12
37.6928117077403
 22
0.7504410401461961
 32
0.0
 13
37.6928117077403
 23
0.7504410401461961
 33
0.0
  0
MTEXT
  5
F5
330
EA
100
AcDbEntity
  8
치수문자_일반주서
 62
     0
100
AcDbMText
 10
33.31781170774025
 20
12.82319104014617
 30
0.0
 40
3.5
 41
0.0
 71
     2
 72
     1
  1
\A1;%%c1.50
  7
SLDTEXTSTYLE0
 11
-4.740958557703855E-15
 21
1.0
 31
0.0
 73
     1
 44
1.0
  0
POINT
  5
148
330
EA
100
AcDbEntity
  8
Defpoints
 62
     0
100
AcDbPoint
 10
19.41010438809467
 20
-0.7482911826983403
 30
0.0
  0
POINT
  5
149
330
EA
100
AcDbEntity
  8
Defpoints
 62
     0
100
AcDbPoint
 10
19.41010438809467
 20
0.7504410401461278
 30
0.0
  0
POINT
  5
14A
330
EA
100
AcDbEntity
  8
Defpoints
 62
     0
100
AcDbPoint
 10
37.6928117077403
 20
0.7504410401461961
 30
0.0
  0
ENDBLK
  5
EC
330
EA
100
AcDbEntity
  8
0
100
AcDbBlockEnd
  0
BLOCK
  5
F9
330
F8
100
AcDbEntity
  8
0
100
AcDbBlockBegin
  2
_D_1
 70
     0
 10
0.0
 20
0.0
 30
0.0
  3
_D_1
  1

  0
LINE
  5
FB
330
F8
100
AcDbEntity
  8
치수문자_일반주서
 62
     0
370
    -2
100
AcDbLine
 10
-40.58989561190532
 20
2.513574928723887
 30
0.0
 11
-40.58989561190532
 21
24.23948536896658
 31
0.0
  0
LINE
  5
FC
330
F8
100
AcDbEntity
  8
치수문자_일반주서
 62
     0
370
    -2
100
AcDbLine
 10
19.41010438809467
 20
0.7752805806478194
 30
0.0
 11
19.41010438809467
 21
24.23948536896658
 31
0.0
  0
LINE
  5
FD
330
F8
100
AcDbEntity
  8
치수문자_일반주서
 62
     0
370
    -2
100
AcDbLine
 10
-37.28789561190532
 20
24.23948536896658
 30
0.0
 11
16.10810438809467
 21
24.23948536896658
 31
0.0
  0
SOLID
  5
FE
330
F8
100
AcDbEntity
  8
치수문자_일반주서
 62
     0
100
AcDbTrace
 10
-37.28789561190532
 20
24.78981870229991
 30
0.0
 11
-37.28789561190532
 21
23.68915203563325
 31
0.0
 12
-40.58989561190532
 22
24.23948536896658
 32
0.0
 13
-40.58989561190532
 23
24.23948536896658
 33
0.0
  0
SOLID
  5
FF
330
F8
100
AcDbEntity
  8
치수문자_일반주서
 62
     0
100
AcDbTrace
 10
16.10810438809467
 20
23.68915203563325
 30
0.0
 11
16.10810438809467
 21
24.78981870229991
 31
0.0
 12
19.41010438809467
 22
24.23948536896658
 32
0.0
 13
19.41010438809467
 23
24.23948536896658
 33
0.0
  0
MTEXT
  5
100
330
F8
100
AcDbEntity
  8
치수문자_일반주서
 62
     0
100
AcDbMText
 10
-10.58989561190533
 20
28.61448536896658
 30
0.0
 40
3.5
 41
0.0
 71
     2
 72
     1
  1
\A1;60
  7
SLDTEXTSTYLE0
 73
     1
 44
1.0
  0
POINT
  5
14B
330
F8
100
AcDbEntity
  8
Defpoints
 62
     0
100
AcDbPoint
 10
-40.58989561190532
 20
2.451074928723887
 30
0.0
  0
POINT
  5
14C
330
F8
100
AcDbEntity
  8
Defpoints
 62
     0
100
AcDbPoint
 10
19.41010438809467
 20
0.7127805806478194
 30
0.0
  0
POINT
  5
14D
330
F8
100
AcDbEntity
  8
Defpoints
 62
     0
100
AcDbPoint
 10
19.41010438809467
 20
24.23948536896658
 30
0.0
  0
ENDBLK
  5
FA
330
F8
100
AcDbEntity
  8
0
100
AcDbBlockEnd
  0
BLOCK
  5
104
330
103
100
AcDbEntity
  8
0
100
AcDbBlockBegin
  2
_D_2
 70
     0
 10
0.0
 20
0.0
 30
0.0
  3
_D_2
  1

  0
LINE
  5
106
330
103
100
AcDbEntity
  8
치수문자_일반주서
 62
     0
370
    -2
100
AcDbLine
 10
11.41010438809468
 20
0.8135749287238933
 30
0.0
 11
11.41010438809468
 21
14.09807273489141
 31
0.0
  0
LINE
  5
107
330
103
100
AcDbEntity
  8
치수문자_일반주서
 62
     0
370
    -2
100
AcDbLine
 10
19.41010438809467
 20
0.8129410401461276
 30
0.0
 11
19.41010438809467
 21
14.09807273489141
 31
0.0
  0
LINE
  5
108
330
103
100
AcDbEntity
  8
치수문자_일반주서
 62
     0
370
    -2
100
AcDbLine
 10
14.71210438809468
 20
14.09807273489141
 30
0.0
 11
16.10810438809467
 21
14.09807273489141
 31
0.0
  0
SOLID
  5
109
330
103
100
AcDbEntity
  8
치수문자_일반주서
 62
     0
100
AcDbTrace
 10
14.71210438809468
 20
14.64840606822475
 30
0.0
 11
14.71210438809468
 21
13.54773940155808
 31
0.0
 12
11.41010438809468
 22
14.09807273489141
 32
0.0
 13
11.41010438809468
 23
14.09807273489141
 33
0.0
  0
SOLID
  5
10A
330
103
100
AcDbEntity
  8
치수문자_일반주서
 62
     0
100
AcDbTrace
 10
16.10810438809467
 20
13.54773940155808
 30
0.0
 11
16.10810438809467
 21
14.64840606822475
 31
0.0
 12
19.41010438809467
 22
14.09807273489141
 32
0.0
 13
19.41010438809467
 23
14.09807273489141
 33
0.0
  0
MTEXT
  5
10B
330
103
100
AcDbEntity
  8
치수문자_일반주서
 62
     0
100
AcDbMText
 10
15.41010438809467
 20
18.47307273489141
 30
0.0
 40
3.5
 41
0.0
 71
     2
 72
     1
  1
\A1;8
  7
SLDTEXTSTYLE0
 73
     1
 44
1.0
  0
POINT
  5
10C
330
103
100
AcDbEntity
  8
Defpoints
 62
     0
100
AcDbPoint
 10
11.41010438809468
 20
0.7510749287238933
 30
0.0
  0
POINT
  5
10D
330
103
100
AcDbEntity
  8
Defpoints
 62
     0
100
AcDbPoint
 10
19.41010438809467
 20
0.7504410401461276
 30
0.0
  0
POINT
  5
147
330
103
100
AcDbEntity
  8
Defpoints
 62
     0
100
AcDbPoint
 10
19.41010438809467
 20
14.09807273489141
 30
0.0
  0
ENDBLK
  5
105
330
103
100
AcDbEntity
  8
0
100
AcDbBlockEnd
  0
BLOCK
  5
110
330
10F
100
AcDbEntity
  8
0
100
AcDbBlockBegin
  2
_D_3
 70
     0
 10
0.0
 20
0.0
 30
0.0
  3
_D_3
  1

  0
LINE
  5
112
330
10F
100
AcDbEntity
  8
치수문자_일반주서
 62
     0
370
    -2
100
AcDbLine
 10
-40.10239561190532
 20
3.001074928723886
 30
0.0
 11
-52.53635363351734
 21
3.00107492872384
 31
0.0
  0
LINE
  5
113
330
10F
100
AcDbEntity
  8
치수문자_일반주서
 62
     0
370
    -2
100
AcDbLine
 10
-40.10239561190532
 20
-2.998925071276108
 30
0.0
 11
-52.53635363351732
 21
-2.998925071276153
 31
0.0
  0
LINE
  5
114
330
10F
100
AcDbEntity
  8
치수문자_일반주서
 62
     0
370
    -2
100
AcDbLine
 10
-52.53635363351734
 20
3.00107492872384
 30
0.0
 11
-52.53635363351739
 21
15.73007492872384
 31
0.0
  0
LINE
  5
115
330
10F
100
AcDbEntity
  8
치수문자_일반주서
 62
     0
370
    -2
100
AcDbLine
 10
-52.53635363351734
 20
3.00107492872384
 30
0.0
 11
-52.53635363351732
 21
-2.998925071276153
 31
0.0
  0
LINE
  5
116
330
10F
100
AcDbEntity
  8
치수문자_일반주서
 62
     0
370
    -2
100
AcDbLine
 10
-52.53635363351736
 20
6.30307492872384
 30
0.0
 11
-52.53635363351737
 21
9.60507492872384
 31
0.0
  0
LINE
  5
117
330
10F
100
AcDbEntity
  8
치수문자_일반주서
 62
     0
370
    -2
100
AcDbLine
 10
-52.53635363351731
 20
-6.300925071276152
 30
0.0
 11
-52.53635363351729
 21
-9.602925071276152
 31
0.0
  0
SOLID
  5
118
330
10F
100
AcDbEntity
  8
치수문자_일반주서
 62
     0
100
AcDbTrace
 10
-53.08668696685069
 20
6.303074928723838
 30
0.0
 11
-51.98602030018402
 21
6.303074928723841
 31
0.0
 12
-52.53635363351734
 22
3.00107492872384
 32
0.0
 13
-52.53635363351734
 23
3.00107492872384
 33
0.0
  0
SOLID
  5
119
330
10F
100
AcDbEntity
  8
치수문자_일반주서
 62
     0
100
AcDbTrace
 10
-51.98602030018397
 20
-6.300925071276151
 30
0.0
 11
-53.08668696685064
 21
-6.300925071276154
 31
0.0
 12
-52.53635363351732
 22
-2.998925071276153
 32
0.0
 13
-52.53635363351732
 23
-2.998925071276153
 33
0.0
  0
MTEXT
  5
11A
330
10F
100
AcDbEntity
  8
치수문자_일반주서
 62
     0
100
AcDbMText
 10
-56.91135363351738
 20
12.66757492872383
 30
0.0
 40
3.5
 41
0.0
 71
     2
 72
     1
  1
\A1;%%c6
  7
SLDTEXTSTYLE0
 11
-3.552713678800505E-15
 21
1.0
 31
0.0
 73
     1
 44
1.0
  0
POINT
  5
14E
330
10F
100
AcDbEntity
  8
Defpoints
 62
     0
100
AcDbPoint
 10
-40.03989561190532
 20
3.001074928723887
 30
0.0
  0
POINT
  5
14F
330
10F
100
AcDbEntity
  8
Defpoints
 62
     0
100
AcDbPoint
 10
-40.03989561190532
 20
-2.998925071276107
 30
0.0
  0
POINT
  5
150
330
10F
100
AcDbEntity
  8
Defpoints
 62
     0
100
AcDbPoint
 10
-52.53635363351734
 20
-2.998925071276154
 30
0.0
  0
ENDBLK
  5
111
330
10F
100
AcDbEntity
  8
0
100
AcDbBlockEnd
  0
BLOCK
  5
11C
330
11B
100
AcDbEntity
  8
0
100
AcDbBlockBegin
  2
SW_DOWELSYMBOL_0
 70
     0
 10
0.0
 20
0.0
 30
0.0
  3
SW_DOWELSYMBOL_0
  1

  0
CIRCLE
  5
11E
330
11B
100
AcDbEntity
  8
외형선
 62
     0
100
AcDbCircle
 10
0.0
 20
0.0
 30
0.0
 40
3.000000000000004
  0
HATCH
  5
11F
330
11B
100
AcDbEntity
  8
0
  6
Continuous
 62
     0
370
    30
100
AcDbHatch
 10
0.0
 20
0.0
 30
0.0
210
0.0
220
0.0
230
1.0
  2
SOLID
 70
     1
 71
     0
 91
        1
 92
        0
 93
        3
 72
     2
 10
0.0000000000000104
 20
0.0
 40
3.000000000000004
 50
0.0
 51
90.0
 73
     1
 72
     1
 10
0.0000000000000104
 20
3.000000000000004
 11
0.0000000000000104
 21
0.0
 72
     1
 10
0.0000000000000104
 20
0.0
 11
3.000000000000015
 21
0.0
 97
        0
 75
     0
 76
     1
 98
        1
 10
0.0
 20
0.0
  0
HATCH
  5
120
330
11B
100
AcDbEntity
  8
0
  6
Continuous
 62
     0
370
    30
100
AcDbHatch
 10
0.0
 20
0.0
 30
0.0
210
0.0
220
0.0
230
1.0
  2
SOLID
 70
     1
 71
     0
 91
        1
 92
        0
 93
        3
 72
     2
 10
0.0000000000000104
 20
0.0
 40
3.000000000000004
 50
180.0
 51
270.0000000000007
 73
     1
 72
     1
 10
0.0000000000000104
 20
-3.000000000000004
 11
0.0000000000000104
 21
0.0
 72
     1
 10
0.0000000000000104
 20
0.0
 11
-2.999999999999994
 21
0.0
 97
        0
 75
     0
 76
     1
 98
        1
 10
0.0
 20
0.0
  0
ENDBLK
  5
11D
330
11B
100
AcDbEntity
  8
0
100
AcDbBlockEnd
  0
ENDSEC
  0
SECTION
  2
ENTITIES
  0
LINE
  5
95
330
1F
100
AcDbEntity
  8
0
  6
Continuous
 62
     1
370
    15
100
AcDbLine
 10
17.08241839856343
 20
0.1965052884450086
 30
0.0
 11
17.04502811132928
 21
0.2164875199610766
 31
0.0
  0
LINE
  5
96
330
1F
100
AcDbEntity
  8
0
  6
Continuous
 62
     1
370
    15
100
AcDbLine
 10
13.01901204348288
 20
0.1865910709417405
 30
0.0
 11
12.96370364953901
 21
0.2166418428700121
 31
0.0
  0
LINE
  5
97
330
1F
100
AcDbEntity
  8
0
  6
Continuous
 62
     1
370
    15
100
AcDbLine
 10
15.38270009257155
 20
-0.7489250712761075
 30
0.0
 11
15.74480048870452
 21
-0.7489250712761075
 31
0.0
  0
LINE
  5
98
330
1F
100
AcDbEntity
  8
0
  6
Continuous
 62
     1
370
    15
100
AcDbLine
 10
11.6642995948474
 20
0.751074928723894
 30
0.0
 11
11.41010438809468
 21
0.751074928723894
 31
0.0
  0
LINE
  5
99
330
1F
100
AcDbEntity
  8
0
  6
Continuous
 62
     1
370
    15
100
AcDbLine
 10
11.41010438809468
 20
-0.7489250712761075
 30
0.0
 11
11.6642995948474
 21
-0.7489250712761075
 31
0.0
  0
LINE
  5
9A
330
1F
100
AcDbEntity
  8
0
  6
Continuous
 62
     1
370
    15
100
AcDbLine
 10
15.74480048870453
 20
0.751074928723894
 30
0.0
 11
15.38270009257155
 21
0.751074928723894
 31
0.0
  0
SPLINE
  5
9B
330
1F
100
AcDbEntity
  8
0
  6
Continuous
 62
     1
370
    15
100
AcDbSpline
210
0.0
220
0.0
230
1.0
 70
     8
 71
     3
 72
     9
 73
     5
 74
     0
 42
0.000000001
 43
0.00000001
 40
0.0
 40
0.0
 40
0.0
 40
0.0
 40
0.5000124208075282
 40
1.0
 40
1.0
 40
1.0
 40
1.0
 10
17.46823117264411
 20
0.1930385272924895
 30
0.0
 10
17.43317105277534
 20
0.2096235780827397
 30
0.0
 10
17.3630525548945
 20
0.2427928556848142
 30
0.0
 10
17.29299181083288
 20
0.2792281363326024
 30
0.0
 10
17.25796230901308
 20
0.2974453241008882
 30
0.0
  0
LINE
  5
9C
330
1F
100
AcDbEntity
  8
0
  6
Continuous
 62
     1
370
    15
100
AcDbLine
 10
13.19987940860624
 20
0.2856777065628478
 30
0.0
 11
13.17722679545746
 21
0.2972800736368669
 31
0.0
  0
SPLINE
  5
9D
330
1F
100
AcDbEntity
  8
0
  6
Continuous
 62
     1
370
    15
100
AcDbSpline
210
0.0
220
0.0
230
1.0
 70
     8
 71
     3
 72
     9
 73
     5
 74
     0
 42
0.000000001
 43
0.00000001
 40
0.0
 40
0.0
 40
0.0
 40
0.0
 40
0.5607109168868495
 40
1.0
 40
1.0
 40
1.0
 40
1.0
 10
13.3865977395046
 20
0.1933106839166915
 30
0.0
 10
13.3516872055237
 20
0.2097968222931424
 30
0.0
 10
13.28942600651811
 20
0.2391990291700559
 30
0.0
 10
13.22721015359287
 20
0.2714918311777384
 30
0.0
 10
13.19987940860624
 20
0.2856777065628478
 30
0.0
  0
SPLINE
  5
9E
330
1F
100
AcDbEntity
  8
0
  6
Continuous
 62
     1
370
    15
100
AcDbSpline
210
0.0
220
0.0
230
1.0
 70
     8
 71
     3
 72
    10
 73
     6
 74
     0
 42
0.000000001
 43
0.00000001
 40
0.0
 40
0.0
 40
0.0
 40
0.0
 40
0.4116394950357811
 40
0.5636020906079916
 40
1.0
 40
1.0
 40
1.0
 40
1.0
 10
11.98984377503535
 20
-0.6110777973554837
 30
0.0
 10
12.14381348063698
 20
-0.6116158888953716
 30
0.0
 10
12.3612552458739
 20
-0.5928301546159032
 30
0.0
 10
12.74362153706767
 20
-0.5814806952816962
 30
0.0
 10
12.9691724273565
 20
-0.5891675730476221
 30
0.0
 10
13.13646771001579
 20
-0.5948690729928061
 30
0.0
  0
SPLINE
  5
9F
330
1F
100
AcDbEntity
  8
0
  6
Continuous
 62
     1
370
    15
100
AcDbSpline
210
0.0
220
0.0
230
1.0
 70
     8
 71
     3
 72
     9
 73
     5
 74
     0
 42
0.000000001
 43
0.00000001
 40
0.0
 40
0.0
 40
0.0
 40
0.0
 40
0.8896580115795348
 40
1.0
 40
1.0
 40
1.0
 40
1.0
 10
17.21694985844762
 20
0.596988554073478
 30
0.0
 10
17.02889751329268
 20
0.5878675871486553
 30
0.0
 10
16.81752152082442
 20
0.5776153702224804
 30
0.0
 10
16.60617086045021
 20
0.5920537072715112
 30
0.0
 10
16.60880213092264
 20
0.5918892979549305
 30
0.0
  0
SPLINE
  5
A0
330
1F
100
AcDbEntity
  8
0
  6
Continuous
 62
     1
370
    15
100
AcDbSpline
210
0.0
220
0.0
230
1.0
 70
     8
 71
     3
 72
     9
 73
     5
 74
     0
 42
0.000000001
 43
0.00000001
 40
0.0
 40
0.0
 40
0.0
 40
0.0
 40
0.499327956512796
 40
1.0
 40
1.0
 40
1.0
 40
1.0
 10
16.09023530336097
 20
-0.6230329701572799
 30
0.0
 10
16.27775741891485
 20
-0.6073817431765136
 30
0.0
 10
16.65330642054392
 20
-0.5760371593681661
 30
0.0
 10
17.028900435472
 20
-0.5885659042988933
 30
0.0
 10
17.21694985844761
 20
-0.5948386966256906
 30
0.0
  0
SPLINE
  5
A1
330
1F
100
AcDbEntity
  8
0
  6
Continuous
 62
     1
370
    15
100
AcDbSpline
210
0.0
220
0.0
230
1.0
 70
     8
 71
     3
 72
    10
 73
     6
 74
     0
 42
0.000000001
 43
0.00000001
 40
0.0
 40
0.0
 40
0.0
 40
0.0
 40
0.5652728679451552
 40
0.7935867118239258
 40
1.0
 40
1.0
 40
1.0
 40
1.0
 10
13.13646771001579
 20
0.5970189304405928
 30
0.0
 10
13.01720323677925
 20
0.5923413536823812
 30
0.0
 10
12.84976781484355
 20
0.5857745025749732
 30
0.0
 10
12.63889271289022
 20
0.5870205169854407
 30
0.0
 10
12.54717649204284
 20
0.5903905665793928
 30
0.0
 10
12.50362860802947
 20
0.5919907036923355
 30
0.0
  0
SPLINE
  5
A2
330
1F
100
AcDbEntity
  8
0
  6
Continuous
 62
     1
370
    15
100
AcDbSpline
210
0.0
220
0.0
230
1.0
 70
     8
 71
     3
 72
    10
 73
     6
 74
     0
 42
0.000000001
 43
0.00000001
 40
0.0
 40
0.0
 40
0.0
 40
0.0
 40
0.5126841829124931
 40
0.813906528296671
 40
1.0
 40
1.0
 40
1.0
 40
1.0
 10
17.81949406179639
 20
-0.563158067934822
 30
0.0
 10
17.91731320349317
 20
-0.549175500255399
 30
0.0
 10
18.07260498091273
 20
-0.5269776180192409
 30
0.0
 10
18.26200418987773
 20
-0.5089721738467873
 30
0.0
 10
18.35464739750984
 20
-0.5032711937151657
 30
0.0
 10
18.39002547376649
 20
-0.5010941349216591
 30
0.0
  0
SPLINE
  5
A3
330
1F
100
AcDbEntity
  8
0
  6
Continuous
 62
     1
370
    15
100
AcDbSpline
210
0.0
220
0.0
230
1.0
 70
     8
 71
     3
 72
    14
 73
    10
 74
     0
 42
0.000000001
 43
0.00000001
 40
0.0
 40
0.0
 40
0.0
 40
0.0
 40
0.1952329704601126
 40
0.3216570782338106
 40
0.3892565723911545
 40
0.4566156598413815
 40
0.5693007096603686
 40
0.7416161857507648
 40
1.0
 40
1.0
 40
1.0
 40
1.0
 10
15.05159232679651
 20
0.5141347416745088
 30
0.0
 10
14.96577516082467
 20
0.5079048540969712
 30
0.0
 10
14.82438665045293
 20
0.4976407709803067
 30
0.0
 10
14.6548782797209
 20
0.4943571291050095
 30
0.0
 10
14.54048934589564
 20
0.4947665548137557
 30
0.0
 10
14.4320114564692
 20
0.4970456853126474
 30
0.0
 10
14.27752866651258
 20
0.5038325590754189
 30
0.0
 10
14.04080175326276
 20
0.5224985222760686
 30
0.0
 10
13.85152874763793
 20
0.5493012587369738
 30
0.0
 10
13.73798065915793
 20
0.565380675245008
 30
0.0
  0
SPLINE
  5
A4
330
1F
100
AcDbEntity
  8
0
  6
Continuous
 62
     1
370
    15
100
AcDbSpline
210
0.0
220
0.0
230
1.0
 70
     8
 71
     3
 72
     9
 73
     5
 74
     0
 42
0.000000001
 43
0.00000001
 40
0.0
 40
0.0
 40
0.0
 40
0.0
 40
0.7286886979581814
 40
1.0
 40
1.0
 40
1.0
 40
1.0
 10
13.74347102543485
 20
-0.5517436088155588
 30
0.0
 10
13.8780832037196
 20
-0.5434333559361032
 30
0.0
 10
14.0703498670482
 20
-0.5162647420731579
 30
0.0
 10
14.26173667277859
 20
-0.5040961272719309
 30
0.0
 10
14.31366207623492
 20
-0.5007946445461646
 30
0.0
  0
SPLINE
  5
A5
330
1F
100
AcDbEntity
  8
0
  6
Continuous
 62
     1
370
    15
100
AcDbSpline
210
0.0
220
0.0
230
1.0
 70
     8
 71
     3
 72
    14
 73
    10
 74
     0
 42
0.000000001
 43
0.00000001
 40
0.0
 40
0.0
 40
0.0
 40
0.0
 40
0.1992114271738167
 40
0.3194338215668006
 40
0.4092991739317297
 40
0.497760088839531
 40
0.6105454822386435
 40
0.7753442526399805
 40
1.0
 40
1.0
 40
1.0
 40
1.0
 10
19.03625882794331
 20
0.5045568723427026
 30
0.0
 10
18.96059487796719
 20
0.50122454912096
 30
0.0
 10
18.839268380594
 20
0.4958811973036558
 30
0.0
 10
18.67722492548715
 20
0.4939827455806354
 30
0.0
 10
18.55096375356135
 20
0.4959928186112917
 30
0.0
 10
18.43081601563063
 20
0.5003799026332068
 30
0.0
 10
18.2798656068171
 20
0.509614574852665
 30
0.0
 10
18.07369864531979
 20
0.5287186230434023
 30
0.0
 10
17.91248798151619
 20
0.5519227117992287
 30
0.0
 10
17.81949406179639
 20
0.5653079253826097
 30
0.0
  0
LINE
  5
A6
330
1F
100
AcDbEntity
  8
0
  6
Continuous
 62
   131
370
    15
100
AcDbLine
 10
2.012990071064724
 20
-2.998925071276106
 30
0.0
 11
10.41010438809468
 21
-0.7489250712761067
 31
0.0
  0
LINE
  5
A7
330
1F
100
AcDbEntity
  8
0
  6
Continuous
 62
   131
370
    15
100
AcDbLine
 10
10.41010438809468
 20
0.7510749287238933
 30
0.0
 11
2.012990071064724
 21
3.001074928723892
 31
0.0
  0
LINE
  5
A8
330
1F
100
AcDbEntity
  8
0
  6
Continuous
 62
   131
370
    15
100
AcDbLine
 10
2.012990071064724
 20
3.001074928723891
 30
0.0
 11
-40.03989561190532
 21
3.001074928723888
 31
0.0
  0
LINE
  5
A9
330
1F
100
AcDbEntity
  8
0
  6
Continuous
 62
   131
370
    15
100
AcDbLine
 10
-40.03989561190532
 20
-2.998925071276108
 30
0.0
 11
2.012990071064724
 21
-2.998925071276105
 31
0.0
  0
LINE
  5
AA
330
1F
100
AcDbEntity
  8
0
  6
Continuous
 62
   131
370
    15
100
AcDbLine
 10
-40.03989561190532
 20
3.001074928723887
 30
0.0
 11
-40.58989561190532
 21
2.451074928723887
 31
0.0
  0
LINE
  5
AB
330
1F
100
AcDbEntity
  8
0
  6
Continuous
 62
   131
370
    15
100
AcDbLine
 10
-40.58989561190532
 20
-2.448925071276107
 30
0.0
 11
-40.03989561190532
 21
-2.998925071276107
 31
0.0
  0
LINE
  5
AC
330
1F
100
AcDbEntity
  8
0
  6
Continuous
 62
   131
370
    15
100
AcDbLine
 10
10.61023676587724
 20
0.7510749287238933
 30
0.0
 11
10.41010438809468
 21
0.7510749287238933
 31
0.0
  0
LINE
  5
AD
330
1F
100
AcDbEntity
  8
0
  6
Continuous
 62
   131
370
    15
100
AcDbLine
 10
11.41010438809468
 20
0.7510749287238934
 30
0.0
 11
11.30119078024892
 21
0.7510749287238934
 31
0.0
  0
LINE
  5
AE
330
1F
100
AcDbEntity
  8
0
  6
Continuous
 62
   131
370
    15
100
AcDbLine
 10
11.30119078024892
 20
-0.7489250712761066
 30
0.0
 11
11.41010438809468
 21
-0.7489250712761066
 31
0.0
  0
LINE
  5
AF
330
1F
100
AcDbEntity
  8
0
  6
Continuous
 62
   131
370
    15
100
AcDbLine
 10
10.41010438809468
 20
-0.7489250712761067
 30
0.0
 11
10.61023676587724
 21
-0.7489250712761067
 31
0.0
  0
SPLINE
  5
B0
330
1F
100
AcDbEntity
  8
0
  6
Continuous
 62
   131
370
    15
100
AcDbSpline
210
0.0
220
0.0
230
1.0
 70
     8
 71
     3
 72
     9
 73
     5
 74
     0
 42
0.000000001
 43
0.00000001
 40
0.0
 40
0.0
 40
0.0
 40
0.0
 40
0.5042663388908457
 40
0.9999999999999999
 40
0.9999999999999999
 40
0.9999999999999999
 40
0.9999999999999999
 10
10.97658234209693
 20
0.5146425231238957
 30
0.0
 10
10.91475390037452
 20
0.5098059864323746
 30
0.0
 10
10.7921432144057
 20
0.5002147519625917
 30
0.0
 10
10.67051890376406
 20
0.4969751666815295
 30
0.0
 10
10.61022563896981
 20
0.4953691952096732
 30
0.0
  0
SPLINE
  5
B1
330
1F
100
AcDbEntity
  8
0
  6
Continuous
 62
     1
370
    15
100
AcDbSpline
210
0.0
220
0.0
230
1.0
 70
     8
 71
     3
 72
    17
 73
    13
 74
     0
 42
0.000000001
 43
0.00000001
 40
0.0
 40
0.0
 40
0.0
 40
0.0
 40
0.028654883128418
 40
0.1365153973354328
 40
0.2443804060837134
 40
0.3522552010691997
 40
0.4601450437299321
 40
0.5680551491060205
 40
0.6759906700041497
 40
0.7839566815683934
 40
0.8919581663545972
 40
0.9999999999999999
 40
0.9999999999999999
 40
0.9999999999999999
 40
0.9999999999999999
 10
14.31362289794957
 20
0.5029266026147128
 30
0.0
 10
14.36229684394728
 20
0.525932920432679
 30
0.0
 10
14.59418552581635
 20
0.6355378559708791
 30
0.0
 10
15.00929460707542
 20
0.7380516625724634
 30
0.0
 10
15.55897356950936
 20
0.7677581713289915
 30
0.0
 10
16.10871210913641
 20
0.6556521220002837
 30
0.0
 10
16.65854265030936
 20
0.429631041590332
 30
0.0
 10
17.20849704121851
 20
0.127623593039087
 30
0.0
 10
17.75860645852242
 20
-0.197325006894318
 30
0.0
 10
18.30890295959968
 20
-0.4847471333648287
 30
0.0
 10
18.85941277627878
 20
-0.6958479769183682
 30
0.0
 10
19.22651766364148
 20
-0.7308079376980723
 30
0.0
 10
19.41010438809467
 20
-0.7482911826983399
 30
0.0
  0
SPLINE
  5
B2
330
1F
100
AcDbEntity
  8
0
  6
Continuous
 62
     1
370
    15
100
AcDbSpline
210
0.0
220
0.0
230
1.0
 70
     8
 71
     3
 72
    12
 73
     8
 74
     0
 42
0.000000001
 43
0.00000001
 40
0.0
 40
0.0
 40
0.0
 40
0.0
 40
0.1349591516195716
 40
0.3554088902052378
 40
0.5758135997715096
 40
0.7961848682242104
 40
1.0
 40
1.0
 40
1.0
 40
1.0
 10
17.54514899281398
 20
-0.0688763771887634
 30
0.0
 10
17.43292026298241
 20
-0.0239416445499924
 30
0.0
 10
17.13737092201576
 20
0.0943919643025006
 30
0.0
 10
16.65855536395746
 20
0.2829205248042779
 30
0.0
 10
16.10872474628297
 20
0.4458771822027104
 30
0.0
 10
15.57273516074026
 20
0.536175780109066
 30
0.0
 10
15.22002015796193
 20
0.5190634527104756
 30
0.0
 10
15.0505459486713
 20
0.5108412389340428
 30
0.0
  0
SPLINE
  5
B3
330
1F
100
AcDbEntity
  8
0
  6
Continuous
 62
     1
370
    15
100
AcDbSpline
210
0.0
220
0.0
230
1.0
 70
     8
 71
     3
 72
    15
 73
    11
 74
     0
 42
0.000000001
 43
0.00000001
 40
0.0
 40
0.0
 40
0.0
 40
0.0
 40
0.1174312880826579
 40
0.2352162204509592
 40
0.3525548609260717
 40
0.4909329333345456
 40
0.629296384880949
 40
0.7676519936681807
 40
0.9060065620776226
 40
1.0
 40
1.0
 40
1.0
 40
1.0
 10
11.42490251927579
 20
0.7378390784839374
 30
0.0
 10
11.58033578196895
 20
0.7208826783753934
 30
0.0
 10
11.89167039457504
 20
0.6869188139649266
 30
0.0
 10
12.35893638048762
 20
0.52225967534874
 30
0.0
 10
12.85310537635897
 20
0.2824663805809916
 30
0.0
 10
13.37512416886846
 20
-0.0199458999628801
 30
0.0
 10
13.92477656017433
 20
-0.3373796008222182
 30
0.0
 10
14.47444411707569
 20
-0.5921386439892438
 30
0.0
 10
14.9653396686502
 20
-0.7442172286960903
 30
0.0
 10
15.27302715507173
 20
-0.7447250524567108
 30
0.0
 10
15.38270009257155
 20
-0.7489250712761075
 30
0.0
  0
SPLINE
  5
B4
330
1F
100
AcDbEntity
  8
0
  6
Continuous
 62
     1
370
    15
100
AcDbSpline
210
0.0
220
0.0
230
1.0
 70
     8
 71
     3
 72
     9
 73
     5
 74
     0
 42
0.000000001
 43
0.00000001
 40
0.0
 40
0.0
 40
0.0
 40
0.0
 40
0.4597844410808841
 40
1.0
 40
1.0
 40
1.0
 40
1.0
 10
18.39063616239233
 20
0.5034629684453111
 30
0.0
 10
18.54687246446304
 20
0.5672186258145193
 30
0.0
 10
18.88667583341437
 20
0.7058828599050166
 30
0.0
 10
19.22651693659583
 20
0.734812693773453
 30
0.0
 10
19.41010438809467
 20
0.7504410401461276
 30
0.0
  0
SPLINE
  5
B5
330
1F
100
AcDbEntity
  8
0
  6
Continuous
 62
     1
370
    15
100
AcDbSpline
210
0.0
220
0.0
230
1.0
 70
    24
 71
     3
 72
     8
 73
     4
 74
     0
 42
0.000000001
 43
0.00000001
 40
0.0
 40
0.0
 40
0.0
 40
0.0
 40
1.0
 40
1.0
 40
1.0
 40
1.0
 10
19.41010438809467
 20
0.526074928723894
 30
0.0
 10
19.41010438809467
 20
0.5897233139348649
 30
0.0
 10
19.41010438809467
 20
0.6753189710038703
 30
0.0
 10
19.41010438809467
 20
0.7504410401461278
 30
0.0
  0
LINE
  5
B6
330
1F
100
AcDbEntity
  8
0
  6
Continuous
 62
     1
370
    15
100
AcDbLine
 10
19.41010438809467
 20
0.5260749287238942
 30
0.0
 11
19.03461940008339
 21
0.4944376275843343
 31
0.0
  0
SPLINE
  5
B7
330
1F
100
AcDbEntity
  8
0
  6
Continuous
 62
     1
370
    15
100
AcDbSpline
210
0.0
220
0.0
230
1.0
 70
     8
 71
     3
 72
    12
 73
     8
 74
     0
 42
0.000000001
 43
0.00000001
 40
0.0
 40
0.0
 40
0.0
 40
0.0
 40
0.0523325763767887
 40
0.3194840365613589
 40
0.5866803557995676
 40
0.8539355333675094
 40
1.0
 40
1.0
 40
1.0
 40
1.0
 10
13.46801866876211
 20
-0.0693906165797442
 30
0.0
 10
13.43212183681517
 20
-0.0555580845916654
 30
0.0
 10
13.21297602813947
 20
0.028887846822016
 30
0.0
 10
12.81054638802265
 20
0.1972783252485993
 30
0.0
 10
12.26067514858891
 20
0.384949754628689
 30
0.0
 10
11.79388185336629
 20
0.4921957535044915
 30
0.0
 10
11.51031504779148
 20
0.5141798364845553
 30
0.0
 10
11.41010438809471
 20
0.521948868031796
 30
0.0
  0
SPLINE
  5
B8
330
1F
100
AcDbEntity
  8
0
  6
Continuous
 62
   131
370
    15
100
AcDbSpline
210
0.0
220
0.0
230
1.0
 70
    24
 71
     3
 72
     8
 73
     4
 74
     0
 42
0.000000001
 43
0.00000001
 40
0.0
 40
0.0
 40
0.0
 40
0.0
 40
1.0
 40
1.0
 40
1.0
 40
1.0
 10
11.41010438809576
 20
0.7484091721713393
 30
0.0
 10
11.41010438809576
 20
0.6762826396262918
 30
0.0
 10
11.41010438809576
 20
0.5896950933849003
 30
0.0
 10
11.41010438809577
 20
0.5219488680317423
 30
0.0
  0
SPLINE
  5
B9
330
1F
100
AcDbEntity
  8
0
  6
Continuous
 62
     1
370
    15
100
AcDbSpline
210
0.0
220
0.0
230
1.0
 70
     8
 71
     3
 72
    17
 73
    13
 74
     0
 42
0.000000001
 43
0.00000001
 40
0.0
 40
0.0
 40
0.0
 40
0.0
 40
0.0963892259988242
 40
0.2081514362076924
 40
0.3199035108940673
 40
0.4316509357340368
 40
0.5433992108087489
 40
0.6551538335642876
 40
0.7669202817889651
 40
0.8616998542325215
 40
0.9568396964697868
 40
1.0
 40
1.0
 40
1.0
 40
1.0
 10
16.58285000833054
 20
-0.5914970046431989
 30
0.0
 10
16.42480832096722
 20
-0.6413435133117383
 30
0.0
 10
16.0835190963213
 20
-0.7489864813071682
 30
0.0
 10
15.55901922742248
 20
-0.7619099992256095
 30
0.0
 10
15.00934574789965
 20
-0.6512768831379712
 30
0.0
 10
14.45970408025457
 20
-0.4226825158619557
 30
0.0
 10
13.91004283554989
 20
-0.1199014428868139
 30
0.0
 10
13.36039801236576
 20
0.2039695703439544
 30
0.0
 10
12.83837008259118
 20
0.4790680478044546
 30
0.0
 10
12.34420048084743
 20
0.6619331187331307
 30
0.0
 10
11.96169031191092
 20
0.7501676177328164
 30
0.0
 10
11.73503387146364
 20
0.7417576833938
 30
0.0
 10
11.6642995948474
 20
0.751074928723894
 30
0.0
  0
LINE
  5
BA
330
1F
100
AcDbEntity
  8
0
  6
Continuous
 62
   131
370
    15
100
AcDbLine
 10
11.41010438809468
 20
0.7484091721715604
 30
0.0
 11
11.41010438809468
 21
0.751074928723894
 31
0.0
  0
SPLINE
  5
BB
330
1F
100
AcDbEntity
  8
0
  6
Continuous
 62
     1
370
    15
100
AcDbSpline
210
0.0
220
0.0
230
1.0
 70
     8
 71
     3
 72
    14
 73
    10
 74
     0
 42
0.000000001
 43
0.00000001
 40
0.0
 40
0.0
 40
0.0
 40
0.0
 40
0.1502334418950297
 40
0.3004107571319916
 40
0.450538729408992
 40
0.600624291204964
 40
0.7506745038331543
 40
0.9006965366660205
 40
1.0
 40
1.0
 40
1.0
 40
1.0
 10
19.41010438809467
 20
-0.710630723200031
 30
0.0
 10
19.22651975580686
 20
-0.6647655537708093
 30
0.0
 10
18.85941907777064
 20
-0.5730523499699754
 30
0.0
 10
18.30891561882921
 20
-0.3002082471243518
 30
0.0
 10
17.75862558035439
 20
0.0164419732745473
 30
0.0
 10
17.2085225533005
 20
0.3341246727086485
 30
0.0
 10
16.65857506236817
 20
0.5872021454983887
 30
0.0
 10
16.17068369202848
 20
0.7369568902228854
 30
0.0
 10
15.8661090487461
 20
0.7363514768036599
 30
0.0
 10
15.74480048870453
 20
0.751074928723894
 30
0.0
  0
SPLINE
  5
BC
330
1F
100
AcDbEntity
  8
0
  6
Continuous
 62
     1
370
    15
100
AcDbSpline
210
0.0
220
0.0
230
1.0
 70
     8
 71
     3
 72
    10
 73
     6
 74
     0
 42
0.000000001
 43
0.00000001
 40
0.0
 40
0.0
 40
0.0
 40
0.0
 40
0.146185689896658
 40
0.5737347559929152
 40
1.0
 40
1.0
 40
1.0
 40
1.0
 10
12.50457894290684
 20
-0.5894884139149975
 30
0.0
 10
12.45127427305672
 20
-0.6102147322536263
 30
0.0
 10
12.24206951593338
 20
-0.691559282483208
 30
0.0
 10
11.8768880941181
 20
-0.756362979956629
 30
0.0
 10
11.56554290729109
 20
-0.7418743828281105
 30
0.0
 10
11.41010438809225
 20
-0.7346409770193453
 30
0.0
  0
LINE
  5
BD
330
1F
100
AcDbEntity
  8
0
  6
Continuous
 62
     1
370
    15
100
AcDbLine
 10
19.41010438809467
 20
-0.7482911826983403
 30
0.0
 11
19.41010438809467
 21
-0.710630723200033
 31
0.0
  0
SPLINE
  5
BE
330
1F
100
AcDbEntity
  8
0
  6
Continuous
 62
   131
370
    15
100
AcDbSpline
210
0.0
220
0.0
230
1.0
 70
    24
 71
     3
 72
     8
 73
     4
 74
     0
 42
0.000000001
 43
0.00000001
 40
0.0
 40
0.0
 40
0.0
 40
0.0
 40
1.0
 40
1.0
 40
1.0
 40
1.0
 10
11.41010438809468
 20
-0.6156834294712938
 30
0.0
 10
11.41010438809468
 20
-0.6555368935941658
 30
0.0
 10
11.41010438809468
 20
-0.6954451490503072
 30
0.0
 10
11.41010438809468
 20
-0.734640977010147
 30
0.0
  0
SPLINE
  5
BF
330
1F
100
AcDbEntity
  8
0
  6
Continuous
 62
     1
370
    15
100
AcDbSpline
210
0.0
220
0.0
230
1.0
 70
     8
 71
     3
 72
    11
 73
     7
 74
     0
 42
0.000000001
 43
0.00000001
 40
0.0
 40
0.0
 40
0.0
 40
0.0
 40
0.2825312130188077
 40
0.5649521812263468
 40
0.8472762207610813
 40
1.0
 40
1.0
 40
1.0
 40
1.0
 10
19.41010438809467
 20
-0.5906542695522677
 30
0.0
 10
19.22652035989992
 20
-0.5467173184540696
 30
0.0
 10
18.85942393873371
 20
-0.4588605606320239
 30
0.0
 10
18.30892020640385
 20
-0.2192100722682605
 30
0.0
 10
17.84277477783852
 20
0.0153100154785585
 30
0.0
 10
17.5601363613174
 20
0.1457360909891489
 30
0.0
 10
17.46091598767919
 20
0.1915222374854757
 30
0.0
  0
SPLINE
  5
C0
330
1F
100
AcDbEntity
  8
0
  6
Continuous
 62
     1
370
    15
100
AcDbSpline
210
0.0
220
0.0
230
1.0
 70
     8
 71
     3
 72
     9
 73
     5
 74
     0
 42
0.000000001
 43
0.00000001
 40
0.0
 40
0.0
 40
0.0
 40
0.0
 40
0.4813726504243985
 40
1.0
 40
1.0
 40
1.0
 40
1.0
 10
11.98984377503535
 20
-0.6110777973554837
 30
0.0
 10
11.89683208582456
 20
-0.6230021435517749
 30
0.0
 10
11.7036102874345
 20
-0.6477736925497876
 30
0.0
 10
11.51033976624957
 20
-0.6266425947282865
 30
0.0
 10
11.41010438809634
 20
-0.615683429471499
 30
0.0
  0
LINE
  5
C1
330
1F
100
AcDbEntity
  8
0
  6
Continuous
 62
     1
370
    15
100
AcDbLine
 10
19.41010438809467
 20
-0.7106307232000318
 30
0.0
 11
19.41010438809467
 21
-0.5906542695522677
 31
0.0
  0
SPLINE
  5
C2
330
1F
100
AcDbEntity
  8
0
  6
Continuous
 62
     1
370
    15
100
AcDbSpline
210
0.0
220
0.0
230
1.0
 70
     8
 71
     3
 72
    12
 73
     8
 74
     0
 42
0.000000001
 43
0.00000001
 40
0.0
 40
0.0
 40
0.0
 40
0.0
 40
0.1956840512803476
 40
0.3979672665499759
 40
0.6002416871067147
 40
0.8025177158028842
 40
1.0
 40
1.0
 40
1.0
 40
1.0
 10
16.0907435234746
 20
-0.6211982892974452
 30
0.0
 10
15.91349636135225
 20
-0.6294971450300926
 30
0.0
 10
15.55302463076389
 20
-0.6463747235031729
 30
0.0
 10
15.00934717285096
 20
-0.5291644238211383
 30
0.0
 10
14.45970140690304
 20
-0.3262905458670156
 30
0.0
 10
13.91440439635974
 20
-0.0628537120166294
 30
0.0
 10
13.55231457553
 20
0.112509062360246
 30
0.0
 10
13.37344068449208
 20
0.1991390088307613
 30
0.0
  0
SPLINE
  5
C3
330
1F
100
AcDbEntity
  8
0
  6
Continuous
 62
     1
370
    15
100
AcDbSpline
210
0.0
220
0.0
230
1.0
 70
     8
 71
     3
 72
     8
 73
     4
 74
     0
 42
0.000000001
 43
0.00000001
 40
0.0
 40
0.0
 40
0.0
 40
0.0
 40
1.0
 40
1.0
 40
1.0
 40
1.0
 10
18.94668313369922
 20
0.2101992808853048
 30
0.0
 10
18.91285056618453
 20
0.2502330426233762
 30
0.0
 10
18.8834379607056
 20
0.2885405724059833
 30
0.0
 10
18.86025806163589
 20
0.3241337766567806
 30
0.0
  0
LINE
  5
C4
330
1F
100
AcDbEntity
  8
0
  6
Continuous
 62
     1
370
    15
100
AcDbLine
 10
18.86025806163589
 20
0.3241337766567794
 30
0.0
 11
19.41010438809467
 21
0.0010749287238943
 31
0.0
  0
LINE
  5
C5
330
1F
100
AcDbEntity
  8
0
  6
Continuous
 62
     1
370
    15
100
AcDbLine
 10
19.41010438809467
 20
0.0010749287238943
 30
0.0
 11
19.41010438809467
 21
-0.1993572807983393
 31
0.0
  0
SPLINE
  5
C6
330
1F
100
AcDbEntity
  8
0
  6
Continuous
 62
     1
370
    15
100
AcDbSpline
210
0.0
220
0.0
230
1.0
 70
     8
 71
     3
 72
    10
 73
     6
 74
     0
 42
0.000000001
 43
0.00000001
 40
0.0
 40
0.0
 40
0.0
 40
0.0
 40
0.5
 40
0.5
 40
1.0
 40
1.0
 40
1.0
 40
1.0
 10
19.41010438809467
 20
-0.1993572807983393
 30
0.0
 10
19.3298953315014
 20
-0.1362966107430003
 30
0.0
 10
19.25102539305188
 20
-0.0706505868829147
 30
0.0
 10
19.09601984906923
 20
0.0659204707901819
 30
0.0
 10
19.01915681630621
 20
0.1375585855691515
 30
0.0
 10
18.94668313369862
 20
0.2101992808837704
 30
0.0
  0
SPLINE
  5
C7
330
1F
100
AcDbEntity
  8
0
  6
Continuous
 62
   131
370
    15
100
AcDbSpline
210
0.0
220
0.0
230
1.0
 70
    24
 71
     3
 72
    10
 73
     6
 74
     0
 42
0.000000001
 43
0.00000001
 40
0.0
 40
0.0
 40
0.0
 40
0.0
 40
0.5
 40
0.5
 40
1.0
 40
1.0
 40
1.0
 40
1.0
 10
11.4101043880949
 20
-0.0740007770659304
 30
0.0
 10
11.4101043880949
 20
-0.1863321323013891
 30
0.0
 10
11.4101043880949
 20
-0.2980311965710434
 30
0.0
 10
11.4101043880949
 20
-0.4873761253371138
 30
0.0
 10
11.4101043880949
 20
-0.5642069752399924
 30
0.0
 10
11.4101043880949
 20
-0.6156834294713217
 30
0.0
  0
SPLINE
  5
C8
330
1F
100
AcDbEntity
  8
0
  6
Continuous
 62
     1
370
    15
100
AcDbSpline
210
0.0
220
0.0
230
1.0
 70
     8
 71
     3
 72
    11
 73
     7
 74
     0
 42
0.000000001
 43
0.00000001
 40
0.0
 40
0.0
 40
0.0
 40
0.0
 40
0.1832774215730309
 40
0.3689466733301824
 40
0.686946111111629
 40
1.0
 40
1.0
 40
1.0
 40
1.0
 10
18.9466831336992
 20
0.2101992808853177
 30
0.0
 10
18.84120560990975
 20
0.2550287863204054
 30
0.0
 10
18.6288740462113
 20
0.3452728368715113
 30
0.0
 10
18.23247037549369
 20
0.4805600659388894
 30
0.0
 10
17.7614292977158
 20
0.5962677216868129
 30
0.0
 10
17.39743263176567
 20
0.5962092098519901
 30
0.0
 10
17.21686061510357
 20
0.5961801832124605
 30
0.0
  0
SPLINE
  5
C9
330
1F
100
AcDbEntity
  8
0
  6
Continuous
 62
     1
370
    15
100
AcDbSpline
210
0.0
220
0.0
230
1.0
 70
     8
 71
     3
 72
    12
 73
     8
 74
     0
 42
0.000000001
 43
0.00000001
 40
0.0
 40
0.0
 40
0.0
 40
0.0
 40
0.1642070775529983
 40
0.3998216892337426
 40
0.6354748383546398
 40
0.8711785518361232
 40
1.0
 40
1.0
 40
1.0
 40
1.0
 10
13.74347102543485
 20
-0.5517436088155588
 30
0.0
 10
13.61575987906072
 20
-0.5715186449421911
 30
0.0
 10
13.30480077158373
 20
-0.6196681429213908
 30
0.0
 10
12.81055767023584
 20
-0.5732697566299145
 30
0.0
 10
12.26068570003594
 20
-0.4338510109268605
 30
0.0
 10
11.793896844526
 20
-0.2470362386727872
 30
0.0
 10
11.51031932633249
 20
-0.1191833693948556
 30
0.0
 10
11.41010438809471
 20
-0.0740007770658423
 30
0.0
  0
SPLINE
  5
CA
330
1F
100
AcDbEntity
  8
0
  6
Continuous
 62
     1
370
    15
100
AcDbSpline
210
0.0
220
0.0
230
1.0
 70
    24
 71
     3
 72
     8
 73
     4
 74
     0
 42
0.000000001
 43
0.00000001
 40
0.0
 40
0.0
 40
0.0
 40
0.0
 40
1.0
 40
1.0
 40
1.0
 40
1.0
 10
19.41010438809467
 20
-0.5906542695522674
 30
0.0
 10
19.41010438809467
 20
-0.4999329565056511
 30
0.0
 10
19.41010438809467
 20
-0.3584540263308128
 30
0.0
 10
19.41010438809467
 20
-0.1993572807983633
 30
0.0
  0
SPLINE
  5
CB
330
1F
100
AcDbEntity
  8
0
  6
Continuous
 62
     1
370
    15
100
AcDbSpline
210
0.0
220
0.0
230
1.0
 70
     8
 71
     3
 72
    17
 73
    13
 74
     0
 42
0.000000001
 43
0.00000001
 40
0.0
 40
0.0
 40
0.0
 40
0.0
 40
0.0135026311134085
 40
0.1308963794068341
 40
0.248260842233815
 40
0.3656019561983995
 40
0.4829257307123632
 40
0.6002382294697026
 40
0.7175455515614476
 40
0.8348538123550567
 40
0.9521691242653264
 40
1.0
 40
1.0
 40
1.0
 40
1.0
 10
17.82184189497643
 20
-0.5578964158069968
 30
0.0
 10
17.80075020528668
 20
-0.5628077641218623
 30
0.0
 10
17.59628443911328
 20
-0.6104190561006038
 30
0.0
 10
17.20851165833054
 20
-0.6063733820086767
 30
0.0
 10
16.65855708652907
 20
-0.528644414934203
 30
0.0
 10
16.10872864144007
 20
-0.3479505369243892
 30
0.0
 10
15.55899152853633
 20
-0.1080499709761648
 30
0.0
 10
15.00931433502076
 20
0.1513338931016557
 30
0.0
 10
14.45966471311013
 20
0.3856949372041638
 30
0.0
 10
13.91000951583241
 20
0.5458837790558623
 30
0.0
 10
13.46886281164026
 20
0.6161550563912682
 30
0.0
 10
13.21092652833487
 20
0.5913137342324141
 30
0.0
 10
13.13646771001579
 20
0.5970189304405928
 30
0.0
  0
SPLINE
  5
CC
330
1F
100
AcDbEntity
  8
0
  6
Continuous
 62
   131
370
    15
100
AcDbSpline
210
0.0
220
0.0
230
1.0
 70
    24
 71
     3
 72
    10
 73
     6
 74
     0
 42
0.000000001
 43
0.00000001
 40
0.0
 40
0.0
 40
0.0
 40
0.0
 40
0.5
 40
0.5
 40
1.0
 40
1.0
 40
1.0
 40
1.0
 10
11.41010438809466
 20
0.5219488680317983
 30
0.0
 10
11.41010438809466
 20
0.477637146398672
 30
0.0
 10
11.41010438809466
 20
0.3981109167069838
 30
0.0
 10
11.41010438809466
 20
0.1862760490596443
 30
0.0
 10
11.41010438809466
 20
0.0556087259298588
 30
0.0
 10
11.41010438809466
 20
-0.074000777065818
 30
0.0
  0
SPLINE
  5
CD
330
1F
100
AcDbEntity
  8
0
  6
Continuous
 62
     1
370
    15
100
AcDbSpline
210
0.0
220
0.0
230
1.0
 70
     8
 71
     3
 72
     8
 73
     4
 74
     0
 42
0.000000001
 43
0.00000001
 40
0.0
 40
0.0
 40
0.0
 40
0.0
 40
1.0
 40
1.0
 40
1.0
 40
1.0
 10
19.41010438809467
 20
0.5260749287238942
 30
0.0
 10
19.2235154210782
 20
0.4752481879766799
 30
0.0
 10
19.0386813347259
 20
0.4112340614154451
 30
0.0
 10
18.86025806162965
 20
0.3241337766622491
 30
0.0
  0
LINE
  5
CE
330
1F
100
AcDbEntity
  8
0
  6
Continuous
 62
     1
370
    15
100
AcDbLine
 10
19.41010438809467
 20
0.0010749287238943
 30
0.0
 11
19.41010438809467
 21
0.5260749287238942
 31
0.0
  0
LINE
  5
CF
330
1F
100
AcDbEntity
  8
0
  6
Continuous
 62
   131
370
    15
100
AcDbLine
 10
10.41010438809468
 20
0.7510749287238933
 30
0.0
 11
10.41010438809468
 21
-0.748925071276107
 31
0.0
  0
LINE
  5
D0
330
1F
100
AcDbEntity
  8
0
  6
Continuous
 62
   131
370
    15
100
AcDbLine
 10
2.012990071064724
 20
3.001074928723892
 30
0.0
 11
2.012990071064724
 21
-2.998925071276106
 31
0.0
  0
LINE
  5
D1
330
1F
100
AcDbEntity
  8
0
  6
Continuous
 62
   131
370
    15
100
AcDbLine
 10
-40.03989561190532
 20
3.001074928723887
 30
0.0
 11
-40.03989561190532
 21
-2.998925071276108
 31
0.0
  0
LINE
  5
D2
330
1F
100
AcDbEntity
  8
0
  6
Continuous
 62
   131
370
    15
100
AcDbLine
 10
-40.58989561190532
 20
2.451074928723887
 30
0.0
 11
-40.58989561190532
 21
-2.448925071276109
 31
0.0
  0
SPLINE
  5
D3
330
1F
100
AcDbEntity
  8
0
  6
Continuous
 62
   131
370
    15
100
AcDbSpline
210
0.0
220
0.0
230
1.0
 70
     8
 71
     3
 72
    12
 73
     8
 74
     0
 42
0.000000001
 43
0.00000001
 40
0.0
 40
0.0
 40
0.0
 40
0.0
 40
0.4999999999999998
 40
0.4999999999999998
 40
0.7499999999999999
 40
0.7499999999999999
 40
1.0
 40
1.0
 40
1.0
 40
1.0
 10
11.41010438809468
 20
-0.7346409770196165
 30
0.0
 10
11.27570921642022
 20
-0.719622205729006
 30
0.0
 10
11.14621551366129
 20
-0.6931675827272261
 30
0.0
 10
10.94339894691305
 20
-0.6370714753177764
 30
0.0
 10
10.87546791177246
 20
-0.6156991425407813
 30
0.0
 10
10.74137991218218
 20
-0.568412603188931
 30
0.0
 10
10.67633205056759
 20
-0.5426630891815206
 30
0.0
 10
10.61030222849991
 20
-0.5147614353243769
 30
0.0
  0
SPLINE
  5
D4
330
1F
100
AcDbEntity
  8
0
  6
Continuous
 62
   131
370
    15
100
AcDbSpline
210
0.0
220
0.0
230
1.0
 70
     8
 71
     3
 72
     9
 73
     5
 74
     0
 42
0.000000001
 43
0.00000001
 40
0.0
 40
0.0
 40
0.0
 40
0.0
 40
0.5798044867711524
 40
1.0
 40
1.0
 40
1.0
 40
1.0
 10
10.61020126714202
 20
-0.6450318398499608
 30
0.0
 10
10.74381102363697
 20
-0.6800930137410602
 30
0.0
 10
10.97425035196812
 20
-0.7405636977234318
 30
0.0
 10
11.20445839391405
 20
-0.7414881847401456
 30
0.0
 10
11.30119078024892
 20
-0.741876650036607
 30
0.0
  0
ELLIPSE
  5
D5
330
1F
100
AcDbEntity
  8
0
  6
Continuous
 62
   131
370
    15
100
AcDbEllipse
 10
10.61023018188975
 20
0.0010749287238932
 30
0.0
 11
-6.583987536501467E-6
 21
0.7499999999999999
 31
0.0
210
0.0
220
0.0
230
1.0
 40
0.0000906597447946
 41
2.60862328967355
 42
3.652820502482123
  0
SPLINE
  5
D6
330
1F
100
AcDbEntity
  8
0
  6
Continuous
 62
   131
370
    15
100
AcDbSpline
210
0.0
220
0.0
230
1.0
 70
     8
 71
     3
 72
    12
 73
     8
 74
     0
 42
0.000000001
 43
0.00000001
 40
0.0
 40
0.0
 40
0.0
 40
0.0
 40
0.5
 40
0.5
 40
0.75
 40
0.75
 40
1.0
 40
1.0
 40
1.0
 40
1.0
 10
11.41010438809468
 20
0.7484091721860152
 30
0.0
 10
11.27569209212135
 20
0.7549234326139238
 30
0.0
 10
11.14618139040711
 20
0.7495553297905821
 30
0.0
 10
10.94333848129546
 20
0.7237434063586062
 30
0.0
 10
10.87539889618639
 20
0.7121812733099583
 30
0.0
 10
10.74129516210463
 20
0.6836015010312415
 30
0.0
 10
10.67624092495481
 20
0.666702281633602
 30
0.0
 10
10.61020126714202
 20
0.6471816972977472
 30
0.0
  0
ELLIPSE
  5
D7
330
1F
100
AcDbEntity
  8
0
  6
Continuous
 62
   131
370
    15
100
AcDbEllipse
 10
10.61023018188975
 20
0.0010749287238932
 30
0.0
 11
6.583987534725112E-6
 21
0.7499999999999999
 31
0.0
210
0.0
220
0.0
230
1.0
 40
0.0000906597447946
 41
3.954002919486974
 42
6.283185307179586
  0
SPLINE
  5
D8
330
1F
100
AcDbEntity
  8
0
  6
Continuous
 62
   131
370
    15
100
AcDbSpline
210
0.0
220
0.0
230
1.0
 70
    24
 71
     3
 72
    10
 73
     6
 74
     0
 42
0.000000001
 43
0.00000001
 40
0.0
 40
0.0
 40
0.0
 40
0.0
 40
0.5
 40
0.5
 40
1.0
 40
1.0
 40
1.0
 40
1.0
 10
11.4101043880949
 20
-0.0740007770659304
 30
0.0
 10
11.4101043880949
 20
-0.1863321323013891
 30
0.0
 10
11.4101043880949
 20
-0.2980311965710434
 30
0.0
 10
11.4101043880949
 20
-0.4873761253371138
 30
0.0
 10
11.4101043880949
 20
-0.5642069752399924
 30
0.0
 10
11.4101043880949
 20
-0.6156834294713217
 30
0.0
  0
SPLINE
  5
D9
330
1F
100
AcDbEntity
  8
0
  6
Continuous
 62
   131
370
    15
100
AcDbSpline
210
0.0
220
0.0
230
1.0
 70
     8
 71
     3
 72
    12
 73
     8
 74
     0
 42
0.000000001
 43
0.00000001
 40
0.0
 40
0.0
 40
0.0
 40
0.0
 40
0.4999999999999998
 40
0.4999999999999998
 40
0.7499999999999999
 40
0.7499999999999999
 40
1.0
 40
1.0
 40
1.0
 40
1.0
 10
11.41010438809633
 20
-0.6156834294714988
 30
0.0
 10
11.27570921642158
 20
-0.5990548469270046
 30
0.0
 10
11.1462155136624
 20
-0.572888232228742
 30
0.0
 10
10.94339894691375
 20
-0.5200788327917324
 30
0.0
 10
10.87546791177301
 20
-0.5002791803590164
 30
0.0
 10
10.74137991218245
 20
-0.4570283352180441
 30
0.0
 10
10.67633205056772
 20
-0.4337242946096842
 30
0.0
 10
10.61030222849991
 20
-0.4086966660496599
 30
0.0
  0
SPLINE
  5
DA
330
1F
100
AcDbEntity
  8
0
  6
Continuous
 62
   131
370
    15
100
AcDbSpline
210
0.0
220
0.0
230
1.0
 70
     8
 71
     3
 72
    12
 73
     8
 74
     0
 42
0.000000001
 43
0.00000001
 40
0.0
 40
0.0
 40
0.0
 40
0.0
 40
0.5000000000000002
 40
0.5000000000000002
 40
0.7500000000000001
 40
0.7500000000000001
 40
1.0
 40
1.0
 40
1.0
 40
1.0
 10
11.41010438809471
 20
-0.0740007770658423
 30
0.0
 10
11.27569835555378
 20
-0.0126245998711692
 30
0.0
 10
11.14619387146745
 20
0.0491961564655463
 30
0.0
 10
10.94336059737364
 20
0.1406276169295619
 30
0.0
 10
10.87542413949422
 20
0.1707133973649969
 30
0.0
 10
10.74132616038493
 20
0.2290368398767643
 30
0.0
 10
10.67627425559666
 20
0.2571229594020789
 30
0.0
 10
10.6102381953085
 20
0.2842347544384405
 30
0.0
  0
SPLINE
  5
DB
330
1F
100
AcDbEntity
  8
0
  6
Continuous
 62
   131
370
    15
100
AcDbSpline
210
0.0
220
0.0
230
1.0
 70
    24
 71
     3
 72
    10
 73
     6
 74
     0
 42
0.000000001
 43
0.00000001
 40
0.0
 40
0.0
 40
0.0
 40
0.0
 40
0.5
 40
0.5
 40
1.0
 40
1.0
 40
1.0
 40
1.0
 10
11.41010438809466
 20
0.5219488680317983
 30
0.0
 10
11.41010438809466
 20
0.477637146398672
 30
0.0
 10
11.41010438809466
 20
0.3981109167069838
 30
0.0
 10
11.41010438809466
 20
0.1862760490596443
 30
0.0
 10
11.41010438809466
 20
0.0556087259298588
 30
0.0
 10
11.41010438809466
 20
-0.074000777065818
 30
0.0
  0
SPLINE
  5
DC
330
1F
100
AcDbEntity
  8
0
  6
Continuous
 62
   131
370
    15
100
AcDbSpline
210
0.0
220
0.0
230
1.0
 70
     8
 71
     3
 72
     9
 73
     5
 74
     0
 42
0.000000001
 43
0.00000001
 40
0.0
 40
0.0
 40
0.0
 40
0.0
 40
0.9199733584001222
 40
1.0
 40
1.0
 40
1.0
 40
1.0
 10
11.4101043880947
 20
0.5219488680317962
 30
0.0
 10
11.27708102523574
 20
0.5278567370710967
 30
0.0
 10
11.13248622621863
 20
0.534278519816604
 30
0.0
 10
10.98780985503582
 20
0.5142973783621687
 30
0.0
 10
10.9762318909312
 20
0.5126983547162381
 30
0.0
  0
SPLINE
  5
DD
330
1F
100
AcDbEntity
  8
0
  6
Continuous
 62
   131
370
    15
100
AcDbSpline
210
0.0
220
0.0
230
1.0
 70
    24
 71
     3
 72
     8
 73
     4
 74
     0
 42
0.000000001
 43
0.00000001
 40
0.0
 40
0.0
 40
0.0
 40
0.0
 40
1.0
 40
1.0
 40
1.0
 40
1.0
 10
11.41010438809468
 20
-0.6156834294712938
 30
0.0
 10
11.41010438809468
 20
-0.655536893594166
 30
0.0
 10
11.41010438809468
 20
-0.6954451490503077
 30
0.0
 10
11.41010438809468
 20
-0.7346409770101475
 30
0.0
  0
SPLINE
  5
DE
330
1F
100
AcDbEntity
  8
0
  6
Continuous
 62
   131
370
    15
100
AcDbSpline
210
0.0
220
0.0
230
1.0
 70
    24
 71
     3
 72
     8
 73
     4
 74
     0
 42
0.000000001
 43
0.00000001
 40
0.0
 40
0.0
 40
0.0
 40
0.0
 40
1.0
 40
1.0
 40
1.0
 40
1.0
 10
11.41010438809577
 20
0.7484091721713377
 30
0.0
 10
11.41010438809577
 20
0.6762826396262905
 30
0.0
 10
11.41010438809577
 20
0.5896950933848999
 30
0.0
 10
11.41010438809577
 20
0.5219488680317423
 30
0.0
  0
LINE
  5
DF
330
1F
100
AcDbEntity
  8
중심선
 62
     1
100
AcDbLine
 10
-43.58989561190532
 20
0.0010749287238884
 30
0.0
 11
20.91010438809467
 21
0.0010749287238944
 31
0.0
  0
CIRCLE
  5
E0
330
1F
100
AcDbEntity
  8
외형선
100
AcDbCircle
 10
0.0
 20
0.0
 30
0.0
 40
3.000000000000005
  0
INSERT
  5
E1
330
1F
100
AcDbEntity
  8
0
  6
Continuous
 62
     7
100
AcDbBlockReference
 66
     1
  2
블럭10
 10
-28.54107920776194
 20
-52.04717430164393
 30
0.0
  0
ATTRIB
  5
E2
330
E1
100
AcDbEntity
  8
FORMAT
 62
     2
100
AcDbText
 10
-44.6603402471975
 20
-49.97180738881174
 30
0.0
 40
4.233333333333333
  1
SEME7001508E [ 2 FLUTE ]
 41
0.75
  7
SLDTEXTSTYLE0
 11
-44.6603402471975
 21
-52.08847405547841
 31
0.0
100
AcDbAttribute
  2
AUTOATTR0
 70
     0
 74
     1
  0
SEQEND
  5
E3
330
E1
100
AcDbEntity
  8
0
  6
Continuous
 62
     7
  0
HATCH
  5
E4
330
1F
100
AcDbEntity
  8
중심선
100
AcDbHatch
 10
0.0
 20
0.0
 30
0.0
210
0.0
220
0.0
230
1.0
  2
SOLID
 70
     1
 71
     0
 91
        1
 92
        0
 93
        4
 72
     1
 10
-22.82616990338109
 20
-35.8
 11
-26.27244514721837
 21
-35.8
 72
     1
 10
-26.27244514721837
 20
-35.8
 11
-28.40067500642239
 21
-38.3363255805726
 72
     1
 10
-28.40067500642239
 20
-38.3363255805726
 11
-24.95436667747196
 21
-38.33628615127011
 72
     1
 10
-24.95436667747196
 20
-38.33628615127011
 11
-22.82616990338109
 21
-35.8
 97
        0
 75
     0
 76
     1
 98
        1
 10
-5.601635519696047
 20
-0.0010749287238938
  0
HATCH
  5
E5
330
1F
100
AcDbEntity
  8
중심선
100
AcDbHatch
 10
0.0
 20
0.0
 30
0.0
210
0.0
220
0.0
230
1.0
  2
SOLID
 70
     1
 71
     0
 91
        1
 92
        0
 93
        4
 72
     1
 10
-17.81340591234514
 20
-35.8
 11
-21.25968115618242
 21
-35.8
 72
     1
 10
-21.25968115618242
 20
-35.8
 11
-25.79081916453981
 21
-41.20000000000002
 72
     1
 10
-25.79081916453981
 20
-41.20000000000002
 11
-22.34454392070252
 21
-41.20000000000002
 72
     1
 10
-22.34454392070252
 20
-41.20000000000002
 11
-17.81340591234514
 21
-35.8
 97
        0
 75
     0
 76
     1
 98
        1
 10
-5.601635519696047
 20
-0.0010749287238938
  0
HATCH
  5
E6
330
1F
100
AcDbEntity
  8
중심선
100
AcDbHatch
 10
0.0
 20
0.0
 30
0.0
210
0.0
220
0.0
230
1.0
  2
SOLID
 70
     1
 71
     0
 91
        1
 92
        0
 93
        4
 72
     1
 10
-12.80064192130924
 20
-35.80000000000003
 11
-16.24691716514636
 21
-35.8
 72
     1
 10
-16.24691716514636
 20
-35.8
 11
-23.29535406703561
 21
-44.20000000000002
 72
     1
 10
-23.29535406703561
 20
-44.20000000000002
 11
-19.84907882319833
 21
-44.20000000000002
 72
     1
 10
-19.84907882319833
 20
-44.20000000000002
 11
-12.80064192130924
 21
-35.80000000000003
 97
        0
 75
     0
 76
     1
 98
        1
 10
-5.601635519696047
 20
-0.0010749287238938
  0
HATCH
  5
E7
330
1F
100
AcDbEntity
  8
중심선
100
AcDbHatch
 10
0.0
 20
0.0
 30
0.0
210
0.0
220
0.0
230
1.0
  2
SOLID
 70
     1
 71
     0
 91
        1
 92
        0
 93
        6
 72
     3
 10
-8.000751490297043
 20
-40.00000000005127
 11
3.960054785062284
 21
1.540882976769353E-10
 40
0.3939339440162627
 50
17.09539180608436
 51
320.0019657685081
 73
     0
 72
     1
 10
-6.317751834596447
 20
-38.5878940046383
 11
-4.01244996089541
 21
-36.65356729459038
 72
     3
 10
-8.00075149034989
 20
-40.00000000000015
 11
6.60005478528683
 21
-1.278976924368180E-13
 40
0.636358354079598
 50
39.99873849337411
 51
368.4976242363724
 73
     1
 72
     1
 10
-1.57541899844928
 20
-39.03999999993002
 11
-9.320684183513967
 21
-39.03999999993
 72
     1
 10
-9.320684183513967
 20
-39.03999999993
 11
-9.3207092279599
 21
-40.95999999992991
 72
     1
 10
-9.3207092279599
 20
-40.95999999992991
 11
-4.879329458487864
 21
-40.95999999992988
 97
        0
 75
     0
 76
     1
 98
        1
 10
-5.601635519696047
 20
-0.0010749287238938
  0
DIMENSION
  5
E8
330
1F
100
AcDbEntity
  8
치수문자_일반주서
100
AcDbDimension
  2
_D
 10
37.6928117077403
 20
0.7504410401461961
 30
0.0
 11
37.69281170774025
 21
12.8231910401462
 31
0.0
 70
   160
  1
%%c<>
 71
     2
 42
1.498732222844468
 52
-270.0
  3
SLDDIMSTYLE0
100
AcDbAlignedDimension
 13
19.41010438809467
 23
-0.7482911826983403
 33
0.0
 14
19.41010438809467
 24
0.7504410401461278
 34
0.0
 50
90.0000000000002
100
AcDbRotatedDimension
  0
DIMENSION
  5
F6
330
1F
100
AcDbEntity
  8
치수문자_일반주서
100
AcDbDimension
  2
_D_1
 10
19.41010438809467
 20
24.23948536896658
 30
0.0
 11
-10.58989561190533
 21
24.23948536896658
 31
0.0
 70
   160
  1
<>
 71
     2
 42
59.99999999999999
  3
SLDDIMSTYLE1
100
AcDbAlignedDimension
 13
-40.58989561190532
 23
2.451074928723887
 33
0.0
 14
19.41010438809467
 24
0.7127805806478194
 34
0.0
 50
-0.0000000000000068
100
AcDbRotatedDimension
  0
DIMENSION
  5
101
330
1F
100
AcDbEntity
  8
치수문자_일반주서
100
AcDbDimension
  2
_D_2
 10
19.41010438809467
 20
14.09807273489141
 30
0.0
 11
15.41010438809467
 21
14.09807273489141
 31
0.0
 70
   160
  1
<>
 71
     2
 42
7.999999999999996
  3
SLDDIMSTYLE2
100
AcDbAlignedDimension
 13
11.41010438809468
 23
0.7510749287238933
 33
0.0
 14
19.41010438809467
 24
0.7504410401461276
 34
0.0
100
AcDbRotatedDimension
  0
DIMENSION
  5
10E
330
1F
100
AcDbEntity
  8
치수문자_일반주서
100
AcDbDimension
  2
_D_3
 10
-52.53635363351732
 20
-2.998925071276153
 30
0.0
 11
-52.53635363351738
 21
12.66757492872384
 31
0.0
 70
   160
  1
%%c<>
 71
     2
 42
5.999999999999994
 52
-270.0
  3
SLDDIMSTYLE2
100
AcDbAlignedDimension
 13
-40.03989561190532
 23
3.001074928723887
 33
0.0
 14
-40.03989561190532
 24
-2.998925071276107
 34
0.0
 50
90.0000000000002
100
AcDbRotatedDimension
  0
INSERT
  5
121
330
1F
100
AcDbEntity
  8
외형선
100
AcDbBlockReference
  2
SW_DOWELSYMBOL_0
 10
0.0
 20
0.0
 30
0.0
  0
ENDSEC
  0
SECTION
  2
OBJECTS
  0
DICTIONARY
  5
C
330
0
100
AcDbDictionary
281
     1
  3
ACAD_GROUP
350
D
  3
ACAD_IMAGE_VARS
350
145
  3
ACAD_LAYOUT
350
1A
  3
ACAD_MLINESTYLE
350
17
  3
ACAD_PLOTSETTINGS
350
19
  3
ACAD_PLOTSTYLENAME
350
E
  3
ACAD_SCALELIST
350
47
  3
APPDATA
350
143
  3
DWGPROPS
350
197
  0
DICTIONARY
  5
D
102
{ACAD_REACTORS
330
C
102
}
330
C
100
AcDbDictionary
281
     1
  0
RASTERVARIABLES
  5
145
102
{ACAD_REACTORS
330
C
102
}
330
C
100
AcDbRasterVariables
 90
        0
 70
     1
 71
     1
 72
     1
  0
DICTIONARY
  5
1A
102
{ACAD_REACTORS
330
C
102
}
330
C
100
AcDbDictionary
281
     1
  3
Layout1
350
1E
  3
Layout2
350
26
  3
Model
350
22
  0
DICTIONARY
  5
17
102
{ACAD_REACTORS
330
C
102
}
330
C
100
AcDbDictionary
281
     1
  3
Standard
350
18
  0
DICTIONARY
  5
19
102
{ACAD_REACTORS
330
C
102
}
330
C
100
AcDbDictionary
281
     1
  0
ACDBDICTIONARYWDFLT
  5
E
102
{ACAD_REACTORS
330
C
102
}
330
C
100
AcDbDictionary
281
     1
  3
Normal
350
F
100
AcDbDictionaryWithDefault
340
F
  0
DICTIONARY
  5
47
102
{ACAD_REACTORS
330
C
102
}
330
C
100
AcDbDictionary
281
     1
  3
A0
350
48
  3
A1
350
49
  3
A2
350
4A
  3
A3
350
4B
  3
A4
350
4C
  3
A5
350
4D
  3
A6
350
4E
  3
A7
350
4F
  3
A8
350
50
  3
A9
350
51
  3
B0
350
52
  3
B1
350
53
  3
B2
350
54
  3
B3
350
55
  3
B4
350
56
  3
B5
350
57
  3
B6
350
58
  3
B7
350
59
  3
B8
350
5A
  3
B9
350
5B
  3
C0
350
5C
  3
C1
350
5D
  3
C2
350
5E
  3
C3
350
5F
  3
C4
350
60
  3
C5
350
61
  3
C6
350
62
  3
C7
350
63
  3
C8
350
64
  3
C9
350
65
  3
D0
350
66
  3
D1
350
67
  3
D2
350
68
  0
DICTIONARY
  5
143
102
{ACAD_REACTORS
330
C
102
}
330
C
100
AcDbDictionary
281
     1
  0
XRECORD
  5
197
102
{ACAD_REACTORS
330
C
102
}
330
C
100
AcDbXrecord
280
     1
  1
DWGPROPS COOKIE
  2

  3

  4

  6

  7

  8
12014102
  9

300
=
301
=
302
=
303
=
304
=
305
=
306
=
307
=
308
=
309
=
 40
0.0
 41
2458262.159220463
 42
2458264.395887269
  1

 90
        0
  0
LAYOUT
  5
1E
102
{ACAD_REACTORS
330
1A
102
}
330
1A
100
AcDbPlotSettings
  1

  2
none_device
  4

  6

 40
0.0
 41
0.0
 42
0.0
 43
0.0
 44
0.0
 45
0.0
 46
0.0
 47
0.0
 48
0.0
 49
0.0
140
0.0
141
0.0
142
1.0
143
1.0
 70
   688
 72
     1
 73
     0
 74
     5
  7

 75
    16
147
1.0
148
0.0
149
0.0
100
AcDbLayout
  1
Layout1
 70
     1
 71
     1
 10
0.0
 20
0.0
 11
420.0
 21
297.0
 12
0.0
 22
0.0
 32
0.0
 14
1.000000000000000E+20
 24
1.000000000000000E+20
 34
1.000000000000000E+20
 15
-1.000000000000000E+20
 25
-1.000000000000000E+20
 35
-1.000000000000000E+20
146
0.0
 13
0.0
 23
0.0
 33
0.0
 16
1.0
 26
0.0
 36
0.0
 17
0.0
 27
1.0
 37
0.0
 76
     0
330
1B
  0
LAYOUT
  5
26
102
{ACAD_REACTORS
330
1A
102
}
330
1A
100
AcDbPlotSettings
  1

  2
none_device
  4

  6

 40
0.0
 41
0.0
 42
0.0
 43
0.0
 44
0.0
 45
0.0
 46
0.0
 47
0.0
 48
0.0
 49
0.0
140
0.0
141
0.0
142
1.0
143
1.0
 70
   688
 72
     1
 73
     0
 74
     5
  7

 75
    16
147
1.0
148
0.0
149
0.0
100
AcDbLayout
  1
Layout2
 70
     1
 71
     2
 10
0.0
 20
0.0
 11
0.0
 21
0.0
 12
0.0
 22
0.0
 32
0.0
 14
0.0
 24
0.0
 34
0.0
 15
0.0
 25
0.0
 35
0.0
146
0.0
 13
0.0
 23
0.0
 33
0.0
 16
1.0
 26
0.0
 36
0.0
 17
0.0
 27
1.0
 37
0.0
 76
     0
330
23
  0
LAYOUT
  5
22
102
{ACAD_REACTORS
330
1A
102
}
330
1A
100
AcDbPlotSettings
  1

  2
none_device
  4
ANSI_A_(11.00_x_8.50_Inches)
  6

 40
6.35
 41
19.05
 42
6.35000508
 43
19.05000254
 44
279.4
 45
215.9
 46
148.4547338063116
 47
118.4377884955873
 48
0.0
 49
0.0
140
0.0
141
0.0
142
0.1058944507156154
143
1.0
 70
  1696
 72
     0
 73
     0
 74
     0
  7

 75
     0
147
0.0235690232323232
148
0.0
149
0.0
100
AcDbLayout
  1
Model
 70
     1
 71
     0
 10
0.0
 20
0.0
 11
420.0
 21
297.0
 12
0.0
 22
0.0
 32
0.0
 14
-56.91135363351739
 24
-49.97180738881174
 34
0.0
 15
38.24314504107366
 25
28.61448536896658
 35
0.0
146
0.0
 13
0.0
 23
0.0
 33
0.0
 16
1.0
 26
0.0
 36
0.0
 17
0.0
 27
1.0
 37
0.0
 76
     0
330
1F
331
29
  0
MLINESTYLE
  5
18
102
{ACAD_REACTORS
330
17
102
}
330
17
100
AcDbMlineStyle
  2
Standard
 70
     0
  3

 62
   256
 51
90.0
 52
90.0
 71
     2
 49
0.5
 62
   256
  6
BYLAYER
 49
-0.5
 62
   256
  6
BYLAYER
  0
ACDBPLACEHOLDER
  5
F
102
{ACAD_REACTORS
330
E
102
}
330
E
  0
SCALE
  5
48
102
{ACAD_REACTORS
330
47
102
}
330
47
100
AcDbScale
 70
     0
300
1:1
140
1.0
141
1.0
290
     1
  0
SCALE
  5
49
102
{ACAD_REACTORS
330
47
102
}
330
47
100
AcDbScale
 70
     0
300
1:2
140
1.0
141
2.0
290
     0
  0
SCALE
  5
4A
102
{ACAD_REACTORS
330
47
102
}
330
47
100
AcDbScale
 70
     0
300
1:4
140
1.0
141
4.0
290
     0
  0
SCALE
  5
4B
102
{ACAD_REACTORS
330
47
102
}
330
47
100
AcDbScale
 70
     0
300
1:5
140
1.0
141
5.0
290
     0
  0
SCALE
  5
4C
102
{ACAD_REACTORS
330
47
102
}
330
47
100
AcDbScale
 70
     0
300
1:8
140
1.0
141
8.0
290
     0
  0
SCALE
  5
4D
102
{ACAD_REACTORS
330
47
102
}
330
47
100
AcDbScale
 70
     0
300
1:10
140
1.0
141
10.0
290
     0
  0
SCALE
  5
4E
102
{ACAD_REACTORS
330
47
102
}
330
47
100
AcDbScale
 70
     0
300
1:16
140
1.0
141
16.0
290
     0
  0
SCALE
  5
4F
102
{ACAD_REACTORS
330
47
102
}
330
47
100
AcDbScale
 70
     0
300
1:20
140
1.0
141
20.0
290
     0
  0
SCALE
  5
50
102
{ACAD_REACTORS
330
47
102
}
330
47
100
AcDbScale
 70
     0
300
1:30
140
1.0
141
30.0
290
     0
  0
SCALE
  5
51
102
{ACAD_REACTORS
330
47
102
}
330
47
100
AcDbScale
 70
     0
300
1:40
140
1.0
141
40.0
290
     0
  0
SCALE
  5
52
102
{ACAD_REACTORS
330
47
102
}
330
47
100
AcDbScale
 70
     0
300
1:50
140
1.0
141
50.0
290
     0
  0
SCALE
  5
53
102
{ACAD_REACTORS
330
47
102
}
330
47
100
AcDbScale
 70
     0
300
1:100
140
1.0
141
100.0
290
     0
  0
SCALE
  5
54
102
{ACAD_REACTORS
330
47
102
}
330
47
100
AcDbScale
 70
     0
300
2:1
140
2.0
141
1.0
290
     0
  0
SCALE
  5
55
102
{ACAD_REACTORS
330
47
102
}
330
47
100
AcDbScale
 70
     0
300
4:1
140
4.0
141
1.0
290
     0
  0
SCALE
  5
56
102
{ACAD_REACTORS
330
47
102
}
330
47
100
AcDbScale
 70
     0
300
8:1
140
8.0
141
1.0
290
     0
  0
SCALE
  5
57
102
{ACAD_REACTORS
330
47
102
}
330
47
100
AcDbScale
 70
     0
300
10:1
140
10.0
141
1.0
290
     0
  0
SCALE
  5
58
102
{ACAD_REACTORS
330
47
102
}
330
47
100
AcDbScale
 70
     0
300
100:1
140
100.0
141
1.0
290
     0
  0
SCALE
  5
59
102
{ACAD_REACTORS
330
47
102
}
330
47
100
AcDbScale
 70
     0
300
1/128" = 1'-0"
140
0.0078125
141
12.0
290
     0
  0
SCALE
  5
5A
102
{ACAD_REACTORS
330
47
102
}
330
47
100
AcDbScale
 70
     0
300
1/64" = 1'-0"
140
0.015625
141
12.0
290
     0
  0
SCALE
  5
5B
102
{ACAD_REACTORS
330
47
102
}
330
47
100
AcDbScale
 70
     0
300
1/32" = 1'-0"
140
0.03125
141
12.0
290
     0
  0
SCALE
  5
5C
102
{ACAD_REACTORS
330
47
102
}
330
47
100
AcDbScale
 70
     0
300
1/16" = 1'-0"
140
0.0625
141
12.0
290
     0
  0
SCALE
  5
5D
102
{ACAD_REACTORS
330
47
102
}
330
47
100
AcDbScale
 70
     0
300
3/32" = 1'-0"
140
0.09375
141
12.0
290
     0
  0
SCALE
  5
5E
102
{ACAD_REACTORS
330
47
102
}
330
47
100
AcDbScale
 70
     0
300
1/8" = 1'-0"
140
0.125
141
12.0
290
     0
  0
SCALE
  5
5F
102
{ACAD_REACTORS
330
47
102
}
330
47
100
AcDbScale
 70
     0
300
3/16" = 1'-0"
140
0.1875
141
12.0
290
     0
  0
SCALE
  5
60
102
{ACAD_REACTORS
330
47
102
}
330
47
100
AcDbScale
 70
     0
300
1/4" = 1'-0"
140
0.25
141
12.0
290
     0
  0
SCALE
  5
61
102
{ACAD_REACTORS
330
47
102
}
330
47
100
AcDbScale
 70
     0
300
3/8" = 1'-0"
140
0.375
141
12.0
290
     0
  0
SCALE
  5
62
102
{ACAD_REACTORS
330
47
102
}
330
47
100
AcDbScale
 70
     0
300
1/2" = 1'-0"
140
0.5
141
12.0
290
     0
  0
SCALE
  5
63
102
{ACAD_REACTORS
330
47
102
}
330
47
100
AcDbScale
 70
     0
300
3/4" = 1'-0"
140
0.75
141
12.0
290
     0
  0
SCALE
  5
64
102
{ACAD_REACTORS
330
47
102
}
330
47
100
AcDbScale
 70
     0
300
1" = 1'-0"
140
1.0
141
12.0
290
     0
  0
SCALE
  5
65
102
{ACAD_REACTORS
330
47
102
}
330
47
100
AcDbScale
 70
     0
300
1-1/2" = 1'-0"
140
1.5
141
12.0
290
     0
  0
SCALE
  5
66
102
{ACAD_REACTORS
330
47
102
}
330
47
100
AcDbScale
 70
     0
300
3" = 1'-0"
140
3.0
141
12.0
290
     0
  0
SCALE
  5
67
102
{ACAD_REACTORS
330
47
102
}
330
47
100
AcDbScale
 70
     0
300
6" = 1'-0"
140
6.0
141
12.0
290
     0
  0
SCALE
  5
68
102
{ACAD_REACTORS
330
47
102
}
330
47
100
AcDbScale
 70
     0
300
1'-0" = 1'-0"
140
12.0
141
12.0
290
     0
  0
ENDSEC
  0
EOF
