  0
SECTION
  2
HEADER
  9
$ACADVER
  1
AC1015
  9
$ACADMAINTVER
 70
     6
  9
$DWGCODEPAGE
  3
ANSI_949
  9
$INSBASE
 10
0.0
 20
0.0
 30
0.0
  9
$EXTMIN
 10
-54.97873689411271
 20
-49.97073246008785
 30
0.0
  9
$EXTMAX
 10
38.31470499984403
 20
28.61341044024269
 30
0.0
  9
$LIMMIN
 10
0.0
 20
0.0
  9
$LIMMAX
 10
420.0
 20
297.0
  9
$ORTHOMODE
 70
     0
  9
$REGENMODE
 70
     1
  9
$FILLMODE
 70
     1
  9
$QTEXTMODE
 70
     0
  9
$MIRRTEXT
 70
     1
  9
$LTSCALE
 40
1.0
  9
$ATTMODE
 70
     1
  9
$TEXTSIZE
 40
3.5
  9
$TRACEWID
 40
1.0
  9
$TEXTSTYLE
  7
Standard
  9
$CLAYER
  8
0
  9
$CELTYPE
  6
ByLayer
  9
$CECOLOR
 62
   256
  9
$CELTSCALE
 40
1.0
  9
$DISPSILH
 70
     0
  9
$DIMSCALE
 40
1.0
  9
$DIMASZ
 40
3.302
  9
$DIMEXO
 40
1.0
  9
$DIMDLI
 40
3.75
  9
$DIMRND
 40
0.0
  9
$DIMDLE
 40
0.0
  9
$DIMEXE
 40
1.0
  9
$DIMTP
 40
0.0
  9
$DIMTM
 40
0.0
  9
$DIMTXT
 40
3.5
  9
$DIMCEN
 40
2.5
  9
$DIMTSZ
 40
0.0
  9
$DIMTOL
 70
     0
  9
$DIMLIM
 70
     0
  9
$DIMTIH
 70
     1
  9
$DIMTOH
 70
     1
  9
$DIMSE1
 70
     0
  9
$DIMSE2
 70
     0
  9
$DIMTAD
 70
     1
  9
$DIMZIN
 70
     0
  9
$DIMBLK
  1

  9
$DIMASO
 70
     1
  9
$DIMSHO
 70
     1
  9
$DIMPOST
  1

  9
$DIMAPOST
  1

  9
$DIMALT
 70
     0
  9
$DIMALTD
 70
     3
  9
$DIMALTF
 40
0.0393700787401575
  9
$DIMLFAC
 40
1.0
  9
$DIMTOFL
 70
     1
  9
$DIMTVP
 40
0.0
  9
$DIMTIX
 70
     0
  9
$DIMSOXD
 70
     0
  9
$DIMSAH
 70
     0
  9
$DIMBLK1
  1

  9
$DIMBLK2
  1

  9
$DIMSTYLE
  2
ISO-25
  9
$DIMCLRD
 70
     0
  9
$DIMCLRE
 70
     0
  9
$DIMCLRT
 70
     0
  9
$DIMTFAC
 40
1.0
  9
$DIMGAP
 40
1.524
  9
$DIMJUST
 70
     0
  9
$DIMSD1
 70
     0
  9
$DIMSD2
 70
     0
  9
$DIMTOLJ
 70
     0
  9
$DIMTZIN
 70
     0
  9
$DIMALTZ
 70
     0
  9
$DIMALTTZ
 70
     0
  9
$DIMUPT
 70
     0
  9
$DIMDEC
 70
     2
  9
$DIMTDEC
 70
     2
  9
$DIMALTU
 70
     2
  9
$DIMALTTD
 70
     3
  9
$DIMTXSTY
  7
Standard
  9
$DIMAUNIT
 70
     0
  9
$DIMADEC
 70
     2
  9
$DIMALTRND
 40
0.0
  9
$DIMAZIN
 70
     0
  9
$DIMDSEP
 70
    44
  9
$DIMATFIT
 70
     3
  9
$DIMFRAC
 70
     0
  9
$DIMLDRBLK
  1

  9
$DIMLUNIT
 70
     2
  9
$DIMLWD
 70
    -2
  9
$DIMLWE
 70
    -2
  9
$DIMTMOVE
 70
     0
  9
$LUNITS
 70
     2
  9
$LUPREC
 70
     2
  9
$SKETCHINC
 40
1.0
  9
$FILLETRAD
 40
10.0
  9
$AUNITS
 70
     0
  9
$AUPREC
 70
     2
  9
$MENU
  1
.
  9
$ELEVATION
 40
0.0
  9
$PELEVATION
 40
0.0
  9
$THICKNESS
 40
0.0
  9
$LIMCHECK
 70
     0
  9
$CHAMFERA
 40
0.0
  9
$CHAMFERB
 40
0.0
  9
$CHAMFERC
 40
0.0
  9
$CHAMFERD
 40
0.0
  9
$SKPOLY
 70
     0
  9
$TDCREATE
 40
2458262.533469537
  9
$TDUCREATE
 40
2458262.158469537
  9
$TDUPDATE
 40
2458264.769785046
  9
$TDUUPDATE
 40
2458264.394785046
  9
$TDINDWG
 40
0.0059439005
  9
$TDUSRTIMER
 40
2458264.394509317
  9
$USRTIMER
 70
     1
  9
$ANGBASE
 50
0.0
  9
$ANGDIR
 70
     0
  9
$PDMODE
 70
     0
  9
$PDSIZE
 40
-1.0
  9
$PLINEWID
 40
0.0
  9
$SPLFRAME
 70
     0
  9
$SPLINETYPE
 70
     6
  9
$SPLINESEGS
 70
     8
  9
$HANDSEED
  5
19A
  9
$SURFTAB1
 70
     6
  9
$SURFTAB2
 70
     6
  9
$SURFTYPE
 70
     6
  9
$SURFU
 70
     6
  9
$SURFV
 70
     6
  9
$UCSBASE
  2

  9
$UCSNAME
  2

  9
$UCSORG
 10
0.0
 20
0.0
 30
0.0
  9
$UCSXDIR
 10
1.0
 20
0.0
 30
0.0
  9
$UCSYDIR
 10
0.0
 20
1.0
 30
0.0
  9
$UCSORTHOREF
  2

  9
$UCSORTHOVIEW
 70
     0
  9
$UCSORGTOP
 10
0.0
 20
0.0
 30
0.0
  9
$UCSORGBOTTOM
 10
0.0
 20
0.0
 30
0.0
  9
$UCSORGLEFT
 10
0.0
 20
0.0
 30
0.0
  9
$UCSORGRIGHT
 10
0.0
 20
0.0
 30
0.0
  9
$UCSORGFRONT
 10
0.0
 20
0.0
 30
0.0
  9
$UCSORGBACK
 10
0.0
 20
0.0
 30
0.0
  9
$PUCSBASE
  2

  9
$PUCSNAME
  2

  9
$PUCSORG
 10
0.0
 20
0.0
 30
0.0
  9
$PUCSXDIR
 10
1.0
 20
0.0
 30
0.0
  9
$PUCSYDIR
 10
0.0
 20
1.0
 30
0.0
  9
$PUCSORTHOREF
  2

  9
$PUCSORTHOVIEW
 70
     0
  9
$PUCSORGTOP
 10
0.0
 20
0.0
 30
0.0
  9
$PUCSORGBOTTOM
 10
0.0
 20
0.0
 30
0.0
  9
$PUCSORGLEFT
 10
0.0
 20
0.0
 30
0.0
  9
$PUCSORGRIGHT
 10
0.0
 20
0.0
 30
0.0
  9
$PUCSORGFRONT
 10
0.0
 20
0.0
 30
0.0
  9
$PUCSORGBACK
 10
0.0
 20
0.0
 30
0.0
  9
$USERI1
 70
     0
  9
$USERI2
 70
     0
  9
$USERI3
 70
     0
  9
$USERI4
 70
     0
  9
$USERI5
 70
     0
  9
$USERR1
 40
0.0
  9
$USERR2
 40
0.0
  9
$USERR3
 40
0.0
  9
$USERR4
 40
0.0
  9
$USERR5
 40
0.0
  9
$WORLDVIEW
 70
     1
  9
$SHADEDGE
 70
     3
  9
$SHADEDIF
 70
    70
  9
$TILEMODE
 70
     1
  9
$MAXACTVP
 70
    64
  9
$PINSBASE
 10
0.0
 20
0.0
 30
0.0
  9
$PLIMCHECK
 70
     0
  9
$PEXTMIN
 10
1.000000000000000E+20
 20
1.000000000000000E+20
 30
1.000000000000000E+20
  9
$PEXTMAX
 10
-1.000000000000000E+20
 20
-1.000000000000000E+20
 30
-1.000000000000000E+20
  9
$PLIMMIN
 10
0.0
 20
0.0
  9
$PLIMMAX
 10
0.0
 20
0.0
  9
$UNITMODE
 70
     0
  9
$VISRETAIN
 70
     1
  9
$PLINEGEN
 70
     0
  9
$PSLTSCALE
 70
     1
  9
$TREEDEPTH
 70
  3020
  9
$CMLSTYLE
  2
Standard
  9
$CMLJUST
 70
     0
  9
$CMLSCALE
 40
20.0
  9
$PROXYGRAPHICS
 70
     1
  9
$MEASUREMENT
 70
     1
  9
$CELWEIGHT
370
    -1
  9
$ENDCAPS
280
     0
  9
$JOINSTYLE
280
     0
  9
$LWDISPLAY
290
     1
  9
$INSUNITS
 70
     4
  9
$HYPERLINKBASE
  1

  9
$STYLESHEET
  1

  9
$XEDIT
290
     1
  9
$CEPSNTYPE
380
     0
  9
$PSTYLEMODE
290
     1
  9
$FINGERPRINTGUID
  2
{C98B9B6F-85D5-44D4-956F-B3C4D19AF8E1}
  9
$VERSIONGUID
  2
{FAEB1C32-E019-11D5-929B-00C0DF256EC4}
  9
$EXTNAMES
290
     1
  9
$PSVPSCALE
 40
0.0
  9
$OLESTARTUP
290
     0
  0
ENDSEC
  0
SECTION
  2
CLASSES
  0
CLASS
  1
ACDBDICTIONARYWDFLT
  2
AcDbDictionaryWithDefault
  3
ObjectDBX Classes
 90
        0
280
     0
281
     0
  0
CLASS
  1
VISUALSTYLE
  2
AcDbVisualStyle
  3
ObjectDBX Classes
 90
     4095
280
     0
281
     0
  0
CLASS
  1
MATERIAL
  2
AcDbMaterial
  3
ObjectDBX Classes
 90
     1153
280
     0
281
     0
  0
CLASS
  1
SCALE
  2
AcDbScale
  3
ObjectDBX Classes
 90
     1153
280
     0
281
     0
  0
CLASS
  1
SUN
  2
AcDbSun
  3
SCENEOE
 90
     1153
280
     0
281
     0
  0
CLASS
  1
ACDBPLACEHOLDER
  2
AcDbPlaceHolder
  3
ObjectDBX Classes
 90
        0
280
     0
281
     0
  0
CLASS
  1
LAYOUT
  2
AcDbLayout
  3
ObjectDBX Classes
 90
        0
280
     0
281
     0
  0
CLASS
  1
TABLESTYLE
  2
AcDbTableStyle
  3
ObjectDBX Classes
 90
     4095
280
     0
281
     0
  0
CLASS
  1
MLEADERSTYLE
  2
AcDbMLeaderStyle
  3
ACDB_MLEADERSTYLE_CLASS
 90
     4095
280
     0
281
     0
  0
CLASS
  1
RASTERVARIABLES
  2
AcDbRasterVariables
  3
ISM
 90
        0
280
     0
281
     0
  0
ENDSEC
  0
SECTION
  2
TABLES
  0
TABLE
  2
VPORT
  5
8
330
0
100
AcDbSymbolTable
 70
     1
  0
VPORT
  5
29
330
8
100
AcDbSymbolTableRecord
100
AcDbViewportTableRecord
  2
*Active
 70
     0
 10
0.0
 20
0.0
 11
1.0
 21
1.0
 12
-8.332015947134352
 22
-10.67866100992258
 13
0.0
 23
0.0
 14
10.0
 24
10.0
 15
10.0
 25
10.0
 16
0.0
 26
0.0
 36
1.0
 17
0.0
 27
0.0
 37
0.0
 40
80.15582575833714
 41
1.370988446726572
 42
50.0
 43
0.0
 44
0.0
 50
0.0
 51
0.0
 71
    16
 72
  2000
 73
     1
 74
     3
 75
     0
 76
     0
 77
     0
 78
     0
281
     0
 65
     1
110
0.0
120
0.0
130
0.0
111
1.0
121
0.0
131
0.0
112
0.0
122
1.0
132
0.0
 79
     0
146
0.0
  0
ENDTAB
  0
TABLE
  2
LTYPE
  5
5
330
0
100
AcDbSymbolTable
 70
     6
  0
LTYPE
  5
14
330
5
100
AcDbSymbolTableRecord
100
AcDbLinetypeTableRecord
  2
ByBlock
 70
     0
  3

 72
    65
 73
     0
 40
0.0
  0
LTYPE
  5
15
330
5
100
AcDbSymbolTableRecord
100
AcDbLinetypeTableRecord
  2
ByLayer
 70
     0
  3

 72
    65
 73
     0
 40
0.0
  0
LTYPE
  5
16
330
5
100
AcDbSymbolTableRecord
100
AcDbLinetypeTableRecord
  2
Continuous
 70
     0
  3
Solid line
 72
    65
 73
     0
 40
0.0
  0
LTYPE
  5
6A
330
5
100
AcDbSymbolTableRecord
100
AcDbLinetypeTableRecord
  2
HIDDEN
 70
     0
  3
Hidden __ __ __ __ __ __ __ __ __ __ __ __ __ __
 72
    65
 73
     2
 40
1.905
 49
1.27
 74
     0
 49
-0.635
 74
     0
  0
LTYPE
  5
6B
330
5
100
AcDbSymbolTableRecord
100
AcDbLinetypeTableRecord
  2
PHANTOM
 70
     0
  3
Phantom ______  __  __  ______  __  __  ______
 72
    65
 73
     6
 40
12.7
 49
6.35
 74
     0
 49
-1.27
 74
     0
 49
1.27
 74
     0
 49
-1.27
 74
     0
 49
1.27
 74
     0
 49
-1.27
 74
     0
  0
LTYPE
  5
6C
330
5
100
AcDbSymbolTableRecord
100
AcDbLinetypeTableRecord
  2
CENTER
 70
     0
  3
Center ____ _ ____ _ ____ _ ____ _ ____ _ ____
 72
    65
 73
     4
 40
10.16
 49
6.35
 74
     0
 49
-1.27
 74
     0
 49
1.27
 74
     0
 49
-1.27
 74
     0
  0
LTYPE
  5
6D
330
5
100
AcDbSymbolTableRecord
100
AcDbLinetypeTableRecord
  2
CENTERX2
 70
     0
  3
Center (2x) ________  __  ________  __  _____
 72
    65
 73
     4
 40
20.32
 49
12.7
 74
     0
 49
-2.54
 74
     0
 49
2.54
 74
     0
 49
-2.54
 74
     0
  0
LTYPE
  5
6E
330
5
100
AcDbSymbolTableRecord
100
AcDbLinetypeTableRecord
  2
DOT2
 70
     0
  3
Dot (.5x) ........................................
 72
    65
 73
     2
 40
0.635
 49
0.0
 74
     0
 49
-0.635
 74
     0
  0
ENDTAB
  0
TABLE
  2
LAYER
  5
2
330
0
100
AcDbSymbolTable
 70
    17
  0
LAYER
  5
10
330
2
100
AcDbSymbolTableRecord
100
AcDbLayerTableRecord
  2
0
 70
     0
 62
     7
  6
Continuous
370
    -3
390
F
  0
LAYER
  5
6F
330
2
100
AcDbSymbolTableRecord
100
AcDbLayerTableRecord
  2
FORMAT
 70
     0
 62
     2
  6
Continuous
370
    -3
390
F
  0
LAYER
  5
70
330
2
100
AcDbSymbolTableRecord
100
AcDbLayerTableRecord
  2
외형선
 70
     0
 62
   100
  6
Continuous
370
    30
390
F
  0
LAYER
  5
71
330
2
100
AcDbSymbolTableRecord
100
AcDbLayerTableRecord
  2
숨은선
 70
     0
 62
     2
  6
HIDDEN
370
    15
390
F
  0
LAYER
  5
72
330
2
100
AcDbSymbolTableRecord
100
AcDbLayerTableRecord
  2
중심선
 70
     0
 62
     1
  6
CENTERX2
370
    -3
390
F
  0
LAYER
  5
73
330
2
100
AcDbSymbolTableRecord
100
AcDbLayerTableRecord
  2
파단선
 70
     0
 62
     4
  6
Continuous
370
    -3
390
F
  0
LAYER
  5
74
330
2
100
AcDbSymbolTableRecord
100
AcDbLayerTableRecord
  2
해칭선
 70
     0
 62
     4
  6
Continuous
370
    -3
390
F
  0
LAYER
  5
75
330
2
100
AcDbSymbolTableRecord
100
AcDbLayerTableRecord
  2
가는실선
 70
     0
 62
     4
  6
Continuous
370
    -3
390
F
  0
LAYER
  5
76
330
2
100
AcDbSymbolTableRecord
100
AcDbLayerTableRecord
  2
치수_보조선
 70
     0
 62
     4
  6
Continuous
370
    -3
390
F
  0
LAYER
  5
77
330
2
100
AcDbSymbolTableRecord
100
AcDbLayerTableRecord
  2
치수문자_일반주서
 70
     0
 62
     7
  6
Continuous
370
    15
390
F
  0
LAYER
  5
78
330
2
100
AcDbSymbolTableRecord
100
AcDbLayerTableRecord
  2
개별주서
 70
     0
 62
   100
  6
Continuous
370
    30
390
F
  0
LAYER
  5
79
330
2
100
AcDbSymbolTableRecord
100
AcDbLayerTableRecord
  2
중간선
 70
     0
 62
     2
  6
Continuous
370
    15
390
F
  0
LAYER
  5
7A
330
2
100
AcDbSymbolTableRecord
100
AcDbLayerTableRecord
  2
윤곽선
 70
     0
 62
     3
  6
Continuous
370
    40
390
F
  0
LAYER
  5
7B
330
2
100
AcDbSymbolTableRecord
100
AcDbLayerTableRecord
  2
중심마크
 70
     0
 62
   100
  6
Continuous
370
    30
390
F
  0
LAYER
  5
7C
330
2
100
AcDbSymbolTableRecord
100
AcDbLayerTableRecord
  2
가상선
 70
     0
 62
     4
  6
PHANTOM
370
    -3
390
F
  0
LAYER
  5
7D
330
2
100
AcDbSymbolTableRecord
100
AcDbLayerTableRecord
  2
특수지정선
 70
     0
 62
     5
  6
CENTERX2
370
    60
390
F
  0
LAYER
  5
142
330
2
100
AcDbSymbolTableRecord
100
AcDbLayerTableRecord
  2
Defpoints
 70
     0
 62
     7
  6
Continuous
290
     0
370
    -3
390
F
  0
ENDTAB
  0
TABLE
  2
STYLE
  5
3
330
0
100
AcDbSymbolTable
 70
     2
  0
STYLE
  5
11
330
3
100
AcDbSymbolTableRecord
100
AcDbTextStyleTableRecord
  2
Standard
 70
     0
 40
0.0
 41
1.0
 50
0.0
 71
     0
 42
3.5
  3
txt
  4

  0
STYLE
  5
93
330
3
100
AcDbSymbolTableRecord
100
AcDbTextStyleTableRecord
  2
SLDTEXTSTYLE0
 70
     0
 40
0.0
 41
0.75
 50
0.0
 71
     0
 42
3.5
  3
TXT
  4

  0
ENDTAB
  0
TABLE
  2
VIEW
  5
6
330
0
100
AcDbSymbolTable
 70
     0
  0
ENDTAB
  0
TABLE
  2
UCS
  5
7
330
0
100
AcDbSymbolTable
 70
     0
  0
ENDTAB
  0
TABLE
  2
APPID
  5
9
330
0
100
AcDbSymbolTable
 70
     1
  0
APPID
  5
12
330
9
100
AcDbSymbolTableRecord
100
AcDbRegAppTableRecord
  2
ACAD
 70
     0
  0
ENDTAB
  0
TABLE
  2
DIMSTYLE
  5
A
330
0
100
AcDbSymbolTable
 70
     4
100
AcDbDimStyleTable
  0
DIMSTYLE
105
27
330
A
100
AcDbSymbolTableRecord
100
AcDbDimStyleTableRecord
  2
ISO-25
 70
     0
 41
2.5
 42
0.625
 43
3.75
 44
1.25
 73
     0
 74
     0
 77
     1
 78
     8
140
2.5
141
2.5
143
0.03937007874016
147
0.625
171
     3
172
     1
178
     0
271
     2
272
     2
274
     3
278
    44
283
     0
284
     8
340
11
  0
DIMSTYLE
105
E5
102
{ACAD_REACTORS
330
E4
102
}
330
A
100
AcDbSymbolTableRecord
100
AcDbDimStyleTableRecord
  2
SLDDIMSTYLE0
 70
     0
 41
3.302
 44
0.0
 45
0.000000001
 73
     0
 74
     0
 77
     1
 78
     4
 79
     1
140
3.5
147
0.875
172
     1
173
     1
178
     0
271
     2
272
     2
276
     2
284
    12
289
     0
340
93
  0
DIMSTYLE
105
F3
102
{ACAD_REACTORS
330
F2
102
}
330
A
100
AcDbSymbolTableRecord
100
AcDbDimStyleTableRecord
  2
SLDDIMSTYLE1
 70
     0
 41
3.302
 44
0.0
 45
0.000000001
 73
     0
 74
     0
 77
     1
 78
    12
 79
     3
140
3.5
147
0.875
173
     1
178
     0
271
     2
272
     2
276
     2
284
    12
340
93
  0
DIMSTYLE
105
FE
102
{ACAD_REACTORS
330
FD
330
10A
102
}
330
A
100
AcDbSymbolTableRecord
100
AcDbDimStyleTableRecord
  2
SLDDIMSTYLE2
 70
     0
 41
3.302
 44
0.0
 45
0.000000001
 73
     0
 74
     0
 77
     1
 78
    12
 79
     3
140
3.5
147
0.875
172
     1
173
     1
178
     0
271
     2
272
     2
276
     2
284
    12
289
     0
340
93
  0
ENDTAB
  0
TABLE
  2
BLOCK_RECORD
  5
1
330
0
100
AcDbSymbolTable
 70
     7
  0
BLOCK_RECORD
  5
1F
330
1
100
AcDbSymbolTableRecord
100
AcDbBlockTableRecord
  2
*Model_Space
340
22
  0
BLOCK_RECORD
  5
1B
330
1
100
AcDbSymbolTableRecord
100
AcDbBlockTableRecord
  2
*Paper_Space
340
1E
  0
BLOCK_RECORD
  5
23
330
1
100
AcDbSymbolTableRecord
100
AcDbBlockTableRecord
  2
*Paper_Space0
340
26
  0
BLOCK_RECORD
  5
7E
330
1
100
AcDbSymbolTableRecord
100
AcDbBlockTableRecord
  2
블럭10
340
0
102
{BLKREFS
331
DD
102
}
  0
BLOCK_RECORD
  5
E6
330
1
100
AcDbSymbolTableRecord
100
AcDbBlockTableRecord
  2
_D
340
0
  0
BLOCK_RECORD
  5
F4
330
1
100
AcDbSymbolTableRecord
100
AcDbBlockTableRecord
  2
_D_1
340
0
  0
BLOCK_RECORD
  5
FF
330
1
100
AcDbSymbolTableRecord
100
AcDbBlockTableRecord
  2
_D_2
340
0
  0
BLOCK_RECORD
  5
10B
330
1
100
AcDbSymbolTableRecord
100
AcDbBlockTableRecord
  2
_D_3
340
0
  0
BLOCK_RECORD
  5
117
330
1
100
AcDbSymbolTableRecord
100
AcDbBlockTableRecord
  2
SW_DOWELSYMBOL_0
340
0
102
{BLKREFS
331
11D
102
}
  0
ENDTAB
  0
ENDSEC
  0
SECTION
  2
BLOCKS
  0
BLOCK
  5
20
330
1F
100
AcDbEntity
  8
0
100
AcDbBlockBegin
  2
*Model_Space
 70
     0
 10
0.0
 20
0.0
 30
0.0
  3
*Model_Space
  1

  0
ENDBLK
  5
21
330
1F
100
AcDbEntity
  8
0
100
AcDbBlockEnd
  0
BLOCK
  5
1C
330
1B
100
AcDbEntity
 67
     1
  8
0
100
AcDbBlockBegin
  2
*Paper_Space
 70
     0
 10
0.0
 20
0.0
 30
0.0
  3
*Paper_Space
  1

  0
ENDBLK
  5
1D
330
1B
100
AcDbEntity
 67
     1
  8
0
100
AcDbBlockEnd
  0
BLOCK
  5
24
330
23
100
AcDbEntity
  8
0
100
AcDbBlockBegin
  2
*Paper_Space0
 70
     0
 10
0.0
 20
0.0
 30
0.0
  3
*Paper_Space0
  1

  0
ENDBLK
  5
25
330
23
100
AcDbEntity
  8
0
100
AcDbBlockEnd
  0
BLOCK
  5
7F
330
7E
100
AcDbEntity
  8
0
100
AcDbBlockBegin
  2
블럭10
 70
     2
 10
0.0
 20
0.0
 30
0.0
  3
블럭10
  1

  0
ELLIPSE
  5
81
330
7E
100
AcDbEntity
  8
중심선
100
AcDbEllipse
 10
20.54032771741204
 20
12.0471743016438
 30
0.0
 11
6.600054785286829
 21
-1.261213355974178E-13
 31
0.0
210
0.0
220
0.0
230
1.0
 40
0.636358354079598
 41
0.9219305317359503
 42
6.513795318482858
  0
ELLIPSE
  5
82
330
7E
100
AcDbEntity
  8
중심선
100
AcDbEllipse
 10
20.54032771746488
 20
12.04717430159265
 30
0.0
 11
3.960054785062283
 21
1.540847449632565E-10
 31
0.0
210
0.0
220
0.0
230
1.0
 40
0.3939339440162632
 41
1.131841032648279
 42
5.62031148352944
  0
LINE
  5
83
330
7E
100
AcDbEntity
  8
중심선
100
AcDbLine
 10
2.268634060543552
 20
16.24717430164393
 30
0.0
 11
5.714909304380834
 21
16.24717430164393
 31
0.0
  0
LINE
  5
84
330
7E
100
AcDbEntity
  8
중심선
100
AcDbLine
 10
5.245725140726316
 20
7.84717430164391
 30
0.0
 11
8.692000384563599
 21
7.84717430164391
 31
0.0
  0
LINE
  5
85
330
7E
100
AcDbEntity
  8
중심선
100
AcDbLine
 10
15.74043728645272
 20
16.24717430164393
 30
0.0
 11
8.692000384563599
 21
7.84717430164391
 31
0.0
  0
LINE
  5
86
330
7E
100
AcDbEntity
  8
중심선
100
AcDbLine
 10
0.1404042013395286
 20
13.71084872107135
 30
0.0
 11
3.58671253028996
 21
13.71088815037384
 31
0.0
  0
LINE
  5
87
330
7E
100
AcDbEntity
  8
중심선
100
AcDbLine
 10
2.750260043222114
 20
10.84717430164391
 30
0.0
 11
6.196535287059397
 21
10.84717430164391
 31
0.0
  0
LINE
  5
88
330
7E
100
AcDbEntity
  8
중심선
100
AcDbLine
 10
12.29416204261559
 20
16.24717430164393
 30
0.0
 11
5.245725140726316
 21
7.84717430164391
 31
0.0
  0
LINE
  5
89
330
7E
100
AcDbEntity
  8
중심선
100
AcDbLine
 10
10.72767329541681
 20
16.24717430164393
 30
0.0
 11
6.196535287059397
 21
10.84717430164391
 31
0.0
  0
LINE
  5
8A
330
7E
100
AcDbEntity
  8
중심선
100
AcDbLine
 10
7.28139805157953
 20
16.24717430164393
 30
0.0
 11
2.750260043222114
 21
10.84717430164391
 31
0.0
  0
LINE
  5
8B
330
7E
100
AcDbEntity
  8
중심선
100
AcDbLine
 10
5.714909304380834
 20
16.24717430164393
 30
0.0
 11
3.58671253028996
 21
13.71088815037384
 31
0.0
  0
LINE
  5
8C
330
7E
100
AcDbEntity
  8
중심선
100
AcDbLine
 10
2.268634060543552
 20
16.24717430164393
 30
0.0
 11
0.1404042013395286
 21
13.71084872107135
 31
0.0
  0
LINE
  5
8D
330
7E
100
AcDbEntity
  8
중심선
100
AcDbLine
 10
7.28139805157953
 20
16.24717430164393
 30
0.0
 11
10.72767329541681
 21
16.24717430164393
 31
0.0
  0
LINE
  5
8E
330
7E
100
AcDbEntity
  8
중심선
100
AcDbLine
 10
12.29416204261559
 20
16.24717430164393
 30
0.0
 11
15.74043728645272
 21
16.24717430164393
 31
0.0
  0
LINE
  5
8F
330
7E
100
AcDbEntity
  8
중심선
100
AcDbLine
 10
19.22036997980202
 20
11.08717430171403
 30
0.0
 11
23.66174974927406
 21
11.08717430171406
 31
0.0
  0
LINE
  5
90
330
7E
100
AcDbEntity
  8
중심선
100
AcDbLine
 10
19.22039502424796
 20
13.00717430171391
 30
0.0
 11
19.22036997980202
 21
11.08717430171403
 31
0.0
  0
LINE
  5
91
330
7E
100
AcDbEntity
  8
중심선
100
AcDbLine
 10
19.22039502424796
 20
13.00717430171391
 30
0.0
 11
26.96566020931264
 21
13.00717430171391
 31
0.0
  0
LINE
  5
92
330
7E
100
AcDbEntity
  8
중심선
100
AcDbLine
 10
22.22332737316547
 20
13.45928029700563
 30
0.0
 11
24.52862924686651
 21
15.39360700705356
 31
0.0
  0
ATTDEF
  5
94
330
7E
100
AcDbEntity
  8
FORMAT
 62
     2
100
AcDbText
 10
-16.11926103943555
 20
2.075366912832191
 30
0.0
 40
4.233333333333333
  1
SEME7001208E [ 2 FLUTE ]
 41
0.75
  7
SLDTEXTSTYLE0
 11
-16.11926103943555
 21
-0.0412997538344756
 31
0.0
100
AcDbAttributeDefinition
  3

  2
AUTOATTR0
 70
     0
 74
     1
  0
ENDBLK
  5
80
330
7E
100
AcDbEntity
  8
0
100
AcDbBlockEnd
  0
BLOCK
  5
E7
330
E6
100
AcDbEntity
  8
0
100
AcDbBlockBegin
  2
_D
 70
     0
 10
0.0
 20
0.0
 30
0.0
  3
_D
  1

  0
LINE
  5
E9
330
E6
100
AcDbEntity
  8
치수문자_일반주서
 62
     0
370
    -2
100
AcDbLine
 10
19.81942193816522
 20
-0.5994928891377851
 30
0.0
 11
37.76437166651066
 21
-0.5994928891377178
 31
0.0
  0
LINE
  5
EA
330
E6
100
AcDbEntity
  8
치수문자_일반주서
 62
     0
370
    -2
100
AcDbLine
 10
19.81942193816528
 20
0.5994928891377889
 30
0.0
 11
37.76437166651066
 21
0.5994928891378564
 31
0.0
  0
LINE
  5
EB
330
E6
100
AcDbEntity
  8
치수문자_일반주서
 62
     0
370
    -2
100
AcDbLine
 10
37.76437166651066
 20
-0.5994928891377178
 30
0.0
 11
37.76437166651055
 21
18.14099288913786
 31
0.0
  0
LINE
  5
EC
330
E6
100
AcDbEntity
  8
치수문자_일반주서
 62
     0
370
    -2
100
AcDbLine
 10
37.76437166651066
 20
-0.5994928891377178
 30
0.0
 11
37.76437166651066
 21
0.5994928891378564
 31
0.0
  0
LINE
  5
ED
330
E6
100
AcDbEntity
  8
치수문자_일반주서
 62
     0
370
    -2
100
AcDbLine
 10
37.76437166651068
 20
-3.901492889137717
 30
0.0
 11
37.7643716665107
 21
-7.203492889137717
 31
0.0
  0
LINE
  5
EE
330
E6
100
AcDbEntity
  8
치수문자_일반주서
 62
     0
370
    -2
100
AcDbLine
 10
37.76437166651063
 20
3.901492889137856
 30
0.0
 11
37.76437166651061
 21
7.203492889137856
 31
0.0
  0
SOLID
  5
EF
330
E6
100
AcDbEntity
  8
치수문자_일반주서
 62
     0
100
AcDbTrace
 10
38.31470499984402
 20
-3.901492889137714
 30
0.0
 11
37.21403833317735
 21
-3.901492889137721
 31
0.0
 12
37.76437166651066
 22
-0.5994928891377178
 32
0.0
 13
37.76437166651066
 23
-0.5994928891377178
 33
0.0
  0
SOLID
  5
F0
330
E6
100
AcDbEntity
  8
치수문자_일반주서
 62
     0
100
AcDbTrace
 10
37.2140383331773
 20
3.901492889137853
 30
0.0
 11
38.31470499984397
 21
3.901492889137859
 31
0.0
 12
37.76437166651066
 22
0.5994928891378564
 32
0.0
 13
37.76437166651066
 23
0.5994928891378564
 33
0.0
  0
MTEXT
  5
F1
330
E6
100
AcDbEntity
  8
치수문자_일반주서
 62
     0
100
AcDbMText
 10
33.38937166651058
 20
12.67224288913783
 30
0.0
 40
3.5
 41
0.0
 71
     2
 72
     1
  1
\A1;%%c1.20
  7
SLDTEXTSTYLE0
 11
-5.926198197129821E-15
 21
1.0
 31
0.0
 73
     1
 44
1.0
  0
POINT
  5
147
330
E6
100
AcDbEntity
  8
Defpoints
 62
     0
100
AcDbPoint
 10
19.75692193816522
 20
-0.5994928891377853
 30
0.0
  0
POINT
  5
148
330
E6
100
AcDbEntity
  8
Defpoints
 62
     0
100
AcDbPoint
 10
19.75692193816528
 20
0.5994928891377886
 30
0.0
  0
POINT
  5
149
330
E6
100
AcDbEntity
  8
Defpoints
 62
     0
100
AcDbPoint
 10
37.76437166651066
 20
0.5994928891378559
 30
0.0
  0
ENDBLK
  5
E8
330
E6
100
AcDbEntity
  8
0
100
AcDbBlockEnd
  0
BLOCK
  5
F5
330
F4
100
AcDbEntity
  8
0
100
AcDbBlockBegin
  2
_D_1
 70
     0
 10
0.0
 20
0.0
 30
0.0
  3
_D_1
  1

  0
LINE
  5
F7
330
F4
100
AcDbEntity
  8
치수문자_일반주서
 62
     0
370
    -2
100
AcDbLine
 10
-40.24307806183472
 20
2.512499999999994
 30
0.0
 11
-40.24307806183472
 21
24.23841044024269
 31
0.0
  0
LINE
  5
F8
330
F4
100
AcDbEntity
  8
치수문자_일반주서
 62
     0
370
    -2
100
AcDbLine
 10
19.75692193816528
 20
0.6318645215391416
 30
0.0
 11
19.75692193816528
 21
24.23841044024269
 31
0.0
  0
LINE
  5
F9
330
F4
100
AcDbEntity
  8
치수문자_일반주서
 62
     0
370
    -2
100
AcDbLine
 10
-36.94107806183472
 20
24.23841044024269
 30
0.0
 11
16.45492193816528
 21
24.23841044024269
 31
0.0
  0
SOLID
  5
FA
330
F4
100
AcDbEntity
  8
치수문자_일반주서
 62
     0
100
AcDbTrace
 10
-36.94107806183472
 20
24.78874377357602
 30
0.0
 11
-36.94107806183472
 21
23.68807710690935
 31
0.0
 12
-40.24307806183472
 22
24.23841044024269
 32
0.0
 13
-40.24307806183472
 23
24.23841044024269
 33
0.0
  0
SOLID
  5
FB
330
F4
100
AcDbEntity
  8
치수문자_일반주서
 62
     0
100
AcDbTrace
 10
16.45492193816528
 20
23.68807710690935
 30
0.0
 11
16.45492193816528
 21
24.78874377357602
 31
0.0
 12
19.75692193816528
 22
24.23841044024269
 32
0.0
 13
19.75692193816528
 23
24.23841044024269
 33
0.0
  0
MTEXT
  5
FC
330
F4
100
AcDbEntity
  8
치수문자_일반주서
 62
     0
100
AcDbMText
 10
-10.24307806183472
 20
28.61341044024269
 30
0.0
 40
3.5
 41
0.0
 71
     2
 72
     1
  1
\A1;60
  7
SLDTEXTSTYLE0
 73
     1
 44
1.0
  0
POINT
  5
14C
330
F4
100
AcDbEntity
  8
Defpoints
 62
     0
100
AcDbPoint
 10
-40.24307806183472
 20
2.449999999999994
 30
0.0
  0
POINT
  5
14D
330
F4
100
AcDbEntity
  8
Defpoints
 62
     0
100
AcDbPoint
 10
19.75692193816528
 20
0.5693645215391416
 30
0.0
  0
POINT
  5
14E
330
F4
100
AcDbEntity
  8
Defpoints
 62
     0
100
AcDbPoint
 10
19.75692193816528
 20
24.23841044024268
 30
0.0
  0
ENDBLK
  5
F6
330
F4
100
AcDbEntity
  8
0
100
AcDbBlockEnd
  0
BLOCK
  5
100
330
FF
100
AcDbEntity
  8
0
100
AcDbBlockBegin
  2
_D_2
 70
     0
 10
0.0
 20
0.0
 30
0.0
  3
_D_2
  1

  0
LINE
  5
102
330
FF
100
AcDbEntity
  8
치수문자_일반주서
 62
     0
370
    -2
100
AcDbLine
 10
11.75692193816528
 20
0.6570314197673827
 30
0.0
 11
11.75692193816528
 21
13.82122140509321
 31
0.0
  0
LINE
  5
103
330
FF
100
AcDbEntity
  8
치수문자_일반주서
 62
     0
370
    -2
100
AcDbLine
 10
19.75692193816528
 20
0.6619928891377886
 30
0.0
 11
19.75692193816528
 21
13.82122140509321
 31
0.0
  0
LINE
  5
104
330
FF
100
AcDbEntity
  8
치수문자_일반주서
 62
     0
370
    -2
100
AcDbLine
 10
15.05892193816528
 20
13.82122140509321
 30
0.0
 11
16.45492193816528
 21
13.82122140509321
 31
0.0
  0
SOLID
  5
105
330
FF
100
AcDbEntity
  8
치수문자_일반주서
 62
     0
100
AcDbTrace
 10
15.05892193816528
 20
14.37155473842654
 30
0.0
 11
15.05892193816528
 21
13.27088807175987
 31
0.0
 12
11.75692193816528
 22
13.82122140509321
 32
0.0
 13
11.75692193816528
 23
13.82122140509321
 33
0.0
  0
SOLID
  5
106
330
FF
100
AcDbEntity
  8
치수문자_일반주서
 62
     0
100
AcDbTrace
 10
16.45492193816528
 20
13.27088807175987
 30
0.0
 11
16.45492193816528
 21
14.37155473842654
 31
0.0
 12
19.75692193816528
 22
13.82122140509321
 32
0.0
 13
19.75692193816528
 23
13.82122140509321
 33
0.0
  0
MTEXT
  5
107
330
FF
100
AcDbEntity
  8
치수문자_일반주서
 62
     0
100
AcDbMText
 10
15.75692193816523
 20
18.1962214050932
 30
0.0
 40
3.5
 41
0.0
 71
     2
 72
     1
  1
\A1;8
  7
SLDTEXTSTYLE0
 73
     1
 44
1.0
  0
POINT
  5
108
330
FF
100
AcDbEntity
  8
Defpoints
 62
     0
100
AcDbPoint
 10
11.75692193816528
 20
0.5945314197673827
 30
0.0
  0
POINT
  5
109
330
FF
100
AcDbEntity
  8
Defpoints
 62
     0
100
AcDbPoint
 10
19.75692193816528
 20
0.5994928891377886
 30
0.0
  0
POINT
  5
14F
330
FF
100
AcDbEntity
  8
Defpoints
 62
     0
100
AcDbPoint
 10
19.75692193816528
 20
13.82122140509321
 30
0.0
  0
ENDBLK
  5
101
330
FF
100
AcDbEntity
  8
0
100
AcDbBlockEnd
  0
BLOCK
  5
10C
330
10B
100
AcDbEntity
  8
0
100
AcDbBlockBegin
  2
_D_3
 70
     0
 10
0.0
 20
0.0
 30
0.0
  3
_D_3
  1

  0
LINE
  5
10E
330
10B
100
AcDbEntity
  8
치수문자_일반주서
 62
     0
370
    -2
100
AcDbLine
 10
-39.75557806183472
 20
2.999999999999993
 30
0.0
 11
-50.60373689411267
 21
2.999999999999954
 31
0.0
  0
LINE
  5
10F
330
10B
100
AcDbEntity
  8
치수문자_일반주서
 62
     0
370
    -2
100
AcDbLine
 10
-39.75557806183472
 20
-3.0
 30
0.0
 11
-50.60373689411265
 21
-3.000000000000041
 31
0.0
  0
LINE
  5
110
330
10B
100
AcDbEntity
  8
치수문자_일반주서
 62
     0
370
    -2
100
AcDbLine
 10
-50.60373689411267
 20
2.999999999999954
 30
0.0
 11
-50.60373689411272
 21
15.72899999999995
 31
0.0
  0
LINE
  5
111
330
10B
100
AcDbEntity
  8
치수문자_일반주서
 62
     0
370
    -2
100
AcDbLine
 10
-50.60373689411267
 20
2.999999999999954
 30
0.0
 11
-50.60373689411265
 21
-3.000000000000041
 31
0.0
  0
LINE
  5
112
330
10B
100
AcDbEntity
  8
치수문자_일반주서
 62
     0
370
    -2
100
AcDbLine
 10
-50.60373689411269
 20
6.301999999999953
 30
0.0
 11
-50.6037368941127
 21
9.603999999999953
 31
0.0
  0
LINE
  5
113
330
10B
100
AcDbEntity
  8
치수문자_일반주서
 62
     0
370
    -2
100
AcDbLine
 10
-50.60373689411264
 20
-6.30200000000004
 30
0.0
 11
-50.60373689411262
 21
-9.60400000000004
 31
0.0
  0
SOLID
  5
114
330
10B
100
AcDbEntity
  8
치수문자_일반주서
 62
     0
100
AcDbTrace
 10
-51.15407022744602
 20
6.301999999999952
 30
0.0
 11
-50.05340356077935
 21
6.301999999999955
 31
0.0
 12
-50.60373689411267
 22
2.999999999999954
 32
0.0
 13
-50.60373689411267
 23
2.999999999999954
 33
0.0
  0
SOLID
  5
115
330
10B
100
AcDbEntity
  8
치수문자_일반주서
 62
     0
100
AcDbTrace
 10
-50.0534035607793
 20
-6.302000000000039
 30
0.0
 11
-51.15407022744597
 21
-6.302000000000042
 31
0.0
 12
-50.60373689411265
 22
-3.000000000000041
 32
0.0
 13
-50.60373689411265
 23
-3.000000000000041
 33
0.0
  0
MTEXT
  5
116
330
10B
100
AcDbEntity
  8
치수문자_일반주서
 62
     0
100
AcDbMText
 10
-54.97873689411271
 20
12.66649999999994
 30
0.0
 40
3.5
 41
0.0
 71
     2
 72
     1
  1
\A1;%%c6
  7
SLDTEXTSTYLE0
 11
-3.552713678800505E-15
 21
1.0
 31
0.0
 73
     1
 44
1.0
  0
POINT
  5
150
330
10B
100
AcDbEntity
  8
Defpoints
 62
     0
100
AcDbPoint
 10
-39.69307806183472
 20
2.999999999999994
 30
0.0
  0
POINT
  5
151
330
10B
100
AcDbEntity
  8
Defpoints
 62
     0
100
AcDbPoint
 10
-39.69307806183472
 20
-3.0
 30
0.0
  0
POINT
  5
152
330
10B
100
AcDbEntity
  8
Defpoints
 62
     0
100
AcDbPoint
 10
-50.60373689411264
 20
-3.00000000000004
 30
0.0
  0
ENDBLK
  5
10D
330
10B
100
AcDbEntity
  8
0
100
AcDbBlockEnd
  0
BLOCK
  5
118
330
117
100
AcDbEntity
  8
0
100
AcDbBlockBegin
  2
SW_DOWELSYMBOL_0
 70
     0
 10
0.0
 20
0.0
 30
0.0
  3
SW_DOWELSYMBOL_0
  1

  0
CIRCLE
  5
11A
330
117
100
AcDbEntity
  8
외형선
 62
     0
100
AcDbCircle
 10
0.0
 20
0.0
 30
0.0
 40
3.000000000000004
  0
HATCH
  5
11B
330
117
100
AcDbEntity
  8
0
  6
Continuous
 62
     0
370
    30
100
AcDbHatch
 10
0.0
 20
0.0
 30
0.0
210
0.0
220
0.0
230
1.0
  2
SOLID
 70
     1
 71
     0
 91
        1
 92
        0
 93
        3
 72
     2
 10
0.0000000000000104
 20
0.0
 40
3.000000000000004
 50
0.0
 51
90.0
 73
     1
 72
     1
 10
0.0000000000000104
 20
3.000000000000004
 11
0.0000000000000104
 21
0.0
 72
     1
 10
0.0000000000000104
 20
0.0
 11
3.000000000000015
 21
0.0
 97
        0
 75
     0
 76
     1
 98
        1
 10
0.0
 20
0.0
  0
HATCH
  5
11C
330
117
100
AcDbEntity
  8
0
  6
Continuous
 62
     0
370
    30
100
AcDbHatch
 10
0.0
 20
0.0
 30
0.0
210
0.0
220
0.0
230
1.0
  2
SOLID
 70
     1
 71
     0
 91
        1
 92
        0
 93
        3
 72
     2
 10
0.0000000000000104
 20
0.0
 40
3.000000000000004
 50
180.0
 51
270.0000000000007
 73
     1
 72
     1
 10
0.0000000000000104
 20
-3.000000000000004
 11
0.0000000000000104
 21
0.0
 72
     1
 10
0.0000000000000104
 20
0.0
 11
-2.999999999999994
 21
0.0
 97
        0
 75
     0
 76
     1
 98
        1
 10
0.0
 20
0.0
  0
ENDBLK
  5
119
330
117
100
AcDbEntity
  8
0
100
AcDbBlockEnd
  0
ENDSEC
  0
SECTION
  2
ENTITIES
  0
SPLINE
  5
95
330
1F
100
AcDbEntity
  8
0
  6
Continuous
 62
     1
370
    15
100
AcDbSpline
210
0.0
220
0.0
230
1.0
 70
     8
 71
     3
 72
     9
 73
     5
 74
     0
 42
0.000000001
 43
0.00000001
 40
0.0
 40
0.0
 40
0.0
 40
0.0
 40
0.500031509230812
 40
1.0
 40
1.0
 40
1.0
 40
1.0
 10
14.93811709433394
 20
0.1537883831212233
 30
0.0
 10
14.91019962318743
 20
0.1669984428863062
 30
0.0
 10
14.85436819930486
 20
0.1934168975660997
 30
0.0
 10
14.79857687690151
 20
0.2224267759290894
 30
0.0
 10
14.77068297364149
 20
0.236930801031631
 30
0.0
  0
SPLINE
  5
96
330
1F
100
AcDbEntity
  8
0
  6
Continuous
 62
     1
370
    15
100
AcDbSpline
210
0.0
220
0.0
230
1.0
 70
     8
 71
     3
 72
     9
 73
     5
 74
     0
 42
0.000000001
 43
0.00000001
 40
0.0
 40
0.0
 40
0.0
 40
0.0
 40
0.5000367008907585
 40
1.0
 40
1.0
 40
1.0
 40
1.0
 10
18.20280355223159
 20
0.153859290662658
 30
0.0
 10
18.1749133323216
 20
0.1670578280582787
 30
0.0
 10
18.11913698658475
 20
0.1934529653994158
 30
0.0
 10
18.06339959488715
 20
0.2224349864182298
 30
0.0
 10
18.03553294465027
 20
0.2369249332616493
 30
0.0
  0
LINE
  5
97
330
1F
100
AcDbEntity
  8
0
  6
Continuous
 62
     1
370
    15
100
AcDbLine
 10
13.27026979162753
 20
-0.6000000000000005
 30
0.0
 11
13.56194495479973
 21
-0.6000000000000005
 31
0.0
  0
LINE
  5
98
330
1F
100
AcDbEntity
  8
0
  6
Continuous
 62
     1
370
    15
100
AcDbLine
 10
16.82468025220166
 20
0.6000000000000009
 30
0.0
 11
16.53468805984744
 21
0.6000000000000009
 31
0.0
  0
LINE
  5
99
330
1F
100
AcDbEntity
  8
0
  6
Continuous
 62
     1
370
    15
100
AcDbLine
 10
16.53476538609611
 20
-0.6000000000000005
 30
0.0
 11
16.82468025220166
 21
-0.6000000000000005
 31
0.0
  0
LINE
  5
9A
330
1F
100
AcDbEntity
  8
0
  6
Continuous
 62
     1
370
    15
100
AcDbLine
 10
13.56194495479973
 20
0.6000000000000009
 30
0.0
 11
13.26984561767364
 21
0.6000000000000009
 31
0.0
  0
SPLINE
  5
9B
330
1F
100
AcDbEntity
  8
0
  6
Continuous
 62
     1
370
    15
100
AcDbSpline
210
0.0
220
0.0
230
1.0
 70
     8
 71
     3
 72
     9
 73
     5
 74
     0
 42
0.000000001
 43
0.00000001
 40
0.0
 40
0.0
 40
0.0
 40
0.0
 40
0.4697106012380203
 40
1.0
 40
1.0
 40
1.0
 40
1.0
 10
13.83979366700428
 20
-0.4865452663537936
 30
0.0
 10
13.97807489889428
 20
-0.4872954505819563
 30
0.0
 10
14.27848615276185
 20
-0.4619330828934691
 30
0.0
 10
14.57899851493957
 20
-0.4716309407048429
 30
0.0
 10
14.73835703479934
 20
-0.4767736118929154
 30
0.0
  0
SPLINE
  5
9C
330
1F
100
AcDbEntity
  8
0
  6
Continuous
 62
     1
370
    15
100
AcDbSpline
210
0.0
220
0.0
230
1.0
 70
     8
 71
     3
 72
    10
 73
     6
 74
     0
 42
0.000000001
 43
0.00000001
 40
0.0
 40
0.0
 40
0.0
 40
0.0
 40
0.6591666761424859
 40
0.9688829790114182
 40
1.0
 40
1.0
 40
1.0
 40
1.0
 10
18.00270125381701
 20
0.4767471566399826
 30
0.0
 10
17.89275924080925
 20
0.4727525475291509
 30
0.0
 10
17.7311598321364
 20
0.4668810298760767
 30
0.0
 10
17.56423601613284
 20
0.4694378800085372
 30
0.0
 10
17.50748986027401
 20
0.4718611972809358
 30
0.0
 10
17.50230911297239
 20
0.4720824386008095
 30
0.0
  0
SPLINE
  5
9D
330
1F
100
AcDbEntity
  8
0
  6
Continuous
 62
     1
370
    15
100
AcDbSpline
210
0.0
220
0.0
230
1.0
 70
     8
 71
     3
 72
    11
 73
     7
 74
     0
 42
0.000000001
 43
0.00000001
 40
0.0
 40
0.0
 40
0.0
 40
0.0
 40
0.3394988062429604
 40
0.4630993879375558
 40
0.6347267941138028
 40
1.0
 40
1.0
 40
1.0
 40
1.0
 10
17.10183198213004
 20
-0.4895486633752455
 30
0.0
 10
17.20197762267351
 20
-0.490471433729286
 30
0.0
 10
17.34166834329509
 20
-0.4782501067346472
 30
0.0
 10
17.53222129469236
 20
-0.4705376978758822
 30
0.0
 10
17.73114439570679
 20
-0.4664739533854972
 30
0.0
 10
17.89275299088931
 20
-0.4725877299166274
 30
0.0
 10
18.00270125381701
 20
-0.4767471566399813
 30
0.0
  0
SPLINE
  5
9E
330
1F
100
AcDbEntity
  8
0
  6
Continuous
 62
     1
370
    15
100
AcDbSpline
210
0.0
220
0.0
230
1.0
 70
     8
 71
     3
 72
     9
 73
     5
 74
     0
 42
0.000000001
 43
0.00000001
 40
0.0
 40
0.0
 40
0.0
 40
0.0
 40
0.8110755161477813
 40
1.0
 40
1.0
 40
1.0
 40
1.0
 10
14.73835703479934
 20
0.4767736118929163
 30
0.0
 10
14.59612439684756
 20
0.4699761633065873
 30
0.0
 10
14.4207613941184
 20
0.4615953794572437
 30
0.0
 10
14.24534486011888
 20
0.4737274194190629
 30
0.0
 10
14.21220438197387
 20
0.4760194588069244
 30
0.0
  0
SPLINE
  5
9F
330
1F
100
AcDbEntity
  8
0
  6
Continuous
 62
     1
370
    15
100
AcDbSpline
210
0.0
220
0.0
230
1.0
 70
     8
 71
     3
 72
     9
 73
     5
 74
     0
 42
0.000000001
 43
0.00000001
 40
0.0
 40
0.0
 40
0.0
 40
0.0
 40
0.7693829019376932
 40
0.9999999999999999
 40
0.9999999999999999
 40
0.9999999999999999
 40
0.9999999999999999
 10
12.09157655801629
 20
-0.5471625183412816
 30
0.0
 10
12.16717343525629
 20
-0.5402441504179172
 30
0.0
 10
12.26542994323121
 20
-0.5312520505077938
 30
0.0
 10
12.3825700700524
 20
-0.524911707651081
 30
0.0
 10
12.58636379882224
 20
-0.4744081505184034
 30
0.0
  0
SPLINE
  5
A0
330
1F
100
AcDbEntity
  8
0
  6
Continuous
 62
     1
370
    15
100
AcDbSpline
210
0.0
220
0.0
230
1.0
 70
     8
 71
     3
 72
     9
 73
     5
 74
     0
 42
0.000000001
 43
0.00000001
 40
0.0
 40
0.0
 40
0.0
 40
0.0
 40
0.5912151151177931
 40
1.0
 40
1.0
 40
1.0
 40
1.0
 10
18.49153615599284
 20
-0.4368925915602291
 30
0.0
 10
18.57456120272862
 20
-0.4384035941287719
 30
0.0
 10
18.7264220452059
 20
-0.416535508154712
 30
0.0
 10
18.8784295697287
 20
-0.4060023508027688
 30
0.0
 10
18.94056794814198
 20
-0.4016965552872085
 30
0.0
  0
SPLINE
  5
A1
330
1F
100
AcDbEntity
  8
0
  6
Continuous
 62
     1
370
    15
100
AcDbSpline
210
0.0
220
0.0
230
1.0
 70
     8
 71
     3
 72
     9
 73
     5
 74
     0
 42
0.000000001
 43
0.00000001
 40
0.0
 40
0.0
 40
0.0
 40
0.0
 40
0.474470490434818
 40
1.0
 40
1.0
 40
1.0
 40
1.0
 10
16.26939349601786
 20
0.4103866636648785
 30
0.0
 10
16.10347772308881
 20
0.4011035984871095
 30
0.0
 10
15.75379154391885
 20
0.3815384930381665
 30
0.0
 10
15.40390121006138
 20
0.4272804741404498
 30
0.0
 10
15.22002351450767
 20
0.4513192350356727
 30
0.0
  0
LINE
  5
A2
330
1F
100
AcDbEntity
  8
0
  6
Continuous
 62
     1
370
    15
100
AcDbLine
 10
15.22505651670417
 20
-0.4388366817651136
 30
0.0
 11
15.67316495542372
 21
-0.4040780776842265
 31
0.0
  0
SPLINE
  5
A3
330
1F
100
AcDbEntity
  8
0
  6
Continuous
 62
     1
370
    15
100
AcDbSpline
210
0.0
220
0.0
230
1.0
 70
     8
 71
     3
 72
    13
 73
     9
 74
     0
 42
0.000000001
 43
0.00000001
 40
0.0
 40
0.0
 40
0.0
 40
0.0
 40
0.2386269876612239
 40
0.3872612906542409
 40
0.5015102503458247
 40
0.609145757154368
 40
0.7720374116386952
 40
1.0
 40
1.0
 40
1.0
 40
1.0
 10
19.40978896244997
 20
0.3968828722998917
 30
0.0
 10
19.34553626415292
 20
0.3959820849315932
 30
0.0
 10
19.24126229617299
 20
0.3945202214505539
 30
0.0
 10
19.08107455168351
 20
0.3952232066648134
 30
0.0
 10
18.96234934329998
 20
0.3999712689294824
 30
0.0
 10
18.84029842847352
 20
0.4079168690823611
 30
0.0
 10
18.68236127072198
 20
0.4228510951096184
 30
0.0
 10
18.55756512429136
 20
0.4408402862728871
 30
0.0
 10
18.48477877726152
 20
0.4513323370953329
 30
0.0
  0
SPLINE
  5
A4
330
1F
100
AcDbEntity
  8
0
  6
Continuous
 62
     1
370
    15
100
AcDbSpline
210
0.0
220
0.0
230
1.0
 70
     8
 71
     3
 72
    13
 73
     9
 74
     0
 42
0.000000001
 43
0.00000001
 40
0.0
 40
0.0
 40
0.0
 40
0.0
 40
0.2291329386320623
 40
0.3789953469713981
 40
0.4610607375206767
 40
0.5372658886245789
 40
0.715943804265269
 40
0.7428802506684588
 40
0.7428802506684588
 40
0.7428802506684588
 40
0.7428802506684588
 10
13.00452722858502
 20
0.4103843264425404
 30
0.0
 10
12.9321851941823
 20
0.4051931372694181
 30
0.0
 10
12.81252848051747
 20
0.3966066959065686
 30
0.0
 10
12.66830558968427
 20
0.3944129964807182
 30
0.0
 10
12.57138351894807
 20
0.3953327899509818
 30
0.0
 10
12.46551005989988
 20
0.398155087523095
 30
0.0
 10
12.37472377563166
 20
0.4038076835817774
 30
0.0
 10
12.3134134814701
 20
0.408213924763995
 30
0.0
 10
12.3054580851246
 20
0.4087955458671328
 30
0.0
  0
LINE
  5
A5
330
1F
100
AcDbEntity
  8
0
  6
Continuous
 62
   131
370
    15
100
AcDbLine
 10
2.0
 20
2.999999999999997
 30
0.0
 11
-39.69307806183472
 21
2.999999999999995
 31
0.0
  0
LINE
  5
A6
330
1F
100
AcDbEntity
  8
0
  6
Continuous
 62
   131
370
    15
100
AcDbLine
 10
-39.69307806183472
 20
-3.0
 30
0.0
 11
2.0
 21
-2.999999999999998
 31
0.0
  0
LINE
  5
A7
330
1F
100
AcDbEntity
  8
0
  6
Continuous
 62
   131
370
    15
100
AcDbLine
 10
2.0
 20
-2.999999999999998
 30
0.0
 11
10.95677551063388
 21
-0.6000392351387851
 31
0.0
  0
LINE
  5
A8
330
1F
100
AcDbEntity
  8
0
  6
Continuous
 62
   131
370
    15
100
AcDbLine
 10
10.95692193816527
 20
0.5999999999999994
 30
0.0
 11
2.0
 21
2.999999999999998
 31
0.0
  0
LINE
  5
A9
330
1F
100
AcDbEntity
  8
0
  6
Continuous
 62
   131
370
    15
100
AcDbLine
 10
-39.69307806183472
 20
2.999999999999994
 30
0.0
 11
-40.24307806183472
 21
2.449999999999994
 31
0.0
  0
LINE
  5
AA
330
1F
100
AcDbEntity
  8
0
  6
Continuous
 62
   131
370
    15
100
AcDbLine
 10
-40.24307806183472
 20
-2.45
 30
0.0
 11
-39.69307806183472
 21
-3.0
 31
0.0
  0
SPLINE
  5
AB
330
1F
100
AcDbEntity
  8
0
  6
Continuous
 62
   131
370
    15
100
AcDbSpline
210
0.0
220
0.0
230
1.0
 70
     8
 71
     3
 72
     9
 73
     5
 74
     0
 42
0.000000001
 43
0.00000001
 40
0.0
 40
0.0
 40
0.0
 40
0.0
 40
0.5020252672019723
 40
1.0
 40
1.0
 40
1.0
 40
1.0
 10
11.62068900673353
 20
0.1780175945271723
 30
0.0
 10
11.60326390954983
 20
0.1868130282970621
 30
0.0
 10
11.56855430761918
 20
0.2043329308687213
 30
0.0
 10
11.53352002917812
 20
0.2224789618339996
 30
0.0
 10
11.51607384373266
 20
0.2315152267552788
 30
0.0
  0
SPLINE
  5
AC
330
1F
100
AcDbEntity
  8
0
  6
Continuous
 62
   131
370
    15
100
AcDbSpline
210
0.0
220
0.0
230
1.0
 70
     8
 71
     3
 72
    10
 73
     6
 74
     0
 42
0.000000001
 43
0.00000001
 40
0.0
 40
0.0
 40
0.0
 40
0.0
 40
0.4726832069846719
 40
0.6851713038546478
 40
1.0
 40
1.0
 40
1.0
 40
1.0
 10
11.46586121151446
 20
0.6034271791370565
 30
0.0
 10
11.38629497793007
 20
0.5999677834072155
 30
0.0
 10
11.27096086154461
 20
0.5949532649141959
 30
0.0
 10
11.10355381280506
 20
0.5942296502811302
 30
0.0
 10
11.01596152039252
 20
0.5967113783109856
 30
0.0
 10
10.95692193816527
 20
0.5999999999999994
 30
0.0
  0
SPLINE
  5
AD
330
1F
100
AcDbEntity
  8
0
  6
Continuous
 62
   131
370
    15
100
AcDbSpline
210
0.0
220
0.0
230
1.0
 70
     8
 71
     3
 72
     9
 73
     5
 74
     0
 42
0.000000001
 43
0.00000001
 40
0.0
 40
0.0
 40
0.0
 40
0.0
 40
0.454682027796798
 40
1.0
 40
1.0
 40
1.0
 40
1.0
 10
10.9567728671611
 20
-0.6000399434551829
 30
0.0
 10
11.03300238987695
 20
-0.5913744870430101
 30
0.0
 10
11.21123916067179
 20
-0.58644233059766
 30
0.0
 10
11.3875503452557
 20
-0.5940557021962813
 30
0.0
 10
11.48369600290974
 20
-0.598207410558071
 30
0.0
  0
SPLINE
  5
AE
330
1F
100
AcDbEntity
  8
0
  6
Continuous
 62
     1
370
    15
100
AcDbSpline
210
0.0
220
0.0
230
1.0
 70
     8
 71
     3
 72
    32
 73
    28
 74
     0
 42
0.000000001
 43
0.00000001
 40
0.0
 40
0.0
 40
0.0
 40
0.0
 40
0.0181476433200198
 40
0.0599145671000643
 40
0.1019718964169849
 40
0.1437397139384616
 40
0.1857954914405691
 40
0.2275515493375831
 40
0.2695981134839117
 40
0.3113536222324773
 40
0.3533986867377311
 40
0.3951506787681051
 40
0.4371923851814546
 40
0.4789455435885088
 40
0.5209869252623633
 40
0.5627404883461761
 40
0.6047839792413305
 40
0.6465367216926532
 40
0.6885793581341003
 40
0.7303096190259712
 40
0.7723286564086402
 40
0.8140603666329478
 40
0.8560807238442805
 40
0.8978125715981972
 40
0.9398334321070789
 40
0.9815641972261342
 40
1.0
 40
1.0
 40
1.0
 40
1.0
 10
12.40531540537791
 20
0.402779117215019
 30
0.0
 10
12.43027525477592
 20
0.4137819631506188
 30
0.0
 10
12.5126803662933
 20
0.4501079333868164
 30
0.0
 10
12.65364916575309
 20
0.4988552722801284
 30
0.0
 10
12.82569743889355
 20
0.5490449633422027
 30
0.0
 10
12.99936832833953
 20
0.5823416091368525
 30
0.0
 10
13.17253349721358
 20
0.60011646134781
 30
0.0
 10
13.34501057258691
 20
0.6011385060662928
 30
0.0
 10
13.51853533695726
 20
0.5857215092495355
 30
0.0
 10
13.69150686481873
 20
0.5539451783551077
 30
0.0
 10
13.86401416701321
 20
0.5065481081686707
 30
0.0
 10
14.03793890344062
 20
0.44620859243046
 30
0.0
 10
14.2100112038555
 20
0.3719923717062062
 30
0.0
 10
14.38348945741681
 20
0.2884950385015023
 30
0.0
 10
14.55673233551849
 20
0.1976672393801975
 30
0.0
 10
14.72913072225262
 20
0.0990529060697608
 30
0.0
 10
14.90257824063826
 20
0.0003634004142689
 30
0.0
 10
15.07572316169702
 20
-0.0997678353946259
 30
0.0
 10
15.24801981487265
 20
-0.1975535024238742
 30
0.0
 10
15.42191382981441
 20
-0.288119659372042
 30
0.0
 10
15.59399192143024
 20
-0.3726606845088029
 30
0.0
 10
15.76723470095869
 20
-0.4458457950215375
 30
0.0
 10
15.94049431161767
 20
-0.5063263825160691
 30
0.0
 10
16.11278101458173
 20
-0.5543210079438124
 30
0.0
 10
16.28606300857796
 20
-0.5848455598567858
 30
0.0
 10
16.42676836529889
 20
-0.5999614598955593
 30
0.0
 10
16.50943521146279
 20
-0.5984003010396286
 30
0.0
 10
16.53476538609611
 20
-0.5979219420809152
 30
0.0
  0
SPLINE
  5
AF
330
1F
100
AcDbEntity
  8
0
  6
Continuous
 62
     1
370
    15
100
AcDbSpline
210
0.0
220
0.0
230
1.0
 70
     8
 71
     3
 72
    12
 73
     8
 74
     0
 42
0.000000001
 43
0.00000001
 40
0.0
 40
0.0
 40
0.0
 40
0.0
 40
0.141015522560423
 40
0.351980555697527
 40
0.5644357528824975
 40
0.7814136803136
 40
1.0
 40
1.0
 40
1.0
 40
1.0
 10
18.93338255858484
 20
0.4022717383111515
 30
0.0
 10
18.97210606921427
 20
0.4187897642866416
 30
0.0
 10
19.06876154757882
 20
0.4600194378453661
 30
0.0
 10
19.22412182118431
 20
0.5120485140488267
 30
0.0
 10
19.39905324138579
 20
0.5589244203495964
 30
0.0
 10
19.57764203384203
 20
0.5898889626621244
 30
0.0
 10
19.69701503527713
 20
0.5962837090966995
 30
0.0
 10
19.75692193816528
 20
0.5994928891377886
 30
0.0
  0
SPLINE
  5
B0
330
1F
100
AcDbEntity
  8
0
  6
Continuous
 62
     1
370
    15
100
AcDbSpline
210
0.0
220
0.0
230
1.0
 70
    24
 71
     3
 72
     8
 73
     4
 74
     0
 42
0.000000001
 43
0.00000001
 40
0.0
 40
0.0
 40
0.0
 40
0.0
 40
1.0
 40
1.0
 40
1.0
 40
1.0
 10
19.75692193816528
 20
0.4200000000000015
 30
0.0
 10
19.75692193816528
 20
0.4709187081687782
 30
0.0
 10
19.75692193816528
 20
0.5393952338239826
 30
0.0
 10
19.75692193816528
 20
0.5994928891377886
 30
0.0
  0
LINE
  5
B1
330
1F
100
AcDbEntity
  8
0
  6
Continuous
 62
     1
370
    15
100
AcDbLine
 10
19.75692193816528
 20
0.4200000000000018
 30
0.0
 11
19.40978896244997
 21
0.3968828722998917
 31
0.0
  0
SPLINE
  5
B2
330
1F
100
AcDbEntity
  8
0
  6
Continuous
 62
     1
370
    15
100
AcDbSpline
210
0.0
220
0.0
230
1.0
 70
     8
 71
     3
 72
    12
 73
     8
 74
     0
 42
0.000000001
 43
0.00000001
 40
0.0
 40
0.0
 40
0.0
 40
0.0
 40
0.0922770313158864
 40
0.3690600499879915
 40
0.6452402711960484
 40
0.9211695653020278
 40
1.0
 40
1.0
 40
1.0
 40
1.0
 10
14.99031960902024
 20
-0.0503542258369408
 30
0.0
 10
14.92914223434906
 20
-0.0266118562259671
 30
0.0
 10
14.68446460837528
 20
0.0683452527155164
 30
0.0
 10
14.25671575112563
 20
0.2432398672862035
 30
0.0
 10
13.70735354388901
 20
0.3883647729175411
 30
0.0
 10
13.28929342603238
 20
0.4419729185392611
 30
0.0
 10
13.05412444858906
 20
0.406568323624283
 30
0.0
 10
13.0018680304724
 20
0.3987011409063831
 30
0.0
  0
SPLINE
  5
B3
330
1F
100
AcDbEntity
  8
0
  6
Continuous
 62
     1
370
    15
100
AcDbSpline
210
0.0
220
0.0
230
1.0
 70
     8
 71
     3
 72
    12
 73
     8
 74
     0
 42
0.000000001
 43
0.00000001
 40
0.0
 40
0.0
 40
0.0
 40
0.0
 40
0.2489181309161514
 40
0.4780938646315893
 40
0.706826695034502
 40
0.9355616449551597
 40
1.0
 40
1.0
 40
1.0
 40
1.0
 10
11.75692193816527
 20
-0.0683584888983065
 30
0.0
 10
11.88252480738568
 20
-0.1394343738177012
 30
0.0
 10
12.12376862893209
 20
-0.2759489152782028
 30
0.0
 10
12.47999147677396
 20
-0.4439504913328286
 30
0.0
 10
12.82615638931667
 20
-0.5534376073624102
 30
0.0
 10
13.0899293953835
 20
-0.6041297066896161
 30
0.0
 10
13.23777409928415
 20
-0.5952409098141198
 30
0.0
 10
13.27026979162753
 20
-0.6000000000000005
 30
0.0
  0
SPLINE
  5
B4
330
1F
100
AcDbEntity
  8
0
  6
Continuous
 62
     1
370
    15
100
AcDbSpline
210
0.0
220
0.0
230
1.0
 70
     8
 71
     3
 72
    19
 73
    15
 74
     0
 42
0.000000001
 43
0.00000001
 40
0.0
 40
0.0
 40
0.0
 40
0.0
 40
0.0627654926251743
 40
0.1476980669313092
 40
0.2326292762034274
 40
0.3174873061604155
 40
0.4023512382595182
 40
0.4872121648606669
 40
0.5720718658060483
 40
0.6568176087678734
 40
0.7415648595220466
 40
0.8263064831514214
 40
0.9119270836536836
 40
1.0
 40
1.0
 40
1.0
 40
1.0
 10
15.68486034304012
 20
0.4057440123469353
 30
0.0
 10
15.77014970358014
 20
0.4409637167590204
 30
0.0
 10
15.97085032990673
 20
0.523841776692715
 30
0.0
 10
16.2863868045158
 20
0.5928551662442172
 30
0.0
 10
16.63183557100346
 20
0.6087448198872779
 30
0.0
 10
16.97758637203822
 20
0.5562564813010397
 30
0.0
 10
17.32356951022064
 20
0.4439196556875079
 30
0.0
 10
17.66884369512245
 20
0.282084461415362
 30
0.0
 10
18.01394525197001
 20
0.0891613599534872
 30
0.0
 10
18.3594394101906
 20
-0.1123435334846647
 30
0.0
 10
18.70481254271489
 20
-0.3018510906306068
 30
0.0
 10
19.05076925638519
 20
-0.4585740288862272
 30
0.0
 10
19.40131086090665
 20
-0.5706328272237869
 30
0.0
 10
19.63727441775187
 20
-0.5897827449161668
 30
0.0
 10
19.75692193816522
 20
-0.5994928891377853
 30
0.0
  0
SPLINE
  5
B5
330
1F
100
AcDbEntity
  8
0
  6
Continuous
 62
     1
370
    15
100
AcDbSpline
210
0.0
220
0.0
230
1.0
 70
     8
 71
     3
 72
    12
 73
     8
 74
     0
 42
0.000000001
 43
0.00000001
 40
0.0
 40
0.0
 40
0.0
 40
0.0
 40
0.0739132998610347
 40
0.3511409142905747
 40
0.6279170306467344
 40
0.9040585949532709
 40
1.0
 40
1.0
 40
1.0
 40
1.0
 10
18.2537142068751
 20
-0.0497273086339203
 30
0.0
 10
18.20476526101438
 20
-0.0308980609196064
 30
0.0
 10
17.97222284124135
 20
0.0585543011077781
 30
0.0
 10
17.55639076823356
 20
0.230905349195679
 30
0.0
 10
17.00670504656229
 20
0.3819533126141035
 30
0.0
 10
16.57726225792943
 20
0.441193919920023
 30
0.0
 10
16.33090086744925
 20
0.4063926984126914
 30
0.0
 10
16.26939349601786
 20
0.4103866636648785
 30
0.0
  0
SPLINE
  5
B6
330
1F
100
AcDbEntity
  8
0
  6
Continuous
 62
     1
370
    15
100
AcDbSpline
210
0.0
220
0.0
230
1.0
 70
     8
 71
     3
 72
    17
 73
    13
 74
     0
 42
0.000000001
 43
0.00000001
 40
0.0
 40
0.0
 40
0.0
 40
0.0
 40
0.0979570347968742
 40
0.2095455967329571
 40
0.3211240935224453
 40
0.4326980550135479
 40
0.5442730251919669
 40
0.6558545448979319
 40
0.7674481345641491
 40
0.8790592770892846
 40
0.9906934009600695
 40
1.0
 40
1.0
 40
1.0
 40
1.0
 10
17.50230911297239
 20
-0.4720824386008085
 30
0.0
 10
17.37364385402375
 20
-0.5127409949237096
 30
0.0
 10
17.09840850700552
 20
-0.5997160801194771
 30
0.0
 10
16.67663239561725
 20
-0.6104862907645778
 30
0.0
 10
16.23697776177446
 20
-0.5220655173926363
 30
0.0
 10
15.79734495054504
 20
-0.3393923673913607
 30
0.0
 10
15.35770731333298
 20
-0.0971908616095912
 30
0.0
 10
14.91803857098266
 20
0.1615334972258003
 30
0.0
 10
14.47831346584576
 20
0.394674581056186
 30
0.0
 10
14.03850288830504
 20
0.5471291925816263
 30
0.0
 10
13.73304021099177
 20
0.6145487682759364
 30
0.0
 10
13.57417027293423
 20
0.5972682339771087
 30
0.0
 10
13.56194495479973
 20
0.5959384667982429
 30
0.0
  0
SPLINE
  5
B7
330
1F
100
AcDbEntity
  8
0
  6
Continuous
 62
     1
370
    15
100
AcDbSpline
210
0.0
220
0.0
230
1.0
 70
     8
 71
     3
 72
    12
 73
     8
 74
     0
 42
0.000000001
 43
0.00000001
 40
0.0
 40
0.0
 40
0.0
 40
0.0
 40
0.0439602666330392
 40
0.296404607905555
 40
0.5493096012467659
 40
0.8026644535054607
 40
1.0
 40
1.0
 40
1.0
 40
1.0
 10
17.10183198213004
 20
-0.4895486633752455
 30
0.0
 10
17.0699886603514
 20
-0.4957932171190695
 30
0.0
 10
16.85528324500446
 20
-0.537897477300972
 30
0.0
 10
16.45763808316649
 20
-0.4811287407524504
 30
0.0
 10
15.90807041390645
 20
-0.316219577863202
 30
0.0
 10
15.39830707301741
 20
-0.0685055449655005
 30
0.0
 10
15.07175941404066
 20
0.0870247950782561
 30
0.0
 10
14.92877997423243
 20
0.155124015150217
 30
0.0
  0
SPLINE
  5
B8
330
1F
100
AcDbEntity
  8
0
  6
Continuous
 62
     1
370
    15
100
AcDbSpline
210
0.0
220
0.0
230
1.0
 70
     8
 71
     3
 72
    14
 73
    10
 74
     0
 42
0.000000001
 43
0.00000001
 40
0.0
 40
0.0
 40
0.0
 40
0.0
 40
0.1502059712115151
 40
0.3003554880081302
 40
0.4504553981514379
 40
0.6005126999124576
 40
0.7505345218072627
 40
0.9005281014897046
 40
0.9999999999999999
 40
0.9999999999999999
 40
0.9999999999999999
 40
0.9999999999999999
 10
19.75692193816528
 20
-0.5693645215391394
 30
0.0
 10
19.61008101212339
 20
-0.5326810694281815
 30
0.0
 10
19.3164543497135
 20
-0.4593279525597825
 30
0.0
 10
18.87613307198037
 20
-0.2411138448203571
 30
0.0
 10
18.43598344005988
 20
0.0121482460652474
 30
0.0
 10
17.99598411723861
 20
0.2662590381767521
 30
0.0
 10
17.55610967916098
 20
0.4687458268540144
 30
0.0
 10
17.16568790304598
 20
0.5886434243787191
 30
0.0
 10
16.92189161647718
 20
0.5882225549847077
 30
0.0
 10
16.82468025220166
 20
0.6000000000000009
 30
0.0
  0
SPLINE
  5
B9
330
1F
100
AcDbEntity
  8
0
  6
Continuous
 62
     1
370
    15
100
AcDbSpline
210
0.0
220
0.0
230
1.0
 70
     8
 71
     3
 72
    13
 73
     9
 74
     0
 42
0.000000001
 43
0.00000001
 40
0.0
 40
0.0
 40
0.0
 40
0.0
 40
0.0728733035141566
 40
0.2516595547967972
 40
0.4304911918967576
 40
0.6203274101881678
 40
0.8101636796382392
 40
0.9999999999999999
 40
0.9999999999999999
 40
0.9999999999999999
 40
0.9999999999999999
 10
14.21783197515782
 20
-0.4740146507625014
 30
0.0
 10
14.15806559491127
 20
-0.4968808309690209
 30
0.0
 10
13.95166928900287
 20
-0.5758465489093111
 30
0.0
 10
13.59858144332474
 20
-0.6145643402181253
 30
0.0
 10
13.14957420868911
 20
-0.5722807207458865
 30
0.0
 10
12.69135102086481
 20
-0.415452735662145
 30
0.0
 10
12.22414189286563
 20
-0.1729992045980292
 30
0.0
 10
11.91266193698754
 20
0.0082867579821022
 30
0.0
 10
11.75692193816475
 20
0.0989297514268175
 30
0.0
  0
SPLINE
  5
BA
330
1F
100
AcDbEntity
  8
0
  6
Continuous
 62
     1
370
    15
100
AcDbSpline
210
0.0
220
0.0
230
1.0
 70
     8
 71
     3
 72
    10
 73
     6
 74
     0
 42
0.000000001
 43
0.00000001
 40
0.0
 40
0.0
 40
0.0
 40
0.0
 40
0.3504491341938239
 40
0.7017061464372183
 40
1.0
 40
1.0
 40
1.0
 40
1.0
 10
19.75692193816528
 20
-0.4733833586209273
 30
0.0
 10
19.57399060733509
 20
-0.427083681754627
 30
0.0
 10
19.20770624051886
 20
-0.3343775950071809
 30
0.0
 10
18.68546417232118
 20
-0.0793934650674804
 30
0.0
 10
18.34620486528241
 20
0.0830062554722416
 30
0.0
 10
18.19040649539181
 20
0.1575852315116142
 30
0.0
  0
SPLINE
  5
BB
330
1F
100
AcDbEntity
  8
0
  6
Continuous
 62
     1
370
    15
100
AcDbSpline
210
0.0
220
0.0
230
1.0
 70
     8
 71
     3
 72
    12
 73
     8
 74
     0
 42
0.000000001
 43
0.00000001
 40
0.0
 40
0.0
 40
0.0
 40
0.0
 40
0.0636698810041723
 40
0.3270472790177316
 40
0.5910606482352606
 40
0.8554024372581677
 40
1.0
 40
1.0
 40
1.0
 40
1.0
 10
13.83979366700428
 20
-0.4865452663537936
 30
0.0
 10
13.79558163596374
 20
-0.4947811311596131
 30
0.0
 10
13.56848172272986
 20
-0.5370855478260224
 30
0.0
 10
13.15816081341597
 20
-0.4745385934231636
 30
0.0
 10
12.60837347102276
 20
-0.3008653531894392
 30
0.0
 10
12.14040690652028
 20
-0.0732398757616038
 30
0.0
 10
11.85709771744765
 20
0.0652769762843292
 30
0.0
 10
11.75692193816526
 20
0.1142553862076559
 30
0.0
  0
LINE
  5
BC
330
1F
100
AcDbEntity
  8
0
  6
Continuous
 62
     1
370
    15
100
AcDbLine
 10
19.75692193816528
 20
-0.5693645215391402
 30
0.0
 11
19.75692193816528
 21
-0.4733833586209273
 31
0.0
  0
LINE
  5
BD
330
1F
100
AcDbEntity
  8
0
  6
Continuous
 62
   131
370
    15
100
AcDbLine
 10
11.75692193816527
 20
-0.0683584888990658
 30
0.0
 11
11.75692193816527
 21
0.0989297514262023
 31
0.0
  0
LINE
  5
BE
330
1F
100
AcDbEntity
  8
0
  6
Continuous
 62
     1
370
    15
100
AcDbLine
 10
19.75692193816528
 20
-0.5994928891377872
 30
0.0
 11
19.75692193816535
 21
-0.5693645215391412
 31
0.0
  0
SPLINE
  5
BF
330
1F
100
AcDbEntity
  8
0
  6
Continuous
 62
     1
370
    15
100
AcDbSpline
210
0.0
220
0.0
230
1.0
 70
     8
 71
     3
 72
     8
 73
     4
 74
     0
 42
0.000000001
 43
0.00000001
 40
0.0
 40
0.0
 40
0.0
 40
0.0
 40
1.0
 40
1.0
 40
1.0
 40
1.0
 10
19.3861849346489
 20
0.1672994817291391
 30
0.0
 10
19.3591188806362
 20
0.1993264911207126
 30
0.0
 10
19.33558879625565
 20
0.2299725149431913
 30
0.0
 10
19.31704487699836
 20
0.2584470783461353
 30
0.0
  0
LINE
  5
C0
330
1F
100
AcDbEntity
  8
0
  6
Continuous
 62
     1
370
    15
100
AcDbLine
 10
19.31704487699826
 20
0.2584470783462962
 30
0.0
 11
19.75692193816528
 21
0.0000000000000013
 31
0.0
  0
LINE
  5
C1
330
1F
100
AcDbEntity
  8
0
  6
Continuous
 62
     1
370
    15
100
AcDbLine
 10
19.75692193816528
 20
0.0000000000000013
 30
0.0
 11
19.75692193816528
 21
-0.1603457676177858
 31
0.0
  0
SPLINE
  5
C2
330
1F
100
AcDbEntity
  8
0
  6
Continuous
 62
     1
370
    15
100
AcDbSpline
210
0.0
220
0.0
230
1.0
 70
     8
 71
     3
 72
    10
 73
     6
 74
     0
 42
0.000000001
 43
0.00000001
 40
0.0
 40
0.0
 40
0.0
 40
0.0
 40
0.5
 40
0.5
 40
1.0
 40
1.0
 40
1.0
 40
1.0
 10
19.75692193816528
 20
-0.1603457676177858
 30
0.0
 10
19.69275469289067
 20
-0.1098972315735256
 30
0.0
 10
19.62965874213106
 20
-0.0573804124854688
 30
0.0
 10
19.50565430694497
 20
0.0518764336529828
 30
0.0
 10
19.44416388073457
 20
0.109186925476142
 30
0.0
 10
19.3861849346485
 20
0.1672994817278241
 30
0.0
  0
SPLINE
  5
C3
330
1F
100
AcDbEntity
  8
0
  6
Continuous
 62
     1
370
    15
100
AcDbSpline
210
0.0
220
0.0
230
1.0
 70
     8
 71
     3
 72
    11
 73
     7
 74
     0
 42
0.000000001
 43
0.00000001
 40
0.0
 40
0.0
 40
0.0
 40
0.0
 40
0.1290693318244197
 40
0.5265274507792878
 40
0.9244007083819924
 40
1.0
 40
1.0
 40
1.0
 40
1.0
 10
19.38618493464888
 20
0.1672994817291454
 30
0.0
 10
19.32684637589052
 20
0.1928182119364616
 30
0.0
 10
19.08477973128699
 20
0.2969197190354581
 30
0.0
 10
18.65741806358182
 20
0.4304653676551491
 30
0.0
 10
18.25561741695837
 20
0.5031617088851055
 30
0.0
 10
18.03708013499966
 20
0.4716924990919297
 30
0.0
 10
18.00270125381701
 20
0.4767471566399826
 30
0.0
  0
SPLINE
  5
C4
330
1F
100
AcDbEntity
  8
0
  6
Continuous
 62
     1
370
    15
100
AcDbSpline
210
0.0
220
0.0
230
1.0
 70
     8
 71
     3
 72
    14
 73
    10
 74
     0
 42
0.000000001
 43
0.00000001
 40
0.0
 40
0.0
 40
0.0
 40
0.0
 40
0.1205605705929989
 40
0.2792357338546185
 40
0.4375742568173708
 40
0.5957727253254465
 40
0.7543585051942154
 40
0.9131444210148638
 40
1.0
 40
1.0
 40
1.0
 40
1.0
 10
15.22505651670417
 20
-0.4388366817651136
 30
0.0
 10
15.08563009028449
 20
-0.4586177981653658
 30
0.0
 10
14.76269830331196
 20
-0.5044337272648983
 30
0.0
 10
14.25668665589643
 20
-0.4182595345521681
 30
0.0
 10
13.70735199668075
 20
-0.2250728459853732
 30
0.0
 10
13.15819273206232
 20
0.0343173496463396
 30
0.0
 10
12.60841104639302
 20
0.2812396052387428
 30
0.0
 10
12.15187718038771
 20
0.4775506030308623
 30
0.0
 10
11.94935637254819
 20
0.532139639510374
 30
0.0
 10
11.75692193816528
 20
0.5945314197673827
 30
0.0
  0
SPLINE
  5
C5
330
1F
100
AcDbEntity
  8
0
  6
Continuous
 62
     1
370
    15
100
AcDbSpline
210
0.0
220
0.0
230
1.0
 70
    24
 71
     3
 72
     8
 73
     4
 74
     0
 42
0.000000001
 43
0.00000001
 40
0.0
 40
0.0
 40
0.0
 40
0.0
 40
1.0
 40
1.0
 40
1.0
 40
1.0
 10
19.75692193816528
 20
-0.4733833586209274
 30
0.0
 10
19.75692193816528
 20
-0.4008063081836349
 30
0.0
 10
19.75692193816528
 20
-0.2876231640437646
 30
0.0
 10
19.75692193816528
 20
-0.160345767617805
 30
0.0
  0
SPLINE
  5
C6
330
1F
100
AcDbEntity
  8
0
  6
Continuous
 62
   131
370
    15
100
AcDbSpline
210
0.0
220
0.0
230
1.0
 70
    24
 71
     3
 72
    10
 73
     6
 74
     0
 42
0.000000001
 43
0.00000001
 40
0.0385891446594773
 40
0.0385891446594773
 40
0.0385891446594773
 40
0.0385891446594773
 40
0.2822720330891932
 40
0.6916445302970984
 40
1.0
 40
1.0
 40
1.0
 40
1.0
 10
11.75692193816528
 20
0.5945314197673828
 30
0.0
 10
11.75692193816528
 20
0.4522773478191713
 30
0.0
 10
11.75692193816527
 20
0.4106361390460348
 30
0.0
 10
11.75692193816527
 20
0.2999626536569414
 30
0.0
 10
11.75692193816527
 20
0.1873989339902492
 30
0.0
 10
11.75692193816527
 20
0.0989297514262023
 30
0.0
  0
SPLINE
  5
C7
330
1F
100
AcDbEntity
  8
0
  6
Continuous
 62
     1
370
    15
100
AcDbSpline
210
0.0
220
0.0
230
1.0
 70
     8
 71
     3
 72
    15
 73
    11
 74
     0
 42
0.000000001
 43
0.00000001
 40
0.0
 40
0.0
 40
0.0
 40
0.0
 40
0.1024675437325487
 40
0.2491839928244899
 40
0.3956676821814853
 40
0.541824248831483
 40
0.6882511071993265
 40
0.8349421000466637
 40
0.9817057360801694
 40
1.0
 40
1.0
 40
1.0
 40
1.0
 10
18.49153615599284
 20
-0.4368925915602291
 30
0.0
 10
18.36331234389959
 20
-0.456726193432622
 30
0.0
 10
18.05149339802959
 20
-0.5049582084358686
 30
0.0
 10
17.5563746560095
 20
-0.4269668084290068
 30
0.0
 10
17.006687373375
 20
-0.2399558072262376
 30
0.0
 10
16.45763995606526
 20
0.0166213658396828
 30
0.0
 10
15.90809252738856
 20
0.270413557294313
 30
0.0
 10
15.3576679709705
 20
0.4383490689327377
 30
0.0
 10
14.96752463707728
 20
0.5048654325983433
 30
0.0
 10
14.76100070432862
 20
0.4731884188006655
 30
0.0
 10
14.73811053468188
 20
0.4696774832394433
 30
0.0
  0
SPLINE
  5
C8
330
1F
100
AcDbEntity
  8
0
  6
Continuous
 62
     1
370
    15
100
AcDbSpline
210
0.0
220
0.0
230
1.0
 70
     8
 71
     3
 72
     9
 73
     5
 74
     0
 42
0.000000001
 43
0.00000001
 40
0.0
 40
0.0
 40
0.0
 40
0.0
 40
0.1040951570932752
 40
1.0
 40
1.0
 40
1.0
 40
1.0
 10
12.09263330618529
 20
-0.5436814275527965
 30
0.0
 10
12.08096143054355
 20
-0.5472485230018457
 30
0.0
 10
11.96883445011855
 20
-0.5815161637706934
 30
0.0
 10
11.85705190136271
 20
-0.5887002095821433
 30
0.0
 10
11.75690537457989
 20
-0.5951364310162853
 30
0.0
  0
SPLINE
  5
C9
330
1F
100
AcDbEntity
  8
0
  6
Continuous
 62
   131
370
    15
100
AcDbSpline
210
0.0
220
0.0
230
1.0
 70
     8
 71
     3
 72
    10
 73
     6
 74
     0
 42
0.000000001
 43
0.00000001
 40
0.0
 40
0.0
 40
0.0
 40
0.0
 40
0.5
 40
0.5
 40
1.0
 40
1.0
 40
1.0
 40
1.0
 10
11.75692193816527
 20
-0.0649623608422699
 30
0.0
 10
11.75692193816527
 20
-0.1640765397617035
 30
0.0
 10
11.75692193816527
 20
-0.2598701460659669
 30
0.0
 10
11.75692193816527
 20
-0.4053451889924287
 30
0.0
 10
11.75692193816527
 20
-0.4538994724344139
 30
0.0
 10
11.75690537457998
 20
-0.5951364310162787
 30
0.0
  0
SPLINE
  5
CA
330
1F
100
AcDbEntity
  8
0
  6
Continuous
 62
     1
370
    15
100
AcDbSpline
210
0.0
220
0.0
230
1.0
 70
     8
 71
     3
 72
    26
 73
    22
 74
     0
 42
0.000000001
 43
0.00000001
 40
0.0
 40
0.0
 40
0.0
 40
0.0
 40
0.0001559834764821
 40
0.0001559834764821
 40
0.0001559834764821
 40
0.0002339608388535
 40
0.0002339608388535
 40
0.0002339608388535
 40
0.0003119388786533
 40
0.0003119388786533
 40
0.0003119388786533
 40
0.0003899178217442
 40
0.0003899178217442
 40
0.0003899178217442
 40
0.0004678979912524
 40
0.0004678979912524
 40
0.0004678979912524
 40
0.0005458798634201
 40
0.0005458798634201
 40
0.0005458798634201
 40
0.00059702585938
 40
0.00059702585938
 40
0.00059702585938
 40
0.00059702585938
 10
19.75692193816528
 20
0.4200000000000018
 30
0.0
 10
19.71793168213209
 20
0.409379073871548
 30
0.0
 10
19.67906044232635
 20
0.3979775134293846
 30
0.0
 10
19.64035204767976
 20
0.3857250023300561
 30
0.0
 10
19.62099955316707
 20
0.3795992857773184
 30
0.0
 10
19.60168593719528
 20
0.3732598166519449
 30
0.0
 10
19.58241819483568
 20
0.3666945949094597
 30
0.0
 10
19.5631503538489
 20
0.3601293395610966
 30
0.0
 10
19.54392679605472
 20
0.3533378372792218
 30
0.0
 10
19.52475596661306
 20
0.3463052620886379
 30
0.0
 10
19.50558500645344
 20
0.3392726389458292
 30
0.0
 10
19.48646494211653
 20
0.3319983356271423
 30
0.0
 10
19.46740617216189
 20
0.3244639727035933
 30
0.0
 10
19.44834722598617
 20
0.3169295401158628
 30
0.0
 10
19.42934741463709
 20
0.3091342851390966
 30
0.0
 10
19.41041981591375
 20
0.3010552930477702
 30
0.0
 10
19.39149197459337
 20
0.2929761974071463
 30
0.0
 10
19.37263373532669
 20
0.2846123806598377
 30
0.0
 10
19.35386193178251
 20
0.2759350422253455
 30
0.0
 10
19.3415514266277
 20
0.2702444638386511
 30
0.0
 10
19.32927708948516
 20
0.2644184360750953
 30
0.0
 10
19.31704487699824
 20
0.2584470783463171
 30
0.0
  0
LINE
  5
CB
330
1F
100
AcDbEntity
  8
0
  6
Continuous
 62
     1
370
    15
100
AcDbLine
 10
19.75692193816528
 20
0.0000000000000013
 30
0.0
 11
19.75692193816528
 21
0.4200000000000015
 31
0.0
  0
LINE
  5
CC
330
1F
100
AcDbEntity
  8
0
  6
Continuous
 62
   131
370
    15
100
AcDbLine
 10
2.0
 20
2.999999999999998
 30
0.0
 11
2.0
 21
-2.999999999999998
 31
0.0
  0
LINE
  5
CD
330
1F
100
AcDbEntity
  8
0
  6
Continuous
 62
   131
370
    15
100
AcDbLine
 10
-39.69307806183472
 20
2.999999999999994
 30
0.0
 11
-39.69307806183472
 21
-3.0
 31
0.0
  0
SPLINE
  5
CE
330
1F
100
AcDbEntity
  8
0
  6
Continuous
 62
   131
370
    15
100
AcDbSpline
210
0.0
220
0.0
230
1.0
 70
    24
 71
     3
 72
     8
 73
     4
 74
     0
 42
0.000000001
 43
0.00000001
 40
0.0
 40
0.0
 40
0.0
 40
0.0
 40
0.0356802795947851
 40
0.0356802795947851
 40
0.0356802795947851
 40
0.0356802795947851
 10
10.95692193816527
 20
0.5934534689055393
 30
0.0
 10
10.95692193816527
 20
0.5959319036512342
 30
0.0
 10
10.95692193816527
 20
0.598106995867926
 30
0.0
 10
10.95692193816527
 20
0.5999999999999992
 30
0.0
  0
LINE
  5
CF
330
1F
100
AcDbEntity
  8
0
  6
Continuous
 62
   131
370
    15
100
AcDbLine
 10
10.95692193816527
 20
0.4824810263147953
 30
0.0
 11
10.95692193816527
 21
0.365260974315033
 31
0.0
  0
SPLINE
  5
D0
330
1F
100
AcDbEntity
  8
0
  6
Continuous
 62
   131
370
    15
100
AcDbSpline
210
0.0
220
0.0
230
1.0
 70
     8
 71
     3
 72
    13
 73
     9
 74
     0
 42
0.000000001
 43
0.00000001
 40
0.0
 40
0.0
 40
0.0
 40
0.0
 40
0.1607688866505984
 40
0.321538416661345
 40
0.4823085900322401
 40
0.643079406763284
 40
0.8038508668544765
 40
0.9390357105335397
 40
0.9390357105335397
 40
0.9390357105335397
 40
0.9390357105335397
 10
10.95682785211123
 20
0.3653762734819536
 30
0.0
 10
10.95682486501524
 20
0.3040830386955042
 30
0.0
 10
10.9568188908113
 20
0.1814963238411616
 30
0.0
 10
10.95680992953288
 20
-0.0378771488376034
 30
0.0
 10
10.9568009682521
 20
-0.2486828354062891
 30
0.0
 10
10.9567920069712
 20
-0.4305834992307931
 30
0.0
 10
10.95678352109791
 20
-0.5449939762151444
 30
0.0
 10
10.95677802231923
 20
-0.5930556561450455
 30
0.0
 10
10.95677551063388
 20
-0.600039235138785
 30
0.0
  0
LINE
  5
D1
330
1F
100
AcDbEntity
  8
0
  6
Continuous
 62
   131
370
    15
100
AcDbLine
 10
-40.24307806183472
 20
2.449999999999994
 30
0.0
 11
-40.24307806183472
 21
-2.450000000000001
 31
0.0
  0
SPLINE
  5
D2
330
1F
100
AcDbEntity
  8
0
  6
Continuous
 62
   131
370
    15
100
AcDbSpline
210
0.0
220
0.0
230
1.0
 70
     8
 71
     3
 72
    10
 73
     6
 74
     0
 42
0.000000001
 43
0.00000001
 40
0.0
 40
0.0
 40
0.0
 40
0.0
 40
0.5
 40
0.5
 40
1.0
 40
1.0
 40
1.0
 40
1.0
 10
11.75692193816507
 20
-0.0649623608421906
 30
0.0
 10
11.62464593517383
 20
-0.0119511757759989
 30
0.0
 10
11.48682241978503
 20
0.0433898112790431
 30
0.0
 10
11.22707342809036
 20
0.1472702679215182
 30
0.0
 10
11.08878679427879
 20
0.1978910415629542
 30
0.0
 10
10.95680420290687
 20
0.241736995713744
 30
0.0
  0
SPLINE
  5
D3
330
1F
100
AcDbEntity
  8
0
  6
Continuous
 62
   131
370
    15
100
AcDbSpline
210
0.0
220
0.0
230
1.0
 70
    24
 71
     3
 72
     8
 73
     4
 74
     0
 42
0.000000001
 43
0.00000001
 40
0.0
 40
0.0
 40
0.0
 40
0.0
 40
1.0
 40
1.0
 40
1.0
 40
1.0
 10
10.95682788850693
 20
0.3652032152148243
 30
0.0
 10
10.95682788850693
 20
0.3431890094003349
 30
0.0
 10
10.95682788850693
 20
0.295075009005671
 30
0.0
 10
10.95682788850693
 20
0.2417291270689371
 30
0.0
  0
SPLINE
  5
D4
330
1F
100
AcDbEntity
  8
0
  6
Continuous
 62
   131
370
    15
100
AcDbSpline
210
0.0
220
0.0
230
1.0
 70
     8
 71
     3
 72
    10
 73
     6
 74
     0
 42
0.000000001
 43
0.00000001
 40
0.0
 40
0.0
 40
0.0
 40
0.0
 40
0.5
 40
0.5
 40
1.0
 40
1.0
 40
1.0
 40
1.0
 10
10.95692193816572
 20
0.3651610104605276
 30
0.0
 10
11.08888863933653
 20
0.3043922054922121
 30
0.0
 10
11.22715311813446
 20
0.2334740148257587
 30
0.0
 10
11.4868585817368
 20
0.0866409141236517
 30
0.0
 10
11.6246656010621
 20
0.0077837953252569
 30
0.0
 10
11.75692193816532
 20
-0.0683584888969612
 30
0.0
  0
SPLINE
  5
D5
330
1F
100
AcDbEntity
  8
0
  6
Continuous
 62
   131
370
    15
100
AcDbSpline
210
0.0
220
0.0
230
1.0
 70
     8
 71
     3
 72
    10
 73
     6
 74
     0
 42
0.000000001
 43
0.00000001
 40
0.0
 40
0.0
 40
0.0
 40
0.0
 40
0.5
 40
0.5
 40
1.0
 40
1.0
 40
1.0
 40
1.0
 10
11.75692193816452
 20
0.098929751426947
 30
0.0
 10
11.62466560106134
 20
0.1745220928244935
 30
0.0
 10
11.48685858173616
 20
0.2485869674845838
 30
0.0
 10
11.22715311813388
 20
0.3784844653602725
 30
0.0
 10
11.08888863933601
 20
0.4369115735485054
 30
0.0
 10
10.95692193816527
 20
0.4824440030218252
 30
0.0
  0
LINE
  5
D6
330
1F
100
AcDbEntity
  8
0
  6
Continuous
 62
   131
370
    15
100
AcDbLine
 10
11.75692193816526
 20
0.1142553862076559
 30
0.0
 11
11.6119041871055
 21
0.1806942354637484
 31
0.0
  0
SPLINE
  5
D7
330
1F
100
AcDbEntity
  8
0
  6
Continuous
 62
   131
370
    15
100
AcDbSpline
210
0.0
220
0.0
230
1.0
 70
     8
 71
     3
 72
     9
 73
     5
 74
     0
 42
0.000000001
 43
0.00000001
 40
0.0
 40
0.0
 40
0.0
 40
0.0
 40
0.915062459813026
 40
1.0
 40
1.0
 40
1.0
 40
1.0
 10
11.75692193816528
 20
0.5945314197673843
 30
0.0
 10
11.65571877759034
 20
0.6082924384300872
 30
0.0
 10
11.59007553579569
 20
0.5938319000085812
 30
0.0
 10
11.47344726202656
 20
0.6020767597938048
 30
0.0
 10
11.46570241385429
 20
0.6008121611391001
 30
0.0
  0
SPLINE
  5
D8
330
1F
100
AcDbEntity
  8
0
  6
Continuous
 62
   131
370
    15
100
AcDbSpline
210
0.0
220
0.0
230
1.0
 70
    24
 71
     3
 72
    10
 73
     6
 74
     0
 42
0.000000001
 43
0.00000001
 40
0.0385891446594763
 40
0.0385891446594763
 40
0.0385891446594763
 40
0.0385891446594763
 40
0.2822720330891933
 40
0.6916445302970984
 40
1.0
 40
1.0
 40
1.0
 40
1.0
 10
11.75692193816528
 20
0.5945314197673843
 30
0.0
 10
11.75692193816528
 20
0.4522773478191714
 30
0.0
 10
11.75692193816527
 20
0.4106361390460346
 30
0.0
 10
11.75692193816527
 20
0.2999626536569416
 30
0.0
 10
11.75692193816527
 20
0.1873989339902492
 30
0.0
 10
11.75692193816527
 20
0.0989297514262022
 30
0.0
  0
SPLINE
  5
D9
330
1F
100
AcDbEntity
  8
0
  6
Continuous
 62
   131
370
    15
100
AcDbSpline
210
0.0
220
0.0
230
1.0
 70
     8
 71
     3
 72
    10
 73
     6
 74
     0
 42
0.000000001
 43
0.00000001
 40
0.0
 40
0.0
 40
0.0
 40
0.0
 40
0.4999999999999999
 40
0.4999999999999999
 40
1.0
 40
1.0
 40
1.0
 40
1.0
 10
11.75690537457998
 20
-0.5951364310162787
 30
0.0
 10
11.62462733260061
 20
-0.6046214179906618
 30
0.0
 10
11.4868021068213
 20
-0.6022193467681822
 30
0.0
 10
11.22704860205373
 20
-0.5745493119864697
 30
0.0
 10
11.08875967123387
 20
-0.5487026600773464
 30
0.0
 10
10.95677543254797
 20
-0.5134327110975927
 30
0.0
  0
SPLINE
  5
DA
330
1F
100
AcDbEntity
  8
0
  6
Continuous
 62
   131
370
    15
100
AcDbSpline
210
0.0
220
0.0
230
1.0
 70
     8
 71
     3
 72
    10
 73
     6
 74
     0
 42
0.000000001
 43
0.00000001
 40
0.0
 40
0.0
 40
0.0
 40
0.0
 40
0.5
 40
0.5
 40
1.0
 40
1.0
 40
1.0
 40
1.0
 10
11.75692193816527
 20
-0.0649623608422699
 30
0.0
 10
11.75692193816527
 20
-0.1640765397617035
 30
0.0
 10
11.75692193816527
 20
-0.2598701460659669
 30
0.0
 10
11.75692193816527
 20
-0.4053451889924287
 30
0.0
 10
11.75692193816527
 20
-0.4538994724344139
 30
0.0
 10
11.75690537457998
 20
-0.5951364310162787
 30
0.0
  0
LINE
  5
DB
330
1F
100
AcDbEntity
  8
중심선
 62
     1
100
AcDbLine
 10
-43.24307806183472
 20
-0.0000000000000046
 30
0.0
 11
21.25692193816528
 21
0.0000000000000014
 31
0.0
  0
CIRCLE
  5
DC
330
1F
100
AcDbEntity
  8
외형선
100
AcDbCircle
 10
0.0
 20
0.0
 30
0.0
 40
3.000000000000005
  0
INSERT
  5
DD
330
1F
100
AcDbEntity
  8
0
  6
Continuous
 62
     7
100
AcDbBlockReference
 66
     1
  2
블럭10
 10
-22.93944368806589
 20
-52.04609937292004
 30
0.0
  0
ATTRIB
  5
DE
330
DD
100
AcDbEntity
  8
FORMAT
 62
     2
100
AcDbText
 10
-39.05870472750145
 20
-49.97073246008785
 30
0.0
 40
4.233333333333333
  1
SEME7001208E [ 2 FLUTE ]
 41
0.75
  7
SLDTEXTSTYLE0
 11
-39.05870472750145
 21
-52.08739912675452
 31
0.0
100
AcDbAttribute
  2
AUTOATTR0
 70
     0
 74
     1
  0
SEQEND
  5
DF
330
DD
100
AcDbEntity
  8
0
  6
Continuous
 62
     7
  0
HATCH
  5
E0
330
1F
100
AcDbEntity
  8
중심선
100
AcDbHatch
 10
0.0
 20
0.0
 30
0.0
210
0.0
220
0.0
230
1.0
  2
SOLID
 70
     1
 71
     0
 91
        1
 92
        0
 93
        4
 72
     1
 10
-17.22453438368504
 20
-35.7989250712761
 11
-20.67080962752232
 21
-35.7989250712761
 72
     1
 10
-20.67080962752232
 20
-35.7989250712761
 11
-22.79903948672635
 21
-38.3352506518487
 72
     1
 10
-22.79903948672635
 20
-38.3352506518487
 11
-19.35273115777591
 21
-38.33521122254621
 72
     1
 10
-19.35273115777591
 20
-38.33521122254621
 11
-17.22453438368504
 21
-35.7989250712761
 97
        0
 75
     0
 76
     1
 98
        1
 10
0.0
 20
0.0
  0
HATCH
  5
E1
330
1F
100
AcDbEntity
  8
중심선
100
AcDbHatch
 10
0.0
 20
0.0
 30
0.0
210
0.0
220
0.0
230
1.0
  2
SOLID
 70
     1
 71
     0
 91
        1
 92
        0
 93
        4
 72
     1
 10
-12.21177039264909
 20
-35.7989250712761
 11
-15.65804563648637
 21
-35.7989250712761
 72
     1
 10
-15.65804563648637
 20
-35.7989250712761
 11
-20.18918364484376
 21
-41.19892507127612
 72
     1
 10
-20.18918364484376
 20
-41.19892507127612
 11
-16.74290840100648
 21
-41.19892507127612
 72
     1
 10
-16.74290840100648
 20
-41.19892507127612
 11
-12.21177039264909
 21
-35.7989250712761
 97
        0
 75
     0
 76
     1
 98
        1
 10
0.0
 20
0.0
  0
HATCH
  5
E2
330
1F
100
AcDbEntity
  8
중심선
100
AcDbHatch
 10
0.0
 20
0.0
 30
0.0
210
0.0
220
0.0
230
1.0
  2
SOLID
 70
     1
 71
     0
 91
        1
 92
        0
 93
        4
 72
     1
 10
-7.199006401613195
 20
-35.79892507127613
 11
-10.64528164545031
 21
-35.7989250712761
 72
     1
 10
-10.64528164545031
 20
-35.7989250712761
 11
-17.69371854733956
 21
-44.19892507127612
 72
     1
 10
-17.69371854733956
 20
-44.19892507127612
 11
-14.24744330350228
 21
-44.19892507127612
 72
     1
 10
-14.24744330350228
 20
-44.19892507127612
 11
-7.199006401613195
 21
-35.79892507127613
 97
        0
 75
     0
 76
     1
 98
        1
 10
0.0
 20
0.0
  0
HATCH
  5
E3
330
1F
100
AcDbEntity
  8
중심선
100
AcDbHatch
 10
0.0
 20
0.0
 30
0.0
210
0.0
220
0.0
230
1.0
  2
SOLID
 70
     1
 71
     0
 91
        1
 92
        0
 93
        6
 72
     3
 10
-2.399115970600996
 20
-39.99892507132738
 11
3.960054785062284
 21
1.540850780301639E-10
 40
0.3939339440162633
 50
17.09539180608433
 51
320.0019657685079
 73
     0
 72
     1
 10
-0.7161163149004002
 20
-38.58681907591441
 11
1.589185558800638
 21
-36.65249236586649
 72
     3
 10
-2.399115970653842
 20
-39.99892507127625
 11
6.600054785286829
 21
-1.249000902703301E-13
 40
0.6363583540795982
 50
39.99873849337408
 51
368.4976242363724
 73
     1
 72
     1
 10
4.026216521246767
 20
-39.03892507120613
 11
-3.71904866381792
 21
-39.0389250712061
 72
     1
 10
-3.71904866381792
 20
-39.0389250712061
 11
-3.719073708263854
 21
-40.95892507120602
 72
     1
 10
-3.719073708263854
 20
-40.95892507120602
 11
0.7223060612081835
 21
-40.95892507120599
 97
        0
 75
     0
 76
     1
 98
        1
 10
0.0
 20
0.0
  0
DIMENSION
  5
E4
330
1F
100
AcDbEntity
  8
치수문자_일반주서
100
AcDbDimension
  2
_D
 10
37.76437166651066
 20
0.5994928891378564
 30
0.0
 11
37.76437166651058
 21
12.67224288913786
 31
0.0
 70
   160
  1
%%c<>
 71
     2
 42
1.198985778275574
 52
-270.0
  3
SLDDIMSTYLE0
100
AcDbAlignedDimension
 13
19.75692193816522
 23
-0.5994928891377853
 33
0.0
 14
19.75692193816528
 24
0.5994928891377886
 34
0.0
 50
90.0000000000002
100
AcDbRotatedDimension
  0
DIMENSION
  5
F2
330
1F
100
AcDbEntity
  8
치수문자_일반주서
100
AcDbDimension
  2
_D_1
 10
19.75692193816528
 20
24.23841044024269
 30
0.0
 11
-10.24307806183472
 21
24.23841044024269
 31
0.0
 70
   160
  1
<>
 71
     2
 42
60.0
  3
SLDDIMSTYLE1
100
AcDbAlignedDimension
 13
-40.24307806183472
 23
2.449999999999994
 33
0.0
 14
19.75692193816528
 24
0.5693645215391416
 34
0.0
 50
-0.0000000000000068
100
AcDbRotatedDimension
  0
DIMENSION
  5
FD
330
1F
100
AcDbEntity
  8
치수문자_일반주서
100
AcDbDimension
  2
_D_2
 10
19.75692193816528
 20
13.82122140509321
 30
0.0
 11
15.75692193816523
 21
13.82122140509321
 31
0.0
 70
   160
  1
<>
 71
     2
 42
7.999999999999998
  3
SLDDIMSTYLE2
100
AcDbAlignedDimension
 13
11.75692193816528
 23
0.5945314197673827
 33
0.0
 14
19.75692193816528
 24
0.5994928891377886
 34
0.0
100
AcDbRotatedDimension
  0
DIMENSION
  5
10A
330
1F
100
AcDbEntity
  8
치수문자_일반주서
100
AcDbDimension
  2
_D_3
 10
-50.60373689411265
 20
-3.000000000000041
 30
0.0
 11
-50.60373689411271
 21
12.66649999999995
 31
0.0
 70
   160
  1
%%c<>
 71
     2
 42
5.999999999999993
 52
-270.0
  3
SLDDIMSTYLE2
100
AcDbAlignedDimension
 13
-39.69307806183472
 23
2.999999999999994
 33
0.0
 14
-39.69307806183472
 24
-3.0
 34
0.0
 50
90.0000000000002
100
AcDbRotatedDimension
  0
INSERT
  5
11D
330
1F
100
AcDbEntity
  8
외형선
100
AcDbBlockReference
  2
SW_DOWELSYMBOL_0
 10
0.0
 20
0.0
 30
0.0
  0
SPLINE
  5
145
330
1F
100
AcDbEntity
  8
0
  6
Continuous
 62
   131
370
    15
100
AcDbSpline
210
0.0
220
0.0
230
1.0
 70
     8
 71
     3
 72
     8
 73
     4
 74
     0
 42
0.000000001
 43
0.00000001
 40
0.9864617510379017
 40
0.9864617510379017
 40
0.9864617510379017
 40
0.9864617510379017
 40
1.0
 40
1.0
 40
1.0
 40
1.0
 10
10.9567728671611
 20
-0.6000399434551829
 30
0.0
 10
10.95677261562588
 20
-0.5986955552274555
 30
0.0
 10
10.9567723640907
 20
-0.5966254274023799
 30
0.0
 10
10.95677211255552
 20
-0.5934839463777675
 30
0.0
  0
SPLINE
  5
146
330
1F
100
AcDbEntity
  8
0
  6
Continuous
 62
   131
370
    15
100
AcDbSpline
210
0.0
220
0.0
230
1.0
 70
    24
 71
     3
 72
     9
 73
     5
 74
     0
 42
0.000000001
 43
0.00000001
 40
0.3405402473278366
 40
0.3405402473278366
 40
0.3405402473278366
 40
0.3405402473278366
 40
0.4383100824761608
 40
1.0
 40
1.0
 40
1.0
 40
1.0
 10
10.95692193816527
 20
0.5999999999999994
 30
0.0
 10
10.95692193816527
 20
0.5962301169927084
 30
0.0
 10
10.95692193816527
 20
0.5657130788328227
 30
0.0
 10
10.95692193816527
 20
0.520765117000163
 30
0.0
 10
10.95692193816527
 20
0.4824810263147953
 30
0.0
  0
LINE
  5
14B
330
1F
100
AcDbEntity
  8
0
  6
Continuous
 62
   131
370
    15
100
AcDbLine
 10
0.0
 20
2.999999999999998
 30
0.0
 11
0.0
 21
-2.999999999999998
 31
0.0
  0
ENDSEC
  0
SECTION
  2
OBJECTS
  0
DICTIONARY
  5
C
330
0
100
AcDbDictionary
281
     1
  3
ACAD_GROUP
350
D
  3
ACAD_IMAGE_VARS
350
141
  3
ACAD_LAYOUT
350
1A
  3
ACAD_MLINESTYLE
350
17
  3
ACAD_PLOTSETTINGS
350
19
  3
ACAD_PLOTSTYLENAME
350
E
  3
ACAD_SCALELIST
350
47
  3
APPDATA
350
13F
  3
DWGPROPS
350
199
  0
DICTIONARY
  5
D
102
{ACAD_REACTORS
330
C
102
}
330
C
100
AcDbDictionary
281
     1
  0
RASTERVARIABLES
  5
141
102
{ACAD_REACTORS
330
C
102
}
330
C
100
AcDbRasterVariables
 90
        0
 70
     1
 71
     1
 72
     1
  0
DICTIONARY
  5
1A
102
{ACAD_REACTORS
330
C
102
}
330
C
100
AcDbDictionary
281
     1
  3
Layout1
350
1E
  3
Layout2
350
26
  3
Model
350
22
  0
DICTIONARY
  5
17
102
{ACAD_REACTORS
330
C
102
}
330
C
100
AcDbDictionary
281
     1
  3
Standard
350
18
  0
DICTIONARY
  5
19
102
{ACAD_REACTORS
330
C
102
}
330
C
100
AcDbDictionary
281
     1
  0
ACDBDICTIONARYWDFLT
  5
E
102
{ACAD_REACTORS
330
C
102
}
330
C
100
AcDbDictionary
281
     1
  3
Normal
350
F
100
AcDbDictionaryWithDefault
340
F
  0
DICTIONARY
  5
47
102
{ACAD_REACTORS
330
C
102
}
330
C
100
AcDbDictionary
281
     1
  3
A0
350
48
  3
A1
350
49
  3
A2
350
4A
  3
A3
350
4B
  3
A4
350
4C
  3
A5
350
4D
  3
A6
350
4E
  3
A7
350
4F
  3
A8
350
50
  3
A9
350
51
  3
B0
350
52
  3
B1
350
53
  3
B2
350
54
  3
B3
350
55
  3
B4
350
56
  3
B5
350
57
  3
B6
350
58
  3
B7
350
59
  3
B8
350
5A
  3
B9
350
5B
  3
C0
350
5C
  3
C1
350
5D
  3
C2
350
5E
  3
C3
350
5F
  3
C4
350
60
  3
C5
350
61
  3
C6
350
62
  3
C7
350
63
  3
C8
350
64
  3
C9
350
65
  3
D0
350
66
  3
D1
350
67
  3
D2
350
68
  0
DICTIONARY
  5
13F
102
{ACAD_REACTORS
330
C
102
}
330
C
100
AcDbDictionary
281
     1
  0
XRECORD
  5
199
102
{ACAD_REACTORS
330
C
102
}
330
C
100
AcDbXrecord
280
     1
  1
DWGPROPS COOKIE
  2

  3

  4

  6

  7

  8
12014102
  9

300
=
301
=
302
=
303
=
304
=
305
=
306
=
307
=
308
=
309
=
 40
0.0
 41
2458262.158469537
 42
2458264.394785046
  1

 90
        0
  0
LAYOUT
  5
1E
102
{ACAD_REACTORS
330
1A
102
}
330
1A
100
AcDbPlotSettings
  1

  2
none_device
  4

  6

 40
0.0
 41
0.0
 42
0.0
 43
0.0
 44
0.0
 45
0.0
 46
0.0
 47
0.0
 48
0.0
 49
0.0
140
0.0
141
0.0
142
1.0
143
1.0
 70
   688
 72
     1
 73
     0
 74
     5
  7

 75
    16
147
1.0
148
0.0
149
0.0
100
AcDbLayout
  1
Layout1
 70
     1
 71
     1
 10
0.0
 20
0.0
 11
420.0
 21
297.0
 12
0.0
 22
0.0
 32
0.0
 14
1.000000000000000E+20
 24
1.000000000000000E+20
 34
1.000000000000000E+20
 15
-1.000000000000000E+20
 25
-1.000000000000000E+20
 35
-1.000000000000000E+20
146
0.0
 13
0.0
 23
0.0
 33
0.0
 16
1.0
 26
0.0
 36
0.0
 17
0.0
 27
1.0
 37
0.0
 76
     0
330
1B
  0
LAYOUT
  5
26
102
{ACAD_REACTORS
330
1A
102
}
330
1A
100
AcDbPlotSettings
  1

  2
none_device
  4

  6

 40
0.0
 41
0.0
 42
0.0
 43
0.0
 44
0.0
 45
0.0
 46
0.0
 47
0.0
 48
0.0
 49
0.0
140
0.0
141
0.0
142
1.0
143
1.0
 70
   688
 72
     1
 73
     0
 74
     5
  7

 75
    16
147
1.0
148
0.0
149
0.0
100
AcDbLayout
  1
Layout2
 70
     1
 71
     2
 10
0.0
 20
0.0
 11
0.0
 21
0.0
 12
0.0
 22
0.0
 32
0.0
 14
0.0
 24
0.0
 34
0.0
 15
0.0
 25
0.0
 35
0.0
146
0.0
 13
0.0
 23
0.0
 33
0.0
 16
1.0
 26
0.0
 36
0.0
 17
0.0
 27
1.0
 37
0.0
 76
     0
330
23
  0
LAYOUT
  5
22
102
{ACAD_REACTORS
330
1A
102
}
330
1A
100
AcDbPlotSettings
  1

  2
none_device
  4
ANSI_A_(11.00_x_8.50_Inches)
  6

 40
6.35
 41
19.05
 42
6.35000508
 43
19.05000254
 44
279.4
 45
215.9
 46
148.7237057111293
 47
118.4377884955873
 48
0.0
 49
0.0
140
0.0
141
0.0
142
0.1058944507156154
143
1.0
 70
  1696
 72
     0
 73
     0
 74
     0
  7

 75
     0
147
0.0235690232323232
148
0.0
149
0.0
100
AcDbLayout
  1
Model
 70
     1
 71
     0
 10
0.0
 20
0.0
 11
420.0
 21
297.0
 12
0.0
 22
0.0
 32
0.0
 14
-54.97873689411271
 24
-49.97073246008785
 34
0.0
 15
38.31470499984403
 25
28.61341044024269
 35
0.0
146
0.0
 13
0.0
 23
0.0
 33
0.0
 16
1.0
 26
0.0
 36
0.0
 17
0.0
 27
1.0
 37
0.0
 76
     0
330
1F
331
29
  0
MLINESTYLE
  5
18
102
{ACAD_REACTORS
330
17
102
}
330
17
100
AcDbMlineStyle
  2
Standard
 70
     0
  3

 62
   256
 51
90.0
 52
90.0
 71
     2
 49
0.5
 62
   256
  6
BYLAYER
 49
-0.5
 62
   256
  6
BYLAYER
  0
ACDBPLACEHOLDER
  5
F
102
{ACAD_REACTORS
330
E
102
}
330
E
  0
SCALE
  5
48
102
{ACAD_REACTORS
330
47
102
}
330
47
100
AcDbScale
 70
     0
300
1:1
140
1.0
141
1.0
290
     1
  0
SCALE
  5
49
102
{ACAD_REACTORS
330
47
102
}
330
47
100
AcDbScale
 70
     0
300
1:2
140
1.0
141
2.0
290
     0
  0
SCALE
  5
4A
102
{ACAD_REACTORS
330
47
102
}
330
47
100
AcDbScale
 70
     0
300
1:4
140
1.0
141
4.0
290
     0
  0
SCALE
  5
4B
102
{ACAD_REACTORS
330
47
102
}
330
47
100
AcDbScale
 70
     0
300
1:5
140
1.0
141
5.0
290
     0
  0
SCALE
  5
4C
102
{ACAD_REACTORS
330
47
102
}
330
47
100
AcDbScale
 70
     0
300
1:8
140
1.0
141
8.0
290
     0
  0
SCALE
  5
4D
102
{ACAD_REACTORS
330
47
102
}
330
47
100
AcDbScale
 70
     0
300
1:10
140
1.0
141
10.0
290
     0
  0
SCALE
  5
4E
102
{ACAD_REACTORS
330
47
102
}
330
47
100
AcDbScale
 70
     0
300
1:16
140
1.0
141
16.0
290
     0
  0
SCALE
  5
4F
102
{ACAD_REACTORS
330
47
102
}
330
47
100
AcDbScale
 70
     0
300
1:20
140
1.0
141
20.0
290
     0
  0
SCALE
  5
50
102
{ACAD_REACTORS
330
47
102
}
330
47
100
AcDbScale
 70
     0
300
1:30
140
1.0
141
30.0
290
     0
  0
SCALE
  5
51
102
{ACAD_REACTORS
330
47
102
}
330
47
100
AcDbScale
 70
     0
300
1:40
140
1.0
141
40.0
290
     0
  0
SCALE
  5
52
102
{ACAD_REACTORS
330
47
102
}
330
47
100
AcDbScale
 70
     0
300
1:50
140
1.0
141
50.0
290
     0
  0
SCALE
  5
53
102
{ACAD_REACTORS
330
47
102
}
330
47
100
AcDbScale
 70
     0
300
1:100
140
1.0
141
100.0
290
     0
  0
SCALE
  5
54
102
{ACAD_REACTORS
330
47
102
}
330
47
100
AcDbScale
 70
     0
300
2:1
140
2.0
141
1.0
290
     0
  0
SCALE
  5
55
102
{ACAD_REACTORS
330
47
102
}
330
47
100
AcDbScale
 70
     0
300
4:1
140
4.0
141
1.0
290
     0
  0
SCALE
  5
56
102
{ACAD_REACTORS
330
47
102
}
330
47
100
AcDbScale
 70
     0
300
8:1
140
8.0
141
1.0
290
     0
  0
SCALE
  5
57
102
{ACAD_REACTORS
330
47
102
}
330
47
100
AcDbScale
 70
     0
300
10:1
140
10.0
141
1.0
290
     0
  0
SCALE
  5
58
102
{ACAD_REACTORS
330
47
102
}
330
47
100
AcDbScale
 70
     0
300
100:1
140
100.0
141
1.0
290
     0
  0
SCALE
  5
59
102
{ACAD_REACTORS
330
47
102
}
330
47
100
AcDbScale
 70
     0
300
1/128" = 1'-0"
140
0.0078125
141
12.0
290
     0
  0
SCALE
  5
5A
102
{ACAD_REACTORS
330
47
102
}
330
47
100
AcDbScale
 70
     0
300
1/64" = 1'-0"
140
0.015625
141
12.0
290
     0
  0
SCALE
  5
5B
102
{ACAD_REACTORS
330
47
102
}
330
47
100
AcDbScale
 70
     0
300
1/32" = 1'-0"
140
0.03125
141
12.0
290
     0
  0
SCALE
  5
5C
102
{ACAD_REACTORS
330
47
102
}
330
47
100
AcDbScale
 70
     0
300
1/16" = 1'-0"
140
0.0625
141
12.0
290
     0
  0
SCALE
  5
5D
102
{ACAD_REACTORS
330
47
102
}
330
47
100
AcDbScale
 70
     0
300
3/32" = 1'-0"
140
0.09375
141
12.0
290
     0
  0
SCALE
  5
5E
102
{ACAD_REACTORS
330
47
102
}
330
47
100
AcDbScale
 70
     0
300
1/8" = 1'-0"
140
0.125
141
12.0
290
     0
  0
SCALE
  5
5F
102
{ACAD_REACTORS
330
47
102
}
330
47
100
AcDbScale
 70
     0
300
3/16" = 1'-0"
140
0.1875
141
12.0
290
     0
  0
SCALE
  5
60
102
{ACAD_REACTORS
330
47
102
}
330
47
100
AcDbScale
 70
     0
300
1/4" = 1'-0"
140
0.25
141
12.0
290
     0
  0
SCALE
  5
61
102
{ACAD_REACTORS
330
47
102
}
330
47
100
AcDbScale
 70
     0
300
3/8" = 1'-0"
140
0.375
141
12.0
290
     0
  0
SCALE
  5
62
102
{ACAD_REACTORS
330
47
102
}
330
47
100
AcDbScale
 70
     0
300
1/2" = 1'-0"
140
0.5
141
12.0
290
     0
  0
SCALE
  5
63
102
{ACAD_REACTORS
330
47
102
}
330
47
100
AcDbScale
 70
     0
300
3/4" = 1'-0"
140
0.75
141
12.0
290
     0
  0
SCALE
  5
64
102
{ACAD_REACTORS
330
47
102
}
330
47
100
AcDbScale
 70
     0
300
1" = 1'-0"
140
1.0
141
12.0
290
     0
  0
SCALE
  5
65
102
{ACAD_REACTORS
330
47
102
}
330
47
100
AcDbScale
 70
     0
300
1-1/2" = 1'-0"
140
1.5
141
12.0
290
     0
  0
SCALE
  5
66
102
{ACAD_REACTORS
330
47
102
}
330
47
100
AcDbScale
 70
     0
300
3" = 1'-0"
140
3.0
141
12.0
290
     0
  0
SCALE
  5
67
102
{ACAD_REACTORS
330
47
102
}
330
47
100
AcDbScale
 70
     0
300
6" = 1'-0"
140
6.0
141
12.0
290
     0
  0
SCALE
  5
68
102
{ACAD_REACTORS
330
47
102
}
330
47
100
AcDbScale
 70
     0
300
1'-0" = 1'-0"
140
12.0
141
12.0
290
     0
  0
ENDSEC
  0
EOF
