  0
SECTION
  2
HEADER
  9
$ACADVER
  1
AC1015
  9
$ACADMAINTVER
 70
     6
  9
$DWGCODEPAGE
  3
ANSI_949
  9
$INSBASE
 10
0.0
 20
0.0
 30
0.0
  9
$EXTMIN
 10
-58.60913634322063
 20
-49.97073246008785
 30
0.0
  9
$EXTMAX
 10
34.22475332528254
 20
28.61341044024269
 30
0.0
  9
$LIMMIN
 10
0.0
 20
0.0
  9
$LIMMAX
 10
420.0
 20
297.0
  9
$ORTHOMODE
 70
     0
  9
$REGENMODE
 70
     1
  9
$FILLMODE
 70
     1
  9
$QTEXTMODE
 70
     0
  9
$MIRRTEXT
 70
     1
  9
$LTSCALE
 40
1.0
  9
$ATTMODE
 70
     1
  9
$TEXTSIZE
 40
3.5
  9
$TRACEWID
 40
1.0
  9
$TEXTSTYLE
  7
Standard
  9
$CLAYER
  8
0
  9
$CELTYPE
  6
ByLayer
  9
$CECOLOR
 62
   256
  9
$CELTSCALE
 40
1.0
  9
$DISPSILH
 70
     0
  9
$DIMSCALE
 40
1.0
  9
$DIMASZ
 40
3.302
  9
$DIMEXO
 40
1.0
  9
$DIMDLI
 40
3.75
  9
$DIMRND
 40
0.0
  9
$DIMDLE
 40
0.0
  9
$DIMEXE
 40
1.0
  9
$DIMTP
 40
0.0
  9
$DIMTM
 40
0.0
  9
$DIMTXT
 40
3.5
  9
$DIMCEN
 40
2.5
  9
$DIMTSZ
 40
0.0
  9
$DIMTOL
 70
     0
  9
$DIMLIM
 70
     0
  9
$DIMTIH
 70
     1
  9
$DIMTOH
 70
     1
  9
$DIMSE1
 70
     0
  9
$DIMSE2
 70
     0
  9
$DIMTAD
 70
     1
  9
$DIMZIN
 70
     0
  9
$DIMBLK
  1

  9
$DIMASO
 70
     1
  9
$DIMSHO
 70
     1
  9
$DIMPOST
  1

  9
$DIMAPOST
  1

  9
$DIMALT
 70
     0
  9
$DIMALTD
 70
     3
  9
$DIMALTF
 40
0.0393700787401575
  9
$DIMLFAC
 40
1.0
  9
$DIMTOFL
 70
     1
  9
$DIMTVP
 40
0.0
  9
$DIMTIX
 70
     0
  9
$DIMSOXD
 70
     0
  9
$DIMSAH
 70
     0
  9
$DIMBLK1
  1

  9
$DIMBLK2
  1

  9
$DIMSTYLE
  2
ISO-25
  9
$DIMCLRD
 70
     0
  9
$DIMCLRE
 70
     0
  9
$DIMCLRT
 70
     0
  9
$DIMTFAC
 40
1.0
  9
$DIMGAP
 40
1.524
  9
$DIMJUST
 70
     0
  9
$DIMSD1
 70
     0
  9
$DIMSD2
 70
     0
  9
$DIMTOLJ
 70
     0
  9
$DIMTZIN
 70
     0
  9
$DIMALTZ
 70
     0
  9
$DIMALTTZ
 70
     0
  9
$DIMUPT
 70
     0
  9
$DIMDEC
 70
     2
  9
$DIMTDEC
 70
     2
  9
$DIMALTU
 70
     2
  9
$DIMALTTD
 70
     3
  9
$DIMTXSTY
  7
Standard
  9
$DIMAUNIT
 70
     0
  9
$DIMADEC
 70
     2
  9
$DIMALTRND
 40
0.0
  9
$DIMAZIN
 70
     0
  9
$DIMDSEP
 70
    44
  9
$DIMATFIT
 70
     3
  9
$DIMFRAC
 70
     0
  9
$DIMLDRBLK
  1

  9
$DIMLUNIT
 70
     2
  9
$DIMLWD
 70
    -2
  9
$DIMLWE
 70
    -2
  9
$DIMTMOVE
 70
     0
  9
$LUNITS
 70
     2
  9
$LUPREC
 70
     2
  9
$SKETCHINC
 40
1.0
  9
$FILLETRAD
 40
10.0
  9
$AUNITS
 70
     0
  9
$AUPREC
 70
     2
  9
$MENU
  1
.
  9
$ELEVATION
 40
0.0
  9
$PELEVATION
 40
0.0
  9
$THICKNESS
 40
0.0
  9
$LIMCHECK
 70
     0
  9
$CHAMFERA
 40
0.0
  9
$CHAMFERB
 40
0.0
  9
$CHAMFERC
 40
0.0
  9
$CHAMFERD
 40
0.0
  9
$SKPOLY
 70
     0
  9
$TDCREATE
 40
2458262.533281991
  9
$TDUCREATE
 40
2458262.158281991
  9
$TDUPDATE
 40
2458264.769168715
  9
$TDUUPDATE
 40
2458264.394168715
  9
$TDINDWG
 40
0.0198514699
  9
$TDUSRTIMER
 40
2458264.394055255
  9
$USRTIMER
 70
     1
  9
$ANGBASE
 50
0.0
  9
$ANGDIR
 70
     0
  9
$PDMODE
 70
     0
  9
$PDSIZE
 40
-1.0
  9
$PLINEWID
 40
0.0
  9
$SPLFRAME
 70
     0
  9
$SPLINETYPE
 70
     6
  9
$SPLINESEGS
 70
     8
  9
$HANDSEED
  5
1DE
  9
$SURFTAB1
 70
     6
  9
$SURFTAB2
 70
     6
  9
$SURFTYPE
 70
     6
  9
$SURFU
 70
     6
  9
$SURFV
 70
     6
  9
$UCSBASE
  2

  9
$UCSNAME
  2

  9
$UCSORG
 10
0.0
 20
0.0
 30
0.0
  9
$UCSXDIR
 10
1.0
 20
0.0
 30
0.0
  9
$UCSYDIR
 10
0.0
 20
1.0
 30
0.0
  9
$UCSORTHOREF
  2

  9
$UCSORTHOVIEW
 70
     0
  9
$UCSORGTOP
 10
0.0
 20
0.0
 30
0.0
  9
$UCSORGBOTTOM
 10
0.0
 20
0.0
 30
0.0
  9
$UCSORGLEFT
 10
0.0
 20
0.0
 30
0.0
  9
$UCSORGRIGHT
 10
0.0
 20
0.0
 30
0.0
  9
$UCSORGFRONT
 10
0.0
 20
0.0
 30
0.0
  9
$UCSORGBACK
 10
0.0
 20
0.0
 30
0.0
  9
$PUCSBASE
  2

  9
$PUCSNAME
  2

  9
$PUCSORG
 10
0.0
 20
0.0
 30
0.0
  9
$PUCSXDIR
 10
1.0
 20
0.0
 30
0.0
  9
$PUCSYDIR
 10
0.0
 20
1.0
 30
0.0
  9
$PUCSORTHOREF
  2

  9
$PUCSORTHOVIEW
 70
     0
  9
$PUCSORGTOP
 10
0.0
 20
0.0
 30
0.0
  9
$PUCSORGBOTTOM
 10
0.0
 20
0.0
 30
0.0
  9
$PUCSORGLEFT
 10
0.0
 20
0.0
 30
0.0
  9
$PUCSORGRIGHT
 10
0.0
 20
0.0
 30
0.0
  9
$PUCSORGFRONT
 10
0.0
 20
0.0
 30
0.0
  9
$PUCSORGBACK
 10
0.0
 20
0.0
 30
0.0
  9
$USERI1
 70
     0
  9
$USERI2
 70
     0
  9
$USERI3
 70
     0
  9
$USERI4
 70
     0
  9
$USERI5
 70
     0
  9
$USERR1
 40
0.0
  9
$USERR2
 40
0.0
  9
$USERR3
 40
0.0
  9
$USERR4
 40
0.0
  9
$USERR5
 40
0.0
  9
$WORLDVIEW
 70
     1
  9
$SHADEDGE
 70
     3
  9
$SHADEDIF
 70
    70
  9
$TILEMODE
 70
     1
  9
$MAXACTVP
 70
    64
  9
$PINSBASE
 10
0.0
 20
0.0
 30
0.0
  9
$PLIMCHECK
 70
     0
  9
$PEXTMIN
 10
1.000000000000000E+20
 20
1.000000000000000E+20
 30
1.000000000000000E+20
  9
$PEXTMAX
 10
-1.000000000000000E+20
 20
-1.000000000000000E+20
 30
-1.000000000000000E+20
  9
$PLIMMIN
 10
0.0
 20
0.0
  9
$PLIMMAX
 10
0.0
 20
0.0
  9
$UNITMODE
 70
     0
  9
$VISRETAIN
 70
     1
  9
$PLINEGEN
 70
     0
  9
$PSLTSCALE
 70
     1
  9
$TREEDEPTH
 70
  3020
  9
$CMLSTYLE
  2
Standard
  9
$CMLJUST
 70
     0
  9
$CMLSCALE
 40
20.0
  9
$PROXYGRAPHICS
 70
     1
  9
$MEASUREMENT
 70
     1
  9
$CELWEIGHT
370
    -1
  9
$ENDCAPS
280
     0
  9
$JOINSTYLE
280
     0
  9
$LWDISPLAY
290
     1
  9
$INSUNITS
 70
     4
  9
$HYPERLINKBASE
  1

  9
$STYLESHEET
  1

  9
$XEDIT
290
     1
  9
$CEPSNTYPE
380
     0
  9
$PSTYLEMODE
290
     1
  9
$FINGERPRINTGUID
  2
{B18F0B20-E5FA-470A-A73D-DDDFCCC9C520}
  9
$VERSIONGUID
  2
{FAEB1C32-E019-11D5-929B-00C0DF256EC4}
  9
$EXTNAMES
290
     1
  9
$PSVPSCALE
 40
0.0
  9
$OLESTARTUP
290
     0
  0
ENDSEC
  0
SECTION
  2
CLASSES
  0
CLASS
  1
ACDBDICTIONARYWDFLT
  2
AcDbDictionaryWithDefault
  3
ObjectDBX Classes
 90
        0
280
     0
281
     0
  0
CLASS
  1
VISUALSTYLE
  2
AcDbVisualStyle
  3
ObjectDBX Classes
 90
     4095
280
     0
281
     0
  0
CLASS
  1
MATERIAL
  2
AcDbMaterial
  3
ObjectDBX Classes
 90
     1153
280
     0
281
     0
  0
CLASS
  1
SCALE
  2
AcDbScale
  3
ObjectDBX Classes
 90
     1153
280
     0
281
     0
  0
CLASS
  1
SUN
  2
AcDbSun
  3
SCENEOE
 90
     1153
280
     0
281
     0
  0
CLASS
  1
ACDBPLACEHOLDER
  2
AcDbPlaceHolder
  3
ObjectDBX Classes
 90
        0
280
     0
281
     0
  0
CLASS
  1
LAYOUT
  2
AcDbLayout
  3
ObjectDBX Classes
 90
        0
280
     0
281
     0
  0
CLASS
  1
TABLESTYLE
  2
AcDbTableStyle
  3
ObjectDBX Classes
 90
     4095
280
     0
281
     0
  0
CLASS
  1
MLEADERSTYLE
  2
AcDbMLeaderStyle
  3
ACDB_MLEADERSTYLE_CLASS
 90
     4095
280
     0
281
     0
  0
CLASS
  1
RASTERVARIABLES
  2
AcDbRasterVariables
  3
ISM
 90
        0
280
     0
281
     0
  0
ENDSEC
  0
SECTION
  2
TABLES
  0
TABLE
  2
VPORT
  5
8
330
0
100
AcDbSymbolTable
 70
     1
  0
VPORT
  5
29
330
8
100
AcDbSymbolTableRecord
100
AcDbViewportTableRecord
  2
*Active
 70
     0
 10
0.0
 20
0.0
 11
1.0
 21
1.0
 12
-12.19219150896904
 22
-10.67866100992259
 13
0.0
 23
0.0
 14
10.0
 24
10.0
 15
10.0
 25
10.0
 16
0.0
 26
0.0
 36
1.0
 17
0.0
 27
0.0
 37
0.0
 40
80.15582575833714
 41
1.396662387676508
 42
50.0
 43
0.0
 44
0.0
 50
0.0
 51
0.0
 71
    16
 72
  2000
 73
     1
 74
     3
 75
     0
 76
     0
 77
     0
 78
     0
281
     0
 65
     1
110
0.0
120
0.0
130
0.0
111
1.0
121
0.0
131
0.0
112
0.0
122
1.0
132
0.0
 79
     0
146
0.0
  0
ENDTAB
  0
TABLE
  2
LTYPE
  5
5
330
0
100
AcDbSymbolTable
 70
     6
  0
LTYPE
  5
14
330
5
100
AcDbSymbolTableRecord
100
AcDbLinetypeTableRecord
  2
ByBlock
 70
     0
  3

 72
    65
 73
     0
 40
0.0
  0
LTYPE
  5
15
330
5
100
AcDbSymbolTableRecord
100
AcDbLinetypeTableRecord
  2
ByLayer
 70
     0
  3

 72
    65
 73
     0
 40
0.0
  0
LTYPE
  5
16
330
5
100
AcDbSymbolTableRecord
100
AcDbLinetypeTableRecord
  2
Continuous
 70
     0
  3
Solid line
 72
    65
 73
     0
 40
0.0
  0
LTYPE
  5
6A
330
5
100
AcDbSymbolTableRecord
100
AcDbLinetypeTableRecord
  2
HIDDEN
 70
     0
  3
Hidden __ __ __ __ __ __ __ __ __ __ __ __ __ __
 72
    65
 73
     2
 40
1.905
 49
1.27
 74
     0
 49
-0.635
 74
     0
  0
LTYPE
  5
6B
330
5
100
AcDbSymbolTableRecord
100
AcDbLinetypeTableRecord
  2
PHANTOM
 70
     0
  3
Phantom ______  __  __  ______  __  __  ______
 72
    65
 73
     6
 40
12.7
 49
6.35
 74
     0
 49
-1.27
 74
     0
 49
1.27
 74
     0
 49
-1.27
 74
     0
 49
1.27
 74
     0
 49
-1.27
 74
     0
  0
LTYPE
  5
6C
330
5
100
AcDbSymbolTableRecord
100
AcDbLinetypeTableRecord
  2
CENTER
 70
     0
  3
Center ____ _ ____ _ ____ _ ____ _ ____ _ ____
 72
    65
 73
     4
 40
10.16
 49
6.35
 74
     0
 49
-1.27
 74
     0
 49
1.27
 74
     0
 49
-1.27
 74
     0
  0
LTYPE
  5
6D
330
5
100
AcDbSymbolTableRecord
100
AcDbLinetypeTableRecord
  2
CENTERX2
 70
     0
  3
Center (2x) ________  __  ________  __  _____
 72
    65
 73
     4
 40
20.32
 49
12.7
 74
     0
 49
-2.54
 74
     0
 49
2.54
 74
     0
 49
-2.54
 74
     0
  0
LTYPE
  5
6E
330
5
100
AcDbSymbolTableRecord
100
AcDbLinetypeTableRecord
  2
DOT2
 70
     0
  3
Dot (.5x) ........................................
 72
    65
 73
     2
 40
0.635
 49
0.0
 74
     0
 49
-0.635
 74
     0
  0
ENDTAB
  0
TABLE
  2
LAYER
  5
2
330
0
100
AcDbSymbolTable
 70
    17
  0
LAYER
  5
10
330
2
100
AcDbSymbolTableRecord
100
AcDbLayerTableRecord
  2
0
 70
     0
 62
     7
  6
Continuous
370
    -3
390
F
  0
LAYER
  5
6F
330
2
100
AcDbSymbolTableRecord
100
AcDbLayerTableRecord
  2
FORMAT
 70
     0
 62
     2
  6
Continuous
370
    -3
390
F
  0
LAYER
  5
70
330
2
100
AcDbSymbolTableRecord
100
AcDbLayerTableRecord
  2
외형선
 70
     0
 62
   100
  6
Continuous
370
    30
390
F
  0
LAYER
  5
71
330
2
100
AcDbSymbolTableRecord
100
AcDbLayerTableRecord
  2
숨은선
 70
     0
 62
     2
  6
HIDDEN
370
    15
390
F
  0
LAYER
  5
72
330
2
100
AcDbSymbolTableRecord
100
AcDbLayerTableRecord
  2
중심선
 70
     0
 62
     1
  6
CENTERX2
370
    -3
390
F
  0
LAYER
  5
73
330
2
100
AcDbSymbolTableRecord
100
AcDbLayerTableRecord
  2
파단선
 70
     0
 62
     4
  6
Continuous
370
    -3
390
F
  0
LAYER
  5
74
330
2
100
AcDbSymbolTableRecord
100
AcDbLayerTableRecord
  2
해칭선
 70
     0
 62
     4
  6
Continuous
370
    -3
390
F
  0
LAYER
  5
75
330
2
100
AcDbSymbolTableRecord
100
AcDbLayerTableRecord
  2
가는실선
 70
     0
 62
     4
  6
Continuous
370
    -3
390
F
  0
LAYER
  5
76
330
2
100
AcDbSymbolTableRecord
100
AcDbLayerTableRecord
  2
치수_보조선
 70
     0
 62
     4
  6
Continuous
370
    -3
390
F
  0
LAYER
  5
77
330
2
100
AcDbSymbolTableRecord
100
AcDbLayerTableRecord
  2
치수문자_일반주서
 70
     0
 62
     7
  6
Continuous
370
    15
390
F
  0
LAYER
  5
78
330
2
100
AcDbSymbolTableRecord
100
AcDbLayerTableRecord
  2
개별주서
 70
     0
 62
   100
  6
Continuous
370
    30
390
F
  0
LAYER
  5
79
330
2
100
AcDbSymbolTableRecord
100
AcDbLayerTableRecord
  2
중간선
 70
     0
 62
     2
  6
Continuous
370
    15
390
F
  0
LAYER
  5
7A
330
2
100
AcDbSymbolTableRecord
100
AcDbLayerTableRecord
  2
윤곽선
 70
     0
 62
     3
  6
Continuous
370
    40
390
F
  0
LAYER
  5
7B
330
2
100
AcDbSymbolTableRecord
100
AcDbLayerTableRecord
  2
중심마크
 70
     0
 62
   100
  6
Continuous
370
    30
390
F
  0
LAYER
  5
7C
330
2
100
AcDbSymbolTableRecord
100
AcDbLayerTableRecord
  2
가상선
 70
     0
 62
     4
  6
PHANTOM
370
    -3
390
F
  0
LAYER
  5
7D
330
2
100
AcDbSymbolTableRecord
100
AcDbLayerTableRecord
  2
특수지정선
 70
     0
 62
     5
  6
CENTERX2
370
    60
390
F
  0
LAYER
  5
142
330
2
100
AcDbSymbolTableRecord
100
AcDbLayerTableRecord
  2
Defpoints
 70
     0
 62
     7
  6
Continuous
290
     0
370
    -3
390
F
  0
ENDTAB
  0
TABLE
  2
STYLE
  5
3
330
0
100
AcDbSymbolTable
 70
     2
  0
STYLE
  5
11
330
3
100
AcDbSymbolTableRecord
100
AcDbTextStyleTableRecord
  2
Standard
 70
     0
 40
0.0
 41
1.0
 50
0.0
 71
     0
 42
3.5
  3
txt
  4

  0
STYLE
  5
93
330
3
100
AcDbSymbolTableRecord
100
AcDbTextStyleTableRecord
  2
SLDTEXTSTYLE0
 70
     0
 40
0.0
 41
0.75
 50
0.0
 71
     0
 42
3.5
  3
TXT
  4

  0
ENDTAB
  0
TABLE
  2
VIEW
  5
6
330
0
100
AcDbSymbolTable
 70
     0
  0
ENDTAB
  0
TABLE
  2
UCS
  5
7
330
0
100
AcDbSymbolTable
 70
     0
  0
ENDTAB
  0
TABLE
  2
APPID
  5
9
330
0
100
AcDbSymbolTable
 70
     1
  0
APPID
  5
12
330
9
100
AcDbSymbolTableRecord
100
AcDbRegAppTableRecord
  2
ACAD
 70
     0
  0
ENDTAB
  0
TABLE
  2
DIMSTYLE
  5
A
330
0
100
AcDbSymbolTable
 70
     4
100
AcDbDimStyleTable
  0
DIMSTYLE
105
27
330
A
100
AcDbSymbolTableRecord
100
AcDbDimStyleTableRecord
  2
ISO-25
 70
     0
 41
2.5
 42
0.625
 43
3.75
 44
1.25
 73
     0
 74
     0
 77
     1
 78
     8
140
2.5
141
2.5
143
0.03937007874016
147
0.625
171
     3
172
     1
178
     0
271
     2
272
     2
274
     3
278
    44
283
     0
284
     8
340
11
  0
DIMSTYLE
105
E5
102
{ACAD_REACTORS
330
E4
102
}
330
A
100
AcDbSymbolTableRecord
100
AcDbDimStyleTableRecord
  2
SLDDIMSTYLE0
 70
     0
 41
3.302
 44
0.0
 45
0.000000001
 73
     0
 74
     0
 77
     1
 78
     4
 79
     1
140
3.5
147
0.875
172
     1
173
     1
178
     0
271
     2
272
     2
276
     2
284
    12
289
     0
340
93
  0
DIMSTYLE
105
F3
102
{ACAD_REACTORS
330
F2
102
}
330
A
100
AcDbSymbolTableRecord
100
AcDbDimStyleTableRecord
  2
SLDDIMSTYLE1
 70
     0
 41
3.302
 44
0.0
 45
0.000000001
 73
     0
 74
     0
 77
     1
 78
    12
 79
     3
140
3.5
147
0.875
173
     1
178
     0
271
     2
272
     2
276
     2
284
    12
340
93
  0
DIMSTYLE
105
FE
102
{ACAD_REACTORS
330
FD
330
10A
102
}
330
A
100
AcDbSymbolTableRecord
100
AcDbDimStyleTableRecord
  2
SLDDIMSTYLE2
 70
     0
 41
3.302
 44
0.0
 45
0.000000001
 73
     0
 74
     0
 77
     1
 78
    12
 79
     3
140
3.5
147
0.875
172
     1
173
     1
178
     0
271
     2
272
     2
276
     2
284
    12
289
     0
340
93
  0
ENDTAB
  0
TABLE
  2
BLOCK_RECORD
  5
1
330
0
100
AcDbSymbolTable
 70
     7
  0
BLOCK_RECORD
  5
1F
330
1
100
AcDbSymbolTableRecord
100
AcDbBlockTableRecord
  2
*Model_Space
340
22
  0
BLOCK_RECORD
  5
1B
330
1
100
AcDbSymbolTableRecord
100
AcDbBlockTableRecord
  2
*Paper_Space
340
1E
  0
BLOCK_RECORD
  5
23
330
1
100
AcDbSymbolTableRecord
100
AcDbBlockTableRecord
  2
*Paper_Space0
340
26
  0
BLOCK_RECORD
  5
7E
330
1
100
AcDbSymbolTableRecord
100
AcDbBlockTableRecord
  2
블럭10
340
0
102
{BLKREFS
331
DD
102
}
  0
BLOCK_RECORD
  5
E6
330
1
100
AcDbSymbolTableRecord
100
AcDbBlockTableRecord
  2
_D
340
0
  0
BLOCK_RECORD
  5
F4
330
1
100
AcDbSymbolTableRecord
100
AcDbBlockTableRecord
  2
_D_1
340
0
  0
BLOCK_RECORD
  5
FF
330
1
100
AcDbSymbolTableRecord
100
AcDbBlockTableRecord
  2
_D_2
340
0
  0
BLOCK_RECORD
  5
10B
330
1
100
AcDbSymbolTableRecord
100
AcDbBlockTableRecord
  2
_D_3
340
0
  0
BLOCK_RECORD
  5
117
330
1
100
AcDbSymbolTableRecord
100
AcDbBlockTableRecord
  2
SW_DOWELSYMBOL_0
340
0
102
{BLKREFS
331
11D
102
}
  0
ENDTAB
  0
ENDSEC
  0
SECTION
  2
BLOCKS
  0
BLOCK
  5
20
330
1F
100
AcDbEntity
  8
0
100
AcDbBlockBegin
  2
*Model_Space
 70
     0
 10
0.0
 20
0.0
 30
0.0
  3
*Model_Space
  1

  0
ENDBLK
  5
21
330
1F
100
AcDbEntity
  8
0
100
AcDbBlockEnd
  0
BLOCK
  5
1C
330
1B
100
AcDbEntity
 67
     1
  8
0
100
AcDbBlockBegin
  2
*Paper_Space
 70
     0
 10
0.0
 20
0.0
 30
0.0
  3
*Paper_Space
  1

  0
ENDBLK
  5
1D
330
1B
100
AcDbEntity
 67
     1
  8
0
100
AcDbBlockEnd
  0
BLOCK
  5
24
330
23
100
AcDbEntity
  8
0
100
AcDbBlockBegin
  2
*Paper_Space0
 70
     0
 10
0.0
 20
0.0
 30
0.0
  3
*Paper_Space0
  1

  0
ENDBLK
  5
25
330
23
100
AcDbEntity
  8
0
100
AcDbBlockEnd
  0
BLOCK
  5
7F
330
7E
100
AcDbEntity
  8
0
100
AcDbBlockBegin
  2
블럭10
 70
     2
 10
0.0
 20
0.0
 30
0.0
  3
블럭10
  1

  0
ELLIPSE
  5
81
330
7E
100
AcDbEntity
  8
중심선
100
AcDbEllipse
 10
20.54032771741204
 20
12.0471743016438
 30
0.0
 11
6.600054785286829
 21
-1.261213355974178E-13
 31
0.0
210
0.0
220
0.0
230
1.0
 40
0.636358354079598
 41
0.9219305317359503
 42
6.513795318482858
  0
ELLIPSE
  5
82
330
7E
100
AcDbEntity
  8
중심선
100
AcDbEllipse
 10
20.54032771746488
 20
12.04717430159265
 30
0.0
 11
3.960054785062283
 21
1.540847449632565E-10
 31
0.0
210
0.0
220
0.0
230
1.0
 40
0.3939339440162632
 41
1.131841032648279
 42
5.62031148352944
  0
LINE
  5
83
330
7E
100
AcDbEntity
  8
중심선
100
AcDbLine
 10
2.268634060543552
 20
16.24717430164393
 30
0.0
 11
5.714909304380834
 21
16.24717430164393
 31
0.0
  0
LINE
  5
84
330
7E
100
AcDbEntity
  8
중심선
100
AcDbLine
 10
5.245725140726316
 20
7.84717430164391
 30
0.0
 11
8.692000384563599
 21
7.84717430164391
 31
0.0
  0
LINE
  5
85
330
7E
100
AcDbEntity
  8
중심선
100
AcDbLine
 10
15.74043728645272
 20
16.24717430164393
 30
0.0
 11
8.692000384563599
 21
7.84717430164391
 31
0.0
  0
LINE
  5
86
330
7E
100
AcDbEntity
  8
중심선
100
AcDbLine
 10
0.1404042013395286
 20
13.71084872107135
 30
0.0
 11
3.58671253028996
 21
13.71088815037384
 31
0.0
  0
LINE
  5
87
330
7E
100
AcDbEntity
  8
중심선
100
AcDbLine
 10
2.750260043222114
 20
10.84717430164391
 30
0.0
 11
6.196535287059397
 21
10.84717430164391
 31
0.0
  0
LINE
  5
88
330
7E
100
AcDbEntity
  8
중심선
100
AcDbLine
 10
12.29416204261559
 20
16.24717430164393
 30
0.0
 11
5.245725140726316
 21
7.84717430164391
 31
0.0
  0
LINE
  5
89
330
7E
100
AcDbEntity
  8
중심선
100
AcDbLine
 10
10.72767329541681
 20
16.24717430164393
 30
0.0
 11
6.196535287059397
 21
10.84717430164391
 31
0.0
  0
LINE
  5
8A
330
7E
100
AcDbEntity
  8
중심선
100
AcDbLine
 10
7.28139805157953
 20
16.24717430164393
 30
0.0
 11
2.750260043222114
 21
10.84717430164391
 31
0.0
  0
LINE
  5
8B
330
7E
100
AcDbEntity
  8
중심선
100
AcDbLine
 10
5.714909304380834
 20
16.24717430164393
 30
0.0
 11
3.58671253028996
 21
13.71088815037384
 31
0.0
  0
LINE
  5
8C
330
7E
100
AcDbEntity
  8
중심선
100
AcDbLine
 10
2.268634060543552
 20
16.24717430164393
 30
0.0
 11
0.1404042013395286
 21
13.71084872107135
 31
0.0
  0
LINE
  5
8D
330
7E
100
AcDbEntity
  8
중심선
100
AcDbLine
 10
7.28139805157953
 20
16.24717430164393
 30
0.0
 11
10.72767329541681
 21
16.24717430164393
 31
0.0
  0
LINE
  5
8E
330
7E
100
AcDbEntity
  8
중심선
100
AcDbLine
 10
12.29416204261559
 20
16.24717430164393
 30
0.0
 11
15.74043728645272
 21
16.24717430164393
 31
0.0
  0
LINE
  5
8F
330
7E
100
AcDbEntity
  8
중심선
100
AcDbLine
 10
19.22036997980202
 20
11.08717430171403
 30
0.0
 11
23.66174974927406
 21
11.08717430171406
 31
0.0
  0
LINE
  5
90
330
7E
100
AcDbEntity
  8
중심선
100
AcDbLine
 10
19.22039502424796
 20
13.00717430171391
 30
0.0
 11
19.22036997980202
 21
11.08717430171403
 31
0.0
  0
LINE
  5
91
330
7E
100
AcDbEntity
  8
중심선
100
AcDbLine
 10
19.22039502424796
 20
13.00717430171391
 30
0.0
 11
26.96566020931264
 21
13.00717430171391
 31
0.0
  0
LINE
  5
92
330
7E
100
AcDbEntity
  8
중심선
100
AcDbLine
 10
22.22332737316547
 20
13.45928029700563
 30
0.0
 11
24.52862924686651
 21
15.39360700705356
 31
0.0
  0
ATTDEF
  5
94
330
7E
100
AcDbEntity
  8
FORMAT
 62
     2
100
AcDbText
 10
-16.11926103943555
 20
2.075366912832191
 30
0.0
 40
4.233333333333333
  1
SEME7001206E [ 2 FLUTE ]
 41
0.75
  7
SLDTEXTSTYLE0
 11
-16.11926103943555
 21
-0.0412997538344756
 31
0.0
100
AcDbAttributeDefinition
  3

  2
AUTOATTR0
 70
     0
 74
     1
  0
ENDBLK
  5
80
330
7E
100
AcDbEntity
  8
0
100
AcDbBlockEnd
  0
BLOCK
  5
E7
330
E6
100
AcDbEntity
  8
0
100
AcDbBlockBegin
  2
_D
 70
     0
 10
0.0
 20
0.0
 30
0.0
  3
_D
  1

  0
LINE
  5
E9
330
E6
100
AcDbEntity
  8
치수문자_일반주서
 62
     0
370
    -2
100
AcDbLine
 10
17.81942193816528
 20
-0.5994928891350682
 30
0.0
 11
33.67441999194919
 21
-0.5994928891350106
 31
0.0
  0
LINE
  5
EA
330
E6
100
AcDbEntity
  8
치수문자_일반주서
 62
     0
370
    -2
100
AcDbLine
 10
17.81942193816528
 20
0.599492889135069
 30
0.0
 11
33.67441999194918
 21
0.5994928891351279
 31
0.0
  0
LINE
  5
EB
330
E6
100
AcDbEntity
  8
치수문자_일반주서
 62
     0
370
    -2
100
AcDbLine
 10
33.67441999194919
 20
-0.5994928891350106
 30
0.0
 11
33.67441999194907
 21
18.14150000000007
 31
0.0
  0
LINE
  5
EC
330
E6
100
AcDbEntity
  8
치수문자_일반주서
 62
     0
370
    -2
100
AcDbLine
 10
33.67441999194919
 20
-0.5994928891350106
 30
0.0
 11
33.67441999194918
 21
0.5994928891351279
 31
0.0
  0
LINE
  5
ED
330
E6
100
AcDbEntity
  8
치수문자_일반주서
 62
     0
370
    -2
100
AcDbLine
 10
33.67441999194921
 20
-3.901492889135011
 30
0.0
 11
33.67441999194923
 21
-7.203492889135011
 31
0.0
  0
LINE
  5
EE
330
E6
100
AcDbEntity
  8
치수문자_일반주서
 62
     0
370
    -2
100
AcDbLine
 10
33.67441999194916
 20
3.901492889135128
 30
0.0
 11
33.67441999194914
 21
7.203492889135128
 31
0.0
  0
SOLID
  5
EF
330
E6
100
AcDbEntity
  8
치수문자_일반주서
 62
     0
100
AcDbTrace
 10
34.22475332528254
 20
-3.901492889135008
 30
0.0
 11
33.12408665861587
 21
-3.901492889135014
 31
0.0
 12
33.67441999194919
 22
-0.5994928891350106
 32
0.0
 13
33.67441999194919
 23
-0.5994928891350106
 33
0.0
  0
SOLID
  5
F0
330
E6
100
AcDbEntity
  8
치수문자_일반주서
 62
     0
100
AcDbTrace
 10
33.12408665861582
 20
3.901492889135125
 30
0.0
 11
34.22475332528249
 21
3.901492889135131
 31
0.0
 12
33.67441999194918
 22
0.5994928891351279
 32
0.0
 13
33.67441999194918
 23
0.5994928891351279
 33
0.0
  0
MTEXT
  5
F1
330
E6
100
AcDbEntity
  8
치수문자_일반주서
 62
     0
100
AcDbMText
 10
29.29941999194911
 20
12.67275000000004
 30
0.0
 40
3.5
 41
0.0
 71
     2
 72
     1
  1
\A1;%%c1.20
  7
SLDTEXTSTYLE0
 11
-5.926198197156693E-15
 21
1.0
 31
0.0
 73
     1
 44
1.0
  0
POINT
  5
143
330
E6
100
AcDbEntity
  8
Defpoints
 62
     0
100
AcDbPoint
 10
17.75692193816528
 20
-0.5994928891350684
 30
0.0
  0
POINT
  5
144
330
E6
100
AcDbEntity
  8
Defpoints
 62
     0
100
AcDbPoint
 10
17.75692193816528
 20
0.5994928891350688
 30
0.0
  0
POINT
  5
145
330
E6
100
AcDbEntity
  8
Defpoints
 62
     0
100
AcDbPoint
 10
33.67441999194914
 20
0.5994928891351283
 30
0.0
  0
ENDBLK
  5
E8
330
E6
100
AcDbEntity
  8
0
100
AcDbBlockEnd
  0
BLOCK
  5
F5
330
F4
100
AcDbEntity
  8
0
100
AcDbBlockBegin
  2
_D_1
 70
     0
 10
0.0
 20
0.0
 30
0.0
  3
_D_1
  1

  0
LINE
  5
F7
330
F4
100
AcDbEntity
  8
치수문자_일반주서
 62
     0
370
    -2
100
AcDbLine
 10
-42.24307806183472
 20
2.512499999999993
 30
0.0
 11
-42.24307806183472
 21
24.23841044024269
 31
0.0
  0
LINE
  5
F8
330
F4
100
AcDbEntity
  8
치수문자_일반주서
 62
     0
370
    -2
100
AcDbLine
 10
17.75692193816528
 20
0.6318645215391406
 30
0.0
 11
17.75692193816528
 21
24.23841044024269
 31
0.0
  0
LINE
  5
F9
330
F4
100
AcDbEntity
  8
치수문자_일반주서
 62
     0
370
    -2
100
AcDbLine
 10
-38.94107806183472
 20
24.23841044024269
 30
0.0
 11
14.45492193816528
 21
24.23841044024269
 31
0.0
  0
SOLID
  5
FA
330
F4
100
AcDbEntity
  8
치수문자_일반주서
 62
     0
100
AcDbTrace
 10
-38.94107806183472
 20
24.78874377357602
 30
0.0
 11
-38.94107806183472
 21
23.68807710690935
 31
0.0
 12
-42.24307806183472
 22
24.23841044024269
 32
0.0
 13
-42.24307806183472
 23
24.23841044024269
 33
0.0
  0
SOLID
  5
FB
330
F4
100
AcDbEntity
  8
치수문자_일반주서
 62
     0
100
AcDbTrace
 10
14.45492193816528
 20
23.68807710690935
 30
0.0
 11
14.45492193816528
 21
24.78874377357602
 31
0.0
 12
17.75692193816528
 22
24.23841044024269
 32
0.0
 13
17.75692193816528
 23
24.23841044024269
 33
0.0
  0
MTEXT
  5
FC
330
F4
100
AcDbEntity
  8
치수문자_일반주서
 62
     0
100
AcDbMText
 10
-12.24307806183472
 20
28.61341044024269
 30
0.0
 40
3.5
 41
0.0
 71
     2
 72
     1
  1
\A1;60
  7
SLDTEXTSTYLE0
 73
     1
 44
1.0
  0
POINT
  5
147
330
F4
100
AcDbEntity
  8
Defpoints
 62
     0
100
AcDbPoint
 10
-42.24307806183472
 20
2.449999999999993
 30
0.0
  0
POINT
  5
148
330
F4
100
AcDbEntity
  8
Defpoints
 62
     0
100
AcDbPoint
 10
17.75692193816528
 20
0.5693645215391406
 30
0.0
  0
POINT
  5
149
330
F4
100
AcDbEntity
  8
Defpoints
 62
     0
100
AcDbPoint
 10
17.75692193816528
 20
24.23841044024269
 30
0.0
  0
ENDBLK
  5
F6
330
F4
100
AcDbEntity
  8
0
100
AcDbBlockEnd
  0
BLOCK
  5
100
330
FF
100
AcDbEntity
  8
0
100
AcDbBlockBegin
  2
_D_2
 70
     0
 10
0.0
 20
0.0
 30
0.0
  3
_D_2
  1

  0
LINE
  5
102
330
FF
100
AcDbEntity
  8
치수문자_일반주서
 62
     0
370
    -2
100
AcDbLine
 10
11.75692193816527
 20
0.6517707212237857
 30
0.0
 11
11.75692193816527
 21
15.95800728610293
 31
0.0
  0
LINE
  5
103
330
FF
100
AcDbEntity
  8
치수문자_일반주서
 62
     0
370
    -2
100
AcDbLine
 10
17.75692193816528
 20
0.6619928891350687
 30
0.0
 11
17.75692193816528
 21
15.95800728610293
 31
0.0
  0
LINE
  5
104
330
FF
100
AcDbEntity
  8
치수문자_일반주서
 62
     0
370
    -2
100
AcDbLine
 10
11.75692193816527
 20
15.95800728610293
 30
0.0
 11
1.652921938165271
 21
15.95800728610293
 31
0.0
  0
LINE
  5
105
330
FF
100
AcDbEntity
  8
치수문자_일반주서
 62
     0
370
    -2
100
AcDbLine
 10
11.75692193816527
 20
15.95800728610293
 30
0.0
 11
17.75692193816528
 21
15.95800728610293
 31
0.0
  0
LINE
  5
106
330
FF
100
AcDbEntity
  8
치수문자_일반주서
 62
     0
370
    -2
100
AcDbLine
 10
8.45492193816527
 20
15.95800728610293
 30
0.0
 11
5.152921938165271
 21
15.95800728610293
 31
0.0
  0
LINE
  5
107
330
FF
100
AcDbEntity
  8
치수문자_일반주서
 62
     0
370
    -2
100
AcDbLine
 10
21.05892193816528
 20
15.95800728610293
 30
0.0
 11
24.36092193816528
 21
15.95800728610293
 31
0.0
  0
SOLID
  5
108
330
FF
100
AcDbEntity
  8
치수문자_일반주서
 62
     0
100
AcDbTrace
 10
8.45492193816527
 20
15.4076739527696
 30
0.0
 11
8.45492193816527
 21
16.50834061943626
 31
0.0
 12
11.75692193816527
 22
15.95800728610293
 32
0.0
 13
11.75692193816527
 23
15.95800728610293
 33
0.0
  0
SOLID
  5
109
330
FF
100
AcDbEntity
  8
치수문자_일반주서
 62
     0
100
AcDbTrace
 10
21.05892193816528
 20
16.50834061943626
 30
0.0
 11
21.05892193816528
 21
15.4076739527696
 31
0.0
 12
17.75692193816528
 22
15.95800728610293
 32
0.0
 13
17.75692193816528
 23
15.95800728610293
 33
0.0
  0
MTEXT
  5
14A
330
FF
100
AcDbEntity
  8
치수문자_일반주서
 62
     0
100
AcDbMText
 10
3.402921938165271
 20
20.33300728610293
 30
0.0
 40
3.5
 41
0.0
 71
     2
 72
     1
  1
\A1;6
  7
SLDTEXTSTYLE0
 73
     1
 44
1.0
  0
POINT
  5
14E
330
FF
100
AcDbEntity
  8
Defpoints
 62
     0
100
AcDbPoint
 10
11.75692193816527
 20
0.5892707212237857
 30
0.0
  0
POINT
  5
14F
330
FF
100
AcDbEntity
  8
Defpoints
 62
     0
100
AcDbPoint
 10
17.75692193816528
 20
0.5994928891350687
 30
0.0
  0
POINT
  5
150
330
FF
100
AcDbEntity
  8
Defpoints
 62
     0
100
AcDbPoint
 10
17.75692193816528
 20
15.95800728610293
 30
0.0
  0
ENDBLK
  5
101
330
FF
100
AcDbEntity
  8
0
100
AcDbBlockEnd
  0
BLOCK
  5
10C
330
10B
100
AcDbEntity
  8
0
100
AcDbBlockBegin
  2
_D_3
 70
     0
 10
0.0
 20
0.0
 30
0.0
  3
_D_3
  1

  0
LINE
  5
10E
330
10B
100
AcDbEntity
  8
치수문자_일반주서
 62
     0
370
    -2
100
AcDbLine
 10
-41.75557806183473
 20
2.999999999999992
 30
0.0
 11
-54.23413634322059
 21
2.999999999999945
 31
0.0
  0
LINE
  5
10F
330
10B
100
AcDbEntity
  8
치수문자_일반주서
 62
     0
370
    -2
100
AcDbLine
 10
-41.75557806183473
 20
-3.0
 30
0.0
 11
-54.23413634322057
 21
-3.000000000000048
 31
0.0
  0
LINE
  5
110
330
10B
100
AcDbEntity
  8
치수문자_일반주서
 62
     0
370
    -2
100
AcDbLine
 10
-54.23413634322059
 20
2.999999999999945
 30
0.0
 11
-54.23413634322064
 21
15.72899999999994
 31
0.0
  0
LINE
  5
111
330
10B
100
AcDbEntity
  8
치수문자_일반주서
 62
     0
370
    -2
100
AcDbLine
 10
-54.23413634322059
 20
2.999999999999945
 30
0.0
 11
-54.23413634322057
 21
-3.000000000000048
 31
0.0
  0
LINE
  5
112
330
10B
100
AcDbEntity
  8
치수문자_일반주서
 62
     0
370
    -2
100
AcDbLine
 10
-54.23413634322061
 20
6.301999999999945
 30
0.0
 11
-54.23413634322062
 21
9.603999999999944
 31
0.0
  0
LINE
  5
113
330
10B
100
AcDbEntity
  8
치수문자_일반주서
 62
     0
370
    -2
100
AcDbLine
 10
-54.23413634322056
 20
-6.302000000000048
 30
0.0
 11
-54.23413634322054
 21
-9.604000000000047
 31
0.0
  0
SOLID
  5
114
330
10B
100
AcDbEntity
  8
치수문자_일반주서
 62
     0
100
AcDbTrace
 10
-54.78446967655394
 20
6.301999999999943
 30
0.0
 11
-53.68380300988727
 21
6.301999999999946
 31
0.0
 12
-54.23413634322059
 22
2.999999999999945
 32
0.0
 13
-54.23413634322059
 23
2.999999999999945
 33
0.0
  0
SOLID
  5
115
330
10B
100
AcDbEntity
  8
치수문자_일반주서
 62
     0
100
AcDbTrace
 10
-53.68380300988722
 20
-6.302000000000046
 30
0.0
 11
-54.78446967655389
 21
-6.302000000000049
 31
0.0
 12
-54.23413634322057
 22
-3.000000000000048
 32
0.0
 13
-54.23413634322057
 23
-3.000000000000048
 33
0.0
  0
MTEXT
  5
116
330
10B
100
AcDbEntity
  8
치수문자_일반주서
 62
     0
100
AcDbMText
 10
-58.60913634322063
 20
12.66649999999993
 30
0.0
 40
3.5
 41
0.0
 71
     2
 72
     1
  1
\A1;%%c6
  7
SLDTEXTSTYLE0
 11
-3.552713678800505E-15
 21
1.0
 31
0.0
 73
     1
 44
1.0
  0
POINT
  5
14B
330
10B
100
AcDbEntity
  8
Defpoints
 62
     0
100
AcDbPoint
 10
-41.69307806183473
 20
2.999999999999993
 30
0.0
  0
POINT
  5
14C
330
10B
100
AcDbEntity
  8
Defpoints
 62
     0
100
AcDbPoint
 10
-41.69307806183473
 20
-3.0
 30
0.0
  0
POINT
  5
14D
330
10B
100
AcDbEntity
  8
Defpoints
 62
     0
100
AcDbPoint
 10
-54.23413634322057
 20
-3.000000000000047
 30
0.0
  0
ENDBLK
  5
10D
330
10B
100
AcDbEntity
  8
0
100
AcDbBlockEnd
  0
BLOCK
  5
118
330
117
100
AcDbEntity
  8
0
100
AcDbBlockBegin
  2
SW_DOWELSYMBOL_0
 70
     0
 10
0.0
 20
0.0
 30
0.0
  3
SW_DOWELSYMBOL_0
  1

  0
CIRCLE
  5
11A
330
117
100
AcDbEntity
  8
외형선
 62
     0
100
AcDbCircle
 10
0.0
 20
0.0
 30
0.0
 40
3.000000000000004
  0
HATCH
  5
11B
330
117
100
AcDbEntity
  8
0
  6
Continuous
 62
     0
370
    30
100
AcDbHatch
 10
0.0
 20
0.0
 30
0.0
210
0.0
220
0.0
230
1.0
  2
SOLID
 70
     1
 71
     0
 91
        1
 92
        0
 93
        3
 72
     2
 10
0.0000000000000104
 20
0.0
 40
3.000000000000004
 50
0.0
 51
90.0
 73
     1
 72
     1
 10
0.0000000000000104
 20
3.000000000000004
 11
0.0000000000000104
 21
0.0
 72
     1
 10
0.0000000000000104
 20
0.0
 11
3.000000000000015
 21
0.0
 97
        0
 75
     0
 76
     1
 98
        1
 10
0.0
 20
0.0
  0
HATCH
  5
11C
330
117
100
AcDbEntity
  8
0
  6
Continuous
 62
     0
370
    30
100
AcDbHatch
 10
0.0
 20
0.0
 30
0.0
210
0.0
220
0.0
230
1.0
  2
SOLID
 70
     1
 71
     0
 91
        1
 92
        0
 93
        3
 72
     2
 10
0.0000000000000104
 20
0.0
 40
3.000000000000004
 50
180.0
 51
270.0000000000007
 73
     1
 72
     1
 10
0.0000000000000104
 20
-3.000000000000004
 11
0.0000000000000104
 21
0.0
 72
     1
 10
0.0000000000000104
 20
0.0
 11
-2.999999999999994
 21
0.0
 97
        0
 75
     0
 76
     1
 98
        1
 10
0.0
 20
0.0
  0
ENDBLK
  5
119
330
117
100
AcDbEntity
  8
0
100
AcDbBlockEnd
  0
ENDSEC
  0
SECTION
  2
ENTITIES
  0
SPLINE
  5
95
330
1F
100
AcDbEntity
  8
0
  6
Continuous
 62
     1
370
    15
100
AcDbSpline
210
0.0
220
0.0
230
1.0
 70
     8
 71
     3
 72
     9
 73
     5
 74
     0
 42
0.000000001
 43
0.00000001
 40
0.0
 40
0.0
 40
0.0
 40
0.0
 40
0.5000410076375024
 40
1.0
 40
1.0
 40
1.0
 40
1.0
 10
16.20248564524229
 20
0.154007193252714
 30
0.0
 10
16.17455661186253
 20
0.1672277098686374
 30
0.0
 10
16.11870312594202
 20
0.1936665747097134
 30
0.0
 10
16.06289143036127
 20
0.2226980852712084
 30
0.0
 10
16.03498787127667
 20
0.2372126500382947
 30
0.0
  0
SPLINE
  5
96
330
1F
100
AcDbEntity
  8
0
  6
Continuous
 62
     1
370
    15
100
AcDbSpline
210
0.0
220
0.0
230
1.0
 70
     8
 71
     3
 72
     9
 73
     5
 74
     0
 42
0.000000001
 43
0.00000001
 40
0.0
 40
0.0
 40
0.0
 40
0.0
 40
0.4999901389834512
 40
1.0
 40
1.0
 40
1.0
 40
1.0
 10
12.93890162904911
 20
0.1534232911381062
 30
0.0
 10
12.91062143924457
 20
0.1667997059603422
 30
0.0
 10
12.85405994412781
 20
0.1935530632354119
 30
0.0
 10
12.79755670366372
 20
0.2229563685958718
 30
0.0
 10
12.76930452625229
 20
0.2376583112225824
 30
0.0
  0
LINE
  5
97
330
1F
100
AcDbEntity
  8
0
  6
Continuous
 62
     1
370
    15
100
AcDbLine
 10
14.82559587544884
 20
0.6000000000000002
 30
0.0
 11
14.53431602544117
 21
0.6000000000000002
 31
0.0
  0
LINE
  5
98
330
1F
100
AcDbEntity
  8
0
  6
Continuous
 62
     1
370
    15
100
AcDbLine
 10
14.53431602544117
 20
-0.6000000000000008
 30
0.0
 11
14.82559587544884
 21
-0.6000000000000008
 31
0.0
  0
SPLINE
  5
99
330
1F
100
AcDbEntity
  8
0
  6
Continuous
 62
     1
370
    15
100
AcDbSpline
210
0.0
220
0.0
230
1.0
 70
     8
 71
     3
 72
    10
 73
     6
 74
     0
 42
0.000000001
 43
0.00000001
 40
0.0
 40
0.0
 40
0.0
 40
0.0
 40
0.3139365795817637
 40
0.5034112346741719
 40
1.0
 40
1.0
 40
1.0
 40
1.0
 10
11.97881580204024
 20
-0.4805392622706265
 30
0.0
 10
12.04867764344402
 20
-0.478351033082338
 30
0.0
 10
12.16070420589348
 20
-0.4748421104875454
 30
0.0
 10
12.42878470747327
 20
-0.4653120120192927
 30
0.0
 10
12.60795392098399
 20
-0.4719387098180121
 30
0.0
 10
12.73764079230479
 20
-0.4767352688242439
 30
0.0
  0
SPLINE
  5
9A
330
1F
100
AcDbEntity
  8
0
  6
Continuous
 62
     1
370
    15
100
AcDbSpline
210
0.0
220
0.0
230
1.0
 70
     8
 71
     3
 72
    10
 73
     6
 74
     0
 42
0.000000001
 43
0.00000001
 40
0.0
 40
0.0
 40
0.0
 40
0.0
 40
0.5538559434600022
 40
0.7780369761640493
 40
0.9999999999999999
 40
0.9999999999999999
 40
0.9999999999999999
 40
0.9999999999999999
 10
16.00320742541741
 20
0.4767742275312046
 30
0.0
 10
15.9080022715526
 20
0.4730225685344706
 30
0.0
 10
15.77426148407371
 20
0.4677523724557166
 30
0.0
 10
15.60240876275822
 20
0.4687902223351881
 30
0.0
 10
15.52575031908521
 20
0.4716054386139416
 30
0.0
 10
15.51983673886251
 20
0.4718356201320207
 30
0.0
  0
SPLINE
  5
9B
330
1F
100
AcDbEntity
  8
0
  6
Continuous
 62
     1
370
    15
100
AcDbSpline
210
0.0
220
0.0
230
1.0
 70
     8
 71
     3
 72
    10
 73
     6
 74
     0
 42
0.000000001
 43
0.00000001
 40
0.0
 40
0.0
 40
0.0
 40
0.0
 40
0.4474533416384666
 40
0.630162148043064
 40
1.0
 40
1.0
 40
1.0
 40
1.0
 10
15.10077773671925
 20
-0.4993110981445816
 30
0.0
 10
15.23541363216618
 20
-0.4881483896301818
 30
0.0
 10
15.42502545798889
 20
-0.4724276077724471
 30
0.0
 10
15.72572010661248
 20
-0.4665055498085418
 30
0.0
 10
15.89194654366575
 20
-0.4726569145571647
 30
0.0
 10
16.00320742541741
 20
-0.4767742275312045
 30
0.0
  0
SPLINE
  5
9C
330
1F
100
AcDbEntity
  8
0
  6
Continuous
 62
     1
370
    15
100
AcDbSpline
210
0.0
220
0.0
230
1.0
 70
     8
 71
     3
 72
    11
 73
     7
 74
     0
 42
0.000000001
 43
0.00000001
 40
0.0
 40
0.0
 40
0.0
 40
0.0
 40
0.4685358665718844
 40
0.8048356787658703
 40
0.9573951066989534
 40
1.0
 40
1.0
 40
1.0
 40
1.0
 10
12.73764079230479
 20
0.4767352688242437
 30
0.0
 10
12.66022383056164
 20
0.4734546490354639
 30
0.0
 10
12.52723949062536
 20
0.4678193070203605
 30
0.0
 10
12.37156409152017
 20
0.4685914349503914
 30
0.0
 10
12.27996693415508
 20
0.4704070746507397
 30
0.0
 10
12.25026150969265
 20
0.4715564877120277
 30
0.0
 10
12.24377673608402
 20
0.471807407657463
 30
0.0
  0
LINE
  5
9D
330
1F
100
AcDbEntity
  8
0
  6
Continuous
 62
     1
370
    15
100
AcDbLine
 10
13.21994755856012
 20
-0.4513311402266101
 30
0.0
 11
13.68859704266733
 21
-0.405926497719325
 31
0.0
  0
SPLINE
  5
9E
330
1F
100
AcDbEntity
  8
0
  6
Continuous
 62
     1
370
    15
100
AcDbSpline
210
0.0
220
0.0
230
1.0
 70
     8
 71
     3
 72
    10
 73
     6
 74
     0
 42
0.000000001
 43
0.00000001
 40
0.0
 40
0.0
 40
0.0
 40
0.0
 40
0.3995320983974935
 40
0.5780905006792517
 40
1.0
 40
1.0
 40
1.0
 40
1.0
 10
17.46960348999429
 20
0.4040975368372101
 30
0.0
 10
17.34232206686221
 20
0.3988055668447
 30
0.0
 10
17.15815618401897
 20
0.3911485160224503
 30
0.0
 10
16.82331635512254
 20
0.4057483528246618
 30
0.0
 10
16.62411759318279
 20
0.4325784640476097
 30
0.0
 10
16.48415365890584
 20
0.4514302274184476
 30
0.0
  0
SPLINE
  5
9F
330
1F
100
AcDbEntity
  8
0
  6
Continuous
 62
     1
370
    15
100
AcDbSpline
210
0.0
220
0.0
230
1.0
 70
     8
 71
     3
 72
     9
 73
     5
 74
     0
 42
0.000000001
 43
0.00000001
 40
0.0
 40
0.0
 40
0.0
 40
0.0
 40
0.7247674845764575
 40
1.0
 40
1.0
 40
1.0
 40
1.0
 10
16.48415365890584
 20
-0.4514302274184475
 30
0.0
 10
16.59321321895844
 20
-0.4360080398078037
 30
0.0
 10
16.74368845739486
 20
-0.4147292325505268
 30
0.0
 10
16.89340315794463
 20
-0.4047450687863696
 30
0.0
 10
16.93460951157283
 20
-0.4019971022791601
 30
0.0
  0
SPLINE
  5
A0
330
1F
100
AcDbEntity
  8
0
  6
Continuous
 62
     1
370
    15
100
AcDbSpline
210
0.0
220
0.0
230
1.0
 70
     8
 71
     3
 72
     9
 73
     5
 74
     0
 42
0.000000001
 43
0.00000001
 40
0.0
 40
0.0
 40
0.0
 40
0.0
 40
0.4644565684404406
 40
1.0
 40
1.0
 40
1.0
 40
1.0
 10
14.26851896222331
 20
0.4103119598823082
 30
0.0
 10
14.10625635612151
 20
0.4011536665995927
 30
0.0
 10
13.75689622833464
 20
0.381435368043783
 30
0.0
 10
13.40721633082163
 20
0.426953958235555
 30
0.0
 10
13.21994755856012
 20
0.4513311402266099
 30
0.0
  0
LINE
  5
A1
330
1F
100
AcDbEntity
  8
0
  6
Continuous
 62
   131
370
    15
100
AcDbLine
 10
2.0
 20
2.999999999999996
 30
0.0
 11
-41.69307806183473
 21
2.999999999999994
 31
0.0
  0
LINE
  5
A2
330
1F
100
AcDbEntity
  8
0
  6
Continuous
 62
   131
370
    15
100
AcDbLine
 10
-41.69307806183473
 20
-3.0
 30
0.0
 11
2.0
 21
-2.999999999999998
 31
0.0
  0
LINE
  5
A3
330
1F
100
AcDbEntity
  8
0
  6
Continuous
 62
   131
370
    15
100
AcDbLine
 10
2.0
 20
-2.999999999999999
 30
0.0
 11
10.96346401479557
 21
-0.5982470558500906
 31
0.0
  0
LINE
  5
A4
330
1F
100
AcDbEntity
  8
0
  6
Continuous
 62
   131
370
    15
100
AcDbLine
 10
10.96346401479557
 20
0.5982470558500904
 30
0.0
 11
2.0
 21
2.999999999999997
 31
0.0
  0
LINE
  5
A5
330
1F
100
AcDbEntity
  8
0
  6
Continuous
 62
   131
370
    15
100
AcDbLine
 10
-41.69307806183473
 20
2.999999999999993
 30
0.0
 11
-42.24307806183472
 21
2.449999999999993
 31
0.0
  0
LINE
  5
A6
330
1F
100
AcDbEntity
  8
0
  6
Continuous
 62
   131
370
    15
100
AcDbLine
 10
-42.24307806183472
 20
-2.45
 30
0.0
 11
-41.69307806183473
 21
-3.0
 31
0.0
  0
SPLINE
  5
A7
330
1F
100
AcDbEntity
  8
0
  6
Continuous
 62
   131
370
    15
100
AcDbSpline
210
0.0
220
0.0
230
1.0
 70
     8
 71
     3
 72
     9
 73
     5
 74
     0
 42
0.000000001
 43
0.00000001
 40
0.0
 40
0.0
 40
0.0
 40
0.0
 40
0.4996168970101231
 40
1.0
 40
1.0
 40
1.0
 40
1.0
 10
11.07785903061386
 20
0.4156327062910491
 30
0.0
 10
11.05771552124089
 20
0.4139030748670053
 30
0.0
 10
11.01739761067077
 20
0.4104411594786461
 30
0.0
 10
10.97705545696855
 20
0.4075957072395308
 30
0.0
 10
10.95686892491773
 20
0.4061718910187129
 30
0.0
  0
LINE
  5
A8
330
1F
100
AcDbEntity
  8
0
  6
Continuous
 62
   131
370
    15
100
AcDbLine
 10
11.26969535764229
 20
-0.6000000000000001
 30
0.0
 11
11.56010283652988
 21
-0.6000000000000001
 31
0.0
  0
LINE
  5
A9
330
1F
100
AcDbEntity
  8
0
  6
Continuous
 62
   131
370
    15
100
AcDbLine
 10
11.56622476864902
 20
0.5889214031527068
 30
0.0
 11
11.27579699604605
 21
0.5999999999999996
 31
0.0
  0
SPLINE
  5
AA
330
1F
100
AcDbEntity
  8
0
  6
Continuous
 62
     1
370
    15
100
AcDbSpline
210
0.0
220
0.0
230
1.0
 70
     8
 71
     3
 72
    19
 73
    15
 74
     0
 42
0.000000001
 43
0.00000001
 40
0.0
 40
0.0
 40
0.0
 40
0.0
 40
0.0431345104607327
 40
0.128105485035653
 40
0.2130748818450318
 40
0.2980452565024095
 40
0.3830181257076827
 40
0.4679889696505047
 40
0.5529580772839926
 40
0.6379297473090642
 40
0.7229020016790068
 40
0.8078726963118111
 40
0.9022830987187689
 40
1.0
 40
1.0
 40
1.0
 40
1.0
 10
13.68859704266733
 20
0.405926497719325
 30
0.0
 10
13.74709900791188
 20
0.4315535962995481
 30
0.0
 10
13.92084440465202
 20
0.5076636960458893
 30
0.0
 10
14.20949224237902
 20
0.580178058823646
 30
0.0
 10
14.55501394456281
 20
0.6113647582917605
 30
0.0
 10
14.90125446091707
 20
0.5736277686835064
 30
0.0
 10
15.24679154574311
 20
0.4735439240131634
 30
0.0
 10
15.59217928770167
 20
0.320883990727318
 30
0.0
 10
15.93776974203944
 20
0.1332519867991361
 30
0.0
 10
16.28399956188948
 20
-0.0677393457068402
 30
0.0
 10
16.62947210509792
 20
-0.263028607684326
 30
0.0
 10
16.98763077167734
 20
-0.4341887790292114
 30
0.0
 10
17.36352028577672
 20
-0.5649841426154325
 30
0.0
 10
17.62429209850924
 20
-0.5878587501073309
 30
0.0
 10
17.75692193816528
 20
-0.5994928891350684
 30
0.0
  0
SPLINE
  5
AB
330
1F
100
AcDbEntity
  8
0
  6
Continuous
 62
     1
370
    15
100
AcDbSpline
210
0.0
220
0.0
230
1.0
 70
     8
 71
     3
 72
    13
 73
     9
 74
     0
 42
0.000000001
 43
0.00000001
 40
0.0
 40
0.0
 40
0.0
 40
0.0
 40
0.1036378975103456
 40
0.3164144360913296
 40
0.5291621970835797
 40
0.7419269556006383
 40
0.954754354283065
 40
1.0
 40
1.0
 40
1.0
 40
1.0
 10
16.26301694690608
 20
-0.0548649117191398
 30
0.0
 10
16.1940902974068
 20
-0.02748395329165
 30
0.0
 10
15.98365195914546
 20
0.056112209199098
 30
0.0
 10
15.6317395710307
 20
0.1971596108365941
 30
0.0
 10
15.20725635024377
 20
0.3344782569330374
 30
0.0
 10
14.78273466046845
 20
0.4115953079115408
 30
0.0
 10
14.46960491478896
 20
0.4336778399094868
 30
0.0
 10
14.29796101841283
 20
0.4089390889780873
 30
0.0
 10
14.26851896222331
 20
0.4103119598823082
 30
0.0
  0
SPLINE
  5
AC
330
1F
100
AcDbEntity
  8
0
  6
Continuous
 62
     1
370
    15
100
AcDbSpline
210
0.0
220
0.0
230
1.0
 70
     8
 71
     3
 72
    15
 73
    11
 74
     0
 42
0.000000001
 43
0.00000001
 40
0.0
 40
0.0
 40
0.0
 40
0.0
 40
0.1362323373560769
 40
0.2607038560322275
 40
0.3851698616400913
 40
0.5096338003245764
 40
0.634097350975674
 40
0.7585671893873874
 40
0.8830330078643466
 40
0.9999999999999999
 40
0.9999999999999999
 40
0.9999999999999999
 40
0.9999999999999999
 10
11.75692193816527
 20
0.535154004760845
 30
0.0
 10
11.88317112322942
 20
0.4954647227079864
 30
0.0
 10
12.12477051149448
 20
0.4195124996518252
 30
0.0
 10
12.4814447259347
 20
0.2406119660306285
 30
0.0
 10
12.82682774699056
 20
0.0443950244376643
 30
0.0
 10
13.17227330955105
 20
-0.1576215256541533
 30
0.0
 10
13.51848539441366
 20
-0.3412145875922009
 30
0.0
 10
13.86412509533137
 20
-0.4871137083849353
 30
0.0
 10
14.20253761339402
 20
-0.5830870412605861
 30
0.0
 10
14.42603716307819
 20
-0.5932228204648723
 30
0.0
 10
14.53431602544117
 20
-0.5981333030271563
 30
0.0
  0
SPLINE
  5
AD
330
1F
100
AcDbEntity
  8
0
  6
Continuous
 62
     1
370
    15
100
AcDbSpline
210
0.0
220
0.0
230
1.0
 70
     8
 71
     3
 72
    10
 73
     6
 74
     0
 42
0.000000001
 43
0.00000001
 40
0.0
 40
0.0
 40
0.0
 40
0.0
 40
0.047972264383511
 40
0.5157939633129331
 40
1.0
 40
1.0
 40
1.0
 40
1.0
 10
16.93554944002915
 20
0.402440673268107
 30
0.0
 10
16.94866872071109
 20
0.4086976051021031
 30
0.0
 10
17.08972618101056
 20
0.4759716375103992
 30
0.0
 10
17.36353539641438
 20
0.5623936212160718
 30
0.0
 10
17.62429719284841
 20
0.5869853922153734
 30
0.0
 10
17.75692193816528
 20
0.5994928891350688
 30
0.0
  0
SPLINE
  5
AE
330
1F
100
AcDbEntity
  8
0
  6
Continuous
 62
     1
370
    15
100
AcDbSpline
210
0.0
220
0.0
230
1.0
 70
    24
 71
     3
 72
     8
 73
     4
 74
     0
 42
0.000000001
 43
0.00000001
 40
0.0
 40
0.0
 40
0.0
 40
0.0
 40
1.0
 40
1.0
 40
1.0
 40
1.0
 10
17.75692193816528
 20
0.4200000000000008
 30
0.0
 10
17.75692193816528
 20
0.4709187081687773
 30
0.0
 10
17.75692193816528
 20
0.5393952338239815
 30
0.0
 10
17.75692193816528
 20
0.5994928891377875
 30
0.0
  0
LINE
  5
AF
330
1F
100
AcDbEntity
  8
0
  6
Continuous
 62
     1
370
    15
100
AcDbLine
 10
17.75692193816528
 20
0.420000000000001
 30
0.0
 11
17.46831801767885
 21
0.3964967756430828
 31
0.0
  0
SPLINE
  5
B0
330
1F
100
AcDbEntity
  8
0
  6
Continuous
 62
     1
370
    15
100
AcDbSpline
210
0.0
220
0.0
230
1.0
 70
     8
 71
     3
 72
    11
 73
     7
 74
     0
 42
0.000000001
 43
0.00000001
 40
0.0
 40
0.0
 40
0.0
 40
0.0
 40
0.2777721363439735
 40
0.6192406770374795
 40
0.9604296945146292
 40
0.9999999999999999
 40
0.9999999999999999
 40
0.9999999999999999
 40
0.9999999999999999
 10
13.00268506905387
 20
-0.0573175367530569
 30
0.0
 10
12.88731578085982
 20
-0.010682796238032
 30
0.0
 10
12.63012167539293
 20
0.093280577014894
 30
0.0
 10
12.23136142565226
 20
0.2452390686590984
 30
0.0
 10
11.93124422222571
 20
0.3310775294817696
 30
0.0
 10
11.77333283467678
 20
0.3631512625850523
 30
0.0
 10
11.75692193816528
 20
0.3664845162716024
 30
0.0
  0
SPLINE
  5
B1
330
1F
100
AcDbEntity
  8
0
  6
Continuous
 62
   131
370
    15
100
AcDbSpline
210
0.0
220
0.0
230
1.0
 70
    24
 71
     3
 72
     8
 73
     4
 74
     0
 42
0.000000001
 43
0.00000001
 40
0.0
 40
0.0
 40
0.0
 40
0.0
 40
1.0
 40
1.0
 40
1.0
 40
1.0
 10
11.75692193816662
 20
0.5351540047603291
 30
0.0
 10
11.75692193816662
 20
0.4902252063909458
 30
0.0
 10
11.75692193816662
 20
0.4252752021562589
 30
0.0
 10
11.75692193816662
 20
0.3664845162713359
 30
0.0
  0
SPLINE
  5
B2
330
1F
100
AcDbEntity
  8
0
  6
Continuous
 62
     1
370
    15
100
AcDbSpline
210
0.0
220
0.0
230
1.0
 70
     8
 71
     3
 72
    14
 73
    10
 74
     0
 42
0.000000001
 43
0.00000001
 40
0.0
 40
0.0
 40
0.0
 40
0.0
 40
0.1451948801020648
 40
0.2902607075201315
 40
0.4352243001863607
 40
0.5801132400826973
 40
0.7249556721186093
 40
0.8697800940392029
 40
1.0
 40
1.0
 40
1.0
 40
1.0
 10
17.75692193816528
 20
-0.5693645215391399
 30
0.0
 10
17.61499692933261
 20
-0.5342618386731833
 30
0.0
 10
17.33127305801145
 20
-0.464087673045821
 30
0.0
 10
16.90594945471237
 20
-0.2569972590750034
 30
0.0
 10
16.48097815724089
 20
-0.0144864979659189
 30
0.0
 10
16.05627079489122
 20
0.232804480695767
 30
0.0
 10
15.63172579340455
 20
0.438819160856682
 30
0.0
 10
15.2215240436541
 20
0.576742853362457
 30
0.0
 10
14.95281590753042
 20
0.5894712396558379
 30
0.0
 10
14.82559587544884
 20
0.595497501963896
 30
0.0
  0
SPLINE
  5
B3
330
1F
100
AcDbEntity
  8
0
  6
Continuous
 62
     1
370
    15
100
AcDbSpline
210
0.0
220
0.0
230
1.0
 70
     8
 71
     3
 72
     9
 73
     5
 74
     0
 42
0.000000001
 43
0.00000001
 40
0.0
 40
0.0
 40
0.0
 40
0.0
 40
0.0744823841717537
 40
1.0
 40
1.0
 40
1.0
 40
1.0
 10
12.24290876940098
 20
-0.472177025908349
 30
0.0
 10
12.23084264134858
 20
-0.477405084126678
 30
0.0
 10
12.06884288547904
 20
-0.5475969593796691
 30
0.0
 10
11.90684958832496
 20
-0.5692398472461955
 30
0.0
 10
11.75692193816276
 20
-0.5892707212240612
 30
0.0
  0
SPLINE
  5
B4
330
1F
100
AcDbEntity
  8
0
  6
Continuous
 62
   131
370
    15
100
AcDbSpline
210
0.0
220
0.0
230
1.0
 70
    24
 71
     3
 72
     8
 73
     4
 74
     0
 42
0.000000001
 43
0.00000001
 40
0.0
 40
0.0
 40
0.0
 40
0.0
 40
1.0
 40
1.0
 40
1.0
 40
1.0
 10
11.75692193816527
 20
-0.5057565932832744
 30
0.0
 10
11.75692193816527
 20
-0.5347025986498987
 30
0.0
 10
11.75692193816527
 20
-0.5627244736351426
 30
0.0
 10
11.75692193816527
 20
-0.5892707212155468
 30
0.0
  0
SPLINE
  5
B5
330
1F
100
AcDbEntity
  8
0
  6
Continuous
 62
     1
370
    15
100
AcDbSpline
210
0.0
220
0.0
230
1.0
 70
     8
 71
     3
 72
    11
 73
     7
 74
     0
 42
0.000000001
 43
0.00000001
 40
0.0
 40
0.0
 40
0.0
 40
0.0
 40
0.2718246954556513
 40
0.5433970412055295
 40
0.8147694512103015
 40
1.0
 40
1.0
 40
1.0
 40
1.0
 10
17.75692193816528
 20
-0.4733833586209281
 30
0.0
 10
17.61499811558712
 20
-0.4397331714654539
 30
0.0
 10
17.33128222606402
 20
-0.3724640364604624
 30
0.0
 10
16.90595652739833
 20
-0.1899474987082682
 30
0.0
 10
16.52586837068074
 20
-0.000844592636453
 30
0.0
 10
16.28755702357943
 20
0.111059971521777
 30
0.0
 10
16.19088103680323
 20
0.1564564005896651
 30
0.0
  0
SPLINE
  5
B6
330
1F
100
AcDbEntity
  8
0
  6
Continuous
 62
     1
370
    15
100
AcDbSpline
210
0.0
220
0.0
230
1.0
 70
     8
 71
     3
 72
     9
 73
     5
 74
     0
 42
0.000000001
 43
0.00000001
 40
0.0
 40
0.0
 40
0.0
 40
0.0
 40
0.7790084057096592
 40
1.0
 40
1.0
 40
1.0
 40
1.0
 10
11.97986599870701
 20
-0.4705967539891566
 30
0.0
 10
11.92191712097332
 20
-0.4834927669256477
 30
0.0
 10
11.84752912039597
 20
-0.5000471620284106
 30
0.0
 10
11.77332125307383
 20
-0.5047232230934935
 30
0.0
 10
11.75692193816542
 20
-0.5057565932832649
 30
0.0
  0
LINE
  5
B7
330
1F
100
AcDbEntity
  8
0
  6
Continuous
 62
     1
370
    15
100
AcDbLine
 10
17.75692193816528
 20
-0.5693645215391403
 30
0.0
 11
17.75692193816528
 21
-0.4733833586209281
 31
0.0
  0
SPLINE
  5
B8
330
1F
100
AcDbEntity
  8
0
  6
Continuous
 62
     1
370
    15
100
AcDbSpline
210
0.0
220
0.0
230
1.0
 70
     8
 71
     3
 72
    16
 73
    12
 74
     0
 42
0.000000001
 43
0.00000001
 40
0.0
 40
0.0
 40
0.0
 40
0.0
 40
0.0751529934609971
 40
0.1889709718680266
 40
0.3028197386289927
 40
0.4167214988834992
 40
0.5306980574309327
 40
0.6447706586213863
 40
0.7588928034014691
 40
0.879454466934528
 40
1.0
 40
1.0
 40
1.0
 40
1.0
 10
15.48753932315381
 20
-0.4730284972216192
 30
0.0
 10
15.39411105049822
 20
-0.5054117882065565
 30
0.0
 10
15.15918718824595
 20
-0.5868390433016529
 30
0.0
 10
14.78272634002837
 20
-0.6144037658390656
 30
0.0
 10
14.35807022861935
 20
-0.5559233124869565
 30
0.0
 10
13.93317670852778
 20
-0.4025920430403301
 30
0.0
 10
13.50795206630079
 20
-0.1837806784571861
 30
0.0
 10
13.08237094048565
 20
0.0661311196273564
 30
0.0
 10
12.64855411720264
 20
0.3075769799385774
 30
0.0
 10
12.20672940201785
 20
0.5080733817657936
 30
0.0
 10
11.9068510719968
 20
0.5622061485949851
 30
0.0
 10
11.75692193816276
 20
0.5892707212240608
 30
0.0
  0
SPLINE
  5
B9
330
1F
100
AcDbEntity
  8
0
  6
Continuous
 62
     1
370
    15
100
AcDbSpline
210
0.0
220
0.0
230
1.0
 70
     8
 71
     3
 72
    13
 73
     9
 74
     0
 42
0.000000001
 43
0.00000001
 40
0.0
 40
0.0
 40
0.0
 40
0.0
 40
0.147416305201211
 40
0.342717952293405
 40
0.5381145829990971
 40
0.7336452673747347
 40
0.9293480587250742
 40
1.0
 40
1.0
 40
1.0
 40
1.0
 10
15.10326466129733
 20
-0.4913697531749942
 30
0.0
 10
14.99643070809607
 20
-0.5006303019760353
 30
0.0
 10
14.74805985368771
 20
-0.5221595101451997
 30
0.0
 10
14.35806558726743
 20
-0.4558178279383042
 30
0.0
 10
13.93317068262988
 20
-0.3179203558499807
 30
0.0
 10
13.50794342833593
 20
-0.1267059476355007
 30
0.0
 10
13.17308996136538
 20
0.045103615507638
 30
0.0
 10
12.97997832449502
 20
0.1315499974026906
 30
0.0
 10
12.92875448516919
 20
0.1544803378433535
 30
0.0
  0
LINE
  5
BA
330
1F
100
AcDbEntity
  8
0
  6
Continuous
 62
     1
370
    15
100
AcDbLine
 10
17.75692193816528
 20
-0.5994928891377871
 30
0.0
 11
17.75692193816528
 21
-0.5693645215391411
 31
0.0
  0
LINE
  5
BB
330
1F
100
AcDbEntity
  8
0
  6
Continuous
 62
   131
370
    15
100
AcDbLine
 10
11.75692193816527
 20
0.5351540047608445
 30
0.0
 11
11.75692193816527
 21
0.5892707212116294
 31
0.0
  0
SPLINE
  5
BC
330
1F
100
AcDbEntity
  8
0
  6
Continuous
 62
     1
370
    15
100
AcDbSpline
210
0.0
220
0.0
230
1.0
 70
     8
 71
     3
 72
     8
 73
     4
 74
     0
 42
0.000000001
 43
0.00000001
 40
0.0
 40
0.0
 40
0.0
 40
0.0
 40
1.0
 40
1.0
 40
1.0
 40
1.0
 10
17.38618493464889
 20
0.1672994817291379
 30
0.0
 10
17.35911888063619
 20
0.1993264911207115
 30
0.0
 10
17.33558879625564
 20
0.2299725149431896
 30
0.0
 10
17.31704487699835
 20
0.2584470783461337
 30
0.0
  0
LINE
  5
BD
330
1F
100
AcDbEntity
  8
0
  6
Continuous
 62
     1
370
    15
100
AcDbLine
 10
17.31704487699826
 20
0.2584470783462958
 30
0.0
 11
17.75692193816528
 21
0.0000000000000006
 31
0.0
  0
LINE
  5
BE
330
1F
100
AcDbEntity
  8
0
  6
Continuous
 62
     1
370
    15
100
AcDbLine
 10
17.75692193816528
 20
0.0000000000000006
 30
0.0
 11
17.75692193816528
 21
-0.1603457676177865
 31
0.0
  0
SPLINE
  5
BF
330
1F
100
AcDbEntity
  8
0
  6
Continuous
 62
     1
370
    15
100
AcDbSpline
210
0.0
220
0.0
230
1.0
 70
     8
 71
     3
 72
    10
 73
     6
 74
     0
 42
0.000000001
 43
0.00000001
 40
0.0
 40
0.0
 40
0.0
 40
0.0
 40
0.5
 40
0.5
 40
1.0
 40
1.0
 40
1.0
 40
1.0
 10
17.75692193816528
 20
-0.1603457676177865
 30
0.0
 10
17.69275469289065
 20
-0.1098972315735149
 30
0.0
 10
17.62965874213104
 20
-0.0573804124854458
 30
0.0
 10
17.50565430694491
 20
0.0518764336530326
 30
0.0
 10
17.44416388073449
 20
0.1091869254762083
 30
0.0
 10
17.38618493464842
 20
0.167299481727904
 30
0.0
  0
SPLINE
  5
C0
330
1F
100
AcDbEntity
  8
0
  6
Continuous
 62
   131
370
    15
100
AcDbSpline
210
0.0
220
0.0
230
1.0
 70
    24
 71
     3
 72
    10
 73
     6
 74
     0
 42
0.000000001
 43
0.00000001
 40
0.0
 40
0.0
 40
0.0
 40
0.0
 40
0.5
 40
0.5
 40
1.0
 40
1.0
 40
1.0
 40
1.0
 10
11.75692193816527
 20
-0.2344643203056387
 30
0.0
 10
11.75692193816527
 20
-0.309452525643498
 30
0.0
 10
11.75692193816527
 20
-0.3761262647589961
 30
0.0
 10
11.75692193816527
 20
-0.4709563573854301
 30
0.0
 10
11.75692193816527
 20
-0.4987045251060161
 30
0.0
 10
11.75692193816527
 20
-0.5057565932832739
 30
0.0
  0
SPLINE
  5
C1
330
1F
100
AcDbEntity
  8
0
  6
Continuous
 62
     1
370
    15
100
AcDbSpline
210
0.0
220
0.0
230
1.0
 70
     8
 71
     3
 72
    11
 73
     7
 74
     0
 42
0.000000001
 43
0.00000001
 40
0.0
 40
0.0
 40
0.0
 40
0.0
 40
0.3471684156035499
 40
0.6544139819198386
 40
0.9614919180680978
 40
0.9999999999999999
 40
0.9999999999999999
 40
0.9999999999999999
 40
0.9999999999999999
 10
17.38618493097136
 20
0.16729948332165
 30
0.0
 10
17.2260625128584
 20
0.2336021763213365
 30
0.0
 10
16.92423105434348
 20
0.3585830426322919
 30
0.0
 10
16.48099886551659
 20
0.4595121600097431
 30
0.0
 10
16.18003920345728
 20
0.4957725585182838
 30
0.0
 10
16.02073453386435
 20
0.4748068877472963
 30
0.0
 10
16.00298347639131
 20
0.4724707175159557
 30
0.0
  0
SPLINE
  5
C2
330
1F
100
AcDbEntity
  8
0
  6
Continuous
 62
     1
370
    15
100
AcDbSpline
210
0.0
220
0.0
230
1.0
 70
     8
 71
     3
 72
    12
 73
     8
 74
     0
 42
0.000000001
 43
0.00000001
 40
0.0
 40
0.0
 40
0.0
 40
0.0
 40
0.0962946424206128
 40
0.3865788410200099
 40
0.6765973108732394
 40
0.9663845309938792
 40
0.9999999999999999
 40
0.9999999999999999
 40
0.9999999999999999
 40
0.9999999999999999
 10
13.22370143257457
 20
-0.4427097963312357
 30
0.0
 10
13.17661647700672
 20
-0.452410376648198
 30
0.0
 10
12.98759196748738
 20
-0.49135375918627
 30
0.0
 10
12.65668366260447
 20
-0.4810359523820205
 30
0.0
 10
12.23137007547121
 20
-0.4070722488195081
 30
0.0
 10
11.93119636057407
 20
-0.3041870449952005
 30
0.0
 10
11.77333095353771
 20
-0.2410291463163976
 30
0.0
 10
11.75692193816527
 20
-0.2344643203056379
 30
0.0
  0
SPLINE
  5
C3
330
1F
100
AcDbEntity
  8
0
  6
Continuous
 62
     1
370
    15
100
AcDbSpline
210
0.0
220
0.0
230
1.0
 70
    24
 71
     3
 72
     8
 73
     4
 74
     0
 42
0.000000001
 43
0.00000001
 40
0.0
 40
0.0
 40
0.0
 40
0.0
 40
1.0
 40
1.0
 40
1.0
 40
1.0
 10
17.75692193816528
 20
-0.4733833586209281
 30
0.0
 10
17.75692193816528
 20
-0.4008063081836357
 30
0.0
 10
17.75692193816528
 20
-0.2876231640437654
 30
0.0
 10
17.75692193816528
 20
-0.1603457676178058
 30
0.0
  0
SPLINE
  5
C4
330
1F
100
AcDbEntity
  8
0
  6
Continuous
 62
     1
370
    15
100
AcDbSpline
210
0.0
220
0.0
230
1.0
 70
     8
 71
     3
 72
    17
 73
    13
 74
     0
 42
0.000000001
 43
0.00000001
 40
0.0
 40
0.0
 40
0.0
 40
0.0
 40
0.0008953509409954
 40
0.1142365286616675
 40
0.227539159814119
 40
0.3408268666196186
 40
0.4541233867417225
 40
0.567452389646282
 40
0.6808372940752296
 40
0.794301089601399
 40
0.9078661651187101
 40
1.0
 40
1.0
 40
1.0
 40
1.0
 10
16.48427314584501
 20
-0.4511324958344682
 30
0.0
 10
16.48315479270284
 20
-0.4514004825444275
 30
0.0
 10
16.34046573645628
 20
-0.4855925183948351
 30
0.0
 10
16.05628437970645
 20
-0.4871168109726089
 30
0.0
 10
15.63173582282399
 20
-0.4405966138276238
 30
0.0
 10
15.20725472987754
 20
-0.3130422024933276
 30
0.0
 10
14.78273512201982
 20
-0.1361080151897965
 30
0.0
 10
14.35807840291751
 20
0.0637236167618187
 30
0.0
 10
13.93318419057108
 20
0.2535359732834299
 30
0.0
 10
13.50795841933013
 20
0.3993319677043729
 30
0.0
 10
13.10922272399966
 20
0.4821954303177637
 30
0.0
 10
12.8522250990886
 20
0.4741513415742105
 30
0.0
 10
12.73711424754079
 20
0.4705483436651169
 30
0.0
  0
SPLINE
  5
C5
330
1F
100
AcDbEntity
  8
0
  6
Continuous
 62
   131
370
    15
100
AcDbSpline
210
0.0
220
0.0
230
1.0
 70
    24
 71
     3
 72
    10
 73
     6
 74
     0
 42
0.000000001
 43
0.00000001
 40
0.0
 40
0.0
 40
0.0
 40
0.0
 40
0.5
 40
0.5
 40
1.0
 40
1.0
 40
1.0
 40
1.0
 10
11.75692193816527
 20
0.3664845162716045
 30
0.0
 10
11.75692193816527
 20
0.2960026311818708
 30
0.0
 10
11.75692193816527
 20
0.2003415816677813
 30
0.0
 10
11.75692193816527
 20
-0.0132702868958964
 30
0.0
 10
11.75692193816527
 20
-0.1295660227632473
 30
0.0
 10
11.75692193816527
 20
-0.2344643203056352
 30
0.0
  0
SPLINE
  5
C6
330
1F
100
AcDbEntity
  8
0
  6
Continuous
 62
     1
370
    15
100
AcDbSpline
210
0.0
220
0.0
230
1.0
 70
     8
 71
     3
 72
    17
 73
    13
 74
     0
 42
0.000000001
 43
0.00000001
 40
0.0
 40
0.0
 40
0.0
 40
0.0
 40
0.0001559834764821
 40
0.0001559834764821
 40
0.0001559834764821
 40
0.0003119751034137
 40
0.0003119751034137
 40
0.0003119751034137
 40
0.000467981028213
 40
0.000467981028213
 40
0.000467981028213
 40
0.0005970958831878
 40
0.0005970958831878
 40
0.0005970958831878
 40
0.0005970958831878
 10
17.75692193816528
 20
0.420000000000001
 30
0.0
 10
17.71793168213208
 20
0.4093790738715473
 30
0.0
 10
17.67906044232635
 20
0.397977513429384
 30
0.0
 10
17.64035204767976
 20
0.3857250023300555
 30
0.0
 10
17.60164247971539
 20
0.3734721198361178
 30
0.0
 10
17.5630839204772
 20
0.3603657109561816
 30
0.0
 10
17.52473798697972
 20
0.3462986664121643
 30
0.0
 10
17.48639002131325
 20
0.3322308763754893
 30
0.0
 10
17.44823889690608
 20
0.317198784235538
 30
0.0
 10
17.41037822563072
 20
0.3010375402852892
 30
0.0
 10
17.37905323997914
 20
0.2876661256272823
 30
0.0
 10
17.34791421625767
 20
0.2735164591180866
 30
0.0
 10
17.31704487699326
 20
0.258447078350685
 30
0.0
  0
LINE
  5
C7
330
1F
100
AcDbEntity
  8
0
  6
Continuous
 62
     1
370
    15
100
AcDbLine
 10
17.75692193816528
 20
0.0000000000000006
 30
0.0
 11
17.75692193816528
 21
0.4200000000000008
 31
0.0
  0
LINE
  5
C8
330
1F
100
AcDbEntity
  8
0
  6
Continuous
 62
   131
370
    15
100
AcDbLine
 10
2.0
 20
2.999999999999997
 30
0.0
 11
2.0
 21
-2.999999999999998
 31
0.0
  0
LINE
  5
C9
330
1F
100
AcDbEntity
  8
0
  6
Continuous
 62
   131
370
    15
100
AcDbLine
 10
-41.69307806183473
 20
2.999999999999993
 30
0.0
 11
-41.69307806183473
 21
-3.0
 31
0.0
  0
SPLINE
  5
CA
330
1F
100
AcDbEntity
  8
0
  6
Continuous
 62
   131
370
    15
100
AcDbSpline
210
0.0
220
0.0
230
1.0
 70
     8
 71
     3
 72
    25
 73
    21
 74
     0
 42
0.000000001
 43
0.00000001
 40
0.0
 40
0.0
 40
0.0
 40
0.0
 40
0.0417201495349893
 40
0.0832135714074282
 40
0.1250778607359689
 40
0.1875677682303225
 40
0.2500576757157594
 40
0.3125475831970703
 40
0.3750374906795676
 40
0.4375273981684134
 40
0.500017305667966
 40
0.562507213181228
 40
0.6249971207094662
 40
0.6874870282520505
 40
0.7499769358065338
 40
0.8124668433689634
 40
0.8749567509343792
 40
0.9374466584974434
 40
0.9686433322873885
 40
0.9999999999999999
 40
0.9999999999999999
 40
0.9999999999999999
 40
0.9999999999999999
 10
10.95684712240597
 20
-0.5016072512630605
 30
0.0
 10
10.95684624520405
 20
-0.4878383321185982
 30
0.0
 10
10.95684449556735
 20
-0.4603753208590172
 30
0.0
 10
10.95684226131602
 20
-0.4105891835174609
 30
0.0
 10
10.95684004178913
 20
-0.3463382471368252
 30
0.0
 10
10.95683813409845
 20
-0.2641583231301326
 30
0.0
 10
10.95683690792059
 20
-0.1634704719267888
 30
0.0
 10
10.95683663840317
 20
-0.0575441535000005
 30
0.0
 10
10.95683733409771
 20
0.05021267381833
 30
0.0
 10
10.95683897281607
 20
0.1563686136347399
 30
0.0
 10
10.95684150225956
 20
0.2575340269110668
 30
0.0
 10
10.95684484170726
 20
0.3504808798432416
 30
0.0
 10
10.95684888459358
 20
0.4322433618121068
 30
0.0
 10
10.95685350188334
 20
0.5002104409719691
 30
0.0
 10
10.95685854629102
 20
0.5522199474457344
 30
0.0
 10
10.95686385660072
 20
0.5865866286093048
 30
0.0
 10
10.9568692642308
 20
0.6023089498911856
 30
0.0
 10
10.95687370376151
 20
0.5991607313108456
 30
0.0
 10
10.95687714013366
 20
0.5876127064271724
 30
0.0
 10
10.95687878661806
 20
0.5778647212818327
 30
0.0
 10
10.95687961196588
 20
0.5729782624016561
 30
0.0
  0
LINE
  5
CB
330
1F
100
AcDbEntity
  8
0
  6
Continuous
 62
   131
370
    15
100
AcDbLine
 10
10.95692193816527
 20
-0.5016086246719874
 30
0.0
 11
10.95692193816527
 21
-0.5730009302872849
 31
0.0
  0
LINE
  5
CC
330
1F
100
AcDbEntity
  8
0
  6
Continuous
 62
   131
370
    15
100
AcDbLine
 10
10.95687961196588
 20
-0.5729782624016565
 30
0.0
 11
10.95687618825549
 21
-0.5949635757489466
 31
0.0
  0
LINE
  5
CD
330
1F
100
AcDbEntity
  8
0
  6
Continuous
 62
   131
370
    15
100
AcDbLine
 10
-42.24307806183472
 20
2.449999999999993
 30
0.0
 11
-42.24307806183472
 21
-2.450000000000002
 31
0.0
  0
SPLINE
  5
CE
330
1F
100
AcDbEntity
  8
0
  6
Continuous
 62
   131
370
    15
100
AcDbSpline
210
0.0
220
0.0
230
1.0
 70
    24
 71
     3
 72
     8
 73
     4
 74
     0
 42
0.000000001
 43
0.00000001
 40
0.0
 40
0.0
 40
0.0
 40
0.0
 40
1.0
 40
1.0
 40
1.0
 40
1.0
 10
10.95687962856556
 20
0.5730096434949296
 30
0.0
 10
10.95687962856556
 20
0.5109839003899653
 30
0.0
 10
10.95687962856556
 20
0.4475494941569163
 30
0.0
 10
10.95687962856556
 20
0.4058981975999115
 30
0.0
  0
SPLINE
  5
CF
330
1F
100
AcDbEntity
  8
0
  6
Continuous
 62
   131
370
    15
100
AcDbSpline
210
0.0
220
0.0
230
1.0
 70
    24
 71
     3
 72
     8
 73
     4
 74
     0
 42
0.000000001
 43
0.00000001
 40
0.0
 40
0.0
 40
0.0
 40
0.0
 40
1.0
 40
1.0
 40
1.0
 40
1.0
 10
10.95683513009335
 20
-0.4087175291522703
 30
0.0
 10
10.95683513009335
 20
-0.4388702411895413
 30
0.0
 10
10.95683513009335
 20
-0.4700296939361201
 30
0.0
 10
10.95683513009335
 20
-0.5016095451065007
 30
0.0
  0
SPLINE
  5
D0
330
1F
100
AcDbEntity
  8
0
  6
Continuous
 62
   131
370
    15
100
AcDbSpline
210
0.0
220
0.0
230
1.0
 70
    24
 71
     3
 72
    10
 73
     6
 74
     0
 42
0.000000001
 43
0.00000001
 40
0.0
 40
0.0
 40
0.0
 40
0.0
 40
0.5
 40
0.5
 40
1.0
 40
1.0
 40
1.0
 40
1.0
 10
11.75692193816527
 20
-0.2344643203056387
 30
0.0
 10
11.75692193816527
 20
-0.309452525643498
 30
0.0
 10
11.75692193816527
 20
-0.3761262647589961
 30
0.0
 10
11.75692193816527
 20
-0.4709563573854301
 30
0.0
 10
11.75692193816527
 20
-0.4987045251060161
 30
0.0
 10
11.75692193816527
 20
-0.5057565932832739
 30
0.0
  0
SPLINE
  5
D1
330
1F
100
AcDbEntity
  8
0
  6
Continuous
 62
   131
370
    15
100
AcDbSpline
210
0.0
220
0.0
230
1.0
 70
     8
 71
     3
 72
    14
 73
    10
 74
     0
 42
0.000000001
 43
0.00000001
 40
0.0
 40
0.0
 40
0.0
 40
0.0
 40
0.2499999999999999
 40
0.2499999999999999
 40
0.4999999999999998
 40
0.4999999999999998
 40
0.7499999999999999
 40
0.7499999999999999
 40
1.0
 40
1.0
 40
1.0
 40
1.0
 10
11.75692193816542
 20
-0.5057565932832647
 30
0.0
 10
11.69068983217797
 20
-0.5099613747361424
 30
0.0
 10
11.62591232881156
 20
-0.5110537135665935
 30
0.0
 10
11.49167066118115
 20
-0.5069313643019038
 30
0.0
 10
11.42363225027016
 20
-0.5016718577988865
 30
0.0
 10
11.28949411599364
 20
-0.4850526785905561
 30
0.0
 10
11.22481736665134
 20
-0.4738127982419916
 30
0.0
 10
11.09218358669482
 20
-0.4454997033130444
 30
0.0
 10
11.02433865928067
 20
-0.4283780784830668
 30
0.0
 10
10.95683513009335
 20
-0.4087175291522703
 30
0.0
  0
SPLINE
  5
D2
330
1F
100
AcDbEntity
  8
0
  6
Continuous
 62
   131
370
    15
100
AcDbSpline
210
0.0
220
0.0
230
1.0
 70
     8
 71
     3
 72
    14
 73
    10
 74
     0
 42
0.000000001
 43
0.00000001
 40
0.0
 40
0.0
 40
0.0
 40
0.0
 40
0.2500000000000001
 40
0.2500000000000001
 40
0.5000000000000001
 40
0.5000000000000001
 40
0.7500000000000002
 40
0.7500000000000002
 40
1.0
 40
1.0
 40
1.0
 40
1.0
 10
11.75692193816527
 20
-0.2344643203056382
 30
0.0
 10
11.69069214371006
 20
-0.2076403108517323
 30
0.0
 10
11.62591695003552
 20
-0.1795811929994861
 30
0.0
 10
11.4916800952458
 20
-0.1209299898597951
 30
0.0
 10
11.42364408883973
 20
-0.0905313429983105
 30
0.0
 10
11.28951036636302
 20
-0.029274952111442
 30
0.0
 10
11.22483556507608
 20
0.0013557731831425
 30
0.0
 10
11.09220704901241
 20
0.0627265064704026
 30
0.0
 10
11.02436467130585
 20
0.0934467895767088
 30
0.0
 10
10.95686340097975
 20
0.1233439426017986
 30
0.0
  0
SPLINE
  5
D3
330
1F
100
AcDbEntity
  8
0
  6
Continuous
 62
   131
370
    15
100
AcDbSpline
210
0.0
220
0.0
230
1.0
 70
    24
 71
     3
 72
    10
 73
     6
 74
     0
 42
0.000000001
 43
0.00000001
 40
0.0
 40
0.0
 40
0.0
 40
0.0
 40
0.5
 40
0.5
 40
1.0
 40
1.0
 40
1.0
 40
1.0
 10
11.75692193816527
 20
0.3664845162716045
 30
0.0
 10
11.75692193816527
 20
0.2960026311818708
 30
0.0
 10
11.75692193816527
 20
0.2003415816677813
 30
0.0
 10
11.75692193816527
 20
-0.0132702868958964
 30
0.0
 10
11.75692193816527
 20
-0.1295660227632473
 30
0.0
 10
11.75692193816527
 20
-0.2344643203056352
 30
0.0
  0
SPLINE
  5
D4
330
1F
100
AcDbEntity
  8
0
  6
Continuous
 62
   131
370
    15
100
AcDbSpline
210
0.0
220
0.0
230
1.0
 70
     8
 71
     3
 72
     9
 73
     5
 74
     0
 42
0.000000001
 43
0.00000001
 40
0.0
 40
0.0
 40
0.0
 40
0.0
 40
0.586021661435659
 40
1.0
 40
1.0
 40
1.0
 40
1.0
 10
11.75692193816528
 20
0.3664845162716024
 30
0.0
 10
11.62346885135658
 20
0.3891928557864229
 30
0.0
 10
11.39574162625409
 20
0.4279428560154053
 30
0.0
 10
11.16806475927462
 20
0.41459018101525
 30
0.0
 10
11.07785903061386
 20
0.4156327062910491
 30
0.0
  0
LINE
  5
D5
330
1F
100
AcDbEntity
  8
0
  6
Continuous
 62
   131
370
    15
100
AcDbLine
 10
10.96346401479557
 20
-0.5982470558500906
 30
0.0
 11
11.26969535764229
 21
-0.6000000000000001
 31
0.0
  0
SPLINE
  5
D6
330
1F
100
AcDbEntity
  8
0
  6
Continuous
 62
   131
370
    15
100
AcDbSpline
210
0.0
220
0.0
230
1.0
 70
     8
 71
     3
 72
    14
 73
    10
 74
     0
 42
0.000000001
 43
0.00000001
 40
0.0
 40
0.0
 40
0.0
 40
0.0
 40
0.25
 40
0.25
 40
0.5
 40
0.5
 40
0.75
 40
0.75
 40
1.0
 40
1.0
 40
1.0
 40
1.0
 10
11.75692193816527
 20
-0.589270721223786
 30
0.0
 10
11.69069692991629
 20
-0.5965045855306813
 30
0.0
 10
11.62592651861591
 20
-0.6000959739913977
 30
0.0
 10
11.4916996291853
 20
-0.599900164837305
 30
0.0
 10
11.42366860151622
 20
-0.5960433723503394
 30
0.0
 10
11.28954401418651
 20
-0.5810314779694244
 30
0.0
 10
11.2248732459512
 20
-0.5700019629914462
 30
0.0
 10
11.09225562929191
 20
-0.540937369489131
 30
0.0
 10
11.02441853108891
 20
-0.522842326241175
 30
0.0
 10
10.95692193816527
 20
-0.50162715562603
 30
0.0
  0
SPLINE
  5
D7
330
1F
100
AcDbEntity
  8
0
  6
Continuous
 62
   131
370
    15
100
AcDbSpline
210
0.0
220
0.0
230
1.0
 70
    24
 71
     3
 72
     8
 73
     4
 74
     0
 42
0.000000001
 43
0.00000001
 40
0.0
 40
0.0
 40
0.0
 40
0.0
 40
1.0
 40
1.0
 40
1.0
 40
1.0
 10
11.75692193816527
 20
-0.5057565932832744
 30
0.0
 10
11.75692193816527
 20
-0.5347025986498988
 30
0.0
 10
11.75692193816527
 20
-0.5627244736351426
 30
0.0
 10
11.75692193816527
 20
-0.5892707212155468
 30
0.0
  0
SPLINE
  5
D8
330
1F
100
AcDbEntity
  8
0
  6
Continuous
 62
   131
370
    15
100
AcDbSpline
210
0.0
220
0.0
230
1.0
 70
     8
 71
     3
 72
    14
 73
    10
 74
     0
 42
0.000000001
 43
0.00000001
 40
0.0
 40
0.0
 40
0.0
 40
0.0
 40
0.25
 40
0.25
 40
0.5
 40
0.5
 40
0.75
 40
0.75
 40
1.0
 40
1.0
 40
1.0
 40
1.0
 10
10.95687171469764
 20
0.5997632271487444
 30
0.0
 10
11.02462842388374
 20
0.5975056791520981
 30
0.0
 10
11.09225562929184
 20
0.5923734068524172
 30
0.0
 10
11.22487324595114
 20
0.6006508451212931
 30
0.0
 10
11.28954401418647
 20
0.6011212842743239
 30
0.0
 10
11.42366860151619
 20
0.5946440448573528
 30
0.0
 10
11.49169962918528
 20
0.5876467163105882
 30
0.0
 10
11.62592651861591
 20
0.5665171540577905
 30
0.0
 10
11.6906969299163
 20
0.5525285602542072
 30
0.0
 10
11.75692193816529
 20
0.5351540047608161
 30
0.0
  0
SPLINE
  5
D9
330
1F
100
AcDbEntity
  8
0
  6
Continuous
 62
   131
370
    15
100
AcDbSpline
210
0.0
220
0.0
230
1.0
 70
    24
 71
     3
 72
     8
 73
     4
 74
     0
 42
0.000000001
 43
0.00000001
 40
0.0
 40
0.0
 40
0.0
 40
0.0
 40
1.0
 40
1.0
 40
1.0
 40
1.0
 10
11.75692193816662
 20
0.5351540047603288
 30
0.0
 10
11.75692193816662
 20
0.4902252063909455
 30
0.0
 10
11.75692193816662
 20
0.4252752021562585
 30
0.0
 10
11.75692193816662
 20
0.3664845162713358
 30
0.0
  0
LINE
  5
DA
330
1F
100
AcDbEntity
  8
0
  6
Continuous
 62
   131
370
    15
100
AcDbLine
 10
11.75692193816527
 20
0.5892707212237855
 30
0.0
 11
11.56010283652988
 21
0.5889101890296836
 31
0.0
  0
LINE
  5
DB
330
1F
100
AcDbEntity
  8
중심선
 62
     1
100
AcDbLine
 10
-45.24307806183473
 20
-0.000000000000005
 30
0.0
 11
19.25692193816524
 21
-0.0000000000000051
 31
0.0
  0
CIRCLE
  5
DC
330
1F
100
AcDbEntity
  8
외형선
100
AcDbCircle
 10
0.0
 20
0.0
 30
0.0
 40
3.000000000000005
  0
INSERT
  5
DD
330
1F
100
AcDbEntity
  8
0
  6
Continuous
 62
     7
100
AcDbBlockReference
 66
     1
  2
블럭10
 10
-22.93944368806589
 20
-52.04609937292004
 30
0.0
  0
ATTRIB
  5
DE
330
DD
100
AcDbEntity
  8
FORMAT
 62
     2
100
AcDbText
 10
-39.05870472750145
 20
-49.97073246008785
 30
0.0
 40
4.233333333333333
  1
SEME7001206E [ 2 FLUTE ]
 41
0.75
  7
SLDTEXTSTYLE0
 11
-39.05870472750145
 21
-52.08739912675452
 31
0.0
100
AcDbAttribute
  2
AUTOATTR0
 70
     0
 74
     1
  0
SEQEND
  5
DF
330
DD
100
AcDbEntity
  8
0
  6
Continuous
 62
     7
  0
HATCH
  5
E0
330
1F
100
AcDbEntity
  8
중심선
100
AcDbHatch
 10
0.0
 20
0.0
 30
0.0
210
0.0
220
0.0
230
1.0
  2
SOLID
 70
     1
 71
     0
 91
        1
 92
        0
 93
        4
 72
     1
 10
-17.22453438368504
 20
-35.7989250712761
 11
-20.67080962752232
 21
-35.7989250712761
 72
     1
 10
-20.67080962752232
 20
-35.7989250712761
 11
-22.79903948672635
 21
-38.3352506518487
 72
     1
 10
-22.79903948672635
 20
-38.3352506518487
 11
-19.35273115777591
 21
-38.33521122254621
 72
     1
 10
-19.35273115777591
 20
-38.33521122254621
 11
-17.22453438368504
 21
-35.7989250712761
 97
        0
 75
     0
 76
     1
 98
        1
 10
0.0
 20
0.0
  0
HATCH
  5
E1
330
1F
100
AcDbEntity
  8
중심선
100
AcDbHatch
 10
0.0
 20
0.0
 30
0.0
210
0.0
220
0.0
230
1.0
  2
SOLID
 70
     1
 71
     0
 91
        1
 92
        0
 93
        4
 72
     1
 10
-12.21177039264909
 20
-35.7989250712761
 11
-15.65804563648637
 21
-35.7989250712761
 72
     1
 10
-15.65804563648637
 20
-35.7989250712761
 11
-20.18918364484376
 21
-41.19892507127612
 72
     1
 10
-20.18918364484376
 20
-41.19892507127612
 11
-16.74290840100648
 21
-41.19892507127612
 72
     1
 10
-16.74290840100648
 20
-41.19892507127612
 11
-12.21177039264909
 21
-35.7989250712761
 97
        0
 75
     0
 76
     1
 98
        1
 10
0.0
 20
0.0
  0
HATCH
  5
E2
330
1F
100
AcDbEntity
  8
중심선
100
AcDbHatch
 10
0.0
 20
0.0
 30
0.0
210
0.0
220
0.0
230
1.0
  2
SOLID
 70
     1
 71
     0
 91
        1
 92
        0
 93
        4
 72
     1
 10
-7.199006401613195
 20
-35.79892507127613
 11
-10.64528164545031
 21
-35.7989250712761
 72
     1
 10
-10.64528164545031
 20
-35.7989250712761
 11
-17.69371854733956
 21
-44.19892507127612
 72
     1
 10
-17.69371854733956
 20
-44.19892507127612
 11
-14.24744330350228
 21
-44.19892507127612
 72
     1
 10
-14.24744330350228
 20
-44.19892507127612
 11
-7.199006401613195
 21
-35.79892507127613
 97
        0
 75
     0
 76
     1
 98
        1
 10
0.0
 20
0.0
  0
HATCH
  5
E3
330
1F
100
AcDbEntity
  8
중심선
100
AcDbHatch
 10
0.0
 20
0.0
 30
0.0
210
0.0
220
0.0
230
1.0
  2
SOLID
 70
     1
 71
     0
 91
        1
 92
        0
 93
        6
 72
     3
 10
-2.399115970600996
 20
-39.99892507132738
 11
3.960054785062284
 21
1.540850780301639E-10
 40
0.3939339440162633
 50
17.09539180608433
 51
320.0019657685079
 73
     0
 72
     1
 10
-0.7161163149004002
 20
-38.58681907591441
 11
1.589185558800638
 21
-36.65249236586649
 72
     3
 10
-2.399115970653842
 20
-39.99892507127625
 11
6.600054785286829
 21
-1.249000902703301E-13
 40
0.6363583540795982
 50
39.99873849337408
 51
368.4976242363724
 73
     1
 72
     1
 10
4.026216521246767
 20
-39.03892507120613
 11
-3.71904866381792
 21
-39.0389250712061
 72
     1
 10
-3.71904866381792
 20
-39.0389250712061
 11
-3.719073708263854
 21
-40.95892507120602
 72
     1
 10
-3.719073708263854
 20
-40.95892507120602
 11
0.7223060612081835
 21
-40.95892507120599
 97
        0
 75
     0
 76
     1
 98
        1
 10
0.0
 20
0.0
  0
DIMENSION
  5
E4
330
1F
100
AcDbEntity
  8
치수문자_일반주서
100
AcDbDimension
  2
_D
 10
33.67441999194918
 20
0.5994928891351279
 30
0.0
 11
33.67441999194911
 21
12.67275000000007
 31
0.0
 70
   160
  1
%%c<>
 71
     2
 42
1.198985778270137
 52
-270.0
  3
SLDDIMSTYLE0
100
AcDbAlignedDimension
 13
17.75692193816528
 23
-0.5994928891350684
 33
0.0
 14
17.75692193816528
 24
0.5994928891350688
 34
0.0
 50
90.0000000000002
100
AcDbRotatedDimension
  0
DIMENSION
  5
F2
330
1F
100
AcDbEntity
  8
치수문자_일반주서
100
AcDbDimension
  2
_D_1
 10
17.75692193816528
 20
24.23841044024269
 30
0.0
 11
-12.24307806183472
 21
24.23841044024269
 31
0.0
 70
   160
  1
<>
 71
     2
 42
60.0
  3
SLDDIMSTYLE1
100
AcDbAlignedDimension
 13
-42.24307806183472
 23
2.449999999999993
 33
0.0
 14
17.75692193816528
 24
0.5693645215391406
 34
0.0
 50
-0.0000000000000068
100
AcDbRotatedDimension
  0
DIMENSION
  5
FD
330
1F
100
AcDbEntity
  8
치수문자_일반주서
100
AcDbDimension
  2
_D_2
 10
17.75692193816528
 20
15.95800728610293
 30
0.0
 11
3.402921938165271
 21
15.95800728610293
 31
0.0
 70
   160
  1
<>
 71
     2
 42
6.000000000000012
  3
SLDDIMSTYLE2
100
AcDbAlignedDimension
 13
11.75692193816527
 23
0.5892707212237857
 33
0.0
 14
17.75692193816528
 24
0.5994928891350687
 34
0.0
 50
0.0000000000076333
100
AcDbRotatedDimension
  0
DIMENSION
  5
10A
330
1F
100
AcDbEntity
  8
치수문자_일반주서
100
AcDbDimension
  2
_D_3
 10
-54.23413634322057
 20
-3.000000000000048
 30
0.0
 11
-54.23413634322063
 21
12.66649999999994
 31
0.0
 70
   160
  1
%%c<>
 71
     2
 42
5.999999999999993
 52
-270.0
  3
SLDDIMSTYLE2
100
AcDbAlignedDimension
 13
-41.69307806183473
 23
2.999999999999993
 33
0.0
 14
-41.69307806183473
 24
-3.0
 34
0.0
 50
90.0000000000002
100
AcDbRotatedDimension
  0
INSERT
  5
11D
330
1F
100
AcDbEntity
  8
외형선
100
AcDbBlockReference
  2
SW_DOWELSYMBOL_0
 10
0.0
 20
0.0
 30
0.0
  0
ENDSEC
  0
SECTION
  2
OBJECTS
  0
DICTIONARY
  5
C
330
0
100
AcDbDictionary
281
     1
  3
ACAD_GROUP
350
D
  3
ACAD_IMAGE_VARS
350
141
  3
ACAD_LAYOUT
350
1A
  3
ACAD_MLINESTYLE
350
17
  3
ACAD_PLOTSETTINGS
350
19
  3
ACAD_PLOTSTYLENAME
350
E
  3
ACAD_SCALELIST
350
47
  3
APPDATA
350
13F
  3
DWGPROPS
350
1DD
  0
DICTIONARY
  5
D
102
{ACAD_REACTORS
330
C
102
}
330
C
100
AcDbDictionary
281
     1
  0
RASTERVARIABLES
  5
141
102
{ACAD_REACTORS
330
C
102
}
330
C
100
AcDbRasterVariables
 90
        0
 70
     1
 71
     1
 72
     1
  0
DICTIONARY
  5
1A
102
{ACAD_REACTORS
330
C
102
}
330
C
100
AcDbDictionary
281
     1
  3
Layout1
350
1E
  3
Layout2
350
26
  3
Model
350
22
  0
DICTIONARY
  5
17
102
{ACAD_REACTORS
330
C
102
}
330
C
100
AcDbDictionary
281
     1
  3
Standard
350
18
  0
DICTIONARY
  5
19
102
{ACAD_REACTORS
330
C
102
}
330
C
100
AcDbDictionary
281
     1
  0
ACDBDICTIONARYWDFLT
  5
E
102
{ACAD_REACTORS
330
C
102
}
330
C
100
AcDbDictionary
281
     1
  3
Normal
350
F
100
AcDbDictionaryWithDefault
340
F
  0
DICTIONARY
  5
47
102
{ACAD_REACTORS
330
C
102
}
330
C
100
AcDbDictionary
281
     1
  3
A0
350
48
  3
A1
350
49
  3
A2
350
4A
  3
A3
350
4B
  3
A4
350
4C
  3
A5
350
4D
  3
A6
350
4E
  3
A7
350
4F
  3
A8
350
50
  3
A9
350
51
  3
B0
350
52
  3
B1
350
53
  3
B2
350
54
  3
B3
350
55
  3
B4
350
56
  3
B5
350
57
  3
B6
350
58
  3
B7
350
59
  3
B8
350
5A
  3
B9
350
5B
  3
C0
350
5C
  3
C1
350
5D
  3
C2
350
5E
  3
C3
350
5F
  3
C4
350
60
  3
C5
350
61
  3
C6
350
62
  3
C7
350
63
  3
C8
350
64
  3
C9
350
65
  3
D0
350
66
  3
D1
350
67
  3
D2
350
68
  0
DICTIONARY
  5
13F
102
{ACAD_REACTORS
330
C
102
}
330
C
100
AcDbDictionary
281
     1
  0
XRECORD
  5
1DD
102
{ACAD_REACTORS
330
C
102
}
330
C
100
AcDbXrecord
280
     1
  1
DWGPROPS COOKIE
  2

  3

  4

  6

  7

  8
12014102
  9

300
=
301
=
302
=
303
=
304
=
305
=
306
=
307
=
308
=
309
=
 40
0.0
 41
2458262.158281991
 42
2458264.394168715
  1

 90
        0
  0
LAYOUT
  5
1E
102
{ACAD_REACTORS
330
1A
102
}
330
1A
100
AcDbPlotSettings
  1

  2
none_device
  4

  6

 40
0.0
 41
0.0
 42
0.0
 43
0.0
 44
0.0
 45
0.0
 46
0.0
 47
0.0
 48
0.0
 49
0.0
140
0.0
141
0.0
142
1.0
143
1.0
 70
   688
 72
     1
 73
     0
 74
     5
  7

 75
    16
147
1.0
148
0.0
149
0.0
100
AcDbLayout
  1
Layout1
 70
     1
 71
     1
 10
0.0
 20
0.0
 11
420.0
 21
297.0
 12
0.0
 22
0.0
 32
0.0
 14
1.000000000000000E+20
 24
1.000000000000000E+20
 34
1.000000000000000E+20
 15
-1.000000000000000E+20
 25
-1.000000000000000E+20
 35
-1.000000000000000E+20
146
0.0
 13
0.0
 23
0.0
 33
0.0
 16
1.0
 26
0.0
 36
0.0
 17
0.0
 27
1.0
 37
0.0
 76
     0
330
1B
  0
LAYOUT
  5
26
102
{ACAD_REACTORS
330
1A
102
}
330
1A
100
AcDbPlotSettings
  1

  2
none_device
  4

  6

 40
0.0
 41
0.0
 42
0.0
 43
0.0
 44
0.0
 45
0.0
 46
0.0
 47
0.0
 48
0.0
 49
0.0
140
0.0
141
0.0
142
1.0
143
1.0
 70
   688
 72
     1
 73
     0
 74
     5
  7

 75
    16
147
1.0
148
0.0
149
0.0
100
AcDbLayout
  1
Layout2
 70
     1
 71
     2
 10
0.0
 20
0.0
 11
0.0
 21
0.0
 12
0.0
 22
0.0
 32
0.0
 14
0.0
 24
0.0
 34
0.0
 15
0.0
 25
0.0
 35
0.0
146
0.0
 13
0.0
 23
0.0
 33
0.0
 16
1.0
 26
0.0
 36
0.0
 17
0.0
 27
1.0
 37
0.0
 76
     0
330
23
  0
LAYOUT
  5
22
102
{ACAD_REACTORS
330
1A
102
}
330
1A
100
AcDbPlotSettings
  1

  2
none_device
  4
ANSI_A_(11.00_x_8.50_Inches)
  6

 40
6.35
 41
19.05
 42
6.35000508
 43
19.05000254
 44
279.4
 45
215.9
 46
151.4134247593059
 47
118.4377884955873
 48
0.0
 49
0.0
140
0.0
141
0.0
142
0.1058944507156154
143
1.0
 70
  1696
 72
     0
 73
     0
 74
     0
  7

 75
     0
147
0.0235690232323232
148
0.0
149
0.0
100
AcDbLayout
  1
Model
 70
     1
 71
     0
 10
0.0
 20
0.0
 11
420.0
 21
297.0
 12
0.0
 22
0.0
 32
0.0
 14
-58.60913634322063
 24
-49.97073246008785
 34
0.0
 15
34.22475332528254
 25
28.61341044024269
 35
0.0
146
0.0
 13
0.0
 23
0.0
 33
0.0
 16
1.0
 26
0.0
 36
0.0
 17
0.0
 27
1.0
 37
0.0
 76
     0
330
1F
331
29
  0
MLINESTYLE
  5
18
102
{ACAD_REACTORS
330
17
102
}
330
17
100
AcDbMlineStyle
  2
Standard
 70
     0
  3

 62
   256
 51
90.0
 52
90.0
 71
     2
 49
0.5
 62
   256
  6
BYLAYER
 49
-0.5
 62
   256
  6
BYLAYER
  0
ACDBPLACEHOLDER
  5
F
102
{ACAD_REACTORS
330
E
102
}
330
E
  0
SCALE
  5
48
102
{ACAD_REACTORS
330
47
102
}
330
47
100
AcDbScale
 70
     0
300
1:1
140
1.0
141
1.0
290
     1
  0
SCALE
  5
49
102
{ACAD_REACTORS
330
47
102
}
330
47
100
AcDbScale
 70
     0
300
1:2
140
1.0
141
2.0
290
     0
  0
SCALE
  5
4A
102
{ACAD_REACTORS
330
47
102
}
330
47
100
AcDbScale
 70
     0
300
1:4
140
1.0
141
4.0
290
     0
  0
SCALE
  5
4B
102
{ACAD_REACTORS
330
47
102
}
330
47
100
AcDbScale
 70
     0
300
1:5
140
1.0
141
5.0
290
     0
  0
SCALE
  5
4C
102
{ACAD_REACTORS
330
47
102
}
330
47
100
AcDbScale
 70
     0
300
1:8
140
1.0
141
8.0
290
     0
  0
SCALE
  5
4D
102
{ACAD_REACTORS
330
47
102
}
330
47
100
AcDbScale
 70
     0
300
1:10
140
1.0
141
10.0
290
     0
  0
SCALE
  5
4E
102
{ACAD_REACTORS
330
47
102
}
330
47
100
AcDbScale
 70
     0
300
1:16
140
1.0
141
16.0
290
     0
  0
SCALE
  5
4F
102
{ACAD_REACTORS
330
47
102
}
330
47
100
AcDbScale
 70
     0
300
1:20
140
1.0
141
20.0
290
     0
  0
SCALE
  5
50
102
{ACAD_REACTORS
330
47
102
}
330
47
100
AcDbScale
 70
     0
300
1:30
140
1.0
141
30.0
290
     0
  0
SCALE
  5
51
102
{ACAD_REACTORS
330
47
102
}
330
47
100
AcDbScale
 70
     0
300
1:40
140
1.0
141
40.0
290
     0
  0
SCALE
  5
52
102
{ACAD_REACTORS
330
47
102
}
330
47
100
AcDbScale
 70
     0
300
1:50
140
1.0
141
50.0
290
     0
  0
SCALE
  5
53
102
{ACAD_REACTORS
330
47
102
}
330
47
100
AcDbScale
 70
     0
300
1:100
140
1.0
141
100.0
290
     0
  0
SCALE
  5
54
102
{ACAD_REACTORS
330
47
102
}
330
47
100
AcDbScale
 70
     0
300
2:1
140
2.0
141
1.0
290
     0
  0
SCALE
  5
55
102
{ACAD_REACTORS
330
47
102
}
330
47
100
AcDbScale
 70
     0
300
4:1
140
4.0
141
1.0
290
     0
  0
SCALE
  5
56
102
{ACAD_REACTORS
330
47
102
}
330
47
100
AcDbScale
 70
     0
300
8:1
140
8.0
141
1.0
290
     0
  0
SCALE
  5
57
102
{ACAD_REACTORS
330
47
102
}
330
47
100
AcDbScale
 70
     0
300
10:1
140
10.0
141
1.0
290
     0
  0
SCALE
  5
58
102
{ACAD_REACTORS
330
47
102
}
330
47
100
AcDbScale
 70
     0
300
100:1
140
100.0
141
1.0
290
     0
  0
SCALE
  5
59
102
{ACAD_REACTORS
330
47
102
}
330
47
100
AcDbScale
 70
     0
300
1/128" = 1'-0"
140
0.0078125
141
12.0
290
     0
  0
SCALE
  5
5A
102
{ACAD_REACTORS
330
47
102
}
330
47
100
AcDbScale
 70
     0
300
1/64" = 1'-0"
140
0.015625
141
12.0
290
     0
  0
SCALE
  5
5B
102
{ACAD_REACTORS
330
47
102
}
330
47
100
AcDbScale
 70
     0
300
1/32" = 1'-0"
140
0.03125
141
12.0
290
     0
  0
SCALE
  5
5C
102
{ACAD_REACTORS
330
47
102
}
330
47
100
AcDbScale
 70
     0
300
1/16" = 1'-0"
140
0.0625
141
12.0
290
     0
  0
SCALE
  5
5D
102
{ACAD_REACTORS
330
47
102
}
330
47
100
AcDbScale
 70
     0
300
3/32" = 1'-0"
140
0.09375
141
12.0
290
     0
  0
SCALE
  5
5E
102
{ACAD_REACTORS
330
47
102
}
330
47
100
AcDbScale
 70
     0
300
1/8" = 1'-0"
140
0.125
141
12.0
290
     0
  0
SCALE
  5
5F
102
{ACAD_REACTORS
330
47
102
}
330
47
100
AcDbScale
 70
     0
300
3/16" = 1'-0"
140
0.1875
141
12.0
290
     0
  0
SCALE
  5
60
102
{ACAD_REACTORS
330
47
102
}
330
47
100
AcDbScale
 70
     0
300
1/4" = 1'-0"
140
0.25
141
12.0
290
     0
  0
SCALE
  5
61
102
{ACAD_REACTORS
330
47
102
}
330
47
100
AcDbScale
 70
     0
300
3/8" = 1'-0"
140
0.375
141
12.0
290
     0
  0
SCALE
  5
62
102
{ACAD_REACTORS
330
47
102
}
330
47
100
AcDbScale
 70
     0
300
1/2" = 1'-0"
140
0.5
141
12.0
290
     0
  0
SCALE
  5
63
102
{ACAD_REACTORS
330
47
102
}
330
47
100
AcDbScale
 70
     0
300
3/4" = 1'-0"
140
0.75
141
12.0
290
     0
  0
SCALE
  5
64
102
{ACAD_REACTORS
330
47
102
}
330
47
100
AcDbScale
 70
     0
300
1" = 1'-0"
140
1.0
141
12.0
290
     0
  0
SCALE
  5
65
102
{ACAD_REACTORS
330
47
102
}
330
47
100
AcDbScale
 70
     0
300
1-1/2" = 1'-0"
140
1.5
141
12.0
290
     0
  0
SCALE
  5
66
102
{ACAD_REACTORS
330
47
102
}
330
47
100
AcDbScale
 70
     0
300
3" = 1'-0"
140
3.0
141
12.0
290
     0
  0
SCALE
  5
67
102
{ACAD_REACTORS
330
47
102
}
330
47
100
AcDbScale
 70
     0
300
6" = 1'-0"
140
6.0
141
12.0
290
     0
  0
SCALE
  5
68
102
{ACAD_REACTORS
330
47
102
}
330
47
100
AcDbScale
 70
     0
300
1'-0" = 1'-0"
140
12.0
141
12.0
290
     0
  0
ENDSEC
  0
EOF
