  0
SECTION
  2
HEADER
  9
$ACADVER
  1
AC1015
  9
$ACADMAINTVER
 70
     6
  9
$DWGCODEPAGE
  3
ANSI_949
  9
$INSBASE
 10
0.0
 20
0.0
 30
0.0
  9
$EXTMIN
 10
-60.60913634322063
 20
-49.97073246008785
 30
0.0
  9
$EXTMAX
 10
32.22475332528248
 20
28.60268116146647
 30
0.0
  9
$LIMMIN
 10
0.0
 20
0.0
  9
$LIMMAX
 10
420.0
 20
297.0
  9
$ORTHOMODE
 70
     1
  9
$REGENMODE
 70
     1
  9
$FILLMODE
 70
     1
  9
$QTEXTMODE
 70
     0
  9
$MIRRTEXT
 70
     1
  9
$LTSCALE
 40
1.0
  9
$ATTMODE
 70
     1
  9
$TEXTSIZE
 40
3.5
  9
$TRACEWID
 40
1.0
  9
$TEXTSTYLE
  7
Standard
  9
$CLAYER
  8
0
  9
$CELTYPE
  6
ByLayer
  9
$CECOLOR
 62
   256
  9
$CELTSCALE
 40
1.0
  9
$DISPSILH
 70
     0
  9
$DIMSCALE
 40
1.0
  9
$DIMASZ
 40
3.302
  9
$DIMEXO
 40
1.0
  9
$DIMDLI
 40
3.75
  9
$DIMRND
 40
0.0
  9
$DIMDLE
 40
0.0
  9
$DIMEXE
 40
1.0
  9
$DIMTP
 40
0.0
  9
$DIMTM
 40
0.0
  9
$DIMTXT
 40
3.5
  9
$DIMCEN
 40
2.5
  9
$DIMTSZ
 40
0.0
  9
$DIMTOL
 70
     0
  9
$DIMLIM
 70
     0
  9
$DIMTIH
 70
     1
  9
$DIMTOH
 70
     1
  9
$DIMSE1
 70
     0
  9
$DIMSE2
 70
     0
  9
$DIMTAD
 70
     1
  9
$DIMZIN
 70
     0
  9
$DIMBLK
  1

  9
$DIMASO
 70
     1
  9
$DIMSHO
 70
     1
  9
$DIMPOST
  1

  9
$DIMAPOST
  1

  9
$DIMALT
 70
     0
  9
$DIMALTD
 70
     3
  9
$DIMALTF
 40
0.0393700787401575
  9
$DIMLFAC
 40
1.0
  9
$DIMTOFL
 70
     1
  9
$DIMTVP
 40
0.0
  9
$DIMTIX
 70
     0
  9
$DIMSOXD
 70
     0
  9
$DIMSAH
 70
     0
  9
$DIMBLK1
  1

  9
$DIMBLK2
  1

  9
$DIMSTYLE
  2
ISO-25
  9
$DIMCLRD
 70
     0
  9
$DIMCLRE
 70
     0
  9
$DIMCLRT
 70
     0
  9
$DIMTFAC
 40
1.0
  9
$DIMGAP
 40
1.524
  9
$DIMJUST
 70
     0
  9
$DIMSD1
 70
     0
  9
$DIMSD2
 70
     0
  9
$DIMTOLJ
 70
     0
  9
$DIMTZIN
 70
     0
  9
$DIMALTZ
 70
     0
  9
$DIMALTTZ
 70
     0
  9
$DIMUPT
 70
     0
  9
$DIMDEC
 70
     2
  9
$DIMTDEC
 70
     2
  9
$DIMALTU
 70
     2
  9
$DIMALTTD
 70
     3
  9
$DIMTXSTY
  7
Standard
  9
$DIMAUNIT
 70
     0
  9
$DIMADEC
 70
     2
  9
$DIMALTRND
 40
0.0
  9
$DIMAZIN
 70
     0
  9
$DIMDSEP
 70
    44
  9
$DIMATFIT
 70
     3
  9
$DIMFRAC
 70
     0
  9
$DIMLDRBLK
  1

  9
$DIMLUNIT
 70
     2
  9
$DIMLWD
 70
    -2
  9
$DIMLWE
 70
    -2
  9
$DIMTMOVE
 70
     0
  9
$LUNITS
 70
     2
  9
$LUPREC
 70
     2
  9
$SKETCHINC
 40
1.0
  9
$FILLETRAD
 40
10.0
  9
$AUNITS
 70
     0
  9
$AUPREC
 70
     2
  9
$MENU
  1
.
  9
$ELEVATION
 40
0.0
  9
$PELEVATION
 40
0.0
  9
$THICKNESS
 40
0.0
  9
$LIMCHECK
 70
     0
  9
$CHAMFERA
 40
0.0
  9
$CHAMFERB
 40
0.0
  9
$CHAMFERC
 40
0.0
  9
$CHAMFERD
 40
0.0
  9
$SKPOLY
 70
     0
  9
$TDCREATE
 40
2458262.533096088
  9
$TDUCREATE
 40
2458262.158096088
  9
$TDUPDATE
 40
2459702.613581366
  9
$TDUUPDATE
 40
2459702.238581366
  9
$TDINDWG
 40
0.0224827546
  9
$TDUSRTIMER
 40
0.0006626157
  9
$USRTIMER
 70
     1
  9
$ANGBASE
 50
0.0
  9
$ANGDIR
 70
     0
  9
$PDMODE
 70
     0
  9
$PDSIZE
 40
-1.0
  9
$PLINEWID
 40
0.0
  9
$SPLFRAME
 70
     0
  9
$SPLINETYPE
 70
     6
  9
$SPLINESEGS
 70
     8
  9
$HANDSEED
  5
526
  9
$SURFTAB1
 70
     6
  9
$SURFTAB2
 70
     6
  9
$SURFTYPE
 70
     6
  9
$SURFU
 70
     6
  9
$SURFV
 70
     6
  9
$UCSBASE
  2

  9
$UCSNAME
  2

  9
$UCSORG
 10
0.0
 20
0.0
 30
0.0
  9
$UCSXDIR
 10
1.0
 20
0.0
 30
0.0
  9
$UCSYDIR
 10
0.0
 20
1.0
 30
0.0
  9
$UCSORTHOREF
  2

  9
$UCSORTHOVIEW
 70
     0
  9
$UCSORGTOP
 10
0.0
 20
0.0
 30
0.0
  9
$UCSORGBOTTOM
 10
0.0
 20
0.0
 30
0.0
  9
$UCSORGLEFT
 10
0.0
 20
0.0
 30
0.0
  9
$UCSORGRIGHT
 10
0.0
 20
0.0
 30
0.0
  9
$UCSORGFRONT
 10
0.0
 20
0.0
 30
0.0
  9
$UCSORGBACK
 10
0.0
 20
0.0
 30
0.0
  9
$PUCSBASE
  2

  9
$PUCSNAME
  2

  9
$PUCSORG
 10
0.0
 20
0.0
 30
0.0
  9
$PUCSXDIR
 10
1.0
 20
0.0
 30
0.0
  9
$PUCSYDIR
 10
0.0
 20
1.0
 30
0.0
  9
$PUCSORTHOREF
  2

  9
$PUCSORTHOVIEW
 70
     0
  9
$PUCSORGTOP
 10
0.0
 20
0.0
 30
0.0
  9
$PUCSORGBOTTOM
 10
0.0
 20
0.0
 30
0.0
  9
$PUCSORGLEFT
 10
0.0
 20
0.0
 30
0.0
  9
$PUCSORGRIGHT
 10
0.0
 20
0.0
 30
0.0
  9
$PUCSORGFRONT
 10
0.0
 20
0.0
 30
0.0
  9
$PUCSORGBACK
 10
0.0
 20
0.0
 30
0.0
  9
$USERI1
 70
     0
  9
$USERI2
 70
     0
  9
$USERI3
 70
     0
  9
$USERI4
 70
     0
  9
$USERI5
 70
     0
  9
$USERR1
 40
0.0
  9
$USERR2
 40
0.0
  9
$USERR3
 40
0.0
  9
$USERR4
 40
0.0
  9
$USERR5
 40
0.0
  9
$WORLDVIEW
 70
     1
  9
$SHADEDGE
 70
     3
  9
$SHADEDIF
 70
    70
  9
$TILEMODE
 70
     1
  9
$MAXACTVP
 70
    64
  9
$PINSBASE
 10
0.0
 20
0.0
 30
0.0
  9
$PLIMCHECK
 70
     0
  9
$PEXTMIN
 10
1.000000000000000E+20
 20
1.000000000000000E+20
 30
1.000000000000000E+20
  9
$PEXTMAX
 10
-1.000000000000000E+20
 20
-1.000000000000000E+20
 30
-1.000000000000000E+20
  9
$PLIMMIN
 10
0.0
 20
0.0
  9
$PLIMMAX
 10
0.0
 20
0.0
  9
$UNITMODE
 70
     0
  9
$VISRETAIN
 70
     1
  9
$PLINEGEN
 70
     0
  9
$PSLTSCALE
 70
     1
  9
$TREEDEPTH
 70
  3020
  9
$CMLSTYLE
  2
Standard
  9
$CMLJUST
 70
     0
  9
$CMLSCALE
 40
20.0
  9
$PROXYGRAPHICS
 70
     1
  9
$MEASUREMENT
 70
     1
  9
$CELWEIGHT
370
    -1
  9
$ENDCAPS
280
     0
  9
$JOINSTYLE
280
     0
  9
$LWDISPLAY
290
     1
  9
$INSUNITS
 70
     4
  9
$HYPERLINKBASE
  1

  9
$STYLESHEET
  1

  9
$XEDIT
290
     1
  9
$CEPSNTYPE
380
     0
  9
$PSTYLEMODE
290
     1
  9
$FINGERPRINTGUID
  2
{CFCE6132-5EB0-46F9-8C65-80E12724FB42}
  9
$VERSIONGUID
  2
{FAEB1C32-E019-11D5-929B-00C0DF256EC4}
  9
$EXTNAMES
290
     1
  9
$PSVPSCALE
 40
0.0
  9
$OLESTARTUP
290
     0
  0
ENDSEC
  0
SECTION
  2
CLASSES
  0
CLASS
  1
ACDBDICTIONARYWDFLT
  2
AcDbDictionaryWithDefault
  3
ObjectDBX Classes
 90
        0
280
     0
281
     0
  0
CLASS
  1
VISUALSTYLE
  2
AcDbVisualStyle
  3
ObjectDBX Classes
 90
     4095
280
     0
281
     0
  0
CLASS
  1
MATERIAL
  2
AcDbMaterial
  3
ObjectDBX Classes
 90
     1153
280
     0
281
     0
  0
CLASS
  1
SCALE
  2
AcDbScale
  3
ObjectDBX Classes
 90
     1153
280
     0
281
     0
  0
CLASS
  1
SUN
  2
AcDbSun
  3
SCENEOE
 90
     1153
280
     0
281
     0
  0
CLASS
  1
ACDBPLACEHOLDER
  2
AcDbPlaceHolder
  3
ObjectDBX Classes
 90
        0
280
     0
281
     0
  0
CLASS
  1
LAYOUT
  2
AcDbLayout
  3
ObjectDBX Classes
 90
        0
280
     0
281
     0
  0
CLASS
  1
TABLESTYLE
  2
AcDbTableStyle
  3
ObjectDBX Classes
 90
     4095
280
     0
281
     0
  0
CLASS
  1
MLEADERSTYLE
  2
AcDbMLeaderStyle
  3
ACDB_MLEADERSTYLE_CLASS
 90
     4095
280
     0
281
     0
  0
CLASS
  1
RASTERVARIABLES
  2
AcDbRasterVariables
  3
ISM
 90
        0
280
     0
281
     0
  0
CLASS
  1
DIMASSOC
  2
AcDbDimAssoc
  3
"AcDbDimAssoc|Product Desc:     AcDim ARX App For Dimension|Company:          Autodesk, Inc.|WEB Address:      www.autodesk.com"
 90
        0
280
     0
281
     0
  0
ENDSEC
  0
SECTION
  2
TABLES
  0
TABLE
  2
VPORT
  5
8
330
0
100
AcDbSymbolTable
 70
     1
  0
VPORT
  5
29
330
8
100
AcDbSymbolTableRecord
100
AcDbViewportTableRecord
  2
*Active
 70
     0
 10
0.0
 20
0.0
 11
1.0
 21
1.0
 12
-14.19219150896907
 22
-10.68402564931069
 13
0.0
 23
0.0
 14
10.0
 24
10.0
 15
10.0
 25
10.0
 16
0.0
 26
0.0
 36
1.0
 17
0.0
 27
0.0
 37
0.0
 40
80.14488189398541
 41
2.085714285714286
 42
50.0
 43
0.0
 44
0.0
 50
0.0
 51
0.0
 71
    16
 72
  2000
 73
     1
 74
     3
 75
     0
 76
     0
 77
     0
 78
     0
281
     0
 65
     1
110
0.0
120
0.0
130
0.0
111
1.0
121
0.0
131
0.0
112
0.0
122
1.0
132
0.0
 79
     0
146
0.0
  0
ENDTAB
  0
TABLE
  2
LTYPE
  5
5
330
0
100
AcDbSymbolTable
 70
     6
  0
LTYPE
  5
14
330
5
100
AcDbSymbolTableRecord
100
AcDbLinetypeTableRecord
  2
ByBlock
 70
     0
  3

 72
    65
 73
     0
 40
0.0
  0
LTYPE
  5
15
330
5
100
AcDbSymbolTableRecord
100
AcDbLinetypeTableRecord
  2
ByLayer
 70
     0
  3

 72
    65
 73
     0
 40
0.0
  0
LTYPE
  5
16
330
5
100
AcDbSymbolTableRecord
100
AcDbLinetypeTableRecord
  2
Continuous
 70
     0
  3
Solid line
 72
    65
 73
     0
 40
0.0
  0
LTYPE
  5
6A
330
5
100
AcDbSymbolTableRecord
100
AcDbLinetypeTableRecord
  2
HIDDEN
 70
     0
  3
Hidden __ __ __ __ __ __ __ __ __ __ __ __ __ __
 72
    65
 73
     2
 40
1.905
 49
1.27
 74
     0
 49
-0.635
 74
     0
  0
LTYPE
  5
6B
330
5
100
AcDbSymbolTableRecord
100
AcDbLinetypeTableRecord
  2
PHANTOM
 70
     0
  3
Phantom ______  __  __  ______  __  __  ______
 72
    65
 73
     6
 40
12.7
 49
6.35
 74
     0
 49
-1.27
 74
     0
 49
1.27
 74
     0
 49
-1.27
 74
     0
 49
1.27
 74
     0
 49
-1.27
 74
     0
  0
LTYPE
  5
6C
330
5
100
AcDbSymbolTableRecord
100
AcDbLinetypeTableRecord
  2
CENTER
 70
     0
  3
Center ____ _ ____ _ ____ _ ____ _ ____ _ ____
 72
    65
 73
     4
 40
10.16
 49
6.35
 74
     0
 49
-1.27
 74
     0
 49
1.27
 74
     0
 49
-1.27
 74
     0
  0
LTYPE
  5
6D
330
5
100
AcDbSymbolTableRecord
100
AcDbLinetypeTableRecord
  2
CENTERX2
 70
     0
  3
Center (2x) ________  __  ________  __  _____
 72
    65
 73
     4
 40
20.32
 49
12.7
 74
     0
 49
-2.54
 74
     0
 49
2.54
 74
     0
 49
-2.54
 74
     0
  0
LTYPE
  5
6E
330
5
100
AcDbSymbolTableRecord
100
AcDbLinetypeTableRecord
  2
DOT2
 70
     0
  3
Dot (.5x) ........................................
 72
    65
 73
     2
 40
0.635
 49
0.0
 74
     0
 49
-0.635
 74
     0
  0
ENDTAB
  0
TABLE
  2
LAYER
  5
2
330
0
100
AcDbSymbolTable
 70
    17
  0
LAYER
  5
10
330
2
100
AcDbSymbolTableRecord
100
AcDbLayerTableRecord
  2
0
 70
     0
 62
     7
  6
Continuous
370
    -3
390
F
  0
LAYER
  5
6F
330
2
100
AcDbSymbolTableRecord
100
AcDbLayerTableRecord
  2
FORMAT
 70
     0
 62
     2
  6
Continuous
370
    -3
390
F
  0
LAYER
  5
70
330
2
100
AcDbSymbolTableRecord
100
AcDbLayerTableRecord
  2
외형선
 70
     0
 62
   100
  6
Continuous
370
    30
390
F
  0
LAYER
  5
71
330
2
100
AcDbSymbolTableRecord
100
AcDbLayerTableRecord
  2
숨은선
 70
     0
 62
     2
  6
HIDDEN
370
    15
390
F
  0
LAYER
  5
72
330
2
100
AcDbSymbolTableRecord
100
AcDbLayerTableRecord
  2
중심선
 70
     0
 62
     1
  6
CENTERX2
370
    -3
390
F
  0
LAYER
  5
73
330
2
100
AcDbSymbolTableRecord
100
AcDbLayerTableRecord
  2
파단선
 70
     0
 62
     4
  6
Continuous
370
    -3
390
F
  0
LAYER
  5
74
330
2
100
AcDbSymbolTableRecord
100
AcDbLayerTableRecord
  2
해칭선
 70
     0
 62
     4
  6
Continuous
370
    -3
390
F
  0
LAYER
  5
75
330
2
100
AcDbSymbolTableRecord
100
AcDbLayerTableRecord
  2
가는실선
 70
     0
 62
     4
  6
Continuous
370
    -3
390
F
  0
LAYER
  5
76
330
2
100
AcDbSymbolTableRecord
100
AcDbLayerTableRecord
  2
치수_보조선
 70
     0
 62
     4
  6
Continuous
370
    -3
390
F
  0
LAYER
  5
77
330
2
100
AcDbSymbolTableRecord
100
AcDbLayerTableRecord
  2
치수문자_일반주서
 70
     0
 62
     7
  6
Continuous
370
    15
390
F
  0
LAYER
  5
78
330
2
100
AcDbSymbolTableRecord
100
AcDbLayerTableRecord
  2
개별주서
 70
     0
 62
   100
  6
Continuous
370
    30
390
F
  0
LAYER
  5
79
330
2
100
AcDbSymbolTableRecord
100
AcDbLayerTableRecord
  2
중간선
 70
     0
 62
     2
  6
Continuous
370
    15
390
F
  0
LAYER
  5
7A
330
2
100
AcDbSymbolTableRecord
100
AcDbLayerTableRecord
  2
윤곽선
 70
     0
 62
     3
  6
Continuous
370
    40
390
F
  0
LAYER
  5
7B
330
2
100
AcDbSymbolTableRecord
100
AcDbLayerTableRecord
  2
중심마크
 70
     0
 62
   100
  6
Continuous
370
    30
390
F
  0
LAYER
  5
7C
330
2
100
AcDbSymbolTableRecord
100
AcDbLayerTableRecord
  2
가상선
 70
     0
 62
     4
  6
PHANTOM
370
    -3
390
F
  0
LAYER
  5
7D
330
2
100
AcDbSymbolTableRecord
100
AcDbLayerTableRecord
  2
특수지정선
 70
     0
 62
     5
  6
CENTERX2
370
    60
390
F
  0
LAYER
  5
11F
330
2
100
AcDbSymbolTableRecord
100
AcDbLayerTableRecord
  2
Defpoints
 70
     0
 62
     7
  6
Continuous
290
     0
370
    -3
390
F
  0
ENDTAB
  0
TABLE
  2
STYLE
  5
3
330
0
100
AcDbSymbolTable
 70
     2
  0
STYLE
  5
11
330
3
100
AcDbSymbolTableRecord
100
AcDbTextStyleTableRecord
  2
Standard
 70
     0
 40
0.0
 41
1.0
 50
0.0
 71
     0
 42
3.5
  3
txt
  4

  0
STYLE
  5
93
330
3
100
AcDbSymbolTableRecord
100
AcDbTextStyleTableRecord
  2
SLDTEXTSTYLE0
 70
     0
 40
0.0
 41
0.75
 50
0.0
 71
     0
 42
3.5
  3
TXT
  4

  0
ENDTAB
  0
TABLE
  2
VIEW
  5
6
330
0
100
AcDbSymbolTable
 70
     0
  0
ENDTAB
  0
TABLE
  2
UCS
  5
7
330
0
100
AcDbSymbolTable
 70
     0
  0
ENDTAB
  0
TABLE
  2
APPID
  5
9
330
0
100
AcDbSymbolTable
 70
     3
  0
APPID
  5
12
330
9
100
AcDbSymbolTableRecord
100
AcDbRegAppTableRecord
  2
ACAD
 70
     0
  0
APPID
  5
130
330
9
100
AcDbSymbolTableRecord
100
AcDbRegAppTableRecord
  2
ACAD_DSTYLE_DIMFLIPARROW_SYMBOL
 70
     0
  0
APPID
  5
131
330
9
100
AcDbSymbolTableRecord
100
AcDbRegAppTableRecord
  2
ACAD_DSTYLE_DIMFLIPARROW_WHICH_SYMBOL
 70
     0
  0
ENDTAB
  0
TABLE
  2
DIMSTYLE
  5
A
330
0
100
AcDbSymbolTable
 70
     4
100
AcDbDimStyleTable
  0
DIMSTYLE
105
27
330
A
100
AcDbSymbolTableRecord
100
AcDbDimStyleTableRecord
  2
ISO-25
 70
     0
 41
2.5
 42
0.625
 43
3.75
 44
1.25
 73
     0
 74
     0
 77
     1
 78
     8
140
2.5
141
2.5
143
0.03937007874016
147
0.625
171
     3
172
     1
178
     0
271
     2
272
     2
274
     3
278
    44
283
     0
284
     8
340
11
  0
DIMSTYLE
105
C2
102
{ACAD_REACTORS
330
2FD
330
4B6
102
}
330
A
100
AcDbSymbolTableRecord
100
AcDbDimStyleTableRecord
  2
SLDDIMSTYLE0
 70
     0
 41
3.302
 44
0.0
 45
0.000000001
 73
     0
 74
     0
 77
     1
 78
     4
 79
     1
140
3.5
147
0.875
172
     1
173
     1
178
     0
271
     2
272
     2
276
     2
284
    12
289
     0
340
93
  0
DIMSTYLE
105
D0
102
{ACAD_REACTORS
330
30D
330
4B7
102
}
330
A
100
AcDbSymbolTableRecord
100
AcDbDimStyleTableRecord
  2
SLDDIMSTYLE1
 70
     0
 41
3.302
 44
0.0
 45
0.000000001
 73
     0
 74
     0
 77
     1
 78
    12
 79
     3
140
3.5
147
0.875
173
     1
178
     0
271
     2
272
     2
276
     2
284
    12
340
93
  0
DIMSTYLE
105
DB
102
{ACAD_REACTORS
330
31A
330
32A
330
4B8
330
4B9
102
}
330
A
100
AcDbSymbolTableRecord
100
AcDbDimStyleTableRecord
  2
SLDDIMSTYLE2
 70
     0
 41
3.302
 44
0.0
 45
0.000000001
 73
     0
 74
     0
 77
     1
 78
    12
 79
     3
140
3.5
147
0.875
172
     1
173
     1
178
     0
271
     2
272
     2
276
     2
284
    12
289
     0
340
93
  0
ENDTAB
  0
TABLE
  2
BLOCK_RECORD
  5
1
330
0
100
AcDbSymbolTable
 70
    21
  0
BLOCK_RECORD
  5
1F
102
{ACAD_XDICTIONARY
360
523
102
}
330
1
100
AcDbSymbolTableRecord
100
AcDbBlockTableRecord
  2
*Model_Space
340
22
  0
BLOCK_RECORD
  5
1B
330
1
100
AcDbSymbolTableRecord
100
AcDbBlockTableRecord
  2
*Paper_Space
340
1E
  0
BLOCK_RECORD
  5
23
330
1
100
AcDbSymbolTableRecord
100
AcDbBlockTableRecord
  2
*Paper_Space0
340
26
  0
BLOCK_RECORD
  5
7E
330
1
100
AcDbSymbolTableRecord
100
AcDbBlockTableRecord
  2
블럭10
340
0
102
{BLKREFS
331
2E0
331
BA
102
}
  0
BLOCK_RECORD
  5
C3
330
1
100
AcDbSymbolTableRecord
100
AcDbBlockTableRecord
  2
_D
340
0
  0
BLOCK_RECORD
  5
D1
330
1
100
AcDbSymbolTableRecord
100
AcDbBlockTableRecord
  2
_D_1
340
0
  0
BLOCK_RECORD
  5
DC
330
1
100
AcDbSymbolTableRecord
100
AcDbBlockTableRecord
  2
_D_2
340
0
  0
BLOCK_RECORD
  5
E8
330
1
100
AcDbSymbolTableRecord
100
AcDbBlockTableRecord
  2
_D_3
340
0
  0
BLOCK_RECORD
  5
F4
330
1
100
AcDbSymbolTableRecord
100
AcDbBlockTableRecord
  2
SW_DOWELSYMBOL_0
340
0
102
{BLKREFS
331
33A
331
4BA
102
}
  0
BLOCK_RECORD
  5
1C2
330
1
100
AcDbSymbolTableRecord
100
AcDbBlockTableRecord
  2
*D7
340
0
  0
BLOCK_RECORD
  5
23E
330
1
100
AcDbSymbolTableRecord
100
AcDbBlockTableRecord
  2
SEME7001206E
340
0
  0
BLOCK_RECORD
  5
343
330
1
100
AcDbSymbolTableRecord
100
AcDbBlockTableRecord
  2
*D9
340
0
  0
BLOCK_RECORD
  5
352
330
1
100
AcDbSymbolTableRecord
100
AcDbBlockTableRecord
  2
*D10
340
0
  0
BLOCK_RECORD
  5
35E
330
1
100
AcDbSymbolTableRecord
100
AcDbBlockTableRecord
  2
*D11
340
0
  0
BLOCK_RECORD
  5
36D
330
1
100
AcDbSymbolTableRecord
100
AcDbBlockTableRecord
  2
*D12
340
0
  0
BLOCK_RECORD
  5
434
330
1
100
AcDbSymbolTableRecord
100
AcDbBlockTableRecord
  2
*D13
340
0
  0
BLOCK_RECORD
  5
443
330
1
100
AcDbSymbolTableRecord
100
AcDbBlockTableRecord
  2
*D14
340
0
  0
BLOCK_RECORD
  5
44F
330
1
100
AcDbSymbolTableRecord
100
AcDbBlockTableRecord
  2
*D15
340
0
  0
BLOCK_RECORD
  5
45E
330
1
100
AcDbSymbolTableRecord
100
AcDbBlockTableRecord
  2
*D16
340
0
  0
BLOCK_RECORD
  5
4BB
330
1
100
AcDbSymbolTableRecord
100
AcDbBlockTableRecord
  2
*D17
340
0
  0
BLOCK_RECORD
  5
4CA
330
1
100
AcDbSymbolTableRecord
100
AcDbBlockTableRecord
  2
*D18
340
0
  0
BLOCK_RECORD
  5
4D6
330
1
100
AcDbSymbolTableRecord
100
AcDbBlockTableRecord
  2
*D19
340
0
  0
BLOCK_RECORD
  5
4E5
330
1
100
AcDbSymbolTableRecord
100
AcDbBlockTableRecord
  2
*D20
340
0
  0
ENDTAB
  0
ENDSEC
  0
SECTION
  2
BLOCKS
  0
BLOCK
  5
20
330
1F
100
AcDbEntity
  8
0
100
AcDbBlockBegin
  2
*Model_Space
 70
     0
 10
0.0
 20
0.0
 30
0.0
  3
*Model_Space
  1
*Model_Space
  0
ENDBLK
  5
21
330
1F
100
AcDbEntity
  8
0
100
AcDbBlockEnd
  0
BLOCK
  5
1C
330
1B
100
AcDbEntity
 67
     1
  8
0
100
AcDbBlockBegin
  2
*Paper_Space
 70
     0
 10
0.0
 20
0.0
 30
0.0
  3
*Paper_Space
  1
*Paper_Space
  0
ENDBLK
  5
1D
330
1B
100
AcDbEntity
 67
     1
  8
0
100
AcDbBlockEnd
  0
BLOCK
  5
24
330
23
100
AcDbEntity
  8
0
100
AcDbBlockBegin
  2
*Paper_Space0
 70
     0
 10
0.0
 20
0.0
 30
0.0
  3
*Paper_Space0
  1
*Paper_Space0
  0
ENDBLK
  5
25
330
23
100
AcDbEntity
  8
0
100
AcDbBlockEnd
  0
BLOCK
  5
7F
330
7E
100
AcDbEntity
  8
0
100
AcDbBlockBegin
  2
블럭10
 70
     2
 10
0.0
 20
0.0
 30
0.0
  3
블럭10
  1
블럭10
  0
ELLIPSE
  5
81
330
7E
100
AcDbEntity
  8
중심선
100
AcDbEllipse
 10
20.54032771741204
 20
12.0471743016438
 30
0.0
 11
6.600054785286829
 21
-1.261213355974178E-13
 31
0.0
210
0.0
220
0.0
230
1.0
 40
0.636358354079598
 41
0.9219305317359503
 42
6.513795318482858
  0
ELLIPSE
  5
82
330
7E
100
AcDbEntity
  8
중심선
100
AcDbEllipse
 10
20.54032771746488
 20
12.04717430159265
 30
0.0
 11
3.960054785062283
 21
1.540847449632565E-10
 31
0.0
210
0.0
220
0.0
230
1.0
 40
0.3939339440162632
 41
1.131841032648279
 42
5.62031148352944
  0
LINE
  5
83
330
7E
100
AcDbEntity
  8
중심선
100
AcDbLine
 10
2.268634060543552
 20
16.24717430164393
 30
0.0
 11
5.714909304380834
 21
16.24717430164393
 31
0.0
  0
LINE
  5
84
330
7E
100
AcDbEntity
  8
중심선
100
AcDbLine
 10
5.245725140726316
 20
7.84717430164391
 30
0.0
 11
8.692000384563599
 21
7.84717430164391
 31
0.0
  0
LINE
  5
85
330
7E
100
AcDbEntity
  8
중심선
100
AcDbLine
 10
15.74043728645272
 20
16.24717430164393
 30
0.0
 11
8.692000384563599
 21
7.84717430164391
 31
0.0
  0
LINE
  5
86
330
7E
100
AcDbEntity
  8
중심선
100
AcDbLine
 10
0.1404042013395286
 20
13.71084872107135
 30
0.0
 11
3.58671253028996
 21
13.71088815037384
 31
0.0
  0
LINE
  5
87
330
7E
100
AcDbEntity
  8
중심선
100
AcDbLine
 10
2.750260043222114
 20
10.84717430164391
 30
0.0
 11
6.196535287059397
 21
10.84717430164391
 31
0.0
  0
LINE
  5
88
330
7E
100
AcDbEntity
  8
중심선
100
AcDbLine
 10
12.29416204261559
 20
16.24717430164393
 30
0.0
 11
5.245725140726316
 21
7.84717430164391
 31
0.0
  0
LINE
  5
89
330
7E
100
AcDbEntity
  8
중심선
100
AcDbLine
 10
10.72767329541681
 20
16.24717430164393
 30
0.0
 11
6.196535287059397
 21
10.84717430164391
 31
0.0
  0
LINE
  5
8A
330
7E
100
AcDbEntity
  8
중심선
100
AcDbLine
 10
7.28139805157953
 20
16.24717430164393
 30
0.0
 11
2.750260043222114
 21
10.84717430164391
 31
0.0
  0
LINE
  5
8B
330
7E
100
AcDbEntity
  8
중심선
100
AcDbLine
 10
5.714909304380834
 20
16.24717430164393
 30
0.0
 11
3.58671253028996
 21
13.71088815037384
 31
0.0
  0
LINE
  5
8C
330
7E
100
AcDbEntity
  8
중심선
100
AcDbLine
 10
2.268634060543552
 20
16.24717430164393
 30
0.0
 11
0.1404042013395286
 21
13.71084872107135
 31
0.0
  0
LINE
  5
8D
330
7E
100
AcDbEntity
  8
중심선
100
AcDbLine
 10
7.28139805157953
 20
16.24717430164393
 30
0.0
 11
10.72767329541681
 21
16.24717430164393
 31
0.0
  0
LINE
  5
8E
330
7E
100
AcDbEntity
  8
중심선
100
AcDbLine
 10
12.29416204261559
 20
16.24717430164393
 30
0.0
 11
15.74043728645272
 21
16.24717430164393
 31
0.0
  0
LINE
  5
8F
330
7E
100
AcDbEntity
  8
중심선
100
AcDbLine
 10
19.22036997980202
 20
11.08717430171403
 30
0.0
 11
23.66174974927406
 21
11.08717430171406
 31
0.0
  0
LINE
  5
90
330
7E
100
AcDbEntity
  8
중심선
100
AcDbLine
 10
19.22039502424796
 20
13.00717430171391
 30
0.0
 11
19.22036997980202
 21
11.08717430171403
 31
0.0
  0
LINE
  5
91
330
7E
100
AcDbEntity
  8
중심선
100
AcDbLine
 10
19.22039502424796
 20
13.00717430171391
 30
0.0
 11
26.96566020931264
 21
13.00717430171391
 31
0.0
  0
LINE
  5
92
330
7E
100
AcDbEntity
  8
중심선
100
AcDbLine
 10
22.22332737316547
 20
13.45928029700563
 30
0.0
 11
24.52862924686651
 21
15.39360700705356
 31
0.0
  0
ATTDEF
  5
94
330
7E
100
AcDbEntity
  8
FORMAT
 62
     2
100
AcDbText
 10
-16.11926103943555
 20
2.075366912832191
 30
0.0
 40
4.233333333333333
  1
SEME7001204E [ 2 FLUTE ]
 41
0.75
  7
SLDTEXTSTYLE0
 11
-16.11926103943555
 21
-0.0412997538344756
 31
0.0
100
AcDbAttributeDefinition
  3

  2
AUTOATTR0
 70
     0
 74
     1
  0
ENDBLK
  5
80
330
7E
100
AcDbEntity
  8
0
100
AcDbBlockEnd
  0
BLOCK
  5
C4
330
C3
100
AcDbEntity
  8
0
100
AcDbBlockBegin
  2
_D
 70
     0
 10
0.0
 20
0.0
 30
0.0
  3
_D
  1
_D
  0
LINE
  5
C6
330
C3
100
AcDbEntity
  8
치수문자_일반주서
 62
     0
370
    -2
100
AcDbLine
 10
15.81942193816527
 20
-0.6000000000000012
 30
0.0
 11
37.85407734427991
 21
-0.5999999999999197
 31
0.0
  0
LINE
  5
C7
330
C3
100
AcDbEntity
  8
치수문자_일반주서
 62
     0
370
    -2
100
AcDbLine
 10
15.81942193816526
 20
0.6000000000000016
 30
0.0
 11
37.85407734427991
 21
0.6000000000000831
 31
0.0
  0
LINE
  5
C8
330
C3
100
AcDbEntity
  8
치수문자_일반주서
 62
     0
370
    -2
100
AcDbLine
 10
37.85407734427991
 20
-0.5999999999999197
 30
0.0
 11
37.85407734427979
 21
20.54775000000008
 31
0.0
  0
LINE
  5
C9
330
C3
100
AcDbEntity
  8
치수문자_일반주서
 62
     0
370
    -2
100
AcDbLine
 10
37.85407734427991
 20
-0.5999999999999197
 30
0.0
 11
37.85407734427991
 21
0.6000000000000831
 31
0.0
  0
LINE
  5
CA
330
C3
100
AcDbEntity
  8
치수문자_일반주서
 62
     0
370
    -2
100
AcDbLine
 10
37.85407734427994
 20
-3.90199999999992
 30
0.0
 11
37.85407734427996
 21
-7.20399999999992
 31
0.0
  0
LINE
  5
CB
330
C3
100
AcDbEntity
  8
치수문자_일반주서
 62
     0
370
    -2
100
AcDbLine
 10
37.85407734427989
 20
3.902000000000083
 30
0.0
 11
37.85407734427987
 21
7.204000000000083
 31
0.0
  0
SOLID
  5
CC
330
C3
100
AcDbEntity
  8
치수문자_일반주서
 62
     0
100
AcDbTrace
 10
38.40441067761327
 20
-3.901999999999917
 30
0.0
 11
37.3037440109466
 21
-3.901999999999923
 31
0.0
 12
37.85407734427991
 22
-0.5999999999999197
 32
0.0
 13
37.85407734427991
 23
-0.5999999999999197
 33
0.0
  0
SOLID
  5
CD
330
C3
100
AcDbEntity
  8
치수문자_일반주서
 62
     0
100
AcDbTrace
 10
37.30374401094655
 20
3.90200000000008
 30
0.0
 11
38.40441067761322
 21
3.902000000000086
 31
0.0
 12
37.85407734427991
 22
0.6000000000000831
 32
0.0
 13
37.85407734427991
 23
0.6000000000000831
 33
0.0
  0
MTEXT
  5
CE
330
C3
100
AcDbEntity
  8
치수문자_일반주서
 62
     0
100
AcDbMText
 10
33.47907734427982
 20
15.07900000000005
 30
0.0
 40
3.5
 41
0.0
 71
     2
 72
     1
  1
\A1;%%c1.20
  7
SLDTEXTSTYLE0
 11
-5.921189464667488E-15
 21
1.0
 31
0.0
 73
     1
 44
1.0
  0
POINT
  5
120
330
C3
100
AcDbEntity
  8
Defpoints
 62
     0
100
AcDbPoint
 10
15.75692193816527
 20
-0.6000000000000014
 30
0.0
  0
POINT
  5
121
330
C3
100
AcDbEntity
  8
Defpoints
 62
     0
100
AcDbPoint
 10
15.75692193816526
 20
0.6000000000000014
 30
0.0
  0
POINT
  5
122
330
C3
100
AcDbEntity
  8
Defpoints
 62
     0
100
AcDbPoint
 10
37.8540773442799
 20
0.600000000000084
 30
0.0
  0
ENDBLK
  5
C5
330
C3
100
AcDbEntity
  8
0
100
AcDbBlockEnd
  0
BLOCK
  5
D2
330
D1
100
AcDbEntity
  8
0
100
AcDbBlockBegin
  2
_D_1
 70
     0
 10
0.0
 20
0.0
 30
0.0
  3
_D_1
  1
_D_1
  0
LINE
  5
D4
330
D1
100
AcDbEntity
  8
치수문자_일반주서
 62
     0
370
    -2
100
AcDbLine
 10
-44.24307806183473
 20
2.512499999999991
 30
0.0
 11
-44.24307806183472
 21
24.23841044024269
 31
0.0
  0
LINE
  5
D5
330
D1
100
AcDbEntity
  8
치수문자_일반주서
 62
     0
370
    -2
100
AcDbLine
 10
15.75692193816526
 20
0.6625000000000005
 30
0.0
 11
15.75692193816527
 21
24.23841044024269
 31
0.0
  0
LINE
  5
D6
330
D1
100
AcDbEntity
  8
치수문자_일반주서
 62
     0
370
    -2
100
AcDbLine
 10
-40.94107806183472
 20
24.23841044024269
 30
0.0
 11
12.45492193816527
 21
24.23841044024269
 31
0.0
  0
SOLID
  5
D7
330
D1
100
AcDbEntity
  8
치수문자_일반주서
 62
     0
100
AcDbTrace
 10
-40.94107806183472
 20
24.78874377357602
 30
0.0
 11
-40.94107806183472
 21
23.68807710690935
 31
0.0
 12
-44.24307806183472
 22
24.23841044024269
 32
0.0
 13
-44.24307806183472
 23
24.23841044024269
 33
0.0
  0
SOLID
  5
D8
330
D1
100
AcDbEntity
  8
치수문자_일반주서
 62
     0
100
AcDbTrace
 10
12.45492193816527
 20
23.68807710690935
 30
0.0
 11
12.45492193816527
 21
24.78874377357602
 31
0.0
 12
15.75692193816527
 22
24.23841044024269
 32
0.0
 13
15.75692193816527
 23
24.23841044024269
 33
0.0
  0
MTEXT
  5
D9
330
D1
100
AcDbEntity
  8
치수문자_일반주서
 62
     0
100
AcDbMText
 10
-14.24307806183473
 20
28.61341044024269
 30
0.0
 40
3.5
 41
0.0
 71
     2
 72
     1
  1
\A1;60
  7
SLDTEXTSTYLE0
 73
     1
 44
1.0
  0
POINT
  5
125
330
D1
100
AcDbEntity
  8
Defpoints
 62
     0
100
AcDbPoint
 10
-44.24307806183473
 20
2.449999999999991
 30
0.0
  0
POINT
  5
126
330
D1
100
AcDbEntity
  8
Defpoints
 62
     0
100
AcDbPoint
 10
15.75692193816526
 20
0.6000000000000005
 30
0.0
  0
POINT
  5
127
330
D1
100
AcDbEntity
  8
Defpoints
 62
     0
100
AcDbPoint
 10
15.75692193816526
 20
24.23841044024269
 30
0.0
  0
ENDBLK
  5
D3
330
D1
100
AcDbEntity
  8
0
100
AcDbBlockEnd
  0
BLOCK
  5
DD
330
DC
100
AcDbEntity
  8
0
100
AcDbBlockBegin
  2
_D_2
 70
     0
 10
0.0
 20
0.0
 30
0.0
  3
_D_2
  1
_D_2
  0
LINE
  5
DF
330
DC
100
AcDbEntity
  8
치수문자_일반주서
 62
     0
370
    -2
100
AcDbLine
 10
11.75692193816527
 20
0.5022298963410516
 30
0.0
 11
11.75692193816527
 21
13.78672770250858
 31
0.0
  0
LINE
  5
E0
330
DC
100
AcDbEntity
  8
치수문자_일반주서
 62
     0
370
    -2
100
AcDbLine
 10
15.75692193816526
 20
0.6625000000000005
 30
0.0
 11
15.75692193816526
 21
13.78672770250858
 31
0.0
  0
LINE
  5
E1
330
DC
100
AcDbEntity
  8
치수문자_일반주서
 62
     0
370
    -2
100
AcDbLine
 10
11.75692193816527
 20
13.78672770250858
 30
0.0
 11
1.652921938165272
 21
13.78672770250858
 31
0.0
  0
LINE
  5
E2
330
DC
100
AcDbEntity
  8
치수문자_일반주서
 62
     0
370
    -2
100
AcDbLine
 10
11.75692193816527
 20
13.78672770250858
 30
0.0
 11
15.75692193816526
 21
13.78672770250858
 31
0.0
  0
LINE
  5
E3
330
DC
100
AcDbEntity
  8
치수문자_일반주서
 62
     0
370
    -2
100
AcDbLine
 10
8.454921938165274
 20
13.78672770250858
 30
0.0
 11
5.152921938165274
 21
13.78672770250858
 31
0.0
  0
LINE
  5
E4
330
DC
100
AcDbEntity
  8
치수문자_일반주서
 62
     0
370
    -2
100
AcDbLine
 10
19.05892193816526
 20
13.78672770250858
 30
0.0
 11
22.36092193816526
 21
13.78672770250858
 31
0.0
  0
SOLID
  5
E5
330
DC
100
AcDbEntity
  8
치수문자_일반주서
 62
     0
100
AcDbTrace
 10
8.454921938165274
 20
13.23639436917525
 30
0.0
 11
8.454921938165274
 21
14.33706103584191
 31
0.0
 12
11.75692193816527
 22
13.78672770250858
 32
0.0
 13
11.75692193816527
 23
13.78672770250858
 33
0.0
  0
SOLID
  5
E6
330
DC
100
AcDbEntity
  8
치수문자_일반주서
 62
     0
100
AcDbTrace
 10
19.05892193816526
 20
14.33706103584191
 30
0.0
 11
19.05892193816526
 21
13.23639436917525
 31
0.0
 12
15.75692193816526
 22
13.78672770250858
 32
0.0
 13
15.75692193816526
 23
13.78672770250858
 33
0.0
  0
MTEXT
  5
128
330
DC
100
AcDbEntity
  8
치수문자_일반주서
 62
     0
100
AcDbMText
 10
3.402921938165273
 20
18.16172770250858
 30
0.0
 40
3.5
 41
0.0
 71
     2
 72
     1
  1
\A1;4
  7
SLDTEXTSTYLE0
 73
     1
 44
1.0
  0
POINT
  5
129
330
DC
100
AcDbEntity
  8
Defpoints
 62
     0
100
AcDbPoint
 10
11.75692193816527
 20
0.4397298963410517
 30
0.0
  0
POINT
  5
12A
330
DC
100
AcDbEntity
  8
Defpoints
 62
     0
100
AcDbPoint
 10
15.75692193816526
 20
0.6000000000000005
 30
0.0
  0
POINT
  5
12B
330
DC
100
AcDbEntity
  8
Defpoints
 62
     0
100
AcDbPoint
 10
15.75692193816526
 20
13.78672770250858
 30
0.0
  0
ENDBLK
  5
DE
330
DC
100
AcDbEntity
  8
0
100
AcDbBlockEnd
  0
BLOCK
  5
E9
330
E8
100
AcDbEntity
  8
0
100
AcDbBlockBegin
  2
_D_3
 70
     0
 10
0.0
 20
0.0
 30
0.0
  3
_D_3
  1
_D_3
  0
LINE
  5
EB
330
E8
100
AcDbEntity
  8
치수문자_일반주서
 62
     0
370
    -2
100
AcDbLine
 10
-43.75557806183473
 20
2.999999999999991
 30
0.0
 11
-56.1895360834468
 21
2.999999999999944
 31
0.0
  0
LINE
  5
EC
330
E8
100
AcDbEntity
  8
치수문자_일반주서
 62
     0
370
    -2
100
AcDbLine
 10
-43.75557806183473
 20
-2.999999999999997
 30
0.0
 11
-56.18953608344678
 21
-3.000000000000044
 31
0.0
  0
LINE
  5
ED
330
E8
100
AcDbEntity
  8
치수문자_일반주서
 62
     0
370
    -2
100
AcDbLine
 10
-56.1895360834468
 20
2.999999999999944
 30
0.0
 11
-56.18953608344678
 21
-3.000000000000044
 31
0.0
  0
LINE
  5
EE
330
E8
100
AcDbEntity
  8
치수문자_일반주서
 62
     0
370
    -2
100
AcDbLine
 10
-56.18953608344682
 20
6.301999999999945
 30
0.0
 11
-56.18953608344683
 21
9.603999999999944
 31
0.0
  0
LINE
  5
EF
330
E8
100
AcDbEntity
  8
치수문자_일반주서
 62
     0
370
    -2
100
AcDbLine
 10
-56.18953608344677
 20
-6.302000000000044
 30
0.0
 11
-56.18953608344675
 21
-9.604000000000044
 31
0.0
  0
SOLID
  5
F0
330
E8
100
AcDbEntity
  8
치수문자_일반주서
 62
     0
100
AcDbTrace
 10
-56.73986941678015
 20
6.301999999999943
 30
0.0
 11
-55.63920275011348
 21
6.301999999999946
 31
0.0
 12
-56.1895360834468
 22
2.999999999999944
 32
0.0
 13
-56.1895360834468
 23
2.999999999999944
 33
0.0
  0
SOLID
  5
F1
330
E8
100
AcDbEntity
  8
치수문자_일반주서
 62
     0
100
AcDbTrace
 10
-55.63920275011343
 20
-6.302000000000042
 30
0.0
 11
-56.7398694167801
 21
-6.302000000000046
 31
0.0
 12
-56.18953608344678
 22
-3.000000000000044
 32
0.0
 13
-56.18953608344678
 23
-3.000000000000044
 33
0.0
  0
MTEXT
  5
F2
330
E8
100
AcDbEntity
  8
치수문자_일반주서
 62
     0
100
AcDbMText
 10
-60.5645360834468
 20
-0.0000000000000611
 30
0.0
 40
3.5
 41
0.0
 71
     2
 72
     1
  1
\A1;%%c6
  7
SLDTEXTSTYLE0
 11
-3.552713678800508E-15
 21
1.0
 31
0.0
 73
     1
 44
1.0
  0
POINT
  5
F3
330
E8
100
AcDbEntity
  8
Defpoints
 62
     0
100
AcDbPoint
 10
-43.69307806183473
 20
2.999999999999991
 30
0.0
  0
POINT
  5
123
330
E8
100
AcDbEntity
  8
Defpoints
 62
     0
100
AcDbPoint
 10
-43.69307806183473
 20
-2.999999999999997
 30
0.0
  0
POINT
  5
124
330
E8
100
AcDbEntity
  8
Defpoints
 62
     0
100
AcDbPoint
 10
-56.18953608344678
 20
-3.000000000000044
 30
0.0
  0
ENDBLK
  5
EA
330
E8
100
AcDbEntity
  8
0
100
AcDbBlockEnd
  0
BLOCK
  5
F5
330
F4
100
AcDbEntity
  8
0
100
AcDbBlockBegin
  2
SW_DOWELSYMBOL_0
 70
     0
 10
0.0
 20
0.0
 30
0.0
  3
SW_DOWELSYMBOL_0
  1
SW_DOWELSYMBOL_0
  0
CIRCLE
  5
F7
330
F4
100
AcDbEntity
  8
외형선
 62
     0
100
AcDbCircle
 10
0.0
 20
0.0
 30
0.0
 40
3.000000000000004
  0
HATCH
  5
F8
330
F4
100
AcDbEntity
  8
0
  6
Continuous
 62
     0
370
    30
100
AcDbHatch
 10
0.0
 20
0.0
 30
0.0
210
0.0
220
0.0
230
1.0
  2
SOLID
 70
     1
 71
     0
 91
        1
 92
        0
 93
        3
 72
     2
 10
0.0000000000000104
 20
0.0
 40
3.000000000000004
 50
0.0
 51
90.0
 73
     1
 72
     1
 10
0.0000000000000104
 20
3.000000000000004
 11
0.0000000000000104
 21
0.0
 72
     1
 10
0.0000000000000104
 20
0.0
 11
3.000000000000015
 21
0.0
 97
        0
 75
     0
 76
     1
 98
        1
 10
0.0
 20
0.0
  0
HATCH
  5
F9
330
F4
100
AcDbEntity
  8
0
  6
Continuous
 62
     0
370
    30
100
AcDbHatch
 10
0.0
 20
0.0
 30
0.0
210
0.0
220
0.0
230
1.0
  2
SOLID
 70
     1
 71
     0
 91
        1
 92
        0
 93
        3
 72
     2
 10
0.0000000000000104
 20
0.0
 40
3.000000000000004
 50
180.0
 51
270.0000000000007
 73
     1
 72
     1
 10
0.0000000000000104
 20
-3.000000000000004
 11
0.0000000000000104
 21
0.0
 72
     1
 10
0.0000000000000104
 20
0.0
 11
-2.999999999999994
 21
0.0
 97
        0
 75
     0
 76
     1
 98
        1
 10
0.0
 20
0.0
  0
ENDBLK
  5
F6
330
F4
100
AcDbEntity
  8
0
100
AcDbBlockEnd
  0
BLOCK
  5
1C3
330
1C2
100
AcDbEntity
  8
0
100
AcDbBlockBegin
  2
*D7
 70
     1
 10
0.0
 20
0.0
 30
0.0
  3
*D7
  1
*D7
  0
LINE
  5
1C5
330
1C2
100
AcDbEntity
  8
0
 62
     0
370
    -2
100
AcDbLine
 10
16.75692193816527
 20
-0.599492889137785
 30
0.0
 11
48.51180673165065
 21
-0.599492889137787
 31
0.0
  0
LINE
  5
1C6
330
1C2
100
AcDbEntity
  8
0
 62
     0
370
    -2
100
AcDbLine
 10
16.75692193816526
 20
0.6000000000000004
 30
0.0
 11
48.51180673165065
 21
0.5999999999999984
 31
0.0
  0
LINE
  5
1C7
330
1C2
100
AcDbEntity
  8
0
 62
     0
370
    -2
100
AcDbLine
 10
47.51180673165065
 20
7.203999999999999
 30
0.0
 11
64.78580673165065
 21
7.203999999999999
 31
0.0
  0
LINE
  5
1C8
330
1C2
100
AcDbEntity
  8
0
 62
     0
370
    -2
100
AcDbLine
 10
47.51180673165065
 20
-0.5994928891377869
 30
0.0
 11
47.51180673165065
 21
0.5999999999999985
 31
0.0
  0
LINE
  5
1C9
330
1C2
100
AcDbEntity
  8
0
 62
     0
370
    -2
100
AcDbLine
 10
47.51180673165065
 20
0.5999999999999985
 30
0.0
 11
47.51180673165065
 21
-0.5994928891377869
 31
0.0
  0
LINE
  5
1CA
330
1C2
100
AcDbEntity
  8
0
 62
     0
370
    -2
100
AcDbLine
 10
47.51180673165065
 20
-3.901492889137787
 30
0.0
 11
47.51180673165065
 21
-7.203492889137786
 31
0.0
  0
LINE
  5
1CB
330
1C2
100
AcDbEntity
  8
0
 62
     0
370
    -2
100
AcDbLine
 10
47.51180673165065
 20
3.901999999999998
 30
0.0
 11
47.51180673165065
 21
7.203999999999999
 31
0.0
  0
SOLID
  5
1CC
330
1C2
100
AcDbEntity
  8
0
 62
     0
100
AcDbTrace
 10
48.06214006498399
 20
-3.901492889137787
 30
0.0
 11
46.96147339831732
 21
-3.901492889137787
 31
0.0
 12
47.51180673165065
 22
-0.5994928891377869
 32
0.0
 13
47.51180673165065
 23
-0.5994928891377869
 33
0.0
  0
SOLID
  5
1CD
330
1C2
100
AcDbEntity
  8
0
 62
     0
100
AcDbTrace
 10
46.96147339831732
 20
3.901999999999998
 30
0.0
 11
48.06214006498399
 21
3.901999999999998
 31
0.0
 12
47.51180673165065
 22
0.5999999999999985
 32
0.0
 13
47.51180673165065
 23
0.5999999999999985
 33
0.0
  0
MTEXT
  5
1CE
330
1C2
100
AcDbEntity
  8
0
 62
     0
100
AcDbMText
 10
56.91080673165065
 20
10.76966666666667
 30
0.0
 40
3.5
 41
0.0
 71
     5
 72
     1
  1
1,1995
 73
     1
 44
1.0
  0
POINT
  5
1CF
330
1C2
100
AcDbEntity
  8
Defpoints
 62
     0
100
AcDbPoint
 10
15.75692193816527
 20
-0.5994928891377849
 30
0.0
  0
POINT
  5
1D0
330
1C2
100
AcDbEntity
  8
Defpoints
 62
     0
100
AcDbPoint
 10
15.75692193816526
 20
0.6000000000000005
 30
0.0
  0
POINT
  5
1D1
330
1C2
100
AcDbEntity
  8
Defpoints
 62
     0
100
AcDbPoint
 10
47.51180673165065
 20
0.5999999999999985
 30
0.0
  0
ENDBLK
  5
1C4
330
1C2
100
AcDbEntity
  8
0
100
AcDbBlockEnd
  0
BLOCK
  5
341
330
23E
100
AcDbEntity
  8
0
100
AcDbBlockBegin
  2
SEME7001206E
 70
     0
 10
0.0
 20
0.0
 30
0.0
  3
SEME7001206E
  1
SEME7001206E
  0
SPLINE
  5
298
330
23E
100
AcDbEntity
  8
0
  6
Continuous
 62
     1
370
    15
100
AcDbSpline
210
0.0
220
0.0
230
1.0
 70
     8
 71
     3
 72
     9
 73
     5
 74
     0
 42
0.000000001
 43
0.00000001
 40
0.0
 40
0.0
 40
0.0
 40
0.0
 40
0.5000410076375024
 40
1.0
 40
1.0
 40
1.0
 40
1.0
 10
16.20248564524229
 20
0.154007193252714
 30
0.0
 10
16.17455661186253
 20
0.1672277098686374
 30
0.0
 10
16.11870312594202
 20
0.1936665747097134
 30
0.0
 10
16.06289143036127
 20
0.2226980852712084
 30
0.0
 10
16.03498787127667
 20
0.2372126500382947
 30
0.0
  0
SPLINE
  5
299
330
23E
100
AcDbEntity
  8
0
  6
Continuous
 62
     1
370
    15
100
AcDbSpline
210
0.0
220
0.0
230
1.0
 70
     8
 71
     3
 72
     9
 73
     5
 74
     0
 42
0.000000001
 43
0.00000001
 40
0.0
 40
0.0
 40
0.0
 40
0.0
 40
0.4999901389834512
 40
1.0
 40
1.0
 40
1.0
 40
1.0
 10
12.93890162904911
 20
0.1534232911381062
 30
0.0
 10
12.91062143924457
 20
0.1667997059603422
 30
0.0
 10
12.85405994412781
 20
0.1935530632354119
 30
0.0
 10
12.79755670366372
 20
0.2229563685958718
 30
0.0
 10
12.76930452625229
 20
0.2376583112225824
 30
0.0
  0
LINE
  5
29A
330
23E
100
AcDbEntity
  8
0
  6
Continuous
 62
     1
370
    15
100
AcDbLine
 10
14.82559587544884
 20
0.6000000000000002
 30
0.0
 11
14.53431602544117
 21
0.6000000000000002
 31
0.0
  0
LINE
  5
29B
330
23E
100
AcDbEntity
  8
0
  6
Continuous
 62
     1
370
    15
100
AcDbLine
 10
14.53431602544117
 20
-0.6000000000000008
 30
0.0
 11
14.82559587544884
 21
-0.6000000000000008
 31
0.0
  0
SPLINE
  5
29C
330
23E
100
AcDbEntity
  8
0
  6
Continuous
 62
     1
370
    15
100
AcDbSpline
210
0.0
220
0.0
230
1.0
 70
     8
 71
     3
 72
    10
 73
     6
 74
     0
 42
0.000000001
 43
0.00000001
 40
0.0
 40
0.0
 40
0.0
 40
0.0
 40
0.3139365795817637
 40
0.5034112346741719
 40
1.0
 40
1.0
 40
1.0
 40
1.0
 10
11.97881580204024
 20
-0.4805392622706265
 30
0.0
 10
12.04867764344402
 20
-0.478351033082338
 30
0.0
 10
12.16070420589348
 20
-0.4748421104875454
 30
0.0
 10
12.42878470747327
 20
-0.4653120120192927
 30
0.0
 10
12.60795392098399
 20
-0.4719387098180121
 30
0.0
 10
12.73764079230479
 20
-0.4767352688242439
 30
0.0
  0
SPLINE
  5
29D
330
23E
100
AcDbEntity
  8
0
  6
Continuous
 62
     1
370
    15
100
AcDbSpline
210
0.0
220
0.0
230
1.0
 70
     8
 71
     3
 72
    10
 73
     6
 74
     0
 42
0.000000001
 43
0.00000001
 40
0.0
 40
0.0
 40
0.0
 40
0.0
 40
0.5538559434600022
 40
0.7780369761640493
 40
0.9999999999999999
 40
0.9999999999999999
 40
0.9999999999999999
 40
0.9999999999999999
 10
16.00320742541741
 20
0.4767742275312046
 30
0.0
 10
15.9080022715526
 20
0.4730225685344706
 30
0.0
 10
15.77426148407371
 20
0.4677523724557166
 30
0.0
 10
15.60240876275822
 20
0.4687902223351881
 30
0.0
 10
15.52575031908521
 20
0.4716054386139416
 30
0.0
 10
15.51983673886251
 20
0.4718356201320207
 30
0.0
  0
SPLINE
  5
29E
330
23E
100
AcDbEntity
  8
0
  6
Continuous
 62
     1
370
    15
100
AcDbSpline
210
0.0
220
0.0
230
1.0
 70
     8
 71
     3
 72
    10
 73
     6
 74
     0
 42
0.000000001
 43
0.00000001
 40
0.0
 40
0.0
 40
0.0
 40
0.0
 40
0.4474533416384666
 40
0.630162148043064
 40
1.0
 40
1.0
 40
1.0
 40
1.0
 10
15.10077773671925
 20
-0.4993110981445816
 30
0.0
 10
15.23541363216618
 20
-0.4881483896301818
 30
0.0
 10
15.42502545798889
 20
-0.4724276077724471
 30
0.0
 10
15.72572010661248
 20
-0.4665055498085418
 30
0.0
 10
15.89194654366575
 20
-0.4726569145571647
 30
0.0
 10
16.00320742541741
 20
-0.4767742275312045
 30
0.0
  0
SPLINE
  5
29F
330
23E
100
AcDbEntity
  8
0
  6
Continuous
 62
     1
370
    15
100
AcDbSpline
210
0.0
220
0.0
230
1.0
 70
     8
 71
     3
 72
    11
 73
     7
 74
     0
 42
0.000000001
 43
0.00000001
 40
0.0
 40
0.0
 40
0.0
 40
0.0
 40
0.4685358665718844
 40
0.8048356787658703
 40
0.9573951066989534
 40
1.0
 40
1.0
 40
1.0
 40
1.0
 10
12.73764079230479
 20
0.4767352688242437
 30
0.0
 10
12.66022383056164
 20
0.4734546490354639
 30
0.0
 10
12.52723949062536
 20
0.4678193070203605
 30
0.0
 10
12.37156409152017
 20
0.4685914349503914
 30
0.0
 10
12.27996693415508
 20
0.4704070746507397
 30
0.0
 10
12.25026150969265
 20
0.4715564877120277
 30
0.0
 10
12.24377673608402
 20
0.471807407657463
 30
0.0
  0
LINE
  5
2A0
330
23E
100
AcDbEntity
  8
0
  6
Continuous
 62
     1
370
    15
100
AcDbLine
 10
13.21994755856012
 20
-0.4513311402266101
 30
0.0
 11
13.68859704266733
 21
-0.405926497719325
 31
0.0
  0
SPLINE
  5
2A1
330
23E
100
AcDbEntity
  8
0
  6
Continuous
 62
     1
370
    15
100
AcDbSpline
210
0.0
220
0.0
230
1.0
 70
     8
 71
     3
 72
    10
 73
     6
 74
     0
 42
0.000000001
 43
0.00000001
 40
0.0
 40
0.0
 40
0.0
 40
0.0
 40
0.3995320983974935
 40
0.5780905006792517
 40
1.0
 40
1.0
 40
1.0
 40
1.0
 10
17.46960348999429
 20
0.4040975368372101
 30
0.0
 10
17.34232206686221
 20
0.3988055668447
 30
0.0
 10
17.15815618401897
 20
0.3911485160224503
 30
0.0
 10
16.82331635512254
 20
0.4057483528246618
 30
0.0
 10
16.62411759318279
 20
0.4325784640476097
 30
0.0
 10
16.48415365890584
 20
0.4514302274184476
 30
0.0
  0
SPLINE
  5
2A2
330
23E
100
AcDbEntity
  8
0
  6
Continuous
 62
     1
370
    15
100
AcDbSpline
210
0.0
220
0.0
230
1.0
 70
     8
 71
     3
 72
     9
 73
     5
 74
     0
 42
0.000000001
 43
0.00000001
 40
0.0
 40
0.0
 40
0.0
 40
0.0
 40
0.7247674845764575
 40
1.0
 40
1.0
 40
1.0
 40
1.0
 10
16.48415365890584
 20
-0.4514302274184475
 30
0.0
 10
16.59321321895844
 20
-0.4360080398078037
 30
0.0
 10
16.74368845739486
 20
-0.4147292325505268
 30
0.0
 10
16.89340315794463
 20
-0.4047450687863696
 30
0.0
 10
16.93460951157283
 20
-0.4019971022791601
 30
0.0
  0
SPLINE
  5
2A3
330
23E
100
AcDbEntity
  8
0
  6
Continuous
 62
     1
370
    15
100
AcDbSpline
210
0.0
220
0.0
230
1.0
 70
     8
 71
     3
 72
     9
 73
     5
 74
     0
 42
0.000000001
 43
0.00000001
 40
0.0
 40
0.0
 40
0.0
 40
0.0
 40
0.4644565684404406
 40
1.0
 40
1.0
 40
1.0
 40
1.0
 10
14.26851896222331
 20
0.4103119598823082
 30
0.0
 10
14.10625635612151
 20
0.4011536665995927
 30
0.0
 10
13.75689622833464
 20
0.381435368043783
 30
0.0
 10
13.40721633082163
 20
0.426953958235555
 30
0.0
 10
13.21994755856012
 20
0.4513311402266099
 30
0.0
  0
LINE
  5
2A4
330
23E
100
AcDbEntity
  8
0
  6
Continuous
 62
   131
370
    15
100
AcDbLine
 10
2.0
 20
2.999999999999996
 30
0.0
 11
-41.69307806183473
 21
2.999999999999994
 31
0.0
  0
LINE
  5
2A5
330
23E
100
AcDbEntity
  8
0
  6
Continuous
 62
   131
370
    15
100
AcDbLine
 10
-41.69307806183473
 20
-3.0
 30
0.0
 11
2.0
 21
-2.999999999999998
 31
0.0
  0
LINE
  5
2A6
330
23E
100
AcDbEntity
  8
0
  6
Continuous
 62
   131
370
    15
100
AcDbLine
 10
2.0
 20
-2.999999999999999
 30
0.0
 11
10.96346401479557
 21
-0.5982470558500906
 31
0.0
  0
LINE
  5
2A7
330
23E
100
AcDbEntity
  8
0
  6
Continuous
 62
   131
370
    15
100
AcDbLine
 10
10.96346401479557
 20
0.5982470558500904
 30
0.0
 11
2.0
 21
2.999999999999997
 31
0.0
  0
LINE
  5
2A8
330
23E
100
AcDbEntity
  8
0
  6
Continuous
 62
   131
370
    15
100
AcDbLine
 10
-41.69307806183473
 20
2.999999999999993
 30
0.0
 11
-42.24307806183472
 21
2.449999999999993
 31
0.0
  0
LINE
  5
2A9
330
23E
100
AcDbEntity
  8
0
  6
Continuous
 62
   131
370
    15
100
AcDbLine
 10
-42.24307806183472
 20
-2.45
 30
0.0
 11
-41.69307806183473
 21
-3.0
 31
0.0
  0
SPLINE
  5
2AA
330
23E
100
AcDbEntity
  8
0
  6
Continuous
 62
   131
370
    15
100
AcDbSpline
210
0.0
220
0.0
230
1.0
 70
     8
 71
     3
 72
     9
 73
     5
 74
     0
 42
0.000000001
 43
0.00000001
 40
0.0
 40
0.0
 40
0.0
 40
0.0
 40
0.4996168970101231
 40
1.0
 40
1.0
 40
1.0
 40
1.0
 10
11.07785903061386
 20
0.4156327062910491
 30
0.0
 10
11.05771552124089
 20
0.4139030748670053
 30
0.0
 10
11.01739761067077
 20
0.4104411594786461
 30
0.0
 10
10.97705545696855
 20
0.4075957072395308
 30
0.0
 10
10.95686892491773
 20
0.4061718910187129
 30
0.0
  0
LINE
  5
2AB
330
23E
100
AcDbEntity
  8
0
  6
Continuous
 62
   131
370
    15
100
AcDbLine
 10
11.26969535764229
 20
-0.6000000000000001
 30
0.0
 11
11.56010283652988
 21
-0.6000000000000001
 31
0.0
  0
LINE
  5
2AC
330
23E
100
AcDbEntity
  8
0
  6
Continuous
 62
   131
370
    15
100
AcDbLine
 10
11.56622476864902
 20
0.5889214031527068
 30
0.0
 11
11.27579699604605
 21
0.5999999999999996
 31
0.0
  0
SPLINE
  5
2AD
330
23E
100
AcDbEntity
  8
0
  6
Continuous
 62
     1
370
    15
100
AcDbSpline
210
0.0
220
0.0
230
1.0
 70
     8
 71
     3
 72
    19
 73
    15
 74
     0
 42
0.000000001
 43
0.00000001
 40
0.0
 40
0.0
 40
0.0
 40
0.0
 40
0.0431345104607327
 40
0.128105485035653
 40
0.2130748818450318
 40
0.2980452565024095
 40
0.3830181257076827
 40
0.4679889696505047
 40
0.5529580772839926
 40
0.6379297473090642
 40
0.7229020016790068
 40
0.8078726963118111
 40
0.9022830987187689
 40
1.0
 40
1.0
 40
1.0
 40
1.0
 10
13.68859704266733
 20
0.405926497719325
 30
0.0
 10
13.74709900791188
 20
0.4315535962995481
 30
0.0
 10
13.92084440465202
 20
0.5076636960458893
 30
0.0
 10
14.20949224237902
 20
0.580178058823646
 30
0.0
 10
14.55501394456281
 20
0.6113647582917605
 30
0.0
 10
14.90125446091707
 20
0.5736277686835064
 30
0.0
 10
15.24679154574311
 20
0.4735439240131634
 30
0.0
 10
15.59217928770167
 20
0.320883990727318
 30
0.0
 10
15.93776974203944
 20
0.1332519867991361
 30
0.0
 10
16.28399956188948
 20
-0.0677393457068402
 30
0.0
 10
16.62947210509792
 20
-0.263028607684326
 30
0.0
 10
16.98763077167734
 20
-0.4341887790292114
 30
0.0
 10
17.36352028577672
 20
-0.5649841426154325
 30
0.0
 10
17.62429209850924
 20
-0.5878587501073309
 30
0.0
 10
17.75692193816528
 20
-0.5994928891350684
 30
0.0
  0
SPLINE
  5
2AE
330
23E
100
AcDbEntity
  8
0
  6
Continuous
 62
     1
370
    15
100
AcDbSpline
210
0.0
220
0.0
230
1.0
 70
     8
 71
     3
 72
    13
 73
     9
 74
     0
 42
0.000000001
 43
0.00000001
 40
0.0
 40
0.0
 40
0.0
 40
0.0
 40
0.1036378975103456
 40
0.3164144360913296
 40
0.5291621970835797
 40
0.7419269556006383
 40
0.954754354283065
 40
1.0
 40
1.0
 40
1.0
 40
1.0
 10
16.26301694690608
 20
-0.0548649117191398
 30
0.0
 10
16.1940902974068
 20
-0.02748395329165
 30
0.0
 10
15.98365195914546
 20
0.056112209199098
 30
0.0
 10
15.6317395710307
 20
0.1971596108365941
 30
0.0
 10
15.20725635024377
 20
0.3344782569330374
 30
0.0
 10
14.78273466046845
 20
0.4115953079115408
 30
0.0
 10
14.46960491478896
 20
0.4336778399094868
 30
0.0
 10
14.29796101841283
 20
0.4089390889780873
 30
0.0
 10
14.26851896222331
 20
0.4103119598823082
 30
0.0
  0
SPLINE
  5
2AF
330
23E
100
AcDbEntity
  8
0
  6
Continuous
 62
     1
370
    15
100
AcDbSpline
210
0.0
220
0.0
230
1.0
 70
     8
 71
     3
 72
    15
 73
    11
 74
     0
 42
0.000000001
 43
0.00000001
 40
0.0
 40
0.0
 40
0.0
 40
0.0
 40
0.1362323373560769
 40
0.2607038560322275
 40
0.3851698616400913
 40
0.5096338003245764
 40
0.634097350975674
 40
0.7585671893873874
 40
0.8830330078643466
 40
0.9999999999999999
 40
0.9999999999999999
 40
0.9999999999999999
 40
0.9999999999999999
 10
11.75692193816527
 20
0.535154004760845
 30
0.0
 10
11.88317112322942
 20
0.4954647227079864
 30
0.0
 10
12.12477051149448
 20
0.4195124996518252
 30
0.0
 10
12.4814447259347
 20
0.2406119660306285
 30
0.0
 10
12.82682774699056
 20
0.0443950244376643
 30
0.0
 10
13.17227330955105
 20
-0.1576215256541533
 30
0.0
 10
13.51848539441366
 20
-0.3412145875922009
 30
0.0
 10
13.86412509533137
 20
-0.4871137083849353
 30
0.0
 10
14.20253761339402
 20
-0.5830870412605861
 30
0.0
 10
14.42603716307819
 20
-0.5932228204648723
 30
0.0
 10
14.53431602544117
 20
-0.5981333030271563
 30
0.0
  0
SPLINE
  5
2B0
330
23E
100
AcDbEntity
  8
0
  6
Continuous
 62
     1
370
    15
100
AcDbSpline
210
0.0
220
0.0
230
1.0
 70
     8
 71
     3
 72
    10
 73
     6
 74
     0
 42
0.000000001
 43
0.00000001
 40
0.0
 40
0.0
 40
0.0
 40
0.0
 40
0.047972264383511
 40
0.5157939633129331
 40
1.0
 40
1.0
 40
1.0
 40
1.0
 10
16.93554944002915
 20
0.402440673268107
 30
0.0
 10
16.94866872071109
 20
0.4086976051021031
 30
0.0
 10
17.08972618101056
 20
0.4759716375103992
 30
0.0
 10
17.36353539641438
 20
0.5623936212160718
 30
0.0
 10
17.62429719284841
 20
0.5869853922153734
 30
0.0
 10
17.75692193816528
 20
0.5994928891350688
 30
0.0
  0
SPLINE
  5
2B1
330
23E
100
AcDbEntity
  8
0
  6
Continuous
 62
     1
370
    15
100
AcDbSpline
210
0.0
220
0.0
230
1.0
 70
    24
 71
     3
 72
     8
 73
     4
 74
     0
 42
0.000000001
 43
0.00000001
 40
0.0
 40
0.0
 40
0.0
 40
0.0
 40
1.0
 40
1.0
 40
1.0
 40
1.0
 10
17.75692193816528
 20
0.4200000000000008
 30
0.0
 10
17.75692193816528
 20
0.4709187081687773
 30
0.0
 10
17.75692193816528
 20
0.5393952338239815
 30
0.0
 10
17.75692193816528
 20
0.5994928891377875
 30
0.0
  0
LINE
  5
2B2
330
23E
100
AcDbEntity
  8
0
  6
Continuous
 62
     1
370
    15
100
AcDbLine
 10
17.75692193816528
 20
0.420000000000001
 30
0.0
 11
17.46831801767885
 21
0.3964967756430828
 31
0.0
  0
SPLINE
  5
2B3
330
23E
100
AcDbEntity
  8
0
  6
Continuous
 62
     1
370
    15
100
AcDbSpline
210
0.0
220
0.0
230
1.0
 70
     8
 71
     3
 72
    11
 73
     7
 74
     0
 42
0.000000001
 43
0.00000001
 40
0.0
 40
0.0
 40
0.0
 40
0.0
 40
0.2777721363439735
 40
0.6192406770374795
 40
0.9604296945146292
 40
0.9999999999999999
 40
0.9999999999999999
 40
0.9999999999999999
 40
0.9999999999999999
 10
13.00268506905387
 20
-0.0573175367530569
 30
0.0
 10
12.88731578085982
 20
-0.010682796238032
 30
0.0
 10
12.63012167539293
 20
0.093280577014894
 30
0.0
 10
12.23136142565226
 20
0.2452390686590984
 30
0.0
 10
11.93124422222571
 20
0.3310775294817696
 30
0.0
 10
11.77333283467678
 20
0.3631512625850523
 30
0.0
 10
11.75692193816528
 20
0.3664845162716024
 30
0.0
  0
SPLINE
  5
2B4
330
23E
100
AcDbEntity
  8
0
  6
Continuous
 62
   131
370
    15
100
AcDbSpline
210
0.0
220
0.0
230
1.0
 70
    24
 71
     3
 72
     8
 73
     4
 74
     0
 42
0.000000001
 43
0.00000001
 40
0.0
 40
0.0
 40
0.0
 40
0.0
 40
1.0
 40
1.0
 40
1.0
 40
1.0
 10
11.75692193816662
 20
0.5351540047603291
 30
0.0
 10
11.75692193816662
 20
0.4902252063909458
 30
0.0
 10
11.75692193816662
 20
0.4252752021562589
 30
0.0
 10
11.75692193816662
 20
0.3664845162713359
 30
0.0
  0
SPLINE
  5
2B5
330
23E
100
AcDbEntity
  8
0
  6
Continuous
 62
     1
370
    15
100
AcDbSpline
210
0.0
220
0.0
230
1.0
 70
     8
 71
     3
 72
    14
 73
    10
 74
     0
 42
0.000000001
 43
0.00000001
 40
0.0
 40
0.0
 40
0.0
 40
0.0
 40
0.1451948801020648
 40
0.2902607075201315
 40
0.4352243001863607
 40
0.5801132400826973
 40
0.7249556721186093
 40
0.8697800940392029
 40
1.0
 40
1.0
 40
1.0
 40
1.0
 10
17.75692193816528
 20
-0.5693645215391399
 30
0.0
 10
17.61499692933261
 20
-0.5342618386731833
 30
0.0
 10
17.33127305801145
 20
-0.464087673045821
 30
0.0
 10
16.90594945471237
 20
-0.2569972590750034
 30
0.0
 10
16.48097815724089
 20
-0.0144864979659189
 30
0.0
 10
16.05627079489122
 20
0.232804480695767
 30
0.0
 10
15.63172579340455
 20
0.438819160856682
 30
0.0
 10
15.2215240436541
 20
0.576742853362457
 30
0.0
 10
14.95281590753042
 20
0.5894712396558379
 30
0.0
 10
14.82559587544884
 20
0.595497501963896
 30
0.0
  0
SPLINE
  5
2B6
330
23E
100
AcDbEntity
  8
0
  6
Continuous
 62
     1
370
    15
100
AcDbSpline
210
0.0
220
0.0
230
1.0
 70
     8
 71
     3
 72
     9
 73
     5
 74
     0
 42
0.000000001
 43
0.00000001
 40
0.0
 40
0.0
 40
0.0
 40
0.0
 40
0.0744823841717537
 40
1.0
 40
1.0
 40
1.0
 40
1.0
 10
12.24290876940098
 20
-0.472177025908349
 30
0.0
 10
12.23084264134858
 20
-0.477405084126678
 30
0.0
 10
12.06884288547904
 20
-0.5475969593796691
 30
0.0
 10
11.90684958832496
 20
-0.5692398472461955
 30
0.0
 10
11.75692193816276
 20
-0.5892707212240612
 30
0.0
  0
SPLINE
  5
2B7
330
23E
100
AcDbEntity
  8
0
  6
Continuous
 62
   131
370
    15
100
AcDbSpline
210
0.0
220
0.0
230
1.0
 70
    24
 71
     3
 72
     8
 73
     4
 74
     0
 42
0.000000001
 43
0.00000001
 40
0.0
 40
0.0
 40
0.0
 40
0.0
 40
1.0
 40
1.0
 40
1.0
 40
1.0
 10
11.75692193816527
 20
-0.5057565932832744
 30
0.0
 10
11.75692193816527
 20
-0.5347025986498987
 30
0.0
 10
11.75692193816527
 20
-0.5627244736351426
 30
0.0
 10
11.75692193816527
 20
-0.5892707212155468
 30
0.0
  0
SPLINE
  5
2B8
330
23E
100
AcDbEntity
  8
0
  6
Continuous
 62
     1
370
    15
100
AcDbSpline
210
0.0
220
0.0
230
1.0
 70
     8
 71
     3
 72
    11
 73
     7
 74
     0
 42
0.000000001
 43
0.00000001
 40
0.0
 40
0.0
 40
0.0
 40
0.0
 40
0.2718246954556513
 40
0.5433970412055295
 40
0.8147694512103015
 40
1.0
 40
1.0
 40
1.0
 40
1.0
 10
17.75692193816528
 20
-0.4733833586209281
 30
0.0
 10
17.61499811558712
 20
-0.4397331714654539
 30
0.0
 10
17.33128222606402
 20
-0.3724640364604624
 30
0.0
 10
16.90595652739833
 20
-0.1899474987082682
 30
0.0
 10
16.52586837068074
 20
-0.000844592636453
 30
0.0
 10
16.28755702357943
 20
0.111059971521777
 30
0.0
 10
16.19088103680323
 20
0.1564564005896651
 30
0.0
  0
SPLINE
  5
2B9
330
23E
100
AcDbEntity
  8
0
  6
Continuous
 62
     1
370
    15
100
AcDbSpline
210
0.0
220
0.0
230
1.0
 70
     8
 71
     3
 72
     9
 73
     5
 74
     0
 42
0.000000001
 43
0.00000001
 40
0.0
 40
0.0
 40
0.0
 40
0.0
 40
0.7790084057096592
 40
1.0
 40
1.0
 40
1.0
 40
1.0
 10
11.97986599870701
 20
-0.4705967539891566
 30
0.0
 10
11.92191712097332
 20
-0.4834927669256477
 30
0.0
 10
11.84752912039597
 20
-0.5000471620284106
 30
0.0
 10
11.77332125307383
 20
-0.5047232230934935
 30
0.0
 10
11.75692193816542
 20
-0.5057565932832649
 30
0.0
  0
LINE
  5
2BA
330
23E
100
AcDbEntity
  8
0
  6
Continuous
 62
     1
370
    15
100
AcDbLine
 10
17.75692193816528
 20
-0.5693645215391403
 30
0.0
 11
17.75692193816528
 21
-0.4733833586209281
 31
0.0
  0
SPLINE
  5
2BB
330
23E
100
AcDbEntity
  8
0
  6
Continuous
 62
     1
370
    15
100
AcDbSpline
210
0.0
220
0.0
230
1.0
 70
     8
 71
     3
 72
    16
 73
    12
 74
     0
 42
0.000000001
 43
0.00000001
 40
0.0
 40
0.0
 40
0.0
 40
0.0
 40
0.0751529934609971
 40
0.1889709718680266
 40
0.3028197386289927
 40
0.4167214988834992
 40
0.5306980574309327
 40
0.6447706586213863
 40
0.7588928034014691
 40
0.879454466934528
 40
1.0
 40
1.0
 40
1.0
 40
1.0
 10
15.48753932315381
 20
-0.4730284972216192
 30
0.0
 10
15.39411105049822
 20
-0.5054117882065565
 30
0.0
 10
15.15918718824595
 20
-0.5868390433016529
 30
0.0
 10
14.78272634002837
 20
-0.6144037658390656
 30
0.0
 10
14.35807022861935
 20
-0.5559233124869565
 30
0.0
 10
13.93317670852778
 20
-0.4025920430403301
 30
0.0
 10
13.50795206630079
 20
-0.1837806784571861
 30
0.0
 10
13.08237094048565
 20
0.0661311196273564
 30
0.0
 10
12.64855411720264
 20
0.3075769799385774
 30
0.0
 10
12.20672940201785
 20
0.5080733817657936
 30
0.0
 10
11.9068510719968
 20
0.5622061485949851
 30
0.0
 10
11.75692193816276
 20
0.5892707212240608
 30
0.0
  0
SPLINE
  5
2BC
330
23E
100
AcDbEntity
  8
0
  6
Continuous
 62
     1
370
    15
100
AcDbSpline
210
0.0
220
0.0
230
1.0
 70
     8
 71
     3
 72
    13
 73
     9
 74
     0
 42
0.000000001
 43
0.00000001
 40
0.0
 40
0.0
 40
0.0
 40
0.0
 40
0.147416305201211
 40
0.342717952293405
 40
0.5381145829990971
 40
0.7336452673747347
 40
0.9293480587250742
 40
1.0
 40
1.0
 40
1.0
 40
1.0
 10
15.10326466129733
 20
-0.4913697531749942
 30
0.0
 10
14.99643070809607
 20
-0.5006303019760353
 30
0.0
 10
14.74805985368771
 20
-0.5221595101451997
 30
0.0
 10
14.35806558726743
 20
-0.4558178279383042
 30
0.0
 10
13.93317068262988
 20
-0.3179203558499807
 30
0.0
 10
13.50794342833593
 20
-0.1267059476355007
 30
0.0
 10
13.17308996136538
 20
0.045103615507638
 30
0.0
 10
12.97997832449502
 20
0.1315499974026906
 30
0.0
 10
12.92875448516919
 20
0.1544803378433535
 30
0.0
  0
LINE
  5
2BD
330
23E
100
AcDbEntity
  8
0
  6
Continuous
 62
     1
370
    15
100
AcDbLine
 10
17.75692193816528
 20
-0.5994928891377871
 30
0.0
 11
17.75692193816528
 21
-0.5693645215391411
 31
0.0
  0
LINE
  5
2BE
330
23E
100
AcDbEntity
  8
0
  6
Continuous
 62
   131
370
    15
100
AcDbLine
 10
11.75692193816527
 20
0.5351540047608445
 30
0.0
 11
11.75692193816527
 21
0.5892707212116294
 31
0.0
  0
SPLINE
  5
2BF
330
23E
100
AcDbEntity
  8
0
  6
Continuous
 62
     1
370
    15
100
AcDbSpline
210
0.0
220
0.0
230
1.0
 70
     8
 71
     3
 72
     8
 73
     4
 74
     0
 42
0.000000001
 43
0.00000001
 40
0.0
 40
0.0
 40
0.0
 40
0.0
 40
1.0
 40
1.0
 40
1.0
 40
1.0
 10
17.38618493464889
 20
0.1672994817291379
 30
0.0
 10
17.35911888063619
 20
0.1993264911207115
 30
0.0
 10
17.33558879625564
 20
0.2299725149431896
 30
0.0
 10
17.31704487699835
 20
0.2584470783461337
 30
0.0
  0
LINE
  5
2C0
330
23E
100
AcDbEntity
  8
0
  6
Continuous
 62
     1
370
    15
100
AcDbLine
 10
17.31704487699826
 20
0.2584470783462958
 30
0.0
 11
17.75692193816528
 21
0.0000000000000006
 31
0.0
  0
LINE
  5
2C1
330
23E
100
AcDbEntity
  8
0
  6
Continuous
 62
     1
370
    15
100
AcDbLine
 10
17.75692193816528
 20
0.0000000000000006
 30
0.0
 11
17.75692193816528
 21
-0.1603457676177865
 31
0.0
  0
SPLINE
  5
2C2
330
23E
100
AcDbEntity
  8
0
  6
Continuous
 62
     1
370
    15
100
AcDbSpline
210
0.0
220
0.0
230
1.0
 70
     8
 71
     3
 72
    10
 73
     6
 74
     0
 42
0.000000001
 43
0.00000001
 40
0.0
 40
0.0
 40
0.0
 40
0.0
 40
0.5
 40
0.5
 40
1.0
 40
1.0
 40
1.0
 40
1.0
 10
17.75692193816528
 20
-0.1603457676177865
 30
0.0
 10
17.69275469289065
 20
-0.1098972315735149
 30
0.0
 10
17.62965874213104
 20
-0.0573804124854458
 30
0.0
 10
17.50565430694491
 20
0.0518764336530326
 30
0.0
 10
17.44416388073449
 20
0.1091869254762083
 30
0.0
 10
17.38618493464842
 20
0.167299481727904
 30
0.0
  0
SPLINE
  5
2C3
330
23E
100
AcDbEntity
  8
0
  6
Continuous
 62
   131
370
    15
100
AcDbSpline
210
0.0
220
0.0
230
1.0
 70
    24
 71
     3
 72
    10
 73
     6
 74
     0
 42
0.000000001
 43
0.00000001
 40
0.0
 40
0.0
 40
0.0
 40
0.0
 40
0.5
 40
0.5
 40
1.0
 40
1.0
 40
1.0
 40
1.0
 10
11.75692193816527
 20
-0.2344643203056387
 30
0.0
 10
11.75692193816527
 20
-0.309452525643498
 30
0.0
 10
11.75692193816527
 20
-0.3761262647589961
 30
0.0
 10
11.75692193816527
 20
-0.4709563573854301
 30
0.0
 10
11.75692193816527
 20
-0.4987045251060161
 30
0.0
 10
11.75692193816527
 20
-0.5057565932832739
 30
0.0
  0
SPLINE
  5
2C4
330
23E
100
AcDbEntity
  8
0
  6
Continuous
 62
     1
370
    15
100
AcDbSpline
210
0.0
220
0.0
230
1.0
 70
     8
 71
     3
 72
    11
 73
     7
 74
     0
 42
0.000000001
 43
0.00000001
 40
0.0
 40
0.0
 40
0.0
 40
0.0
 40
0.3471684156035499
 40
0.6544139819198386
 40
0.9614919180680978
 40
0.9999999999999999
 40
0.9999999999999999
 40
0.9999999999999999
 40
0.9999999999999999
 10
17.38618493097136
 20
0.16729948332165
 30
0.0
 10
17.2260625128584
 20
0.2336021763213365
 30
0.0
 10
16.92423105434348
 20
0.3585830426322919
 30
0.0
 10
16.48099886551659
 20
0.4595121600097431
 30
0.0
 10
16.18003920345728
 20
0.4957725585182838
 30
0.0
 10
16.02073453386435
 20
0.4748068877472963
 30
0.0
 10
16.00298347639131
 20
0.4724707175159557
 30
0.0
  0
SPLINE
  5
2C5
330
23E
100
AcDbEntity
  8
0
  6
Continuous
 62
     1
370
    15
100
AcDbSpline
210
0.0
220
0.0
230
1.0
 70
     8
 71
     3
 72
    12
 73
     8
 74
     0
 42
0.000000001
 43
0.00000001
 40
0.0
 40
0.0
 40
0.0
 40
0.0
 40
0.0962946424206128
 40
0.3865788410200099
 40
0.6765973108732394
 40
0.9663845309938792
 40
0.9999999999999999
 40
0.9999999999999999
 40
0.9999999999999999
 40
0.9999999999999999
 10
13.22370143257457
 20
-0.4427097963312357
 30
0.0
 10
13.17661647700672
 20
-0.452410376648198
 30
0.0
 10
12.98759196748738
 20
-0.49135375918627
 30
0.0
 10
12.65668366260447
 20
-0.4810359523820205
 30
0.0
 10
12.23137007547121
 20
-0.4070722488195081
 30
0.0
 10
11.93119636057407
 20
-0.3041870449952005
 30
0.0
 10
11.77333095353771
 20
-0.2410291463163976
 30
0.0
 10
11.75692193816527
 20
-0.2344643203056379
 30
0.0
  0
SPLINE
  5
2C6
330
23E
100
AcDbEntity
  8
0
  6
Continuous
 62
     1
370
    15
100
AcDbSpline
210
0.0
220
0.0
230
1.0
 70
    24
 71
     3
 72
     8
 73
     4
 74
     0
 42
0.000000001
 43
0.00000001
 40
0.0
 40
0.0
 40
0.0
 40
0.0
 40
1.0
 40
1.0
 40
1.0
 40
1.0
 10
17.75692193816528
 20
-0.4733833586209281
 30
0.0
 10
17.75692193816528
 20
-0.4008063081836357
 30
0.0
 10
17.75692193816528
 20
-0.2876231640437654
 30
0.0
 10
17.75692193816528
 20
-0.1603457676178058
 30
0.0
  0
SPLINE
  5
2C7
330
23E
100
AcDbEntity
  8
0
  6
Continuous
 62
     1
370
    15
100
AcDbSpline
210
0.0
220
0.0
230
1.0
 70
     8
 71
     3
 72
    17
 73
    13
 74
     0
 42
0.000000001
 43
0.00000001
 40
0.0
 40
0.0
 40
0.0
 40
0.0
 40
0.0008953509409954
 40
0.1142365286616675
 40
0.227539159814119
 40
0.3408268666196186
 40
0.4541233867417225
 40
0.567452389646282
 40
0.6808372940752296
 40
0.794301089601399
 40
0.9078661651187101
 40
1.0
 40
1.0
 40
1.0
 40
1.0
 10
16.48427314584501
 20
-0.4511324958344682
 30
0.0
 10
16.48315479270284
 20
-0.4514004825444275
 30
0.0
 10
16.34046573645628
 20
-0.4855925183948351
 30
0.0
 10
16.05628437970645
 20
-0.4871168109726089
 30
0.0
 10
15.63173582282399
 20
-0.4405966138276238
 30
0.0
 10
15.20725472987754
 20
-0.3130422024933276
 30
0.0
 10
14.78273512201982
 20
-0.1361080151897965
 30
0.0
 10
14.35807840291751
 20
0.0637236167618187
 30
0.0
 10
13.93318419057108
 20
0.2535359732834299
 30
0.0
 10
13.50795841933013
 20
0.3993319677043729
 30
0.0
 10
13.10922272399966
 20
0.4821954303177637
 30
0.0
 10
12.8522250990886
 20
0.4741513415742105
 30
0.0
 10
12.73711424754079
 20
0.4705483436651169
 30
0.0
  0
SPLINE
  5
2C8
330
23E
100
AcDbEntity
  8
0
  6
Continuous
 62
   131
370
    15
100
AcDbSpline
210
0.0
220
0.0
230
1.0
 70
    24
 71
     3
 72
    10
 73
     6
 74
     0
 42
0.000000001
 43
0.00000001
 40
0.0
 40
0.0
 40
0.0
 40
0.0
 40
0.5
 40
0.5
 40
1.0
 40
1.0
 40
1.0
 40
1.0
 10
11.75692193816527
 20
0.3664845162716045
 30
0.0
 10
11.75692193816527
 20
0.2960026311818708
 30
0.0
 10
11.75692193816527
 20
0.2003415816677813
 30
0.0
 10
11.75692193816527
 20
-0.0132702868958964
 30
0.0
 10
11.75692193816527
 20
-0.1295660227632473
 30
0.0
 10
11.75692193816527
 20
-0.2344643203056352
 30
0.0
  0
SPLINE
  5
2C9
330
23E
100
AcDbEntity
  8
0
  6
Continuous
 62
     1
370
    15
100
AcDbSpline
210
0.0
220
0.0
230
1.0
 70
     8
 71
     3
 72
    17
 73
    13
 74
     0
 42
0.000000001
 43
0.00000001
 40
0.0
 40
0.0
 40
0.0
 40
0.0
 40
0.0001559834764821
 40
0.0001559834764821
 40
0.0001559834764821
 40
0.0003119751034137
 40
0.0003119751034137
 40
0.0003119751034137
 40
0.000467981028213
 40
0.000467981028213
 40
0.000467981028213
 40
0.0005970958831878
 40
0.0005970958831878
 40
0.0005970958831878
 40
0.0005970958831878
 10
17.75692193816528
 20
0.420000000000001
 30
0.0
 10
17.71793168213208
 20
0.4093790738715473
 30
0.0
 10
17.67906044232635
 20
0.397977513429384
 30
0.0
 10
17.64035204767976
 20
0.3857250023300555
 30
0.0
 10
17.60164247971539
 20
0.3734721198361178
 30
0.0
 10
17.5630839204772
 20
0.3603657109561816
 30
0.0
 10
17.52473798697972
 20
0.3462986664121643
 30
0.0
 10
17.48639002131325
 20
0.3322308763754893
 30
0.0
 10
17.44823889690608
 20
0.317198784235538
 30
0.0
 10
17.41037822563072
 20
0.3010375402852892
 30
0.0
 10
17.37905323997914
 20
0.2876661256272823
 30
0.0
 10
17.34791421625767
 20
0.2735164591180866
 30
0.0
 10
17.31704487699326
 20
0.258447078350685
 30
0.0
  0
LINE
  5
2CA
330
23E
100
AcDbEntity
  8
0
  6
Continuous
 62
     1
370
    15
100
AcDbLine
 10
17.75692193816528
 20
0.0000000000000006
 30
0.0
 11
17.75692193816528
 21
0.4200000000000008
 31
0.0
  0
LINE
  5
2CB
330
23E
100
AcDbEntity
  8
0
  6
Continuous
 62
   131
370
    15
100
AcDbLine
 10
2.0
 20
2.999999999999997
 30
0.0
 11
2.0
 21
-2.999999999999998
 31
0.0
  0
LINE
  5
2CC
330
23E
100
AcDbEntity
  8
0
  6
Continuous
 62
   131
370
    15
100
AcDbLine
 10
-41.69307806183473
 20
2.999999999999993
 30
0.0
 11
-41.69307806183473
 21
-3.0
 31
0.0
  0
SPLINE
  5
2CD
330
23E
100
AcDbEntity
  8
0
  6
Continuous
 62
   131
370
    15
100
AcDbSpline
210
0.0
220
0.0
230
1.0
 70
     8
 71
     3
 72
    25
 73
    21
 74
     0
 42
0.000000001
 43
0.00000001
 40
0.0
 40
0.0
 40
0.0
 40
0.0
 40
0.0417201495349893
 40
0.0832135714074282
 40
0.1250778607359689
 40
0.1875677682303225
 40
0.2500576757157594
 40
0.3125475831970703
 40
0.3750374906795676
 40
0.4375273981684134
 40
0.500017305667966
 40
0.562507213181228
 40
0.6249971207094662
 40
0.6874870282520505
 40
0.7499769358065338
 40
0.8124668433689634
 40
0.8749567509343792
 40
0.9374466584974434
 40
0.9686433322873885
 40
0.9999999999999999
 40
0.9999999999999999
 40
0.9999999999999999
 40
0.9999999999999999
 10
10.95684712240597
 20
-0.5016072512630605
 30
0.0
 10
10.95684624520405
 20
-0.4878383321185982
 30
0.0
 10
10.95684449556735
 20
-0.4603753208590172
 30
0.0
 10
10.95684226131602
 20
-0.4105891835174609
 30
0.0
 10
10.95684004178913
 20
-0.3463382471368252
 30
0.0
 10
10.95683813409845
 20
-0.2641583231301326
 30
0.0
 10
10.95683690792059
 20
-0.1634704719267888
 30
0.0
 10
10.95683663840317
 20
-0.0575441535000005
 30
0.0
 10
10.95683733409771
 20
0.05021267381833
 30
0.0
 10
10.95683897281607
 20
0.1563686136347399
 30
0.0
 10
10.95684150225956
 20
0.2575340269110668
 30
0.0
 10
10.95684484170726
 20
0.3504808798432416
 30
0.0
 10
10.95684888459358
 20
0.4322433618121068
 30
0.0
 10
10.95685350188334
 20
0.5002104409719691
 30
0.0
 10
10.95685854629102
 20
0.5522199474457344
 30
0.0
 10
10.95686385660072
 20
0.5865866286093048
 30
0.0
 10
10.9568692642308
 20
0.6023089498911856
 30
0.0
 10
10.95687370376151
 20
0.5991607313108456
 30
0.0
 10
10.95687714013366
 20
0.5876127064271724
 30
0.0
 10
10.95687878661806
 20
0.5778647212818327
 30
0.0
 10
10.95687961196588
 20
0.5729782624016561
 30
0.0
  0
LINE
  5
2CE
330
23E
100
AcDbEntity
  8
0
  6
Continuous
 62
   131
370
    15
100
AcDbLine
 10
10.95692193816527
 20
-0.5016086246719874
 30
0.0
 11
10.95692193816527
 21
-0.5730009302872849
 31
0.0
  0
LINE
  5
2CF
330
23E
100
AcDbEntity
  8
0
  6
Continuous
 62
   131
370
    15
100
AcDbLine
 10
10.95687961196588
 20
-0.5729782624016565
 30
0.0
 11
10.95687618825549
 21
-0.5949635757489466
 31
0.0
  0
LINE
  5
2D0
330
23E
100
AcDbEntity
  8
0
  6
Continuous
 62
   131
370
    15
100
AcDbLine
 10
-42.24307806183472
 20
2.449999999999993
 30
0.0
 11
-42.24307806183472
 21
-2.450000000000002
 31
0.0
  0
SPLINE
  5
2D1
330
23E
100
AcDbEntity
  8
0
  6
Continuous
 62
   131
370
    15
100
AcDbSpline
210
0.0
220
0.0
230
1.0
 70
    24
 71
     3
 72
     8
 73
     4
 74
     0
 42
0.000000001
 43
0.00000001
 40
0.0
 40
0.0
 40
0.0
 40
0.0
 40
1.0
 40
1.0
 40
1.0
 40
1.0
 10
10.95687962856556
 20
0.5730096434949296
 30
0.0
 10
10.95687962856556
 20
0.5109839003899653
 30
0.0
 10
10.95687962856556
 20
0.4475494941569163
 30
0.0
 10
10.95687962856556
 20
0.4058981975999115
 30
0.0
  0
SPLINE
  5
2D2
330
23E
100
AcDbEntity
  8
0
  6
Continuous
 62
   131
370
    15
100
AcDbSpline
210
0.0
220
0.0
230
1.0
 70
    24
 71
     3
 72
     8
 73
     4
 74
     0
 42
0.000000001
 43
0.00000001
 40
0.0
 40
0.0
 40
0.0
 40
0.0
 40
1.0
 40
1.0
 40
1.0
 40
1.0
 10
10.95683513009335
 20
-0.4087175291522703
 30
0.0
 10
10.95683513009335
 20
-0.4388702411895413
 30
0.0
 10
10.95683513009335
 20
-0.4700296939361201
 30
0.0
 10
10.95683513009335
 20
-0.5016095451065007
 30
0.0
  0
SPLINE
  5
2D3
330
23E
100
AcDbEntity
  8
0
  6
Continuous
 62
   131
370
    15
100
AcDbSpline
210
0.0
220
0.0
230
1.0
 70
    24
 71
     3
 72
    10
 73
     6
 74
     0
 42
0.000000001
 43
0.00000001
 40
0.0
 40
0.0
 40
0.0
 40
0.0
 40
0.5
 40
0.5
 40
1.0
 40
1.0
 40
1.0
 40
1.0
 10
11.75692193816527
 20
-0.2344643203056387
 30
0.0
 10
11.75692193816527
 20
-0.309452525643498
 30
0.0
 10
11.75692193816527
 20
-0.3761262647589961
 30
0.0
 10
11.75692193816527
 20
-0.4709563573854301
 30
0.0
 10
11.75692193816527
 20
-0.4987045251060161
 30
0.0
 10
11.75692193816527
 20
-0.5057565932832739
 30
0.0
  0
SPLINE
  5
2D4
330
23E
100
AcDbEntity
  8
0
  6
Continuous
 62
   131
370
    15
100
AcDbSpline
210
0.0
220
0.0
230
1.0
 70
     8
 71
     3
 72
    14
 73
    10
 74
     0
 42
0.000000001
 43
0.00000001
 40
0.0
 40
0.0
 40
0.0
 40
0.0
 40
0.2499999999999999
 40
0.2499999999999999
 40
0.4999999999999998
 40
0.4999999999999998
 40
0.7499999999999999
 40
0.7499999999999999
 40
1.0
 40
1.0
 40
1.0
 40
1.0
 10
11.75692193816542
 20
-0.5057565932832647
 30
0.0
 10
11.69068983217797
 20
-0.5099613747361424
 30
0.0
 10
11.62591232881156
 20
-0.5110537135665935
 30
0.0
 10
11.49167066118115
 20
-0.5069313643019038
 30
0.0
 10
11.42363225027016
 20
-0.5016718577988865
 30
0.0
 10
11.28949411599364
 20
-0.4850526785905561
 30
0.0
 10
11.22481736665134
 20
-0.4738127982419916
 30
0.0
 10
11.09218358669482
 20
-0.4454997033130444
 30
0.0
 10
11.02433865928067
 20
-0.4283780784830668
 30
0.0
 10
10.95683513009335
 20
-0.4087175291522703
 30
0.0
  0
SPLINE
  5
2D5
330
23E
100
AcDbEntity
  8
0
  6
Continuous
 62
   131
370
    15
100
AcDbSpline
210
0.0
220
0.0
230
1.0
 70
     8
 71
     3
 72
    14
 73
    10
 74
     0
 42
0.000000001
 43
0.00000001
 40
0.0
 40
0.0
 40
0.0
 40
0.0
 40
0.2500000000000001
 40
0.2500000000000001
 40
0.5000000000000001
 40
0.5000000000000001
 40
0.7500000000000002
 40
0.7500000000000002
 40
1.0
 40
1.0
 40
1.0
 40
1.0
 10
11.75692193816527
 20
-0.2344643203056382
 30
0.0
 10
11.69069214371006
 20
-0.2076403108517323
 30
0.0
 10
11.62591695003552
 20
-0.1795811929994861
 30
0.0
 10
11.4916800952458
 20
-0.1209299898597951
 30
0.0
 10
11.42364408883973
 20
-0.0905313429983105
 30
0.0
 10
11.28951036636302
 20
-0.029274952111442
 30
0.0
 10
11.22483556507608
 20
0.0013557731831425
 30
0.0
 10
11.09220704901241
 20
0.0627265064704026
 30
0.0
 10
11.02436467130585
 20
0.0934467895767088
 30
0.0
 10
10.95686340097975
 20
0.1233439426017986
 30
0.0
  0
SPLINE
  5
2D6
330
23E
100
AcDbEntity
  8
0
  6
Continuous
 62
   131
370
    15
100
AcDbSpline
210
0.0
220
0.0
230
1.0
 70
    24
 71
     3
 72
    10
 73
     6
 74
     0
 42
0.000000001
 43
0.00000001
 40
0.0
 40
0.0
 40
0.0
 40
0.0
 40
0.5
 40
0.5
 40
1.0
 40
1.0
 40
1.0
 40
1.0
 10
11.75692193816527
 20
0.3664845162716045
 30
0.0
 10
11.75692193816527
 20
0.2960026311818708
 30
0.0
 10
11.75692193816527
 20
0.2003415816677813
 30
0.0
 10
11.75692193816527
 20
-0.0132702868958964
 30
0.0
 10
11.75692193816527
 20
-0.1295660227632473
 30
0.0
 10
11.75692193816527
 20
-0.2344643203056352
 30
0.0
  0
SPLINE
  5
2D7
330
23E
100
AcDbEntity
  8
0
  6
Continuous
 62
   131
370
    15
100
AcDbSpline
210
0.0
220
0.0
230
1.0
 70
     8
 71
     3
 72
     9
 73
     5
 74
     0
 42
0.000000001
 43
0.00000001
 40
0.0
 40
0.0
 40
0.0
 40
0.0
 40
0.586021661435659
 40
1.0
 40
1.0
 40
1.0
 40
1.0
 10
11.75692193816528
 20
0.3664845162716024
 30
0.0
 10
11.62346885135658
 20
0.3891928557864229
 30
0.0
 10
11.39574162625409
 20
0.4279428560154053
 30
0.0
 10
11.16806475927462
 20
0.41459018101525
 30
0.0
 10
11.07785903061386
 20
0.4156327062910491
 30
0.0
  0
LINE
  5
2D8
330
23E
100
AcDbEntity
  8
0
  6
Continuous
 62
   131
370
    15
100
AcDbLine
 10
10.96346401479557
 20
-0.5982470558500906
 30
0.0
 11
11.26969535764229
 21
-0.6000000000000001
 31
0.0
  0
SPLINE
  5
2D9
330
23E
100
AcDbEntity
  8
0
  6
Continuous
 62
   131
370
    15
100
AcDbSpline
210
0.0
220
0.0
230
1.0
 70
     8
 71
     3
 72
    14
 73
    10
 74
     0
 42
0.000000001
 43
0.00000001
 40
0.0
 40
0.0
 40
0.0
 40
0.0
 40
0.25
 40
0.25
 40
0.5
 40
0.5
 40
0.75
 40
0.75
 40
1.0
 40
1.0
 40
1.0
 40
1.0
 10
11.75692193816527
 20
-0.589270721223786
 30
0.0
 10
11.69069692991629
 20
-0.5965045855306813
 30
0.0
 10
11.62592651861591
 20
-0.6000959739913977
 30
0.0
 10
11.4916996291853
 20
-0.599900164837305
 30
0.0
 10
11.42366860151622
 20
-0.5960433723503394
 30
0.0
 10
11.28954401418651
 20
-0.5810314779694244
 30
0.0
 10
11.2248732459512
 20
-0.5700019629914462
 30
0.0
 10
11.09225562929191
 20
-0.540937369489131
 30
0.0
 10
11.02441853108891
 20
-0.522842326241175
 30
0.0
 10
10.95692193816527
 20
-0.50162715562603
 30
0.0
  0
SPLINE
  5
2DA
330
23E
100
AcDbEntity
  8
0
  6
Continuous
 62
   131
370
    15
100
AcDbSpline
210
0.0
220
0.0
230
1.0
 70
    24
 71
     3
 72
     8
 73
     4
 74
     0
 42
0.000000001
 43
0.00000001
 40
0.0
 40
0.0
 40
0.0
 40
0.0
 40
1.0
 40
1.0
 40
1.0
 40
1.0
 10
11.75692193816527
 20
-0.5057565932832744
 30
0.0
 10
11.75692193816527
 20
-0.5347025986498988
 30
0.0
 10
11.75692193816527
 20
-0.5627244736351426
 30
0.0
 10
11.75692193816527
 20
-0.5892707212155468
 30
0.0
  0
SPLINE
  5
2DB
330
23E
100
AcDbEntity
  8
0
  6
Continuous
 62
   131
370
    15
100
AcDbSpline
210
0.0
220
0.0
230
1.0
 70
     8
 71
     3
 72
    14
 73
    10
 74
     0
 42
0.000000001
 43
0.00000001
 40
0.0
 40
0.0
 40
0.0
 40
0.0
 40
0.25
 40
0.25
 40
0.5
 40
0.5
 40
0.75
 40
0.75
 40
1.0
 40
1.0
 40
1.0
 40
1.0
 10
10.95687171469764
 20
0.5997632271487444
 30
0.0
 10
11.02462842388374
 20
0.5975056791520981
 30
0.0
 10
11.09225562929184
 20
0.5923734068524172
 30
0.0
 10
11.22487324595114
 20
0.6006508451212931
 30
0.0
 10
11.28954401418647
 20
0.6011212842743239
 30
0.0
 10
11.42366860151619
 20
0.5946440448573528
 30
0.0
 10
11.49169962918528
 20
0.5876467163105882
 30
0.0
 10
11.62592651861591
 20
0.5665171540577905
 30
0.0
 10
11.6906969299163
 20
0.5525285602542072
 30
0.0
 10
11.75692193816529
 20
0.5351540047608161
 30
0.0
  0
SPLINE
  5
2DC
330
23E
100
AcDbEntity
  8
0
  6
Continuous
 62
   131
370
    15
100
AcDbSpline
210
0.0
220
0.0
230
1.0
 70
    24
 71
     3
 72
     8
 73
     4
 74
     0
 42
0.000000001
 43
0.00000001
 40
0.0
 40
0.0
 40
0.0
 40
0.0
 40
1.0
 40
1.0
 40
1.0
 40
1.0
 10
11.75692193816662
 20
0.5351540047603288
 30
0.0
 10
11.75692193816662
 20
0.4902252063909455
 30
0.0
 10
11.75692193816662
 20
0.4252752021562585
 30
0.0
 10
11.75692193816662
 20
0.3664845162713358
 30
0.0
  0
LINE
  5
2DD
330
23E
100
AcDbEntity
  8
0
  6
Continuous
 62
   131
370
    15
100
AcDbLine
 10
11.75692193816527
 20
0.5892707212237855
 30
0.0
 11
11.56010283652988
 21
0.5889101890296836
 31
0.0
  0
LINE
  5
2DE
330
23E
100
AcDbEntity
  8
중심선
 62
     1
100
AcDbLine
 10
-45.24307806183473
 20
-0.000000000000005
 30
0.0
 11
19.25692193816524
 21
-0.0000000000000051
 31
0.0
  0
CIRCLE
  5
2DF
330
23E
100
AcDbEntity
  8
외형선
100
AcDbCircle
 10
0.0
 20
0.0
 30
0.0
 40
3.000000000000005
  0
INSERT
  5
2E0
330
23E
100
AcDbEntity
  8
0
  6
Continuous
 62
     7
100
AcDbBlockReference
 66
     1
  2
블럭10
 10
-22.93944368806589
 20
-52.04609937292004
 30
0.0
  0
ATTRIB
  5
2F7
330
2E0
100
AcDbEntity
  8
FORMAT
 62
     2
100
AcDbText
 10
-39.05870472750145
 20
-49.97073246008785
 30
0.0
 40
4.233333333333333
  1
SEME7001206E [ 2 FLUTE ]
 41
0.75
  7
SLDTEXTSTYLE0
 11
-39.05870472750145
 21
-52.08739912675452
 31
0.0
100
AcDbAttribute
  2
AUTOATTR0
 70
     0
 74
     1
  0
SEQEND
  5
2F8
330
2E0
100
AcDbEntity
  8
0
  6
Continuous
 62
     7
  0
HATCH
  5
2F9
330
23E
100
AcDbEntity
  8
중심선
100
AcDbHatch
 10
0.0
 20
0.0
 30
0.0
210
0.0
220
0.0
230
1.0
  2
SOLID
 70
     1
 71
     0
 91
        1
 92
        0
 93
        4
 72
     1
 10
-17.22453438368504
 20
-35.7989250712761
 11
-20.67080962752232
 21
-35.7989250712761
 72
     1
 10
-20.67080962752232
 20
-35.7989250712761
 11
-22.79903948672635
 21
-38.3352506518487
 72
     1
 10
-22.79903948672635
 20
-38.3352506518487
 11
-19.35273115777591
 21
-38.33521122254621
 72
     1
 10
-19.35273115777591
 20
-38.33521122254621
 11
-17.22453438368504
 21
-35.7989250712761
 97
        0
 75
     0
 76
     1
 98
        1
 10
0.0
 20
0.0
  0
HATCH
  5
2FA
330
23E
100
AcDbEntity
  8
중심선
100
AcDbHatch
 10
0.0
 20
0.0
 30
0.0
210
0.0
220
0.0
230
1.0
  2
SOLID
 70
     1
 71
     0
 91
        1
 92
        0
 93
        4
 72
     1
 10
-12.21177039264909
 20
-35.7989250712761
 11
-15.65804563648637
 21
-35.7989250712761
 72
     1
 10
-15.65804563648637
 20
-35.7989250712761
 11
-20.18918364484376
 21
-41.19892507127612
 72
     1
 10
-20.18918364484376
 20
-41.19892507127612
 11
-16.74290840100648
 21
-41.19892507127612
 72
     1
 10
-16.74290840100648
 20
-41.19892507127612
 11
-12.21177039264909
 21
-35.7989250712761
 97
        0
 75
     0
 76
     1
 98
        1
 10
0.0
 20
0.0
  0
HATCH
  5
2FB
330
23E
100
AcDbEntity
  8
중심선
100
AcDbHatch
 10
0.0
 20
0.0
 30
0.0
210
0.0
220
0.0
230
1.0
  2
SOLID
 70
     1
 71
     0
 91
        1
 92
        0
 93
        4
 72
     1
 10
-7.199006401613195
 20
-35.79892507127613
 11
-10.64528164545031
 21
-35.7989250712761
 72
     1
 10
-10.64528164545031
 20
-35.7989250712761
 11
-17.69371854733956
 21
-44.19892507127612
 72
     1
 10
-17.69371854733956
 20
-44.19892507127612
 11
-14.24744330350228
 21
-44.19892507127612
 72
     1
 10
-14.24744330350228
 20
-44.19892507127612
 11
-7.199006401613195
 21
-35.79892507127613
 97
        0
 75
     0
 76
     1
 98
        1
 10
0.0
 20
0.0
  0
HATCH
  5
2FC
330
23E
100
AcDbEntity
  8
중심선
100
AcDbHatch
 10
0.0
 20
0.0
 30
0.0
210
0.0
220
0.0
230
1.0
  2
SOLID
 70
     1
 71
     0
 91
        1
 92
        0
 93
        6
 72
     3
 10
-2.399115970600996
 20
-39.99892507132738
 11
3.960054785062284
 21
1.540882976769353E-10
 40
0.3939339440162627
 50
17.09539180608436
 51
320.0019657685078
 73
     0
 72
     1
 10
-0.7161163149004002
 20
-38.58681907591441
 11
1.589185558800638
 21
-36.65249236586649
 72
     3
 10
-2.399115970653842
 20
-39.99892507127625
 11
6.600054785286829
 21
-1.278976924368180E-13
 40
0.636358354079598
 50
39.99873849337411
 51
368.4976242363724
 73
     1
 72
     1
 10
4.026216521246767
 20
-39.03892507120613
 11
-3.71904866381792
 21
-39.0389250712061
 72
     1
 10
-3.71904866381792
 20
-39.0389250712061
 11
-3.719073708263854
 21
-40.95892507120602
 72
     1
 10
-3.719073708263854
 20
-40.95892507120602
 11
0.7223060612081835
 21
-40.95892507120599
 97
        0
 75
     0
 76
     1
 98
        1
 10
0.0
 20
0.0
  0
DIMENSION
  5
2FD
330
23E
100
AcDbEntity
  8
치수문자_일반주서
100
AcDbDimension
  2
*D9
 10
33.67441999194918
 20
0.5994928891351279
 30
0.0
 11
33.67441999194911
 21
12.67275000000007
 31
0.0
 70
   160
  1
%%c<>
 71
     2
 42
1.198985778270137
 52
-270.0
  3
SLDDIMSTYLE0
100
AcDbAlignedDimension
 13
17.75692193816528
 23
-0.5994928891350684
 33
0.0
 14
17.75692193816528
 24
0.5994928891350688
 34
0.0
 50
90.0000000000002
100
AcDbRotatedDimension
  0
DIMENSION
  5
30D
330
23E
100
AcDbEntity
  8
치수문자_일반주서
100
AcDbDimension
  2
*D10
 10
17.75692193816528
 20
24.23841044024269
 30
0.0
 11
-12.24307806183472
 21
24.23841044024269
 31
0.0
 70
   160
  1
<>
 71
     2
 42
60.0
  3
SLDDIMSTYLE1
100
AcDbAlignedDimension
 13
-42.24307806183472
 23
2.449999999999993
 33
0.0
 14
17.75692193816528
 24
0.5693645215391406
 34
0.0
 50
-0.0000000000000068
100
AcDbRotatedDimension
  0
DIMENSION
  5
31A
330
23E
100
AcDbEntity
  8
치수문자_일반주서
100
AcDbDimension
  2
*D11
 10
17.75692193816528
 20
15.95800728610293
 30
0.0
 11
3.402921938165271
 21
15.95800728610293
 31
0.0
 70
   160
  1
<>
 71
     2
 42
6.000000000000012
  3
SLDDIMSTYLE2
100
AcDbAlignedDimension
 13
11.75692193816527
 23
0.5892707212237857
 33
0.0
 14
17.75692193816528
 24
0.5994928891350687
 34
0.0
 50
0.0000000000076333
100
AcDbRotatedDimension
  0
DIMENSION
  5
32A
330
23E
100
AcDbEntity
  8
치수문자_일반주서
100
AcDbDimension
  2
*D12
 10
-54.23413634322057
 20
-3.000000000000048
 30
0.0
 11
-54.23413634322063
 21
12.66649999999994
 31
0.0
 70
   160
  1
%%c<>
 71
     2
 42
5.999999999999993
 52
-270.0
  3
SLDDIMSTYLE2
100
AcDbAlignedDimension
 13
-41.69307806183473
 23
2.999999999999993
 33
0.0
 14
-41.69307806183473
 24
-3.0
 34
0.0
 50
90.0000000000002
100
AcDbRotatedDimension
  0
INSERT
  5
33A
330
23E
100
AcDbEntity
  8
외형선
100
AcDbBlockReference
  2
SW_DOWELSYMBOL_0
 10
0.0
 20
0.0
 30
0.0
  0
ENDBLK
  5
342
330
23E
100
AcDbEntity
  8
0
100
AcDbBlockEnd
  0
BLOCK
  5
344
330
343
100
AcDbEntity
  8
0
100
AcDbBlockBegin
  2
*D9
 70
     1
 10
0.0
 20
0.0
 30
0.0
  3
*D9
  1
*D9
  0
LINE
  5
346
330
343
100
AcDbEntity
  8
치수문자_일반주서
 62
     0
370
    -2
100
AcDbLine
 10
17.81942193816528
 20
-0.5994928891350682
 30
0.0
 11
33.67441999194919
 21
-0.5994928891350106
 31
0.0
  0
LINE
  5
347
330
343
100
AcDbEntity
  8
치수문자_일반주서
 62
     0
370
    -2
100
AcDbLine
 10
17.81942193816528
 20
0.599492889135069
 30
0.0
 11
33.67441999194918
 21
0.5994928891351279
 31
0.0
  0
LINE
  5
348
330
343
100
AcDbEntity
  8
치수문자_일반주서
 62
     0
370
    -2
100
AcDbLine
 10
33.67441999194918
 20
0.5994928891351279
 30
0.0
 11
33.67441999194907
 21
18.14150000000007
 31
0.0
  0
LINE
  5
349
330
343
100
AcDbEntity
  8
치수문자_일반주서
 62
     0
370
    -2
100
AcDbLine
 10
33.67441999194919
 20
-0.5994928891350106
 30
0.0
 11
33.67441999194918
 21
0.5994928891351279
 31
0.0
  0
LINE
  5
34A
330
343
100
AcDbEntity
  8
치수문자_일반주서
 62
     0
370
    -2
100
AcDbLine
 10
33.67441999194921
 20
-3.901492889135011
 30
0.0
 11
33.67441999194923
 21
-7.203492889135011
 31
0.0
  0
LINE
  5
34B
330
343
100
AcDbEntity
  8
치수문자_일반주서
 62
     0
370
    -2
100
AcDbLine
 10
33.67441999194916
 20
3.901492889135128
 30
0.0
 11
33.67441999194914
 21
7.203492889135128
 31
0.0
  0
SOLID
  5
34C
330
343
100
AcDbEntity
  8
치수문자_일반주서
 62
     0
100
AcDbTrace
 10
34.22475332528254
 20
-3.901492889135008
 30
0.0
 11
33.12408665861587
 21
-3.901492889135014
 31
0.0
 12
33.67441999194919
 22
-0.5994928891350106
 32
0.0
 13
33.67441999194919
 23
-0.5994928891350106
 33
0.0
  0
SOLID
  5
34D
330
343
100
AcDbEntity
  8
치수문자_일반주서
 62
     0
100
AcDbTrace
 10
33.12408665861582
 20
3.901492889135125
 30
0.0
 11
34.22475332528249
 21
3.901492889135131
 31
0.0
 12
33.67441999194918
 22
0.5994928891351279
 32
0.0
 13
33.67441999194918
 23
0.5994928891351279
 33
0.0
  0
MTEXT
  5
34E
330
343
100
AcDbEntity
  8
치수문자_일반주서
 62
     0
100
AcDbMText
 10
29.29941999194911
 20
12.67275000000004
 30
0.0
 40
3.5
 41
0.0
 71
     2
 72
     1
  1
\A1;%%c1.20
  7
SLDTEXTSTYLE0
 11
-5.926198197156693E-15
 21
1.0
 31
0.0
 73
     1
 44
1.0
  0
POINT
  5
34F
330
343
100
AcDbEntity
  8
Defpoints
 62
     0
100
AcDbPoint
 10
17.75692193816528
 20
-0.5994928891350684
 30
0.0
  0
POINT
  5
350
330
343
100
AcDbEntity
  8
Defpoints
 62
     0
100
AcDbPoint
 10
17.75692193816528
 20
0.5994928891350688
 30
0.0
  0
POINT
  5
351
330
343
100
AcDbEntity
  8
Defpoints
 62
     0
100
AcDbPoint
 10
33.67441999194918
 20
0.5994928891351283
 30
0.0
  0
ENDBLK
  5
345
330
343
100
AcDbEntity
  8
0
100
AcDbBlockEnd
  0
BLOCK
  5
353
330
352
100
AcDbEntity
  8
0
100
AcDbBlockBegin
  2
*D10
 70
     1
 10
0.0
 20
0.0
 30
0.0
  3
*D10
  1
*D10
  0
LINE
  5
355
330
352
100
AcDbEntity
  8
치수문자_일반주서
 62
     0
370
    -2
100
AcDbLine
 10
-42.24307806183472
 20
2.512499999999993
 30
0.0
 11
-42.24307806183472
 21
24.23841044024269
 31
0.0
  0
LINE
  5
356
330
352
100
AcDbEntity
  8
치수문자_일반주서
 62
     0
370
    -2
100
AcDbLine
 10
17.75692193816528
 20
0.6318645215391406
 30
0.0
 11
17.75692193816528
 21
24.23841044024269
 31
0.0
  0
LINE
  5
357
330
352
100
AcDbEntity
  8
치수문자_일반주서
 62
     0
370
    -2
100
AcDbLine
 10
-38.94107806183472
 20
24.23841044024269
 30
0.0
 11
14.45492193816528
 21
24.23841044024269
 31
0.0
  0
SOLID
  5
358
330
352
100
AcDbEntity
  8
치수문자_일반주서
 62
     0
100
AcDbTrace
 10
-38.94107806183472
 20
24.78874377357602
 30
0.0
 11
-38.94107806183472
 21
23.68807710690935
 31
0.0
 12
-42.24307806183472
 22
24.23841044024269
 32
0.0
 13
-42.24307806183472
 23
24.23841044024269
 33
0.0
  0
SOLID
  5
359
330
352
100
AcDbEntity
  8
치수문자_일반주서
 62
     0
100
AcDbTrace
 10
14.45492193816528
 20
23.68807710690935
 30
0.0
 11
14.45492193816528
 21
24.78874377357602
 31
0.0
 12
17.75692193816528
 22
24.23841044024269
 32
0.0
 13
17.75692193816528
 23
24.23841044024269
 33
0.0
  0
MTEXT
  5
35A
330
352
100
AcDbEntity
  8
치수문자_일반주서
 62
     0
100
AcDbMText
 10
-12.24307806183472
 20
28.61341044024269
 30
0.0
 40
3.5
 41
0.0
 71
     2
 72
     1
  1
\A1;60
  7
SLDTEXTSTYLE0
 73
     1
 44
1.0
  0
POINT
  5
35B
330
352
100
AcDbEntity
  8
Defpoints
 62
     0
100
AcDbPoint
 10
-42.24307806183472
 20
2.449999999999993
 30
0.0
  0
POINT
  5
35C
330
352
100
AcDbEntity
  8
Defpoints
 62
     0
100
AcDbPoint
 10
17.75692193816528
 20
0.5693645215391406
 30
0.0
  0
POINT
  5
35D
330
352
100
AcDbEntity
  8
Defpoints
 62
     0
100
AcDbPoint
 10
17.75692193816528
 20
24.23841044024269
 30
0.0
  0
ENDBLK
  5
354
330
352
100
AcDbEntity
  8
0
100
AcDbBlockEnd
  0
BLOCK
  5
35F
330
35E
100
AcDbEntity
  8
0
100
AcDbBlockBegin
  2
*D11
 70
     1
 10
0.0
 20
0.0
 30
0.0
  3
*D11
  1
*D11
  0
LINE
  5
361
330
35E
100
AcDbEntity
  8
치수문자_일반주서
 62
     0
370
    -2
100
AcDbLine
 10
11.75692193816527
 20
0.6517707212237857
 30
0.0
 11
11.75692193816527
 21
15.95800728610293
 31
0.0
  0
LINE
  5
362
330
35E
100
AcDbEntity
  8
치수문자_일반주서
 62
     0
370
    -2
100
AcDbLine
 10
17.75692193816528
 20
0.6619928891350687
 30
0.0
 11
17.75692193816528
 21
15.95800728610293
 31
0.0
  0
LINE
  5
363
330
35E
100
AcDbEntity
  8
치수문자_일반주서
 62
     0
370
    -2
100
AcDbLine
 10
11.75692193816527
 20
15.95800728610293
 30
0.0
 11
1.652921938165271
 21
15.95800728610293
 31
0.0
  0
LINE
  5
364
330
35E
100
AcDbEntity
  8
치수문자_일반주서
 62
     0
370
    -2
100
AcDbLine
 10
11.75692193816527
 20
15.95800728610293
 30
0.0
 11
17.75692193816528
 21
15.95800728610293
 31
0.0
  0
LINE
  5
365
330
35E
100
AcDbEntity
  8
치수문자_일반주서
 62
     0
370
    -2
100
AcDbLine
 10
8.45492193816527
 20
15.95800728610293
 30
0.0
 11
5.152921938165271
 21
15.95800728610293
 31
0.0
  0
LINE
  5
366
330
35E
100
AcDbEntity
  8
치수문자_일반주서
 62
     0
370
    -2
100
AcDbLine
 10
21.05892193816528
 20
15.95800728610293
 30
0.0
 11
24.36092193816528
 21
15.95800728610293
 31
0.0
  0
SOLID
  5
367
330
35E
100
AcDbEntity
  8
치수문자_일반주서
 62
     0
100
AcDbTrace
 10
8.45492193816527
 20
15.4076739527696
 30
0.0
 11
8.45492193816527
 21
16.50834061943626
 31
0.0
 12
11.75692193816527
 22
15.95800728610293
 32
0.0
 13
11.75692193816527
 23
15.95800728610293
 33
0.0
  0
SOLID
  5
368
330
35E
100
AcDbEntity
  8
치수문자_일반주서
 62
     0
100
AcDbTrace
 10
21.05892193816528
 20
16.50834061943626
 30
0.0
 11
21.05892193816528
 21
15.4076739527696
 31
0.0
 12
17.75692193816528
 22
15.95800728610293
 32
0.0
 13
17.75692193816528
 23
15.95800728610293
 33
0.0
  0
MTEXT
  5
369
330
35E
100
AcDbEntity
  8
치수문자_일반주서
 62
     0
100
AcDbMText
 10
3.402921938165271
 20
20.33300728610293
 30
0.0
 40
3.5
 41
0.0
 71
     2
 72
     1
  1
\A1;6
  7
SLDTEXTSTYLE0
 73
     1
 44
1.0
  0
POINT
  5
36A
330
35E
100
AcDbEntity
  8
Defpoints
 62
     0
100
AcDbPoint
 10
11.75692193816527
 20
0.5892707212237857
 30
0.0
  0
POINT
  5
36B
330
35E
100
AcDbEntity
  8
Defpoints
 62
     0
100
AcDbPoint
 10
17.75692193816528
 20
0.5994928891350687
 30
0.0
  0
POINT
  5
36C
330
35E
100
AcDbEntity
  8
Defpoints
 62
     0
100
AcDbPoint
 10
17.75692193816528
 20
15.95800728610293
 30
0.0
  0
ENDBLK
  5
360
330
35E
100
AcDbEntity
  8
0
100
AcDbBlockEnd
  0
BLOCK
  5
36E
330
36D
100
AcDbEntity
  8
0
100
AcDbBlockBegin
  2
*D12
 70
     1
 10
0.0
 20
0.0
 30
0.0
  3
*D12
  1
*D12
  0
LINE
  5
370
330
36D
100
AcDbEntity
  8
치수문자_일반주서
 62
     0
370
    -2
100
AcDbLine
 10
-41.75557806183473
 20
2.999999999999992
 30
0.0
 11
-54.23413634322059
 21
2.999999999999945
 31
0.0
  0
LINE
  5
371
330
36D
100
AcDbEntity
  8
치수문자_일반주서
 62
     0
370
    -2
100
AcDbLine
 10
-41.75557806183473
 20
-3.0
 30
0.0
 11
-54.23413634322057
 21
-3.000000000000048
 31
0.0
  0
LINE
  5
372
330
36D
100
AcDbEntity
  8
치수문자_일반주서
 62
     0
370
    -2
100
AcDbLine
 10
-54.23413634322059
 20
2.999999999999945
 30
0.0
 11
-54.23413634322064
 21
15.72899999999994
 31
0.0
  0
LINE
  5
373
330
36D
100
AcDbEntity
  8
치수문자_일반주서
 62
     0
370
    -2
100
AcDbLine
 10
-54.23413634322059
 20
2.999999999999945
 30
0.0
 11
-54.23413634322057
 21
-3.000000000000048
 31
0.0
  0
LINE
  5
374
330
36D
100
AcDbEntity
  8
치수문자_일반주서
 62
     0
370
    -2
100
AcDbLine
 10
-54.23413634322061
 20
6.301999999999945
 30
0.0
 11
-54.23413634322062
 21
9.603999999999944
 31
0.0
  0
LINE
  5
375
330
36D
100
AcDbEntity
  8
치수문자_일반주서
 62
     0
370
    -2
100
AcDbLine
 10
-54.23413634322056
 20
-6.302000000000048
 30
0.0
 11
-54.23413634322054
 21
-9.604000000000047
 31
0.0
  0
SOLID
  5
376
330
36D
100
AcDbEntity
  8
치수문자_일반주서
 62
     0
100
AcDbTrace
 10
-54.78446967655394
 20
6.301999999999943
 30
0.0
 11
-53.68380300988727
 21
6.301999999999946
 31
0.0
 12
-54.23413634322059
 22
2.999999999999945
 32
0.0
 13
-54.23413634322059
 23
2.999999999999945
 33
0.0
  0
SOLID
  5
377
330
36D
100
AcDbEntity
  8
치수문자_일반주서
 62
     0
100
AcDbTrace
 10
-53.68380300988722
 20
-6.302000000000046
 30
0.0
 11
-54.78446967655389
 21
-6.302000000000049
 31
0.0
 12
-54.23413634322057
 22
-3.000000000000048
 32
0.0
 13
-54.23413634322057
 23
-3.000000000000048
 33
0.0
  0
MTEXT
  5
378
330
36D
100
AcDbEntity
  8
치수문자_일반주서
 62
     0
100
AcDbMText
 10
-58.60913634322063
 20
12.66649999999993
 30
0.0
 40
3.5
 41
0.0
 71
     2
 72
     1
  1
\A1;%%c6
  7
SLDTEXTSTYLE0
 11
-3.552713678800505E-15
 21
1.0
 31
0.0
 73
     1
 44
1.0
  0
POINT
  5
379
330
36D
100
AcDbEntity
  8
Defpoints
 62
     0
100
AcDbPoint
 10
-41.69307806183473
 20
2.999999999999993
 30
0.0
  0
POINT
  5
37A
330
36D
100
AcDbEntity
  8
Defpoints
 62
     0
100
AcDbPoint
 10
-41.69307806183473
 20
-3.0
 30
0.0
  0
POINT
  5
37B
330
36D
100
AcDbEntity
  8
Defpoints
 62
     0
100
AcDbPoint
 10
-54.23413634322057
 20
-3.000000000000047
 30
0.0
  0
ENDBLK
  5
36F
330
36D
100
AcDbEntity
  8
0
100
AcDbBlockEnd
  0
BLOCK
  5
435
330
434
100
AcDbEntity
  8
0
100
AcDbBlockBegin
  2
*D13
 70
     1
 10
0.0
 20
0.0
 30
0.0
  3
*D13
  1
*D14
  0
LINE
  5
437
330
434
100
AcDbEntity
  8
치수문자_일반주서
 62
     0
370
    -2
100
AcDbLine
 10
76.42855828138592
 20
9.004507110864978
 30
0.0
 11
92.28355633516975
 21
9.004507110865038
 31
0.0
  0
LINE
  5
438
330
434
100
AcDbEntity
  8
치수문자_일반주서
 62
     0
370
    -2
100
AcDbLine
 10
76.42855828138592
 20
10.20349288913512
 30
0.0
 11
92.28355633516975
 21
10.20349288913518
 31
0.0
  0
LINE
  5
439
330
434
100
AcDbEntity
  8
치수문자_일반주서
 62
     0
370
    -2
100
AcDbLine
 10
92.28355633516975
 20
10.20349288913518
 30
0.0
 11
92.28355633516975
 21
27.74550000000012
 31
0.0
  0
LINE
  5
43A
330
434
100
AcDbEntity
  8
치수문자_일반주서
 62
     0
370
    -2
100
AcDbLine
 10
92.28355633516975
 20
9.004507110865038
 30
0.0
 11
92.28355633516975
 21
10.20349288913518
 31
0.0
  0
LINE
  5
43B
330
434
100
AcDbEntity
  8
치수문자_일반주서
 62
     0
370
    -2
100
AcDbLine
 10
92.28355633516975
 20
5.702507110865039
 30
0.0
 11
92.28355633516975
 21
2.400507110865039
 31
0.0
  0
LINE
  5
43C
330
434
100
AcDbEntity
  8
치수문자_일반주서
 62
     0
370
    -2
100
AcDbLine
 10
92.28355633516975
 20
13.50549288913518
 30
0.0
 11
92.28355633516975
 21
16.80749288913518
 31
0.0
  0
SOLID
  5
43D
330
434
100
AcDbEntity
  8
치수문자_일반주서
 62
     0
100
AcDbTrace
 10
92.83388966850308
 20
5.702507110865039
 30
0.0
 11
91.73322300183642
 21
5.702507110865039
 31
0.0
 12
92.28355633516975
 22
9.004507110865038
 32
0.0
 13
92.28355633516975
 23
9.004507110865038
 33
0.0
  0
SOLID
  5
43E
330
434
100
AcDbEntity
  8
치수문자_일반주서
 62
     0
100
AcDbTrace
 10
91.73322300183642
 20
13.50549288913518
 30
0.0
 11
92.83388966850308
 21
13.50549288913518
 31
0.0
 12
92.28355633516975
 22
10.20349288913518
 32
0.0
 13
92.28355633516975
 23
10.20349288913518
 33
0.0
  0
MTEXT
  5
43F
330
434
100
AcDbEntity
  8
치수문자_일반주서
 62
     0
100
AcDbMText
 10
87.90855633516975
 20
22.27675000000012
 30
0.0
 40
3.5
 41
0.0
 71
     2
 72
     1
  1
\A1;%%c1.20
  7
SLDTEXTSTYLE0
 11
0.0
 21
1.0
 31
0.0
 73
     1
 44
1.0
  0
POINT
  5
440
330
434
100
AcDbEntity
  8
Defpoints
 62
     0
100
AcDbPoint
 10
76.36605828138592
 20
9.004507110864978
 30
0.0
  0
POINT
  5
441
330
434
100
AcDbEntity
  8
Defpoints
 62
     0
100
AcDbPoint
 10
76.36605828138592
 20
10.20349288913512
 30
0.0
  0
POINT
  5
442
330
434
100
AcDbEntity
  8
Defpoints
 62
     0
100
AcDbPoint
 10
92.2835563351698
 20
10.20349288913518
 30
0.0
  0
ENDBLK
  5
436
330
434
100
AcDbEntity
  8
0
100
AcDbBlockEnd
  0
BLOCK
  5
444
330
443
100
AcDbEntity
  8
0
100
AcDbBlockBegin
  2
*D14
 70
     1
 10
0.0
 20
0.0
 30
0.0
  3
*D14
  1
*D15
  0
LINE
  5
446
330
443
100
AcDbEntity
  8
치수문자_일반주서
 62
     0
370
    -2
100
AcDbLine
 10
16.36605828138591
 20
12.11650000000004
 30
0.0
 11
16.36605828138591
 21
33.84241044024274
 31
0.0
  0
LINE
  5
447
330
443
100
AcDbEntity
  8
치수문자_일반주서
 62
     0
370
    -2
100
AcDbLine
 10
76.36605828138592
 20
10.23586452153919
 30
0.0
 11
76.36605828138592
 21
33.84241044024274
 31
0.0
  0
LINE
  5
448
330
443
100
AcDbEntity
  8
치수문자_일반주서
 62
     0
370
    -2
100
AcDbLine
 10
19.66805828138591
 20
33.84241044024274
 30
0.0
 11
73.06405828138591
 21
33.84241044024274
 31
0.0
  0
SOLID
  5
449
330
443
100
AcDbEntity
  8
치수문자_일반주서
 62
     0
100
AcDbTrace
 10
19.66805828138591
 20
34.39274377357607
 30
0.0
 11
19.66805828138591
 21
33.2920771069094
 31
0.0
 12
16.36605828138591
 22
33.84241044024274
 32
0.0
 13
16.36605828138591
 23
33.84241044024274
 33
0.0
  0
SOLID
  5
44A
330
443
100
AcDbEntity
  8
치수문자_일반주서
 62
     0
100
AcDbTrace
 10
73.06405828138591
 20
33.2920771069094
 30
0.0
 11
73.06405828138591
 21
34.39274377357607
 31
0.0
 12
76.36605828138592
 22
33.84241044024274
 32
0.0
 13
76.36605828138592
 23
33.84241044024274
 33
0.0
  0
MTEXT
  5
44B
330
443
100
AcDbEntity
  8
치수문자_일반주서
 62
     0
100
AcDbMText
 10
46.36605828138592
 20
38.21741044024274
 30
0.0
 40
3.5
 41
0.0
 71
     2
 72
     1
  1
\A1;60
  7
SLDTEXTSTYLE0
 73
     1
 44
1.0
  0
POINT
  5
44C
330
443
100
AcDbEntity
  8
Defpoints
 62
     0
100
AcDbPoint
 10
16.36605828138591
 20
12.05400000000004
 30
0.0
  0
POINT
  5
44D
330
443
100
AcDbEntity
  8
Defpoints
 62
     0
100
AcDbPoint
 10
76.36605828138592
 20
10.17336452153919
 30
0.0
  0
POINT
  5
44E
330
443
100
AcDbEntity
  8
Defpoints
 62
     0
100
AcDbPoint
 10
76.36605828138592
 20
33.84241044024274
 30
0.0
  0
ENDBLK
  5
445
330
443
100
AcDbEntity
  8
0
100
AcDbBlockEnd
  0
BLOCK
  5
450
330
44F
100
AcDbEntity
  8
0
100
AcDbBlockBegin
  2
*D15
 70
     1
 10
0.0
 20
0.0
 30
0.0
  3
*D15
  1
*D16
  0
LINE
  5
452
330
44F
100
AcDbEntity
  8
치수문자_일반주서
 62
     0
370
    -2
100
AcDbLine
 10
70.3660582813859
 20
10.25577072122383
 30
0.0
 11
70.3660582813859
 21
25.56200728610298
 31
0.0
  0
LINE
  5
453
330
44F
100
AcDbEntity
  8
치수문자_일반주서
 62
     0
370
    -2
100
AcDbLine
 10
76.36605828138592
 20
10.26599288913512
 30
0.0
 11
76.36605828138592
 21
25.56200728610298
 31
0.0
  0
LINE
  5
454
330
44F
100
AcDbEntity
  8
치수문자_일반주서
 62
     0
370
    -2
100
AcDbLine
 10
70.3660582813859
 20
25.56200728610298
 30
0.0
 11
60.2620582813859
 21
25.56200728610298
 31
0.0
  0
LINE
  5
455
330
44F
100
AcDbEntity
  8
치수문자_일반주서
 62
     0
370
    -2
100
AcDbLine
 10
70.3660582813859
 20
25.56200728610298
 30
0.0
 11
76.36605828138592
 21
25.56200728610298
 31
0.0
  0
LINE
  5
456
330
44F
100
AcDbEntity
  8
치수문자_일반주서
 62
     0
370
    -2
100
AcDbLine
 10
67.0640582813859
 20
25.56200728610298
 30
0.0
 11
63.7620582813859
 21
25.56200728610298
 31
0.0
  0
LINE
  5
457
330
44F
100
AcDbEntity
  8
치수문자_일반주서
 62
     0
370
    -2
100
AcDbLine
 10
79.66805828138592
 20
25.56200728610298
 30
0.0
 11
82.97005828138593
 21
25.56200728610298
 31
0.0
  0
SOLID
  5
458
330
44F
100
AcDbEntity
  8
치수문자_일반주서
 62
     0
100
AcDbTrace
 10
67.0640582813859
 20
25.01167395276964
 30
0.0
 11
67.0640582813859
 21
26.11234061943631
 31
0.0
 12
70.3660582813859
 22
25.56200728610298
 32
0.0
 13
70.3660582813859
 23
25.56200728610298
 33
0.0
  0
SOLID
  5
459
330
44F
100
AcDbEntity
  8
치수문자_일반주서
 62
     0
100
AcDbTrace
 10
79.66805828138592
 20
26.11234061943631
 30
0.0
 11
79.66805828138592
 21
25.01167395276964
 31
0.0
 12
76.36605828138592
 22
25.56200728610298
 32
0.0
 13
76.36605828138592
 23
25.56200728610298
 33
0.0
  0
MTEXT
  5
45A
330
44F
100
AcDbEntity
  8
치수문자_일반주서
 62
     0
100
AcDbMText
 10
62.0120582813859
 20
29.93700728610298
 30
0.0
 40
3.5
 41
0.0
 71
     2
 72
     1
  1
\A1;6
  7
SLDTEXTSTYLE0
 73
     1
 44
1.0
  0
POINT
  5
45B
330
44F
100
AcDbEntity
  8
Defpoints
 62
     0
100
AcDbPoint
 10
70.3660582813859
 20
10.19327072122383
 30
0.0
  0
POINT
  5
45C
330
44F
100
AcDbEntity
  8
Defpoints
 62
     0
100
AcDbPoint
 10
76.36605828138592
 20
10.20349288913512
 30
0.0
  0
POINT
  5
45D
330
44F
100
AcDbEntity
  8
Defpoints
 62
     0
100
AcDbPoint
 10
76.36605828138592
 20
25.56200728610298
 30
0.0
  0
ENDBLK
  5
451
330
44F
100
AcDbEntity
  8
0
100
AcDbBlockEnd
  0
BLOCK
  5
45F
330
45E
100
AcDbEntity
  8
0
100
AcDbBlockBegin
  2
*D16
 70
     1
 10
0.0
 20
0.0
 30
0.0
  3
*D16
  1
*D17
  0
LINE
  5
461
330
45E
100
AcDbEntity
  8
치수문자_일반주서
 62
     0
370
    -2
100
AcDbLine
 10
16.8535582813859
 20
12.60400000000004
 30
0.0
 11
4.375000000000042
 21
12.60399999999999
 31
0.0
  0
LINE
  5
462
330
45E
100
AcDbEntity
  8
치수문자_일반주서
 62
     0
370
    -2
100
AcDbLine
 10
16.8535582813859
 20
6.604000000000047
 30
0.0
 11
4.375000000000063
 21
6.603999999999999
 31
0.0
  0
LINE
  5
463
330
45E
100
AcDbEntity
  8
치수문자_일반주서
 62
     0
370
    -2
100
AcDbLine
 10
4.375000000000042
 20
12.60399999999999
 30
0.0
 11
4.374999999999996
 21
25.33299999999999
 31
0.0
  0
LINE
  5
464
330
45E
100
AcDbEntity
  8
치수문자_일반주서
 62
     0
370
    -2
100
AcDbLine
 10
4.375000000000042
 20
12.60399999999999
 30
0.0
 11
4.375000000000063
 21
6.603999999999999
 31
0.0
  0
LINE
  5
465
330
45E
100
AcDbEntity
  8
치수문자_일반주서
 62
     0
370
    -2
100
AcDbLine
 10
4.37500000000003
 20
15.90599999999999
 30
0.0
 11
4.375000000000019
 21
19.20799999999999
 31
0.0
  0
LINE
  5
466
330
45E
100
AcDbEntity
  8
치수문자_일반주서
 62
     0
370
    -2
100
AcDbLine
 10
4.375000000000075
 20
3.301999999999999
 30
0.0
 11
4.375000000000086
 21
-0.0000000000000009
 31
0.0
  0
SOLID
  5
467
330
45E
100
AcDbEntity
  8
치수문자_일반주서
 62
     0
100
AcDbTrace
 10
3.824666666666697
 20
15.90599999999999
 30
0.0
 11
4.925333333333364
 21
15.90599999999999
 31
0.0
 12
4.375000000000042
 22
12.60399999999999
 32
0.0
 13
4.375000000000042
 23
12.60399999999999
 33
0.0
  0
SOLID
  5
468
330
45E
100
AcDbEntity
  8
치수문자_일반주서
 62
     0
100
AcDbTrace
 10
4.925333333333408
 20
3.302000000000001
 30
0.0
 11
3.824666666666741
 21
3.301999999999997
 31
0.0
 12
4.375000000000063
 22
6.603999999999999
 32
0.0
 13
4.375000000000063
 23
6.603999999999999
 33
0.0
  0
MTEXT
  5
469
330
45E
100
AcDbEntity
  8
치수문자_일반주서
 62
     0
100
AcDbMText
 10
0.0000000000000071
 20
22.27049999999997
 30
0.0
 40
3.5
 41
0.0
 71
     2
 72
     1
  1
\A1;%%c6
  7
SLDTEXTSTYLE0
 11
-3.552713678800506E-15
 21
1.0
 31
0.0
 73
     1
 44
1.0
  0
POINT
  5
46A
330
45E
100
AcDbEntity
  8
Defpoints
 62
     0
100
AcDbPoint
 10
16.9160582813859
 20
12.60400000000004
 30
0.0
  0
POINT
  5
46B
330
45E
100
AcDbEntity
  8
Defpoints
 62
     0
100
AcDbPoint
 10
16.9160582813859
 20
6.604000000000047
 30
0.0
  0
POINT
  5
46C
330
45E
100
AcDbEntity
  8
Defpoints
 62
     0
100
AcDbPoint
 10
4.375000000000064
 20
6.604
 30
0.0
  0
ENDBLK
  5
460
330
45E
100
AcDbEntity
  8
0
100
AcDbBlockEnd
  0
BLOCK
  5
4BC
330
4BB
100
AcDbEntity
  8
0
100
AcDbBlockBegin
  2
*D17
 70
     1
 10
0.0
 20
0.0
 30
0.0
  3
*D17
  1
*D18
  0
LINE
  5
4BE
330
4BB
100
AcDbEntity
  8
치수문자_일반주서
 62
     0
370
    -2
100
AcDbLine
 10
15.81942193816529
 20
-0.6102221679112885
 30
0.0
 11
31.67441999194913
 21
-0.6102221679112301
 31
0.0
  0
LINE
  5
4BF
330
4BB
100
AcDbEntity
  8
치수문자_일반주서
 62
     0
370
    -2
100
AcDbLine
 10
15.81942193816529
 20
0.58876361035885
 30
0.0
 11
31.67441999194913
 21
0.5887636103589085
 31
0.0
  0
LINE
  5
4C0
330
4BB
100
AcDbEntity
  8
치수문자_일반주서
 62
     0
370
    -2
100
AcDbLine
 10
31.67441999194913
 20
0.5887636103589085
 30
0.0
 11
31.67441999194908
 21
18.13077072122385
 31
0.0
  0
LINE
  5
4C1
330
4BB
100
AcDbEntity
  8
치수문자_일반주서
 62
     0
370
    -2
100
AcDbLine
 10
31.67441999194913
 20
-0.6102221679112301
 30
0.0
 11
31.67441999194913
 21
0.5887636103589085
 31
0.0
  0
LINE
  5
4C2
330
4BB
100
AcDbEntity
  8
치수문자_일반주서
 62
     0
370
    -2
100
AcDbLine
 10
31.67441999194914
 20
-3.91222216791123
 30
0.0
 11
31.67441999194915
 21
-7.21422216791123
 31
0.0
  0
LINE
  5
4C3
330
4BB
100
AcDbEntity
  8
치수문자_일반주서
 62
     0
370
    -2
100
AcDbLine
 10
31.67441999194912
 20
3.890763610358908
 30
0.0
 11
31.67441999194911
 21
7.192763610358909
 31
0.0
  0
SOLID
  5
4C4
330
4BB
100
AcDbEntity
  8
치수문자_일반주서
 62
     0
100
AcDbTrace
 10
32.22475332528248
 20
-3.912222167911228
 30
0.0
 11
31.12408665861581
 21
-3.912222167911232
 31
0.0
 12
31.67441999194913
 22
-0.6102221679112301
 32
0.0
 13
31.67441999194913
 23
-0.6102221679112301
 33
0.0
  0
SOLID
  5
4C5
330
4BB
100
AcDbEntity
  8
치수문자_일반주서
 62
     0
100
AcDbTrace
 10
31.12408665861578
 20
3.890763610358907
 30
0.0
 11
32.22475332528245
 21
3.89076361035891
 31
0.0
 12
31.67441999194913
 22
0.5887636103589085
 32
0.0
 13
31.67441999194913
 23
0.5887636103589085
 33
0.0
  0
MTEXT
  5
4C6
330
4BB
100
AcDbEntity
  8
치수문자_일반주서
 62
     0
100
AcDbMText
 10
27.29941999194909
 20
12.66202072122384
 30
0.0
 40
3.5
 41
0.0
 71
     2
 72
     1
  1
\A1;%%c1.20
  7
SLDTEXTSTYLE0
 11
-2.963099098578343E-15
 21
1.0
 31
0.0
 73
     1
 44
1.0
  0
POINT
  5
4C7
330
4BB
100
AcDbEntity
  8
Defpoints
 62
     0
100
AcDbPoint
 10
15.75692193816529
 20
-0.6102221679112887
 30
0.0
  0
POINT
  5
4C8
330
4BB
100
AcDbEntity
  8
Defpoints
 62
     0
100
AcDbPoint
 10
15.75692193816529
 20
0.5887636103588498
 30
0.0
  0
POINT
  5
4C9
330
4BB
100
AcDbEntity
  8
Defpoints
 62
     0
100
AcDbPoint
 10
31.67441999194909
 20
0.5887636103589093
 30
0.0
  0
ENDBLK
  5
4BD
330
4BB
100
AcDbEntity
  8
0
100
AcDbBlockEnd
  0
BLOCK
  5
4CB
330
4CA
100
AcDbEntity
  8
0
100
AcDbBlockBegin
  2
*D18
 70
     1
 10
0.0
 20
0.0
 30
0.0
  3
*D18
  1
*D19
  0
LINE
  5
4CD
330
4CA
100
AcDbEntity
  8
치수문자_일반주서
 62
     0
370
    -2
100
AcDbLine
 10
-44.24307806183471
 20
2.501770721223771
 30
0.0
 11
-44.24307806183471
 21
24.22768116146647
 31
0.0
  0
LINE
  5
4CE
330
4CA
100
AcDbEntity
  8
치수문자_일반주서
 62
     0
370
    -2
100
AcDbLine
 10
15.75692193816529
 20
0.6211352427629215
 30
0.0
 11
15.75692193816529
 21
24.22768116146647
 31
0.0
  0
LINE
  5
4CF
330
4CA
100
AcDbEntity
  8
치수문자_일반주서
 62
     0
370
    -2
100
AcDbLine
 10
-40.94107806183471
 20
24.22768116146647
 30
0.0
 11
12.45492193816529
 21
24.22768116146647
 31
0.0
  0
SOLID
  5
4D0
330
4CA
100
AcDbEntity
  8
치수문자_일반주서
 62
     0
100
AcDbTrace
 10
-40.94107806183471
 20
24.77801449479981
 30
0.0
 11
-40.94107806183471
 21
23.67734782813314
 31
0.0
 12
-44.24307806183471
 22
24.22768116146647
 32
0.0
 13
-44.24307806183471
 23
24.22768116146647
 33
0.0
  0
SOLID
  5
4D1
330
4CA
100
AcDbEntity
  8
치수문자_일반주서
 62
     0
100
AcDbTrace
 10
12.45492193816529
 20
23.67734782813314
 30
0.0
 11
12.45492193816529
 21
24.77801449479981
 31
0.0
 12
15.75692193816529
 22
24.22768116146647
 32
0.0
 13
15.75692193816529
 23
24.22768116146647
 33
0.0
  0
MTEXT
  5
4D2
330
4CA
100
AcDbEntity
  8
치수문자_일반주서
 62
     0
100
AcDbMText
 10
-14.24307806183469
 20
28.60268116146647
 30
0.0
 40
3.5
 41
0.0
 71
     2
 72
     1
  1
\A1;60
  7
SLDTEXTSTYLE0
 73
     1
 44
1.0
  0
POINT
  5
4D3
330
4CA
100
AcDbEntity
  8
Defpoints
 62
     0
100
AcDbPoint
 10
-44.24307806183471
 20
2.439270721223771
 30
0.0
  0
POINT
  5
4D4
330
4CA
100
AcDbEntity
  8
Defpoints
 62
     0
100
AcDbPoint
 10
15.75692193816529
 20
0.5586352427629215
 30
0.0
  0
POINT
  5
4D5
330
4CA
100
AcDbEntity
  8
Defpoints
 62
     0
100
AcDbPoint
 10
15.75692193816529
 20
24.22768116146647
 30
0.0
  0
ENDBLK
  5
4CC
330
4CA
100
AcDbEntity
  8
0
100
AcDbBlockEnd
  0
BLOCK
  5
4D7
330
4D6
100
AcDbEntity
  8
0
100
AcDbBlockBegin
  2
*D19
 70
     1
 10
0.0
 20
0.0
 30
0.0
  3
*D19
  1
*D20
  0
LINE
  5
4D9
330
4D6
100
AcDbEntity
  8
치수문자_일반주서
 62
     0
370
    -2
100
AcDbLine
 10
11.75692193816529
 20
1.157984921548
 30
0.0
 11
11.75692193816529
 21
15.94727800732671
 31
0.0
  0
LINE
  5
4DA
330
4D6
100
AcDbEntity
  8
치수문자_일반주서
 62
     0
370
    -2
100
AcDbLine
 10
15.75692193816529
 20
0.6512636103588498
 30
0.0
 11
15.75692193816529
 21
15.94727800732671
 31
0.0
  0
LINE
  5
4DB
330
4D6
100
AcDbEntity
  8
치수문자_일반주서
 62
     0
370
    -2
100
AcDbLine
 10
11.75692193816529
 20
15.94727800732671
 30
0.0
 11
-0.3470780618347078
 21
15.94727800732671
 31
0.0
  0
LINE
  5
4DC
330
4D6
100
AcDbEntity
  8
치수문자_일반주서
 62
     0
370
    -2
100
AcDbLine
 10
11.75692193816529
 20
15.94727800732671
 30
0.0
 11
15.75692193816529
 21
15.94727800732671
 31
0.0
  0
LINE
  5
4DD
330
4D6
100
AcDbEntity
  8
치수문자_일반주서
 62
     0
370
    -2
100
AcDbLine
 10
8.454921938165292
 20
15.94727800732671
 30
0.0
 11
5.152921938165292
 21
15.94727800732671
 31
0.0
  0
LINE
  5
4DE
330
4D6
100
AcDbEntity
  8
치수문자_일반주서
 62
     0
370
    -2
100
AcDbLine
 10
19.05892193816529
 20
15.94727800732671
 30
0.0
 11
22.36092193816529
 21
15.94727800732671
 31
0.0
  0
SOLID
  5
4DF
330
4D6
100
AcDbEntity
  8
치수문자_일반주서
 62
     0
100
AcDbTrace
 10
8.454921938165292
 20
15.39694467399338
 30
0.0
 11
8.454921938165292
 21
16.49761134066004
 31
0.0
 12
11.75692193816529
 22
15.94727800732671
 32
0.0
 13
11.75692193816529
 23
15.94727800732671
 33
0.0
  0
SOLID
  5
4E0
330
4D6
100
AcDbEntity
  8
치수문자_일반주서
 62
     0
100
AcDbTrace
 10
19.05892193816529
 20
16.49761134066004
 30
0.0
 11
19.05892193816529
 21
15.39694467399338
 31
0.0
 12
15.75692193816529
 22
15.94727800732671
 32
0.0
 13
15.75692193816529
 23
15.94727800732671
 33
0.0
  0
MTEXT
  5
4E1
330
4D6
100
AcDbEntity
  8
치수문자_일반주서
 62
     0
100
AcDbMText
 10
1.402921938165292
 20
20.32227800732671
 30
0.0
 40
3.5
 41
0.0
 71
     2
 72
     1
  1
\A1;4
  7
SLDTEXTSTYLE0
 73
     1
 44
1.0
  0
POINT
  5
4E2
330
4D6
100
AcDbEntity
  8
Defpoints
 62
     0
100
AcDbPoint
 10
11.75692193816529
 20
1.095484921548
 30
0.0
  0
POINT
  5
4E3
330
4D6
100
AcDbEntity
  8
Defpoints
 62
     0
100
AcDbPoint
 10
15.75692193816529
 20
0.5887636103588498
 30
0.0
  0
POINT
  5
4E4
330
4D6
100
AcDbEntity
  8
Defpoints
 62
     0
100
AcDbPoint
 10
15.75692193816529
 20
15.94727800732671
 30
0.0
  0
ENDBLK
  5
4D8
330
4D6
100
AcDbEntity
  8
0
100
AcDbBlockEnd
  0
BLOCK
  5
4E6
330
4E5
100
AcDbEntity
  8
0
100
AcDbBlockBegin
  2
*D20
 70
     1
 10
0.0
 20
0.0
 30
0.0
  3
*D20
  1
*D21
  0
LINE
  5
4E8
330
4E5
100
AcDbEntity
  8
치수문자_일반주서
 62
     0
370
    -2
100
AcDbLine
 10
-43.75557806183472
 20
2.989270721223771
 30
0.0
 11
-56.23413634322057
 21
2.989270721223724
 31
0.0
  0
LINE
  5
4E9
330
4E5
100
AcDbEntity
  8
치수문자_일반주서
 62
     0
370
    -2
100
AcDbLine
 10
-43.75557806183472
 20
-3.010729278776218
 30
0.0
 11
-56.23413634322055
 21
-3.010729278776266
 31
0.0
  0
LINE
  5
4EA
330
4E5
100
AcDbEntity
  8
치수문자_일반주서
 62
     0
370
    -2
100
AcDbLine
 10
-56.23413634322057
 20
2.989270721223724
 30
0.0
 11
-56.23413634322062
 21
15.71827072122373
 31
0.0
  0
LINE
  5
4EB
330
4E5
100
AcDbEntity
  8
치수문자_일반주서
 62
     0
370
    -2
100
AcDbLine
 10
-56.23413634322057
 20
2.989270721223724
 30
0.0
 11
-56.23413634322055
 21
-3.010729278776266
 31
0.0
  0
LINE
  5
4EC
330
4E5
100
AcDbEntity
  8
치수문자_일반주서
 62
     0
370
    -2
100
AcDbLine
 10
-56.23413634322058
 20
6.291270721223723
 30
0.0
 11
-56.2341363432206
 21
9.593270721223723
 31
0.0
  0
LINE
  5
4ED
330
4E5
100
AcDbEntity
  8
치수문자_일반주서
 62
     0
370
    -2
100
AcDbLine
 10
-56.23413634322053
 20
-6.312729278776265
 30
0.0
 11
-56.23413634322052
 21
-9.614729278776265
 31
0.0
  0
SOLID
  5
4EE
330
4E5
100
AcDbEntity
  8
치수문자_일반주서
 62
     0
100
AcDbTrace
 10
-56.78446967655392
 20
6.291270721223722
 30
0.0
 11
-55.68380300988725
 21
6.291270721223725
 31
0.0
 12
-56.23413634322057
 22
2.989270721223724
 32
0.0
 13
-56.23413634322057
 23
2.989270721223724
 33
0.0
  0
SOLID
  5
4EF
330
4E5
100
AcDbEntity
  8
치수문자_일반주서
 62
     0
100
AcDbTrace
 10
-55.6838030098872
 20
-6.312729278776263
 30
0.0
 11
-56.78446967655387
 21
-6.312729278776267
 31
0.0
 12
-56.23413634322055
 22
-3.010729278776266
 32
0.0
 13
-56.23413634322055
 23
-3.010729278776266
 33
0.0
  0
MTEXT
  5
4F0
330
4E5
100
AcDbEntity
  8
치수문자_일반주서
 62
     0
100
AcDbMText
 10
-60.60913634322061
 20
12.65577072122372
 30
0.0
 40
3.5
 41
0.0
 71
     2
 72
     1
  1
\A1;%%c6
  7
SLDTEXTSTYLE0
 11
-3.552713678800507E-15
 21
1.0
 31
0.0
 73
     1
 44
1.0
  0
POINT
  5
4F1
330
4E5
100
AcDbEntity
  8
Defpoints
 62
     0
100
AcDbPoint
 10
-43.69307806183472
 20
2.989270721223772
 30
0.0
  0
POINT
  5
4F2
330
4E5
100
AcDbEntity
  8
Defpoints
 62
     0
100
AcDbPoint
 10
-43.69307806183472
 20
-3.010729278776218
 30
0.0
  0
POINT
  5
4F3
330
4E5
100
AcDbEntity
  8
Defpoints
 62
     0
100
AcDbPoint
 10
-56.23413634322055
 20
-3.010729278776265
 30
0.0
  0
ENDBLK
  5
4E7
330
4E5
100
AcDbEntity
  8
0
100
AcDbBlockEnd
  0
ENDSEC
  0
SECTION
  2
ENTITIES
  0
INSERT
  5
BA
330
1F
100
AcDbEntity
  8
0
  6
Continuous
 62
     7
100
AcDbBlockReference
 66
     1
  2
블럭10
 10
-22.93944368806589
 20
-52.04609937292004
 30
0.0
  0
ATTRIB
  5
BB
330
BA
100
AcDbEntity
  8
FORMAT
 62
     2
100
AcDbText
 10
-39.05870472750145
 20
-49.97073246008785
 30
0.0
 40
4.233333333333333
  1
SEME7001204E [ 2 FLUTE ]
 41
0.75
  7
SLDTEXTSTYLE0
 11
-39.05870472750145
 21
-52.08739912675452
 31
0.0
100
AcDbAttribute
  2
AUTOATTR0
 70
     0
 74
     1
  0
SEQEND
  5
BC
330
BA
100
AcDbEntity
  8
0
  6
Continuous
 62
     7
  0
HATCH
  5
BD
330
1F
100
AcDbEntity
  8
중심선
100
AcDbHatch
 10
0.0
 20
0.0
 30
0.0
210
0.0
220
0.0
230
1.0
  2
SOLID
 70
     1
 71
     0
 91
        1
 92
        0
 93
        4
 72
     1
 10
-17.22453438368504
 20
-35.7989250712761
 11
-20.67080962752232
 21
-35.7989250712761
 72
     1
 10
-20.67080962752232
 20
-35.7989250712761
 11
-22.79903948672635
 21
-38.3352506518487
 72
     1
 10
-22.79903948672635
 20
-38.3352506518487
 11
-19.35273115777591
 21
-38.33521122254621
 72
     1
 10
-19.35273115777591
 20
-38.33521122254621
 11
-17.22453438368504
 21
-35.7989250712761
 97
        0
 75
     0
 76
     1
 98
        1
 10
0.0
 20
0.0
  0
HATCH
  5
BE
330
1F
100
AcDbEntity
  8
중심선
100
AcDbHatch
 10
0.0
 20
0.0
 30
0.0
210
0.0
220
0.0
230
1.0
  2
SOLID
 70
     1
 71
     0
 91
        1
 92
        0
 93
        4
 72
     1
 10
-12.21177039264909
 20
-35.7989250712761
 11
-15.65804563648637
 21
-35.7989250712761
 72
     1
 10
-15.65804563648637
 20
-35.7989250712761
 11
-20.18918364484376
 21
-41.19892507127612
 72
     1
 10
-20.18918364484376
 20
-41.19892507127612
 11
-16.74290840100648
 21
-41.19892507127612
 72
     1
 10
-16.74290840100648
 20
-41.19892507127612
 11
-12.21177039264909
 21
-35.7989250712761
 97
        0
 75
     0
 76
     1
 98
        1
 10
0.0
 20
0.0
  0
HATCH
  5
BF
330
1F
100
AcDbEntity
  8
중심선
100
AcDbHatch
 10
0.0
 20
0.0
 30
0.0
210
0.0
220
0.0
230
1.0
  2
SOLID
 70
     1
 71
     0
 91
        1
 92
        0
 93
        4
 72
     1
 10
-7.199006401613195
 20
-35.79892507127613
 11
-10.64528164545031
 21
-35.7989250712761
 72
     1
 10
-10.64528164545031
 20
-35.7989250712761
 11
-17.69371854733956
 21
-44.19892507127612
 72
     1
 10
-17.69371854733956
 20
-44.19892507127612
 11
-14.24744330350228
 21
-44.19892507127612
 72
     1
 10
-14.24744330350228
 20
-44.19892507127612
 11
-7.199006401613195
 21
-35.79892507127613
 97
        0
 75
     0
 76
     1
 98
        1
 10
0.0
 20
0.0
  0
HATCH
  5
C0
330
1F
100
AcDbEntity
  8
중심선
100
AcDbHatch
 10
0.0
 20
0.0
 30
0.0
210
0.0
220
0.0
230
1.0
  2
SOLID
 70
     1
 71
     0
 91
        1
 92
        0
 93
        6
 72
     3
 10
-2.399115970600996
 20
-39.99892507132738
 11
3.960054785062284
 21
1.540850780301639E-10
 40
0.3939339440162633
 50
17.09539180608433
 51
320.0019657685079
 73
     0
 72
     1
 10
-0.7161163149004002
 20
-38.58681907591441
 11
1.589185558800638
 21
-36.65249236586649
 72
     3
 10
-2.399115970653842
 20
-39.99892507127625
 11
6.600054785286829
 21
-1.249000902703301E-13
 40
0.6363583540795982
 50
39.99873849337408
 51
368.4976242363724
 73
     1
 72
     1
 10
4.026216521246767
 20
-39.03892507120613
 11
-3.71904866381792
 21
-39.0389250712061
 72
     1
 10
-3.71904866381792
 20
-39.0389250712061
 11
-3.719073708263854
 21
-40.95892507120602
 72
     1
 10
-3.719073708263854
 20
-40.95892507120602
 11
0.7223060612081835
 21
-40.95892507120599
 97
        0
 75
     0
 76
     1
 98
        1
 10
0.0
 20
0.0
  0
SPLINE
  5
46E
330
1F
100
AcDbEntity
  8
0
  6
Continuous
 62
     1
370
    15
100
AcDbSpline
210
0.0
220
0.0
230
1.0
 70
     8
 71
     3
 72
     9
 73
     5
 74
     0
 42
0.000000001
 43
0.00000001
 40
0.0
 40
0.0
 40
0.0
 40
0.0
 40
0.5000410076375024
 40
1.0
 40
1.0
 40
1.0
 40
1.0
 10
14.20248564524229
 20
0.1432779144764922
 30
0.0
 10
14.1745566118626
 20
0.1564984310924196
 30
0.0
 10
14.11870312594209
 20
0.1829372959334918
 30
0.0
 10
14.06289143036129
 20
0.2119688064949905
 30
0.0
 10
14.0349878712767
 20
0.2264833712620806
 30
0.0
  0
LINE
  5
470
330
1F
100
AcDbEntity
  8
0
  6
Continuous
 62
     1
370
    15
100
AcDbLine
 10
12.8255958754489
 20
0.5892707212237802
 30
0.0
 11
12.5343160254412
 21
0.5892707212237802
 31
0.0
  0
LINE
  5
471
330
1F
100
AcDbEntity
  8
0
  6
Continuous
 62
     1
370
    15
100
AcDbLine
 10
12.5343160254412
 20
-0.6107292787762191
 30
0.0
 11
12.8255958754489
 21
-0.6107292787762191
 31
0.0
  0
SPLINE
  5
473
330
1F
100
AcDbEntity
  8
0
  6
Continuous
 62
     1
370
    15
100
AcDbSpline
210
0.0
220
0.0
230
1.0
 70
     8
 71
     3
 72
    10
 73
     6
 74
     0
 42
0.000000001
 43
0.00000001
 40
0.0
 40
0.0
 40
0.0
 40
0.0
 40
0.5538559434600022
 40
0.7780369761640493
 40
0.9999999999999999
 40
0.9999999999999999
 40
0.9999999999999999
 40
0.9999999999999999
 10
14.0032074254174
 20
0.4660449487549805
 30
0.0
 10
13.90800227155259
 20
0.4622932897582501
 30
0.0
 10
13.77426148407369
 20
0.4570230936794992
 30
0.0
 10
13.6024087627582
 20
0.4580609435589693
 30
0.0
 10
13.52575031908519
 20
0.4608761598377207
 30
0.0
 10
13.51983673886249
 20
0.4611063413558014
 30
0.0
  0
SPLINE
  5
474
330
1F
100
AcDbEntity
  8
0
  6
Continuous
 62
     1
370
    15
100
AcDbSpline
210
0.0
220
0.0
230
1.0
 70
     8
 71
     3
 72
    10
 73
     6
 74
     0
 42
0.000000001
 43
0.00000001
 40
0.0
 40
0.0
 40
0.0
 40
0.0
 40
0.4474533416384666
 40
0.630162148043064
 40
1.0
 40
1.0
 40
1.0
 40
1.0
 10
13.10077773671929
 20
-0.5100403769207986
 30
0.0
 10
13.2354136321662
 20
-0.4988776684064007
 30
0.0
 10
13.42502545798889
 20
-0.4831568865486702
 30
0.0
 10
13.7257201066125
 20
-0.4772348285847592
 30
0.0
 10
13.8919465436658
 20
-0.4833861933333807
 30
0.0
 10
14.0032074254174
 20
-0.48750350630743
 30
0.0
  0
SPLINE
  5
477
330
1F
100
AcDbEntity
  8
0
  6
Continuous
 62
     1
370
    15
100
AcDbSpline
210
0.0
220
0.0
230
1.0
 70
     8
 71
     3
 72
    10
 73
     6
 74
     0
 42
0.000000001
 43
0.00000001
 40
0.0
 40
0.0
 40
0.0
 40
0.0
 40
0.3995320983974935
 40
0.5780905006792517
 40
1.0
 40
1.0
 40
1.0
 40
1.0
 10
15.4696034899943
 20
0.3933682580609918
 30
0.0
 10
15.3423220668622
 20
0.3880762880684792
 30
0.0
 10
15.15815618401899
 20
0.3804192372462296
 30
0.0
 10
14.8233163551226
 20
0.3950190740484416
 30
0.0
 10
14.62411759318279
 20
0.421849185271391
 30
0.0
 10
14.4841536589059
 20
0.4407009486422311
 30
0.0
  0
SPLINE
  5
478
330
1F
100
AcDbEntity
  8
0
  6
Continuous
 62
     1
370
    15
100
AcDbSpline
210
0.0
220
0.0
230
1.0
 70
     8
 71
     3
 72
     9
 73
     5
 74
     0
 42
0.000000001
 43
0.00000001
 40
0.0
 40
0.0
 40
0.0
 40
0.0
 40
0.7247674845764575
 40
1.0
 40
1.0
 40
1.0
 40
1.0
 10
14.4841536589059
 20
-0.4621595061946699
 30
0.0
 10
14.5932132189585
 20
-0.4467373185840202
 30
0.0
 10
14.7436884573949
 20
-0.4254585113267488
 30
0.0
 10
14.89340315794469
 20
-0.4154743475625899
 30
0.0
 10
14.9346095115728
 20
-0.4127263810553785
 30
0.0
  0
SPLINE
  5
479
330
1F
100
AcDbEntity
  8
0
  6
Continuous
 62
     1
370
    15
100
AcDbSpline
210
0.0
220
0.0
230
1.0
 70
     8
 71
     3
 72
     9
 73
     5
 74
     0
 42
0.000000001
 43
0.00000001
 40
0.0
 40
0.0
 40
0.0
 40
0.0
 40
0.4644565684404406
 40
0.488051310238846
 40
0.488051310238846
 40
0.488051310238846
 40
0.488051310238846
 10
12.2685189622233
 20
0.3995826811060894
 30
0.0
 10
12.10625635612149
 20
0.3904243878233693
 30
0.0
 10
11.93575068800999
 20
0.3808008463775217
 30
0.0
 10
11.76516885264219
 20
0.3867163457219895
 30
0.0
 10
11.75692193816529
 20
0.38703704739941
 30
0.0
  0
LINE
  5
47A
330
1F
100
AcDbEntity
  8
0
  6
Continuous
 62
   131
370
    15
100
AcDbLine
 10
2.040042213521488
 20
2.989270721223772
 30
0.0
 11
-43.69307806183472
 21
2.989270721223772
 31
0.0
  0
LINE
  5
47C
330
1F
100
AcDbEntity
  8
0
  6
Continuous
 62
   131
370
    15
100
AcDbLine
 10
2.040042213521488
 20
-3.010729278776218
 30
0.0
 11
10.96346401479559
 21
-0.5982470558500985
 31
0.0
  0
LINE
  5
47D
330
1F
100
AcDbEntity
  8
0
  6
Continuous
 62
   131
370
    15
100
AcDbLine
 10
10.96346401479559
 20
0.5982470558500808
 30
0.0
 11
2.040042213521488
 21
2.989270721223772
 31
0.0
  0
LINE
  5
47E
330
1F
100
AcDbEntity
  8
0
  6
Continuous
 62
   131
370
    15
100
AcDbLine
 10
-43.69307806183472
 20
2.989270721223772
 30
0.0
 11
-44.24307806183471
 21
2.439270721223771
 31
0.0
  0
LINE
  5
47F
330
1F
100
AcDbEntity
  8
0
  6
Continuous
 62
   131
370
    15
100
AcDbLine
 10
-44.24307806183471
 20
-2.46072927877622
 30
0.0
 11
-43.69307806183472
 21
-3.010729278776218
 31
0.0
  0
SPLINE
  5
480
330
1F
100
AcDbEntity
  8
0
  6
Continuous
 62
   131
370
    15
100
AcDbSpline
210
0.0
220
0.0
230
1.0
 70
     8
 71
     3
 72
     9
 73
     5
 74
     0
 42
0.000000001
 43
0.00000001
 40
0.0
 40
0.0
 40
0.0
 40
0.0
 40
0.4996168970101231
 40
1.0
 40
1.0
 40
1.0
 40
1.0
 10
11.07785903061389
 20
0.4156327062910492
 30
0.0
 10
11.05771552124089
 20
0.413903074867001
 30
0.0
 10
11.0173976106708
 20
0.4104411594786406
 30
0.0
 10
10.9770554569686
 20
0.4075957072395298
 30
0.0
 10
10.9568689249178
 20
0.4061718910187118
 30
0.0
  0
LINE
  5
481
330
1F
100
AcDbEntity
  8
0
  6
Continuous
 62
   131
370
    15
100
AcDbLine
 10
11.26969535764229
 20
-0.6000000000000085
 30
0.0
 11
11.56010283652989
 21
-0.6000000000000085
 31
0.0
  0
LINE
  5
482
330
1F
100
AcDbEntity
  8
0
  6
Continuous
 62
   131
370
    15
100
AcDbLine
 10
11.56622476864909
 20
0.5889214031526997
 30
0.0
 11
11.2757969960461
 21
0.5999999999999908
 31
0.0
  0
SPLINE
  5
483
330
1F
100
AcDbEntity
  8
0
  6
Continuous
 62
     1
370
    15
100
AcDbSpline
210
0.0
220
0.0
230
1.0
 70
     8
 71
     3
 72
    18
 73
    14
 74
     0
 42
0.000000001
 43
0.00000001
 40
0.0612755277683561
 40
0.0612755277683561
 40
0.0612755277683561
 40
0.0612755277683561
 40
0.128105485035653
 40
0.2130748818450318
 40
0.2980452565024095
 40
0.3830181257076827
 40
0.4679889696505047
 40
0.5529580772839926
 40
0.6379297473090642
 40
0.7229020016790068
 40
0.8078726963118111
 40
0.9022830987187689
 40
1.0
 40
1.0
 40
1.0
 40
1.0
 10
11.75692193816529
 20
0.5443449287519719
 30
0.0
 10
11.8994743110986
 20
0.5833790189299819
 30
0.0
 10
12.2340816929095
 20
0.5716682174921104
 30
0.0
 10
12.5550139445628
 20
0.6006354795155389
 30
0.0
 10
12.9012544609171
 20
0.5628984899072904
 30
0.0
 10
13.24679154574309
 20
0.4628146452369499
 30
0.0
 10
13.5921792877017
 20
0.3101547119510997
 30
0.0
 10
13.93776974203949
 20
0.1225227080229203
 30
0.0
 10
14.2839995618895
 20
-0.0784686244830581
 30
0.0
 10
14.62947210509799
 20
-0.2737578864605403
 30
0.0
 10
14.98763077167739
 20
-0.444918057805431
 30
0.0
 10
15.3635202857767
 20
-0.5757134213916579
 30
0.0
 10
15.6242920985093
 20
-0.598588028883551
 30
0.0
 10
15.75692193816529
 20
-0.6102221679112887
 30
0.0
  0
SPLINE
  5
484
330
1F
100
AcDbEntity
  8
0
  6
Continuous
 62
     1
370
    15
100
AcDbSpline
210
0.0
220
0.0
230
1.0
 70
     8
 71
     3
 72
    13
 73
     9
 74
     0
 42
0.000000001
 43
0.00000001
 40
0.0
 40
0.0
 40
0.0
 40
0.0
 40
0.1036378975103456
 40
0.3164144360913296
 40
0.5291621970835797
 40
0.7419269556006383
 40
0.954754354283065
 40
1.0
 40
1.0
 40
1.0
 40
1.0
 10
14.26301694690609
 20
-0.0655941904953607
 30
0.0
 10
14.19409029740679
 20
-0.0382132320678679
 30
0.0
 10
13.98365195914549
 20
0.0453829304228819
 30
0.0
 10
13.63173957103069
 20
0.1864303320603717
 30
0.0
 10
13.2072563502438
 20
0.3237489781568215
 30
0.0
 10
12.78273466046849
 20
0.4008660291353223
 30
0.0
 10
12.46960491478899
 20
0.4229485611332713
 30
0.0
 10
12.29796101841289
 20
0.3982098102018696
 30
0.0
 10
12.2685189622233
 20
0.3995826811060894
 30
0.0
  0
SPLINE
  5
486
330
1F
100
AcDbEntity
  8
0
  6
Continuous
 62
     1
370
    15
100
AcDbSpline
210
0.0
220
0.0
230
1.0
 70
     8
 71
     3
 72
    10
 73
     6
 74
     0
 42
0.000000001
 43
0.00000001
 40
0.0
 40
0.0
 40
0.0
 40
0.0
 40
0.047972264383511
 40
0.5157939633129331
 40
1.0
 40
1.0
 40
1.0
 40
1.0
 10
14.93554944002919
 20
0.3917113944918817
 30
0.0
 10
14.9486687207111
 20
0.3979683263258806
 30
0.0
 10
15.08972618101059
 20
0.4652423587341801
 30
0.0
 10
15.36353539641439
 20
0.5516643424398495
 30
0.0
 10
15.62429719284839
 20
0.5762561134391504
 30
0.0
 10
15.75692193816529
 20
0.5887636103588498
 30
0.0
  0
SPLINE
  5
487
330
1F
100
AcDbEntity
  8
0
  6
Continuous
 62
     1
370
    15
100
AcDbSpline
210
0.0
220
0.0
230
1.0
 70
    24
 71
     3
 72
     8
 73
     4
 74
     0
 42
0.000000001
 43
0.00000001
 40
0.0
 40
0.0
 40
0.0
 40
0.0
 40
1.0
 40
1.0
 40
1.0
 40
1.0
 10
15.75692193816529
 20
0.4092707212237805
 30
0.0
 10
15.75692193816529
 20
0.4601894293925604
 30
0.0
 10
15.75692193816529
 20
0.5286659550477601
 30
0.0
 10
15.75692193816529
 20
0.5887636103615712
 30
0.0
  0
LINE
  5
488
330
1F
100
AcDbEntity
  8
0
  6
Continuous
 62
     1
370
    15
100
AcDbLine
 10
15.75692193816529
 20
0.4092707212237805
 30
0.0
 11
15.4683180176789
 21
0.3857674968668618
 31
0.0
  0
SPLINE
  5
48A
330
1F
100
AcDbEntity
  8
0
  6
Continuous
 62
   131
370
    15
100
AcDbSpline
210
0.0
220
0.0
230
1.0
 70
    24
 71
     3
 72
     8
 73
     4
 74
     0
 42
0.000000001
 43
0.00000001
 40
0.0
 40
0.0
 40
0.0
 40
0.0
 40
1.0
 40
1.0
 40
1.0
 40
1.0
 10
11.7569219381667
 20
0.5351540047603294
 30
0.0
 10
11.7569219381667
 20
0.4902252063909422
 30
0.0
 10
11.7569219381667
 20
0.42527520215625
 30
0.0
 10
11.7569219381667
 20
0.3664845162713313
 30
0.0
  0
SPLINE
  5
48B
330
1F
100
AcDbEntity
  8
0
  6
Continuous
 62
     1
370
    15
100
AcDbSpline
210
0.0
220
0.0
230
1.0
 70
     8
 71
     3
 72
    14
 73
    10
 74
     0
 42
0.000000001
 43
0.00000001
 40
0.0
 40
0.0
 40
0.0
 40
0.0
 40
0.1451948801020648
 40
0.2902607075201315
 40
0.4352243001863607
 40
0.5801132400826973
 40
0.7249556721186093
 40
0.8697800940392029
 40
1.0
 40
1.0
 40
1.0
 40
1.0
 10
15.75692193816529
 20
-0.5800938003153604
 30
0.0
 10
15.61499692933259
 20
-0.5449911174493991
 30
0.0
 10
15.33127305801149
 20
-0.4748169518220386
 30
0.0
 10
14.9059494547124
 20
-0.2677265378512281
 30
0.0
 10
14.4809781572409
 20
-0.0252157767421402
 30
0.0
 10
14.05627079489119
 20
0.2220752019195515
 30
0.0
 10
13.6317257934046
 20
0.4280898820804602
 30
0.0
 10
13.2215240436541
 20
0.5660135745862398
 30
0.0
 10
12.95281590753039
 20
0.578741960879622
 30
0.0
 10
12.8255958754489
 20
0.5847682231876803
 30
0.0
  0
SPLINE
  5
48D
330
1F
100
AcDbEntity
  8
0
  6
Continuous
 62
   131
370
    15
100
AcDbSpline
210
0.0
220
0.0
230
1.0
 70
    24
 71
     3
 72
     8
 73
     4
 74
     0
 42
0.000000001
 43
0.00000001
 40
0.0
 40
0.0
 40
0.0
 40
0.0
 40
1.0
 40
1.0
 40
1.0
 40
1.0
 10
11.75692193816529
 20
-0.5057565932832802
 30
0.0
 10
11.75692193816529
 20
-0.5347025986499006
 30
0.0
 10
11.75692193816529
 20
-0.56272447363515
 30
0.0
 10
11.75692193816529
 20
-0.5892707212155486
 30
0.0
  0
SPLINE
  5
48E
330
1F
100
AcDbEntity
  8
0
  6
Continuous
 62
     1
370
    15
100
AcDbSpline
210
0.0
220
0.0
230
1.0
 70
     8
 71
     3
 72
    11
 73
     7
 74
     0
 42
0.000000001
 43
0.00000001
 40
0.0
 40
0.0
 40
0.0
 40
0.0
 40
0.2718246954556513
 40
0.5433970412055295
 40
0.8147694512103015
 40
1.0
 40
1.0
 40
1.0
 40
1.0
 10
15.75692193816529
 20
-0.4841126373971498
 30
0.0
 10
15.6149981155871
 20
-0.4504624502416696
 30
0.0
 10
15.33128222606399
 20
-0.383193315236678
 30
0.0
 10
14.90595652739839
 20
-0.2006767774844889
 30
0.0
 10
14.5258683706808
 20
-0.0115738714126685
 30
0.0
 10
14.2875570235795
 20
0.1003306927455618
 30
0.0
 10
14.19088103680329
 20
0.1457271218134402
 30
0.0
  0
LINE
  5
490
330
1F
100
AcDbEntity
  8
0
  6
Continuous
 62
     1
370
    15
100
AcDbLine
 10
15.75692193816529
 20
-0.5800938003153604
 30
0.0
 11
15.75692193816529
 21
-0.4841126373971498
 31
0.0
  0
SPLINE
  5
491
330
1F
100
AcDbEntity
  8
0
  6
Continuous
 62
     1
370
    15
100
AcDbSpline
210
0.0
220
0.0
230
1.0
 70
     8
 71
     3
 72
    12
 73
     8
 74
     0
 42
0.000000001
 43
0.00000001
 40
0.0
 40
0.0
 40
0.0
 40
0.0
 40
0.0751529934609971
 40
0.1889709718680266
 40
0.3028197386289927
 40
0.4167214988834992
 40
0.4639916886857646
 40
0.4639916886857646
 40
0.4639916886857646
 40
0.4639916886857646
 10
13.4875393231538
 20
-0.4837577759978409
 30
0.0
 10
13.3941110504982
 20
-0.5161410669827795
 30
0.0
 10
13.15918718824599
 20
-0.5975683220778691
 30
0.0
 10
12.78272634002839
 20
-0.6251330446152892
 30
0.0
 10
12.3580702286194
 20
-0.5666525912631784
 30
0.0
 10
12.0161174674728
 20
-0.4432521427317901
 30
0.0
 10
11.81570334631149
 20
-0.3491401818869484
 30
0.0
 10
11.75692193816529
 20
-0.3200731254988511
 30
0.0
  0
SPLINE
  5
492
330
1F
100
AcDbEntity
  8
0
  6
Continuous
 62
     1
370
    15
100
AcDbSpline
210
0.0
220
0.0
230
1.0
 70
     8
 71
     3
 72
    11
 73
     7
 74
     0
 42
0.000000001
 43
0.00000001
 40
0.0
 40
0.0
 40
0.0
 40
0.0
 40
0.147416305201211
 40
0.342717952293405
 40
0.5381145829990971
 40
0.619207356128999
 40
0.619207356128999
 40
0.619207356128999
 40
0.619207356128999
 10
13.1032646612974
 20
-0.502099031951218
 30
0.0
 10
12.9964307080961
 20
-0.5113595807522593
 30
0.0
 10
12.74805985368769
 20
-0.5328887889214187
 30
0.0
 10
12.35806558726749
 20
-0.4665471067145184
 30
0.0
 10
12.0161145296985
 20
-0.3555686367398891
 30
0.0
 10
11.81570295605439
 20
-0.2727889957587202
 30
0.0
 10
11.75692193816529
 20
-0.2472961752564586
 30
0.0
  0
LINE
  5
493
330
1F
100
AcDbEntity
  8
0
  6
Continuous
 62
     1
370
    15
100
AcDbLine
 10
15.75692193816529
 20
-0.6102221679140101
 30
0.0
 11
15.75692193816529
 21
-0.5800938003153604
 31
0.0
  0
LINE
  5
494
330
1F
100
AcDbEntity
  8
0
  6
Continuous
 62
   131
370
    15
100
AcDbLine
 10
11.75692193816529
 20
0.535154004760841
 30
0.0
 11
11.75692193816529
 21
0.5892707212116193
 31
0.0
  0
SPLINE
  5
495
330
1F
100
AcDbEntity
  8
0
  6
Continuous
 62
     1
370
    15
100
AcDbSpline
210
0.0
220
0.0
230
1.0
 70
     8
 71
     3
 72
     8
 73
     4
 74
     0
 42
0.000000001
 43
0.00000001
 40
0.0
 40
0.0
 40
0.0
 40
0.0
 40
1.0
 40
1.0
 40
1.0
 40
1.0
 10
15.3861849346489
 20
0.1565702029529206
 30
0.0
 10
15.35911888063619
 20
0.1885972123444901
 30
0.0
 10
15.33558879625569
 20
0.2192432361669709
 30
0.0
 10
15.31704487699839
 20
0.2477177995699122
 30
0.0
  0
LINE
  5
496
330
1F
100
AcDbEntity
  8
0
  6
Continuous
 62
     1
370
    15
100
AcDbLine
 10
15.3170448769983
 20
0.2477177995700792
 30
0.0
 11
15.75692193816529
 21
-0.0107292787762177
 31
0.0
  0
LINE
  5
497
330
1F
100
AcDbEntity
  8
0
  6
Continuous
 62
     1
370
    15
100
AcDbLine
 10
15.75692193816529
 20
-0.0107292787762177
 30
0.0
 11
15.75692193816529
 21
-0.1710750463940087
 31
0.0
  0
SPLINE
  5
498
330
1F
100
AcDbEntity
  8
0
  6
Continuous
 62
     1
370
    15
100
AcDbSpline
210
0.0
220
0.0
230
1.0
 70
     8
 71
     3
 72
    10
 73
     6
 74
     0
 42
0.000000001
 43
0.00000001
 40
0.0
 40
0.0
 40
0.0
 40
0.0
 40
0.5
 40
0.5
 40
1.0
 40
1.0
 40
1.0
 40
1.0
 10
15.75692193816529
 20
-0.1710750463940087
 30
0.0
 10
15.6927546928907
 20
-0.1206265103497302
 30
0.0
 10
15.6296587421311
 20
-0.0681096912616681
 30
0.0
 10
15.50565430694489
 20
0.0411471548768105
 30
0.0
 10
15.44416388073449
 20
0.0984576466999911
 30
0.0
 10
15.3861849346484
 20
0.1565702029516807
 30
0.0
  0
SPLINE
  5
499
330
1F
100
AcDbEntity
  8
0
  6
Continuous
 62
   131
370
    15
100
AcDbSpline
210
0.0
220
0.0
230
1.0
 70
    24
 71
     3
 72
    10
 73
     6
 74
     0
 42
0.000000001
 43
0.00000001
 40
0.0
 40
0.0
 40
0.0
 40
0.0
 40
0.5
 40
0.5
 40
1.0
 40
1.0
 40
1.0
 40
1.0
 10
11.75692193816529
 20
-0.2344643203056407
 30
0.0
 10
11.75692193816529
 20
-0.3094525256435006
 30
0.0
 10
11.75692193816529
 20
-0.376126264758998
 30
0.0
 10
11.75692193816529
 20
-0.4709563573854396
 30
0.0
 10
11.75692193816529
 20
-0.4987045251060209
 30
0.0
 10
11.75692193816529
 20
-0.5057565932832802
 30
0.0
  0
SPLINE
  5
49A
330
1F
100
AcDbEntity
  8
0
  6
Continuous
 62
     1
370
    15
100
AcDbSpline
210
0.0
220
0.0
230
1.0
 70
     8
 71
     3
 72
    11
 73
     7
 74
     0
 42
0.000000001
 43
0.00000001
 40
0.0
 40
0.0
 40
0.0
 40
0.0
 40
0.3471684156035499
 40
0.6544139819198386
 40
0.9614919180680978
 40
0.9999999999999999
 40
0.9999999999999999
 40
0.9999999999999999
 40
0.9999999999999999
 10
15.3861849309714
 20
0.1565702045454316
 30
0.0
 10
15.22606251285839
 20
0.2228728975451197
 30
0.0
 10
14.92423105434349
 20
0.3478537638560724
 30
0.0
 10
14.4809988655166
 20
0.4487828812335195
 30
0.0
 10
14.1800392034573
 20
0.4850432797420616
 30
0.0
 10
14.0207345338644
 20
0.4640776089710812
 30
0.0
 10
14.00298347639129
 20
0.4617414387397396
 30
0.0
  0
SPLINE
  5
49C
330
1F
100
AcDbEntity
  8
0
  6
Continuous
 62
     1
370
    15
100
AcDbSpline
210
0.0
220
0.0
230
1.0
 70
    24
 71
     3
 72
     8
 73
     4
 74
     0
 42
0.000000001
 43
0.00000001
 40
0.0
 40
0.0
 40
0.0
 40
0.0
 40
1.0
 40
1.0
 40
1.0
 40
1.0
 10
15.75692193816529
 20
-0.4841126373971498
 30
0.0
 10
15.75692193816529
 20
-0.4115355869598609
 30
0.0
 10
15.75692193816529
 20
-0.2983524428199793
 30
0.0
 10
15.75692193816529
 20
-0.1710750463940194
 30
0.0
  0
SPLINE
  5
49D
330
1F
100
AcDbEntity
  8
0
  6
Continuous
 62
     1
370
    15
100
AcDbSpline
210
0.0
220
0.0
230
1.0
 70
     8
 71
     3
 72
    15
 73
    11
 74
     0
 42
0.000000001
 43
0.00000001
 40
0.0
 40
0.0
 40
0.0
 40
0.0
 40
0.0008953509409954
 40
0.1142365286616675
 40
0.227539159814119
 40
0.3408268666196186
 40
0.4541233867417225
 40
0.567452389646282
 40
0.6808372940752296
 40
0.7278985590732694
 40
0.7278985590732694
 40
0.7278985590732694
 40
0.7278985590732694
 10
14.48427314584499
 20
-0.4618617746106892
 30
0.0
 10
14.48315479270289
 20
-0.4621297613206501
 30
0.0
 10
14.3404657364563
 20
-0.4963217971710598
 30
0.0
 10
14.0562843797065
 20
-0.4978460897488297
 30
0.0
 10
13.631735822824
 20
-0.4513258926038404
 30
0.0
 10
13.20725472987759
 20
-0.3237714812695494
 30
0.0
 10
12.7827351220198
 20
-0.1468372939660192
 30
0.0
 10
12.3580784029175
 20
0.0529943379856022
 30
0.0
 10
12.01612334463489
 20
0.2057554101561614
 30
0.0
 10
11.81570806292069
 20
0.2805638978309197
 30
0.0
 10
11.75692193816529
 20
0.3010828881113596
 30
0.0
  0
SPLINE
  5
49E
330
1F
100
AcDbEntity
  8
0
  6
Continuous
 62
   131
370
    15
100
AcDbSpline
210
0.0
220
0.0
230
1.0
 70
    24
 71
     3
 72
    10
 73
     6
 74
     0
 42
0.000000001
 43
0.00000001
 40
0.0
 40
0.0
 40
0.0
 40
0.0
 40
0.5
 40
0.5
 40
1.0
 40
1.0
 40
1.0
 40
1.0
 10
11.75692193816529
 20
0.3664845162716013
 30
0.0
 10
11.75692193816529
 20
0.2960026311818709
 30
0.0
 10
11.75692193816529
 20
0.2003415816677716
 30
0.0
 10
11.75692193816529
 20
-0.0132702868958994
 30
0.0
 10
11.75692193816529
 20
-0.1295660227632496
 30
0.0
 10
11.75692193816529
 20
-0.2344643203056407
 30
0.0
  0
SPLINE
  5
49F
330
1F
100
AcDbEntity
  8
0
  6
Continuous
 62
     1
370
    15
100
AcDbSpline
210
0.0
220
0.0
230
1.0
 70
     8
 71
     3
 72
    17
 73
    13
 74
     0
 42
0.000000001
 43
0.00000001
 40
0.0
 40
0.0
 40
0.0
 40
0.0
 40
0.0001559834764821
 40
0.0001559834764821
 40
0.0001559834764821
 40
0.0003119751034137
 40
0.0003119751034137
 40
0.0003119751034137
 40
0.000467981028213
 40
0.000467981028213
 40
0.000467981028213
 40
0.0005970958831878
 40
0.0005970958831878
 40
0.0005970958831878
 40
0.0005970958831878
 10
15.75692193816529
 20
0.4092707212237805
 30
0.0
 10
15.71793168213209
 20
0.3986497950953307
 30
0.0
 10
15.67906044232639
 20
0.3872482346531605
 30
0.0
 10
15.6403520476798
 20
0.374995723553841
 30
0.0
 10
15.60164247971539
 20
0.3627428410599016
 30
0.0
 10
15.5630839204772
 20
0.3496364321799597
 30
0.0
 10
15.5247379869797
 20
0.3355693876359389
 30
0.0
 10
15.4863900213133
 20
0.3215015975992692
 30
0.0
 10
15.44823889690609
 20
0.3064695054593223
 30
0.0
 10
15.41037822563069
 20
0.2903082615090717
 30
0.0
 10
15.3790532399792
 20
0.2769368468510613
 30
0.0
 10
15.34791421625769
 20
0.2627871803418707
 30
0.0
 10
15.31704487699329
 20
0.2477177995744704
 30
0.0
  0
LINE
  5
4A0
330
1F
100
AcDbEntity
  8
0
  6
Continuous
 62
     1
370
    15
100
AcDbLine
 10
15.75692193816529
 20
-0.0107292787762177
 30
0.0
 11
15.75692193816529
 21
0.4092707212237805
 31
0.0
  0
LINE
  5
4A1
330
1F
100
AcDbEntity
  8
0
  6
Continuous
 62
   131
370
    15
100
AcDbLine
 10
2.040042213521488
 20
2.989270721223772
 30
0.0
 11
2.040042213521488
 21
-3.010729278776218
 31
0.0
  0
LINE
  5
4A2
330
1F
100
AcDbEntity
  8
0
  6
Continuous
 62
   131
370
    15
100
AcDbLine
 10
-43.69307806183472
 20
2.989270721223772
 30
0.0
 11
-43.69307806183472
 21
-3.010729278776218
 31
0.0
  0
SPLINE
  5
4A3
330
1F
100
AcDbEntity
  8
0
  6
Continuous
 62
   131
370
    15
100
AcDbSpline
210
0.0
220
0.0
230
1.0
 70
     8
 71
     3
 72
    25
 73
    21
 74
     0
 42
0.000000001
 43
0.00000001
 40
0.0
 40
0.0
 40
0.0
 40
0.0
 40
0.0417201495349893
 40
0.0832135714074282
 40
0.1250778607359689
 40
0.1875677682303225
 40
0.2500576757157594
 40
0.3125475831970703
 40
0.3750374906795676
 40
0.4375273981684134
 40
0.500017305667966
 40
0.562507213181228
 40
0.6249971207094662
 40
0.6874870282520505
 40
0.7499769358065338
 40
0.8124668433689634
 40
0.8749567509343792
 40
0.9374466584974434
 40
0.9686433322873885
 40
0.9999999999999999
 40
0.9999999999999999
 40
0.9999999999999999
 40
0.9999999999999999
 10
10.95684712240599
 20
-0.50160725126306
 30
0.0
 10
10.95684624520409
 20
-0.4878383321185993
 30
0.0
 10
10.9568444955674
 20
-0.4603753208590184
 30
0.0
 10
10.9568422613161
 20
-0.4105891835174695
 30
0.0
 10
10.95684004178919
 20
-0.3463382471368277
 30
0.0
 10
10.95683813409849
 20
-0.2641583231301396
 30
0.0
 10
10.95683690792059
 20
-0.1634704719268001
 30
0.0
 10
10.95683663840319
 20
-0.057544153500011
 30
0.0
 10
10.9568373340977
 20
0.0502126738183293
 30
0.0
 10
10.9568389728161
 20
0.15636861363474
 30
0.0
 10
10.95684150225959
 20
0.2575340269110598
 30
0.0
 10
10.95684484170729
 20
0.3504808798432393
 30
0.0
 10
10.9568488845936
 20
0.4322433618121018
 30
0.0
 10
10.9568535018834
 20
0.5002104409719692
 30
0.0
 10
10.9568585462911
 20
0.5522199474457317
 30
0.0
 10
10.95686385660079
 20
0.5865866286093002
 30
0.0
 10
10.95686926423079
 20
0.6023089498911816
 30
0.0
 10
10.95687370376149
 20
0.5991607313108389
 30
0.0
 10
10.9568771401337
 20
0.5876127064271692
 30
0.0
 10
10.95687878661809
 20
0.5778647212818306
 30
0.0
 10
10.95687961196589
 20
0.5729782624016515
 30
0.0
  0
LINE
  5
4A4
330
1F
100
AcDbEntity
  8
0
  6
Continuous
 62
   131
370
    15
100
AcDbLine
 10
10.95692193816529
 20
-0.501608624671988
 30
0.0
 11
10.95692193816529
 21
-0.5730009302872894
 31
0.0
  0
LINE
  5
4A5
330
1F
100
AcDbEntity
  8
0
  6
Continuous
 62
   131
370
    15
100
AcDbLine
 10
10.95687961196589
 20
-0.5729782624016586
 30
0.0
 11
10.95687618825549
 21
-0.5949635757489489
 31
0.0
  0
LINE
  5
4A6
330
1F
100
AcDbEntity
  8
0
  6
Continuous
 62
   131
370
    15
100
AcDbLine
 10
-44.24307806183471
 20
2.439270721223771
 30
0.0
 11
-44.24307806183471
 21
-2.46072927877622
 31
0.0
  0
SPLINE
  5
4A7
330
1F
100
AcDbEntity
  8
0
  6
Continuous
 62
   131
370
    15
100
AcDbSpline
210
0.0
220
0.0
230
1.0
 70
    24
 71
     3
 72
     8
 73
     4
 74
     0
 42
0.000000001
 43
0.00000001
 40
0.0
 40
0.0
 40
0.0
 40
0.0
 40
1.0
 40
1.0
 40
1.0
 40
1.0
 10
10.95687962856559
 20
0.5730096434949203
 30
0.0
 10
10.95687962856559
 20
0.5109839003899594
 30
0.0
 10
10.95687962856559
 20
0.4475494941569096
 30
0.0
 10
10.95687962856559
 20
0.4058981975999103
 30
0.0
  0
SPLINE
  5
4A8
330
1F
100
AcDbEntity
  8
0
  6
Continuous
 62
   131
370
    15
100
AcDbSpline
210
0.0
220
0.0
230
1.0
 70
    24
 71
     3
 72
     8
 73
     4
 74
     0
 42
0.000000001
 43
0.00000001
 40
0.0
 40
0.0
 40
0.0
 40
0.0
 40
1.0
 40
1.0
 40
1.0
 40
1.0
 10
10.9568351300934
 20
-0.4087175291522698
 30
0.0
 10
10.9568351300934
 20
-0.438870241189548
 30
0.0
 10
10.9568351300934
 20
-0.4700296939361195
 30
0.0
 10
10.9568351300934
 20
-0.5016095451065077
 30
0.0
  0
SPLINE
  5
4A9
330
1F
100
AcDbEntity
  8
0
  6
Continuous
 62
   131
370
    15
100
AcDbSpline
210
0.0
220
0.0
230
1.0
 70
    24
 71
     3
 72
    10
 73
     6
 74
     0
 42
0.000000001
 43
0.00000001
 40
0.0
 40
0.0
 40
0.0
 40
0.0
 40
0.5
 40
0.5
 40
1.0
 40
1.0
 40
1.0
 40
1.0
 10
11.75692193816529
 20
-0.2344643203056407
 30
0.0
 10
11.75692193816529
 20
-0.3094525256435006
 30
0.0
 10
11.75692193816529
 20
-0.376126264758998
 30
0.0
 10
11.75692193816529
 20
-0.4709563573854396
 30
0.0
 10
11.75692193816529
 20
-0.4987045251060209
 30
0.0
 10
11.75692193816529
 20
-0.5057565932832802
 30
0.0
  0
SPLINE
  5
4AA
330
1F
100
AcDbEntity
  8
0
  6
Continuous
 62
   131
370
    15
100
AcDbSpline
210
0.0
220
0.0
230
1.0
 70
     8
 71
     3
 72
    14
 73
    10
 74
     0
 42
0.000000001
 43
0.00000001
 40
0.0
 40
0.0
 40
0.0
 40
0.0
 40
0.2499999999999999
 40
0.2499999999999999
 40
0.4999999999999998
 40
0.4999999999999998
 40
0.7499999999999999
 40
0.7499999999999999
 40
1.0
 40
1.0
 40
1.0
 40
1.0
 10
11.75692193816549
 20
-0.5057565932832695
 30
0.0
 10
11.69068983217799
 20
-0.5099613747361502
 30
0.0
 10
11.62591232881159
 20
-0.5110537135666
 30
0.0
 10
11.49167066118119
 20
-0.5069313643019093
 30
0.0
 10
11.42363225027019
 20
-0.5016718577988897
 30
0.0
 10
11.28949411599369
 20
-0.4850526785905593
 30
0.0
 10
11.22481736665139
 20
-0.4738127982420011
 30
0.0
 10
11.0921835866949
 20
-0.4454997033130503
 30
0.0
 10
11.0243386592807
 20
-0.4283780784830782
 30
0.0
 10
10.9568351300934
 20
-0.4087175291522698
 30
0.0
  0
SPLINE
  5
4AB
330
1F
100
AcDbEntity
  8
0
  6
Continuous
 62
   131
370
    15
100
AcDbSpline
210
0.0
220
0.0
230
1.0
 70
     8
 71
     3
 72
    14
 73
    10
 74
     0
 42
0.000000001
 43
0.00000001
 40
0.0
 40
0.0
 40
0.0
 40
0.0
 40
0.2500000000000001
 40
0.2500000000000001
 40
0.5000000000000001
 40
0.5000000000000001
 40
0.7500000000000002
 40
0.7500000000000002
 40
1.0
 40
1.0
 40
1.0
 40
1.0
 10
11.75692193816529
 20
-0.2344643203056407
 30
0.0
 10
11.69069214371009
 20
-0.2076403108517404
 30
0.0
 10
11.62591695003559
 20
-0.179581192999489
 30
0.0
 10
11.4916800952458
 20
-0.1209299898597997
 30
0.0
 10
11.42364408883979
 20
-0.0905313429983181
 30
0.0
 10
11.28951036636309
 20
-0.0292749521114501
 30
0.0
 10
11.22483556507609
 20
0.0013557731831391
 30
0.0
 10
11.0922070490124
 20
0.0627265064704012
 30
0.0
 10
11.02436467130589
 20
0.0934467895766993
 30
0.0
 10
10.9568634009798
 20
0.1233439426017924
 30
0.0
  0
SPLINE
  5
4AC
330
1F
100
AcDbEntity
  8
0
  6
Continuous
 62
   131
370
    15
100
AcDbSpline
210
0.0
220
0.0
230
1.0
 70
    24
 71
     3
 72
    10
 73
     6
 74
     0
 42
0.000000001
 43
0.00000001
 40
0.0
 40
0.0
 40
0.0
 40
0.0
 40
0.5
 40
0.5
 40
1.0
 40
1.0
 40
1.0
 40
1.0
 10
11.75692193816529
 20
0.3664845162716013
 30
0.0
 10
11.75692193816529
 20
0.2960026311818709
 30
0.0
 10
11.75692193816529
 20
0.2003415816677716
 30
0.0
 10
11.75692193816529
 20
-0.0132702868958994
 30
0.0
 10
11.75692193816529
 20
-0.1295660227632496
 30
0.0
 10
11.75692193816529
 20
-0.2344643203056407
 30
0.0
  0
SPLINE
  5
4AD
330
1F
100
AcDbEntity
  8
0
  6
Continuous
 62
   131
370
    15
100
AcDbSpline
210
0.0
220
0.0
230
1.0
 70
     8
 71
     3
 72
     9
 73
     5
 74
     0
 42
0.000000001
 43
0.00000001
 40
0.0
 40
0.0
 40
0.0
 40
0.0
 40
0.586021661435659
 40
1.0
 40
1.0
 40
1.0
 40
1.0
 10
11.75692193816529
 20
0.3664845162716013
 30
0.0
 10
11.62346885135659
 20
0.3891928557864119
 30
0.0
 10
11.39574162625409
 20
0.4279428560154024
 30
0.0
 10
11.1680647592747
 20
0.4145901810152495
 30
0.0
 10
11.07785903061389
 20
0.4156327062910492
 30
0.0
  0
LINE
  5
4AE
330
1F
100
AcDbEntity
  8
0
  6
Continuous
 62
   131
370
    15
100
AcDbLine
 10
10.96346401479559
 20
-0.5982470558500985
 30
0.0
 11
11.26969535764229
 21
-0.6000000000000085
 31
0.0
  0
SPLINE
  5
4AF
330
1F
100
AcDbEntity
  8
0
  6
Continuous
 62
   131
370
    15
100
AcDbSpline
210
0.0
220
0.0
230
1.0
 70
     8
 71
     3
 72
    14
 73
    10
 74
     0
 42
0.000000001
 43
0.00000001
 40
0.0
 40
0.0
 40
0.0
 40
0.0
 40
0.25
 40
0.25
 40
0.5
 40
0.5
 40
0.75
 40
0.75
 40
1.0
 40
1.0
 40
1.0
 40
1.0
 10
11.75692193816529
 20
-0.5892707212237909
 30
0.0
 10
11.6906969299163
 20
-0.5965045855306883
 30
0.0
 10
11.6259265186159
 20
-0.600095973991408
 30
0.0
 10
11.49169962918529
 20
-0.5999001648373081
 30
0.0
 10
11.4236686015163
 20
-0.5960433723503407
 30
0.0
 10
11.28954401418659
 20
-0.5810314779694288
 30
0.0
 10
11.2248732459512
 20
-0.5700019629914479
 30
0.0
 10
11.0922556292919
 20
-0.5409373694891393
 30
0.0
 10
11.0244185310889
 20
-0.5228423262411788
 30
0.0
 10
10.95692193816529
 20
-0.5016271556260392
 30
0.0
  0
SPLINE
  5
4B0
330
1F
100
AcDbEntity
  8
0
  6
Continuous
 62
   131
370
    15
100
AcDbSpline
210
0.0
220
0.0
230
1.0
 70
    24
 71
     3
 72
     8
 73
     4
 74
     0
 42
0.000000001
 43
0.00000001
 40
0.0
 40
0.0
 40
0.0
 40
0.0
 40
1.0
 40
1.0
 40
1.0
 40
1.0
 10
11.75692193816529
 20
-0.5057565932832802
 30
0.0
 10
11.75692193816529
 20
-0.5347025986499006
 30
0.0
 10
11.75692193816529
 20
-0.56272447363515
 30
0.0
 10
11.75692193816529
 20
-0.5892707212155486
 30
0.0
  0
SPLINE
  5
4B1
330
1F
100
AcDbEntity
  8
0
  6
Continuous
 62
   131
370
    15
100
AcDbSpline
210
0.0
220
0.0
230
1.0
 70
     8
 71
     3
 72
    14
 73
    10
 74
     0
 42
0.000000001
 43
0.00000001
 40
0.0
 40
0.0
 40
0.0
 40
0.0
 40
0.25
 40
0.25
 40
0.5
 40
0.5
 40
0.75
 40
0.75
 40
1.0
 40
1.0
 40
1.0
 40
1.0
 10
10.9568717146977
 20
0.5997632271487419
 30
0.0
 10
11.0246284238838
 20
0.5975056791520892
 30
0.0
 10
11.0922556292919
 20
0.5923734068524098
 30
0.0
 10
11.2248732459512
 20
0.6006508451212902
 30
0.0
 10
11.28954401418649
 20
0.6011212842743205
 30
0.0
 10
11.4236686015162
 20
0.5946440448573505
 30
0.0
 10
11.49169962918529
 20
0.5876467163105801
 30
0.0
 10
11.6259265186159
 20
0.5665171540577809
 30
0.0
 10
11.6906969299163
 20
0.5525285602541992
 30
0.0
 10
11.75692193816529
 20
0.535154004760809
 30
0.0
  0
SPLINE
  5
4B2
330
1F
100
AcDbEntity
  8
0
  6
Continuous
 62
   131
370
    15
100
AcDbSpline
210
0.0
220
0.0
230
1.0
 70
    24
 71
     3
 72
     8
 73
     4
 74
     0
 42
0.000000001
 43
0.00000001
 40
0.0
 40
0.0
 40
0.0
 40
0.0
 40
1.0
 40
1.0
 40
1.0
 40
1.0
 10
11.7569219381667
 20
0.5351540047603294
 30
0.0
 10
11.7569219381667
 20
0.4902252063909422
 30
0.0
 10
11.7569219381667
 20
0.42527520215625
 30
0.0
 10
11.7569219381667
 20
0.3664845162713313
 30
0.0
  0
LINE
  5
4B3
330
1F
100
AcDbEntity
  8
0
  6
Continuous
 62
   131
370
    15
100
AcDbLine
 10
11.75692193816529
 20
0.5892707212237802
 30
0.0
 11
11.56010283652989
 21
0.5889101890296793
 31
0.0
  0
LINE
  5
4B4
330
1F
100
AcDbEntity
  8
중심선
 62
     1
100
AcDbLine
 10
-47.24307806183471
 20
-0.0107292787762283
 30
0.0
 11
17.25692193816529
 21
-0.0107292787762283
 31
0.0
  0
CIRCLE
  5
4B5
330
1F
100
AcDbEntity
  8
외형선
100
AcDbCircle
 10
0.0
 20
0.0
 30
0.0
 40
3.000000000000005
  0
DIMENSION
  5
4B6
330
1F
100
AcDbEntity
  8
치수문자_일반주서
100
AcDbDimension
  2
*D17
 10
31.67441999194913
 20
0.5887636103589085
 30
0.0
 11
31.67441999194909
 21
12.66202072122385
 31
0.0
 70
   160
  1
%%c<>
 71
     2
 42
1.198985778270139
 52
-270.0
  3
SLDDIMSTYLE0
100
AcDbAlignedDimension
 13
15.75692193816529
 23
-0.6102221679112887
 33
0.0
 14
15.75692193816529
 24
0.5887636103588498
 34
0.0
 50
90.0000000000002
100
AcDbRotatedDimension
  0
DIMENSION
  5
4B7
330
1F
100
AcDbEntity
  8
치수문자_일반주서
100
AcDbDimension
  2
*D18
 10
15.75692193816529
 20
24.22768116146647
 30
0.0
 11
-14.24307806183469
 21
24.22768116146647
 31
0.0
 70
   160
  1
<>
 71
     2
 42
60.0
  3
SLDDIMSTYLE1
100
AcDbAlignedDimension
 13
-44.24307806183471
 23
2.439270721223771
 33
0.0
 14
15.75692193816529
 24
0.5586352427629215
 34
0.0
 50
-0.0000000000000068
100
AcDbRotatedDimension
  0
DIMENSION
  5
4B8
330
1F
100
AcDbEntity
  8
치수문자_일반주서
100
AcDbDimension
  2
*D19
 10
15.75692193816529
 20
15.94727800732671
 30
0.0
 11
1.402921938165292
 21
15.94727800732671
 31
0.0
 70
   160
  1
<>
 71
     2
 42
3.999999999999932
  3
SLDDIMSTYLE2
100
AcDbAlignedDimension
 13
11.75692193816529
 23
1.095484921548
 33
0.0
 14
15.75692193816529
 24
0.5887636103588498
 34
0.0
 50
0.0000000000076333
100
AcDbRotatedDimension
  0
DIMENSION
  5
4B9
330
1F
100
AcDbEntity
  8
치수문자_일반주서
100
AcDbDimension
  2
*D20
 10
-56.23413634322055
 20
-3.010729278776266
 30
0.0
 11
-56.23413634322061
 21
12.65577072122373
 31
0.0
 70
   160
  1
%%c<>
 71
     2
 42
5.999999999999989
 52
-270.0
  3
SLDDIMSTYLE2
100
AcDbAlignedDimension
 13
-43.69307806183472
 23
2.989270721223772
 33
0.0
 14
-43.69307806183472
 24
-3.010729278776218
 34
0.0
 50
90.0000000000002
100
AcDbRotatedDimension
  0
INSERT
  5
4BA
330
1F
100
AcDbEntity
  8
외형선
100
AcDbBlockReference
  2
SW_DOWELSYMBOL_0
 10
0.0
 20
0.0
 30
0.0
  0
LINE
  5
4F4
330
1F
100
AcDbEntity
  8
0
  6
Continuous
 62
     1
370
    15
100
AcDbLine
 10
11.75692193816529
 20
-0.5739465975645999
 30
0.0
 11
11.75692193816529
 21
0.5892707212237802
 31
0.0
  0
LINE
  5
4FC
330
1F
100
AcDbEntity
  8
0
  6
Continuous
 62
     1
370
    15
100
AcDbLine
 10
12.5343160254412
 20
0.5892707212237802
 30
0.0
 11
11.75692193816529
 21
0.5892707212237802
 31
0.0
  0
SPLINE
  5
4FE
330
1F
100
AcDbEntity
  8
0
  6
Continuous
 62
     1
370
    15
100
AcDbSpline
210
0.0
220
0.0
230
1.0
 70
     8
 71
     3
 72
     9
 73
     5
 74
     0
 42
0.000000001
 43
0.00000001
 40
0.8048277730777871
 40
0.8048277730777871
 40
0.8048277730777871
 40
0.8048277730777871
 40
0.8830330078643466
 40
0.9999999999999999
 40
0.9999999999999999
 40
0.9999999999999999
 40
0.9999999999999999
 10
11.75692193816529
 20
-0.5739465975645999
 30
0.0
 10
11.8414417486068
 20
-0.5930232534850788
 30
0.0
 10
12.24536203148659
 20
-0.5957584216962992
 30
0.0
 10
12.42603716307819
 20
-0.6039520992410878
 30
0.0
 10
12.5343160254412
 20
-0.608862581803379
 30
0.0
  0
LINE
  5
4FF
330
1F
100
AcDbEntity
  8
0
  6
Continuous
 62
   131
370
    15
100
AcDbLine
 10
-43.69307806183472
 20
-3.010729278776218
 30
0.0
 11
2.040042213521488
 21
-3.010729278776218
 31
0.0
  0
ENDSEC
  0
SECTION
  2
OBJECTS
  0
DICTIONARY
  5
C
330
0
100
AcDbDictionary
281
     1
  3
ACAD_GROUP
350
D
  3
ACAD_IMAGE_VARS
350
11E
  3
ACAD_LAYOUT
350
1A
  3
ACAD_MLINESTYLE
350
17
  3
ACAD_PLOTSETTINGS
350
19
  3
ACAD_PLOTSTYLENAME
350
E
  3
ACAD_SCALELIST
350
47
  3
APPDATA
350
11C
  3
DWGPROPS
350
525
  0
DICTIONARY
  5
523
330
1F
100
AcDbDictionary
280
     1
281
     1
  3
DIM_BOUNDING_BOXES_V1
360
524
  0
DICTIONARY
  5
D
102
{ACAD_REACTORS
330
C
102
}
330
C
100
AcDbDictionary
281
     1
  0
RASTERVARIABLES
  5
11E
102
{ACAD_REACTORS
330
C
102
}
330
C
100
AcDbRasterVariables
 90
        0
 70
     1
 71
     1
 72
     1
  0
DICTIONARY
  5
1A
102
{ACAD_REACTORS
330
C
102
}
330
C
100
AcDbDictionary
281
     1
  3
Layout1
350
1E
  3
Layout2
350
26
  3
Model
350
22
  0
DICTIONARY
  5
17
102
{ACAD_REACTORS
330
C
102
}
330
C
100
AcDbDictionary
281
     1
  3
Standard
350
18
  0
DICTIONARY
  5
19
102
{ACAD_REACTORS
330
C
102
}
330
C
100
AcDbDictionary
281
     1
  0
ACDBDICTIONARYWDFLT
  5
E
102
{ACAD_REACTORS
330
C
102
}
330
C
100
AcDbDictionary
281
     1
  3
Normal
350
F
100
AcDbDictionaryWithDefault
340
F
  0
DICTIONARY
  5
47
102
{ACAD_REACTORS
330
C
102
}
330
C
100
AcDbDictionary
281
     1
  3
A0
350
48
  3
A1
350
49
  3
A2
350
4A
  3
A3
350
4B
  3
A4
350
4C
  3
A5
350
4D
  3
A6
350
4E
  3
A7
350
4F
  3
A8
350
50
  3
A9
350
51
  3
B0
350
52
  3
B1
350
53
  3
B2
350
54
  3
B3
350
55
  3
B4
350
56
  3
B5
350
57
  3
B6
350
58
  3
B7
350
59
  3
B8
350
5A
  3
B9
350
5B
  3
C0
350
5C
  3
C1
350
5D
  3
C2
350
5E
  3
C3
350
5F
  3
C4
350
60
  3
C5
350
61
  3
C6
350
62
  3
C7
350
63
  3
C8
350
64
  3
C9
350
65
  3
D0
350
66
  3
D1
350
67
  3
D2
350
68
  0
DICTIONARY
  5
11C
102
{ACAD_REACTORS
330
C
102
}
330
C
100
AcDbDictionary
281
     1
  0
XRECORD
  5
525
102
{ACAD_REACTORS
330
C
102
}
330
C
100
AcDbXrecord
280
     1
  1
DWGPROPS COOKIE
  2

  3

  4

  6

  7

  8
12014102
  9

300
=
301
=
302
=
303
=
304
=
305
=
306
=
307
=
308
=
309
=
 40
0.0
 41
2458262.158096088
 42
2459702.238581366
  1

 90
        0
  0
DICTIONARY
  5
524
102
{ACAD_REACTORS
330
523
102
}
330
523
100
AcDbDictionary
281
     1
  0
LAYOUT
  5
1E
102
{ACAD_REACTORS
330
1A
102
}
330
1A
100
AcDbPlotSettings
  1

  2
none_device
  4

  6

 40
0.0
 41
0.0
 42
0.0
 43
0.0
 44
0.0
 45
0.0
 46
0.0
 47
0.0
 48
0.0
 49
0.0
140
0.0
141
0.0
142
1.0
143
1.0
 70
   688
 72
     1
 73
     0
 74
     5
  7

 75
    16
147
1.0
148
0.0
149
0.0
100
AcDbLayout
  1
Layout1
 70
     1
 71
     1
 10
0.0
 20
0.0
 11
420.0
 21
297.0
 12
0.0
 22
0.0
 32
0.0
 14
1.000000000000000E+20
 24
1.000000000000000E+20
 34
1.000000000000000E+20
 15
-1.000000000000000E+20
 25
-1.000000000000000E+20
 35
-1.000000000000000E+20
146
0.0
 13
0.0
 23
0.0
 33
0.0
 16
1.0
 26
0.0
 36
0.0
 17
0.0
 27
1.0
 37
0.0
 76
     0
330
1B
  0
LAYOUT
  5
26
102
{ACAD_REACTORS
330
1A
102
}
330
1A
100
AcDbPlotSettings
  1

  2
none_device
  4

  6

 40
0.0
 41
0.0
 42
0.0
 43
0.0
 44
0.0
 45
0.0
 46
0.0
 47
0.0
 48
0.0
 49
0.0
140
0.0
141
0.0
142
1.0
143
1.0
 70
   688
 72
     1
 73
     0
 74
     5
  7

 75
    16
147
1.0
148
0.0
149
0.0
100
AcDbLayout
  1
Layout2
 70
     1
 71
     2
 10
0.0
 20
0.0
 11
0.0
 21
0.0
 12
0.0
 22
0.0
 32
0.0
 14
0.0
 24
0.0
 34
0.0
 15
0.0
 25
0.0
 35
0.0
146
0.0
 13
0.0
 23
0.0
 33
0.0
 16
1.0
 26
0.0
 36
0.0
 17
0.0
 27
1.0
 37
0.0
 76
     0
330
23
  0
LAYOUT
  5
22
102
{ACAD_REACTORS
330
1A
102
}
330
1A
100
AcDbPlotSettings
  1

  2
none_device
  4
ANSI_A_(11.00_x_8.50_Inches)
  6

 40
6.35
 41
19.05
 42
6.35000508
 43
19.05000254
 44
279.4
 45
215.9
 46
154.1031438074826
 47
118.4377884955873
 48
0.0
 49
0.0
140
0.0
141
0.0
142
0.1058944507156154
143
1.0
 70
  1696
 72
     0
 73
     0
 74
     0
  7

 75
     0
147
0.0235690232323232
148
0.0
149
0.0
100
AcDbLayout
  1
Model
 70
     1
 71
     0
 10
0.0
 20
0.0
 11
420.0
 21
297.0
 12
0.0
 22
0.0
 32
0.0
 14
-60.60913634322063
 24
-49.97073246008785
 34
0.0
 15
32.22475332528248
 25
28.60268116146647
 35
0.0
146
0.0
 13
0.0
 23
0.0
 33
0.0
 16
1.0
 26
0.0
 36
0.0
 17
0.0
 27
1.0
 37
0.0
 76
     0
330
1F
331
29
  0
MLINESTYLE
  5
18
102
{ACAD_REACTORS
330
17
102
}
330
17
100
AcDbMlineStyle
  2
Standard
 70
     0
  3

 62
   256
 51
90.0
 52
90.0
 71
     2
 49
0.5
 62
   256
  6
BYLAYER
 49
-0.5
 62
   256
  6
BYLAYER
  0
ACDBPLACEHOLDER
  5
F
102
{ACAD_REACTORS
330
E
102
}
330
E
  0
SCALE
  5
48
102
{ACAD_REACTORS
330
47
102
}
330
47
100
AcDbScale
 70
     0
300
1:1
140
1.0
141
1.0
290
     1
  0
SCALE
  5
49
102
{ACAD_REACTORS
330
47
102
}
330
47
100
AcDbScale
 70
     0
300
1:2
140
1.0
141
2.0
290
     0
  0
SCALE
  5
4A
102
{ACAD_REACTORS
330
47
102
}
330
47
100
AcDbScale
 70
     0
300
1:4
140
1.0
141
4.0
290
     0
  0
SCALE
  5
4B
102
{ACAD_REACTORS
330
47
102
}
330
47
100
AcDbScale
 70
     0
300
1:5
140
1.0
141
5.0
290
     0
  0
SCALE
  5
4C
102
{ACAD_REACTORS
330
47
102
}
330
47
100
AcDbScale
 70
     0
300
1:8
140
1.0
141
8.0
290
     0
  0
SCALE
  5
4D
102
{ACAD_REACTORS
330
47
102
}
330
47
100
AcDbScale
 70
     0
300
1:10
140
1.0
141
10.0
290
     0
  0
SCALE
  5
4E
102
{ACAD_REACTORS
330
47
102
}
330
47
100
AcDbScale
 70
     0
300
1:16
140
1.0
141
16.0
290
     0
  0
SCALE
  5
4F
102
{ACAD_REACTORS
330
47
102
}
330
47
100
AcDbScale
 70
     0
300
1:20
140
1.0
141
20.0
290
     0
  0
SCALE
  5
50
102
{ACAD_REACTORS
330
47
102
}
330
47
100
AcDbScale
 70
     0
300
1:30
140
1.0
141
30.0
290
     0
  0
SCALE
  5
51
102
{ACAD_REACTORS
330
47
102
}
330
47
100
AcDbScale
 70
     0
300
1:40
140
1.0
141
40.0
290
     0
  0
SCALE
  5
52
102
{ACAD_REACTORS
330
47
102
}
330
47
100
AcDbScale
 70
     0
300
1:50
140
1.0
141
50.0
290
     0
  0
SCALE
  5
53
102
{ACAD_REACTORS
330
47
102
}
330
47
100
AcDbScale
 70
     0
300
1:100
140
1.0
141
100.0
290
     0
  0
SCALE
  5
54
102
{ACAD_REACTORS
330
47
102
}
330
47
100
AcDbScale
 70
     0
300
2:1
140
2.0
141
1.0
290
     0
  0
SCALE
  5
55
102
{ACAD_REACTORS
330
47
102
}
330
47
100
AcDbScale
 70
     0
300
4:1
140
4.0
141
1.0
290
     0
  0
SCALE
  5
56
102
{ACAD_REACTORS
330
47
102
}
330
47
100
AcDbScale
 70
     0
300
8:1
140
8.0
141
1.0
290
     0
  0
SCALE
  5
57
102
{ACAD_REACTORS
330
47
102
}
330
47
100
AcDbScale
 70
     0
300
10:1
140
10.0
141
1.0
290
     0
  0
SCALE
  5
58
102
{ACAD_REACTORS
330
47
102
}
330
47
100
AcDbScale
 70
     0
300
100:1
140
100.0
141
1.0
290
     0
  0
SCALE
  5
59
102
{ACAD_REACTORS
330
47
102
}
330
47
100
AcDbScale
 70
     0
300
1/128" = 1'-0"
140
0.0078125
141
12.0
290
     0
  0
SCALE
  5
5A
102
{ACAD_REACTORS
330
47
102
}
330
47
100
AcDbScale
 70
     0
300
1/64" = 1'-0"
140
0.015625
141
12.0
290
     0
  0
SCALE
  5
5B
102
{ACAD_REACTORS
330
47
102
}
330
47
100
AcDbScale
 70
     0
300
1/32" = 1'-0"
140
0.03125
141
12.0
290
     0
  0
SCALE
  5
5C
102
{ACAD_REACTORS
330
47
102
}
330
47
100
AcDbScale
 70
     0
300
1/16" = 1'-0"
140
0.0625
141
12.0
290
     0
  0
SCALE
  5
5D
102
{ACAD_REACTORS
330
47
102
}
330
47
100
AcDbScale
 70
     0
300
3/32" = 1'-0"
140
0.09375
141
12.0
290
     0
  0
SCALE
  5
5E
102
{ACAD_REACTORS
330
47
102
}
330
47
100
AcDbScale
 70
     0
300
1/8" = 1'-0"
140
0.125
141
12.0
290
     0
  0
SCALE
  5
5F
102
{ACAD_REACTORS
330
47
102
}
330
47
100
AcDbScale
 70
     0
300
3/16" = 1'-0"
140
0.1875
141
12.0
290
     0
  0
SCALE
  5
60
102
{ACAD_REACTORS
330
47
102
}
330
47
100
AcDbScale
 70
     0
300
1/4" = 1'-0"
140
0.25
141
12.0
290
     0
  0
SCALE
  5
61
102
{ACAD_REACTORS
330
47
102
}
330
47
100
AcDbScale
 70
     0
300
3/8" = 1'-0"
140
0.375
141
12.0
290
     0
  0
SCALE
  5
62
102
{ACAD_REACTORS
330
47
102
}
330
47
100
AcDbScale
 70
     0
300
1/2" = 1'-0"
140
0.5
141
12.0
290
     0
  0
SCALE
  5
63
102
{ACAD_REACTORS
330
47
102
}
330
47
100
AcDbScale
 70
     0
300
3/4" = 1'-0"
140
0.75
141
12.0
290
     0
  0
SCALE
  5
64
102
{ACAD_REACTORS
330
47
102
}
330
47
100
AcDbScale
 70
     0
300
1" = 1'-0"
140
1.0
141
12.0
290
     0
  0
SCALE
  5
65
102
{ACAD_REACTORS
330
47
102
}
330
47
100
AcDbScale
 70
     0
300
1-1/2" = 1'-0"
140
1.5
141
12.0
290
     0
  0
SCALE
  5
66
102
{ACAD_REACTORS
330
47
102
}
330
47
100
AcDbScale
 70
     0
300
3" = 1'-0"
140
3.0
141
12.0
290
     0
  0
SCALE
  5
67
102
{ACAD_REACTORS
330
47
102
}
330
47
100
AcDbScale
 70
     0
300
6" = 1'-0"
140
6.0
141
12.0
290
     0
  0
SCALE
  5
68
102
{ACAD_REACTORS
330
47
102
}
330
47
100
AcDbScale
 70
     0
300
1'-0" = 1'-0"
140
12.0
141
12.0
290
     0
  0
ENDSEC
  0
EOF
