  0
SECTION
  2
HEADER
  9
$ACADVER
  1
AC1015
  9
$ACADMAINTVER
 70
     6
  9
$DWGCODEPAGE
  3
ANSI_949
  9
$INSBASE
 10
0.0
 20
0.0
 30
0.0
  9
$EXTMIN
 10
-112.8036777020266
 20
-49.97073246008785
 30
0.0
  9
$EXTMAX
 10
70.64254845770782
 20
35.87375451744828
 30
0.0
  9
$LIMMIN
 10
0.0
 20
0.0
  9
$LIMMAX
 10
420.0
 20
297.0
  9
$ORTHOMODE
 70
     0
  9
$REGENMODE
 70
     1
  9
$FILLMODE
 70
     1
  9
$QTEXTMODE
 70
     0
  9
$MIRRTEXT
 70
     1
  9
$LTSCALE
 40
1.0
  9
$ATTMODE
 70
     1
  9
$TEXTSIZE
 40
3.5
  9
$TRACEWID
 40
1.0
  9
$TEXTSTYLE
  7
Standard
  9
$CLAYER
  8
0
  9
$CELTYPE
  6
ByLayer
  9
$CECOLOR
 62
   256
  9
$CELTSCALE
 40
1.0
  9
$DISPSILH
 70
     0
  9
$DIMSCALE
 40
1.0
  9
$DIMASZ
 40
3.302
  9
$DIMEXO
 40
1.0
  9
$DIMDLI
 40
3.75
  9
$DIMRND
 40
0.0
  9
$DIMDLE
 40
0.0
  9
$DIMEXE
 40
1.0
  9
$DIMTP
 40
0.0
  9
$DIMTM
 40
0.0
  9
$DIMTXT
 40
3.5
  9
$DIMCEN
 40
2.5
  9
$DIMTSZ
 40
0.0
  9
$DIMTOL
 70
     0
  9
$DIMLIM
 70
     0
  9
$DIMTIH
 70
     1
  9
$DIMTOH
 70
     1
  9
$DIMSE1
 70
     0
  9
$DIMSE2
 70
     0
  9
$DIMTAD
 70
     1
  9
$DIMZIN
 70
     0
  9
$DIMBLK
  1

  9
$DIMASO
 70
     1
  9
$DIMSHO
 70
     1
  9
$DIMPOST
  1

  9
$DIMAPOST
  1

  9
$DIMALT
 70
     0
  9
$DIMALTD
 70
     3
  9
$DIMALTF
 40
0.0393700787401575
  9
$DIMLFAC
 40
1.0
  9
$DIMTOFL
 70
     1
  9
$DIMTVP
 40
0.0
  9
$DIMTIX
 70
     0
  9
$DIMSOXD
 70
     0
  9
$DIMSAH
 70
     0
  9
$DIMBLK1
  1

  9
$DIMBLK2
  1

  9
$DIMSTYLE
  2
ISO-25
  9
$DIMCLRD
 70
     0
  9
$DIMCLRE
 70
     0
  9
$DIMCLRT
 70
     0
  9
$DIMTFAC
 40
1.0
  9
$DIMGAP
 40
1.524
  9
$DIMJUST
 70
     0
  9
$DIMSD1
 70
     0
  9
$DIMSD2
 70
     0
  9
$DIMTOLJ
 70
     0
  9
$DIMTZIN
 70
     0
  9
$DIMALTZ
 70
     0
  9
$DIMALTTZ
 70
     0
  9
$DIMUPT
 70
     0
  9
$DIMDEC
 70
     2
  9
$DIMTDEC
 70
     2
  9
$DIMALTU
 70
     2
  9
$DIMALTTD
 70
     3
  9
$DIMTXSTY
  7
Standard
  9
$DIMAUNIT
 70
     0
  9
$DIMADEC
 70
     2
  9
$DIMALTRND
 40
0.0
  9
$DIMAZIN
 70
     0
  9
$DIMDSEP
 70
    44
  9
$DIMATFIT
 70
     3
  9
$DIMFRAC
 70
     0
  9
$DIMLDRBLK
  1

  9
$DIMLUNIT
 70
     2
  9
$DIMLWD
 70
    -2
  9
$DIMLWE
 70
    -2
  9
$DIMTMOVE
 70
     0
  9
$LUNITS
 70
     2
  9
$LUPREC
 70
     2
  9
$SKETCHINC
 40
1.0
  9
$FILLETRAD
 40
10.0
  9
$AUNITS
 70
     0
  9
$AUPREC
 70
     2
  9
$MENU
  1
.
  9
$ELEVATION
 40
0.0
  9
$PELEVATION
 40
0.0
  9
$THICKNESS
 40
0.0
  9
$LIMCHECK
 70
     0
  9
$CHAMFERA
 40
0.0
  9
$CHAMFERB
 40
0.0
  9
$CHAMFERC
 40
0.0
  9
$CHAMFERD
 40
0.0
  9
$SKPOLY
 70
     0
  9
$TDCREATE
 40
2458274.717184676
  9
$TDUCREATE
 40
2458274.342184676
  9
$TDUPDATE
 40
2458275.477797674
  9
$TDUUPDATE
 40
2458275.102797674
  9
$TDINDWG
 40
0.0011286806
  9
$TDUSRTIMER
 40
0.001128669
  9
$USRTIMER
 70
     1
  9
$ANGBASE
 50
0.0
  9
$ANGDIR
 70
     0
  9
$PDMODE
 70
     0
  9
$PDSIZE
 40
-1.0
  9
$PLINEWID
 40
0.0
  9
$SPLFRAME
 70
     0
  9
$SPLINETYPE
 70
     6
  9
$SPLINESEGS
 70
     8
  9
$HANDSEED
  5
15B
  9
$SURFTAB1
 70
     6
  9
$SURFTAB2
 70
     6
  9
$SURFTYPE
 70
     6
  9
$SURFU
 70
     6
  9
$SURFV
 70
     6
  9
$UCSBASE
  2

  9
$UCSNAME
  2

  9
$UCSORG
 10
0.0
 20
0.0
 30
0.0
  9
$UCSXDIR
 10
1.0
 20
0.0
 30
0.0
  9
$UCSYDIR
 10
0.0
 20
1.0
 30
0.0
  9
$UCSORTHOREF
  2

  9
$UCSORTHOVIEW
 70
     0
  9
$UCSORGTOP
 10
0.0
 20
0.0
 30
0.0
  9
$UCSORGBOTTOM
 10
0.0
 20
0.0
 30
0.0
  9
$UCSORGLEFT
 10
0.0
 20
0.0
 30
0.0
  9
$UCSORGRIGHT
 10
0.0
 20
0.0
 30
0.0
  9
$UCSORGFRONT
 10
0.0
 20
0.0
 30
0.0
  9
$UCSORGBACK
 10
0.0
 20
0.0
 30
0.0
  9
$PUCSBASE
  2

  9
$PUCSNAME
  2

  9
$PUCSORG
 10
0.0
 20
0.0
 30
0.0
  9
$PUCSXDIR
 10
1.0
 20
0.0
 30
0.0
  9
$PUCSYDIR
 10
0.0
 20
1.0
 30
0.0
  9
$PUCSORTHOREF
  2

  9
$PUCSORTHOVIEW
 70
     0
  9
$PUCSORGTOP
 10
0.0
 20
0.0
 30
0.0
  9
$PUCSORGBOTTOM
 10
0.0
 20
0.0
 30
0.0
  9
$PUCSORGLEFT
 10
0.0
 20
0.0
 30
0.0
  9
$PUCSORGRIGHT
 10
0.0
 20
0.0
 30
0.0
  9
$PUCSORGFRONT
 10
0.0
 20
0.0
 30
0.0
  9
$PUCSORGBACK
 10
0.0
 20
0.0
 30
0.0
  9
$USERI1
 70
     0
  9
$USERI2
 70
     0
  9
$USERI3
 70
     0
  9
$USERI4
 70
     0
  9
$USERI5
 70
     0
  9
$USERR1
 40
0.0
  9
$USERR2
 40
0.0
  9
$USERR3
 40
0.0
  9
$USERR4
 40
0.0
  9
$USERR5
 40
0.0
  9
$WORLDVIEW
 70
     1
  9
$SHADEDGE
 70
     3
  9
$SHADEDIF
 70
    70
  9
$TILEMODE
 70
     1
  9
$MAXACTVP
 70
    64
  9
$PINSBASE
 10
0.0
 20
0.0
 30
0.0
  9
$PLIMCHECK
 70
     0
  9
$PEXTMIN
 10
1.000000000000000E+20
 20
1.000000000000000E+20
 30
1.000000000000000E+20
  9
$PEXTMAX
 10
-1.000000000000000E+20
 20
-1.000000000000000E+20
 30
-1.000000000000000E+20
  9
$PLIMMIN
 10
0.0
 20
0.0
  9
$PLIMMAX
 10
0.0
 20
0.0
  9
$UNITMODE
 70
     0
  9
$VISRETAIN
 70
     1
  9
$PLINEGEN
 70
     0
  9
$PSLTSCALE
 70
     1
  9
$TREEDEPTH
 70
  3020
  9
$CMLSTYLE
  2
Standard
  9
$CMLJUST
 70
     0
  9
$CMLSCALE
 40
20.0
  9
$PROXYGRAPHICS
 70
     1
  9
$MEASUREMENT
 70
     1
  9
$CELWEIGHT
370
    -1
  9
$ENDCAPS
280
     0
  9
$JOINSTYLE
280
     0
  9
$LWDISPLAY
290
     1
  9
$INSUNITS
 70
     4
  9
$HYPERLINKBASE
  1

  9
$STYLESHEET
  1

  9
$XEDIT
290
     1
  9
$CEPSNTYPE
380
     0
  9
$PSTYLEMODE
290
     1
  9
$FINGERPRINTGUID
  2
{A3584428-C727-44B9-92F8-BF6E46666C26}
  9
$VERSIONGUID
  2
{FAEB1C32-E019-11D5-929B-00C0DF256EC4}
  9
$EXTNAMES
290
     1
  9
$PSVPSCALE
 40
0.0
  9
$OLESTARTUP
290
     0
  0
ENDSEC
  0
SECTION
  2
CLASSES
  0
CLASS
  1
ACDBDICTIONARYWDFLT
  2
AcDbDictionaryWithDefault
  3
ObjectDBX Classes
 90
        0
280
     0
281
     0
  0
CLASS
  1
VISUALSTYLE
  2
AcDbVisualStyle
  3
ObjectDBX Classes
 90
     4095
280
     0
281
     0
  0
CLASS
  1
MATERIAL
  2
AcDbMaterial
  3
ObjectDBX Classes
 90
     1153
280
     0
281
     0
  0
CLASS
  1
SCALE
  2
AcDbScale
  3
ObjectDBX Classes
 90
     1153
280
     0
281
     0
  0
CLASS
  1
SUN
  2
AcDbSun
  3
SCENEOE
 90
     1153
280
     0
281
     0
  0
CLASS
  1
ACDBPLACEHOLDER
  2
AcDbPlaceHolder
  3
ObjectDBX Classes
 90
        0
280
     0
281
     0
  0
CLASS
  1
LAYOUT
  2
AcDbLayout
  3
ObjectDBX Classes
 90
        0
280
     0
281
     0
  0
CLASS
  1
TABLESTYLE
  2
AcDbTableStyle
  3
ObjectDBX Classes
 90
     4095
280
     0
281
     0
  0
CLASS
  1
MLEADERSTYLE
  2
AcDbMLeaderStyle
  3
ACDB_MLEADERSTYLE_CLASS
 90
     4095
280
     0
281
     0
  0
CLASS
  1
DIMASSOC
  2
AcDbDimAssoc
  3
"AcDbDimAssoc|Product Desc:     AcDim ARX App For Dimension|Company:          Autodesk, Inc.|WEB Address:      www.autodesk.com"
 90
        0
280
     0
281
     0
  0
ENDSEC
  0
SECTION
  2
TABLES
  0
TABLE
  2
VPORT
  5
8
330
0
100
AcDbSymbolTable
 70
     1
  0
VPORT
  5
29
330
8
100
AcDbSymbolTableRecord
100
AcDbViewportTableRecord
  2
*Active
 70
     0
 10
0.0
 20
0.0
 11
1.0
 21
1.0
 12
-21.08056462215941
 22
-7.048488971319792
 13
0.0
 23
0.0
 14
10.0
 24
10.0
 15
10.0
 25
10.0
 16
0.0
 26
0.0
 36
1.0
 17
0.0
 27
0.0
 37
0.0
 40
87.56137671708684
 41
2.400311526479751
 42
50.0
 43
0.0
 44
0.0
 50
0.0
 51
0.0
 71
    16
 72
  2000
 73
     1
 74
     3
 75
     0
 76
     0
 77
     0
 78
     0
281
     0
 65
     1
110
0.0
120
0.0
130
0.0
111
1.0
121
0.0
131
0.0
112
0.0
122
1.0
132
0.0
 79
     0
146
0.0
  0
ENDTAB
  0
TABLE
  2
LTYPE
  5
5
330
0
100
AcDbSymbolTable
 70
     6
  0
LTYPE
  5
14
330
5
100
AcDbSymbolTableRecord
100
AcDbLinetypeTableRecord
  2
ByBlock
 70
     0
  3

 72
    65
 73
     0
 40
0.0
  0
LTYPE
  5
15
330
5
100
AcDbSymbolTableRecord
100
AcDbLinetypeTableRecord
  2
ByLayer
 70
     0
  3

 72
    65
 73
     0
 40
0.0
  0
LTYPE
  5
16
330
5
100
AcDbSymbolTableRecord
100
AcDbLinetypeTableRecord
  2
Continuous
 70
     0
  3
Solid line
 72
    65
 73
     0
 40
0.0
  0
LTYPE
  5
6A
330
5
100
AcDbSymbolTableRecord
100
AcDbLinetypeTableRecord
  2
HIDDEN
 70
     0
  3
Hidden __ __ __ __ __ __ __ __ __ __ __ __ __ __
 72
    65
 73
     2
 40
1.905
 49
1.27
 74
     0
 49
-0.635
 74
     0
  0
LTYPE
  5
6B
330
5
100
AcDbSymbolTableRecord
100
AcDbLinetypeTableRecord
  2
PHANTOM
 70
     0
  3
Phantom ______  __  __  ______  __  __  ______
 72
    65
 73
     6
 40
12.7
 49
6.35
 74
     0
 49
-1.27
 74
     0
 49
1.27
 74
     0
 49
-1.27
 74
     0
 49
1.27
 74
     0
 49
-1.27
 74
     0
  0
LTYPE
  5
6C
330
5
100
AcDbSymbolTableRecord
100
AcDbLinetypeTableRecord
  2
CENTER
 70
     0
  3
Center ____ _ ____ _ ____ _ ____ _ ____ _ ____
 72
    65
 73
     4
 40
10.16
 49
6.35
 74
     0
 49
-1.27
 74
     0
 49
1.27
 74
     0
 49
-1.27
 74
     0
  0
LTYPE
  5
6D
330
5
100
AcDbSymbolTableRecord
100
AcDbLinetypeTableRecord
  2
CENTERX2
 70
     0
  3
Center (2x) ________  __  ________  __  _____
 72
    65
 73
     4
 40
20.32
 49
12.7
 74
     0
 49
-2.54
 74
     0
 49
2.54
 74
     0
 49
-2.54
 74
     0
  0
LTYPE
  5
6E
330
5
100
AcDbSymbolTableRecord
100
AcDbLinetypeTableRecord
  2
DOT2
 70
     0
  3
Dot (.5x) ........................................
 72
    65
 73
     2
 40
0.635
 49
0.0
 74
     0
 49
-0.635
 74
     0
  0
ENDTAB
  0
TABLE
  2
LAYER
  5
2
330
0
100
AcDbSymbolTable
 70
    18
  0
LAYER
  5
10
330
2
100
AcDbSymbolTableRecord
100
AcDbLayerTableRecord
  2
0
 70
     0
 62
     7
  6
Continuous
370
    -3
390
F
  0
LAYER
  5
6F
330
2
100
AcDbSymbolTableRecord
100
AcDbLayerTableRecord
  2
FORMAT
 70
     0
 62
     2
  6
Continuous
370
    -3
390
F
  0
LAYER
  5
70
330
2
100
AcDbSymbolTableRecord
100
AcDbLayerTableRecord
  2
외형선
 70
     0
 62
     4
  6
Continuous
370
    30
390
F
  0
LAYER
  5
71
330
2
100
AcDbSymbolTableRecord
100
AcDbLayerTableRecord
  2
숨은선
 70
     0
 62
     2
  6
HIDDEN
370
    15
390
F
  0
LAYER
  5
72
330
2
100
AcDbSymbolTableRecord
100
AcDbLayerTableRecord
  2
중심선
 70
     0
 62
     1
  6
CENTERX2
370
    -3
390
F
  0
LAYER
  5
73
330
2
100
AcDbSymbolTableRecord
100
AcDbLayerTableRecord
  2
파단선
 70
     0
 62
     4
  6
Continuous
370
    -3
390
F
  0
LAYER
  5
74
330
2
100
AcDbSymbolTableRecord
100
AcDbLayerTableRecord
  2
해칭선
 70
     0
 62
   100
  6
Continuous
370
    -3
390
F
  0
LAYER
  5
75
330
2
100
AcDbSymbolTableRecord
100
AcDbLayerTableRecord
  2
가는실선
 70
     0
 62
     4
  6
Continuous
370
    -3
390
F
  0
LAYER
  5
76
330
2
100
AcDbSymbolTableRecord
100
AcDbLayerTableRecord
  2
치수_보조선
 70
     0
 62
     4
  6
Continuous
370
    -3
390
F
  0
LAYER
  5
77
330
2
100
AcDbSymbolTableRecord
100
AcDbLayerTableRecord
  2
치수문자_일반주서
 70
     0
 62
     7
  6
Continuous
370
    15
390
F
  0
LAYER
  5
78
330
2
100
AcDbSymbolTableRecord
100
AcDbLayerTableRecord
  2
개별주서
 70
     0
 62
   100
  6
Continuous
370
    30
390
F
  0
LAYER
  5
79
330
2
100
AcDbSymbolTableRecord
100
AcDbLayerTableRecord
  2
중간선
 70
     0
 62
     2
  6
Continuous
370
    15
390
F
  0
LAYER
  5
7A
330
2
100
AcDbSymbolTableRecord
100
AcDbLayerTableRecord
  2
윤곽선
 70
     0
 62
     3
  6
Continuous
370
    40
390
F
  0
LAYER
  5
7B
330
2
100
AcDbSymbolTableRecord
100
AcDbLayerTableRecord
  2
중심마크
 70
     0
 62
   100
  6
Continuous
370
    30
390
F
  0
LAYER
  5
7C
330
2
100
AcDbSymbolTableRecord
100
AcDbLayerTableRecord
  2
가상선
 70
     0
 62
     4
  6
PHANTOM
370
    -3
390
F
  0
LAYER
  5
7D
330
2
100
AcDbSymbolTableRecord
100
AcDbLayerTableRecord
  2
특수지정선
 70
     0
 62
     5
  6
CENTERX2
370
    60
390
F
  0
LAYER
  5
7E
330
2
100
AcDbSymbolTableRecord
100
AcDbLayerTableRecord
  2
참조1
 70
     0
 62
    -4
  6
Continuous
370
    -3
390
F
  0
LAYER
  5
13F
330
2
100
AcDbSymbolTableRecord
100
AcDbLayerTableRecord
  2
Defpoints
 70
     0
 62
     7
  6
Continuous
290
     0
370
    -3
390
F
  0
ENDTAB
  0
TABLE
  2
STYLE
  5
3
330
0
100
AcDbSymbolTable
 70
     2
  0
STYLE
  5
11
330
3
100
AcDbSymbolTableRecord
100
AcDbTextStyleTableRecord
  2
Standard
 70
     0
 40
0.0
 41
1.0
 50
0.0
 71
     0
 42
3.5
  3
txt
  4

  0
STYLE
  5
94
330
3
100
AcDbSymbolTableRecord
100
AcDbTextStyleTableRecord
  2
SLDTEXTSTYLE0
 70
     0
 40
0.0
 41
0.75
 50
0.0
 71
     0
 42
3.5
  3
TXT
  4

  0
ENDTAB
  0
TABLE
  2
VIEW
  5
6
330
0
100
AcDbSymbolTable
 70
     0
  0
ENDTAB
  0
TABLE
  2
UCS
  5
7
330
0
100
AcDbSymbolTable
 70
     0
  0
ENDTAB
  0
TABLE
  2
APPID
  5
9
330
0
100
AcDbSymbolTable
 70
     3
  0
APPID
  5
12
330
9
100
AcDbSymbolTableRecord
100
AcDbRegAppTableRecord
  2
ACAD
 70
     0
  0
APPID
  5
149
330
9
100
AcDbSymbolTableRecord
100
AcDbRegAppTableRecord
  2
PE_URL
 70
     0
  0
APPID
  5
14A
330
9
100
AcDbSymbolTableRecord
100
AcDbRegAppTableRecord
  2
ACAD_DSTYLE_DIMRADIAL_EXTENSION
 70
     0
  0
ENDTAB
  0
TABLE
  2
DIMSTYLE
  5
A
330
0
100
AcDbSymbolTable
 70
     3
100
AcDbDimStyleTable
  0
DIMSTYLE
105
27
102
{ACAD_REACTORS
330
14B
102
}
330
A
100
AcDbSymbolTableRecord
100
AcDbDimStyleTableRecord
  2
ISO-25
 70
     0
 41
2.5
 42
0.625
 43
3.75
 44
1.25
 73
     0
 74
     0
 77
     1
 78
     8
140
2.5
141
2.5
143
0.03937007874016
147
0.625
171
     3
172
     1
178
     0
271
     2
272
     2
274
     3
278
    44
283
     0
284
     8
340
11
  0
DIMSTYLE
105
D4
102
{ACAD_REACTORS
330
D3
330
E1
330
EE
330
F9
330
103
102
}
330
A
100
AcDbSymbolTableRecord
100
AcDbDimStyleTableRecord
  2
SLDDIMSTYLE0
 70
     0
 41
3.302
 44
0.0
 45
0.000000001
 73
     0
 74
     0
 77
     1
 78
    12
 79
     3
140
3.5
147
0.875
172
     1
173
     1
178
     0
271
     2
272
     2
276
     2
284
    12
289
     0
340
94
  0
DIMSTYLE
105
EF
330
A
100
AcDbSymbolTableRecord
100
AcDbDimStyleTableRecord
  2
SLDDIMSTYLE1
 70
     0
 41
3.302
 44
0.0
 45
0.000000001
 73
     0
 74
     0
 77
     1
 78
    12
 79
     3
140
3.5
147
0.875
173
     1
178
     0
271
     2
272
     2
276
     2
284
    12
340
94
  0
ENDTAB
  0
TABLE
  2
BLOCK_RECORD
  5
1
330
0
100
AcDbSymbolTable
 70
     9
  0
BLOCK_RECORD
  5
1F
330
1
100
AcDbSymbolTableRecord
100
AcDbBlockTableRecord
  2
*Model_Space
340
22
  0
BLOCK_RECORD
  5
1B
330
1
100
AcDbSymbolTableRecord
100
AcDbBlockTableRecord
  2
*Paper_Space
340
1E
  0
BLOCK_RECORD
  5
23
330
1
100
AcDbSymbolTableRecord
100
AcDbBlockTableRecord
  2
*Paper_Space0
340
26
  0
BLOCK_RECORD
  5
7F
330
1
100
AcDbSymbolTableRecord
100
AcDbBlockTableRecord
  2
블럭10
340
0
102
{BLKREFS
331
CC
102
}
  0
BLOCK_RECORD
  5
D5
330
1
100
AcDbSymbolTableRecord
100
AcDbBlockTableRecord
  2
_D
340
0
  0
BLOCK_RECORD
  5
E2
330
1
100
AcDbSymbolTableRecord
100
AcDbBlockTableRecord
  2
_D_1
340
0
  0
BLOCK_RECORD
  5
F0
330
1
100
AcDbSymbolTableRecord
100
AcDbBlockTableRecord
  2
_D_2
340
0
  0
BLOCK_RECORD
  5
FA
330
1
100
AcDbSymbolTableRecord
100
AcDbBlockTableRecord
  2
_D_3
340
0
  0
BLOCK_RECORD
  5
104
330
1
100
AcDbSymbolTableRecord
100
AcDbBlockTableRecord
  2
_D_4
340
0
  0
BLOCK_RECORD
  5
114
330
1
100
AcDbSymbolTableRecord
100
AcDbBlockTableRecord
  2
SW_DOWELSYMBOL_0
340
0
102
{BLKREFS
331
11A
102
}
  0
BLOCK_RECORD
  5
14E
330
1
100
AcDbSymbolTableRecord
100
AcDbBlockTableRecord
  2
*D8
340
0
  0
ENDTAB
  0
ENDSEC
  0
SECTION
  2
BLOCKS
  0
BLOCK
  5
20
330
1F
100
AcDbEntity
  8
0
100
AcDbBlockBegin
  2
*Model_Space
 70
     0
 10
0.0
 20
0.0
 30
0.0
  3
*Model_Space
  1

  0
ENDBLK
  5
21
330
1F
100
AcDbEntity
  8
0
100
AcDbBlockEnd
  0
BLOCK
  5
1C
330
1B
100
AcDbEntity
 67
     1
  8
0
100
AcDbBlockBegin
  2
*Paper_Space
 70
     0
 10
0.0
 20
0.0
 30
0.0
  3
*Paper_Space
  1

  0
ENDBLK
  5
1D
330
1B
100
AcDbEntity
 67
     1
  8
0
100
AcDbBlockEnd
  0
BLOCK
  5
24
330
23
100
AcDbEntity
  8
0
100
AcDbBlockBegin
  2
*Paper_Space0
 70
     0
 10
0.0
 20
0.0
 30
0.0
  3
*Paper_Space0
  1

  0
ENDBLK
  5
25
330
23
100
AcDbEntity
  8
0
100
AcDbBlockEnd
  0
BLOCK
  5
80
330
7F
100
AcDbEntity
  8
0
100
AcDbBlockBegin
  2
블럭10
 70
     2
 10
0.0
 20
0.0
 30
0.0
  3
블럭10
  1

  0
ELLIPSE
  5
82
330
7F
100
AcDbEntity
  8
중심선
100
AcDbEllipse
 10
20.54032771741204
 20
12.0471743016438
 30
0.0
 11
6.600054785286829
 21
-1.261213355974178E-13
 31
0.0
210
0.0
220
0.0
230
1.0
 40
0.636358354079598
 41
0.9219305317359503
 42
6.513795318482858
  0
ELLIPSE
  5
83
330
7F
100
AcDbEntity
  8
중심선
100
AcDbEllipse
 10
20.54032771746488
 20
12.04717430159265
 30
0.0
 11
3.960054785062283
 21
1.540847449632565E-10
 31
0.0
210
0.0
220
0.0
230
1.0
 40
0.3939339440162632
 41
1.131841032648279
 42
5.62031148352944
  0
LINE
  5
84
330
7F
100
AcDbEntity
  8
중심선
100
AcDbLine
 10
2.268634060543552
 20
16.24717430164393
 30
0.0
 11
5.714909304380834
 21
16.24717430164393
 31
0.0
  0
LINE
  5
85
330
7F
100
AcDbEntity
  8
중심선
100
AcDbLine
 10
5.245725140726316
 20
7.84717430164391
 30
0.0
 11
8.692000384563599
 21
7.84717430164391
 31
0.0
  0
LINE
  5
86
330
7F
100
AcDbEntity
  8
중심선
100
AcDbLine
 10
15.74043728645272
 20
16.24717430164393
 30
0.0
 11
8.692000384563599
 21
7.84717430164391
 31
0.0
  0
LINE
  5
87
330
7F
100
AcDbEntity
  8
중심선
100
AcDbLine
 10
0.1404042013395286
 20
13.71084872107135
 30
0.0
 11
3.58671253028996
 21
13.71088815037384
 31
0.0
  0
LINE
  5
88
330
7F
100
AcDbEntity
  8
중심선
100
AcDbLine
 10
2.750260043222114
 20
10.84717430164391
 30
0.0
 11
6.196535287059397
 21
10.84717430164391
 31
0.0
  0
LINE
  5
89
330
7F
100
AcDbEntity
  8
중심선
100
AcDbLine
 10
12.29416204261559
 20
16.24717430164393
 30
0.0
 11
5.245725140726316
 21
7.84717430164391
 31
0.0
  0
LINE
  5
8A
330
7F
100
AcDbEntity
  8
중심선
100
AcDbLine
 10
10.72767329541681
 20
16.24717430164393
 30
0.0
 11
6.196535287059397
 21
10.84717430164391
 31
0.0
  0
LINE
  5
8B
330
7F
100
AcDbEntity
  8
중심선
100
AcDbLine
 10
7.28139805157953
 20
16.24717430164393
 30
0.0
 11
2.750260043222114
 21
10.84717430164391
 31
0.0
  0
LINE
  5
8C
330
7F
100
AcDbEntity
  8
중심선
100
AcDbLine
 10
5.714909304380834
 20
16.24717430164393
 30
0.0
 11
3.58671253028996
 21
13.71088815037384
 31
0.0
  0
LINE
  5
8D
330
7F
100
AcDbEntity
  8
중심선
100
AcDbLine
 10
2.268634060543552
 20
16.24717430164393
 30
0.0
 11
0.1404042013395286
 21
13.71084872107135
 31
0.0
  0
LINE
  5
8E
330
7F
100
AcDbEntity
  8
중심선
100
AcDbLine
 10
7.28139805157953
 20
16.24717430164393
 30
0.0
 11
10.72767329541681
 21
16.24717430164393
 31
0.0
  0
LINE
  5
8F
330
7F
100
AcDbEntity
  8
중심선
100
AcDbLine
 10
12.29416204261559
 20
16.24717430164393
 30
0.0
 11
15.74043728645272
 21
16.24717430164393
 31
0.0
  0
LINE
  5
90
330
7F
100
AcDbEntity
  8
중심선
100
AcDbLine
 10
19.22036997980202
 20
11.08717430171403
 30
0.0
 11
23.66174974927406
 21
11.08717430171406
 31
0.0
  0
LINE
  5
91
330
7F
100
AcDbEntity
  8
중심선
100
AcDbLine
 10
19.22039502424796
 20
13.00717430171391
 30
0.0
 11
19.22036997980202
 21
11.08717430171403
 31
0.0
  0
LINE
  5
92
330
7F
100
AcDbEntity
  8
중심선
100
AcDbLine
 10
19.22039502424796
 20
13.00717430171391
 30
0.0
 11
26.96566020931264
 21
13.00717430171391
 31
0.0
  0
LINE
  5
93
330
7F
100
AcDbEntity
  8
중심선
100
AcDbLine
 10
22.22332737316547
 20
13.45928029700563
 30
0.0
 11
24.52862924686651
 21
15.39360700705356
 31
0.0
  0
ATTDEF
  5
95
330
7F
100
AcDbEntity
  8
FORMAT
 62
     2
100
AcDbText
 10
-7.268459303319146
 20
2.075366912832191
 30
0.0
 40
4.233333333333333
  1
SEME6416010150E
 41
0.75
  7
SLDTEXTSTYLE0
 11
-7.268459303319146
 21
-0.0412997538344756
 31
0.0
100
AcDbAttributeDefinition
  3

  2
AUTOATTR0
 70
     0
 74
     1
  0
ENDBLK
  5
81
330
7F
100
AcDbEntity
  8
0
100
AcDbBlockEnd
  0
BLOCK
  5
D6
330
D5
100
AcDbEntity
  8
0
100
AcDbBlockBegin
  2
_D
 70
     0
 10
0.0
 20
0.0
 30
0.0
  3
_D
  1

  0
LINE
  5
D8
330
D5
100
AcDbEntity
  8
치수문자_일반주서
 62
     0
370
    -2
100
AcDbLine
 10
34.51257513707568
 20
8.0010749287239
 30
0.0
 11
70.0922151243744
 21
8.001074928724023
 31
0.0
  0
LINE
  5
D9
330
D5
100
AcDbEntity
  8
치수문자_일반주서
 62
     0
370
    -2
100
AcDbLine
 10
34.51257513707568
 20
-7.998925071276093
 30
0.0
 11
70.09221512437446
 21
-7.998925071275972
 31
0.0
  0
LINE
  5
DA
330
D5
100
AcDbEntity
  8
치수문자_일반주서
 62
     0
370
    -2
100
AcDbLine
 10
70.09221512437442
 20
4.699074928724023
 30
0.0
 11
70.09221512437445
 21
-4.696925071275972
 31
0.0
  0
SOLID
  5
DB
330
D5
100
AcDbEntity
  8
치수문자_일반주서
 62
     0
100
AcDbTrace
 10
70.64254845770775
 20
4.699074928724025
 30
0.0
 11
69.54188179104109
 21
4.699074928724022
 31
0.0
 12
70.0922151243744
 22
8.001074928724023
 32
0.0
 13
70.0922151243744
 23
8.001074928724023
 33
0.0
  0
SOLID
  5
DC
330
D5
100
AcDbEntity
  8
치수문자_일반주서
 62
     0
100
AcDbTrace
 10
69.54188179104112
 20
-4.696925071275974
 30
0.0
 11
70.64254845770778
 21
-4.69692507127597
 31
0.0
 12
70.09221512437446
 22
-7.998925071275972
 32
0.0
 13
70.09221512437446
 23
-7.998925071275972
 33
0.0
  0
MTEXT
  5
DD
330
D5
100
AcDbEntity
  8
치수문자_일반주서
 62
     0
100
AcDbMText
 10
65.71721512437443
 20
0.0010749287239934
 30
0.0
 40
3.5
 41
0.0
 71
     2
 72
     1
  1
\A1;%%c16
  7
SLDTEXTSTYLE0
 11
-3.552713678800503E-15
 21
1.0
 31
0.0
 73
     1
 44
1.0
  0
POINT
  5
DE
330
D5
100
AcDbEntity
  8
Defpoints
 62
     0
100
AcDbPoint
 10
34.45007513707568
 20
8.0010749287239
 30
0.0
  0
POINT
  5
DF
330
D5
100
AcDbEntity
  8
Defpoints
 62
     0
100
AcDbPoint
 10
34.45007513707568
 20
-7.998925071276093
 30
0.0
  0
POINT
  5
E0
330
D5
100
AcDbEntity
  8
Defpoints
 62
     0
100
AcDbPoint
 10
70.09221512437446
 20
-7.998925071275969
 30
0.0
  0
ENDBLK
  5
D7
330
D5
100
AcDbEntity
  8
0
100
AcDbBlockEnd
  0
BLOCK
  5
E3
330
E2
100
AcDbEntity
  8
0
100
AcDbBlockBegin
  2
_D_1
 70
     0
 10
0.0
 20
0.0
 30
0.0
  3
_D_1
  1

  0
SOLID
  5
E5
330
E2
100
AcDbEntity
  8
치수문자_일반주서
100
AcDbTrace
 10
-108.2384684361648
 20
8.0010749287239
 30
0.0
 11
-107.7304684361648
 21
11.3030749287239
 31
0.0
 12
-108.7464684361648
 22
11.3030749287239
 32
0.0
 13
-108.7464684361648
 23
11.3030749287239
 33
0.0
  0
SOLID
  5
E6
330
E2
100
AcDbEntity
  8
치수문자_일반주서
100
AcDbTrace
 10
-108.2384684361648
 20
-7.998925071276114
 30
0.0
 11
-108.7464684361648
 21
-11.30092507127611
 31
0.0
 12
-107.7304684361648
 22
-11.30092507127611
 32
0.0
 13
-107.7304684361648
 23
-11.30092507127611
 33
0.0
  0
LINE
  5
E7
330
E2
100
AcDbEntity
  8
치수문자_일반주서
100
AcDbLine
 10
-99.24999999999997
 20
8.0010749287239
 30
0.0
 11
-109.2384684361648
 21
8.0010749287239
 31
0.0
  0
LINE
  5
E8
330
E2
100
AcDbEntity
  8
치수문자_일반주서
100
AcDbLine
 10
-99.24999999999997
 20
-7.998925071276114
 30
0.0
 11
-109.2384684361648
 21
-7.998925071276114
 31
0.0
  0
LINE
  5
E9
330
E2
100
AcDbEntity
  8
치수문자_일반주서
100
AcDbLine
 10
-108.2384684361648
 20
8.0010749287239
 30
0.0
 11
-108.2384684361648
 21
14.3510749287239
 31
0.0
  0
LINE
  5
EA
330
E2
100
AcDbEntity
  8
치수문자_일반주서
100
AcDbLine
 10
-108.2384684361648
 20
8.0010749287239
 30
0.0
 11
-108.2384684361648
 21
-7.998925071276114
 31
0.0
  0
LINE
  5
EB
330
E2
100
AcDbEntity
  8
치수문자_일반주서
100
AcDbLine
 10
-108.2384684361648
 20
-7.998925071276114
 30
0.0
 11
-108.2384684361648
 21
-14.34892507127611
 31
0.0
  0
MTEXT
  5
EC
330
E2
100
AcDbEntity
  8
치수문자_일반주서
100
AcDbMText
 10
-112.7502055253667
 20
-5.224255196816623
 30
0.0
 40
3.5
 41
0.0
 71
     1
 72
     1
  1
%%c
  7
SLDTEXTSTYLE0
 11
-7.044195017643634E-15
 21
1.0
 31
0.0
 73
     1
 44
1.0
  0
MTEXT
  5
ED
330
E2
100
AcDbEntity
  8
치수문자_일반주서
100
AcDbMText
 10
-112.8036777020265
 20
0.0541822015574583
 30
0.0
 40
3.5
 41
0.0
 71
     1
 72
     1
  1
16
  7
SLDTEXTSTYLE0
 11
-7.044195017643634E-15
 21
1.0
 31
0.0
 73
     1
 44
1.0
  0
ENDBLK
  5
E4
330
E2
100
AcDbEntity
  8
0
100
AcDbBlockEnd
  0
BLOCK
  5
F1
330
F0
100
AcDbEntity
  8
0
100
AcDbBlockBegin
  2
_D_2
 70
     0
 10
0.0
 20
0.0
 30
0.0
  3
_D_2
  1

  0
LINE
  5
F3
330
F0
100
AcDbEntity
  8
치수문자_일반주서
 62
     0
370
    -2
100
AcDbLine
 10
50.15000000000003
 20
7.017718452243383
 30
0.0
 11
50.15000000000002
 21
17.09125721628638
 31
0.0
  0
LINE
  5
F4
330
F0
100
AcDbEntity
  8
치수문자_일반주서
 62
     0
370
    -2
100
AcDbLine
 10
15.15000000000011
 20
7.937276612186952
 30
0.0
 11
15.1500000000001
 21
17.09125721628638
 31
0.0
  0
LINE
  5
F5
330
F0
100
AcDbEntity
  8
치수문자_일반주서
 62
     0
370
    -2
100
AcDbLine
 10
46.84800000000002
 20
17.09125721628638
 30
0.0
 11
18.4520000000001
 21
17.09125721628638
 31
0.0
  0
SOLID
  5
F6
330
F0
100
AcDbEntity
  8
치수문자_일반주서
 62
     0
100
AcDbTrace
 10
46.84800000000002
 20
16.54092388295305
 30
0.0
 11
46.84800000000002
 21
17.64159054961972
 31
0.0
 12
50.15000000000002
 22
17.09125721628638
 32
0.0
 13
50.15000000000002
 23
17.09125721628638
 33
0.0
  0
SOLID
  5
F7
330
F0
100
AcDbEntity
  8
치수문자_일반주서
 62
     0
100
AcDbTrace
 10
18.4520000000001
 20
17.64159054961972
 30
0.0
 11
18.4520000000001
 21
16.54092388295305
 31
0.0
 12
15.1500000000001
 22
17.09125721628638
 32
0.0
 13
15.1500000000001
 23
17.09125721628638
 33
0.0
  0
MTEXT
  5
F8
330
F0
100
AcDbEntity
  8
치수문자_일반주서
 62
     0
100
AcDbMText
 10
32.65000000000007
 20
21.46625721628638
 30
0.0
 40
3.5
 41
0.0
 71
     2
 72
     1
  1
\A1;35
  7
SLDTEXTSTYLE0
 73
     1
 44
1.0
  0
POINT
  5
140
330
F0
100
AcDbEntity
  8
Defpoints
 62
     0
100
AcDbPoint
 10
50.15000000000003
 20
6.955218452243383
 30
0.0
  0
POINT
  5
141
330
F0
100
AcDbEntity
  8
Defpoints
 62
     0
100
AcDbPoint
 10
15.15000000000011
 20
7.874776612186952
 30
0.0
  0
POINT
  5
142
330
F0
100
AcDbEntity
  8
Defpoints
 62
     0
100
AcDbPoint
 10
15.15000000000011
 20
17.09125721628638
 30
0.0
  0
ENDBLK
  5
F2
330
F0
100
AcDbEntity
  8
0
100
AcDbBlockEnd
  0
BLOCK
  5
FB
330
FA
100
AcDbEntity
  8
0
100
AcDbBlockBegin
  2
_D_3
 70
     0
 10
0.0
 20
0.0
 30
0.0
  3
_D_3
  1

  0
LINE
  5
FD
330
FA
100
AcDbEntity
  8
치수문자_일반주서
 62
     0
370
    -2
100
AcDbLine
 10
50.15000000000003
 20
7.017718452243383
 30
0.0
 11
50.15000000000003
 21
23.09125721628636
 31
0.0
  0
LINE
  5
FE
330
FA
100
AcDbEntity
  8
치수문자_일반주서
 62
     0
370
    -2
100
AcDbLine
 10
0.1500000000000112
 20
7.913574928723892
 30
0.0
 11
0.1500000000000128
 21
23.09125721628636
 31
0.0
  0
LINE
  5
FF
330
FA
100
AcDbEntity
  8
치수문자_일반주서
 62
     0
370
    -2
100
AcDbLine
 10
46.84800000000003
 20
23.09125721628636
 30
0.0
 11
3.452000000000012
 21
23.09125721628636
 31
0.0
  0
SOLID
  5
100
330
FA
100
AcDbEntity
  8
치수문자_일반주서
 62
     0
100
AcDbTrace
 10
46.84800000000003
 20
22.54092388295303
 30
0.0
 11
46.84800000000003
 21
23.6415905496197
 31
0.0
 12
50.15000000000003
 22
23.09125721628636
 32
0.0
 13
50.15000000000003
 23
23.09125721628636
 33
0.0
  0
SOLID
  5
101
330
FA
100
AcDbEntity
  8
치수문자_일반주서
 62
     0
100
AcDbTrace
 10
3.452000000000012
 20
23.6415905496197
 30
0.0
 11
3.452000000000012
 21
22.54092388295303
 31
0.0
 12
0.1500000000000128
 22
23.09125721628636
 32
0.0
 13
0.1500000000000128
 23
23.09125721628636
 33
0.0
  0
MTEXT
  5
102
330
FA
100
AcDbEntity
  8
치수문자_일반주서
 62
     0
100
AcDbMText
 10
25.15000000000003
 20
27.46625721628636
 30
0.0
 40
3.5
 41
0.0
 71
     2
 72
     1
  1
\A1;50
  7
SLDTEXTSTYLE0
 73
     1
 44
1.0
  0
POINT
  5
143
330
FA
100
AcDbEntity
  8
Defpoints
 62
     0
100
AcDbPoint
 10
50.15000000000003
 20
6.955218452243383
 30
0.0
  0
POINT
  5
144
330
FA
100
AcDbEntity
  8
Defpoints
 62
     0
100
AcDbPoint
 10
0.1500000000000112
 20
7.851074928723892
 30
0.0
  0
POINT
  5
145
330
FA
100
AcDbEntity
  8
Defpoints
 62
     0
100
AcDbPoint
 10
0.1500000000000112
 20
23.09125721628636
 30
0.0
  0
ENDBLK
  5
FC
330
FA
100
AcDbEntity
  8
0
100
AcDbBlockEnd
  0
BLOCK
  5
105
330
104
100
AcDbEntity
  8
0
100
AcDbBlockBegin
  2
_D_4
 70
     0
 10
0.0
 20
0.0
 30
0.0
  3
_D_4
  1

  0
LINE
  5
107
330
104
100
AcDbEntity
  8
치수문자_일반주서
 62
     0
370
    -2
100
AcDbLine
 10
50.15000000000003
 20
7.017718452243383
 30
0.0
 11
50.15000000000003
 21
31.49875451744828
 31
0.0
  0
LINE
  5
108
330
104
100
AcDbEntity
  8
치수문자_일반주서
 62
     0
370
    -2
100
AcDbLine
 10
-99.84999999999997
 20
6.46357492872391
 30
0.0
 11
-99.84999999999995
 21
31.49875451744828
 31
0.0
  0
LINE
  5
109
330
104
100
AcDbEntity
  8
치수문자_일반주서
 62
     0
370
    -2
100
AcDbLine
 10
46.84800000000003
 20
31.49875451744828
 30
0.0
 11
-96.54799999999994
 21
31.49875451744828
 31
0.0
  0
SOLID
  5
10A
330
104
100
AcDbEntity
  8
치수문자_일반주서
 62
     0
100
AcDbTrace
 10
46.84800000000003
 20
30.94842118411494
 30
0.0
 11
46.84800000000003
 21
32.04908785078161
 31
0.0
 12
50.15000000000003
 22
31.49875451744828
 32
0.0
 13
50.15000000000003
 23
31.49875451744828
 33
0.0
  0
SOLID
  5
10B
330
104
100
AcDbEntity
  8
치수문자_일반주서
 62
     0
100
AcDbTrace
 10
-96.54799999999994
 20
32.04908785078161
 30
0.0
 11
-96.54799999999994
 21
30.94842118411494
 31
0.0
 12
-99.84999999999995
 22
31.49875451744828
 32
0.0
 13
-99.84999999999995
 23
31.49875451744828
 33
0.0
  0
MTEXT
  5
10C
330
104
100
AcDbEntity
  8
치수문자_일반주서
 62
     0
100
AcDbMText
 10
-24.84999999999997
 20
35.87375451744828
 30
0.0
 40
3.5
 41
0.0
 71
     2
 72
     1
  1
\A1;150
  7
SLDTEXTSTYLE0
 73
     1
 44
1.0
  0
POINT
  5
146
330
104
100
AcDbEntity
  8
Defpoints
 62
     0
100
AcDbPoint
 10
50.15000000000003
 20
6.955218452243383
 30
0.0
  0
POINT
  5
147
330
104
100
AcDbEntity
  8
Defpoints
 62
     0
100
AcDbPoint
 10
-99.84999999999997
 20
6.40107492872391
 30
0.0
  0
POINT
  5
148
330
104
100
AcDbEntity
  8
Defpoints
 62
     0
100
AcDbPoint
 10
-99.84999999999997
 20
31.49875451744828
 30
0.0
  0
ENDBLK
  5
106
330
104
100
AcDbEntity
  8
0
100
AcDbBlockEnd
  0
BLOCK
  5
115
330
114
100
AcDbEntity
  8
0
100
AcDbBlockBegin
  2
SW_DOWELSYMBOL_0
 70
     0
 10
0.0
 20
0.0
 30
0.0
  3
SW_DOWELSYMBOL_0
  1

  0
CIRCLE
  5
117
330
114
100
AcDbEntity
  8
해칭선
 62
     0
100
AcDbCircle
 10
0.0
 20
0.0
 30
0.0
 40
3.000000000000008
  0
HATCH
  5
118
330
114
100
AcDbEntity
  8
0
  6
Continuous
 62
     0
370
     0
100
AcDbHatch
 10
0.0
 20
0.0
 30
0.0
210
0.0
220
0.0
230
1.0
  2
SOLID
 70
     1
 71
     0
 91
        1
 92
        0
 93
        3
 72
     2
 10
0.0000000000000139
 20
0.0
 40
3.000000000000008
 50
0.0
 51
90.0
 73
     1
 72
     1
 10
0.0000000000000139
 20
3.000000000000008
 11
0.0000000000000139
 21
0.0
 72
     1
 10
0.0000000000000139
 20
0.0
 11
3.000000000000022
 21
0.0
 97
        0
 75
     0
 76
     1
 98
        1
 10
0.0
 20
0.0
  0
HATCH
  5
119
330
114
100
AcDbEntity
  8
0
  6
Continuous
 62
     0
370
     0
100
AcDbHatch
 10
0.0
 20
0.0
 30
0.0
210
0.0
220
0.0
230
1.0
  2
SOLID
 70
     1
 71
     0
 91
        1
 92
        0
 93
        3
 72
     2
 10
0.0000000000000139
 20
0.0
 40
3.000000000000008
 50
180.0
 51
270.0000000000008
 73
     1
 72
     1
 10
0.0000000000000139
 20
-3.000000000000008
 11
0.0000000000000139
 21
0.0
 72
     1
 10
0.0000000000000139
 20
0.0
 11
-2.999999999999994
 21
0.0
 97
        0
 75
     0
 76
     1
 98
        1
 10
0.0
 20
0.0
  0
ENDBLK
  5
116
330
114
100
AcDbEntity
  8
0
100
AcDbBlockEnd
  0
BLOCK
  5
14F
330
14E
100
AcDbEntity
  8
0
100
AcDbBlockBegin
  2
*D8
 70
     1
 10
0.0
 20
0.0
 30
0.0
  3
*D8
  1

  0
LINE
  5
151
330
14E
100
AcDbEntity
  8
0
 62
     0
370
    -2
100
AcDbLine
 10
68.19093801292587
 20
-15.36785595063361
 30
0.0
 11
54.41693801292588
 21
-15.36785595063361
 31
0.0
  0
LINE
  5
152
330
14E
100
AcDbEntity
  8
0
 62
     0
370
    -2
100
AcDbLine
 10
54.41693801292588
 20
-15.36785595063361
 30
0.0
 11
51.43245319433077
 21
-10.59965760587012
 31
0.0
  0
MTEXT
  5
153
330
14E
100
AcDbEntity
  8
0
 62
     0
100
AcDbMText
 10
62.06593801292587
 20
-11.80218928396694
 30
0.0
 40
3.5
 41
0.0
 71
     5
 72
     1
  1
R1,00
 73
     1
 44
1.0
  0
LINE
  5
154
330
14E
100
AcDbEntity
  8
0
 62
     0
370
    -2
100
AcDbLine
 10
49.15000000000008
 20
-6.95306859479557
 30
0.0
 11
49.68055629807788
 21
-7.800718295184819
 31
0.0
  0
SOLID
  5
155
330
14E
100
AcDbEntity
  8
0
 62
     0
100
AcDbTrace
 10
51.89894307944498
 20
-10.30767478982797
 30
0.0
 11
50.96596330921655
 21
-10.89164042191227
 31
0.0
 12
49.68055629807788
 22
-7.800718295184819
 32
0.0
 13
49.68055629807788
 23
-7.800718295184819
 33
0.0
  0
POINT
  5
156
330
14E
100
AcDbEntity
  8
Defpoints
 62
     0
100
AcDbPoint
 10
49.68055629807788
 20
-7.800718295184819
 30
0.0
  0
POINT
  5
157
330
14E
100
AcDbEntity
  8
Defpoints
 62
     0
100
AcDbPoint
 10
49.15000000000008
 20
-6.95306859479557
 30
0.0
  0
ENDBLK
  5
150
330
14E
100
AcDbEntity
  8
0
100
AcDbBlockEnd
  0
ENDSEC
  0
SECTION
  2
ENTITIES
  0
LINE
  5
96
330
1F
100
AcDbEntity
  8
외형선
  6
Continuous
 62
     1
370
    15
100
AcDbLine
 10
34.4518594524873
 20
8.0010749287239
 30
0.0
 11
29.57162857599952
 21
8.001074928723899
 31
0.0
  0
LINE
  5
97
330
1F
100
AcDbEntity
  8
외형선
  6
Continuous
 62
     1
370
    15
100
AcDbLine
 10
29.57162857599941
 20
-7.998925071276095
 30
0.0
 11
34.45185945248733
 21
-7.998925071276093
 31
0.0
  0
LINE
  5
98
330
1F
100
AcDbEntity
  8
외형선
  6
Continuous
370
    15
100
AcDbLine
 10
-98.24999999999997
 20
-7.998925071276107
 30
0.0
 11
0.0
 21
-7.998925071276107
 31
0.0
  0
LINE
  5
99
330
1F
100
AcDbEntity
  8
외형선
  6
Continuous
370
    15
100
AcDbLine
 10
0.0
 20
8.001074928723893
 30
0.0
 11
-98.24999999999997
 21
8.001074928723893
 31
0.0
  0
LINE
  5
9A
330
1F
100
AcDbEntity
  8
외형선
  6
Continuous
370
    15
100
AcDbLine
 10
-98.24999999999997
 20
8.001074928723893
 30
0.0
 11
-99.84999999999997
 21
6.40107492872391
 31
0.0
  0
LINE
  5
9B
330
1F
100
AcDbEntity
  8
외형선
  6
Continuous
370
    15
100
AcDbLine
 10
-99.84999999999997
 20
-6.398925071276124
 30
0.0
 11
-98.24999999999997
 21
-7.998925071276107
 31
0.0
  0
LINE
  5
9C
330
1F
100
AcDbEntity
  8
외형선
  6
Continuous
370
    15
100
AcDbLine
 10
0.0
 20
-7.998925071276107
 30
0.0
 11
0.1500000000000112
 21
-7.848925071276106
 31
0.0
  0
LINE
  5
9D
330
1F
100
AcDbEntity
  8
외형선
  6
Continuous
370
    15
100
AcDbLine
 10
0.1500000000000112
 20
7.851074928723892
 30
0.0
 11
0.0
 21
8.001074928723893
 31
0.0
  0
LINE
  5
9E
330
1F
100
AcDbEntity
  8
외형선
  6
Continuous
370
    15
100
AcDbLine
 10
0.1500000000000112
 20
-7.848925071276106
 30
0.0
 11
14.15037125074167
 21
-7.848925071276106
 31
0.0
  0
LINE
  5
9F
330
1F
100
AcDbEntity
  8
외형선
  6
Continuous
370
    15
100
AcDbLine
 10
14.15037125074167
 20
7.851074928723892
 30
0.0
 11
0.1500000000000112
 21
7.851074928723892
 31
0.0
  0
SPLINE
  5
A1
330
1F
100
AcDbEntity
  8
외형선
  6
Continuous
 62
     1
370
    15
100
AcDbSpline
210
0.0
220
0.0
230
1.0
 70
     8
 71
     3
 72
    17
 73
    13
 74
     0
 42
0.000000001
 43
0.00000001
 40
0.0
 40
0.0
 40
0.0
 40
0.0
 40
0.0679067637218469
 40
0.166020449793056
 40
0.2641341359265585
 40
0.3622478221225011
 40
0.4603615083810306
 40
0.5682953247914655
 40
0.6762307769120225
 40
0.7841631662775488
 40
0.8920878001068803
 40
1.0
 40
1.0
 40
1.0
 40
1.0
 10
42.87293519548236
 20
-6.538922136687497
 30
0.0
 10
42.24544617148113
 20
-6.744975263562543
 30
0.0
 10
40.71134258157066
 20
-7.248739998179915
 30
0.0
 10
38.27062215881982
 20
-7.740650546991511
 30
0.0
 10
35.55078603391834
 20
-8.026720730373844
 30
0.0
 10
32.83091248988898
 20
-7.995031962091822
 30
0.0
 10
30.02043975566865
 20
-7.647597583481337
 30
0.0
 10
27.11862973305562
 20
-6.958516558901109
 30
0.0
 10
24.12622586574298
 20
-5.925181603573363
 30
0.0
 10
21.13388292937909
 20
-4.615304785695113
 30
0.0
 10
18.14180245829836
 20
-3.095821945472411
 30
0.0
 10
16.14722918494849
 20
-1.975147375954145
 30
0.0
 10
15.14999999999858
 20
-1.414842371125809
 30
0.0
  0
SPLINE
  5
A2
330
1F
100
AcDbEntity
  8
외형선
  6
Continuous
370
    15
100
AcDbSpline
210
0.0
220
0.0
230
1.0
 70
    24
 71
     3
 72
    21
 73
    17
 74
     0
 42
0.000000001
 43
0.00000001
 40
0.0
 40
0.0
 40
0.0
 40
0.0
 40
0.0446229383457942
 40
0.1164551210321382
 40
0.1903704418826443
 40
0.2622026245689834
 40
0.3361179454194839
 40
0.4079501281058238
 40
0.4818654489563252
 40
0.5536976316426648
 40
0.6276129524931665
 40
0.6994451351795082
 40
0.7733604560300046
 40
0.8451926387163444
 40
0.919107959566846
 40
0.9999999999999999
 40
0.9999999999999999
 40
0.9999999999999999
 40
0.9999999999999999
 10
15.15000000000003
 20
-1.419079608322888
 30
0.0
 10
15.15000000000005
 20
-1.404913147143963
 30
0.0
 10
15.15000000000011
 20
-1.367942095654604
 30
0.0
 10
15.15000000000003
 20
-1.160515051945314
 30
0.0
 10
15.14999999999997
 20
-0.8161425591936532
 30
0.0
 10
15.15000000000003
 20
-0.3444075637403779
 30
0.0
 10
15.15
 20
0.2259263014904306
 30
0.0
 10
15.15000000000005
 20
0.8908378386429935
 30
0.0
 10
15.15000000000003
 20
1.619046278058061
 30
0.0
 10
15.14999999999997
 20
2.403166356227403
 30
0.0
 10
15.15000000000008
 20
3.206904412769894
 30
0.0
 10
15.15
 20
4.021802099088799
 30
0.0
 10
15.15
 20
4.810810071209843
 30
0.0
 10
15.14999999999997
 20
5.563233244051919
 30
0.0
 10
15.15000000000027
 20
6.282535589910551
 30
0.0
 10
15.1499999999993
 20
6.690531345278209
 30
0.0
 10
15.14999999999883
 20
6.903722816704963
 30
0.0
  0
SPLINE
  5
A3
330
1F
100
AcDbEntity
  8
외형선
  6
Continuous
 62
     1
370
    15
100
AcDbSpline
210
0.0
220
0.0
230
1.0
 70
     8
 71
     3
 72
    56
 73
    52
 74
     0
 42
0.000000001
 43
0.00000001
 40
0.0
 40
0.0
 40
0.0
 40
0.0
 40
0.0312499999999992
 40
0.0312499999999992
 40
0.0624999999999984
 40
0.0624999999999984
 40
0.1249999999999986
 40
0.1249999999999986
 40
0.1562499999999978
 40
0.1562499999999978
 40
0.187499999999997
 40
0.187499999999997
 40
0.2187499999999962
 40
0.2187499999999962
 40
0.2499999999999954
 40
0.2499999999999954
 40
0.2812499999999946
 40
0.2812499999999946
 40
0.3124999999999938
 40
0.3124999999999938
 40
0.3749999999999922
 40
0.3749999999999922
 40
0.4374999999999906
 40
0.4374999999999906
 40
0.4687499999999907
 40
0.4687499999999907
 40
0.4999999999999908
 40
0.4999999999999908
 40
0.5624999999999891
 40
0.5624999999999891
 40
0.5937499999999892
 40
0.5937499999999892
 40
0.6249999999999893
 40
0.6249999999999893
 40
0.6874999999999895
 40
0.6874999999999895
 40
0.7499999999999906
 40
0.7499999999999906
 40
0.7812499999999917
 40
0.7812499999999917
 40
0.8124999999999927
 40
0.8124999999999927
 40
0.8437499999999938
 40
0.8437499999999938
 40
0.8749999999999949
 40
0.8749999999999949
 40
0.906249999999996
 40
0.906249999999996
 40
0.937499999999997
 40
0.937499999999997
 40
1.0
 40
1.0
 40
1.0
 40
1.0
 10
49.15000000000008
 20
-7.95306859479557
 30
0.0
 10
48.79294155066759
 20
-7.880078445724245
 30
0.0
 10
48.43982639701893
 20
-7.827124214918214
 30
0.0
 10
47.73119482097557
 20
-7.732003795053433
 30
0.0
 10
47.379216781295
 20
-7.676937839845583
 30
0.0
 10
46.31800856091875
 20
-7.489107483220198
 30
0.0
 10
45.60491340975364
 20
-7.333559202545914
 30
0.0
 10
44.54559196679583
 20
-7.058913021497482
 30
0.0
 10
44.19269111181964
 20
-6.960393418108419
 30
0.0
 10
43.48335175380164
 20
-6.749564245450127
 30
0.0
 10
43.12796136550731
 20
-6.637344075514941
 30
0.0
 10
42.41887243269285
 20
-6.400286582505104
 30
0.0
 10
42.06643897186776
 20
-6.275609199394096
 30
0.0
 10
41.3596956479807
 20
-6.014014508681105
 30
0.0
 10
41.00472930165022
 20
-5.876998530298959
 30
0.0
 10
40.29472809167881
 20
-5.591682392202169
 30
0.0
 10
39.93969629633345
 20
-5.443383461451615
 30
0.0
 10
39.2326930907797
 20
-5.136855710290407
 30
0.0
 10
38.88045029058048
 20
-4.978603782930906
 30
0.0
 10
37.81703624106964
 20
-4.488678018716338
 30
0.0
 10
37.10643581211409
 20
-4.142851024787412
 30
0.0
 10
35.69458945488515
 20
-3.423065037258851
 30
0.0
 10
34.98152652416439
 20
-3.047082330869008
 30
0.0
 10
33.91997550262585
 20
-2.468815523625465
 30
0.0
 10
33.56808255794206
 20
-2.273813100406898
 30
0.0
 10
32.85962879283094
 20
-1.878878195530976
 30
0.0
 10
32.50430087627704
 20
-1.679167566567316
 30
0.0
 10
31.43971117380639
 20
-1.075937425143124
 30
0.0
 10
30.73571037668596
 20
-0.6690700686201678
 30
0.0
 10
29.67103436551616
 20
-0.0555671820576512
 30
0.0
 10
29.31572906616314
 20
0.1492693400487813
 30
0.0
 10
28.60742264671454
 20
0.5578081839557832
 30
0.0
 10
28.25557120678679
 20
0.7612906225738223
 30
0.0
 10
27.19376205670976
 20
1.37010848276818
 30
0.0
 10
26.48073219601233
 20
1.773165450271036
 30
0.0
 10
25.06935847585781
 20
2.559539413916175
 30
0.0
 10
24.35824813317022
 20
2.94522515640581
 30
0.0
 10
23.2950178961531
 20
3.503574435534845
 30
0.0
 10
22.94289959224741
 20
3.686044426293653
 30
0.0
 10
22.23569963560626
 20
4.04393306149294
 30
0.0
 10
21.88062021267043
 20
4.219338993702156
 30
0.0
 10
21.17062663680733
 20
4.561497117242686
 30
0.0
 10
20.81571555194511
 20
4.728247837934953
 30
0.0
 10
20.10918402375056
 20
5.051668796577149
 30
0.0
 10
19.7565753313238
 20
5.208502761831788
 30
0.0
 10
19.04737905448914
 20
5.512240374242291
 30
0.0
 10
18.69198623348026
 20
5.658958921742961
 30
0.0
 10
17.98274455987703
 20
5.940801249829727
 30
0.0
 10
17.63005113882415
 20
6.075785697874699
 30
0.0
 10
16.57039769898944
 20
6.462744293513153
 30
0.0
 10
15.85728496574329
 20
6.697108108828468
 30
0.0
 10
15.14999999999875
 20
6.903722816704894
 30
0.0
  0
SPLINE
  5
A4
330
1F
100
AcDbEntity
  8
외형선
  6
Continuous
 62
     1
370
    15
100
AcDbSpline
210
0.0
220
0.0
230
1.0
 70
     8
 71
     3
 72
    14
 73
    10
 74
     0
 42
0.000000001
 43
0.00000001
 40
0.0
 40
0.0
 40
0.0
 40
0.0
 40
0.2499999999999995
 40
0.2499999999999995
 40
0.499999999999999
 40
0.499999999999999
 40
0.7499999999999994
 40
0.7499999999999994
 40
1.0
 40
1.0
 40
1.0
 40
1.0
 10
49.15
 20
1.259776215767392
 30
0.0
 10
49.26935993081502
 20
1.191808396357206
 30
0.0
 10
49.38963939798985
 20
1.126530095607701
 30
0.0
 10
49.62538563636721
 20
1.007643884978761
 30
0.0
 10
49.73735180224254
 20
0.9559698268293618
 30
0.0
 10
49.93179900775918
 20
0.8739761017126152
 30
0.0
 10
50.0124401677631
 20
0.8443798984668279
 30
0.0
 10
50.12122057416943
 20
0.8077719850852604
 30
0.0
 10
50.15000000000006
 20
0.8002581376899705
 30
0.0
 10
50.15000000000008
 20
0.8010048345857486
 30
0.0
  0
LINE
  5
A5
330
1F
100
AcDbEntity
  8
외형선
  6
Continuous
 62
     1
370
    15
100
AcDbLine
 10
50.15000000000003
 20
-6.421354977137882
 30
0.0
 11
50.15000000000003
 21
0.7859632851933973
 31
0.0
  0
SPLINE
  5
A6
330
1F
100
AcDbEntity
  8
외형선
  6
Continuous
 62
     1
370
    15
100
AcDbSpline
210
0.0
220
0.0
230
1.0
 70
     8
 71
     3
 72
    14
 73
    10
 74
     0
 42
0.000000001
 43
0.00000001
 40
0.0
 40
0.0
 40
0.0
 40
0.0
 40
0.25
 40
0.25
 40
0.5
 40
0.5
 40
0.75
 40
0.75
 40
1.0
 40
1.0
 40
1.0
 40
1.0
 10
50.15000000000006
 20
-6.421354977137882
 30
0.0
 10
50.15000000000008
 20
-6.549974855986547
 30
0.0
 10
50.11690582112893
 20
-6.663206449421616
 30
0.0
 10
50.00424314964758
 20
-6.843922905797537
 30
0.0
 10
49.92489822352966
 20
-6.911917837501759
 30
0.0
 10
49.73862467471016
 20
-7.002963904603591
 30
0.0
 10
49.63257327012236
 20
-7.026388709451716
 30
0.0
 10
49.40064383551609
 20
-7.033309645352721
 30
0.0
 10
49.27865224804406
 20
-7.017019369923069
 30
0.0
 10
49.15000000000006
 20
-6.980803553597959
 30
0.0
  0
SPLINE
  5
A7
330
1F
100
AcDbEntity
  8
외형선
  6
Continuous
 62
     1
370
    15
100
AcDbSpline
210
0.0
220
0.0
230
1.0
 70
     8
 71
     3
 72
    56
 73
    52
 74
     0
 42
0.000000001
 43
0.00000001
 40
0.0
 40
0.0
 40
0.0
 40
0.0
 40
0.0312499999999994
 40
0.0312499999999994
 40
0.0624999999999989
 40
0.0624999999999989
 40
0.1249999999999978
 40
0.1249999999999978
 40
0.1562499999999982
 40
0.1562499999999982
 40
0.1874999999999985
 40
0.1874999999999985
 40
0.2187499999999989
 40
0.2187499999999989
 40
0.2499999999999993
 40
0.2499999999999993
 40
0.2812499999999997
 40
0.2812499999999997
 40
0.3125000000000001
 40
0.3125000000000001
 40
0.3750000000000008
 40
0.3750000000000008
 40
0.4375000000000016
 40
0.4375000000000016
 40
0.4687500000000019
 40
0.4687500000000019
 40
0.5000000000000023
 40
0.5000000000000023
 40
0.5625000000000031
 40
0.5625000000000031
 40
0.5937500000000036
 40
0.5937500000000036
 40
0.625000000000004
 40
0.625000000000004
 40
0.6875000000000029
 40
0.6875000000000029
 40
0.7500000000000017
 40
0.7500000000000017
 40
0.7812500000000016
 40
0.7812500000000016
 40
0.8125000000000014
 40
0.8125000000000014
 40
0.8437500000000013
 40
0.8437500000000013
 40
0.8750000000000012
 40
0.8750000000000012
 40
0.9062500000000011
 40
0.9062500000000011
 40
0.937500000000001
 40
0.937500000000001
 40
1.0
 40
1.0
 40
1.0
 40
1.0
 10
49.15
 20
-6.98080355359795
 30
0.0
 10
48.79517821614615
 20
-6.880920646399897
 30
0.0
 10
48.43982639701893
 20
-6.774128295867855
 30
0.0
 10
47.73119482097555
 20
-6.547685213220673
 30
0.0
 10
47.37921678129492
 20
-6.428196544973268
 30
0.0
 10
46.31800856091875
 20
-6.05062989859562
 30
0.0
 10
45.60491340975361
 20
-5.773427489329072
 30
0.0
 10
44.54559196679572
 20
-5.326739600518656
 30
0.0
 10
44.19269111181958
 20
-5.17252038899567
 30
0.0
 10
43.48335175380155
 20
-4.853722479542041
 30
0.0
 10
43.12796136550715
 20
-4.689290631255694
 30
0.0
 10
42.41887243269279
 20
-4.351814156314361
 30
0.0
 10
42.06643897186768
 20
-4.178983704285798
 30
0.0
 10
41.35969564798059
 20
-3.825188573107364
 30
0.0
 10
41.00472930165011
 20
-3.644102655210852
 30
0.0
 10
40.29472809167872
 20
-3.275115163461733
 30
0.0
 10
39.93969629633342
 20
-3.087215181768498
 30
0.0
 10
39.23269309077959
 20
-2.706284036466879
 30
0.0
 10
38.88045029058038
 20
-2.513212743707209
 30
0.0
 10
37.81703624106949
 20
-1.92595921456943
 30
0.0
 10
37.10643581211392
 20
-1.525032421612546
 30
0.0
 10
35.69458945488515
 20
-0.7161478900719725
 30
0.0
 10
34.98152652416428
 20
-0.3059396202520691
 30
0.0
 10
33.91997550262574
 20
0.3072398526808171
 30
0.0
 10
33.56808255794206
 20
0.5111571794759322
 30
0.0
 10
32.85962879283086
 20
0.9184905281228564
 30
0.0
 10
32.50430087627687
 20
1.121667445229417
 30
0.0
 10
31.43971117380628
 20
1.727037067642977
 30
0.0
 10
30.7357103766859
 20
2.124349897123731
 30
0.0
 10
29.67103436551607
 20
2.707139259847436
 30
0.0
 10
29.31572906616301
 20
2.899009130566624
 30
0.0
 10
28.60742264671434
 20
3.276282585658931
 30
0.0
 10
28.25557120678665
 20
3.461493219221502
 30
0.0
 10
27.19376205670965
 20
4.007517623505897
 30
0.0
 10
26.48073219601213
 20
4.35805330985786
 30
0.0
 10
25.06935847585773
 20
5.019971302653658
 30
0.0
 10
24.35824813317014
 20
5.333364290528385
 30
0.0
 10
23.29501789615301
 20
5.769774705526576
 30
0.0
 10
22.94289959224724
 20
5.909428848946417
 30
0.0
 10
22.23569963560615
 20
6.177303821987918
 30
0.0
 10
21.88062021267029
 20
6.305504804732169
 30
0.0
 10
21.17062663680724
 20
6.549256342236296
 30
0.0
 10
20.81571555194503
 20
6.664805855307602
 30
0.0
 10
20.10918402375042
 20
6.882298131196949
 30
0.0
 10
19.75657533132363
 20
6.984360006217138
 30
0.0
 10
19.04737905448897
 20
7.174973395600763
 30
0.0
 10
18.69198623348009
 20
7.263399117927411
 30
0.0
 10
17.98274455987681
 20
7.425708104603463
 30
0.0
 10
17.63005113882407
 20
7.499521029742494
 30
0.0
 10
16.5703976989893
 20
7.698882720288841
 30
0.0
 10
15.85728496574307
 20
7.802433964493835
 30
0.0
 10
15.14999999999858
 20
7.874776612175366
 30
0.0
  0
SPLINE
  5
A8
330
1F
100
AcDbEntity
  8
외형선
  6
Continuous
 62
     1
370
    15
100
AcDbSpline
210
0.0
220
0.0
230
1.0
 70
     8
 71
     3
 72
    17
 73
    13
 74
     0
 42
0.000000001
 43
0.00000001
 40
0.0
 40
0.0
 40
0.0
 40
0.0
 40
0.0768285149693691
 40
0.174003194406609
 40
0.2711778740121382
 40
0.3683525537860979
 40
0.4655272337286334
 40
0.5724062325341824
 40
0.6792976481296205
 40
0.7861968473045018
 40
0.8930991824156136
 40
1.0
 40
1.0
 40
1.0
 40
1.0
 10
21.15916774883439
 20
6.549733837275435
 30
0.0
 10
21.87595865825978
 20
6.779203337187518
 30
0.0
 10
23.49936512409301
 20
7.298911755598423
 30
0.0
 10
26.02938857960863
 20
7.785951863057551
 30
0.0
 10
28.74923064181431
 20
8.039724488717876
 30
0.0
 10
31.46909559869995
 20
7.97693340241557
 30
0.0
 10
34.27941179888722
 20
7.59778335967564
 30
0.0
 10
37.18073742454608
 20
6.878194232221142
 30
0.0
 10
40.17279116954317
 20
5.817260932456927
 30
0.0
 10
43.16512639738965
 20
4.485003920059505
 30
0.0
 10
46.15756382522609
 20
2.948693405992183
 30
0.0
 10
48.15252599500649
 20
1.822745948601622
 30
0.0
 10
49.15000000000008
 20
1.259776215767339
 30
0.0
  0
LINE
  5
A9
330
1F
100
AcDbEntity
  8
외형선
  6
Continuous
370
    15
100
AcDbLine
 10
15.15000000000011
 20
7.874776612186952
 30
0.0
 11
15.14999999999883
 21
6.903722816704963
 31
0.0
  0
SPLINE
  5
AA
330
1F
100
AcDbEntity
  8
외형선
  6
Continuous
 62
     1
370
    15
100
AcDbSpline
210
0.0
220
0.0
230
1.0
 70
     8
 71
     3
 72
    14
 73
    10
 74
     0
 42
0.000000001
 43
0.00000001
 40
0.0
 40
0.0
 40
0.0
 40
0.0
 40
0.25
 40
0.25
 40
0.5
 40
0.5
 40
0.75
 40
0.75
 40
1.0
 40
1.0
 40
1.0
 40
1.0
 10
50.15000000000006
 20
2.785387070760406
 30
0.0
 10
50.15000000000008
 20
2.860575494967696
 30
0.0
 10
50.11690582112893
 20
2.954642744531289
 30
0.0
 10
50.00424314964758
 20
3.157344489499493
 30
0.0
 10
49.92489822352961
 20
3.265853078849564
 30
0.0
 10
49.73862467471007
 20
3.476119604687177
 30
0.0
 10
49.63257327012236
 20
3.577295183147277
 30
0.0
 10
49.40064383551609
 20
3.761600099434267
 30
0.0
 10
49.27865224804406
 20
3.841889367923213
 30
0.0
 10
49.15000000000006
 20
3.90663159302804
 30
0.0
  0
LINE
  5
AB
330
1F
100
AcDbEntity
  8
외형선
  6
Continuous
 62
     1
370
    15
100
AcDbLine
 10
50.15000000000003
 20
2.785387070760406
 30
0.0
 11
50.15000000000003
 21
0.8010048345857488
 31
0.0
  0
SPLINE
  5
AC
330
1F
100
AcDbEntity
  8
외형선
  6
Continuous
 62
     1
370
    15
100
AcDbSpline
210
0.0
220
0.0
230
1.0
 70
     8
 71
     3
 72
    13
 73
     9
 74
     0
 42
0.000000001
 43
0.00000001
 40
0.0
 40
0.0
 40
0.0
 40
0.0
 40
0.1850468110707833
 40
0.3700936222582254
 40
0.555140433562606
 40
0.7401872449841992
 40
0.9252340565232804
 40
1.0
 40
1.0
 40
1.0
 40
1.0
 10
49.15
 20
3.906631593028058
 30
0.0
 10
48.24338532128336
 20
4.348991665182879
 30
0.0
 10
46.43015596327854
 20
5.2337118097714
 30
0.0
 10
43.71031192497654
 20
6.318376854898027
 30
0.0
 10
40.99046788464242
 20
7.176243645643384
 30
0.0
 10
38.27062384221297
 20
7.736717959266862
 30
0.0
 10
36.09108769797306
 20
8.005066872651772
 30
0.0
 10
34.81816623441819
 20
7.973175557354911
 30
0.0
 10
34.4518594524873
 20
7.963998239340877
 30
0.0
  0
SPLINE
  5
AD
330
1F
100
AcDbEntity
  8
외형선
  6
Continuous
 62
     1
370
    15
100
AcDbSpline
210
0.0
220
0.0
230
1.0
 70
     8
 71
     3
 72
    13
 73
     9
 74
     0
 42
0.000000001
 43
0.00000001
 40
0.0
 40
0.0
 40
0.0
 40
0.0
 40
0.1885949889411438
 40
0.377189978208064
 40
0.5657849678010404
 40
0.7543799577203507
 40
0.9429749479662733
 40
1.0
 40
1.0
 40
1.0
 40
1.0
 10
15.14999999999878
 20
-4.042865245728616
 30
0.0
 10
16.05661562652047
 20
-4.479540064506434
 30
0.0
 10
17.86984688112994
 20
-5.352889702816378
 30
0.0
 10
20.5896937665892
 20
-6.4141779825448
 30
0.0
 10
23.3095406576044
 20
-7.246236097743004
 30
0.0
 10
26.02938755435358
 20
-7.774471681378446
 30
0.0
 10
28.11675019434553
 20
-8.015765956738036
 30
0.0
 10
29.29749720240229
 20
-7.975745369960192
 30
0.0
 10
29.57162857599941
 20
-7.966453880461835
 30
0.0
  0
LINE
  5
AE
330
1F
100
AcDbEntity
  8
외형선
  6
Continuous
370
    15
100
AcDbLine
 10
15.15000000000011
 20
-1.414842371125161
 30
0.0
 11
15.14999999999883
 21
-4.042865245728533
 31
0.0
  0
LINE
  5
B0
330
1F
100
AcDbEntity
  8
외형선
  6
Continuous
 62
     1
370
    15
100
AcDbLine
 10
50.15000000000003
 20
2.785387070760406
 30
0.0
 11
50.15000000000003
 21
6.955218452243383
 31
0.0
  0
SPLINE
  5
B1
330
1F
100
AcDbEntity
  8
외형선
  6
Continuous
 62
     1
370
    15
100
AcDbSpline
210
0.0
220
0.0
230
1.0
 70
     8
 71
     3
 72
    10
 73
     6
 74
     0
 42
0.000000001
 43
0.00000001
 40
0.0
 40
0.0
 40
0.0
 40
0.0
 40
0.0465449378160488
 40
0.523275852612895
 40
1.0
 40
1.0
 40
1.0
 40
1.0
 10
42.87293519548236
 20
6.54107199413528
 30
0.0
 10
42.97032328096476
 20
6.577489384344038
 30
0.0
 10
44.06519709230275
 20
6.986907503812521
 30
0.0
 10
46.15756575000368
 20
7.506177028713458
 30
0.0
 10
48.15252663659594
 20
7.769682199038791
 30
0.0
 10
49.15000000000008
 20
7.955218452243387
 30
0.0
  0
SPLINE
  5
B2
330
1F
100
AcDbEntity
  8
외형선
  6
Continuous
 62
     1
370
    15
100
AcDbSpline
210
0.0
220
0.0
230
1.0
 70
     8
 71
     3
 72
    10
 73
     6
 74
     0
 42
0.000000001
 43
0.00000001
 40
0.0
 40
0.0
 40
0.0
 40
0.0
 40
0.0042182062174743
 40
0.5021377856257362
 40
0.9999999999999999
 40
0.9999999999999999
 40
0.9999999999999999
 40
0.9999999999999999
 10
21.15916774883428
 20
-6.547583979827655
 30
0.0
 10
21.1507182278744
 20
-6.550788685624292
 30
0.0
 10
20.14488220999203
 20
-6.932278776279388
 30
0.0
 10
18.14180411887295
 20
-7.44124531185065
 30
0.0
 10
16.14722973845209
 20
-7.728838462994187
 30
0.0
 10
15.14999999999858
 20
-7.87262675472757
 30
0.0
  0
SPLINE
  5
B3
330
1F
100
AcDbEntity
  8
외형선
  6
Continuous
370
    15
100
AcDbSpline
210
0.0
220
0.0
230
1.0
 70
    24
 71
     3
 72
    13
 73
     9
 74
     0
 42
0.000000001
 43
0.00000001
 40
0.0
 40
0.0
 40
0.0
 40
0.0
 40
0.1895800870106098
 40
0.384118946734341
 40
0.5832526235055597
 40
0.7881611903934181
 40
0.987294867164623
 40
1.0
 40
1.0
 40
1.0
 40
1.0
 10
15.15000000000011
 20
-7.872626754739155
 30
0.0
 10
15.15000000000005
 20
-7.619920052622644
 30
0.0
 10
15.14999999999988
 20
-7.107896697320192
 30
0.0
 10
15.15000000000014
 20
-6.33079892743756
 30
0.0
 10
15.14999999999994
 20
-5.557027355000764
 30
0.0
 10
15.14999999999988
 20
-4.835566870947201
 30
0.0
 10
15.15000000000022
 20
-4.357860909814798
 30
0.0
 10
15.15
 20
-4.158390523152004
 30
0.0
 10
15.15000000000003
 20
-4.146427192334665
 30
0.0
  0
LINE
  5
B4
330
1F
100
AcDbEntity
  8
외형선
  6
Continuous
 62
     1
370
    15
100
AcDbLine
 10
50.15000000000003
 20
-6.421354977137882
 30
0.0
 11
50.15000000000003
 21
-6.953068594795596
 31
0.0
  0
LINE
  5
B5
330
1F
100
AcDbEntity
  8
외형선
  6
Continuous
370
    15
100
AcDbLine
 10
0.0
 20
0.0010749287238931
 30
0.0
 11
0.0
 21
8.001074928723893
 31
0.0
  0
LINE
  5
B6
330
1F
100
AcDbEntity
  8
외형선
  6
Continuous
370
    15
100
AcDbLine
 10
0.0
 20
-7.998925071276107
 30
0.0
 11
0.0
 21
0.0010749287238931
 31
0.0
  0
LINE
  5
B7
330
1F
100
AcDbEntity
  8
외형선
  6
Continuous
370
    15
100
AcDbLine
 10
-98.24999999999997
 20
0.0010749287238931
 30
0.0
 11
-98.24999999999997
 21
8.001074928723893
 31
0.0
  0
LINE
  5
B8
330
1F
100
AcDbEntity
  8
외형선
  6
Continuous
370
    15
100
AcDbLine
 10
-98.24999999999997
 20
-7.998925071276107
 30
0.0
 11
-98.24999999999997
 21
0.0010749287238931
 31
0.0
  0
LINE
  5
B9
330
1F
100
AcDbEntity
  8
외형선
  6
Continuous
370
    15
100
AcDbLine
 10
-99.84999999999997
 20
0.0010749287238931
 30
0.0
 11
-99.84999999999997
 21
6.40107492872391
 31
0.0
  0
LINE
  5
BA
330
1F
100
AcDbEntity
  8
외형선
  6
Continuous
370
    15
100
AcDbLine
 10
-99.84999999999997
 20
-6.398925071276124
 30
0.0
 11
-99.84999999999997
 21
0.0010749287238931
 31
0.0
  0
LINE
  5
BB
330
1F
100
AcDbEntity
  8
외형선
  6
Continuous
370
    15
100
AcDbLine
 10
0.1500000000000112
 20
0.0010749287238931
 30
0.0
 11
0.1500000000000112
 21
7.851074928723892
 31
0.0
  0
LINE
  5
BC
330
1F
100
AcDbEntity
  8
외형선
  6
Continuous
370
    15
100
AcDbLine
 10
0.1500000000000112
 20
-7.848925071276106
 30
0.0
 11
0.1500000000000112
 21
0.0010749287238931
 31
0.0
  0
LINE
  5
BD
330
1F
100
AcDbEntity
  8
외형선
  6
Continuous
370
    15
100
AcDbLine
 10
15.14999999999997
 20
6.796701233327306
 30
0.0
 11
15.15000000000003
 21
6.903722816704963
 31
0.0
  0
SPLINE
  5
BE
330
1F
100
AcDbEntity
  8
외형선
  6
Continuous
370
    15
100
AcDbSpline
210
0.0
220
0.0
230
1.0
 70
     8
 71
     3
 72
     8
 73
     4
 74
     0
 42
0.000000001
 43
0.00000001
 40
0.0
 40
0.0
 40
0.0
 40
0.0
 40
1.0
 40
1.0
 40
1.0
 40
1.0
 10
15.15
 20
6.796701233327263
 30
0.0
 10
14.81647404414477
 20
6.891377904085314
 30
0.0
 10
14.48448420652138
 20
6.980004284302686
 30
0.0
 10
14.1503712507417
 20
7.062662275369993
 30
0.0
  0
SPLINE
  5
BF
330
1F
100
AcDbEntity
  8
외형선
  6
Continuous
370
    15
100
AcDbSpline
210
0.0
220
0.0
230
1.0
 70
     8
 71
     3
 72
     8
 73
     4
 74
     0
 42
0.000000001
 43
0.00000001
 40
0.0
 40
0.0
 40
0.0
 40
0.0
 40
1.0
 40
1.0
 40
1.0
 40
1.0
 10
15.15000000000003
 20
-1.432103390391131
 30
0.0
 10
14.8164740441448
 20
-1.246151732799626
 30
0.0
 10
14.4844842065214
 20
-1.059239644438402
 30
0.0
 10
14.15037125074167
 20
-0.8711702559099885
 30
0.0
  0
SPLINE
  5
C0
330
1F
100
AcDbEntity
  8
외형선
  6
Continuous
370
    15
100
AcDbSpline
210
0.0
220
0.0
230
1.0
 70
     8
 71
     3
 72
     8
 73
     4
 74
     0
 42
0.000000001
 43
0.00000001
 40
0.0
 40
0.0
 40
0.0
 40
0.0
 40
1.0
 40
1.0
 40
1.0
 40
1.0
 10
15.15
 20
-3.928551405698018
 30
0.0
 10
14.81647404414477
 20
-3.764824063838597
 30
0.0
 10
14.48448420652138
 20
-3.597932892120372
 30
0.0
 10
14.1503712507417
 20
-3.427698050883705
 30
0.0
  0
LINE
  5
C1
330
1F
100
AcDbEntity
  8
외형선
  6
Continuous
370
    15
100
AcDbLine
 10
14.15037125074167
 20
-7.848925071276106
 30
0.0
 11
14.1503712507417
 21
-3.427654649058677
 31
0.0
  0
SPLINE
  5
C2
330
1F
100
AcDbEntity
  8
외형선
  6
Continuous
370
    15
100
AcDbSpline
210
0.0
220
0.0
230
1.0
 70
     8
 71
     3
 72
     8
 73
     4
 74
     0
 42
0.000000001
 43
0.00000001
 40
0.0
 40
0.0
 40
0.0
 40
0.0
 40
1.0
 40
1.0
 40
1.0
 40
1.0
 10
15.15000000000003
 20
-7.716988293718554
 30
0.0
 10
14.8164740441448
 20
-7.751517925879211
 30
0.0
 10
14.4844842065214
 20
-7.779287868125484
 30
0.0
 10
14.15037125074167
 20
-7.800315225465488
 30
0.0
  0
LINE
  5
C3
330
1F
100
AcDbEntity
  8
외형선
  6
Continuous
370
    15
100
AcDbLine
 10
14.15037125074167
 20
7.802464488385115
 30
0.0
 11
14.15037125074167
 21
7.851074928723892
 31
0.0
  0
SPLINE
  5
C4
330
1F
100
AcDbEntity
  8
외형선
  6
Continuous
370
    15
100
AcDbSpline
210
0.0
220
0.0
230
1.0
 70
     8
 71
     3
 72
     8
 73
     4
 74
     0
 42
0.000000001
 43
0.00000001
 40
0.0
 40
0.0
 40
0.0
 40
0.0
 40
1.0
 40
1.0
 40
1.0
 40
1.0
 10
15.15000000000003
 20
7.719138151166351
 30
0.0
 10
14.8164740441448
 20
7.753667783327007
 30
0.0
 10
14.4844842065214
 20
7.781437725573278
 30
0.0
 10
14.15037125074167
 20
7.80246508291328
 30
0.0
  0
LINE
  5
C5
330
1F
100
AcDbEntity
  8
외형선
  6
Continuous
370
    15
100
AcDbLine
 10
14.15037125074167
 20
-0.8711755733734301
 30
0.0
 11
14.1503712507417
 21
7.06268334907961
 31
0.0
  0
SPLINE
  5
C6
330
1F
100
AcDbEntity
  8
외형선
  6
Continuous
370
    15
100
AcDbSpline
210
0.0
220
0.0
230
1.0
 70
    24
 71
     3
 72
    21
 73
    17
 74
     0
 42
0.000000001
 43
0.00000001
 40
0.0
 40
0.0
 40
0.0
 40
0.0
 40
0.0530698481999649
 40
0.1264068207620017
 40
0.2018705704965379
 40
0.2752075430585699
 40
0.3506712927931002
 40
0.4240082653551314
 40
0.4994720150896609
 40
0.5728089876516929
 40
0.648272737386223
 40
0.721609709948255
 40
0.7970734596827828
 40
0.8704104322447975
 40
0.9458741819793088
 40
1.0
 40
1.0
 40
1.0
 40
1.0
 10
15.15000000000005
 20
-1.414640333082819
 30
0.0
 10
15.15000000000003
 20
-1.392424176758462
 30
0.0
 10
15.15
 20
-1.339507618943332
 30
0.0
 10
15.15000000000005
 20
-1.104176219291952
 30
0.0
 10
15.15000000000008
 20
-0.7358204479465696
 30
0.0
 10
15.14999999999994
 20
-0.2431818580995728
 30
0.0
 10
15.14999999999994
 20
0.3452707529626343
 30
0.0
 10
15.15000000000011
 20
1.024990618685061
 30
0.0
 10
15.14999999999994
 20
1.764101277993412
 30
0.0
 10
15.15000000000003
 20
2.555083262550956
 30
0.0
 10
15.14999999999997
 20
3.361322393197151
 30
0.0
 10
15.15000000000008
 20
4.17436756980887
 30
0.0
 10
15.15000000000016
 20
4.957126162663251
 30
0.0
 10
15.15
 20
5.699451785280128
 30
0.0
 10
15.14999999999994
 20
6.316318549922639
 30
0.0
 10
15.14999999999997
 20
6.655171956438272
 30
0.0
 10
15.14999999999997
 20
6.796701233327306
 30
0.0
  0
SPLINE
  5
C7
330
1F
100
AcDbEntity
  8
외형선
  6
Continuous
370
    15
100
AcDbSpline
210
0.0
220
0.0
230
1.0
 70
    24
 71
     3
 72
    12
 73
     8
 74
     0
 42
0.000000001
 43
0.00000001
 40
0.0
 40
0.0
 40
0.0
 40
0.0
 40
0.1968130609260572
 40
0.3987544544845383
 40
0.6058631843343707
 40
0.8189780813803913
 40
1.0
 40
1.0
 40
1.0
 40
1.0
 10
15.14999999999977
 20
-7.716988293718583
 30
0.0
 10
15.14999999999988
 20
-7.464275977196617
 30
0.0
 10
15.15000000000014
 20
-6.952266451801856
 30
0.0
 10
15.15
 20
-6.178600835242535
 30
0.0
 10
15.15
 20
-5.416605843999172
 30
0.0
 10
15.15000000000008
 20
-4.721777955280791
 30
0.0
 10
15.15
 20
-4.327502696211054
 30
0.0
 10
15.15
 20
-4.146417192334664
 30
0.0
  0
LINE
  5
C8
330
1F
100
AcDbEntity
  8
중심선
 62
     1
100
AcDbLine
 10
-102.85
 20
0.0010749287238892
 30
0.0
 11
53.15000000000003
 21
0.0010749287239088
 31
0.0
  0
LINE
  5
C9
330
1F
100
AcDbEntity
  8
참조1
100
AcDbLine
 10
-24.84999999999997
 20
0.0010749287238892
 30
0.0
 11
-24.84999999999997
 21
-39.99892507127611
 31
0.0
  0
LINE
  5
CA
330
1F
100
AcDbEntity
  8
참조1
100
AcDbLine
 10
-24.84999999999997
 20
-39.99892507127611
 30
0.0
 11
-85.00885681430864
 21
-39.9989250712761
 31
0.0
  0
CIRCLE
  5
CB
330
1F
100
AcDbEntity
  8
해칭선
100
AcDbCircle
 10
0.0000000000000139
 20
0.0
 30
0.0
 40
3.000000000000008
  0
INSERT
  5
CC
330
1F
100
AcDbEntity
  8
0
  6
Continuous
 62
     7
100
AcDbBlockReference
 66
     1
  2
블럭10
 10
-38.79027293212518
 20
-52.04609937292004
 30
0.0
  0
ATTRIB
  5
CD
330
CC
100
AcDbEntity
  8
FORMAT
 62
     2
100
AcDbText
 10
-59.64852046371772
 20
-49.97073246008785
 30
0.0
 40
4.233333333333333
  1
SEME6416010150E [ 4 FLUTE ]
 41
0.75
  7
SLDTEXTSTYLE0
 11
-59.64852046371772
 21
-52.08739912675452
 31
0.0
100
AcDbAttribute
  2
AUTOATTR0
 70
     0
 74
     1
  0
SEQEND
  5
CE
330
CC
100
AcDbEntity
  8
0
  6
Continuous
 62
     7
  0
HATCH
  5
CF
330
1F
100
AcDbEntity
  8
중심선
100
AcDbHatch
 10
0.0
 20
0.0
 30
0.0
210
0.0
220
0.0
230
1.0
  2
SOLID
 70
     1
 71
     0
 91
        1
 92
        0
 93
        4
 72
     1
 10
-33.07536362774432
 20
-35.7989250712761
 11
-36.52163887158161
 21
-35.7989250712761
 72
     1
 10
-36.52163887158161
 20
-35.7989250712761
 11
-38.64986873078563
 21
-38.3352506518487
 72
     1
 10
-38.64986873078563
 20
-38.3352506518487
 11
-35.2035604018352
 21
-38.33521122254621
 72
     1
 10
-35.2035604018352
 20
-38.33521122254621
 11
-33.07536362774432
 21
-35.7989250712761
 97
        0
 75
     0
 76
     1
 98
        1
 10
0.0
 20
0.0
  0
HATCH
  5
D0
330
1F
100
AcDbEntity
  8
중심선
100
AcDbHatch
 10
0.0
 20
0.0
 30
0.0
210
0.0
220
0.0
230
1.0
  2
SOLID
 70
     1
 71
     0
 91
        1
 92
        0
 93
        4
 72
     1
 10
-28.06259963670837
 20
-35.7989250712761
 11
-31.5088748805456
 21
-35.79892507127608
 72
     1
 10
-31.5088748805456
 20
-35.79892507127608
 11
-36.04001288890304
 21
-41.19892507127612
 72
     1
 10
-36.04001288890304
 20
-41.19892507127612
 11
-32.59373764506577
 21
-41.19892507127612
 72
     1
 10
-32.59373764506577
 20
-41.19892507127612
 11
-28.06259963670837
 21
-35.7989250712761
 97
        0
 75
     0
 76
     1
 98
        1
 10
0.0
 20
0.0
  0
HATCH
  5
D1
330
1F
100
AcDbEntity
  8
중심선
100
AcDbHatch
 10
0.0
 20
0.0
 30
0.0
210
0.0
220
0.0
230
1.0
  2
SOLID
 70
     1
 71
     0
 91
        1
 92
        0
 93
        4
 72
     1
 10
-23.04983564567242
 20
-35.79892507127608
 11
-26.49611088950959
 21
-35.79892507127608
 72
     1
 10
-26.49611088950959
 20
-35.79892507127608
 11
-33.54454779139884
 21
-44.19892507127612
 72
     1
 10
-33.54454779139884
 20
-44.19892507127612
 11
-30.09827254756156
 21
-44.19892507127612
 72
     1
 10
-30.09827254756156
 20
-44.19892507127612
 11
-23.04983564567242
 21
-35.79892507127608
 97
        0
 75
     0
 76
     1
 98
        1
 10
0.0
 20
0.0
  0
HATCH
  5
D2
330
1F
100
AcDbEntity
  8
중심선
100
AcDbHatch
 10
0.0
 20
0.0
 30
0.0
210
0.0
220
0.0
230
1.0
  2
SOLID
 70
     1
 71
     0
 91
        1
 92
        0
 93
        6
 72
     3
 10
-18.24994521466028
 20
-39.99892507132738
 11
3.960054785062284
 21
1.540850780301639E-10
 40
0.3939339440162633
 50
17.09539180608447
 51
320.0019657685075
 73
     0
 72
     1
 10
-16.56694555895971
 20
-38.58681907591441
 11
-14.26164368525867
 21
-36.65249236586649
 72
     3
 10
-18.24994521471313
 20
-39.99892507127625
 11
6.600054785286829
 21
-1.249000902703301E-13
 40
0.6363583540795982
 50
39.99873849337428
 51
368.4976242363725
 73
     1
 72
     1
 10
-11.82461272281254
 20
-39.03892507120613
 11
-19.56987790787723
 21
-39.03892507120613
 72
     1
 10
-19.56987790787723
 20
-39.03892507120613
 11
-19.56990295232314
 21
-40.95892507120602
 72
     1
 10
-19.56990295232314
 20
-40.95892507120602
 11
-15.12852318285113
 21
-40.95892507120599
 97
        0
 75
     0
 76
     1
 98
        1
 10
0.0
 20
0.0
  0
DIMENSION
  5
D3
330
1F
100
AcDbEntity
  8
치수문자_일반주서
100
AcDbDimension
  2
_D
 10
70.09221512437446
 20
-7.998925071275972
 30
0.0
 11
70.09221512437443
 21
0.0010749287240088
 31
0.0
 70
   160
  1
%%c<>
 71
     2
 42
15.99999999999999
  3
SLDDIMSTYLE0
100
AcDbAlignedDimension
 13
34.45007513707568
 23
8.0010749287239
 33
0.0
 14
34.45007513707568
 24
-7.998925071276093
 34
0.0
 50
90.0000000000002
100
AcDbRotatedDimension
1001
PE_URL
1000

  0
DIMENSION
  5
E1
330
1F
100
AcDbEntity
  8
치수문자_일반주서
100
AcDbDimension
  2
_D_1
 10
-108.2384684361648
 20
-7.998925071276115
 30
0.0
 11
-108.2384684361648
 21
0.0010749287238995
 31
0.0
 70
   160
  1
%%c<>
 71
     2
 42
-1.0
  3
SLDDIMSTYLE0
100
AcDbAlignedDimension
 13
-98.24999999999997
 23
8.0010749287239
 33
0.0
 14
-98.24999999999997
 24
-7.998925071276114
 34
0.0
 50
90.0000000000002
100
AcDbRotatedDimension
  0
DIMENSION
  5
EE
330
1F
100
AcDbEntity
  8
치수문자_일반주서
100
AcDbDimension
  2
_D_2
 10
15.1500000000001
 20
17.09125721628638
 30
0.0
 11
32.65000000000007
 21
17.09125721628638
 31
0.0
 70
   160
  1
<>
 71
     2
 42
34.99999999999991
  3
SLDDIMSTYLE0
100
AcDbAlignedDimension
 13
50.15000000000003
 23
6.955218452243383
 33
0.0
 14
15.15000000000011
 24
7.874776612186952
 34
0.0
 50
0.0000000000000116
100
AcDbRotatedDimension
1001
PE_URL
1000

  0
DIMENSION
  5
F9
330
1F
100
AcDbEntity
  8
치수문자_일반주서
100
AcDbDimension
  2
_D_3
 10
0.1500000000000128
 20
23.09125721628636
 30
0.0
 11
25.15000000000003
 21
23.09125721628636
 31
0.0
 70
   160
  1
<>
 71
     2
 42
50.00000000000001
  3
SLDDIMSTYLE0
100
AcDbAlignedDimension
 13
50.15000000000003
 23
6.955218452243383
 33
0.0
 14
0.1500000000000112
 24
7.851074928723892
 34
0.0
 50
0.0000000000000041
100
AcDbRotatedDimension
1001
PE_URL
1000

  0
DIMENSION
  5
103
330
1F
100
AcDbEntity
  8
치수문자_일반주서
100
AcDbDimension
  2
_D_4
 10
-99.84999999999995
 20
31.49875451744828
 30
0.0
 11
-24.84999999999997
 21
31.49875451744828
 31
0.0
 70
   160
  1
<>
 71
     2
 42
150.0
  3
SLDDIMSTYLE0
100
AcDbAlignedDimension
 13
50.15000000000003
 23
6.955218452243383
 33
0.0
 14
-99.84999999999997
 24
6.40107492872391
 34
0.0
 50
0.0000000000000014
100
AcDbRotatedDimension
1001
PE_URL
1000

  0
LINE
  5
10D
330
1F
100
AcDbEntity
  8
참조1
100
AcDbLine
 10
12.96348381534562
 20
7.441074928723896
 30
0.0
 11
12.96348381534562
 21
-7.438925071276109
 31
0.0
  0
LINE
  5
10E
330
1F
100
AcDbEntity
  8
참조1
100
AcDbLine
 10
25.66348381534562
 20
5.441074928723896
 30
0.0
 11
12.96348381534562
 21
5.441074928723896
 31
0.0
  0
SOLID
  5
10F
330
1F
100
AcDbEntity
  8
참조1
100
AcDbTrace
 10
12.96348381534562
 20
5.441074928723896
 30
0.0
 11
19.31348381534562
 21
4.425074928723896
 31
0.0
 12
19.31348381534562
 22
6.457074928723896
 32
0.0
 13
19.31348381534562
 23
6.457074928723896
 33
0.0
  0
LINE
  5
110
330
1F
100
AcDbEntity
  8
참조1
100
AcDbLine
 10
25.66348381534562
 20
-5.438925071276109
 30
0.0
 11
12.96348381534562
 21
-5.438925071276109
 31
0.0
  0
SOLID
  5
111
330
1F
100
AcDbEntity
  8
참조1
100
AcDbTrace
 10
12.96348381534562
 20
-5.438925071276109
 30
0.0
 11
19.31348381534562
 21
-6.454925071276109
 31
0.0
 12
19.31348381534562
 22
-4.422925071276109
 32
0.0
 13
19.31348381534562
 23
-4.422925071276109
 33
0.0
  0
MTEXT
  5
112
330
1F
100
AcDbEntity
  8
참조1
100
AcDbMText
 10
22.3609739078159
 20
10.98929157337383
 30
0.0
 40
3.5
 41
0.0
 71
     1
 72
     1
  1
A
  7
SLDTEXTSTYLE0
 73
     1
 44
1.0
  0
MTEXT
  5
113
330
1F
100
AcDbEntity
  8
참조1
100
AcDbMText
 10
22.3609739078159
 20
0.1092915733738251
 30
0.0
 40
3.5
 41
0.0
 71
     1
 72
     1
  1
A
  7
SLDTEXTSTYLE0
 73
     1
 44
1.0
  0
INSERT
  5
11A
330
1F
100
AcDbEntity
  8
해칭선
100
AcDbBlockReference
  2
SW_DOWELSYMBOL_0
 10
0.0000000000000139
 20
0.0
 30
0.0
  0
ARC
  5
13D
330
1F
100
AcDbEntity
  8
0
 62
     1
100
AcDbCircle
 10
49.15000000000008
 20
6.955218452243387
 30
0.0
 40
1.0
100
AcDbArc
 50
0.0000000000000509
 51
90.0
  0
ARC
  5
13E
102
{ACAD_REACTORS
102
}
330
1F
100
AcDbEntity
  8
0
 62
     1
100
AcDbCircle
 10
49.15000000000008
 20
-6.95306859479557
 30
0.0
 40
1.0
100
AcDbArc
 50
270.0
 51
359.9999999999999
  0
DIMENSION
  5
14B
102
{ACAD_REACTORS
102
}
102
{ACAD_XDICTIONARY
360
14C
102
}
330
1F
100
AcDbEntity
  8
0
100
AcDbDimension
  2
*D8
 10
49.15000000000008
 20
-6.95306859479557
 30
0.0
 11
62.06593801292587
 21
-15.36785595063361
 31
0.0
 70
   164
 71
     5
 42
0.9999999999999999
  3
ISO-25
100
AcDbRadialDimension
 15
49.68055629807788
 25
-7.800718295184819
 35
0.0
 40
0.0
1001
ACAD
1000
DSTYLE
1002
{
1070
   179
1070
     2
1070
   143
1040
0.0393700787401575
1070
    41
1040
3.302
1070
    44
1040
1.0
1070
    42
1040
1.0
1070
   147
1040
1.524
1070
    73
1070
     1
1070
    74
1070
     1
1070
   140
1040
3.5
1070
   284
1070
     0
1070
    78
1070
     0
1002
}
1001
ACAD_DSTYLE_DIMRADIAL_EXTENSION
1070
   387
1070
     1
1070
   388
1040
4.71238898038469
1070
   390
1040
6.283185307179585
  0
ENDSEC
  0
SECTION
  2
OBJECTS
  0
DICTIONARY
  5
C
330
0
100
AcDbDictionary
281
     1
  3
ACAD_GROUP
350
D
  3
ACAD_LAYOUT
350
1A
  3
ACAD_MLINESTYLE
350
17
  3
ACAD_PLOTSETTINGS
350
19
  3
ACAD_PLOTSTYLENAME
350
E
  3
ACAD_SCALELIST
350
47
  3
APPDATA
350
13C
  3
DWGPROPS
350
15A
  0
DICTIONARY
  5
14C
330
14B
100
AcDbDictionary
280
     1
281
     1
  0
DICTIONARY
  5
D
102
{ACAD_REACTORS
330
C
102
}
330
C
100
AcDbDictionary
281
     1
  0
DICTIONARY
  5
1A
102
{ACAD_REACTORS
330
C
102
}
330
C
100
AcDbDictionary
281
     1
  3
Layout1
350
1E
  3
Layout2
350
26
  3
Model
350
22
  0
DICTIONARY
  5
17
102
{ACAD_REACTORS
330
C
102
}
330
C
100
AcDbDictionary
281
     1
  3
Standard
350
18
  0
DICTIONARY
  5
19
102
{ACAD_REACTORS
330
C
102
}
330
C
100
AcDbDictionary
281
     1
  0
ACDBDICTIONARYWDFLT
  5
E
102
{ACAD_REACTORS
330
C
102
}
330
C
100
AcDbDictionary
281
     1
  3
Normal
350
F
100
AcDbDictionaryWithDefault
340
F
  0
DICTIONARY
  5
47
102
{ACAD_REACTORS
330
C
102
}
330
C
100
AcDbDictionary
281
     1
  3
A0
350
48
  3
A1
350
49
  3
A2
350
4A
  3
A3
350
4B
  3
A4
350
4C
  3
A5
350
4D
  3
A6
350
4E
  3
A7
350
4F
  3
A8
350
50
  3
A9
350
51
  3
B0
350
52
  3
B1
350
53
  3
B2
350
54
  3
B3
350
55
  3
B4
350
56
  3
B5
350
57
  3
B6
350
58
  3
B7
350
59
  3
B8
350
5A
  3
B9
350
5B
  3
C0
350
5C
  3
C1
350
5D
  3
C2
350
5E
  3
C3
350
5F
  3
C4
350
60
  3
C5
350
61
  3
C6
350
62
  3
C7
350
63
  3
C8
350
64
  3
C9
350
65
  3
D0
350
66
  3
D1
350
67
  3
D2
350
68
  0
DICTIONARY
  5
13C
102
{ACAD_REACTORS
330
C
102
}
330
C
100
AcDbDictionary
281
     1
  0
XRECORD
  5
15A
102
{ACAD_REACTORS
330
C
102
}
330
C
100
AcDbXrecord
280
     1
  1
DWGPROPS COOKIE
  2

  3

  4

  6

  7

  8
USER
  9

300
=
301
=
302
=
303
=
304
=
305
=
306
=
307
=
308
=
309
=
 40
0.0
 41
2458274.342184676
 42
2458275.102797674
  1

 90
        0
  0
LAYOUT
  5
1E
102
{ACAD_REACTORS
330
1A
102
}
330
1A
100
AcDbPlotSettings
  1

  2
none_device
  4

  6

 40
0.0
 41
0.0
 42
0.0
 43
0.0
 44
0.0
 45
0.0
 46
0.0
 47
0.0
 48
0.0
 49
0.0
140
0.0
141
0.0
142
1.0
143
1.0
 70
   688
 72
     1
 73
     0
 74
     5
  7

 75
    16
147
1.0
148
0.0
149
0.0
100
AcDbLayout
  1
Layout1
 70
     1
 71
     1
 10
0.0
 20
0.0
 11
420.0
 21
297.0
 12
0.0
 22
0.0
 32
0.0
 14
1.000000000000000E+20
 24
1.000000000000000E+20
 34
1.000000000000000E+20
 15
-1.000000000000000E+20
 25
-1.000000000000000E+20
 35
-1.000000000000000E+20
146
0.0
 13
0.0
 23
0.0
 33
0.0
 16
1.0
 26
0.0
 36
0.0
 17
0.0
 27
1.0
 37
0.0
 76
     0
330
1B
  0
LAYOUT
  5
26
102
{ACAD_REACTORS
330
1A
102
}
330
1A
100
AcDbPlotSettings
  1

  2
none_device
  4

  6

 40
0.0
 41
0.0
 42
0.0
 43
0.0
 44
0.0
 45
0.0
 46
0.0
 47
0.0
 48
0.0
 49
0.0
140
0.0
141
0.0
142
1.0
143
1.0
 70
   688
 72
     1
 73
     0
 74
     5
  7

 75
    16
147
1.0
148
0.0
149
0.0
100
AcDbLayout
  1
Layout2
 70
     1
 71
     2
 10
0.0
 20
0.0
 11
0.0
 21
0.0
 12
0.0
 22
0.0
 32
0.0
 14
0.0
 24
0.0
 34
0.0
 15
0.0
 25
0.0
 35
0.0
146
0.0
 13
0.0
 23
0.0
 33
0.0
 16
1.0
 26
0.0
 36
0.0
 17
0.0
 27
1.0
 37
0.0
 76
     0
330
23
  0
LAYOUT
  5
22
102
{ACAD_REACTORS
330
1A
102
}
330
1A
100
AcDbPlotSettings
  1

  2
none_device
  4
ANSI_A_(11.00_x_8.50_Inches)
  6

 40
6.35
 41
19.05
 42
6.35000508
 43
19.05000254
 44
279.4
 45
215.9
 46
170.1263297901979
 47
100.3109861883406
 48
0.0
 49
0.0
140
0.0
141
0.0
142
0.0611051628814958
143
1.0
 70
  1696
 72
     0
 73
     0
 74
     0
  7

 75
     0
147
0.0235690232323232
148
0.0
149
0.0
100
AcDbLayout
  1
Model
 70
     1
 71
     0
 10
0.0
 20
0.0
 11
420.0
 21
297.0
 12
0.0
 22
0.0
 32
0.0
 14
-112.8036777020266
 24
-49.97073246008785
 34
0.0
 15
70.64254845770782
 25
35.87375451744828
 35
0.0
146
0.0
 13
0.0
 23
0.0
 33
0.0
 16
1.0
 26
0.0
 36
0.0
 17
0.0
 27
1.0
 37
0.0
 76
     0
330
1F
331
29
  0
MLINESTYLE
  5
18
102
{ACAD_REACTORS
330
17
102
}
330
17
100
AcDbMlineStyle
  2
Standard
 70
     0
  3

 62
   256
 51
90.0
 52
90.0
 71
     2
 49
0.5
 62
   256
  6
BYLAYER
 49
-0.5
 62
   256
  6
BYLAYER
  0
ACDBPLACEHOLDER
  5
F
102
{ACAD_REACTORS
330
E
102
}
330
E
  0
SCALE
  5
48
102
{ACAD_REACTORS
330
47
102
}
330
47
100
AcDbScale
 70
     0
300
1:1
140
1.0
141
1.0
290
     1
  0
SCALE
  5
49
102
{ACAD_REACTORS
330
47
102
}
330
47
100
AcDbScale
 70
     0
300
1:2
140
1.0
141
2.0
290
     0
  0
SCALE
  5
4A
102
{ACAD_REACTORS
330
47
102
}
330
47
100
AcDbScale
 70
     0
300
1:4
140
1.0
141
4.0
290
     0
  0
SCALE
  5
4B
102
{ACAD_REACTORS
330
47
102
}
330
47
100
AcDbScale
 70
     0
300
1:5
140
1.0
141
5.0
290
     0
  0
SCALE
  5
4C
102
{ACAD_REACTORS
330
47
102
}
330
47
100
AcDbScale
 70
     0
300
1:8
140
1.0
141
8.0
290
     0
  0
SCALE
  5
4D
102
{ACAD_REACTORS
330
47
102
}
330
47
100
AcDbScale
 70
     0
300
1:10
140
1.0
141
10.0
290
     0
  0
SCALE
  5
4E
102
{ACAD_REACTORS
330
47
102
}
330
47
100
AcDbScale
 70
     0
300
1:16
140
1.0
141
16.0
290
     0
  0
SCALE
  5
4F
102
{ACAD_REACTORS
330
47
102
}
330
47
100
AcDbScale
 70
     0
300
1:20
140
1.0
141
20.0
290
     0
  0
SCALE
  5
50
102
{ACAD_REACTORS
330
47
102
}
330
47
100
AcDbScale
 70
     0
300
1:30
140
1.0
141
30.0
290
     0
  0
SCALE
  5
51
102
{ACAD_REACTORS
330
47
102
}
330
47
100
AcDbScale
 70
     0
300
1:40
140
1.0
141
40.0
290
     0
  0
SCALE
  5
52
102
{ACAD_REACTORS
330
47
102
}
330
47
100
AcDbScale
 70
     0
300
1:50
140
1.0
141
50.0
290
     0
  0
SCALE
  5
53
102
{ACAD_REACTORS
330
47
102
}
330
47
100
AcDbScale
 70
     0
300
1:100
140
1.0
141
100.0
290
     0
  0
SCALE
  5
54
102
{ACAD_REACTORS
330
47
102
}
330
47
100
AcDbScale
 70
     0
300
2:1
140
2.0
141
1.0
290
     0
  0
SCALE
  5
55
102
{ACAD_REACTORS
330
47
102
}
330
47
100
AcDbScale
 70
     0
300
4:1
140
4.0
141
1.0
290
     0
  0
SCALE
  5
56
102
{ACAD_REACTORS
330
47
102
}
330
47
100
AcDbScale
 70
     0
300
8:1
140
8.0
141
1.0
290
     0
  0
SCALE
  5
57
102
{ACAD_REACTORS
330
47
102
}
330
47
100
AcDbScale
 70
     0
300
10:1
140
10.0
141
1.0
290
     0
  0
SCALE
  5
58
102
{ACAD_REACTORS
330
47
102
}
330
47
100
AcDbScale
 70
     0
300
100:1
140
100.0
141
1.0
290
     0
  0
SCALE
  5
59
102
{ACAD_REACTORS
330
47
102
}
330
47
100
AcDbScale
 70
     0
300
1/128" = 1'-0"
140
0.0078125
141
12.0
290
     0
  0
SCALE
  5
5A
102
{ACAD_REACTORS
330
47
102
}
330
47
100
AcDbScale
 70
     0
300
1/64" = 1'-0"
140
0.015625
141
12.0
290
     0
  0
SCALE
  5
5B
102
{ACAD_REACTORS
330
47
102
}
330
47
100
AcDbScale
 70
     0
300
1/32" = 1'-0"
140
0.03125
141
12.0
290
     0
  0
SCALE
  5
5C
102
{ACAD_REACTORS
330
47
102
}
330
47
100
AcDbScale
 70
     0
300
1/16" = 1'-0"
140
0.0625
141
12.0
290
     0
  0
SCALE
  5
5D
102
{ACAD_REACTORS
330
47
102
}
330
47
100
AcDbScale
 70
     0
300
3/32" = 1'-0"
140
0.09375
141
12.0
290
     0
  0
SCALE
  5
5E
102
{ACAD_REACTORS
330
47
102
}
330
47
100
AcDbScale
 70
     0
300
1/8" = 1'-0"
140
0.125
141
12.0
290
     0
  0
SCALE
  5
5F
102
{ACAD_REACTORS
330
47
102
}
330
47
100
AcDbScale
 70
     0
300
3/16" = 1'-0"
140
0.1875
141
12.0
290
     0
  0
SCALE
  5
60
102
{ACAD_REACTORS
330
47
102
}
330
47
100
AcDbScale
 70
     0
300
1/4" = 1'-0"
140
0.25
141
12.0
290
     0
  0
SCALE
  5
61
102
{ACAD_REACTORS
330
47
102
}
330
47
100
AcDbScale
 70
     0
300
3/8" = 1'-0"
140
0.375
141
12.0
290
     0
  0
SCALE
  5
62
102
{ACAD_REACTORS
330
47
102
}
330
47
100
AcDbScale
 70
     0
300
1/2" = 1'-0"
140
0.5
141
12.0
290
     0
  0
SCALE
  5
63
102
{ACAD_REACTORS
330
47
102
}
330
47
100
AcDbScale
 70
     0
300
3/4" = 1'-0"
140
0.75
141
12.0
290
     0
  0
SCALE
  5
64
102
{ACAD_REACTORS
330
47
102
}
330
47
100
AcDbScale
 70
     0
300
1" = 1'-0"
140
1.0
141
12.0
290
     0
  0
SCALE
  5
65
102
{ACAD_REACTORS
330
47
102
}
330
47
100
AcDbScale
 70
     0
300
1-1/2" = 1'-0"
140
1.5
141
12.0
290
     0
  0
SCALE
  5
66
102
{ACAD_REACTORS
330
47
102
}
330
47
100
AcDbScale
 70
     0
300
3" = 1'-0"
140
3.0
141
12.0
290
     0
  0
SCALE
  5
67
102
{ACAD_REACTORS
330
47
102
}
330
47
100
AcDbScale
 70
     0
300
6" = 1'-0"
140
6.0
141
12.0
290
     0
  0
SCALE
  5
68
102
{ACAD_REACTORS
330
47
102
}
330
47
100
AcDbScale
 70
     0
300
1'-0" = 1'-0"
140
12.0
141
12.0
290
     0
  0
ENDSEC
  0
EOF
