  0
SECTION
  2
HEADER
  9
$ACADVER
  1
AC1015
  9
$ACADMAINTVER
 70
     6
  9
$DWGCODEPAGE
  3
ANSI_949
  9
$INSBASE
 10
0.0
 20
0.0
 30
0.0
  9
$EXTMIN
 10
-52.87867770202656
 20
-49.97073246008785
 30
0.0
  9
$EXTMAX
 10
85.5884838153456
 20
36.51667383722278
 30
0.0
  9
$LIMMIN
 10
0.0
 20
0.0
  9
$LIMMAX
 10
420.0
 20
297.0
  9
$ORTHOMODE
 70
     1
  9
$REGENMODE
 70
     1
  9
$FILLMODE
 70
     1
  9
$QTEXTMODE
 70
     0
  9
$MIRRTEXT
 70
     1
  9
$LTSCALE
 40
1.0
  9
$ATTMODE
 70
     1
  9
$TEXTSIZE
 40
3.5
  9
$TRACEWID
 40
1.0
  9
$TEXTSTYLE
  7
Standard
  9
$CLAYER
  8
0
  9
$CELTYPE
  6
ByLayer
  9
$CECOLOR
 62
   256
  9
$CELTSCALE
 40
1.0
  9
$DISPSILH
 70
     0
  9
$DIMSCALE
 40
1.0
  9
$DIMASZ
 40
3.302
  9
$DIMEXO
 40
1.0
  9
$DIMDLI
 40
3.75
  9
$DIMRND
 40
0.0
  9
$DIMDLE
 40
0.0
  9
$DIMEXE
 40
1.0
  9
$DIMTP
 40
0.0
  9
$DIMTM
 40
0.0
  9
$DIMTXT
 40
3.5
  9
$DIMCEN
 40
2.5
  9
$DIMTSZ
 40
0.0
  9
$DIMTOL
 70
     0
  9
$DIMLIM
 70
     0
  9
$DIMTIH
 70
     1
  9
$DIMTOH
 70
     1
  9
$DIMSE1
 70
     0
  9
$DIMSE2
 70
     0
  9
$DIMTAD
 70
     1
  9
$DIMZIN
 70
     0
  9
$DIMBLK
  1

  9
$DIMASO
 70
     1
  9
$DIMSHO
 70
     1
  9
$DIMPOST
  1

  9
$DIMAPOST
  1

  9
$DIMALT
 70
     0
  9
$DIMALTD
 70
     3
  9
$DIMALTF
 40
0.0393700787401575
  9
$DIMLFAC
 40
1.0
  9
$DIMTOFL
 70
     1
  9
$DIMTVP
 40
0.0
  9
$DIMTIX
 70
     0
  9
$DIMSOXD
 70
     0
  9
$DIMSAH
 70
     0
  9
$DIMBLK1
  1

  9
$DIMBLK2
  1

  9
$DIMSTYLE
  2
ISO-25
  9
$DIMCLRD
 70
     0
  9
$DIMCLRE
 70
     0
  9
$DIMCLRT
 70
     0
  9
$DIMTFAC
 40
1.0
  9
$DIMGAP
 40
1.524
  9
$DIMJUST
 70
     0
  9
$DIMSD1
 70
     0
  9
$DIMSD2
 70
     0
  9
$DIMTOLJ
 70
     0
  9
$DIMTZIN
 70
     0
  9
$DIMALTZ
 70
     0
  9
$DIMALTTZ
 70
     0
  9
$DIMUPT
 70
     0
  9
$DIMDEC
 70
     2
  9
$DIMTDEC
 70
     2
  9
$DIMALTU
 70
     2
  9
$DIMALTTD
 70
     3
  9
$DIMTXSTY
  7
Standard
  9
$DIMAUNIT
 70
     0
  9
$DIMADEC
 70
     2
  9
$DIMALTRND
 40
0.0
  9
$DIMAZIN
 70
     0
  9
$DIMDSEP
 70
    44
  9
$DIMATFIT
 70
     3
  9
$DIMFRAC
 70
     0
  9
$DIMLDRBLK
  1

  9
$DIMLUNIT
 70
     2
  9
$DIMLWD
 70
    -2
  9
$DIMLWE
 70
    -2
  9
$DIMTMOVE
 70
     0
  9
$LUNITS
 70
     2
  9
$LUPREC
 70
     2
  9
$SKETCHINC
 40
1.0
  9
$FILLETRAD
 40
10.0
  9
$AUNITS
 70
     0
  9
$AUPREC
 70
     2
  9
$MENU
  1
.
  9
$ELEVATION
 40
0.0
  9
$PELEVATION
 40
0.0
  9
$THICKNESS
 40
0.0
  9
$LIMCHECK
 70
     0
  9
$CHAMFERA
 40
0.0
  9
$CHAMFERB
 40
0.0
  9
$CHAMFERC
 40
0.0
  9
$CHAMFERD
 40
0.0
  9
$SKPOLY
 70
     0
  9
$TDCREATE
 40
2458274.714798032
  9
$TDUCREATE
 40
2458274.339798032
  9
$TDUPDATE
 40
2458275.654616516
  9
$TDUUPDATE
 40
2458275.279616516
  9
$TDINDWG
 40
0.0022872801
  9
$TDUSRTIMER
 40
2458275.277329398
  9
$USRTIMER
 70
     1
  9
$ANGBASE
 50
0.0
  9
$ANGDIR
 70
     0
  9
$PDMODE
 70
     0
  9
$PDSIZE
 40
-1.0
  9
$PLINEWID
 40
0.0
  9
$SPLFRAME
 70
     0
  9
$SPLINETYPE
 70
     6
  9
$SPLINESEGS
 70
     8
  9
$HANDSEED
  5
155
  9
$SURFTAB1
 70
     6
  9
$SURFTAB2
 70
     6
  9
$SURFTYPE
 70
     6
  9
$SURFU
 70
     6
  9
$SURFV
 70
     6
  9
$UCSBASE
  2

  9
$UCSNAME
  2

  9
$UCSORG
 10
0.0
 20
0.0
 30
0.0
  9
$UCSXDIR
 10
1.0
 20
0.0
 30
0.0
  9
$UCSYDIR
 10
0.0
 20
1.0
 30
0.0
  9
$UCSORTHOREF
  2

  9
$UCSORTHOVIEW
 70
     0
  9
$UCSORGTOP
 10
0.0
 20
0.0
 30
0.0
  9
$UCSORGBOTTOM
 10
0.0
 20
0.0
 30
0.0
  9
$UCSORGLEFT
 10
0.0
 20
0.0
 30
0.0
  9
$UCSORGRIGHT
 10
0.0
 20
0.0
 30
0.0
  9
$UCSORGFRONT
 10
0.0
 20
0.0
 30
0.0
  9
$UCSORGBACK
 10
0.0
 20
0.0
 30
0.0
  9
$PUCSBASE
  2

  9
$PUCSNAME
  2

  9
$PUCSORG
 10
0.0
 20
0.0
 30
0.0
  9
$PUCSXDIR
 10
1.0
 20
0.0
 30
0.0
  9
$PUCSYDIR
 10
0.0
 20
1.0
 30
0.0
  9
$PUCSORTHOREF
  2

  9
$PUCSORTHOVIEW
 70
     0
  9
$PUCSORGTOP
 10
0.0
 20
0.0
 30
0.0
  9
$PUCSORGBOTTOM
 10
0.0
 20
0.0
 30
0.0
  9
$PUCSORGLEFT
 10
0.0
 20
0.0
 30
0.0
  9
$PUCSORGRIGHT
 10
0.0
 20
0.0
 30
0.0
  9
$PUCSORGFRONT
 10
0.0
 20
0.0
 30
0.0
  9
$PUCSORGBACK
 10
0.0
 20
0.0
 30
0.0
  9
$USERI1
 70
     0
  9
$USERI2
 70
     0
  9
$USERI3
 70
     0
  9
$USERI4
 70
     0
  9
$USERI5
 70
     0
  9
$USERR1
 40
0.0
  9
$USERR2
 40
0.0
  9
$USERR3
 40
0.0
  9
$USERR4
 40
0.0
  9
$USERR5
 40
0.0
  9
$WORLDVIEW
 70
     1
  9
$SHADEDGE
 70
     3
  9
$SHADEDIF
 70
    70
  9
$TILEMODE
 70
     1
  9
$MAXACTVP
 70
    64
  9
$PINSBASE
 10
0.0
 20
0.0
 30
0.0
  9
$PLIMCHECK
 70
     0
  9
$PEXTMIN
 10
1.000000000000000E+20
 20
1.000000000000000E+20
 30
1.000000000000000E+20
  9
$PEXTMAX
 10
-1.000000000000000E+20
 20
-1.000000000000000E+20
 30
-1.000000000000000E+20
  9
$PLIMMIN
 10
0.0
 20
0.0
  9
$PLIMMAX
 10
0.0
 20
0.0
  9
$UNITMODE
 70
     0
  9
$VISRETAIN
 70
     1
  9
$PLINEGEN
 70
     0
  9
$PSLTSCALE
 70
     1
  9
$TREEDEPTH
 70
  3020
  9
$CMLSTYLE
  2
Standard
  9
$CMLJUST
 70
     0
  9
$CMLSCALE
 40
20.0
  9
$PROXYGRAPHICS
 70
     1
  9
$MEASUREMENT
 70
     1
  9
$CELWEIGHT
370
    -1
  9
$ENDCAPS
280
     0
  9
$JOINSTYLE
280
     0
  9
$LWDISPLAY
290
     1
  9
$INSUNITS
 70
     4
  9
$HYPERLINKBASE
  1

  9
$STYLESHEET
  1

  9
$XEDIT
290
     1
  9
$CEPSNTYPE
380
     0
  9
$PSTYLEMODE
290
     1
  9
$FINGERPRINTGUID
  2
{E93AC418-8EDA-4854-8CDA-0A373FEA04CA}
  9
$VERSIONGUID
  2
{FAEB1C32-E019-11D5-929B-00C0DF256EC4}
  9
$EXTNAMES
290
     1
  9
$PSVPSCALE
 40
0.0
  9
$OLESTARTUP
290
     0
  0
ENDSEC
  0
SECTION
  2
CLASSES
  0
CLASS
  1
ACDBDICTIONARYWDFLT
  2
AcDbDictionaryWithDefault
  3
ObjectDBX Classes
 90
        0
280
     0
281
     0
  0
CLASS
  1
VISUALSTYLE
  2
AcDbVisualStyle
  3
ObjectDBX Classes
 90
     4095
280
     0
281
     0
  0
CLASS
  1
MATERIAL
  2
AcDbMaterial
  3
ObjectDBX Classes
 90
     1153
280
     0
281
     0
  0
CLASS
  1
SCALE
  2
AcDbScale
  3
ObjectDBX Classes
 90
     1153
280
     0
281
     0
  0
CLASS
  1
SUN
  2
AcDbSun
  3
SCENEOE
 90
     1153
280
     0
281
     0
  0
CLASS
  1
ACDBPLACEHOLDER
  2
AcDbPlaceHolder
  3
ObjectDBX Classes
 90
        0
280
     0
281
     0
  0
CLASS
  1
LAYOUT
  2
AcDbLayout
  3
ObjectDBX Classes
 90
        0
280
     0
281
     0
  0
CLASS
  1
TABLESTYLE
  2
AcDbTableStyle
  3
ObjectDBX Classes
 90
     4095
280
     0
281
     0
  0
CLASS
  1
MLEADERSTYLE
  2
AcDbMLeaderStyle
  3
ACDB_MLEADERSTYLE_CLASS
 90
     4095
280
     0
281
     0
  0
CLASS
  1
RASTERVARIABLES
  2
AcDbRasterVariables
  3
ISM
 90
        0
280
     0
281
     0
  0
CLASS
  1
DIMASSOC
  2
AcDbDimAssoc
  3
"AcDbDimAssoc|Product Desc:     AcDim ARX App For Dimension|Company:          Autodesk, Inc.|WEB Address:      www.autodesk.com"
 90
        0
280
     0
281
     0
  0
ENDSEC
  0
SECTION
  2
TABLES
  0
TABLE
  2
VPORT
  5
8
330
0
100
AcDbSymbolTable
 70
     1
  0
VPORT
  5
29
330
8
100
AcDbSymbolTableRecord
100
AcDbViewportTableRecord
  2
*Active
 70
     0
 10
0.0
 20
0.0
 11
1.0
 21
1.0
 12
80.1808251667031
 22
3.254358811248398
 13
0.0
 23
0.0
 14
10.0
 24
10.0
 15
10.0
 25
10.0
 16
0.0
 26
0.0
 36
1.0
 17
0.0
 27
0.0
 37
0.0
 40
126.4869096424852
 41
1.395752895752896
 42
50.0
 43
0.0
 44
0.0
 50
0.0
 51
0.0
 71
    16
 72
  2000
 73
     1
 74
     3
 75
     0
 76
     0
 77
     0
 78
     0
281
     0
 65
     1
110
0.0
120
0.0
130
0.0
111
1.0
121
0.0
131
0.0
112
0.0
122
1.0
132
0.0
 79
     0
146
0.0
  0
ENDTAB
  0
TABLE
  2
LTYPE
  5
5
330
0
100
AcDbSymbolTable
 70
     6
  0
LTYPE
  5
14
330
5
100
AcDbSymbolTableRecord
100
AcDbLinetypeTableRecord
  2
ByBlock
 70
     0
  3

 72
    65
 73
     0
 40
0.0
  0
LTYPE
  5
15
330
5
100
AcDbSymbolTableRecord
100
AcDbLinetypeTableRecord
  2
ByLayer
 70
     0
  3

 72
    65
 73
     0
 40
0.0
  0
LTYPE
  5
16
330
5
100
AcDbSymbolTableRecord
100
AcDbLinetypeTableRecord
  2
Continuous
 70
     0
  3
Solid line
 72
    65
 73
     0
 40
0.0
  0
LTYPE
  5
6A
330
5
100
AcDbSymbolTableRecord
100
AcDbLinetypeTableRecord
  2
HIDDEN
 70
     0
  3
Hidden __ __ __ __ __ __ __ __ __ __ __ __ __ __
 72
    65
 73
     2
 40
1.905
 49
1.27
 74
     0
 49
-0.635
 74
     0
  0
LTYPE
  5
6B
330
5
100
AcDbSymbolTableRecord
100
AcDbLinetypeTableRecord
  2
PHANTOM
 70
     0
  3
Phantom ______  __  __  ______  __  __  ______
 72
    65
 73
     6
 40
12.7
 49
6.35
 74
     0
 49
-1.27
 74
     0
 49
1.27
 74
     0
 49
-1.27
 74
     0
 49
1.27
 74
     0
 49
-1.27
 74
     0
  0
LTYPE
  5
6C
330
5
100
AcDbSymbolTableRecord
100
AcDbLinetypeTableRecord
  2
CENTER
 70
     0
  3
Center ____ _ ____ _ ____ _ ____ _ ____ _ ____
 72
    65
 73
     4
 40
10.16
 49
6.35
 74
     0
 49
-1.27
 74
     0
 49
1.27
 74
     0
 49
-1.27
 74
     0
  0
LTYPE
  5
6D
330
5
100
AcDbSymbolTableRecord
100
AcDbLinetypeTableRecord
  2
CENTERX2
 70
     0
  3
Center (2x) ________  __  ________  __  _____
 72
    65
 73
     4
 40
20.32
 49
12.7
 74
     0
 49
-2.54
 74
     0
 49
2.54
 74
     0
 49
-2.54
 74
     0
  0
LTYPE
  5
6E
330
5
100
AcDbSymbolTableRecord
100
AcDbLinetypeTableRecord
  2
DOT2
 70
     0
  3
Dot (.5x) ........................................
 72
    65
 73
     2
 40
0.635
 49
0.0
 74
     0
 49
-0.635
 74
     0
  0
ENDTAB
  0
TABLE
  2
LAYER
  5
2
330
0
100
AcDbSymbolTable
 70
    18
  0
LAYER
  5
10
330
2
100
AcDbSymbolTableRecord
100
AcDbLayerTableRecord
  2
0
 70
     0
 62
     7
  6
Continuous
370
    -3
390
F
  0
LAYER
  5
6F
330
2
100
AcDbSymbolTableRecord
100
AcDbLayerTableRecord
  2
FORMAT
 70
     0
 62
     2
  6
Continuous
370
    -3
390
F
  0
LAYER
  5
70
330
2
100
AcDbSymbolTableRecord
100
AcDbLayerTableRecord
  2
외형선
 70
     0
 62
     4
  6
Continuous
370
    30
390
F
  0
LAYER
  5
71
330
2
100
AcDbSymbolTableRecord
100
AcDbLayerTableRecord
  2
숨은선
 70
     0
 62
     2
  6
HIDDEN
370
    15
390
F
  0
LAYER
  5
72
330
2
100
AcDbSymbolTableRecord
100
AcDbLayerTableRecord
  2
중심선
 70
     0
 62
     1
  6
CENTERX2
370
    -3
390
F
  0
LAYER
  5
73
330
2
100
AcDbSymbolTableRecord
100
AcDbLayerTableRecord
  2
파단선
 70
     0
 62
     4
  6
Continuous
370
    -3
390
F
  0
LAYER
  5
74
330
2
100
AcDbSymbolTableRecord
100
AcDbLayerTableRecord
  2
해칭선
 70
     0
 62
   100
  6
Continuous
370
    -3
390
F
  0
LAYER
  5
75
330
2
100
AcDbSymbolTableRecord
100
AcDbLayerTableRecord
  2
가는실선
 70
     0
 62
     4
  6
Continuous
370
    -3
390
F
  0
LAYER
  5
76
330
2
100
AcDbSymbolTableRecord
100
AcDbLayerTableRecord
  2
치수_보조선
 70
     0
 62
     4
  6
Continuous
370
    -3
390
F
  0
LAYER
  5
77
330
2
100
AcDbSymbolTableRecord
100
AcDbLayerTableRecord
  2
치수문자_일반주서
 70
     0
 62
     7
  6
Continuous
370
    15
390
F
  0
LAYER
  5
78
330
2
100
AcDbSymbolTableRecord
100
AcDbLayerTableRecord
  2
개별주서
 70
     0
 62
   100
  6
Continuous
370
    30
390
F
  0
LAYER
  5
79
330
2
100
AcDbSymbolTableRecord
100
AcDbLayerTableRecord
  2
중간선
 70
     0
 62
     2
  6
Continuous
370
    15
390
F
  0
LAYER
  5
7A
330
2
100
AcDbSymbolTableRecord
100
AcDbLayerTableRecord
  2
윤곽선
 70
     0
 62
     3
  6
Continuous
370
    40
390
F
  0
LAYER
  5
7B
330
2
100
AcDbSymbolTableRecord
100
AcDbLayerTableRecord
  2
중심마크
 70
     0
 62
   100
  6
Continuous
370
    30
390
F
  0
LAYER
  5
7C
330
2
100
AcDbSymbolTableRecord
100
AcDbLayerTableRecord
  2
가상선
 70
     0
 62
     4
  6
PHANTOM
370
    -3
390
F
  0
LAYER
  5
7D
330
2
100
AcDbSymbolTableRecord
100
AcDbLayerTableRecord
  2
특수지정선
 70
     0
 62
     5
  6
CENTERX2
370
    60
390
F
  0
LAYER
  5
7E
330
2
100
AcDbSymbolTableRecord
100
AcDbLayerTableRecord
  2
참조1
 70
     0
 62
    -4
  6
Continuous
370
    -3
390
F
  0
LAYER
  5
140
330
2
100
AcDbSymbolTableRecord
100
AcDbLayerTableRecord
  2
Defpoints
 70
     0
 62
     7
  6
Continuous
290
     0
370
    -3
390
F
  0
ENDTAB
  0
TABLE
  2
STYLE
  5
3
330
0
100
AcDbSymbolTable
 70
     2
  0
STYLE
  5
11
330
3
100
AcDbSymbolTableRecord
100
AcDbTextStyleTableRecord
  2
Standard
 70
     0
 40
0.0
 41
1.0
 50
0.0
 71
     0
 42
3.5
  3
txt
  4

  0
STYLE
  5
94
330
3
100
AcDbSymbolTableRecord
100
AcDbTextStyleTableRecord
  2
SLDTEXTSTYLE0
 70
     0
 40
0.0
 41
0.75
 50
0.0
 71
     0
 42
3.5
  3
TXT
  4

  0
ENDTAB
  0
TABLE
  2
VIEW
  5
6
330
0
100
AcDbSymbolTable
 70
     0
  0
ENDTAB
  0
TABLE
  2
UCS
  5
7
330
0
100
AcDbSymbolTable
 70
     0
  0
ENDTAB
  0
TABLE
  2
APPID
  5
9
330
0
100
AcDbSymbolTable
 70
     2
  0
APPID
  5
12
330
9
100
AcDbSymbolTableRecord
100
AcDbRegAppTableRecord
  2
ACAD
 70
     0
  0
APPID
  5
146
330
9
100
AcDbSymbolTableRecord
100
AcDbRegAppTableRecord
  2
ACAD_DSTYLE_DIMRADIAL_EXTENSION
 70
     0
  0
ENDTAB
  0
TABLE
  2
DIMSTYLE
  5
A
330
0
100
AcDbSymbolTable
 70
     3
100
AcDbDimStyleTable
  0
DIMSTYLE
105
27
330
A
100
AcDbSymbolTableRecord
100
AcDbDimStyleTableRecord
  2
ISO-25
 70
     0
 41
2.5
 42
0.625
 43
3.75
 44
1.25
 73
     0
 74
     0
 77
     1
 78
     8
140
2.5
141
2.5
143
0.03937007874016
147
0.625
171
     3
172
     1
178
     0
271
     2
272
     2
274
     3
278
    44
283
     0
284
     8
340
11
  0
DIMSTYLE
105
D6
102
{ACAD_REACTORS
330
D5
330
FA
330
104
330
147
102
}
330
A
100
AcDbSymbolTableRecord
100
AcDbDimStyleTableRecord
  2
SLDDIMSTYLE0
 70
     0
 41
3.302
 44
0.0
 45
0.000000001
 73
     0
 74
     0
 77
     1
 78
    12
 79
     3
140
3.5
147
0.875
173
     1
178
     0
271
     2
272
     2
276
     2
284
    12
340
94
  0
DIMSTYLE
105
E3
102
{ACAD_REACTORS
330
E2
330
F0
102
}
330
A
100
AcDbSymbolTableRecord
100
AcDbDimStyleTableRecord
  2
SLDDIMSTYLE1
 70
     0
 41
3.302
 44
0.0
 45
0.000000001
 73
     0
 74
     0
 77
     1
 78
    12
 79
     3
140
3.5
147
0.875
172
     1
173
     1
178
     0
271
     2
272
     2
276
     2
284
    12
289
     0
340
94
  0
ENDTAB
  0
TABLE
  2
BLOCK_RECORD
  5
1
330
0
100
AcDbSymbolTable
 70
     9
  0
BLOCK_RECORD
  5
1F
330
1
100
AcDbSymbolTableRecord
100
AcDbBlockTableRecord
  2
*Model_Space
340
22
  0
BLOCK_RECORD
  5
1B
330
1
100
AcDbSymbolTableRecord
100
AcDbBlockTableRecord
  2
*Paper_Space
340
1E
  0
BLOCK_RECORD
  5
23
330
1
100
AcDbSymbolTableRecord
100
AcDbBlockTableRecord
  2
*Paper_Space0
340
26
  0
BLOCK_RECORD
  5
7F
330
1
100
AcDbSymbolTableRecord
100
AcDbBlockTableRecord
  2
블럭10
340
0
102
{BLKREFS
331
CE
102
}
  0
BLOCK_RECORD
  5
D7
330
1
100
AcDbSymbolTableRecord
100
AcDbBlockTableRecord
  2
_D
340
0
  0
BLOCK_RECORD
  5
E4
330
1
100
AcDbSymbolTableRecord
100
AcDbBlockTableRecord
  2
_D_1
340
0
  0
BLOCK_RECORD
  5
F1
330
1
100
AcDbSymbolTableRecord
100
AcDbBlockTableRecord
  2
_D_2
340
0
  0
BLOCK_RECORD
  5
FB
330
1
100
AcDbSymbolTableRecord
100
AcDbBlockTableRecord
  2
_D_3
340
0
  0
BLOCK_RECORD
  5
105
330
1
100
AcDbSymbolTableRecord
100
AcDbBlockTableRecord
  2
_D_4
340
0
  0
BLOCK_RECORD
  5
115
330
1
100
AcDbSymbolTableRecord
100
AcDbBlockTableRecord
  2
SW_DOWELSYMBOL_0
340
0
102
{BLKREFS
331
11B
102
}
  0
BLOCK_RECORD
  5
14A
330
1
100
AcDbSymbolTableRecord
100
AcDbBlockTableRecord
  2
*D8
340
0
  0
ENDTAB
  0
ENDSEC
  0
SECTION
  2
BLOCKS
  0
BLOCK
  5
20
330
1F
100
AcDbEntity
  8
0
100
AcDbBlockBegin
  2
*Model_Space
 70
     0
 10
0.0
 20
0.0
 30
0.0
  3
*Model_Space
  1
*Model_Space
  0
ENDBLK
  5
21
330
1F
100
AcDbEntity
  8
0
100
AcDbBlockEnd
  0
BLOCK
  5
1C
330
1B
100
AcDbEntity
 67
     1
  8
0
100
AcDbBlockBegin
  2
*Paper_Space
 70
     0
 10
0.0
 20
0.0
 30
0.0
  3
*Paper_Space
  1
*Paper_Space
  0
ENDBLK
  5
1D
330
1B
100
AcDbEntity
 67
     1
  8
0
100
AcDbBlockEnd
  0
BLOCK
  5
24
330
23
100
AcDbEntity
  8
0
100
AcDbBlockBegin
  2
*Paper_Space0
 70
     0
 10
0.0
 20
0.0
 30
0.0
  3
*Paper_Space0
  1
*Paper_Space0
  0
ENDBLK
  5
25
330
23
100
AcDbEntity
  8
0
100
AcDbBlockEnd
  0
BLOCK
  5
80
330
7F
100
AcDbEntity
  8
0
100
AcDbBlockBegin
  2
블럭10
 70
     2
 10
0.0
 20
0.0
 30
0.0
  3
블럭10
  1
블럭10
  0
ELLIPSE
  5
82
330
7F
100
AcDbEntity
  8
중심선
100
AcDbEllipse
 10
20.54032771741204
 20
12.0471743016438
 30
0.0
 11
6.600054785286829
 21
-1.261213355974178E-13
 31
0.0
210
0.0
220
0.0
230
1.0
 40
0.636358354079598
 41
0.9219305317359503
 42
6.513795318482858
  0
ELLIPSE
  5
83
330
7F
100
AcDbEntity
  8
중심선
100
AcDbEllipse
 10
20.54032771746488
 20
12.04717430159265
 30
0.0
 11
3.960054785062283
 21
1.540847449632565E-10
 31
0.0
210
0.0
220
0.0
230
1.0
 40
0.3939339440162632
 41
1.131841032648279
 42
5.62031148352944
  0
LINE
  5
84
330
7F
100
AcDbEntity
  8
중심선
100
AcDbLine
 10
2.268634060543552
 20
16.24717430164393
 30
0.0
 11
5.714909304380834
 21
16.24717430164393
 31
0.0
  0
LINE
  5
85
330
7F
100
AcDbEntity
  8
중심선
100
AcDbLine
 10
5.245725140726316
 20
7.84717430164391
 30
0.0
 11
8.692000384563599
 21
7.84717430164391
 31
0.0
  0
LINE
  5
86
330
7F
100
AcDbEntity
  8
중심선
100
AcDbLine
 10
15.74043728645272
 20
16.24717430164393
 30
0.0
 11
8.692000384563599
 21
7.84717430164391
 31
0.0
  0
LINE
  5
87
330
7F
100
AcDbEntity
  8
중심선
100
AcDbLine
 10
0.1404042013395286
 20
13.71084872107135
 30
0.0
 11
3.58671253028996
 21
13.71088815037384
 31
0.0
  0
LINE
  5
88
330
7F
100
AcDbEntity
  8
중심선
100
AcDbLine
 10
2.750260043222114
 20
10.84717430164391
 30
0.0
 11
6.196535287059397
 21
10.84717430164391
 31
0.0
  0
LINE
  5
89
330
7F
100
AcDbEntity
  8
중심선
100
AcDbLine
 10
12.29416204261559
 20
16.24717430164393
 30
0.0
 11
5.245725140726316
 21
7.84717430164391
 31
0.0
  0
LINE
  5
8A
330
7F
100
AcDbEntity
  8
중심선
100
AcDbLine
 10
10.72767329541681
 20
16.24717430164393
 30
0.0
 11
6.196535287059397
 21
10.84717430164391
 31
0.0
  0
LINE
  5
8B
330
7F
100
AcDbEntity
  8
중심선
100
AcDbLine
 10
7.28139805157953
 20
16.24717430164393
 30
0.0
 11
2.750260043222114
 21
10.84717430164391
 31
0.0
  0
LINE
  5
8C
330
7F
100
AcDbEntity
  8
중심선
100
AcDbLine
 10
5.714909304380834
 20
16.24717430164393
 30
0.0
 11
3.58671253028996
 21
13.71088815037384
 31
0.0
  0
LINE
  5
8D
330
7F
100
AcDbEntity
  8
중심선
100
AcDbLine
 10
2.268634060543552
 20
16.24717430164393
 30
0.0
 11
0.1404042013395286
 21
13.71084872107135
 31
0.0
  0
LINE
  5
8E
330
7F
100
AcDbEntity
  8
중심선
100
AcDbLine
 10
7.28139805157953
 20
16.24717430164393
 30
0.0
 11
10.72767329541681
 21
16.24717430164393
 31
0.0
  0
LINE
  5
8F
330
7F
100
AcDbEntity
  8
중심선
100
AcDbLine
 10
12.29416204261559
 20
16.24717430164393
 30
0.0
 11
15.74043728645272
 21
16.24717430164393
 31
0.0
  0
LINE
  5
90
330
7F
100
AcDbEntity
  8
중심선
100
AcDbLine
 10
19.22036997980202
 20
11.08717430171403
 30
0.0
 11
23.66174974927406
 21
11.08717430171406
 31
0.0
  0
LINE
  5
91
330
7F
100
AcDbEntity
  8
중심선
100
AcDbLine
 10
19.22039502424796
 20
13.00717430171391
 30
0.0
 11
19.22036997980202
 21
11.08717430171403
 31
0.0
  0
LINE
  5
92
330
7F
100
AcDbEntity
  8
중심선
100
AcDbLine
 10
19.22039502424796
 20
13.00717430171391
 30
0.0
 11
26.96566020931264
 21
13.00717430171391
 31
0.0
  0
LINE
  5
93
330
7F
100
AcDbEntity
  8
중심선
100
AcDbLine
 10
22.22332737316547
 20
13.45928029700563
 30
0.0
 11
24.52862924686651
 21
15.39360700705356
 31
0.0
  0
ATTDEF
  5
95
330
7F
100
AcDbEntity
  8
FORMAT
 62
     2
100
AcDbText
 10
-2.529476536452461
 20
2.075366912832191
 30
0.0
 40
4.233333333333333
  1
SEME6416005E
 41
0.75
  7
SLDTEXTSTYLE0
 11
-2.529476536452461
 21
-0.0412997538344756
 31
0.0
100
AcDbAttributeDefinition
  3

  2
AUTOATTR0
 70
     0
 74
     1
  0
ENDBLK
  5
81
330
7F
100
AcDbEntity
  8
0
100
AcDbBlockEnd
  0
BLOCK
  5
D8
330
D7
100
AcDbEntity
  8
0
100
AcDbBlockBegin
  2
_D
 70
     0
 10
0.0
 20
0.0
 30
0.0
  3
_D
  1
_D
  0
LINE
  5
DA
330
D7
100
AcDbEntity
  8
치수문자_일반주서
 62
     0
370
    -2
100
AcDbLine
 10
59.74874427964969
 20
8.001074928723948
 30
0.0
 11
74.93491342222369
 21
8.001074928724002
 31
0.0
  0
LINE
  5
DB
330
D7
100
AcDbEntity
  8
치수문자_일반주서
 62
     0
370
    -2
100
AcDbLine
 10
59.29066471181858
 20
-7.998925071276104
 30
0.0
 11
74.93491342222374
 21
-7.99892507127605
 31
0.0
  0
LINE
  5
DC
330
D7
100
AcDbEntity
  8
치수문자_일반주서
 62
     0
370
    -2
100
AcDbLine
 10
74.9349134222237
 20
4.699074928724002
 30
0.0
 11
74.93491342222373
 21
-4.69692507127605
 31
0.0
  0
SOLID
  5
DD
330
D7
100
AcDbEntity
  8
치수문자_일반주서
 62
     0
100
AcDbTrace
 10
75.48524675555703
 20
4.699074928724004
 30
0.0
 11
74.38458008889037
 21
4.699074928724
 31
0.0
 12
74.93491342222369
 22
8.001074928724002
 32
0.0
 13
74.93491342222369
 23
8.001074928724002
 33
0.0
  0
SOLID
  5
DE
330
D7
100
AcDbEntity
  8
치수문자_일반주서
 62
     0
100
AcDbTrace
 10
74.3845800888904
 20
-4.696925071276052
 30
0.0
 11
75.48524675555706
 21
-4.696925071276048
 31
0.0
 12
74.93491342222374
 22
-7.99892507127605
 32
0.0
 13
74.93491342222374
 23
-7.99892507127605
 33
0.0
  0
MTEXT
  5
DF
330
D7
100
AcDbEntity
  8
치수문자_일반주서
 62
     0
100
AcDbMText
 10
70.55991342222372
 20
0.899779497807805
 30
0.0
 40
3.5
 41
0.0
 71
     2
 72
     1
  1
\A1;%%c16
  7
SLDTEXTSTYLE0
 11
-3.552713678800490E-15
 21
1.0
 31
0.0
 73
     1
 44
1.0
  0
POINT
  5
E0
330
D7
100
AcDbEntity
  8
Defpoints
 62
     0
100
AcDbPoint
 10
59.68624427964969
 20
8.001074928723948
 30
0.0
  0
POINT
  5
E1
330
D7
100
AcDbEntity
  8
Defpoints
 62
     0
100
AcDbPoint
 10
59.22816471181858
 20
-7.998925071276104
 30
0.0
  0
POINT
  5
141
330
D7
100
AcDbEntity
  8
Defpoints
 62
     0
100
AcDbPoint
 10
74.93491342222374
 20
-7.998925071276049
 30
0.0
  0
ENDBLK
  5
D9
330
D7
100
AcDbEntity
  8
0
100
AcDbBlockEnd
  0
BLOCK
  5
E5
330
E4
100
AcDbEntity
  8
0
100
AcDbBlockBegin
  2
_D_1
 70
     0
 10
0.0
 20
0.0
 30
0.0
  3
_D_1
  1
_D_1
  0
SOLID
  5
E7
330
E4
100
AcDbEntity
  8
치수문자_일반주서
100
AcDbTrace
 10
-48.31346843616481
 20
8.0010749287239
 30
0.0
 11
-47.80546843616481
 21
11.3030749287239
 31
0.0
 12
-48.82146843616481
 22
11.3030749287239
 32
0.0
 13
-48.82146843616481
 23
11.3030749287239
 33
0.0
  0
SOLID
  5
E8
330
E4
100
AcDbEntity
  8
치수문자_일반주서
100
AcDbTrace
 10
-48.31346843616481
 20
-7.998925071276114
 30
0.0
 11
-48.82146843616481
 21
-11.30092507127611
 31
0.0
 12
-47.80546843616481
 22
-11.30092507127611
 32
0.0
 13
-47.80546843616481
 23
-11.30092507127611
 33
0.0
  0
LINE
  5
E9
330
E4
100
AcDbEntity
  8
치수문자_일반주서
100
AcDbLine
 10
-39.325
 20
8.0010749287239
 30
0.0
 11
-49.31346843616481
 21
8.0010749287239
 31
0.0
  0
LINE
  5
EA
330
E4
100
AcDbEntity
  8
치수문자_일반주서
100
AcDbLine
 10
-39.325
 20
-7.998925071276114
 30
0.0
 11
-49.31346843616481
 21
-7.998925071276114
 31
0.0
  0
LINE
  5
EB
330
E4
100
AcDbEntity
  8
치수문자_일반주서
100
AcDbLine
 10
-48.31346843616481
 20
8.0010749287239
 30
0.0
 11
-48.31346843616481
 21
14.3510749287239
 31
0.0
  0
LINE
  5
EC
330
E4
100
AcDbEntity
  8
치수문자_일반주서
100
AcDbLine
 10
-48.31346843616481
 20
8.0010749287239
 30
0.0
 11
-48.31346843616481
 21
-7.998925071276114
 31
0.0
  0
LINE
  5
ED
330
E4
100
AcDbEntity
  8
치수문자_일반주서
100
AcDbLine
 10
-48.31346843616481
 20
-7.998925071276114
 30
0.0
 11
-48.31346843616481
 21
-14.34892507127611
 31
0.0
  0
MTEXT
  5
EE
330
E4
100
AcDbEntity
  8
치수문자_일반주서
100
AcDbMText
 10
-52.82520552536665
 20
-5.224255196816623
 30
0.0
 40
3.5
 41
0.0
 71
     1
 72
     1
  1
%%c
  7
SLDTEXTSTYLE0
 11
-7.044195017643634E-15
 21
1.0
 31
0.0
 73
     1
 44
1.0
  0
MTEXT
  5
EF
330
E4
100
AcDbEntity
  8
치수문자_일반주서
100
AcDbMText
 10
-52.87867770202654
 20
0.0541822015574583
 30
0.0
 40
3.5
 41
0.0
 71
     1
 72
     1
  1
16
  7
SLDTEXTSTYLE0
 11
-7.044195017643634E-15
 21
1.0
 31
0.0
 73
     1
 44
1.0
  0
ENDBLK
  5
E6
330
E4
100
AcDbEntity
  8
0
100
AcDbBlockEnd
  0
BLOCK
  5
F2
330
F1
100
AcDbEntity
  8
0
100
AcDbBlockBegin
  2
_D_2
 70
     0
 10
0.0
 20
0.0
 30
0.0
  3
_D_2
  1
_D_2
  0
SOLID
  5
F4
330
F1
100
AcDbEntity
  8
치수문자_일반주서
100
AcDbTrace
 10
60.07499999999999
 20
17.597439621482
 30
0.0
 11
56.77299999999999
 21
18.10543962148199
 31
0.0
 12
56.77299999999999
 22
17.08943962148199
 32
0.0
 13
56.77299999999999
 23
17.08943962148199
 33
0.0
  0
SOLID
  5
F5
330
F1
100
AcDbEntity
  8
치수문자_일반주서
100
AcDbTrace
 10
40.07499999999998
 20
17.59743962148197
 30
0.0
 11
43.37699999999998
 21
17.08943962148198
 31
0.0
 12
43.37699999999998
 22
18.10543962148197
 32
0.0
 13
43.37699999999998
 23
18.10543962148197
 33
0.0
  0
LINE
  5
F6
330
F1
100
AcDbEntity
  8
치수문자_일반주서
100
AcDbLine
 10
60.07500000000001
 20
8.461400857439001
 30
0.0
 11
60.07499999999999
 21
18.597439621482
 31
0.0
  0
LINE
  5
F7
330
F1
100
AcDbEntity
  8
치수문자_일반주서
100
AcDbLine
 10
40.075
 20
8.994156576297087
 30
0.0
 11
40.07499999999998
 21
18.59743962148197
 31
0.0
  0
LINE
  5
F8
330
F1
100
AcDbEntity
  8
치수문자_일반주서
100
AcDbLine
 10
60.07499999999999
 20
17.597439621482
 30
0.0
 11
40.07499999999998
 21
17.59743962148197
 31
0.0
  0
MTEXT
  5
F9
330
F1
100
AcDbEntity
  8
치수문자_일반주서
100
AcDbMText
 10
47.48888880647721
 20
22.10917653606088
 30
0.0
 40
3.5
 41
0.0
 71
     1
 72
     1
  1
20
  7
SLDTEXTSTYLE0
 73
     1
 44
1.0
  0
ENDBLK
  5
F3
330
F1
100
AcDbEntity
  8
0
100
AcDbBlockEnd
  0
BLOCK
  5
FC
330
FB
100
AcDbEntity
  8
0
100
AcDbBlockBegin
  2
_D_3
 70
     0
 10
0.0
 20
0.0
 30
0.0
  3
_D_3
  1
_D_3
  0
SOLID
  5
FE
330
FB
100
AcDbEntity
  8
치수문자_일반주서
100
AcDbTrace
 10
60.07500000000001
 20
23.59743962148199
 30
0.0
 11
56.77300000000001
 21
24.10543962148199
 31
0.0
 12
56.77300000000001
 22
23.08943962148199
 32
0.0
 13
56.77300000000001
 23
23.08943962148199
 33
0.0
  0
SOLID
  5
FF
330
FB
100
AcDbEntity
  8
치수문자_일반주서
100
AcDbTrace
 10
25.07500000000001
 20
23.59743962148199
 30
0.0
 11
28.37700000000001
 21
23.08943962148199
 31
0.0
 12
28.37700000000001
 22
24.10543962148199
 32
0.0
 13
28.37700000000001
 23
24.10543962148199
 33
0.0
  0
LINE
  5
100
330
FB
100
AcDbEntity
  8
치수문자_일반주서
100
AcDbLine
 10
60.07500000000001
 20
8.461400857439001
 30
0.0
 11
60.07500000000001
 21
24.59743962148199
 31
0.0
  0
LINE
  5
101
330
FB
100
AcDbEntity
  8
치수문자_일반주서
100
AcDbLine
 10
25.07500000000001
 20
8.851074928723893
 30
0.0
 11
25.07500000000001
 21
24.59743962148199
 31
0.0
  0
LINE
  5
102
330
FB
100
AcDbEntity
  8
치수문자_일반주서
100
AcDbLine
 10
60.07500000000001
 20
23.59743962148199
 30
0.0
 11
25.07500000000001
 21
23.59743962148199
 31
0.0
  0
MTEXT
  5
103
330
FB
100
AcDbEntity
  8
치수문자_일반주서
100
AcDbMText
 10
39.9888888064772
 20
28.10917653606088
 30
0.0
 40
3.5
 41
0.0
 71
     1
 72
     1
  1
35
  7
SLDTEXTSTYLE0
 73
     1
 44
1.0
  0
ENDBLK
  5
FD
330
FB
100
AcDbEntity
  8
0
100
AcDbBlockEnd
  0
BLOCK
  5
106
330
105
100
AcDbEntity
  8
0
100
AcDbBlockBegin
  2
_D_4
 70
     0
 10
0.0
 20
0.0
 30
0.0
  3
_D_4
  1
_D_4
  0
SOLID
  5
108
330
105
100
AcDbEntity
  8
치수문자_일반주서
100
AcDbTrace
 10
60.07500000000001
 20
32.00493692264389
 30
0.0
 11
56.77300000000001
 21
32.5129369226439
 31
0.0
 12
56.77300000000001
 22
31.49693692264389
 32
0.0
 13
56.77300000000001
 23
31.49693692264389
 33
0.0
  0
SOLID
  5
109
330
105
100
AcDbEntity
  8
치수문자_일반주서
100
AcDbTrace
 10
-39.925
 20
32.00493692264389
 30
0.0
 11
-36.623
 21
31.49693692264389
 31
0.0
 12
-36.623
 22
32.51293692264389
 32
0.0
 13
-36.623
 23
32.51293692264389
 33
0.0
  0
LINE
  5
10A
330
105
100
AcDbEntity
  8
치수문자_일반주서
100
AcDbLine
 10
60.07500000000001
 20
8.461400857439001
 30
0.0
 11
60.07500000000001
 21
33.00493692264389
 31
0.0
  0
LINE
  5
10B
330
105
100
AcDbEntity
  8
치수문자_일반주서
100
AcDbLine
 10
-39.925
 20
7.401074928723912
 30
0.0
 11
-39.925
 21
33.00493692264389
 31
0.0
  0
LINE
  5
10C
330
105
100
AcDbEntity
  8
치수문자_일반주서
100
AcDbLine
 10
60.07500000000001
 20
32.00493692264389
 30
0.0
 11
-39.925
 21
32.00493692264389
 31
0.0
  0
MTEXT
  5
10D
330
105
100
AcDbEntity
  8
치수문자_일반주서
100
AcDbMText
 10
6.195833326131106
 20
36.51667383722278
 30
0.0
 40
3.5
 41
0.0
 71
     1
 72
     1
  1
100
  7
SLDTEXTSTYLE0
 73
     1
 44
1.0
  0
ENDBLK
  5
107
330
105
100
AcDbEntity
  8
0
100
AcDbBlockEnd
  0
BLOCK
  5
116
330
115
100
AcDbEntity
  8
0
100
AcDbBlockBegin
  2
SW_DOWELSYMBOL_0
 70
     0
 10
0.0
 20
0.0
 30
0.0
  3
SW_DOWELSYMBOL_0
  1
SW_DOWELSYMBOL_0
  0
CIRCLE
  5
118
330
115
100
AcDbEntity
  8
해칭선
 62
     0
100
AcDbCircle
 10
0.0
 20
0.0
 30
0.0
 40
3.000000000000008
  0
HATCH
  5
119
330
115
100
AcDbEntity
  8
0
  6
Continuous
 62
     0
370
     0
100
AcDbHatch
 10
0.0
 20
0.0
 30
0.0
210
0.0
220
0.0
230
1.0
  2
SOLID
 70
     1
 71
     0
 91
        1
 92
        0
 93
        3
 72
     2
 10
0.0
 20
0.0
 40
3.000000000000008
 50
0.0
 51
90.0
 73
     1
 72
     1
 10
0.0
 20
3.000000000000008
 11
0.0
 21
0.0
 72
     1
 10
0.0
 20
0.0
 11
3.00000000000001
 21
0.0
 97
        0
 75
     0
 76
     1
 98
        1
 10
0.0
 20
0.0
  0
HATCH
  5
11A
330
115
100
AcDbEntity
  8
0
  6
Continuous
 62
     0
370
     0
100
AcDbHatch
 10
0.0
 20
0.0
 30
0.0
210
0.0
220
0.0
230
1.0
  2
SOLID
 70
     1
 71
     0
 91
        1
 92
        0
 93
        3
 72
     2
 10
0.0
 20
0.0
 40
3.000000000000008
 50
180.0
 51
270.0000000000008
 73
     1
 72
     1
 10
0.0
 20
-3.000000000000008
 11
0.0
 21
0.0
 72
     1
 10
0.0
 20
0.0
 11
-3.00000000000001
 21
0.0
 97
        0
 75
     0
 76
     1
 98
        1
 10
0.0
 20
0.0
  0
ENDBLK
  5
117
330
115
100
AcDbEntity
  8
0
100
AcDbBlockEnd
  0
BLOCK
  5
14B
330
14A
100
AcDbEntity
  8
0
100
AcDbBlockBegin
  2
*D8
 70
     1
 10
0.0
 20
0.0
 30
0.0
  3
*D8
  1
*D8
  0
LINE
  5
14D
330
14A
100
AcDbEntity
  8
치수문자_일반주서
 62
     0
370
    -2
100
AcDbLine
 10
61.48938496348698
 20
-10.7243946013271
 30
0.0
 11
71.10935373361333
 21
-27.23115456316915
 31
0.0
  0
MTEXT
  5
14E
330
14A
100
AcDbEntity
  8
치수문자_일반주서
 62
     0
100
AcDbMText
 10
71.06426250742167
 20
-21.9404900639006
 30
0.0
 40
3.5
 41
0.0
 71
     5
 72
     1
  1
\A1;R0.5
  7
SLDTEXTSTYLE0
 11
0.5035205059145085
 21
-0.8639832753726181
 31
0.0
 73
     1
 44
1.0
  0
SOLID
  5
14F
330
14A
100
AcDbEntity
  8
치수문자_일반주서
 62
     0
100
AcDbTrace
 10
61.96486375936704
 20
-10.44729048290548
 30
0.0
 11
61.01390616760691
 21
-11.00149871974872
 31
0.0
 12
59.82676025295727
 22
-7.871521826046716
 32
0.0
 13
59.82676025295727
 23
-7.871521826046716
 33
0.0
  0
LINE
  5
150
330
14A
100
AcDbEntity
  8
치수문자_일반주서
 62
     0
100
AcDbLine
 10
59.48500000000001
 20
-7.439530188360407
 30
0.0
 11
59.66500000000002
 21
-7.439530188360407
 31
0.0
  0
LINE
  5
151
330
14A
100
AcDbEntity
  8
치수문자_일반주서
 62
     0
100
AcDbLine
 10
59.57500000000002
 20
-7.529530188360407
 30
0.0
 11
59.57500000000002
 21
-7.349530188360407
 31
0.0
  0
POINT
  5
152
330
14A
100
AcDbEntity
  8
Defpoints
 62
     0
100
AcDbPoint
 10
59.82676025295727
 20
-7.871521826046716
 30
0.0
  0
POINT
  5
153
330
14A
100
AcDbEntity
  8
Defpoints
 62
     0
100
AcDbPoint
 10
59.57500000000002
 20
-7.439530188360407
 30
0.0
  0
ENDBLK
  5
14C
330
14A
100
AcDbEntity
  8
0
100
AcDbBlockEnd
  0
ENDSEC
  0
SECTION
  2
ENTITIES
  0
LINE
  5
96
330
1F
100
AcDbEntity
  8
외형선
  6
Continuous
 62
     1
370
    15
100
AcDbLine
 10
44.37505297060345
 20
8.001074928723897
 30
0.0
 11
40.07500000000002
 21
8.001074928723895
 31
0.0
  0
LINE
  5
97
330
1F
100
AcDbEntity
  8
외형선
  6
Continuous
 62
     1
370
    15
100
AcDbLine
 10
40.07500000000002
 20
-7.998925071276105
 30
0.0
 11
44.37505297060348
 21
-7.998925071276104
 31
0.0
  0
LINE
  5
98
330
1F
100
AcDbEntity
  8
외형선
  6
Continuous
370
    15
100
AcDbLine
 10
-38.325
 20
-7.998925071276107
 30
0.0
 11
24.92500000000001
 21
-7.998925071276107
 31
0.0
  0
LINE
  5
99
330
1F
100
AcDbEntity
  8
외형선
  6
Continuous
370
    15
100
AcDbLine
 10
24.92500000000001
 20
8.001074928723893
 30
0.0
 11
-38.325
 21
8.001074928723893
 31
0.0
  0
LINE
  5
9A
330
1F
100
AcDbEntity
  8
외형선
  6
Continuous
370
    15
100
AcDbLine
 10
-38.325
 20
8.001074928723893
 30
0.0
 11
-39.925
 21
6.401074928723912
 31
0.0
  0
LINE
  5
9B
330
1F
100
AcDbEntity
  8
외형선
  6
Continuous
370
    15
100
AcDbLine
 10
-39.925
 20
-6.398925071276127
 30
0.0
 11
-38.325
 21
-7.998925071276107
 31
0.0
  0
LINE
  5
9C
330
1F
100
AcDbEntity
  8
외형선
  6
Continuous
370
    15
100
AcDbLine
 10
24.92500000000001
 20
-7.998925071276107
 30
0.0
 11
25.07500000000001
 21
-7.848925071276106
 31
0.0
  0
LINE
  5
9D
330
1F
100
AcDbEntity
  8
외형선
  6
Continuous
370
    15
100
AcDbLine
 10
25.07500000000001
 20
7.851074928723892
 30
0.0
 11
24.92500000000001
 21
8.001074928723893
 31
0.0
  0
LINE
  5
9E
330
1F
100
AcDbEntity
  8
외형선
  6
Continuous
370
    15
100
AcDbLine
 10
39.57655284570046
 20
-7.848925071276106
 30
0.0
 11
40.07500000000002
 21
-7.848925071276106
 31
0.0
  0
LINE
  5
9F
330
1F
100
AcDbEntity
  8
외형선
  6
Continuous
370
    15
100
AcDbLine
 10
25.07500000000001
 20
-7.848925071276106
 30
0.0
 11
39.07465651168322
 21
-7.848925071276106
 31
0.0
  0
LINE
  5
A0
330
1F
100
AcDbEntity
  8
외형선
  6
Continuous
370
    15
100
AcDbLine
 10
39.07465651168322
 20
7.851074928723892
 30
0.0
 11
25.07500000000001
 21
7.851074928723892
 31
0.0
  0
LINE
  5
A1
330
1F
100
AcDbEntity
  8
외형선
  6
Continuous
370
    15
100
AcDbLine
 10
40.07500000000002
 20
7.851074928723892
 30
0.0
 11
39.57655284570055
 21
7.851074928723892
 31
0.0
  0
SPLINE
  5
A2
330
1F
100
AcDbEntity
  8
외형선
  6
Continuous
 62
     1
370
    15
100
AcDbSpline
210
0.0
220
0.0
230
1.0
 70
     8
 71
     3
 72
    14
 73
    10
 74
     0
 42
0.000000001
 43
0.00000001
 40
0.0
 40
0.0
 40
0.0
 40
0.0
 40
0.2500000000000011
 40
0.2500000000000011
 40
0.5000000000000021
 40
0.5000000000000021
 40
0.750000000000001
 40
0.750000000000001
 40
1.0
 40
1.0
 40
1.0
 40
1.0
 10
59.57500000000005
 20
0.9741064670280901
 30
0.0
 10
59.63470691449044
 20
0.9398797048308415
 30
0.0
 10
59.69481143541619
 20
0.9074196569798354
 30
0.0
 10
59.81284912018883
 20
0.8487456506907214
 30
0.0
 10
59.86876979206049
 20
0.8236007490030487
 30
0.0
 10
59.9663765978887
 20
0.785287632655993
 30
0.0
 10
60.00673343870411
 20
0.7727090515758602
 30
0.0
 10
60.06095738272094
 20
0.7620443220280295
 30
0.0
 10
60.07500000000002
 20
0.7638187567549239
 30
0.0
 10
60.07500000000002
 20
0.7714884782818324
 30
0.0
  0
LINE
  5
A3
330
1F
100
AcDbEntity
  8
외형선
  6
Continuous
 62
     1
370
    15
100
AcDbLine
 10
60.07500000000002
 20
-6.844963620833973
 30
0.0
 11
60.07500000000002
 21
0.7714884782818324
 31
0.0
  0
SPLINE
  5
A4
330
1F
100
AcDbEntity
  8
외형선
  6
Continuous
 62
     1
370
    15
100
AcDbSpline
210
0.0
220
0.0
230
1.0
 70
     8
 71
     3
 72
    10
 73
     6
 74
     0
 42
0.000000001
 43
0.00000001
 40
0.0
 40
0.0
 40
0.0
 40
0.0
 40
0.5
 40
0.5
 40
1.0
 40
1.0
 40
1.0
 40
1.0
 10
60.07500000000002
 20
-6.844963620833977
 30
0.0
 10
60.07500000000002
 20
-6.966250225244971
 30
0.0
 10
60.01046787589875
 20
-7.05479072004216
 30
0.0
 10
59.82602360060435
 20
-7.145461202077406
 30
0.0
 10
59.70499488627051
 20
-7.151346301011579
 30
0.0
 10
59.5749999999998
 20
-7.117080628960916
 30
0.0
  0
SPLINE
  5
A5
330
1F
100
AcDbEntity
  8
외형선
  6
Continuous
 62
     1
370
    15
100
AcDbSpline
210
0.0
220
0.0
230
1.0
 70
     8
 71
     3
 72
    32
 73
    28
 74
     0
 42
0.000000001
 43
0.00000001
 40
0.0
 40
0.0
 40
0.0
 40
0.0
 40
0.0624999999999995
 40
0.0624999999999995
 40
0.1249999999999991
 40
0.1249999999999991
 40
0.2499999999999981
 40
0.2499999999999981
 40
0.3749999999999972
 40
0.3749999999999972
 40
0.4374999999999974
 40
0.4374999999999974
 40
0.4999999999999978
 40
0.4999999999999978
 40
0.5624999999999981
 40
0.5624999999999981
 40
0.6249999999999984
 40
0.6249999999999984
 40
0.6874999999999988
 40
0.6874999999999988
 40
0.7499999999999989
 40
0.7499999999999989
 40
0.8749999999999994
 40
0.8749999999999994
 40
0.9374999999999998
 40
0.9374999999999998
 40
1.0
 40
1.0
 40
1.0
 40
1.0
 10
59.57500000000005
 20
-7.117080628960989
 30
0.0
 10
59.16895101504998
 20
-7.010049177540576
 30
0.0
 10
58.76123686829604
 20
-6.893679215751674
 30
0.0
 10
57.94720280005284
 20
-6.643568590880021
 30
0.0
 10
57.54226042650329
 20
-6.509992186689865
 30
0.0
 10
56.32681114573437
 20
-6.084614753072864
 30
0.0
 10
55.50767238346893
 20
-5.766969148605742
 30
0.0
 10
53.88943101689159
 20
-5.078269957313566
 30
0.0
 10
53.07148938657799
 20
-4.7045962516404
 30
0.0
 10
51.85470332884754
 20
-4.112164608179849
 30
0.0
 10
51.45052990440425
 20
-3.909374190556862
 30
0.0
 10
50.63684886372484
 20
-3.493341715896588
 30
0.0
 10
50.22905764619954
 20
-3.280376551376067
 30
0.0
 10
49.4163013305818
 20
-2.847027365197296
 30
0.0
 10
49.01273849738161
 20
-2.626909930121591
 30
0.0
 10
48.20019573899476
 20
-2.179496234712681
 30
0.0
 10
47.7924248030664
 20
-1.95240866388531
 30
0.0
 10
46.9786105512403
 20
-1.494096444358145
 30
0.0
 10
46.57420815727109
 20
-1.263188540500688
 30
0.0
 10
45.76331090990934
 20
-0.798320985630148
 30
0.0
 10
45.3558170019269
 20
-0.5641657032210466
 30
0.0
 10
44.1342735450235
 20
0.1394066938403288
 30
0.0
 10
43.32625535083296
 20
0.6089413893833081
 30
0.0
 10
42.10465635864586
 20
1.306762736835536
 30
0.0
 10
41.69722383252368
 20
1.538024756826335
 30
0.0
 10
40.88660677677636
 20
1.995196746892698
 30
0.0
 10
40.48196262247692
 20
2.221388130735467
 30
0.0
 10
40.07499999999997
 20
2.4448533097391
 30
0.0
  0
SPLINE
  5
A6
330
1F
100
AcDbEntity
  8
외형선
  6
Continuous
370
    15
100
AcDbSpline
210
0.0
220
0.0
230
1.0
 70
    24
 71
     3
 72
    15
 73
    11
 74
     0
 42
0.000000001
 43
0.00000001
 40
0.0
 40
0.0
 40
0.0
 40
0.0
 40
0.1275764570145745
 40
0.261498781220478
 40
0.3916468039503627
 40
0.5255691281562681
 40
0.6557171508861445
 40
0.7896394750920409
 40
0.8938681538086156
 40
1.0
 40
1.0
 40
1.0
 40
1.0
 10
40.07500000000002
 20
2.514865817828364
 30
0.0
 10
40.07500000000001
 20
2.679995860969711
 30
0.0
 10
40.07500000000001
 20
3.018469792875613
 30
0.0
 10
40.07499999999995
 20
3.648443418592706
 30
0.0
 10
40.07499999999998
 20
4.357551939964769
 30
0.0
 10
40.07500000000009
 20
5.119109736232586
 30
0.0
 10
40.075
 20
5.922703165257805
 30
0.0
 10
40.07500000000006
 20
6.677927518540146
 30
0.0
 10
40.07499999999997
 20
7.377242023816343
 30
0.0
 10
40.075
 20
7.787281825510245
 30
0.0
 10
40.075
 20
7.994156576297085
 30
0.0
  0
SPLINE
  5
A7
330
1F
100
AcDbEntity
  8
외형선
  6
Continuous
 62
     1
370
    15
100
AcDbSpline
210
0.0
220
0.0
230
1.0
 70
     8
 71
     3
 72
    32
 73
    28
 74
     0
 42
0.000000001
 43
0.00000001
 40
0.0
 40
0.0
 40
0.0
 40
0.0
 40
0.062500000000001
 40
0.062500000000001
 40
0.1250000000000019
 40
0.1250000000000019
 40
0.2500000000000023
 40
0.2500000000000023
 40
0.3750000000000027
 40
0.3750000000000027
 40
0.4375000000000029
 40
0.4375000000000029
 40
0.5000000000000032
 40
0.5000000000000032
 40
0.5625000000000034
 40
0.5625000000000034
 40
0.6250000000000036
 40
0.6250000000000036
 40
0.6875000000000038
 40
0.6875000000000038
 40
0.750000000000004
 40
0.750000000000004
 40
0.8750000000000028
 40
0.8750000000000028
 40
0.9375000000000014
 40
0.9375000000000014
 40
1.0
 40
1.0
 40
1.0
 40
1.0
 10
59.57500000000005
 20
0.9741064670280838
 30
0.0
 10
59.16895101504996
 20
1.20687250705776
 30
0.0
 10
58.76123686829607
 20
1.438699599524211
 30
0.0
 10
57.94720280005286
 20
1.897780530442829
 30
0.0
 10
57.54226042650326
 20
2.124779062147624
 30
0.0
 10
56.32681114573445
 20
2.796827804291445
 30
0.0
 10
55.50767238346893
 20
3.234289047633458
 30
0.0
 10
53.88943101689159
 20
4.067971613827501
 30
0.0
 10
53.07148938657802
 20
4.467411814633004
 30
0.0
 10
51.85470332884756
 20
5.027387974012958
 30
0.0
 10
51.45052990440421
 20
5.207606009205127
 30
0.0
 10
50.63684886372486
 20
5.554936908913353
 30
0.0
 10
50.22905764619951
 20
5.721780043818512
 30
0.0
 10
49.41630133058177
 20
6.039903828962455
 30
0.0
 10
49.01273849738161
 20
6.191033992253463
 30
0.0
 10
48.20019573899472
 20
6.477637536794504
 30
0.0
 10
47.79242480306638
 20
6.612933450169753
 30
0.0
 10
46.9786105512403
 20
6.865918705599473
 30
0.0
 10
46.57420815727109
 20
6.983465295764527
 30
0.0
 10
45.76331090990931
 20
7.200506847608731
 30
0.0
 10
45.35581700192689
 20
7.300061601518855
 30
0.0
 10
44.13427354502349
 20
7.569978471332325
 30
0.0
 10
43.32625535083297
 20
7.71132358072644
 30
0.0
 10
42.10465635864588
 20
7.863268860017796
 30
0.0
 10
41.69722383252368
 20
7.90381985661792
 30
0.0
 10
40.88660677677634
 20
7.964351616911387
 30
0.0
 10
40.48196262247691
 20
7.984398624374823
 30
0.0
 10
40.07499999999998
 20
7.994156576297083
 30
0.0
  0
SPLINE
  5
A8
330
1F
100
AcDbEntity
  8
외형선
  6
Continuous
 62
     1
370
    15
100
AcDbSpline
210
0.0
220
0.0
230
1.0
 70
     8
 71
     3
 72
    32
 73
    28
 74
     0
 42
0.000000001
 43
0.00000001
 40
0.0
 40
0.0
 40
0.0
 40
0.0
 40
0.0625000000000003
 40
0.0625000000000003
 40
0.1250000000000006
 40
0.1250000000000006
 40
0.2500000000000011
 40
0.2500000000000011
 40
0.3750000000000017
 40
0.3750000000000017
 40
0.4375000000000021
 40
0.4375000000000021
 40
0.5000000000000023
 40
0.5000000000000023
 40
0.5625000000000027
 40
0.5625000000000027
 40
0.6250000000000029
 40
0.6250000000000029
 40
0.6875000000000032
 40
0.6875000000000032
 40
0.7500000000000036
 40
0.7500000000000036
 40
0.8750000000000027
 40
0.8750000000000027
 40
0.9375000000000013
 40
0.9375000000000013
 40
1.0
 40
1.0
 40
1.0
 40
1.0
 10
59.57500000000005
 20
-7.939530188360425
 30
0.0
 10
59.16895101504996
 20
-7.911007337185298
 30
0.0
 10
58.76123686829607
 20
-7.872190989963385
 30
0.0
 10
57.94720280005286
 20
-7.774372889946387
 30
0.0
 10
57.54226042650326
 20
-7.715452346335256
 30
0.0
 10
56.32681114573443
 20
-7.509145813102931
 30
0.0
 10
55.50767238346893
 20
-7.331439195689338
 30
0.0
 10
53.88943101689156
 20
-6.903980340868744
 30
0.0
 10
53.07148938657802
 20
-6.652619188937989
 30
0.0
 10
51.85470332884756
 20
-6.227177620604662
 30
0.0
 10
51.45052990440421
 20
-6.077337619382246
 30
0.0
 10
50.63684886372487
 20
-5.761709303051344
 30
0.0
 10
50.22905764619954
 20
-5.596116891228762
 30
0.0
 10
49.41630133058182
 20
-5.251312033111472
 30
0.0
 10
49.01273849738164
 20
-5.072328311790137
 30
0.0
 10
48.20019573899472
 20
-4.700961910005864
 30
0.0
 10
47.79242480306635
 20
-4.50873636422543
 30
0.0
 10
46.97861055124032
 20
-4.113410570669929
 30
0.0
 10
46.57420815727111
 20
-3.910595324259782
 30
0.0
 10
45.76331090990935
 20
-3.495082883955814
 30
0.0
 10
45.35581700192693
 20
-3.282199241274228
 30
0.0
 10
44.13427354502349
 20
-2.631809812913883
 30
0.0
 10
43.32625535083296
 20
-2.183520068918742
 30
0.0
 10
42.10465635864585
 20
-1.495923395117384
 30
0.0
 10
41.69722383252369
 20
-1.264448428204989
 30
0.0
 10
40.88660677677634
 20
-0.7996442165803794
 30
0.0
 10
40.48196262247694
 20
-0.5660395063536606
 30
0.0
 10
40.07499999999998
 20
-0.3315596684374953
 30
0.0
  0
LINE
  5
A9
330
1F
100
AcDbEntity
  8
외형선
  6
Continuous
370
    15
100
AcDbLine
 10
40.07499999999998
 20
2.444853309739083
 30
0.0
 11
40.075
 21
-0.3315596684374996
 31
0.0
  0
SPLINE
  5
AB
330
1F
100
AcDbEntity
  8
외형선
  6
Continuous
 62
     1
370
    15
100
AcDbSpline
210
0.0
220
0.0
230
1.0
 70
     8
 71
     3
 72
    13
 73
     9
 74
     0
 42
0.000000001
 43
0.00000001
 40
0.0
 40
0.0
 40
0.0
 40
0.0
 40
0.1557211201973383
 40
0.3269866708830723
 40
0.4953275536196659
 40
0.6636457941020486
 40
0.831837447400362
 40
1.0
 40
1.0
 40
1.0
 40
1.0
 10
52.82366840378433
 20
-6.550646793311426
 30
0.0
 10
52.16197146845753
 20
-6.759315880766644
 30
0.0
 10
50.77252552983438
 20
-7.197483870675293
 30
0.0
 10
48.66772388637013
 20
-7.64695971663878
 30
0.0
 10
46.50890083825092
 20
-7.937163415195618
 30
0.0
 10
44.36323488884673
 20
-8.028582094608064
 30
0.0
 10
42.21878865932101
 20
-7.942036391534362
 30
0.0
 10
40.78955500162001
 20
-7.72502772635426
 30
0.0
 10
40.07499999999997
 20
-7.616532781343827
 30
0.0
  0
SPLINE
  5
AC
330
1F
100
AcDbEntity
  8
외형선
  6
Continuous
370
    15
100
AcDbSpline
210
0.0
220
0.0
230
1.0
 70
    24
 71
     3
 72
    18
 73
    14
 74
     0
 42
0.000000001
 43
0.00000001
 40
0.0
 40
0.0
 40
0.0
 40
0.0
 40
0.1292754928588406
 40
0.2204854022621424
 40
0.3116953116654442
 40
0.4029052210687952
 40
0.4941151304721459
 40
0.5853250398754705
 40
0.676534949278795
 40
0.76774485868212
 40
0.8589547680854447
 40
0.9501646774887708
 40
1.0
 40
1.0
 40
1.0
 40
1.0
 10
40.07499999999998
 20
-7.616532781343829
 30
0.0
 10
40.075
 20
-7.288681751448353
 30
0.0
 10
40.07500000000003
 20
-6.729516478820131
 30
0.0
 10
40.07500000000002
 20
-5.837020697759528
 30
0.0
 10
40.07500000000002
 20
-5.032072076153677
 30
0.0
 10
40.07500000000002
 20
-4.220112420636801
 30
0.0
 10
40.075
 20
-3.426040362042082
 30
0.0
 10
40.07500000000003
 20
-2.672888698230612
 30
0.0
 10
40.07500000000002
 20
-1.980649699724248
 30
0.0
 10
40.07500000000002
 20
-1.369769549682433
 30
0.0
 10
40.07499999999991
 20
-0.8617718702900363
 30
0.0
 10
40.07500000000003
 20
-0.5088926078719408
 30
0.0
 10
40.07500000000002
 20
-0.3778579634899649
 30
0.0
 10
40.07500000000002
 20
-0.3315596684375242
 30
0.0
  0
SPLINE
  5
AD
330
1F
100
AcDbEntity
  8
외형선
  6
Continuous
 62
     1
370
    15
100
AcDbSpline
210
0.0
220
0.0
230
1.0
 70
     8
 71
     3
 72
    10
 73
     6
 74
     0
 42
0.000000001
 43
0.00000001
 40
0.0
 40
0.0
 40
0.0
 40
0.0
 40
0.5
 40
0.5
 40
1.0
 40
1.0
 40
1.0
 40
1.0
 10
60.07500000000002
 20
3.064040187744518
 30
0.0
 10
60.07500000000002
 20
3.153345517523892
 30
0.0
 10
60.01046787589878
 20
3.271357641236811
 30
0.0
 10
59.82602360060435
 20
3.486134445893317
 30
0.0
 10
59.70499488627051
 20
3.585556345720441
 30
0.0
 10
59.5749999999998
 20
3.652357094840348
 30
0.0
  0
LINE
  5
AE
330
1F
100
AcDbEntity
  8
외형선
  6
Continuous
 62
     1
370
    15
100
AcDbLine
 10
60.07500000000002
 20
3.064040187744522
 30
0.0
 11
60.07500000000002
 21
0.7714884782818325
 31
0.0
  0
SPLINE
  5
AF
330
1F
100
AcDbEntity
  8
외형선
  6
Continuous
 62
     1
370
    15
100
AcDbSpline
210
0.0
220
0.0
230
1.0
 70
     8
 71
     3
 72
    14
 73
    10
 74
     0
 42
0.000000001
 43
0.00000001
 40
0.0
 40
0.0
 40
0.0
 40
0.0
 40
0.1437629411115494
 40
0.2875088148464901
 40
0.4311573616466004
 40
0.5747747943748526
 40
0.7184275447233867
 40
0.8596271654549721
 40
1.0
 40
1.0
 40
1.0
 40
1.0
 10
59.57500000000005
 20
3.652357094840243
 30
0.0
 10
58.84654524741356
 20
4.017656810054117
 30
0.0
 10
57.3897222235793
 20
4.748212872505622
 30
0.0
 10
55.20499135167223
 20
5.701873384612152
 30
0.0
 10
53.02143911484539
 20
6.520664244119935
 30
0.0
 10
50.83839987266843
 20
7.176986546818985
 30
0.0
 10
48.66772912114305
 20
7.649304492800574
 30
0.0
 10
46.5129735609659
 20
7.946227311857434
 30
0.0
 10
45.08629677528773
 20
7.982464919225698
 30
0.0
 10
44.37505297060345
 20
8.00053052034572
 30
0.0
  0
LINE
  5
B0
330
1F
100
AcDbEntity
  8
외형선
  6
Continuous
370
    15
100
AcDbLine
 10
40.07500000000002
 20
8.001074928723895
 30
0.0
 11
40.075
 21
7.994156576297085
 31
0.0
  0
SPLINE
  5
B2
330
1F
100
AcDbEntity
  8
외형선
  6
Continuous
 62
     1
370
    15
100
AcDbSpline
210
0.0
220
0.0
230
1.0
 70
     8
 71
     3
 72
    11
 73
     7
 74
     0
 42
0.000000001
 43
0.00000001
 40
0.0
 40
0.0
 40
0.0
 40
0.0
 40
0.0466462790927919
 40
0.3642522271664957
 40
0.6820854337649447
 40
1.0
 40
1.0
 40
1.0
 40
1.0
 10
52.82366840378436
 20
6.552796650759213
 30
0.0
 10
52.92862932663419
 20
6.590552156438429
 30
0.0
 10
53.74824989781538
 20
6.885377966747861
 30
0.0
 10
55.28302179666217
 20
7.285257976964249
 30
0.0
 10
57.42863887724756
 20
7.738277256644876
 30
0.0
 10
58.85948525503268
 20
7.873873331797654
 30
0.0
 10
59.57500000000005
 20
7.941680045808211
 30
0.0
  0
LINE
  5
B3
330
1F
100
AcDbEntity
  8
외형선
  6
Continuous
 62
     1
370
    15
100
AcDbLine
 10
60.07500000000002
 20
3.0449881242185
 30
0.0
 11
60.07500000000002
 21
7.461400857439001
 31
0.0
  0
LINE
  5
B4
330
1F
100
AcDbEntity
  8
외형선
  6
Continuous
 62
     1
370
    15
100
AcDbLine
 10
60.07500000000002
 20
-6.844963620833973
 30
0.0
 11
60.07500000000002
 21
-7.459250999991214
 31
0.0
  0
LINE
  5
B5
330
1F
100
AcDbEntity
  8
외형선
  6
Continuous
370
    15
100
AcDbLine
 10
40.07499999999998
 20
-7.616532781343829
 30
0.0
 11
40.07500000000002
 21
-7.998925071276105
 31
0.0
  0
LINE
  5
B6
330
1F
100
AcDbEntity
  8
외형선
  6
Continuous
370
    15
100
AcDbLine
 10
24.92500000000001
 20
0.0010749287238931
 30
0.0
 11
24.92500000000001
 21
8.001074928723893
 31
0.0
  0
LINE
  5
B7
330
1F
100
AcDbEntity
  8
외형선
  6
Continuous
370
    15
100
AcDbLine
 10
24.92500000000001
 20
-7.998925071276107
 30
0.0
 11
24.92500000000001
 21
0.0010749287238931
 31
0.0
  0
LINE
  5
B8
330
1F
100
AcDbEntity
  8
외형선
  6
Continuous
370
    15
100
AcDbLine
 10
-38.325
 20
0.0010749287238931
 30
0.0
 11
-38.325
 21
8.001074928723893
 31
0.0
  0
LINE
  5
B9
330
1F
100
AcDbEntity
  8
외형선
  6
Continuous
370
    15
100
AcDbLine
 10
-38.325
 20
-7.998925071276107
 30
0.0
 11
-38.325
 21
0.0010749287238931
 31
0.0
  0
LINE
  5
BA
330
1F
100
AcDbEntity
  8
외형선
  6
Continuous
370
    15
100
AcDbLine
 10
-39.925
 20
0.0010749287238931
 30
0.0
 11
-39.925
 21
6.401074928723911
 31
0.0
  0
LINE
  5
BB
330
1F
100
AcDbEntity
  8
외형선
  6
Continuous
370
    15
100
AcDbLine
 10
-39.925
 20
-6.398925071276121
 30
0.0
 11
-39.925
 21
0.0010749287238931
 31
0.0
  0
LINE
  5
BC
330
1F
100
AcDbEntity
  8
외형선
  6
Continuous
370
    15
100
AcDbLine
 10
25.07500000000001
 20
0.0010749287238931
 30
0.0
 11
25.07500000000001
 21
7.851074928723892
 31
0.0
  0
LINE
  5
BD
330
1F
100
AcDbEntity
  8
외형선
  6
Continuous
370
    15
100
AcDbLine
 10
25.07500000000001
 20
-7.848925071276106
 30
0.0
 11
25.07500000000001
 21
0.0010749287238931
 31
0.0
  0
SPLINE
  5
BE
330
1F
100
AcDbEntity
  8
외형선
  6
Continuous
370
    15
100
AcDbSpline
210
0.0
220
0.0
230
1.0
 70
     8
 71
     3
 72
     8
 73
     4
 74
     0
 42
0.000000001
 43
0.00000001
 40
0.0
 40
0.0
 40
0.0
 40
0.0
 40
1.0
 40
1.0
 40
1.0
 40
1.0
 10
40.07500000000002
 20
-0.2808211173319291
 30
0.0
 10
39.74164541346882
 20
-0.0923118866172781
 30
0.0
 10
39.40776436727462
 20
0.0965407863999343
 30
0.0
 10
39.07465651168323
 20
0.2850017485978101
 30
0.0
  0
SPLINE
  5
BF
330
1F
100
AcDbEntity
  8
외형선
  6
Continuous
370
    15
100
AcDbSpline
210
0.0
220
0.0
230
1.0
 70
    24
 71
     3
 72
    19
 73
    15
 74
     0
 42
0.000000001
 43
0.00000001
 40
0.0
 40
0.0
 40
0.0
 40
0.0
 40
0.0680365444026115
 40
0.1371376419802375
 40
0.228706043062726
 40
0.3229299339798916
 40
0.4144983350623765
 40
0.5087222259795379
 40
0.600290627062023
 40
0.6945145179791843
 40
0.7860829190616705
 40
0.8803068099788328
 40
0.9718752110613167
 40
0.9999999999999999
 40
0.9999999999999999
 40
0.9999999999999999
 40
0.9999999999999999
 10
40.07500000000003
 20
-7.487186527900667
 30
0.0
 10
40.07500000000006
 20
-7.318312604959305
 30
0.0
 10
40.07500000000007
 20
-6.977922425130563
 30
0.0
 10
40.07500000000006
 20
-6.361688302596965
 30
0.0
 10
40.07500000000001
 20
-5.642553240956636
 30
0.0
 10
40.07500000000001
 20
-4.836183996919852
 30
0.0
 10
40.07499999999998
 20
-4.023030074687437
 30
0.0
 10
40.075
 20
-3.240465014053664
 30
0.0
 10
40.07500000000012
 20
-2.496409736063252
 30
0.0
 10
40.07499999999987
 20
-1.826172223737365
 30
0.0
 10
40.07500000000009
 20
-1.233374499284803
 30
0.0
 10
40.07500000000009
 20
-0.7577277024478559
 30
0.0
 10
40.07500000000005
 20
-0.4525623155155558
 30
0.0
 10
40.07500000000005
 20
-0.354582401761568
 30
0.0
 10
40.07500000000003
 20
-0.3315596684375252
 30
0.0
  0
SPLINE
  5
C0
330
1F
100
AcDbEntity
  8
외형선
  6
Continuous
370
    15
100
AcDbSpline
210
0.0
220
0.0
230
1.0
 70
     8
 71
     3
 72
     8
 73
     4
 74
     0
 42
0.000000001
 43
0.00000001
 40
0.0
 40
0.0
 40
0.0
 40
0.0
 40
1.0
 40
1.0
 40
1.0
 40
1.0
 10
40.07500000000003
 20
-7.487186527900673
 30
0.0
 10
39.74164541346882
 20
-7.430584938235657
 30
0.0
 10
39.40776436727462
 20
-7.367459482729238
 30
0.0
 10
39.07465651168323
 20
-7.298060628382585
 30
0.0
  0
LINE
  5
C1
330
1F
100
AcDbEntity
  8
외형선
  6
Continuous
370
    15
100
AcDbLine
 10
39.07465651168323
 20
-7.298080616327945
 30
0.0
 11
39.07465651168322
 21
0.2850200776478755
 31
0.0
  0
LINE
  5
C2
330
1F
100
AcDbEntity
  8
외형선
  6
Continuous
370
    15
100
AcDbLine
 10
40.07500000000002
 20
-7.616532781343829
 30
0.0
 11
40.07500000000003
 21
-7.487186527900667
 31
0.0
  0
SPLINE
  5
C3
330
1F
100
AcDbEntity
  8
외형선
  6
Continuous
370
    15
100
AcDbSpline
210
0.0
220
0.0
230
1.0
 70
     8
 71
     3
 72
     9
 73
     5
 74
     0
 42
0.000000001
 43
0.00000001
 40
0.0
 40
0.0
 40
0.0
 40
0.0
 40
0.1232353879354828
 40
1.0
 40
1.0
 40
1.0
 40
1.0
 10
39.57655284570048
 20
-7.848296732377626
 30
0.0
 10
39.55593419240405
 20
-7.848506086482904
 30
0.0
 10
39.38862305197731
 20
-7.850204901318365
 30
0.0
 10
39.2213316728263
 20
-7.846786151817036
 30
0.0
 10
39.07465651168323
 20
-7.843788713236759
 30
0.0
  0
LINE
  5
C4
330
1F
100
AcDbEntity
  8
외형선
  6
Continuous
370
    15
100
AcDbLine
 10
39.07465651168322
 20
-7.848925071276106
 30
0.0
 11
39.07465651168322
 21
-7.843788049837459
 31
0.0
  0
LINE
  5
C5
330
1F
100
AcDbEntity
  8
외형선
  6
Continuous
370
    15
100
AcDbLine
 10
40.07499999999998
 20
7.846011806678632
 30
0.0
 11
40.07500000000002
 21
7.851074928723892
 31
0.0
  0
SPLINE
  5
C6
330
1F
100
AcDbEntity
  8
외형선
  6
Continuous
370
    15
100
AcDbSpline
210
0.0
220
0.0
230
1.0
 70
     8
 71
     3
 72
     8
 73
     4
 74
     0
 42
0.000000001
 43
0.00000001
 40
0.0
 40
0.0
 40
0.0
 40
0.0
 40
1.0
 40
1.0
 40
1.0
 40
1.0
 10
40.07500000000002
 20
7.846011806686519
 30
0.0
 10
39.74164541346882
 20
7.852785603290639
 30
0.0
 10
39.40776436727462
 20
7.852759482316586
 30
0.0
 10
39.07465651168323
 20
7.845938570684543
 30
0.0
  0
LINE
  5
C7
330
1F
100
AcDbEntity
  8
외형선
  6
Continuous
370
    15
100
AcDbLine
 10
39.07465651168323
 20
2.889816580228825
 30
0.0
 11
39.07465651168322
 21
7.851074928723892
 31
0.0
  0
SPLINE
  5
C8
330
1F
100
AcDbEntity
  8
외형선
  6
Continuous
370
    15
100
AcDbSpline
210
0.0
220
0.0
230
1.0
 70
     8
 71
     3
 72
     8
 73
     4
 74
     0
 42
0.000000001
 43
0.00000001
 40
0.0
 40
0.0
 40
0.0
 40
0.0
 40
1.0
 40
1.0
 40
1.0
 40
1.0
 10
40.07500000000003
 20
2.356587687600692
 30
0.0
 10
39.74164541346882
 20
2.536526217194706
 30
0.0
 10
39.40776436727462
 20
2.714516412585231
 30
0.0
 10
39.07465651168323
 20
2.889867084449961
 30
0.0
  0
SPLINE
  5
C9
330
1F
100
AcDbEntity
  8
외형선
  6
Continuous
370
    15
100
AcDbSpline
210
0.0
220
0.0
230
1.0
 70
    24
 71
     3
 72
    15
 73
    11
 74
     0
 42
0.000000001
 43
0.00000001
 40
0.0
 40
0.0
 40
0.0
 40
0.0
 40
0.0338381928362209
 40
0.1689873704941283
 40
0.3041365481520357
 40
0.4392857258099399
 40
0.5744349034678441
 40
0.7095840811257509
 40
0.8447332587836578
 40
1.0
 40
1.0
 40
1.0
 40
1.0
 10
40.07499999999997
 20
2.514865817828365
 30
0.0
 10
40.07499999999998
 20
2.551798926590559
 30
0.0
 10
40.075
 20
2.73624225558584
 30
0.0
 10
40.07500000000003
 20
3.178045911756253
 30
0.0
 10
40.07500000000007
 20
3.822180381919826
 30
0.0
 10
40.07500000000003
 20
4.54889078716602
 30
0.0
 10
40.07499999999998
 20
5.32390686184349
 30
0.0
 10
40.07500000000002
 20
6.128924770355625
 30
0.0
 10
40.07500000000007
 20
6.983746049069196
 30
0.0
 10
40.07500000000002
 20
7.545616017847079
 30
0.0
 10
40.07499999999998
 20
7.846011806678632
 30
0.0
  0
LINE
  5
CA
330
1F
100
AcDbEntity
  8
중심선
 62
     1
100
AcDbLine
 10
-42.92499999999999
 20
0.0010749287238892
 30
0.0
 11
63.07500000000003
 21
0.0010749287239018
 31
0.0
  0
LINE
  5
CB
330
1F
100
AcDbEntity
  8
참조1
100
AcDbLine
 10
10.07500000000002
 20
0.0010749287238892
 30
0.0
 11
10.07500000000002
 21
-39.99892507127611
 31
0.0
  0
LINE
  5
CC
330
1F
100
AcDbEntity
  8
참조1
100
AcDbLine
 10
10.07500000000002
 20
-39.99892507127611
 30
0.0
 11
-25.08385681430866
 21
-39.9989250712761
 31
0.0
  0
CIRCLE
  5
CD
330
1F
100
AcDbEntity
  8
해칭선
100
AcDbCircle
 10
24.92500000000001
 20
0.0
 30
0.0
 40
3.000000000000008
  0
INSERT
  5
CE
330
1F
100
AcDbEntity
  8
0
  6
Continuous
 62
     7
100
AcDbBlockReference
 66
     1
  2
블럭10
 10
-3.865272932125189
 20
-52.04609937292004
 30
0.0
  0
ATTRIB
  5
CF
330
CE
100
AcDbEntity
  8
FORMAT
 62
     2
100
AcDbText
 10
-19.98453397156074
 20
-49.97073246008785
 30
0.0
 40
4.233333333333333
  1
SEME6416005E [ 4 FLUTE ]
 41
0.75
  7
SLDTEXTSTYLE0
 11
-19.98453397156074
 21
-52.08739912675452
 31
0.0
100
AcDbAttribute
  2
AUTOATTR0
 70
     0
 74
     1
  0
SEQEND
  5
D0
330
CE
100
AcDbEntity
  8
0
  6
Continuous
 62
     7
  0
HATCH
  5
D1
330
1F
100
AcDbEntity
  8
중심선
100
AcDbHatch
 10
0.0
 20
0.0
 30
0.0
210
0.0
220
0.0
230
1.0
  2
SOLID
 70
     1
 71
     0
 91
        1
 92
        0
 93
        4
 72
     1
 10
1.849636372255659
 20
-35.7989250712761
 11
-1.596638871581624
 21
-35.7989250712761
 72
     1
 10
-1.596638871581624
 20
-35.7989250712761
 11
-3.724868730785647
 21
-38.33525065184867
 72
     1
 10
-3.724868730785647
 20
-38.33525065184867
 11
-0.278560401835215
 21
-38.33521122254619
 72
     1
 10
-0.278560401835215
 20
-38.33521122254619
 11
1.849636372255659
 21
-35.7989250712761
 97
        0
 75
     0
 76
     1
 98
        1
 10
0.0
 20
0.0
  0
HATCH
  5
D2
330
1F
100
AcDbEntity
  8
중심선
100
AcDbHatch
 10
0.0
 20
0.0
 30
0.0
210
0.0
220
0.0
230
1.0
  2
SOLID
 70
     1
 71
     0
 91
        1
 92
        0
 93
        4
 72
     1
 10
6.862400363291638
 20
-35.79892507127608
 11
3.416125119454355
 21
-35.7989250712761
 72
     1
 10
3.416125119454355
 20
-35.7989250712761
 11
-1.115012888903061
 21
-41.19892507127612
 72
     1
 10
-1.115012888903061
 20
-41.19892507127612
 11
2.331262354934221
 21
-41.19892507127612
 72
     1
 10
2.331262354934221
 20
-41.19892507127612
 11
6.862400363291638
 21
-35.79892507127608
 97
        0
 75
     0
 76
     1
 98
        1
 10
0.0
 20
0.0
  0
HATCH
  5
D3
330
1F
100
AcDbEntity
  8
중심선
100
AcDbHatch
 10
0.0
 20
0.0
 30
0.0
210
0.0
220
0.0
230
1.0
  2
SOLID
 70
     1
 71
     0
 91
        1
 92
        0
 93
        4
 72
     1
 10
11.87516435432753
 20
-35.7989250712761
 11
8.428889110490417
 21
-35.79892507127608
 72
     1
 10
8.428889110490417
 20
-35.79892507127608
 11
1.380452208601141
 21
-44.19892507127612
 72
     1
 10
1.380452208601141
 20
-44.19892507127612
 11
4.826727452438423
 21
-44.19892507127612
 72
     1
 10
4.826727452438423
 20
-44.19892507127612
 11
11.87516435432753
 21
-35.7989250712761
 97
        0
 75
     0
 76
     1
 98
        1
 10
0.0
 20
0.0
  0
HATCH
  5
D4
330
1F
100
AcDbEntity
  8
중심선
100
AcDbHatch
 10
0.0
 20
0.0
 30
0.0
210
0.0
220
0.0
230
1.0
  2
SOLID
 70
     1
 71
     0
 91
        1
 92
        0
 93
        6
 72
     3
 10
16.6750547853397
 20
-39.99892507132738
 11
3.960054785062284
 21
1.540850780301639E-10
 40
0.3939339440162633
 50
17.09539180608434
 51
320.0019657685086
 73
     0
 72
     1
 10
18.3580544410403
 20
-38.58681907591443
 11
20.66335631474136
 21
-36.65249236586649
 72
     3
 10
16.67505478528686
 20
-39.99892507127625
 11
6.600054785286829
 21
-1.249000902703301E-13
 40
0.6363583540795982
 50
39.99873849337388
 51
368.4976242363725
 73
     1
 72
     1
 10
23.10038727718747
 20
-39.03892507120613
 11
15.35512209212278
 21
-39.03892507120613
 72
     1
 10
15.35512209212278
 20
-39.03892507120613
 11
15.35509704767685
 21
-40.95892507120602
 72
     1
 10
15.35509704767685
 20
-40.95892507120602
 11
19.79647681714888
 21
-40.95892507120599
 97
        0
 75
     0
 76
     1
 98
        1
 10
0.0
 20
0.0
  0
DIMENSION
  5
D5
330
1F
100
AcDbEntity
  8
치수문자_일반주서
100
AcDbDimension
  2
_D
 10
74.93491342222374
 20
-7.99892507127605
 30
0.0
 11
74.93491342222372
 21
0.8997794978078204
 31
0.0
 70
   160
  1
%%c<>
 71
     2
 42
16.00000000000005
  3
SLDDIMSTYLE0
100
AcDbAlignedDimension
 13
59.68624427964969
 23
8.001074928723948
 33
0.0
 14
59.22816471181858
 24
-7.998925071276104
 34
0.0
 50
90.0000000000002
100
AcDbRotatedDimension
  0
DIMENSION
  5
E2
330
1F
100
AcDbEntity
  8
치수문자_일반주서
100
AcDbDimension
  2
_D_1
 10
-48.31346843616481
 20
-7.998925071276115
 30
0.0
 11
-48.31346843616481
 21
0.0010749287238995
 31
0.0
 70
   160
  1
%%c<>
 71
     2
 42
-1.0
  3
SLDDIMSTYLE1
100
AcDbAlignedDimension
 13
-38.325
 23
8.0010749287239
 33
0.0
 14
-38.325
 24
-7.998925071276114
 34
0.0
 50
90.0000000000002
100
AcDbRotatedDimension
  0
DIMENSION
  5
F0
330
1F
100
AcDbEntity
  8
치수문자_일반주서
100
AcDbDimension
  2
_D_2
 10
40.07499999999998
 20
17.59743962148197
 30
0.0
 11
50.075
 21
17.59743962148199
 31
0.0
 70
   160
  1
<>
 71
     2
 42
-1.0
  3
SLDDIMSTYLE1
100
AcDbAlignedDimension
 13
60.07500000000001
 23
7.461400857439001
 33
0.0
 14
40.075
 24
7.994156576297085
 34
0.0
 50
0.0000000000001018
100
AcDbRotatedDimension
  0
DIMENSION
  5
FA
330
1F
100
AcDbEntity
  8
치수문자_일반주서
100
AcDbDimension
  2
_D_3
 10
25.07500000000001
 20
23.59743962148197
 30
0.0
 11
42.57500000000002
 21
23.59743962148198
 31
0.0
 70
   160
  1
<>
 71
     2
 42
-1.0
  3
SLDDIMSTYLE0
100
AcDbAlignedDimension
 13
60.07500000000001
 23
7.461400857439001
 33
0.0
 14
25.07500000000001
 24
7.851074928723892
 34
0.0
 50
0.0000000000000116
100
AcDbRotatedDimension
  0
DIMENSION
  5
104
330
1F
100
AcDbEntity
  8
치수문자_일반주서
100
AcDbDimension
  2
_D_4
 10
-39.925
 20
32.00493692264389
 30
0.0
 11
10.07500000000001
 21
32.00493692264389
 31
0.0
 70
   160
  1
<>
 71
     2
 42
-1.0
  3
SLDDIMSTYLE0
100
AcDbAlignedDimension
 13
60.07500000000001
 23
7.461400857439001
 33
0.0
 14
-39.925
 24
6.401074928723912
 34
0.0
100
AcDbRotatedDimension
  0
LINE
  5
10E
330
1F
100
AcDbEntity
  8
참조1
100
AcDbLine
 10
72.8884838153456
 20
7.441074928723896
 30
0.0
 11
72.8884838153456
 21
-7.438925071276109
 31
0.0
  0
LINE
  5
10F
330
1F
100
AcDbEntity
  8
참조1
100
AcDbLine
 10
85.5884838153456
 20
5.441074928723896
 30
0.0
 11
72.8884838153456
 21
5.441074928723896
 31
0.0
  0
SOLID
  5
110
330
1F
100
AcDbEntity
  8
참조1
100
AcDbTrace
 10
72.8884838153456
 20
5.441074928723896
 30
0.0
 11
79.23848381534559
 21
4.425074928723896
 31
0.0
 12
79.23848381534559
 22
6.457074928723896
 32
0.0
 13
79.23848381534559
 23
6.457074928723896
 33
0.0
  0
LINE
  5
111
330
1F
100
AcDbEntity
  8
참조1
100
AcDbLine
 10
85.5884838153456
 20
-5.438925071276109
 30
0.0
 11
72.8884838153456
 21
-5.438925071276109
 31
0.0
  0
SOLID
  5
112
330
1F
100
AcDbEntity
  8
참조1
100
AcDbTrace
 10
72.8884838153456
 20
-5.438925071276109
 30
0.0
 11
79.23848381534559
 21
-6.454925071276109
 31
0.0
 12
79.23848381534559
 22
-4.422925071276109
 32
0.0
 13
79.23848381534559
 23
-4.422925071276109
 33
0.0
  0
MTEXT
  5
113
330
1F
100
AcDbEntity
  8
참조1
100
AcDbMText
 10
82.28597390781587
 20
10.98929157337383
 30
0.0
 40
3.5
 41
0.0
 71
     1
 72
     1
  1
A
  7
SLDTEXTSTYLE0
 73
     1
 44
1.0
  0
MTEXT
  5
114
330
1F
100
AcDbEntity
  8
참조1
100
AcDbMText
 10
82.28597390781587
 20
0.1092915733738259
 30
0.0
 40
3.5
 41
0.0
 71
     1
 72
     1
  1
A
  7
SLDTEXTSTYLE0
 73
     1
 44
1.0
  0
INSERT
  5
11B
330
1F
100
AcDbEntity
  8
해칭선
100
AcDbBlockReference
  2
SW_DOWELSYMBOL_0
 10
24.92500000000001
 20
0.0
 30
0.0
  0
ARC
  5
143
330
1F
100
AcDbEntity
  8
외형선
  6
Continuous
 62
     1
370
    15
100
AcDbCircle
 10
59.57500000000002
 20
7.441680045808211
 30
0.0
 40
0.4999999999999998
100
AcDbArc
 50
0.0
 51
90.0
  0
ARC
  5
144
102
{ACAD_REACTORS
102
}
330
1F
100
AcDbEntity
  8
외형선
  6
Continuous
 62
     1
370
    15
100
AcDbCircle
 10
59.57500000000002
 20
-7.439530188360407
 30
0.0
 40
0.4999999999999998
100
AcDbArc
 50
270.0
 51
0.0
  0
DIMENSION
  5
147
102
{ACAD_REACTORS
102
}
102
{ACAD_XDICTIONARY
360
148
102
}
330
1F
100
AcDbEntity
  8
치수문자_일반주서
100
AcDbDimension
  2
*D8
 10
59.57500000000002
 20
-7.439530188360407
 30
0.0
 11
68.79630640956856
 21
-23.26223139192619
 31
0.0
 70
   164
  1
<>
 71
     5
 42
0.5
  3
SLDDIMSTYLE0
100
AcDbRadialDimension
 15
59.82676025295727
 25
-7.871521826046716
 35
0.0
 40
0.0
1001
ACAD_DSTYLE_DIMRADIAL_EXTENSION
1070
   387
1070
     1
1070
   388
1040
4.71238898038469
1070
   390
1040
0.0
1001
ACAD
1000
DSTYLE
1002
{
1070
    78
1070
     8
1002
}
  0
ENDSEC
  0
SECTION
  2
OBJECTS
  0
DICTIONARY
  5
C
330
0
100
AcDbDictionary
281
     1
  3
ACAD_GROUP
350
D
  3
ACAD_IMAGE_VARS
350
13F
  3
ACAD_LAYOUT
350
1A
  3
ACAD_MLINESTYLE
350
17
  3
ACAD_PLOTSETTINGS
350
19
  3
ACAD_PLOTSTYLENAME
350
E
  3
ACAD_SCALELIST
350
47
  3
APPDATA
350
13D
  3
DWGPROPS
350
154
  0
DICTIONARY
  5
148
330
147
100
AcDbDictionary
280
     1
281
     1
  0
DICTIONARY
  5
D
102
{ACAD_REACTORS
330
C
102
}
330
C
100
AcDbDictionary
281
     1
  0
RASTERVARIABLES
  5
13F
102
{ACAD_REACTORS
330
C
102
}
330
C
100
AcDbRasterVariables
 90
        0
 70
     1
 71
     1
 72
     1
  0
DICTIONARY
  5
1A
102
{ACAD_REACTORS
330
C
102
}
330
C
100
AcDbDictionary
281
     1
  3
Layout1
350
1E
  3
Layout2
350
26
  3
Model
350
22
  0
DICTIONARY
  5
17
102
{ACAD_REACTORS
330
C
102
}
330
C
100
AcDbDictionary
281
     1
  3
Standard
350
18
  0
DICTIONARY
  5
19
102
{ACAD_REACTORS
330
C
102
}
330
C
100
AcDbDictionary
281
     1
  0
ACDBDICTIONARYWDFLT
  5
E
102
{ACAD_REACTORS
330
C
102
}
330
C
100
AcDbDictionary
281
     1
  3
Normal
350
F
100
AcDbDictionaryWithDefault
340
F
  0
DICTIONARY
  5
47
102
{ACAD_REACTORS
330
C
102
}
330
C
100
AcDbDictionary
281
     1
  3
A0
350
48
  3
A1
350
49
  3
A2
350
4A
  3
A3
350
4B
  3
A4
350
4C
  3
A5
350
4D
  3
A6
350
4E
  3
A7
350
4F
  3
A8
350
50
  3
A9
350
51
  3
B0
350
52
  3
B1
350
53
  3
B2
350
54
  3
B3
350
55
  3
B4
350
56
  3
B5
350
57
  3
B6
350
58
  3
B7
350
59
  3
B8
350
5A
  3
B9
350
5B
  3
C0
350
5C
  3
C1
350
5D
  3
C2
350
5E
  3
C3
350
5F
  3
C4
350
60
  3
C5
350
61
  3
C6
350
62
  3
C7
350
63
  3
C8
350
64
  3
C9
350
65
  3
D0
350
66
  3
D1
350
67
  3
D2
350
68
  0
DICTIONARY
  5
13D
102
{ACAD_REACTORS
330
C
102
}
330
C
100
AcDbDictionary
281
     1
  0
XRECORD
  5
154
102
{ACAD_REACTORS
330
C
102
}
330
C
100
AcDbXrecord
280
     1
  1
DWGPROPS COOKIE
  2

  3

  4

  6

  7

  8
12016016
  9

300
=
301
=
302
=
303
=
304
=
305
=
306
=
307
=
308
=
309
=
 40
0.0
 41
2458274.339798032
 42
2458275.279616516
  1

 90
        0
  0
LAYOUT
  5
1E
102
{ACAD_REACTORS
330
1A
102
}
330
1A
100
AcDbPlotSettings
  1

  2
none_device
  4

  6

 40
0.0
 41
0.0
 42
0.0
 43
0.0
 44
0.0
 45
0.0
 46
0.0
 47
0.0
 48
0.0
 49
0.0
140
0.0
141
0.0
142
1.0
143
1.0
 70
   688
 72
     1
 73
     0
 74
     5
  7

 75
    16
147
1.0
148
0.0
149
0.0
100
AcDbLayout
  1
Layout1
 70
     1
 71
     1
 10
0.0
 20
0.0
 11
420.0
 21
297.0
 12
0.0
 22
0.0
 32
0.0
 14
1.000000000000000E+20
 24
1.000000000000000E+20
 34
1.000000000000000E+20
 15
-1.000000000000000E+20
 25
-1.000000000000000E+20
 35
-1.000000000000000E+20
146
0.0
 13
0.0
 23
0.0
 33
0.0
 16
1.0
 26
0.0
 36
0.0
 17
0.0
 27
1.0
 37
0.0
 76
     0
330
1B
  0
LAYOUT
  5
26
102
{ACAD_REACTORS
330
1A
102
}
330
1A
100
AcDbPlotSettings
  1

  2
none_device
  4

  6

 40
0.0
 41
0.0
 42
0.0
 43
0.0
 44
0.0
 45
0.0
 46
0.0
 47
0.0
 48
0.0
 49
0.0
140
0.0
141
0.0
142
1.0
143
1.0
 70
   688
 72
     1
 73
     0
 74
     5
  7

 75
    16
147
1.0
148
0.0
149
0.0
100
AcDbLayout
  1
Layout2
 70
     1
 71
     2
 10
0.0
 20
0.0
 11
0.0
 21
0.0
 12
0.0
 22
0.0
 32
0.0
 14
0.0
 24
0.0
 34
0.0
 15
0.0
 25
0.0
 35
0.0
146
0.0
 13
0.0
 23
0.0
 33
0.0
 16
1.0
 26
0.0
 36
0.0
 17
0.0
 27
1.0
 37
0.0
 76
     0
330
23
  0
LAYOUT
  5
22
102
{ACAD_REACTORS
330
1A
102
}
330
1A
100
AcDbPlotSettings
  1

  2
none_device
  4
ANSI_A_(11.00_x_8.50_Inches)
  6

 40
6.35
 41
19.05
 42
6.35000508
 43
19.05000254
 44
279.4
 45
215.9
 46
100.6789708763952
 47
103.0811904410538
 48
0.0
 49
0.0
140
0.0
141
0.0
142
0.0786468060777987
143
1.0
 70
  1696
 72
     0
 73
     0
 74
     0
  7

 75
     0
147
0.0235690232323232
148
0.0
149
0.0
100
AcDbLayout
  1
Model
 70
     1
 71
     0
 10
0.0
 20
0.0
 11
420.0
 21
297.0
 12
0.0
 22
0.0
 32
0.0
 14
-52.87867770202656
 24
-49.97073246008785
 34
0.0
 15
85.5884838153456
 25
36.51667383722278
 35
0.0
146
0.0
 13
0.0
 23
0.0
 33
0.0
 16
1.0
 26
0.0
 36
0.0
 17
0.0
 27
1.0
 37
0.0
 76
     0
330
1F
331
29
  0
MLINESTYLE
  5
18
102
{ACAD_REACTORS
330
17
102
}
330
17
100
AcDbMlineStyle
  2
Standard
 70
     0
  3

 62
   256
 51
90.0
 52
90.0
 71
     2
 49
0.5
 62
   256
  6
BYLAYER
 49
-0.5
 62
   256
  6
BYLAYER
  0
ACDBPLACEHOLDER
  5
F
102
{ACAD_REACTORS
330
E
102
}
330
E
  0
SCALE
  5
48
102
{ACAD_REACTORS
330
47
102
}
330
47
100
AcDbScale
 70
     0
300
1:1
140
1.0
141
1.0
290
     1
  0
SCALE
  5
49
102
{ACAD_REACTORS
330
47
102
}
330
47
100
AcDbScale
 70
     0
300
1:2
140
1.0
141
2.0
290
     0
  0
SCALE
  5
4A
102
{ACAD_REACTORS
330
47
102
}
330
47
100
AcDbScale
 70
     0
300
1:4
140
1.0
141
4.0
290
     0
  0
SCALE
  5
4B
102
{ACAD_REACTORS
330
47
102
}
330
47
100
AcDbScale
 70
     0
300
1:5
140
1.0
141
5.0
290
     0
  0
SCALE
  5
4C
102
{ACAD_REACTORS
330
47
102
}
330
47
100
AcDbScale
 70
     0
300
1:8
140
1.0
141
8.0
290
     0
  0
SCALE
  5
4D
102
{ACAD_REACTORS
330
47
102
}
330
47
100
AcDbScale
 70
     0
300
1:10
140
1.0
141
10.0
290
     0
  0
SCALE
  5
4E
102
{ACAD_REACTORS
330
47
102
}
330
47
100
AcDbScale
 70
     0
300
1:16
140
1.0
141
16.0
290
     0
  0
SCALE
  5
4F
102
{ACAD_REACTORS
330
47
102
}
330
47
100
AcDbScale
 70
     0
300
1:20
140
1.0
141
20.0
290
     0
  0
SCALE
  5
50
102
{ACAD_REACTORS
330
47
102
}
330
47
100
AcDbScale
 70
     0
300
1:30
140
1.0
141
30.0
290
     0
  0
SCALE
  5
51
102
{ACAD_REACTORS
330
47
102
}
330
47
100
AcDbScale
 70
     0
300
1:40
140
1.0
141
40.0
290
     0
  0
SCALE
  5
52
102
{ACAD_REACTORS
330
47
102
}
330
47
100
AcDbScale
 70
     0
300
1:50
140
1.0
141
50.0
290
     0
  0
SCALE
  5
53
102
{ACAD_REACTORS
330
47
102
}
330
47
100
AcDbScale
 70
     0
300
1:100
140
1.0
141
100.0
290
     0
  0
SCALE
  5
54
102
{ACAD_REACTORS
330
47
102
}
330
47
100
AcDbScale
 70
     0
300
2:1
140
2.0
141
1.0
290
     0
  0
SCALE
  5
55
102
{ACAD_REACTORS
330
47
102
}
330
47
100
AcDbScale
 70
     0
300
4:1
140
4.0
141
1.0
290
     0
  0
SCALE
  5
56
102
{ACAD_REACTORS
330
47
102
}
330
47
100
AcDbScale
 70
     0
300
8:1
140
8.0
141
1.0
290
     0
  0
SCALE
  5
57
102
{ACAD_REACTORS
330
47
102
}
330
47
100
AcDbScale
 70
     0
300
10:1
140
10.0
141
1.0
290
     0
  0
SCALE
  5
58
102
{ACAD_REACTORS
330
47
102
}
330
47
100
AcDbScale
 70
     0
300
100:1
140
100.0
141
1.0
290
     0
  0
SCALE
  5
59
102
{ACAD_REACTORS
330
47
102
}
330
47
100
AcDbScale
 70
     0
300
1/128" = 1'-0"
140
0.0078125
141
12.0
290
     0
  0
SCALE
  5
5A
102
{ACAD_REACTORS
330
47
102
}
330
47
100
AcDbScale
 70
     0
300
1/64" = 1'-0"
140
0.015625
141
12.0
290
     0
  0
SCALE
  5
5B
102
{ACAD_REACTORS
330
47
102
}
330
47
100
AcDbScale
 70
     0
300
1/32" = 1'-0"
140
0.03125
141
12.0
290
     0
  0
SCALE
  5
5C
102
{ACAD_REACTORS
330
47
102
}
330
47
100
AcDbScale
 70
     0
300
1/16" = 1'-0"
140
0.0625
141
12.0
290
     0
  0
SCALE
  5
5D
102
{ACAD_REACTORS
330
47
102
}
330
47
100
AcDbScale
 70
     0
300
3/32" = 1'-0"
140
0.09375
141
12.0
290
     0
  0
SCALE
  5
5E
102
{ACAD_REACTORS
330
47
102
}
330
47
100
AcDbScale
 70
     0
300
1/8" = 1'-0"
140
0.125
141
12.0
290
     0
  0
SCALE
  5
5F
102
{ACAD_REACTORS
330
47
102
}
330
47
100
AcDbScale
 70
     0
300
3/16" = 1'-0"
140
0.1875
141
12.0
290
     0
  0
SCALE
  5
60
102
{ACAD_REACTORS
330
47
102
}
330
47
100
AcDbScale
 70
     0
300
1/4" = 1'-0"
140
0.25
141
12.0
290
     0
  0
SCALE
  5
61
102
{ACAD_REACTORS
330
47
102
}
330
47
100
AcDbScale
 70
     0
300
3/8" = 1'-0"
140
0.375
141
12.0
290
     0
  0
SCALE
  5
62
102
{ACAD_REACTORS
330
47
102
}
330
47
100
AcDbScale
 70
     0
300
1/2" = 1'-0"
140
0.5
141
12.0
290
     0
  0
SCALE
  5
63
102
{ACAD_REACTORS
330
47
102
}
330
47
100
AcDbScale
 70
     0
300
3/4" = 1'-0"
140
0.75
141
12.0
290
     0
  0
SCALE
  5
64
102
{ACAD_REACTORS
330
47
102
}
330
47
100
AcDbScale
 70
     0
300
1" = 1'-0"
140
1.0
141
12.0
290
     0
  0
SCALE
  5
65
102
{ACAD_REACTORS
330
47
102
}
330
47
100
AcDbScale
 70
     0
300
1-1/2" = 1'-0"
140
1.5
141
12.0
290
     0
  0
SCALE
  5
66
102
{ACAD_REACTORS
330
47
102
}
330
47
100
AcDbScale
 70
     0
300
3" = 1'-0"
140
3.0
141
12.0
290
     0
  0
SCALE
  5
67
102
{ACAD_REACTORS
330
47
102
}
330
47
100
AcDbScale
 70
     0
300
6" = 1'-0"
140
6.0
141
12.0
290
     0
  0
SCALE
  5
68
102
{ACAD_REACTORS
330
47
102
}
330
47
100
AcDbScale
 70
     0
300
1'-0" = 1'-0"
140
12.0
141
12.0
290
     0
  0
ENDSEC
  0
EOF
