  0
SECTION
  2
HEADER
  9
$ACADVER
  1
AC1015
  9
$ACADMAINTVER
 70
     6
  9
$DWGCODEPAGE
  3
ANSI_949
  9
$INSBASE
 10
0.0
 20
0.0
 30
0.0
  9
$EXTMIN
 10
-110.2134684361648
 20
-49.97180738881174
 30
0.0
  9
$EXTMAX
 10
80.09001028902489
 20
36.37886199391993
 30
0.0
  9
$LIMMIN
 10
0.0
 20
0.0
  9
$LIMMAX
 10
420.0
 20
297.0
  9
$ORTHOMODE
 70
     0
  9
$REGENMODE
 70
     1
  9
$FILLMODE
 70
     1
  9
$QTEXTMODE
 70
     0
  9
$MIRRTEXT
 70
     1
  9
$LTSCALE
 40
1.0
  9
$ATTMODE
 70
     1
  9
$TEXTSIZE
 40
3.5
  9
$TRACEWID
 40
1.0
  9
$TEXTSTYLE
  7
Standard
  9
$CLAYER
  8
0
  9
$CELTYPE
  6
ByLayer
  9
$CECOLOR
 62
   256
  9
$CELTSCALE
 40
1.0
  9
$DISPSILH
 70
     0
  9
$DIMSCALE
 40
1.0
  9
$DIMASZ
 40
3.302
  9
$DIMEXO
 40
1.0
  9
$DIMDLI
 40
3.75
  9
$DIMRND
 40
0.0
  9
$DIMDLE
 40
0.0
  9
$DIMEXE
 40
1.0
  9
$DIMTP
 40
0.0
  9
$DIMTM
 40
0.0
  9
$DIMTXT
 40
3.5
  9
$DIMCEN
 40
2.5
  9
$DIMTSZ
 40
0.0
  9
$DIMTOL
 70
     0
  9
$DIMLIM
 70
     0
  9
$DIMTIH
 70
     1
  9
$DIMTOH
 70
     1
  9
$DIMSE1
 70
     0
  9
$DIMSE2
 70
     0
  9
$DIMTAD
 70
     1
  9
$DIMZIN
 70
     0
  9
$DIMBLK
  1

  9
$DIMASO
 70
     1
  9
$DIMSHO
 70
     1
  9
$DIMPOST
  1

  9
$DIMAPOST
  1

  9
$DIMALT
 70
     0
  9
$DIMALTD
 70
     3
  9
$DIMALTF
 40
0.0393700787401575
  9
$DIMLFAC
 40
1.0
  9
$DIMTOFL
 70
     1
  9
$DIMTVP
 40
0.0
  9
$DIMTIX
 70
     0
  9
$DIMSOXD
 70
     0
  9
$DIMSAH
 70
     0
  9
$DIMBLK1
  1

  9
$DIMBLK2
  1

  9
$DIMSTYLE
  2
ISO-25
  9
$DIMCLRD
 70
     0
  9
$DIMCLRE
 70
     0
  9
$DIMCLRT
 70
     0
  9
$DIMTFAC
 40
1.0
  9
$DIMGAP
 40
1.524
  9
$DIMJUST
 70
     0
  9
$DIMSD1
 70
     0
  9
$DIMSD2
 70
     0
  9
$DIMTOLJ
 70
     0
  9
$DIMTZIN
 70
     0
  9
$DIMALTZ
 70
     0
  9
$DIMALTTZ
 70
     0
  9
$DIMUPT
 70
     0
  9
$DIMDEC
 70
     2
  9
$DIMTDEC
 70
     2
  9
$DIMALTU
 70
     2
  9
$DIMALTTD
 70
     3
  9
$DIMTXSTY
  7
Standard
  9
$DIMAUNIT
 70
     0
  9
$DIMADEC
 70
     2
  9
$DIMALTRND
 40
0.0
  9
$DIMAZIN
 70
     0
  9
$DIMDSEP
 70
    44
  9
$DIMATFIT
 70
     3
  9
$DIMFRAC
 70
     0
  9
$DIMLDRBLK
  1

  9
$DIMLUNIT
 70
     2
  9
$DIMLWD
 70
    -2
  9
$DIMLWE
 70
    -2
  9
$DIMTMOVE
 70
     0
  9
$LUNITS
 70
     2
  9
$LUPREC
 70
     2
  9
$SKETCHINC
 40
1.0
  9
$FILLETRAD
 40
10.0
  9
$AUNITS
 70
     0
  9
$AUPREC
 70
     2
  9
$MENU
  1
.
  9
$ELEVATION
 40
0.0
  9
$PELEVATION
 40
0.0
  9
$THICKNESS
 40
0.0
  9
$LIMCHECK
 70
     0
  9
$CHAMFERA
 40
0.0
  9
$CHAMFERB
 40
0.0
  9
$CHAMFERC
 40
0.0
  9
$CHAMFERD
 40
0.0
  9
$SKPOLY
 70
     0
  9
$TDCREATE
 40
2458274.714419954
  9
$TDUCREATE
 40
2458274.339419954
  9
$TDUPDATE
 40
2458275.473410243
  9
$TDUUPDATE
 40
2458275.098410243
  9
$TDINDWG
 40
0.0011743171
  9
$TDUSRTIMER
 40
0.0011743056
  9
$USRTIMER
 70
     1
  9
$ANGBASE
 50
0.0
  9
$ANGDIR
 70
     0
  9
$PDMODE
 70
     0
  9
$PDSIZE
 40
-1.0
  9
$PLINEWID
 40
0.0
  9
$SPLFRAME
 70
     0
  9
$SPLINETYPE
 70
     6
  9
$SPLINESEGS
 70
     8
  9
$HANDSEED
  5
16A
  9
$SURFTAB1
 70
     6
  9
$SURFTAB2
 70
     6
  9
$SURFTYPE
 70
     6
  9
$SURFU
 70
     6
  9
$SURFV
 70
     6
  9
$UCSBASE
  2

  9
$UCSNAME
  2

  9
$UCSORG
 10
0.0
 20
0.0
 30
0.0
  9
$UCSXDIR
 10
1.0
 20
0.0
 30
0.0
  9
$UCSYDIR
 10
0.0
 20
1.0
 30
0.0
  9
$UCSORTHOREF
  2

  9
$UCSORTHOVIEW
 70
     0
  9
$UCSORGTOP
 10
0.0
 20
0.0
 30
0.0
  9
$UCSORGBOTTOM
 10
0.0
 20
0.0
 30
0.0
  9
$UCSORGLEFT
 10
0.0
 20
0.0
 30
0.0
  9
$UCSORGRIGHT
 10
0.0
 20
0.0
 30
0.0
  9
$UCSORGFRONT
 10
0.0
 20
0.0
 30
0.0
  9
$UCSORGBACK
 10
0.0
 20
0.0
 30
0.0
  9
$PUCSBASE
  2

  9
$PUCSNAME
  2

  9
$PUCSORG
 10
0.0
 20
0.0
 30
0.0
  9
$PUCSXDIR
 10
1.0
 20
0.0
 30
0.0
  9
$PUCSYDIR
 10
0.0
 20
1.0
 30
0.0
  9
$PUCSORTHOREF
  2

  9
$PUCSORTHOVIEW
 70
     0
  9
$PUCSORGTOP
 10
0.0
 20
0.0
 30
0.0
  9
$PUCSORGBOTTOM
 10
0.0
 20
0.0
 30
0.0
  9
$PUCSORGLEFT
 10
0.0
 20
0.0
 30
0.0
  9
$PUCSORGRIGHT
 10
0.0
 20
0.0
 30
0.0
  9
$PUCSORGFRONT
 10
0.0
 20
0.0
 30
0.0
  9
$PUCSORGBACK
 10
0.0
 20
0.0
 30
0.0
  9
$USERI1
 70
     0
  9
$USERI2
 70
     0
  9
$USERI3
 70
     0
  9
$USERI4
 70
     0
  9
$USERI5
 70
     0
  9
$USERR1
 40
0.0
  9
$USERR2
 40
0.0
  9
$USERR3
 40
0.0
  9
$USERR4
 40
0.0
  9
$USERR5
 40
0.0
  9
$WORLDVIEW
 70
     1
  9
$SHADEDGE
 70
     3
  9
$SHADEDIF
 70
    70
  9
$TILEMODE
 70
     1
  9
$MAXACTVP
 70
    64
  9
$PINSBASE
 10
0.0
 20
0.0
 30
0.0
  9
$PLIMCHECK
 70
     0
  9
$PEXTMIN
 10
1.000000000000000E+20
 20
1.000000000000000E+20
 30
1.000000000000000E+20
  9
$PEXTMAX
 10
-1.000000000000000E+20
 20
-1.000000000000000E+20
 30
-1.000000000000000E+20
  9
$PLIMMIN
 10
0.0
 20
0.0
  9
$PLIMMAX
 10
0.0
 20
0.0
  9
$UNITMODE
 70
     0
  9
$VISRETAIN
 70
     1
  9
$PLINEGEN
 70
     0
  9
$PSLTSCALE
 70
     1
  9
$TREEDEPTH
 70
  3020
  9
$CMLSTYLE
  2
Standard
  9
$CMLJUST
 70
     0
  9
$CMLSCALE
 40
20.0
  9
$PROXYGRAPHICS
 70
     1
  9
$MEASUREMENT
 70
     1
  9
$CELWEIGHT
370
    -1
  9
$ENDCAPS
280
     0
  9
$JOINSTYLE
280
     0
  9
$LWDISPLAY
290
     1
  9
$INSUNITS
 70
     4
  9
$HYPERLINKBASE
  1

  9
$STYLESHEET
  1

  9
$XEDIT
290
     1
  9
$CEPSNTYPE
380
     0
  9
$PSTYLEMODE
290
     1
  9
$FINGERPRINTGUID
  2
{02EAA1FF-6F66-451E-AC20-A3DEDAA7D1F4}
  9
$VERSIONGUID
  2
{FAEB1C32-E019-11D5-929B-00C0DF256EC4}
  9
$EXTNAMES
290
     1
  9
$PSVPSCALE
 40
0.0
  9
$OLESTARTUP
290
     0
  0
ENDSEC
  0
SECTION
  2
CLASSES
  0
CLASS
  1
ACDBDICTIONARYWDFLT
  2
AcDbDictionaryWithDefault
  3
ObjectDBX Classes
 90
        0
280
     0
281
     0
  0
CLASS
  1
VISUALSTYLE
  2
AcDbVisualStyle
  3
ObjectDBX Classes
 90
     4095
280
     0
281
     0
  0
CLASS
  1
MATERIAL
  2
AcDbMaterial
  3
ObjectDBX Classes
 90
     1153
280
     0
281
     0
  0
CLASS
  1
SCALE
  2
AcDbScale
  3
ObjectDBX Classes
 90
     1153
280
     0
281
     0
  0
CLASS
  1
SUN
  2
AcDbSun
  3
SCENEOE
 90
     1153
280
     0
281
     0
  0
CLASS
  1
ACDBPLACEHOLDER
  2
AcDbPlaceHolder
  3
ObjectDBX Classes
 90
        0
280
     0
281
     0
  0
CLASS
  1
LAYOUT
  2
AcDbLayout
  3
ObjectDBX Classes
 90
        0
280
     0
281
     0
  0
CLASS
  1
TABLESTYLE
  2
AcDbTableStyle
  3
ObjectDBX Classes
 90
     4095
280
     0
281
     0
  0
CLASS
  1
MLEADERSTYLE
  2
AcDbMLeaderStyle
  3
ACDB_MLEADERSTYLE_CLASS
 90
     4095
280
     0
281
     0
  0
CLASS
  1
DICTIONARYVAR
  2
AcDbDictionaryVar
  3
ObjectDBX Classes
 90
        0
280
     0
281
     0
  0
CLASS
  1
DIMASSOC
  2
AcDbDimAssoc
  3
"AcDbDimAssoc|Product Desc:     AcDim ARX App For Dimension|Company:          Autodesk, Inc.|WEB Address:      www.autodesk.com"
 90
        0
280
     0
281
     0
  0
ENDSEC
  0
SECTION
  2
TABLES
  0
TABLE
  2
VPORT
  5
8
330
0
100
AcDbSymbolTable
 70
     1
  0
VPORT
  5
29
330
8
100
AcDbSymbolTableRecord
100
AcDbViewportTableRecord
  2
*Active
 70
     0
 10
0.0
 20
0.0
 11
1.0
 21
1.0
 12
-15.06172907356994
 22
-6.796472697445907
 13
0.0
 23
0.0
 14
10.0
 24
10.0
 15
10.0
 25
10.0
 16
0.0
 26
0.0
 36
1.0
 17
0.0
 27
0.0
 37
0.0
 40
88.0776827703863
 41
2.400311526479751
 42
50.0
 43
0.0
 44
0.0
 50
0.0
 51
0.0
 71
    16
 72
  2000
 73
     1
 74
     3
 75
     0
 76
     0
 77
     0
 78
     0
281
     0
 65
     1
110
0.0
120
0.0
130
0.0
111
1.0
121
0.0
131
0.0
112
0.0
122
1.0
132
0.0
 79
     0
146
0.0
  0
ENDTAB
  0
TABLE
  2
LTYPE
  5
5
330
0
100
AcDbSymbolTable
 70
     6
  0
LTYPE
  5
14
330
5
100
AcDbSymbolTableRecord
100
AcDbLinetypeTableRecord
  2
ByBlock
 70
     0
  3

 72
    65
 73
     0
 40
0.0
  0
LTYPE
  5
15
330
5
100
AcDbSymbolTableRecord
100
AcDbLinetypeTableRecord
  2
ByLayer
 70
     0
  3

 72
    65
 73
     0
 40
0.0
  0
LTYPE
  5
16
330
5
100
AcDbSymbolTableRecord
100
AcDbLinetypeTableRecord
  2
Continuous
 70
     0
  3
Solid line
 72
    65
 73
     0
 40
0.0
  0
LTYPE
  5
6A
330
5
100
AcDbSymbolTableRecord
100
AcDbLinetypeTableRecord
  2
HIDDEN
 70
     0
  3
Hidden __ __ __ __ __ __ __ __ __ __ __ __ __ __
 72
    65
 73
     2
 40
1.905
 49
1.27
 74
     0
 49
-0.635
 74
     0
  0
LTYPE
  5
6B
330
5
100
AcDbSymbolTableRecord
100
AcDbLinetypeTableRecord
  2
PHANTOM
 70
     0
  3
Phantom ______  __  __  ______  __  __  ______
 72
    65
 73
     6
 40
12.7
 49
6.35
 74
     0
 49
-1.27
 74
     0
 49
1.27
 74
     0
 49
-1.27
 74
     0
 49
1.27
 74
     0
 49
-1.27
 74
     0
  0
LTYPE
  5
6C
330
5
100
AcDbSymbolTableRecord
100
AcDbLinetypeTableRecord
  2
CENTER
 70
     0
  3
Center ____ _ ____ _ ____ _ ____ _ ____ _ ____
 72
    65
 73
     4
 40
10.16
 49
6.35
 74
     0
 49
-1.27
 74
     0
 49
1.27
 74
     0
 49
-1.27
 74
     0
  0
LTYPE
  5
6D
330
5
100
AcDbSymbolTableRecord
100
AcDbLinetypeTableRecord
  2
CENTERX2
 70
     0
  3
Center (2x) ________  __  ________  __  _____
 72
    65
 73
     4
 40
20.32
 49
12.7
 74
     0
 49
-2.54
 74
     0
 49
2.54
 74
     0
 49
-2.54
 74
     0
  0
LTYPE
  5
6E
330
5
100
AcDbSymbolTableRecord
100
AcDbLinetypeTableRecord
  2
DOT2
 70
     0
  3
Dot (.5x) ........................................
 72
    65
 73
     2
 40
0.635
 49
0.0
 74
     0
 49
-0.635
 74
     0
  0
ENDTAB
  0
TABLE
  2
LAYER
  5
2
330
0
100
AcDbSymbolTable
 70
    18
  0
LAYER
  5
10
330
2
100
AcDbSymbolTableRecord
100
AcDbLayerTableRecord
  2
0
 70
     0
 62
     7
  6
Continuous
370
    -3
390
F
  0
LAYER
  5
6F
330
2
100
AcDbSymbolTableRecord
100
AcDbLayerTableRecord
  2
FORMAT
 70
     0
 62
     2
  6
Continuous
370
    -3
390
F
  0
LAYER
  5
70
330
2
100
AcDbSymbolTableRecord
100
AcDbLayerTableRecord
  2
외형선
 70
     0
 62
     4
  6
Continuous
370
    30
390
F
  0
LAYER
  5
71
330
2
100
AcDbSymbolTableRecord
100
AcDbLayerTableRecord
  2
숨은선
 70
     0
 62
     2
  6
HIDDEN
370
    15
390
F
  0
LAYER
  5
72
330
2
100
AcDbSymbolTableRecord
100
AcDbLayerTableRecord
  2
중심선
 70
     0
 62
     1
  6
CENTERX2
370
    -3
390
F
  0
LAYER
  5
73
330
2
100
AcDbSymbolTableRecord
100
AcDbLayerTableRecord
  2
파단선
 70
     0
 62
     4
  6
Continuous
370
    -3
390
F
  0
LAYER
  5
74
330
2
100
AcDbSymbolTableRecord
100
AcDbLayerTableRecord
  2
해칭선
 70
     0
 62
   100
  6
Continuous
370
    -3
390
F
  0
LAYER
  5
75
330
2
100
AcDbSymbolTableRecord
100
AcDbLayerTableRecord
  2
가는실선
 70
     0
 62
     4
  6
Continuous
370
    -3
390
F
  0
LAYER
  5
76
330
2
100
AcDbSymbolTableRecord
100
AcDbLayerTableRecord
  2
치수_보조선
 70
     0
 62
     4
  6
Continuous
370
    -3
390
F
  0
LAYER
  5
77
330
2
100
AcDbSymbolTableRecord
100
AcDbLayerTableRecord
  2
치수문자_일반주서
 70
     0
 62
     7
  6
Continuous
370
    15
390
F
  0
LAYER
  5
78
330
2
100
AcDbSymbolTableRecord
100
AcDbLayerTableRecord
  2
개별주서
 70
     0
 62
   100
  6
Continuous
370
    30
390
F
  0
LAYER
  5
79
330
2
100
AcDbSymbolTableRecord
100
AcDbLayerTableRecord
  2
중간선
 70
     0
 62
     2
  6
Continuous
370
    15
390
F
  0
LAYER
  5
7A
330
2
100
AcDbSymbolTableRecord
100
AcDbLayerTableRecord
  2
윤곽선
 70
     0
 62
     3
  6
Continuous
370
    40
390
F
  0
LAYER
  5
7B
330
2
100
AcDbSymbolTableRecord
100
AcDbLayerTableRecord
  2
중심마크
 70
     0
 62
   100
  6
Continuous
370
    30
390
F
  0
LAYER
  5
7C
330
2
100
AcDbSymbolTableRecord
100
AcDbLayerTableRecord
  2
가상선
 70
     0
 62
     4
  6
PHANTOM
370
    -3
390
F
  0
LAYER
  5
7D
330
2
100
AcDbSymbolTableRecord
100
AcDbLayerTableRecord
  2
특수지정선
 70
     0
 62
     5
  6
CENTERX2
370
    60
390
F
  0
LAYER
  5
7E
330
2
100
AcDbSymbolTableRecord
100
AcDbLayerTableRecord
  2
참조1
 70
     0
 62
    -4
  6
Continuous
370
    -3
390
F
  0
LAYER
  5
13C
330
2
100
AcDbSymbolTableRecord
100
AcDbLayerTableRecord
  2
Defpoints
 70
     0
 62
     7
  6
Continuous
290
     0
370
    -3
390
F
  0
ENDTAB
  0
TABLE
  2
STYLE
  5
3
330
0
100
AcDbSymbolTable
 70
     2
  0
STYLE
  5
11
330
3
100
AcDbSymbolTableRecord
100
AcDbTextStyleTableRecord
  2
Standard
 70
     0
 40
0.0
 41
1.0
 50
0.0
 71
     0
 42
3.5
  3
txt
  4

  0
STYLE
  5
94
330
3
100
AcDbSymbolTableRecord
100
AcDbTextStyleTableRecord
  2
SLDTEXTSTYLE0
 70
     0
 40
0.0
 41
0.75
 50
0.0
 71
     0
 42
3.5
  3
TXT
  4

  0
ENDTAB
  0
TABLE
  2
VIEW
  5
6
330
0
100
AcDbSymbolTable
 70
     0
  0
ENDTAB
  0
TABLE
  2
UCS
  5
7
330
0
100
AcDbSymbolTable
 70
     0
  0
ENDTAB
  0
TABLE
  2
APPID
  5
9
330
0
100
AcDbSymbolTable
 70
     3
  0
APPID
  5
12
330
9
100
AcDbSymbolTableRecord
100
AcDbRegAppTableRecord
  2
ACAD
 70
     0
  0
APPID
  5
151
330
9
100
AcDbSymbolTableRecord
100
AcDbRegAppTableRecord
  2
PE_URL
 70
     0
  0
APPID
  5
154
330
9
100
AcDbSymbolTableRecord
100
AcDbRegAppTableRecord
  2
ACAD_DSTYLE_DIMRADIAL_EXTENSION
 70
     0
  0
ENDTAB
  0
TABLE
  2
DIMSTYLE
  5
A
330
0
100
AcDbSymbolTable
 70
     3
100
AcDbDimStyleTable
  0
DIMSTYLE
105
27
102
{ACAD_REACTORS
330
155
102
}
330
A
100
AcDbSymbolTableRecord
100
AcDbDimStyleTableRecord
  2
ISO-25
 70
     0
 41
2.5
 42
0.625
 43
3.75
 44
1.25
 73
     0
 74
     0
 77
     1
 78
     8
140
2.5
141
2.5
143
0.03937007874016
147
0.625
171
     3
172
     1
178
     0
271
     2
272
     2
274
     3
278
    44
283
     0
284
     8
340
11
  0
DIMSTYLE
105
D4
330
A
100
AcDbSymbolTableRecord
100
AcDbDimStyleTableRecord
  2
SLDDIMSTYLE0
 70
     0
 41
3.302
 44
0.0
 45
0.000000001
 73
     0
 74
     0
 77
     1
 78
    12
 79
     3
140
3.5
147
0.875
173
     1
178
     0
271
     2
272
     2
276
     2
284
    12
340
94
  0
DIMSTYLE
105
E1
102
{ACAD_REACTORS
330
E0
330
EE
330
F8
330
102
330
D3
102
}
330
A
100
AcDbSymbolTableRecord
100
AcDbDimStyleTableRecord
  2
SLDDIMSTYLE1
 70
     0
 41
3.302
 44
0.0
 45
0.000000001
 73
     0
 74
     0
 77
     1
 78
    12
 79
     3
140
3.5
147
0.875
172
     1
173
     1
178
     0
271
     2
272
     2
276
     2
284
    12
289
     0
340
94
  0
ENDTAB
  0
TABLE
  2
BLOCK_RECORD
  5
1
330
0
100
AcDbSymbolTable
 70
     9
  0
BLOCK_RECORD
  5
1F
330
1
100
AcDbSymbolTableRecord
100
AcDbBlockTableRecord
  2
*Model_Space
340
22
  0
BLOCK_RECORD
  5
1B
330
1
100
AcDbSymbolTableRecord
100
AcDbBlockTableRecord
  2
*Paper_Space
340
1E
  0
BLOCK_RECORD
  5
23
330
1
100
AcDbSymbolTableRecord
100
AcDbBlockTableRecord
  2
*Paper_Space0
340
26
  0
BLOCK_RECORD
  5
7F
330
1
100
AcDbSymbolTableRecord
100
AcDbBlockTableRecord
  2
블럭10
340
0
102
{BLKREFS
331
CC
102
}
  0
BLOCK_RECORD
  5
D5
330
1
100
AcDbSymbolTableRecord
100
AcDbBlockTableRecord
  2
_D
340
0
  0
BLOCK_RECORD
  5
E2
330
1
100
AcDbSymbolTableRecord
100
AcDbBlockTableRecord
  2
_D_1
340
0
  0
BLOCK_RECORD
  5
EF
330
1
100
AcDbSymbolTableRecord
100
AcDbBlockTableRecord
  2
_D_2
340
0
  0
BLOCK_RECORD
  5
F9
330
1
100
AcDbSymbolTableRecord
100
AcDbBlockTableRecord
  2
_D_3
340
0
  0
BLOCK_RECORD
  5
103
330
1
100
AcDbSymbolTableRecord
100
AcDbBlockTableRecord
  2
_D_4
340
0
  0
BLOCK_RECORD
  5
113
330
1
100
AcDbSymbolTableRecord
100
AcDbBlockTableRecord
  2
SW_DOWELSYMBOL_0
340
0
102
{BLKREFS
331
119
102
}
  0
BLOCK_RECORD
  5
158
330
1
100
AcDbSymbolTableRecord
100
AcDbBlockTableRecord
  2
*D8
340
0
  0
ENDTAB
  0
ENDSEC
  0
SECTION
  2
BLOCKS
  0
BLOCK
  5
20
330
1F
100
AcDbEntity
  8
0
100
AcDbBlockBegin
  2
*Model_Space
 70
     0
 10
0.0
 20
0.0
 30
0.0
  3
*Model_Space
  1

  0
ENDBLK
  5
21
330
1F
100
AcDbEntity
  8
0
100
AcDbBlockEnd
  0
BLOCK
  5
1C
330
1B
100
AcDbEntity
 67
     1
  8
0
100
AcDbBlockBegin
  2
*Paper_Space
 70
     0
 10
0.0
 20
0.0
 30
0.0
  3
*Paper_Space
  1

  0
ENDBLK
  5
1D
330
1B
100
AcDbEntity
 67
     1
  8
0
100
AcDbBlockEnd
  0
BLOCK
  5
24
330
23
100
AcDbEntity
  8
0
100
AcDbBlockBegin
  2
*Paper_Space0
 70
     0
 10
0.0
 20
0.0
 30
0.0
  3
*Paper_Space0
  1

  0
ENDBLK
  5
25
330
23
100
AcDbEntity
  8
0
100
AcDbBlockEnd
  0
BLOCK
  5
80
330
7F
100
AcDbEntity
  8
0
100
AcDbBlockBegin
  2
블럭10
 70
     2
 10
0.0
 20
0.0
 30
0.0
  3
블럭10
  1

  0
ELLIPSE
  5
82
330
7F
100
AcDbEntity
  8
중심선
100
AcDbEllipse
 10
20.54032771741204
 20
12.0471743016438
 30
0.0
 11
6.600054785286829
 21
-1.261213355974178E-13
 31
0.0
210
0.0
220
0.0
230
1.0
 40
0.636358354079598
 41
0.9219305317359503
 42
6.513795318482858
  0
ELLIPSE
  5
83
330
7F
100
AcDbEntity
  8
중심선
100
AcDbEllipse
 10
20.54032771746488
 20
12.04717430159265
 30
0.0
 11
3.960054785062283
 21
1.540847449632565E-10
 31
0.0
210
0.0
220
0.0
230
1.0
 40
0.3939339440162632
 41
1.131841032648279
 42
5.62031148352944
  0
LINE
  5
84
330
7F
100
AcDbEntity
  8
중심선
100
AcDbLine
 10
2.268634060543552
 20
16.24717430164393
 30
0.0
 11
5.714909304380834
 21
16.24717430164393
 31
0.0
  0
LINE
  5
85
330
7F
100
AcDbEntity
  8
중심선
100
AcDbLine
 10
5.245725140726316
 20
7.84717430164391
 30
0.0
 11
8.692000384563599
 21
7.84717430164391
 31
0.0
  0
LINE
  5
86
330
7F
100
AcDbEntity
  8
중심선
100
AcDbLine
 10
15.74043728645272
 20
16.24717430164393
 30
0.0
 11
8.692000384563599
 21
7.84717430164391
 31
0.0
  0
LINE
  5
87
330
7F
100
AcDbEntity
  8
중심선
100
AcDbLine
 10
0.1404042013395286
 20
13.71084872107135
 30
0.0
 11
3.58671253028996
 21
13.71088815037384
 31
0.0
  0
LINE
  5
88
330
7F
100
AcDbEntity
  8
중심선
100
AcDbLine
 10
2.750260043222114
 20
10.84717430164391
 30
0.0
 11
6.196535287059397
 21
10.84717430164391
 31
0.0
  0
LINE
  5
89
330
7F
100
AcDbEntity
  8
중심선
100
AcDbLine
 10
12.29416204261559
 20
16.24717430164393
 30
0.0
 11
5.245725140726316
 21
7.84717430164391
 31
0.0
  0
LINE
  5
8A
330
7F
100
AcDbEntity
  8
중심선
100
AcDbLine
 10
10.72767329541681
 20
16.24717430164393
 30
0.0
 11
6.196535287059397
 21
10.84717430164391
 31
0.0
  0
LINE
  5
8B
330
7F
100
AcDbEntity
  8
중심선
100
AcDbLine
 10
7.28139805157953
 20
16.24717430164393
 30
0.0
 11
2.750260043222114
 21
10.84717430164391
 31
0.0
  0
LINE
  5
8C
330
7F
100
AcDbEntity
  8
중심선
100
AcDbLine
 10
5.714909304380834
 20
16.24717430164393
 30
0.0
 11
3.58671253028996
 21
13.71088815037384
 31
0.0
  0
LINE
  5
8D
330
7F
100
AcDbEntity
  8
중심선
100
AcDbLine
 10
2.268634060543552
 20
16.24717430164393
 30
0.0
 11
0.1404042013395286
 21
13.71084872107135
 31
0.0
  0
LINE
  5
8E
330
7F
100
AcDbEntity
  8
중심선
100
AcDbLine
 10
7.28139805157953
 20
16.24717430164393
 30
0.0
 11
10.72767329541681
 21
16.24717430164393
 31
0.0
  0
LINE
  5
8F
330
7F
100
AcDbEntity
  8
중심선
100
AcDbLine
 10
12.29416204261559
 20
16.24717430164393
 30
0.0
 11
15.74043728645272
 21
16.24717430164393
 31
0.0
  0
LINE
  5
90
330
7F
100
AcDbEntity
  8
중심선
100
AcDbLine
 10
19.22036997980202
 20
11.08717430171403
 30
0.0
 11
23.66174974927406
 21
11.08717430171406
 31
0.0
  0
LINE
  5
91
330
7F
100
AcDbEntity
  8
중심선
100
AcDbLine
 10
19.22039502424796
 20
13.00717430171391
 30
0.0
 11
19.22036997980202
 21
11.08717430171403
 31
0.0
  0
LINE
  5
92
330
7F
100
AcDbEntity
  8
중심선
100
AcDbLine
 10
19.22039502424796
 20
13.00717430171391
 30
0.0
 11
26.96566020931264
 21
13.00717430171391
 31
0.0
  0
LINE
  5
93
330
7F
100
AcDbEntity
  8
중심선
100
AcDbLine
 10
22.22332737316547
 20
13.45928029700563
 30
0.0
 11
24.52862924686651
 21
15.39360700705356
 31
0.0
  0
ATTDEF
  5
95
330
7F
100
AcDbEntity
  8
FORMAT
 62
     2
100
AcDbText
 10
-10.42778114789694
 20
2.075366912832191
 30
0.0
 40
4.233333333333333
  1
SEME641600515020E
 41
0.75
  7
SLDTEXTSTYLE0
 11
-10.42778114789694
 21
-0.0412997538344756
 31
0.0
100
AcDbAttributeDefinition
  3

  2
AUTOATTR0
 70
     0
 74
     1
  0
ENDBLK
  5
81
330
7F
100
AcDbEntity
  8
0
100
AcDbBlockEnd
  0
BLOCK
  5
D6
330
D5
100
AcDbEntity
  8
0
100
AcDbBlockBegin
  2
_D
 70
     0
 10
0.0
 20
0.0
 30
0.0
  3
_D
  1

  0
LINE
  5
D8
330
D5
100
AcDbEntity
  8
치수문자_일반주서
 62
     0
370
    -2
100
AcDbLine
 10
31.63532903303751
 20
8.000000000000005
 30
0.0
 11
79.53967695569152
 21
8.000000000000185
 31
0.0
  0
LINE
  5
D9
330
D5
100
AcDbEntity
  8
치수문자_일반주서
 62
     0
370
    -2
100
AcDbLine
 10
31.6353290330374
 20
-7.999999999999988
 30
0.0
 11
79.53967695569158
 21
-7.999999999999808
 31
0.0
  0
LINE
  5
DA
330
D5
100
AcDbEntity
  8
치수문자_일반주서
 62
     0
370
    -2
100
AcDbLine
 10
79.53967695569152
 20
8.000000000000185
 30
0.0
 11
79.53967695569146
 21
23.42361745088415
 31
0.0
  0
LINE
  5
DB
330
D5
100
AcDbEntity
  8
치수문자_일반주서
 62
     0
370
    -2
100
AcDbLine
 10
79.53967695569152
 20
8.000000000000185
 30
0.0
 11
79.53967695569158
 21
-7.999999999999808
 31
0.0
  0
LINE
  5
DC
330
D5
100
AcDbEntity
  8
치수문자_일반주서
 62
     0
370
    -2
100
AcDbLine
 10
79.5396769556915
 20
11.30200000000018
 30
0.0
 11
79.53967695569149
 21
14.60400000000018
 31
0.0
  0
LINE
  5
DD
330
D5
100
AcDbEntity
  8
치수문자_일반주서
 62
     0
370
    -2
100
AcDbLine
 10
79.53967695569159
 20
-11.30199999999981
 30
0.0
 11
79.5396769556916
 21
-14.60399999999981
 31
0.0
  0
SOLID
  5
DE
330
D5
100
AcDbEntity
  8
치수문자_일반주서
 62
     0
100
AcDbTrace
 10
78.98934362235818
 20
11.30200000000018
 30
0.0
 11
80.09001028902483
 21
11.30200000000019
 31
0.0
 12
79.53967695569152
 22
8.000000000000185
 32
0.0
 13
79.53967695569152
 23
8.000000000000185
 33
0.0
  0
SOLID
  5
DF
330
D5
100
AcDbEntity
  8
치수문자_일반주서
 62
     0
100
AcDbTrace
 10
80.09001028902492
 20
-11.30199999999981
 30
0.0
 11
78.98934362235826
 21
-11.30199999999981
 31
0.0
 12
79.53967695569158
 22
-7.999999999999808
 32
0.0
 13
79.53967695569158
 23
-7.999999999999808
 33
0.0
  0
MTEXT
  5
13D
330
D5
100
AcDbEntity
  8
치수문자_일반주서
 62
     0
100
AcDbMText
 10
75.16467695569148
 20
19.48611745088413
 30
0.0
 40
3.5
 41
0.0
 71
     2
 72
     1
  1
\A1;%%c16
  7
SLDTEXTSTYLE0
 11
-3.552713678800503E-15
 21
1.0
 31
0.0
 73
     1
 44
1.0
  0
POINT
  5
13E
330
D5
100
AcDbEntity
  8
Defpoints
 62
     0
100
AcDbPoint
 10
31.57282903303751
 20
8.000000000000005
 30
0.0
  0
POINT
  5
152
330
D5
100
AcDbEntity
  8
Defpoints
 62
     0
100
AcDbPoint
 10
31.5728290330374
 20
-7.999999999999988
 30
0.0
  0
POINT
  5
168
330
D5
100
AcDbEntity
  8
Defpoints
 62
     0
100
AcDbPoint
 10
79.53967695569158
 20
-7.999999999999809
 30
0.0
  0
ENDBLK
  5
D7
330
D5
100
AcDbEntity
  8
0
100
AcDbBlockEnd
  0
BLOCK
  5
E3
330
E2
100
AcDbEntity
  8
0
100
AcDbBlockBegin
  2
_D_1
 70
     0
 10
0.0
 20
0.0
 30
0.0
  3
_D_1
  1

  0
LINE
  5
E5
330
E2
100
AcDbEntity
  8
치수문자_일반주서
 62
     0
370
    -2
100
AcDbLine
 10
-95.91249999999997
 20
10.00000000000001
 30
0.0
 11
-105.8384684361648
 21
9.999999999999972
 31
0.0
  0
LINE
  5
E6
330
E2
100
AcDbEntity
  8
치수문자_일반주서
 62
     0
370
    -2
100
AcDbLine
 10
-95.91249999999997
 20
-10.00000000000001
 30
0.0
 11
-105.8384684361647
 21
-10.00000000000005
 31
0.0
  0
LINE
  5
E7
330
E2
100
AcDbEntity
  8
치수문자_일반주서
 62
     0
370
    -2
100
AcDbLine
 10
-105.8384684361648
 20
6.697999999999972
 30
0.0
 11
-105.8384684361647
 21
-6.698000000000047
 31
0.0
  0
SOLID
  5
E8
330
E2
100
AcDbEntity
  8
치수문자_일반주서
 62
     0
100
AcDbTrace
 10
-105.2881351028315
 20
6.697999999999974
 30
0.0
 11
-106.3888017694981
 21
6.69799999999997
 31
0.0
 12
-105.8384684361648
 22
9.999999999999972
 32
0.0
 13
-105.8384684361648
 23
9.999999999999972
 33
0.0
  0
SOLID
  5
E9
330
E2
100
AcDbEntity
  8
치수문자_일반주서
 62
     0
100
AcDbTrace
 10
-106.3888017694981
 20
-6.698000000000048
 30
0.0
 11
-105.2881351028314
 21
-6.698000000000045
 31
0.0
 12
-105.8384684361647
 22
-10.00000000000005
 32
0.0
 13
-105.8384684361647
 23
-10.00000000000005
 33
0.0
  0
MTEXT
  5
EA
330
E2
100
AcDbEntity
  8
치수문자_일반주서
 62
     0
100
AcDbMText
 10
-110.2134684361648
 20
-0.0000000000000056
 30
0.0
 40
3.5
 41
0.0
 71
     2
 72
     1
  1
\A1;%%c20
  7
SLDTEXTSTYLE0
 11
-3.552713678800498E-15
 21
1.0
 31
0.0
 73
     1
 44
1.0
  0
POINT
  5
EB
330
E2
100
AcDbEntity
  8
Defpoints
 62
     0
100
AcDbPoint
 10
-95.84999999999997
 20
10.00000000000001
 30
0.0
  0
POINT
  5
EC
330
E2
100
AcDbEntity
  8
Defpoints
 62
     0
100
AcDbPoint
 10
-95.84999999999997
 20
-10.00000000000001
 30
0.0
  0
POINT
  5
ED
330
E2
100
AcDbEntity
  8
Defpoints
 62
     0
100
AcDbPoint
 10
-105.8384684361647
 20
-10.00000000000005
 30
0.0
  0
ENDBLK
  5
E4
330
E2
100
AcDbEntity
  8
0
100
AcDbBlockEnd
  0
BLOCK
  5
F0
330
EF
100
AcDbEntity
  8
0
100
AcDbBlockBegin
  2
_D_2
 70
     0
 10
0.0
 20
0.0
 30
0.0
  3
_D_2
  1

  0
LINE
  5
F2
330
EF
100
AcDbEntity
  8
치수문자_일반주서
 62
     0
370
    -2
100
AcDbLine
 10
52.15
 20
7.522825928715028
 30
0.0
 11
52.15
 21
17.59636469275803
 31
0.0
  0
LINE
  5
F3
330
EF
100
AcDbEntity
  8
치수문자_일반주서
 62
     0
370
    -2
100
AcDbLine
 10
17.15000000000006
 20
7.936201683463059
 30
0.0
 11
17.15000000000006
 21
17.59636469275803
 31
0.0
  0
LINE
  5
F4
330
EF
100
AcDbEntity
  8
치수문자_일반주서
 62
     0
370
    -2
100
AcDbLine
 10
48.848
 20
17.59636469275803
 30
0.0
 11
20.45200000000006
 21
17.59636469275803
 31
0.0
  0
SOLID
  5
F5
330
EF
100
AcDbEntity
  8
치수문자_일반주서
 62
     0
100
AcDbTrace
 10
48.848
 20
17.0460313594247
 30
0.0
 11
48.848
 21
18.14669802609137
 31
0.0
 12
52.15
 22
17.59636469275803
 32
0.0
 13
52.15
 23
17.59636469275803
 33
0.0
  0
SOLID
  5
F6
330
EF
100
AcDbEntity
  8
치수문자_일반주서
 62
     0
100
AcDbTrace
 10
20.45200000000006
 20
18.14669802609137
 30
0.0
 11
20.45200000000006
 21
17.0460313594247
 31
0.0
 12
17.15000000000006
 22
17.59636469275803
 32
0.0
 13
17.15000000000006
 23
17.59636469275803
 33
0.0
  0
MTEXT
  5
F7
330
EF
100
AcDbEntity
  8
치수문자_일반주서
 62
     0
100
AcDbMText
 10
34.65000000000004
 20
21.97136469275803
 30
0.0
 40
3.5
 41
0.0
 71
     2
 72
     1
  1
\A1;35
  7
SLDTEXTSTYLE0
 73
     1
 44
1.0
  0
POINT
  5
13F
330
EF
100
AcDbEntity
  8
Defpoints
 62
     0
100
AcDbPoint
 10
52.15
 20
7.460325928715028
 30
0.0
  0
POINT
  5
140
330
EF
100
AcDbEntity
  8
Defpoints
 62
     0
100
AcDbPoint
 10
17.15000000000006
 20
7.873701683463059
 30
0.0
  0
POINT
  5
141
330
EF
100
AcDbEntity
  8
Defpoints
 62
     0
100
AcDbPoint
 10
17.15000000000006
 20
17.59636469275803
 30
0.0
  0
ENDBLK
  5
F1
330
EF
100
AcDbEntity
  8
0
100
AcDbBlockEnd
  0
BLOCK
  5
FA
330
F9
100
AcDbEntity
  8
0
100
AcDbBlockBegin
  2
_D_3
 70
     0
 10
0.0
 20
0.0
 30
0.0
  3
_D_3
  1

  0
LINE
  5
FC
330
F9
100
AcDbEntity
  8
치수문자_일반주서
 62
     0
370
    -2
100
AcDbLine
 10
52.15
 20
7.522825928715028
 30
0.0
 11
52.15
 21
23.59636469275801
 31
0.0
  0
LINE
  5
FD
330
F9
100
AcDbEntity
  8
치수문자_일반주서
 62
     0
370
    -2
100
AcDbLine
 10
2.150000000000006
 20
7.912499999999999
 30
0.0
 11
2.150000000000006
 21
23.59636469275801
 31
0.0
  0
LINE
  5
FE
330
F9
100
AcDbEntity
  8
치수문자_일반주서
 62
     0
370
    -2
100
AcDbLine
 10
48.848
 20
23.59636469275801
 30
0.0
 11
5.452000000000005
 21
23.59636469275801
 31
0.0
  0
SOLID
  5
FF
330
F9
100
AcDbEntity
  8
치수문자_일반주서
 62
     0
100
AcDbTrace
 10
48.848
 20
23.04603135942467
 30
0.0
 11
48.848
 21
24.14669802609134
 31
0.0
 12
52.15
 22
23.59636469275801
 32
0.0
 13
52.15
 23
23.59636469275801
 33
0.0
  0
SOLID
  5
100
330
F9
100
AcDbEntity
  8
치수문자_일반주서
 62
     0
100
AcDbTrace
 10
5.452000000000005
 20
24.14669802609134
 30
0.0
 11
5.452000000000005
 21
23.04603135942467
 31
0.0
 12
2.150000000000006
 22
23.59636469275801
 32
0.0
 13
2.150000000000006
 23
23.59636469275801
 33
0.0
  0
MTEXT
  5
101
330
F9
100
AcDbEntity
  8
치수문자_일반주서
 62
     0
100
AcDbMText
 10
27.15000000000001
 20
27.97136469275801
 30
0.0
 40
3.5
 41
0.0
 71
     2
 72
     1
  1
\A1;50
  7
SLDTEXTSTYLE0
 73
     1
 44
1.0
  0
POINT
  5
142
330
F9
100
AcDbEntity
  8
Defpoints
 62
     0
100
AcDbPoint
 10
52.15
 20
7.460325928715028
 30
0.0
  0
POINT
  5
143
330
F9
100
AcDbEntity
  8
Defpoints
 62
     0
100
AcDbPoint
 10
2.150000000000006
 20
7.849999999999999
 30
0.0
  0
POINT
  5
144
330
F9
100
AcDbEntity
  8
Defpoints
 62
     0
100
AcDbPoint
 10
2.150000000000006
 20
23.59636469275801
 30
0.0
  0
ENDBLK
  5
FB
330
F9
100
AcDbEntity
  8
0
100
AcDbBlockEnd
  0
BLOCK
  5
104
330
103
100
AcDbEntity
  8
0
100
AcDbBlockBegin
  2
_D_4
 70
     0
 10
0.0
 20
0.0
 30
0.0
  3
_D_4
  1

  0
LINE
  5
106
330
103
100
AcDbEntity
  8
치수문자_일반주서
 62
     0
370
    -2
100
AcDbLine
 10
52.15
 20
7.522825928715028
 30
0.0
 11
52.15000000000001
 21
32.00386199391992
 31
0.0
  0
LINE
  5
107
330
103
100
AcDbEntity
  8
치수문자_일반주서
 62
     0
370
    -2
100
AcDbLine
 10
-97.84999999999997
 20
8.062500000000021
 30
0.0
 11
-97.84999999999997
 21
32.00386199391992
 31
0.0
  0
LINE
  5
108
330
103
100
AcDbEntity
  8
치수문자_일반주서
 62
     0
370
    -2
100
AcDbLine
 10
48.84800000000001
 20
32.00386199391992
 30
0.0
 11
-94.54799999999997
 21
32.00386199391992
 31
0.0
  0
SOLID
  5
109
330
103
100
AcDbEntity
  8
치수문자_일반주서
 62
     0
100
AcDbTrace
 10
48.84800000000001
 20
31.45352866058658
 30
0.0
 11
48.84800000000001
 21
32.55419532725325
 31
0.0
 12
52.15000000000001
 22
32.00386199391992
 32
0.0
 13
52.15000000000001
 23
32.00386199391992
 33
0.0
  0
SOLID
  5
10A
330
103
100
AcDbEntity
  8
치수문자_일반주서
 62
     0
100
AcDbTrace
 10
-94.54799999999997
 20
32.55419532725325
 30
0.0
 11
-94.54799999999997
 21
31.45352866058658
 31
0.0
 12
-97.84999999999997
 22
32.00386199391992
 32
0.0
 13
-97.84999999999997
 23
32.00386199391992
 33
0.0
  0
MTEXT
  5
10B
330
103
100
AcDbEntity
  8
치수문자_일반주서
 62
     0
100
AcDbMText
 10
-22.84999999999999
 20
36.37886199391992
 30
0.0
 40
3.5
 41
0.0
 71
     2
 72
     1
  1
\A1;150
  7
SLDTEXTSTYLE0
 73
     1
 44
1.0
  0
POINT
  5
145
330
103
100
AcDbEntity
  8
Defpoints
 62
     0
100
AcDbPoint
 10
52.15
 20
7.460325928715028
 30
0.0
  0
POINT
  5
146
330
103
100
AcDbEntity
  8
Defpoints
 62
     0
100
AcDbPoint
 10
-97.84999999999997
 20
8.000000000000021
 30
0.0
  0
POINT
  5
147
330
103
100
AcDbEntity
  8
Defpoints
 62
     0
100
AcDbPoint
 10
-97.84999999999997
 20
32.00386199391992
 30
0.0
  0
ENDBLK
  5
105
330
103
100
AcDbEntity
  8
0
100
AcDbBlockEnd
  0
BLOCK
  5
114
330
113
100
AcDbEntity
  8
0
100
AcDbBlockBegin
  2
SW_DOWELSYMBOL_0
 70
     0
 10
0.0
 20
0.0
 30
0.0
  3
SW_DOWELSYMBOL_0
  1

  0
CIRCLE
  5
116
330
113
100
AcDbEntity
  8
해칭선
 62
     0
100
AcDbCircle
 10
0.0
 20
0.0
 30
0.0
 40
3.000000000000008
  0
HATCH
  5
117
330
113
100
AcDbEntity
  8
0
  6
Continuous
 62
     0
370
     0
100
AcDbHatch
 10
0.0
 20
0.0
 30
0.0
210
0.0
220
0.0
230
1.0
  2
SOLID
 70
     1
 71
     0
 91
        1
 92
        0
 93
        3
 72
     2
 10
0.0
 20
0.0
 40
3.000000000000008
 50
0.0
 51
90.0
 73
     1
 72
     1
 10
0.0
 20
3.000000000000008
 11
0.0
 21
0.0
 72
     1
 10
0.0
 20
0.0
 11
3.00000000000001
 21
0.0
 97
        0
 75
     0
 76
     1
 98
        1
 10
0.0
 20
0.0
  0
HATCH
  5
118
330
113
100
AcDbEntity
  8
0
  6
Continuous
 62
     0
370
     0
100
AcDbHatch
 10
0.0
 20
0.0
 30
0.0
210
0.0
220
0.0
230
1.0
  2
SOLID
 70
     1
 71
     0
 91
        1
 92
        0
 93
        3
 72
     2
 10
0.0
 20
0.0
 40
3.000000000000008
 50
180.0
 51
270.0000000000008
 73
     1
 72
     1
 10
0.0
 20
-3.000000000000008
 11
0.0
 21
0.0
 72
     1
 10
0.0
 20
0.0
 11
-3.00000000000001
 21
0.0
 97
        0
 75
     0
 76
     1
 98
        1
 10
0.0
 20
0.0
  0
ENDBLK
  5
115
330
113
100
AcDbEntity
  8
0
100
AcDbBlockEnd
  0
BLOCK
  5
159
330
158
100
AcDbEntity
  8
0
100
AcDbBlockBegin
  2
*D8
 70
     1
 10
0.0
 20
0.0
 30
0.0
  3
*D8
  1

  0
LINE
  5
15B
330
158
100
AcDbEntity
  8
0
 62
     0
370
    -2
100
AcDbLine
 10
76.56790708367363
 20
-15.55544429191791
 30
0.0
 11
61.62724041700697
 21
-15.55544429191791
 31
0.0
  0
LINE
  5
15C
330
158
100
AcDbEntity
  8
0
 62
     0
370
    -2
100
AcDbLine
 10
61.62724041700697
 20
-15.55544429191791
 30
0.0
 11
54.60243421339038
 21
-9.855808388596904
 31
0.0
  0
MTEXT
  5
15D
330
158
100
AcDbEntity
  8
0
 62
     0
100
AcDbMText
 10
69.8595737503403
 20
-11.98977762525125
 30
0.0
 40
3.5
 41
0.0
 71
     5
 72
     1
  1
R0,50
 73
     1
 44
1.0
  0
LINE
  5
15E
330
158
100
AcDbEntity
  8
0
 62
     0
370
    -2
100
AcDbLine
 10
51.64999999999999
 20
-7.460325928714992
 30
0.0
 11
52.03827383132435
 21
-7.775355184354382
 31
0.0
  0
SOLID
  5
15F
330
158
100
AcDbEntity
  8
0
 62
     0
100
AcDbTrace
 10
54.94917641409747
 20
-9.428448324919232
 30
0.0
 11
54.2556920126833
 21
-10.28316845227457
 31
0.0
 12
52.03827383132435
 22
-7.775355184354382
 32
0.0
 13
52.03827383132435
 23
-7.775355184354382
 33
0.0
  0
POINT
  5
160
330
158
100
AcDbEntity
  8
Defpoints
 62
     0
100
AcDbPoint
 10
52.03827383132435
 20
-7.775355184354382
 30
0.0
  0
POINT
  5
161
330
158
100
AcDbEntity
  8
Defpoints
 62
     0
100
AcDbPoint
 10
51.64999999999999
 20
-7.460325928714992
 30
0.0
  0
ENDBLK
  5
15A
330
158
100
AcDbEntity
  8
0
100
AcDbBlockEnd
  0
ENDSEC
  0
SECTION
  2
ENTITIES
  0
LINE
  5
96
330
1F
100
AcDbEntity
  8
외형선
  6
Continuous
 62
     1
370
    15
100
AcDbLine
 10
36.45168301228282
 20
8.000000000000007
 30
0.0
 11
31.57138382996141
 21
8.000000000000005
 31
0.0
  0
LINE
  5
97
330
1F
100
AcDbEntity
  8
외형선
  6
Continuous
 62
     1
370
    15
100
AcDbLine
 10
31.57138382996133
 20
-7.999999999999988
 30
0.0
 11
36.45168301228282
 21
-7.999999999999987
 31
0.0
  0
LINE
  5
98
330
1F
100
AcDbEntity
  8
외형선
  6
Continuous
370
    15
100
AcDbLine
 10
-95.84999999999997
 20
-9.999999999999998
 30
0.0
 11
0.0
 21
-9.999999999999998
 31
0.0
  0
LINE
  5
99
330
1F
100
AcDbEntity
  8
외형선
  6
Continuous
370
    15
100
AcDbLine
 10
0.0
 20
9.999999999999998
 30
0.0
 11
-95.84999999999997
 21
9.999999999999998
 31
0.0
  0
LINE
  5
9A
330
1F
100
AcDbEntity
  8
외형선
  6
Continuous
370
    15
100
AcDbLine
 10
0.0
 20
-10.0
 30
0.0
 11
2.150000000000013
 21
-7.85
 31
0.0
  0
LINE
  5
9B
330
1F
100
AcDbEntity
  8
외형선
  6
Continuous
370
    15
100
AcDbLine
 10
2.150000000000013
 20
7.849999999999999
 30
0.0
 11
0.0
 21
10.0
 31
0.0
  0
LINE
  5
9C
330
1F
100
AcDbEntity
  8
외형선
  6
Continuous
370
    15
100
AcDbLine
 10
-95.84999999999997
 20
9.999999999999998
 30
0.0
 11
-97.84999999999997
 21
8.000000000000021
 31
0.0
  0
LINE
  5
9D
330
1F
100
AcDbEntity
  8
외형선
  6
Continuous
370
    15
100
AcDbLine
 10
-97.84999999999997
 20
-8.000000000000021
 30
0.0
 11
-95.84999999999997
 21
-9.999999999999998
 31
0.0
  0
LINE
  5
9E
330
1F
100
AcDbEntity
  8
외형선
  6
Continuous
370
    15
100
AcDbLine
 10
2.150000000000013
 20
-7.85
 30
0.0
 11
16.15037125161334
 21
-7.85
 31
0.0
  0
LINE
  5
9F
330
1F
100
AcDbEntity
  8
외형선
  6
Continuous
370
    15
100
AcDbLine
 10
16.15037125161334
 20
7.849999999999999
 30
0.0
 11
2.150000000000013
 21
7.849999999999999
 31
0.0
  0
SPLINE
  5
A1
330
1F
100
AcDbEntity
  8
외형선
  6
Continuous
 62
     1
370
    15
100
AcDbSpline
210
0.0
220
0.0
230
1.0
 70
     8
 71
     3
 72
    17
 73
    13
 74
     0
 42
0.000000001
 43
0.00000001
 40
0.0
 40
0.0
 40
0.0
 40
0.0
 40
0.0546752067182141
 40
0.1541809772536658
 40
0.2536870005917524
 40
0.3531932627142022
 40
0.4526997495936012
 40
0.562161892292277
 40
0.6716303547263779
 40
0.781097767687703
 40
0.8905567646016428
 40
1.0
 40
1.0
 40
1.0
 40
1.0
 10
44.88701388044461
 20
-6.530505522483087
 30
0.0
 10
44.38153600565722
 20
-6.702380522166414
 30
0.0
 10
42.95611711119395
 20
-7.187058258333451
 30
0.0
 10
40.61075114157925
 20
-7.685210388781347
 30
0.0
 10
37.85092545203073
 20
-8.01414356882699
 30
0.0
 10
35.09105587082703
 20
-8.013705683864044
 30
0.0
 10
32.23927677255569
 20
-7.68933769638172
 30
0.0
 10
29.29483913106449
 20
-7.012301263280017
 30
0.0
 10
26.25840372298146
 20
-5.979435742435069
 30
0.0
 10
23.22196766571438
 20
-4.659300808868034
 30
0.0
 10
20.18581248912918
 20
-3.121335791047098
 30
0.0
 10
18.1618889204997
 20
-1.984362841937402
 30
0.0
 10
17.14999999999851
 20
-1.415917299849677
 30
0.0
  0
SPLINE
  5
A2
330
1F
100
AcDbEntity
  8
외형선
  6
Continuous
370
    15
100
AcDbSpline
210
0.0
220
0.0
230
1.0
 70
    24
 71
     3
 72
    21
 73
    17
 74
     0
 42
0.000000001
 43
0.00000001
 40
0.0
 40
0.0
 40
0.0
 40
0.0
 40
0.0446294338169871
 40
0.1164611281266553
 40
0.1903759464375286
 40
0.2622076407471923
 40
0.3361224590580613
 40
0.4079541533677252
 40
0.4818689716785939
 40
0.5537006659882582
 40
0.6276154842991273
 40
0.6994471786087929
 40
0.7733619969196575
 40
0.8451936912293209
 40
0.9191085095401897
 40
1.0
 40
1.0
 40
1.0
 40
1.0
 10
17.15000000000003
 20
-1.42016302392869
 30
0.0
 10
17.15000000000003
 20
-1.405994795088318
 30
0.0
 10
17.15000000000006
 20
-1.369022604917304
 30
0.0
 10
17.14999999999997
 20
-1.161590582738739
 30
0.0
 10
17.15
 20
-0.8172173299016906
 30
0.0
 10
17.15000000000006
 20
-0.3454825356832917
 30
0.0
 10
17.15000000000011
 20
0.2248513841095447
 30
0.0
 10
17.14999999999986
 20
0.8897629068166483
 30
0.0
 10
17.15000000000014
 20
1.6179713501484
 30
0.0
 10
17.14999999999997
 20
2.402091427280787
 30
0.0
 10
17.15000000000014
 20
3.205829484104434
 30
0.0
 10
17.15
 20
4.020727170348903
 30
0.0
 10
17.15000000000006
 20
4.809735142490114
 30
0.0
 10
17.14999999999988
 20
5.562158315326873
 30
0.0
 10
17.15000000000025
 20
6.281460661186945
 30
0.0
 10
17.1499999999993
 20
6.689456416554422
 30
0.0
 10
17.1499999999988
 20
6.902647887981083
 30
0.0
  0
SPLINE
  5
A3
330
1F
100
AcDbEntity
  8
외형선
  6
Continuous
 62
     1
370
    15
100
AcDbSpline
210
0.0
220
0.0
230
1.0
 70
     8
 71
     3
 72
    56
 73
    52
 74
     0
 42
0.000000001
 43
0.00000001
 40
0.0
 40
0.0
 40
0.0
 40
0.0
 40
0.0625000000000002
 40
0.0625000000000002
 40
0.1250000000000004
 40
0.1250000000000004
 40
0.1562499999999996
 40
0.1562499999999996
 40
0.1874999999999988
 40
0.1874999999999988
 40
0.2499999999999954
 40
0.2499999999999954
 40
0.2812499999999937
 40
0.2812499999999937
 40
0.312499999999992
 40
0.312499999999992
 40
0.3749999999999903
 40
0.3749999999999903
 40
0.4374999999999886
 40
0.4374999999999886
 40
0.4687499999999887
 40
0.4687499999999887
 40
0.4999999999999888
 40
0.4999999999999888
 40
0.5312499999999889
 40
0.5312499999999889
 40
0.562499999999989
 40
0.562499999999989
 40
0.5937499999999891
 40
0.5937499999999891
 40
0.6249999999999892
 40
0.6249999999999892
 40
0.6874999999999893
 40
0.6874999999999893
 40
0.7187499999999903
 40
0.7187499999999903
 40
0.7499999999999922
 40
0.7499999999999922
 40
0.7812499999999932
 40
0.7812499999999932
 40
0.8124999999999942
 40
0.8124999999999942
 40
0.8437499999999952
 40
0.8437499999999952
 40
0.8749999999999962
 40
0.8749999999999962
 40
0.9062499999999972
 40
0.9062499999999972
 40
0.9374999999999982
 40
0.9374999999999982
 40
1.0
 40
1.0
 40
1.0
 40
1.0
 10
51.64999999999998
 20
-7.960325928714992
 30
0.0
 10
50.93164183362948
 20
-7.890144153433978
 30
0.0
 10
50.20807940261444
 20
-7.807336059799062
 30
0.0
 10
48.77665772953032
 20
-7.580246342797737
 30
0.0
 10
48.05422129908957
 20
-7.435225843290978
 30
0.0
 10
46.97583381594576
 20
-7.173925111275739
 30
0.0
 10
46.61876357409464
 20
-7.079707395929058
 30
0.0
 10
45.90065960754689
 20
-6.876857956540988
 30
0.0
 10
45.54022776341576
 20
-6.768256640509654
 30
0.0
 10
44.45969397610516
 20
-6.422336233382655
 30
0.0
 10
43.74521417644203
 20
-6.165502159582469
 30
0.0
 10
42.66522680497476
 20
-5.743567493218558
 30
0.0
 10
42.30462868471529
 20
-5.596892058875818
 30
0.0
 10
41.58550034808622
 20
-5.292825082368432
 30
0.0
 10
41.22832216367328
 20
-5.135644012588259
 30
0.0
 10
40.1515693934159
 20
-4.648306266123158
 30
0.0
 10
39.42790875884669
 20
-4.302371075191193
 30
0.0
 10
37.99505995441377
 20
-3.580973126893977
 30
0.0
 10
37.27416369966591
 20
-3.203593738213784
 30
0.0
 10
36.19518815725839
 20
-2.620821559822216
 30
0.0
 10
35.83785382371061
 20
-2.424146458995067
 30
0.0
 10
35.12030199820762
 20
-2.025787716935901
 30
0.0
 10
34.75999229281143
 20
-1.824079135369859
 30
0.0
 10
34.03956916895057
 20
-1.417417388783016
 30
0.0
 10
33.67945905029915
 20
-1.212466090153485
 30
0.0
 10
32.96269956228199
 20
-0.8011938389678475
 30
0.0
 10
32.60474525251578
 20
-0.5946254600537156
 30
0.0
 10
31.88501173817343
 20
-0.1799714667928645
 30
0.0
 10
31.52438725732387
 20
0.0278923636499525
 30
0.0
 10
30.80489620648012
 20
0.4428068622669574
 30
0.0
 10
30.44735752782108
 20
0.649602218838744
 30
0.0
 10
29.37147664514587
 20
1.268029144829823
 30
0.0
 10
28.64777766369314
 20
1.678067718078924
 30
0.0
 10
27.57215754590981
 20
2.278655830144881
 30
0.0
 10
27.21448284101236
 20
2.476600616190911
 30
0.0
 10
26.49490041079644
 20
2.867869432806882
 30
0.0
 10
26.13427384988668
 20
3.060952737673125
 30
0.0
 10
25.41462345739284
 20
3.440263950692215
 30
0.0
 10
25.05683225151198
 20
3.626283281885169
 30
0.0
 10
24.33989076227943
 20
3.990888042969061
 30
0.0
 10
23.97973271039763
 20
4.169634326788455
 30
0.0
 10
23.25930129771695
 20
4.518354423586311
 30
0.0
 10
22.89903123699639
 20
4.688326633683064
 30
0.0
 10
22.18164508500606
 20
5.017993312447314
 30
0.0
 10
21.82420181209577
 20
5.177753808215669
 30
0.0
 10
21.10478515315322
 20
5.487176355666833
 30
0.0
 10
20.74416391269867
 20
5.636626875876296
 30
0.0
 10
20.02436887033202
 20
5.923643966347814
 30
0.0
 10
19.66627697225176
 20
6.06107921492944
 30
0.0
 10
18.59135514868462
 20
6.454771516905701
 30
0.0
 10
17.86767768765215
 20
6.69299721962861
 30
0.0
 10
17.14999999999869
 20
6.902647887981004
 30
0.0
  0
SPLINE
  5
A4
330
1F
100
AcDbEntity
  8
외형선
  6
Continuous
 62
     1
370
    15
100
AcDbSpline
210
0.0
220
0.0
230
1.0
 70
     8
 71
     3
 72
    14
 73
    10
 74
     0
 42
0.000000001
 43
0.00000001
 40
0.0
 40
0.0
 40
0.0
 40
0.0
 40
0.25
 40
0.25
 40
0.5
 40
0.5
 40
0.75
 40
0.75
 40
1.0
 40
1.0
 40
1.0
 40
1.0
 10
51.65000000000003
 20
0.9730315383041896
 30
0.0
 10
51.70970691449039
 20
0.9388047761069386
 30
0.0
 10
51.76981143541628
 20
0.906344728255891
 30
0.0
 10
51.88784912018884
 20
0.8476707219667788
 30
0.0
 10
51.94376979206053
 20
0.8225258202791201
 30
0.0
 10
52.04137659788876
 20
0.784212703932068
 30
0.0
 10
52.08173343870414
 20
0.7716341228519201
 30
0.0
 10
52.13595738272104
 20
0.7609693933041
 30
0.0
 10
52.15000000000003
 20
0.762743828031033
 30
0.0
 10
52.15000000000006
 20
0.7704135495579475
 30
0.0
  0
LINE
  5
A5
330
1F
100
AcDbEntity
  8
외형선
  6
Continuous
 62
     1
370
    15
100
AcDbLine
 10
52.15
 20
-6.846038549557868
 30
0.0
 11
52.15
 21
0.770413549557947
 31
0.0
  0
SPLINE
  5
A6
330
1F
100
AcDbEntity
  8
외형선
  6
Continuous
 62
     1
370
    15
100
AcDbSpline
210
0.0
220
0.0
230
1.0
 70
     8
 71
     3
 72
    10
 73
     6
 74
     0
 42
0.000000001
 43
0.00000001
 40
0.0
 40
0.0
 40
0.0
 40
0.0
 40
0.5
 40
0.5
 40
1.0
 40
1.0
 40
1.0
 40
1.0
 10
52.15
 20
-6.846038549557872
 30
0.0
 10
52.15000000000003
 20
-6.967325153968846
 30
0.0
 10
52.08546787589885
 20
-7.055865648766036
 30
0.0
 10
51.9010236006044
 20
-7.146536130801292
 30
0.0
 10
51.77999488627049
 20
-7.152421229735476
 30
0.0
 10
51.64999999999981
 20
-7.118155557684818
 30
0.0
  0
SPLINE
  5
A7
330
1F
100
AcDbEntity
  8
외형선
  6
Continuous
 62
     1
370
    15
100
AcDbSpline
210
0.0
220
0.0
230
1.0
 70
     8
 71
     3
 72
    56
 73
    52
 74
     0
 42
0.000000001
 43
0.00000001
 40
0.0
 40
0.0
 40
0.0
 40
0.0
 40
0.0624999999999977
 40
0.0624999999999977
 40
0.1249999999999954
 40
0.1249999999999954
 40
0.1562499999999942
 40
0.1562499999999942
 40
0.1874999999999931
 40
0.1874999999999931
 40
0.2499999999999908
 40
0.2499999999999908
 40
0.2812499999999906
 40
0.2812499999999906
 40
0.3124999999999903
 40
0.3124999999999903
 40
0.3749999999999899
 40
0.3749999999999899
 40
0.4374999999999894
 40
0.4374999999999894
 40
0.4687499999999901
 40
0.4687499999999901
 40
0.4999999999999908
 40
0.4999999999999908
 40
0.5312499999999915
 40
0.5312499999999915
 40
0.562499999999992
 40
0.562499999999992
 40
0.5937499999999927
 40
0.5937499999999927
 40
0.6249999999999932
 40
0.6249999999999932
 40
0.6874999999999928
 40
0.6874999999999928
 40
0.7187499999999933
 40
0.7187499999999933
 40
0.749999999999994
 40
0.749999999999994
 40
0.7812499999999947
 40
0.7812499999999947
 40
0.8124999999999952
 40
0.8124999999999952
 40
0.8437499999999959
 40
0.8437499999999959
 40
0.8749999999999964
 40
0.8749999999999964
 40
0.9062499999999971
 40
0.9062499999999971
 40
0.9374999999999978
 40
0.9374999999999978
 40
1.0
 40
1.0
 40
1.0
 40
1.0
 10
51.65000000000008
 20
-7.118155557684904
 30
0.0
 10
50.93164183362952
 20
-6.928801760394173
 30
0.0
 10
50.20807940261447
 20
-6.710107615749859
 30
0.0
 10
48.77665772953029
 20
-6.222134021534444
 30
0.0
 10
48.05422129908968
 20
-5.951231540940856
 30
0.0
 10
46.97583381594584
 20
-5.511150167996167
 30
0.0
 10
46.61876357409461
 20
-5.359085248642776
 30
0.0
 10
45.90065960754696
 20
-5.04391017905257
 30
0.0
 10
45.54022776341574
 20
-4.8808684141283
 30
0.0
 10
44.45969397610531
 20
-4.377552196545865
 30
0.0
 10
43.74521417644208
 20
-4.023901528039317
 30
0.0
 10
42.66522680497479
 20
-3.469897141199285
 30
0.0
 10
42.30462868471532
 20
-3.281429482750989
 30
0.0
 10
41.58550034808631
 20
-2.898613862890904
 30
0.0
 10
41.22832216367325
 20
-2.704517346795628
 30
0.0
 10
40.15156939341593
 20
-2.113707485523483
 30
0.0
 10
39.42790875884661
 20
-1.708608184214325
 30
0.0
 10
37.9950599544138
 20
-0.8906121990651831
 30
0.0
 10
37.27416369966594
 20
-0.475514580211012
 30
0.0
 10
36.19518815725848
 20
0.1470586907943287
 30
0.0
 10
35.83785382371055
 20
0.3541967197010119
 30
0.0
 10
35.12030199820762
 20
0.7678967095484123
 30
0.0
 10
34.75999229281138
 20
0.9744749032539326
 30
0.0
 10
34.03956916895051
 20
1.385207200937342
 30
0.0
 10
33.67945905029909
 20
1.589359426171423
 30
0.0
 10
32.96269956228193
 20
1.993400831821403
 30
0.0
 10
32.60474525251578
 20
2.193539967753662
 30
0.0
 10
31.88501173817335
 20
2.58969555557485
 30
0.0
 10
31.52438725732382
 20
2.785493264378495
 30
0.0
 10
30.80489620648003
 20
3.170753082575342
 30
0.0
 10
30.44735752782105
 20
3.359986622885238
 30
0.0
 10
29.37147664514575
 20
3.91754843368111
 30
0.0
 10
28.647777663693
 20
4.275983183157384
 30
0.0
 10
27.57215754590975
 20
4.784026055498664
 30
0.0
 10
27.21448284101222
 20
4.948595742327778
 30
0.0
 10
26.49490041079627
 20
5.268060658261999
 30
0.0
 10
26.1342738498865
 20
5.422750901218149
 30
0.0
 10
25.41462345739273
 20
5.720641809597978
 30
0.0
 10
25.05683225151181
 20
5.863686868425069
 30
0.0
 10
24.33989076227925
 20
6.13787547005777
 30
0.0
 10
23.97973271039746
 20
6.269131480784799
 30
0.0
 10
23.25930129771678
 20
6.51871640395902
 30
0.0
 10
22.89903123699619
 20
6.637044165054067
 30
0.0
 10
22.18164508500589
 20
6.859753381267542
 30
0.0
 10
21.82420181209554
 20
6.964190578810247
 30
0.0
 10
21.10478515315307
 20
7.159240661286915
 30
0.0
 10
20.74416391269846
 20
7.249708306256365
 30
0.0
 10
20.02436887033185
 20
7.415700002404447
 30
0.0
 10
19.66627697225154
 20
7.491157218613299
 30
0.0
 10
18.59135514868446
 20
7.694752565517041
 30
0.0
 10
17.86767768765191
 20
7.800296045524258
 30
0.0
 10
17.14999999999848
 20
7.87370168345148
 30
0.0
  0
SPLINE
  5
A8
330
1F
100
AcDbEntity
  8
외형선
  6
Continuous
 62
     1
370
    15
100
AcDbSpline
210
0.0
220
0.0
230
1.0
 70
     8
 71
     3
 72
    17
 73
    13
 74
     0
 42
0.000000001
 43
0.00000001
 40
0.0
 40
0.0
 40
0.0
 40
0.0
 40
0.0799099745598963
 40
0.1767582657851093
 40
0.273606848703721
 40
0.3704557097053039
 40
0.4673048351687966
 40
0.5738399453945887
 40
0.6803841858873996
 40
0.7869303884124468
 40
0.8934713798114677
 40
1.0
 40
1.0
 40
1.0
 40
1.0
 10
23.15219896729482
 20
6.548527676334888
 30
0.0
 10
23.91123777215915
 20
6.789414962524254
 30
0.0
 10
25.59020693152053
 20
7.322249808124146
 30
0.0
 10
28.18911341696941
 20
7.809528826307973
 30
0.0
 10
30.94890971149228
 20
8.046180681527293
 30
0.0
 10
33.70874865995082
 20
7.957187241936565
 30
0.0
 10
36.56047176237856
 20
7.542251184126243
 30
0.0
 10
39.5048029293692
 20
6.778496795334602
 30
0.0
 10
42.54118416479569
 20
5.667186147342095
 30
0.0
 10
45.57766382222706
 20
4.283957394218793
 30
0.0
 10
48.6139644372845
 20
2.699295260996931
 30
0.0
 10
50.6380273193564
 20
1.54843050543246
 30
0.0
 10
51.65
 20
0.9730315383042111
 30
0.0
  0
LINE
  5
A9
330
1F
100
AcDbEntity
  8
외형선
  6
Continuous
370
    15
100
AcDbLine
 10
17.15000000000006
 20
7.873701683463059
 30
0.0
 11
17.14999999999878
 21
6.902647887981082
 31
0.0
  0
SPLINE
  5
AA
330
1F
100
AcDbEntity
  8
외형선
  6
Continuous
 62
     1
370
    15
100
AcDbSpline
210
0.0
220
0.0
230
1.0
 70
     8
 71
     3
 72
    10
 73
     6
 74
     0
 42
0.000000001
 43
0.00000001
 40
0.0
 40
0.0
 40
0.0
 40
0.0
 40
0.5
 40
0.5
 40
1.0
 40
1.0
 40
1.0
 40
1.0
 10
52.15
 20
3.062965259020621
 30
0.0
 10
52.14999999999997
 20
3.152270588799984
 30
0.0
 10
52.08546787589876
 20
3.270282712512901
 30
0.0
 10
51.90102360060437
 20
3.48505951716939
 30
0.0
 10
51.77999488627052
 20
3.584481416996547
 30
0.0
 10
51.64999999999981
 20
3.651282166116452
 30
0.0
  0
LINE
  5
AB
330
1F
100
AcDbEntity
  8
외형선
  6
Continuous
 62
     1
370
    15
100
AcDbLine
 10
52.15
 20
3.062965259020627
 30
0.0
 11
52.15
 21
0.7704135495579472
 31
0.0
  0
SPLINE
  5
AC
330
1F
100
AcDbEntity
  8
외형선
  6
Continuous
 62
     1
370
    15
100
AcDbSpline
210
0.0
220
0.0
230
1.0
 70
     8
 71
     3
 72
    13
 73
     9
 74
     0
 42
0.000000001
 43
0.00000001
 40
0.0
 40
0.0
 40
0.0
 40
0.0
 40
0.1815859302339971
 40
0.3631723984417023
 40
0.5447593790971464
 40
0.7263468466547677
 40
0.9079347755503597
 40
1.0
 40
1.0
 40
1.0
 40
1.0
 10
51.65000000000008
 20
3.651282166116305
 30
0.0
 10
50.73006777623629
 20
4.109934034796798
 30
0.0
 10
48.89020060328092
 20
5.027239130978077
 30
0.0
 10
46.13039378791046
 20
6.164653713839149
 30
0.0
 10
43.370577768333
 20
7.073050489086493
 30
0.0
 10
40.61075276997625
 20
7.682671015683536
 30
0.0
 10
38.30445369493426
 20
7.98986781586492
 30
0.0
 10
36.91809585645142
 20
7.967796254251668
 30
0.0
 10
36.45168301228282
 20
7.960370711190903
 30
0.0
  0
SPLINE
  5
AD
330
1F
100
AcDbEntity
  8
외형선
  6
Continuous
 62
     1
370
    15
100
AcDbSpline
210
0.0
220
0.0
230
1.0
 70
     8
 71
     3
 72
    13
 73
     9
 74
     0
 42
0.000000001
 43
0.00000001
 40
0.0
 40
0.0
 40
0.0
 40
0.0
 40
0.1913661441470361
 40
0.3827329452121176
 40
0.574100376370811
 40
0.7654684107746116
 40
0.9568370215519455
 40
1.0
 40
1.0
 40
1.0
 40
1.0
 10
17.14999999999872
 20
-4.04394017445251
 30
0.0
 10
18.0699201206703
 20
-4.486816220043221
 30
0.0
 10
19.9097635198977
 20
-5.372569831521077
 30
0.0
 10
22.66953565612619
 20
-6.444176485765274
 30
0.0
 10
25.42931851865368
 20
-7.279505799479302
 30
0.0
 10
28.18911198740401
 20
-7.79756585652258
 30
0.0
 10
30.23646810993421
 20
-8.026830740339868
 30
0.0
 10
31.36389349647647
 20
-7.980797993308361
 30
0.0
 10
31.57138382996136
 20
-7.972326168789592
 30
0.0
  0
LINE
  5
AE
330
1F
100
AcDbEntity
  8
외형선
  6
Continuous
370
    15
100
AcDbLine
 10
17.15000000000006
 20
-1.415917299849045
 30
0.0
 11
17.14999999999878
 21
-4.043940174452406
 31
0.0
  0
SPLINE
  5
B0
330
1F
100
AcDbEntity
  8
외형선
  6
Continuous
 62
     1
370
    15
100
AcDbSpline
210
0.0
220
0.0
230
1.0
 70
     8
 71
     3
 72
    10
 73
     6
 74
     0
 42
0.000000001
 43
0.00000001
 40
0.0
 40
0.0
 40
0.0
 40
0.0
 40
0.102126644747252
 40
0.5510893884564051
 40
1.0
 40
1.0
 40
1.0
 40
1.0
 10
44.88701388044463
 20
6.530505522483081
 30
0.0
 10
45.11724542091556
 20
6.614667648192453
 30
0.0
 10
46.35960640472627
 20
7.068818026902667
 30
0.0
 10
48.61396434643579
 20
7.6028689178005
 30
0.0
 10
50.63802728907465
 20
7.828030741758512
 30
0.0
 10
51.65
 20
7.960325928715028
 30
0.0
  0
LINE
  5
B1
330
1F
100
AcDbEntity
  8
외형선
  6
Continuous
 62
     1
370
    15
100
AcDbLine
 10
52.15
 20
3.062965259020627
 30
0.0
 11
52.15
 21
7.460325928715028
 31
0.0
  0
SPLINE
  5
B2
330
1F
100
AcDbEntity
  8
외형선
  6
Continuous
 62
     1
370
    15
100
AcDbSpline
210
0.0
220
0.0
230
1.0
 70
     8
 71
     3
 72
     9
 73
     5
 74
     0
 42
0.000000001
 43
0.00000001
 40
0.0
 40
0.0
 40
0.0
 40
0.0
 40
0.4942303967586388
 40
1.0
 40
1.0
 40
1.0
 40
1.0
 10
23.15219896729473
 20
-6.548527676334884
 30
0.0
 10
22.16335448505772
 20
-6.853323205407133
 30
0.0
 10
20.16257814931979
 20
-7.470030577254795
 30
0.0
 10
18.16188817468068
 20
-7.738113493344826
 30
0.0
 10
17.14999999999851
 20
-7.873701683451467
 30
0.0
  0
SPLINE
  5
B3
330
1F
100
AcDbEntity
  8
외형선
  6
Continuous
370
    15
100
AcDbSpline
210
0.0
220
0.0
230
1.0
 70
    24
 71
     3
 72
    13
 73
     9
 74
     0
 42
0.000000001
 43
0.00000001
 40
0.0
 40
0.0
 40
0.0
 40
0.0
 40
0.1896220037829355
 40
0.3842038766797299
 40
0.5833815825529682
 40
0.7883354553897867
 40
0.9875131612630126
 40
1.0
 40
1.0
 40
1.0
 40
1.0
 10
17.15000000000006
 20
-7.873701683463048
 30
0.0
 10
17.15000000000003
 20
-7.620994913519324
 30
0.0
 10
17.15000000000003
 20
-7.108971420788316
 30
0.0
 10
17.15000000000003
 20
-6.33187471064942
 30
0.0
 10
17.14999999999994
 20
-5.558098957303718
 30
0.0
 10
17.14999999999997
 20
-4.836654456005376
 30
0.0
 10
17.15000000000014
 20
-4.359161577929797
 30
0.0
 10
17.15000000000006
 20
-4.159885289795832
 30
0.0
 10
17.15000000000006
 20
-4.148129278043289
 30
0.0
  0
LINE
  5
B4
330
1F
100
AcDbEntity
  8
외형선
  6
Continuous
 62
     1
370
    15
100
AcDbLine
 10
52.15
 20
-6.846038549557868
 30
0.0
 11
52.15
 21
-7.460325928715029
 31
0.0
  0
LINE
  5
B5
330
1F
100
AcDbEntity
  8
외형선
  6
Continuous
370
    15
100
AcDbLine
 10
0.0
 20
0.0
 30
0.0
 11
0.0
 21
9.999999999999998
 31
0.0
  0
LINE
  5
B6
330
1F
100
AcDbEntity
  8
외형선
  6
Continuous
370
    15
100
AcDbLine
 10
0.0
 20
-9.999999999999998
 30
0.0
 11
0.0
 21
0.0
 31
0.0
  0
LINE
  5
B7
330
1F
100
AcDbEntity
  8
외형선
  6
Continuous
370
    15
100
AcDbLine
 10
-95.84999999999997
 20
0.0
 30
0.0
 11
-95.84999999999997
 21
9.999999999999998
 31
0.0
  0
LINE
  5
B8
330
1F
100
AcDbEntity
  8
외형선
  6
Continuous
370
    15
100
AcDbLine
 10
-95.84999999999997
 20
-9.999999999999998
 30
0.0
 11
-95.84999999999997
 21
0.0
 31
0.0
  0
LINE
  5
B9
330
1F
100
AcDbEntity
  8
외형선
  6
Continuous
370
    15
100
AcDbLine
 10
2.150000000000013
 20
0.0
 30
0.0
 11
2.150000000000013
 21
7.849999999999999
 31
0.0
  0
LINE
  5
BA
330
1F
100
AcDbEntity
  8
외형선
  6
Continuous
370
    15
100
AcDbLine
 10
2.150000000000013
 20
-7.85
 30
0.0
 11
2.150000000000013
 21
0.0
 31
0.0
  0
LINE
  5
BB
330
1F
100
AcDbEntity
  8
외형선
  6
Continuous
370
    15
100
AcDbLine
 10
-97.84999999999997
 20
0.0
 30
0.0
 11
-97.84999999999997
 21
8.000000000000021
 31
0.0
  0
LINE
  5
BC
330
1F
100
AcDbEntity
  8
외형선
  6
Continuous
370
    15
100
AcDbLine
 10
-97.84999999999997
 20
-8.000000000000021
 30
0.0
 11
-97.84999999999997
 21
0.0
 31
0.0
  0
LINE
  5
BD
330
1F
100
AcDbEntity
  8
외형선
  6
Continuous
370
    15
100
AcDbLine
 10
17.15000000000006
 20
6.795626304603393
 30
0.0
 11
17.15000000000003
 21
6.902647887981082
 31
0.0
  0
SPLINE
  5
BE
330
1F
100
AcDbEntity
  8
외형선
  6
Continuous
370
    15
100
AcDbSpline
210
0.0
220
0.0
230
1.0
 70
     8
 71
     3
 72
     8
 73
     4
 74
     0
 42
0.000000001
 43
0.00000001
 40
0.0
 40
0.0
 40
0.0
 40
0.0
 40
1.0
 40
1.0
 40
1.0
 40
1.0
 10
17.15
 20
6.795626304603365
 30
0.0
 10
16.81647404443482
 20
6.890302975279083
 30
0.0
 10
16.4844842071008
 20
6.978929355424453
 30
0.0
 10
16.15037125161334
 20
7.061587346430448
 30
0.0
  0
SPLINE
  5
BF
330
1F
100
AcDbEntity
  8
외형선
  6
Continuous
370
    15
100
AcDbSpline
210
0.0
220
0.0
230
1.0
 70
     8
 71
     3
 72
     8
 73
     4
 74
     0
 42
0.000000001
 43
0.00000001
 40
0.0
 40
0.0
 40
0.0
 40
0.0
 40
1.0
 40
1.0
 40
1.0
 40
1.0
 10
17.15000000000003
 20
-1.433178319115049
 30
0.0
 10
16.81647404443485
 20
-1.247226661685247
 30
0.0
 10
16.4844842071008
 20
-1.060314573487776
 30
0.0
 10
16.15037125161337
 20
-0.8722451851245422
 30
0.0
  0
SPLINE
  5
C0
330
1F
100
AcDbEntity
  8
외형선
  6
Continuous
370
    15
100
AcDbSpline
210
0.0
220
0.0
230
1.0
 70
     8
 71
     3
 72
     8
 73
     4
 74
     0
 42
0.000000001
 43
0.00000001
 40
0.0
 40
0.0
 40
0.0
 40
0.0
 40
1.0
 40
1.0
 40
1.0
 40
1.0
 10
17.15
 20
-3.929626334421919
 30
0.0
 10
16.81647404443482
 20
-3.765898992704881
 30
0.0
 10
16.4844842071008
 20
-3.599007821134875
 30
0.0
 10
16.15037125161334
 20
-3.42877298005173
 30
0.0
  0
LINE
  5
C1
330
1F
100
AcDbEntity
  8
외형선
  6
Continuous
370
    15
100
AcDbLine
 10
16.15037125161334
 20
-7.85
 30
0.0
 11
16.15037125161334
 21
-3.428729578226842
 31
0.0
  0
SPLINE
  5
C2
330
1F
100
AcDbEntity
  8
외형선
  6
Continuous
370
    15
100
AcDbSpline
210
0.0
220
0.0
230
1.0
 70
     8
 71
     3
 72
     8
 73
     4
 74
     0
 42
0.000000001
 43
0.00000001
 40
0.0
 40
0.0
 40
0.0
 40
0.0
 40
1.0
 40
1.0
 40
1.0
 40
1.0
 10
17.15000000000003
 20
-7.718063222442444
 30
0.0
 10
16.81647404443485
 20
-7.752592854573075
 30
0.0
 10
16.4844842071008
 20
-7.780362796801011
 30
0.0
 10
16.15037125161337
 20
-7.801390154134524
 30
0.0
  0
LINE
  5
C3
330
1F
100
AcDbEntity
  8
외형선
  6
Continuous
370
    15
100
AcDbLine
 10
16.15037125161334
 20
7.801389559606356
 30
0.0
 11
16.15037125161334
 21
7.849999999999999
 31
0.0
  0
SPLINE
  5
C4
330
1F
100
AcDbEntity
  8
외형선
  6
Continuous
370
    15
100
AcDbSpline
210
0.0
220
0.0
230
1.0
 70
     8
 71
     3
 72
     8
 73
     4
 74
     0
 42
0.000000001
 43
0.00000001
 40
0.0
 40
0.0
 40
0.0
 40
0.0
 40
1.0
 40
1.0
 40
1.0
 40
1.0
 10
17.15000000000003
 20
7.718063222442451
 30
0.0
 10
16.81647404443485
 20
7.752592854573082
 30
0.0
 10
16.4844842071008
 20
7.780362796801018
 30
0.0
 10
16.15037125161337
 20
7.80139015413453
 30
0.0
  0
LINE
  5
C5
330
1F
100
AcDbEntity
  8
외형선
  6
Continuous
370
    15
100
AcDbLine
 10
16.15037125161334
 20
-0.8722505025880268
 30
0.0
 11
16.15037125161334
 21
7.061608420140002
 31
0.0
  0
SPLINE
  5
C6
330
1F
100
AcDbEntity
  8
외형선
  6
Continuous
370
    15
100
AcDbSpline
210
0.0
220
0.0
230
1.0
 70
    24
 71
     3
 72
    21
 73
    17
 74
     0
 42
0.000000001
 43
0.00000001
 40
0.0
 40
0.0
 40
0.0
 40
0.0
 40
0.05306984819997
 40
0.1264068207620062
 40
0.2018705704965416
 40
0.275207543058573
 40
0.3506712927931032
 40
0.4240082653551338
 40
0.4994720150896626
 40
0.5728089876516933
 40
0.6482727373862222
 40
0.7216097099482544
 40
0.7970734596827822
 40
0.8704104322447971
 40
0.945874181979309
 40
1.0
 40
1.0
 40
1.0
 40
1.0
 10
17.14999999999997
 20
-1.41571526180673
 30
0.0
 10
17.15
 20
-1.393499105482376
 30
0.0
 10
17.14999999999997
 20
-1.340582547667257
 30
0.0
 10
17.15000000000008
 20
-1.105251148015861
 30
0.0
 10
17.15000000000006
 20
-0.7368953766704761
 30
0.0
 10
17.14999999999997
 20
-0.2442567868235028
 30
0.0
 10
17.15
 20
0.3441958242387232
 30
0.0
 10
17.15000000000011
 20
1.023915689961145
 30
0.0
 10
17.14999999999991
 20
1.763026349269495
 30
0.0
 10
17.15000000000008
 20
2.554008333827031
 30
0.0
 10
17.14999999999991
 20
3.360247464473225
 30
0.0
 10
17.15000000000011
 20
4.173292641084945
 30
0.0
 10
17.14999999999994
 20
4.956051233939339
 30
0.0
 10
17.15000000000008
 20
5.698376856556219
 30
0.0
 10
17.15000000000003
 20
6.315243621198737
 30
0.0
 10
17.15000000000008
 20
6.654097027714363
 30
0.0
 10
17.15000000000008
 20
6.795626304603394
 30
0.0
  0
SPLINE
  5
C7
330
1F
100
AcDbEntity
  8
외형선
  6
Continuous
370
    15
100
AcDbSpline
210
0.0
220
0.0
230
1.0
 70
    24
 71
     3
 72
    12
 73
     8
 74
     0
 42
0.000000001
 43
0.00000001
 40
0.0
 40
0.0
 40
0.0
 40
0.0
 40
0.1968532440788854
 40
0.398835867837439
 40
0.6059868828979397
 40
0.8191452914286024
 40
1.0
 40
1.0
 40
1.0
 40
1.0
 10
17.1499999999998
 20
-7.718063222442473
 30
0.0
 10
17.14999999999986
 20
-7.465350958770768
 30
0.0
 10
17.15000000000003
 20
-6.953341540453647
 30
0.0
 10
17.15000000000003
 20
-6.179675097713587
 30
0.0
 10
17.14999999999994
 20
-5.417683371951449
 30
0.0
 10
17.15000000000006
 20
-4.723079417877768
 30
0.0
 10
17.14999999999997
 20
-4.329003028856995
 30
0.0
 10
17.15
 20
-4.148119278043289
 30
0.0
  0
LINE
  5
C8
330
1F
100
AcDbEntity
  8
중심선
 62
     1
100
AcDbLine
 10
-100.85
 20
-0.0000000000000039
 30
0.0
 11
55.15
 21
0.0000000000000156
 31
0.0
  0
LINE
  5
C9
330
1F
100
AcDbEntity
  8
참조1
100
AcDbLine
 10
-22.84999999999998
 20
-0.0000000000000039
 30
0.0
 11
-22.84999999999998
 21
-40.0
 31
0.0
  0
LINE
  5
CA
330
1F
100
AcDbEntity
  8
참조1
100
AcDbLine
 10
-22.84999999999998
 20
-40.0
 30
0.0
 11
-83.00885681430864
 21
-40.0
 31
0.0
  0
CIRCLE
  5
CB
330
1F
100
AcDbEntity
  8
해칭선
100
AcDbCircle
 10
0.0000000000000142
 20
-0.0010749287238931
 30
0.0
 40
3.000000000000011
  0
INSERT
  5
CC
330
1F
100
AcDbEntity
  8
0
  6
Continuous
 62
     7
100
AcDbBlockReference
 66
     1
  2
블럭10
 10
-36.79027293212519
 20
-52.04717430164393
 30
0.0
  0
ATTRIB
  5
CD
330
CC
100
AcDbEntity
  8
FORMAT
 62
     2
100
AcDbText
 10
-60.80783858300522
 20
-49.97180738881174
 30
0.0
 40
4.233333333333333
  1
SEME641600515020E [ 4 FLUTE ]
 41
0.75
  7
SLDTEXTSTYLE0
 11
-60.80783858300522
 21
-52.08847405547841
 31
0.0
100
AcDbAttribute
  2
AUTOATTR0
 70
     0
 74
     1
  0
SEQEND
  5
CE
330
CC
100
AcDbEntity
  8
0
  6
Continuous
 62
     7
  0
HATCH
  5
CF
330
1F
100
AcDbEntity
  8
중심선
100
AcDbHatch
 10
0.0
 20
0.0
 30
0.0
210
0.0
220
0.0
230
1.0
  2
SOLID
 70
     1
 71
     0
 91
        1
 92
        0
 93
        4
 72
     1
 10
-31.07536362774435
 20
-35.8
 11
-34.52163887158163
 21
-35.8
 72
     1
 10
-34.52163887158163
 20
-35.8
 11
-36.64986873078566
 21
-38.3363255805726
 72
     1
 10
-36.64986873078566
 20
-38.3363255805726
 11
-33.20356040183523
 21
-38.33628615127011
 72
     1
 10
-33.20356040183523
 20
-38.33628615127011
 11
-31.07536362774435
 21
-35.8
 97
        0
 75
     0
 76
     1
 98
        1
 10
-57.92499999999998
 20
-0.0010749287238931
  0
HATCH
  5
D0
330
1F
100
AcDbEntity
  8
중심선
100
AcDbHatch
 10
0.0
 20
0.0
 30
0.0
210
0.0
220
0.0
230
1.0
  2
SOLID
 70
     1
 71
     0
 91
        1
 92
        0
 93
        4
 72
     1
 10
-26.06259963670837
 20
-35.79999999999998
 11
-29.50887488054563
 21
-35.79999999999998
 72
     1
 10
-29.50887488054563
 20
-35.79999999999998
 11
-34.04001288890307
 21
-41.20000000000002
 72
     1
 10
-34.04001288890307
 20
-41.20000000000002
 11
-30.59373764506579
 21
-41.20000000000002
 72
     1
 10
-30.59373764506579
 20
-41.20000000000002
 11
-26.06259963670837
 21
-35.79999999999998
 97
        0
 75
     0
 76
     1
 98
        1
 10
-57.92499999999998
 20
-0.0010749287238931
  0
HATCH
  5
D1
330
1F
100
AcDbEntity
  8
중심선
100
AcDbHatch
 10
0.0
 20
0.0
 30
0.0
210
0.0
220
0.0
230
1.0
  2
SOLID
 70
     1
 71
     0
 91
        1
 92
        0
 93
        4
 72
     1
 10
-21.04983564567247
 20
-35.79999999999998
 11
-24.49611088950959
 21
-35.79999999999998
 72
     1
 10
-24.49611088950959
 20
-35.79999999999998
 11
-31.54454779139887
 21
-44.20000000000002
 72
     1
 10
-31.54454779139887
 20
-44.20000000000002
 11
-28.09827254756159
 21
-44.20000000000002
 72
     1
 10
-28.09827254756159
 20
-44.20000000000002
 11
-21.04983564567247
 21
-35.79999999999998
 97
        0
 75
     0
 76
     1
 98
        1
 10
-57.92499999999998
 20
-0.0010749287238931
  0
HATCH
  5
D2
330
1F
100
AcDbEntity
  8
중심선
100
AcDbHatch
 10
0.0
 20
0.0
 30
0.0
210
0.0
220
0.0
230
1.0
  2
SOLID
 70
     1
 71
     0
 91
        1
 92
        0
 93
        6
 72
     3
 10
-16.24994521466033
 20
-40.00000000005127
 11
3.960054785062283
 21
1.540882976769353E-10
 40
0.3939339440162628
 50
17.09539180608432
 51
320.0019657685085
 73
     0
 72
     1
 10
-14.56694555895971
 20
-38.5878940046383
 11
-12.26164368525867
 21
-36.65356729459038
 72
     3
 10
-16.24994521471318
 20
-40.00000000000015
 11
6.600054785286829
 21
-1.278976924368180E-13
 40
0.636358354079598
 50
39.99873849337386
 51
368.4976242363725
 73
     1
 72
     1
 10
-9.824612722812539
 20
-39.03999999993002
 11
-17.56987790787728
 21
-39.03999999993002
 72
     1
 10
-17.56987790787728
 20
-39.03999999993002
 11
-17.56990295232319
 21
-40.95999999992991
 72
     1
 10
-17.56990295232319
 20
-40.95999999992991
 11
-13.12852318285113
 21
-40.95999999992988
 97
        0
 75
     0
 76
     1
 98
        1
 10
-57.92499999999998
 20
-0.0010749287238931
  0
DIMENSION
  5
D3
330
1F
100
AcDbEntity
  8
치수문자_일반주서
100
AcDbDimension
  2
_D
 10
79.53967695569158
 20
-7.999999999999808
 30
0.0
 11
79.53967695569148
 21
19.48611745088415
 31
0.0
 70
   160
  1
%%c<>
 71
     2
 42
15.99999999999999
 52
-270.0
  3
SLDDIMSTYLE1
100
AcDbAlignedDimension
 13
31.57282903303751
 23
8.000000000000005
 33
0.0
 14
31.5728290330374
 24
-7.999999999999988
 34
0.0
 50
90.0000000000002
100
AcDbRotatedDimension
1001
PE_URL
1000

  0
DIMENSION
  5
E0
330
1F
100
AcDbEntity
  8
치수문자_일반주서
100
AcDbDimension
  2
_D_1
 10
-105.8384684361647
 20
-10.00000000000005
 30
0.0
 11
-105.8384684361648
 21
0.0000000000000098
 31
0.0
 70
   160
  1
%%c<>
 71
     2
 42
20.00000000000002
 52
-270.0
  3
SLDDIMSTYLE1
100
AcDbAlignedDimension
 13
-95.84999999999997
 23
10.00000000000001
 33
0.0
 14
-95.84999999999997
 24
-10.00000000000001
 34
0.0
 50
90.0000000000002
100
AcDbRotatedDimension
  0
DIMENSION
  5
EE
330
1F
100
AcDbEntity
  8
치수문자_일반주서
100
AcDbDimension
  2
_D_2
 10
17.15000000000006
 20
17.59636469275803
 30
0.0
 11
34.65000000000004
 21
17.59636469275803
 31
0.0
 70
   160
  1
<>
 71
     2
 42
34.99999999999994
  3
SLDDIMSTYLE1
100
AcDbAlignedDimension
 13
52.15
 23
7.460325928715028
 33
0.0
 14
17.15000000000006
 24
7.873701683463059
 34
0.0
100
AcDbRotatedDimension
1001
PE_URL
1000

  0
DIMENSION
  5
F8
330
1F
100
AcDbEntity
  8
치수문자_일반주서
100
AcDbDimension
  2
_D_3
 10
2.150000000000006
 20
23.59636469275801
 30
0.0
 11
27.15000000000001
 21
23.59636469275801
 31
0.0
 70
   160
  1
<>
 71
     2
 42
49.99999999999999
  3
SLDDIMSTYLE1
100
AcDbAlignedDimension
 13
52.15
 23
7.460325928715028
 33
0.0
 14
2.150000000000006
 24
7.849999999999999
 34
0.0
 50
0.0000000000000041
100
AcDbRotatedDimension
1001
PE_URL
1000

  0
DIMENSION
  5
102
330
1F
100
AcDbEntity
  8
치수문자_일반주서
100
AcDbDimension
  2
_D_4
 10
-97.84999999999997
 20
32.00386199391992
 30
0.0
 11
-22.84999999999999
 21
32.00386199391992
 31
0.0
 70
   160
  1
<>
 71
     2
 42
150.0
  3
SLDDIMSTYLE1
100
AcDbAlignedDimension
 13
52.15
 23
7.460325928715028
 33
0.0
 14
-97.84999999999997
 24
8.000000000000021
 34
0.0
 50
0.0000000000000054
100
AcDbRotatedDimension
1001
PE_URL
1000

  0
LINE
  5
10C
330
1F
100
AcDbEntity
  8
참조1
100
AcDbLine
 10
14.96348381534562
 20
7.440000000000002
 30
0.0
 11
14.96348381534562
 21
-7.440000000000002
 31
0.0
  0
LINE
  5
10D
330
1F
100
AcDbEntity
  8
참조1
100
AcDbLine
 10
27.66348381534562
 20
5.440000000000002
 30
0.0
 11
14.96348381534562
 21
5.440000000000002
 31
0.0
  0
SOLID
  5
10E
330
1F
100
AcDbEntity
  8
참조1
100
AcDbTrace
 10
14.96348381534562
 20
5.440000000000002
 30
0.0
 11
21.31348381534561
 21
4.424000000000002
 31
0.0
 12
21.31348381534561
 22
6.456000000000002
 32
0.0
 13
21.31348381534561
 23
6.456000000000002
 33
0.0
  0
LINE
  5
10F
330
1F
100
AcDbEntity
  8
참조1
100
AcDbLine
 10
27.66348381534562
 20
-5.440000000000002
 30
0.0
 11
14.96348381534562
 21
-5.440000000000002
 31
0.0
  0
SOLID
  5
110
330
1F
100
AcDbEntity
  8
참조1
100
AcDbTrace
 10
14.96348381534562
 20
-5.440000000000002
 30
0.0
 11
21.31348381534561
 21
-6.456000000000002
 31
0.0
 12
21.31348381534561
 22
-4.424000000000002
 32
0.0
 13
21.31348381534561
 23
-4.424000000000002
 33
0.0
  0
MTEXT
  5
111
330
1F
100
AcDbEntity
  8
참조1
100
AcDbMText
 10
24.3609739078159
 20
10.98821664464994
 30
0.0
 40
3.5
 41
0.0
 71
     1
 72
     1
  1
A
  7
SLDTEXTSTYLE0
 73
     1
 44
1.0
  0
MTEXT
  5
112
330
1F
100
AcDbEntity
  8
참조1
100
AcDbMText
 10
24.3609739078159
 20
0.1082166446499328
 30
0.0
 40
3.5
 41
0.0
 71
     1
 72
     1
  1
A
  7
SLDTEXTSTYLE0
 73
     1
 44
1.0
  0
INSERT
  5
119
330
1F
100
AcDbEntity
  8
해칭선
100
AcDbBlockReference
  2
SW_DOWELSYMBOL_0
 10
0.0000000000000142
 20
-0.0010749287238931
 30
0.0
  0
ARC
  5
14F
330
1F
100
AcDbEntity
  8
0
 62
     1
100
AcDbCircle
 10
51.65
 20
7.460325928715028
 30
0.0
 40
0.5
100
AcDbArc
 50
0.0
 51
90.0
  0
ARC
  5
150
102
{ACAD_REACTORS
102
}
330
1F
100
AcDbEntity
  8
0
 62
     1
100
AcDbCircle
 10
51.64999999999999
 20
-7.460325928714992
 30
0.0
 40
0.5
100
AcDbArc
 50
269.9999999999992
 51
0.0
  0
DIMENSION
  5
155
102
{ACAD_REACTORS
102
}
102
{ACAD_XDICTIONARY
360
156
102
}
330
1F
100
AcDbEntity
  8
0
100
AcDbDimension
  2
*D8
 10
51.64999999999999
 20
-7.460325928714992
 30
0.0
 11
69.8595737503403
 21
-15.55544429191791
 31
0.0
 70
   164
 71
     5
 42
0.5000000000000016
  3
ISO-25
100
AcDbRadialDimension
 15
52.03827383132435
 25
-7.775355184354382
 35
0.0
 40
0.0
1001
ACAD
1000
DSTYLE
1002
{
1070
   179
1070
     2
1070
   143
1040
0.0393700787401575
1070
    41
1040
3.302
1070
    44
1040
1.0
1070
    42
1040
1.0
1070
   147
1040
1.524
1070
    73
1070
     1
1070
    74
1070
     1
1070
   140
1040
3.5
1070
   284
1070
     0
1070
    78
1070
     0
1002
}
1001
ACAD_DSTYLE_DIMRADIAL_EXTENSION
1070
   387
1070
     1
1070
   388
1040
4.712388980384675
1070
   390
1040
0.0
  0
ENDSEC
  0
SECTION
  2
OBJECTS
  0
DICTIONARY
  5
C
330
0
100
AcDbDictionary
281
     1
  3
ACAD_DETAILVIEWSTYLE
350
14D
  3
ACAD_GROUP
350
D
  3
ACAD_LAYOUT
350
1A
  3
ACAD_MLINESTYLE
350
17
  3
ACAD_PLOTSETTINGS
350
19
  3
ACAD_PLOTSTYLENAME
350
E
  3
ACAD_SCALELIST
350
47
  3
ACAD_SECTIONVIEWSTYLE
350
14E
  3
AcDbVariableDictionary
350
148
  3
APPDATA
350
13B
  3
DWGPROPS
350
169
  0
DICTIONARY
  5
156
330
155
100
AcDbDictionary
280
     1
281
     1
  0
DICTIONARY
  5
14D
102
{ACAD_REACTORS
330
C
102
}
330
C
100
AcDbDictionary
281
     1
  0
DICTIONARY
  5
D
102
{ACAD_REACTORS
330
C
102
}
330
C
100
AcDbDictionary
281
     1
  0
DICTIONARY
  5
1A
102
{ACAD_REACTORS
330
C
102
}
330
C
100
AcDbDictionary
281
     1
  3
Layout1
350
1E
  3
Layout2
350
26
  3
Model
350
22
  0
DICTIONARY
  5
17
102
{ACAD_REACTORS
330
C
102
}
330
C
100
AcDbDictionary
281
     1
  3
Standard
350
18
  0
DICTIONARY
  5
19
102
{ACAD_REACTORS
330
C
102
}
330
C
100
AcDbDictionary
281
     1
  0
ACDBDICTIONARYWDFLT
  5
E
102
{ACAD_REACTORS
330
C
102
}
330
C
100
AcDbDictionary
281
     1
  3
Normal
350
F
100
AcDbDictionaryWithDefault
340
F
  0
DICTIONARY
  5
47
102
{ACAD_REACTORS
330
C
102
}
330
C
100
AcDbDictionary
281
     1
  3
A0
350
48
  3
A1
350
49
  3
A2
350
4A
  3
A3
350
4B
  3
A4
350
4C
  3
A5
350
4D
  3
A6
350
4E
  3
A7
350
4F
  3
A8
350
50
  3
A9
350
51
  3
B0
350
52
  3
B1
350
53
  3
B2
350
54
  3
B3
350
55
  3
B4
350
56
  3
B5
350
57
  3
B6
350
58
  3
B7
350
59
  3
B8
350
5A
  3
B9
350
5B
  3
C0
350
5C
  3
C1
350
5D
  3
C2
350
5E
  3
C3
350
5F
  3
C4
350
60
  3
C5
350
61
  3
C6
350
62
  3
C7
350
63
  3
C8
350
64
  3
C9
350
65
  3
D0
350
66
  3
D1
350
67
  3
D2
350
68
  0
DICTIONARY
  5
14E
102
{ACAD_REACTORS
330
C
102
}
330
C
100
AcDbDictionary
281
     1
  0
DICTIONARY
  5
148
102
{ACAD_REACTORS
330
C
102
}
330
C
100
AcDbDictionary
281
     1
  0
DICTIONARY
  5
13B
102
{ACAD_REACTORS
330
C
102
}
330
C
100
AcDbDictionary
281
     1
  0
XRECORD
  5
169
102
{ACAD_REACTORS
330
C
102
}
330
C
100
AcDbXrecord
280
     1
  1
DWGPROPS COOKIE
  2

  3

  4

  6

  7

  8
USER
  9

300
=
301
=
302
=
303
=
304
=
305
=
306
=
307
=
308
=
309
=
 40
0.0
 41
2458274.339419954
 42
2458275.098410243
  1

 90
        0
  0
LAYOUT
  5
1E
102
{ACAD_REACTORS
330
1A
102
}
330
1A
100
AcDbPlotSettings
  1

  2
none_device
  4

  6

 40
0.0
 41
0.0
 42
0.0
 43
0.0
 44
0.0
 45
0.0
 46
0.0
 47
0.0
 48
0.0
 49
0.0
140
0.0
141
0.0
142
1.0
143
1.0
 70
   688
 72
     1
 73
     0
 74
     5
  7

 75
    16
147
1.0
148
0.0
149
0.0
100
AcDbLayout
  1
Layout1
 70
     1
 71
     1
 10
0.0
 20
0.0
 11
420.0
 21
297.0
 12
0.0
 22
0.0
 32
0.0
 14
1.000000000000000E+20
 24
1.000000000000000E+20
 34
1.000000000000000E+20
 15
-1.000000000000000E+20
 25
-1.000000000000000E+20
 35
-1.000000000000000E+20
146
0.0
 13
0.0
 23
0.0
 33
0.0
 16
1.0
 26
0.0
 36
0.0
 17
0.0
 27
1.0
 37
0.0
 76
     0
330
1B
  0
LAYOUT
  5
26
102
{ACAD_REACTORS
330
1A
102
}
330
1A
100
AcDbPlotSettings
  1

  2
none_device
  4

  6

 40
0.0
 41
0.0
 42
0.0
 43
0.0
 44
0.0
 45
0.0
 46
0.0
 47
0.0
 48
0.0
 49
0.0
140
0.0
141
0.0
142
1.0
143
1.0
 70
   688
 72
     1
 73
     0
 74
     5
  7

 75
    16
147
1.0
148
0.0
149
0.0
100
AcDbLayout
  1
Layout2
 70
     1
 71
     2
 10
0.0
 20
0.0
 11
0.0
 21
0.0
 12
0.0
 22
0.0
 32
0.0
 14
0.0
 24
0.0
 34
0.0
 15
0.0
 25
0.0
 35
0.0
146
0.0
 13
0.0
 23
0.0
 33
0.0
 16
1.0
 26
0.0
 36
0.0
 17
0.0
 27
1.0
 37
0.0
 76
     0
330
23
  0
LAYOUT
  5
22
102
{ACAD_REACTORS
330
1A
102
}
330
1A
100
AcDbPlotSettings
  1

  2
none_device
  4
ANSI_A_(11.00_x_8.50_Inches)
  6

 40
6.35
 41
19.05
 42
6.35000508
 43
19.05000254
 44
279.4
 45
215.9
 46
82.7280283252483
 47
100.7609817683688
 48
0.0
 49
0.0
140
0.0
141
0.0
142
0.0657792696070484
143
1.0
 70
  1696
 72
     0
 73
     0
 74
     0
  7

 75
     0
147
0.0235690232323232
148
0.0
149
0.0
100
AcDbLayout
  1
Model
 70
     1
 71
     0
 10
0.0
 20
0.0
 11
420.0
 21
297.0
 12
0.0
 22
0.0
 32
0.0
 14
-110.2134684361648
 24
-49.97180738881174
 34
0.0
 15
80.09001028902489
 25
36.37886199391993
 35
0.0
146
0.0
 13
0.0
 23
0.0
 33
0.0
 16
1.0
 26
0.0
 36
0.0
 17
0.0
 27
1.0
 37
0.0
 76
     0
330
1F
331
29
  0
MLINESTYLE
  5
18
102
{ACAD_REACTORS
330
17
102
}
330
17
100
AcDbMlineStyle
  2
Standard
 70
     0
  3

 62
   256
 51
90.0
 52
90.0
 71
     2
 49
0.5
 62
   256
  6
BYLAYER
 49
-0.5
 62
   256
  6
BYLAYER
  0
ACDBPLACEHOLDER
  5
F
102
{ACAD_REACTORS
330
E
102
}
330
E
  0
SCALE
  5
48
102
{ACAD_REACTORS
330
47
102
}
330
47
100
AcDbScale
 70
     0
300
1:1
140
1.0
141
1.0
290
     1
  0
SCALE
  5
49
102
{ACAD_REACTORS
330
47
102
}
330
47
100
AcDbScale
 70
     0
300
1:2
140
1.0
141
2.0
290
     0
  0
SCALE
  5
4A
102
{ACAD_REACTORS
330
47
102
}
330
47
100
AcDbScale
 70
     0
300
1:4
140
1.0
141
4.0
290
     0
  0
SCALE
  5
4B
102
{ACAD_REACTORS
330
47
102
}
330
47
100
AcDbScale
 70
     0
300
1:5
140
1.0
141
5.0
290
     0
  0
SCALE
  5
4C
102
{ACAD_REACTORS
330
47
102
}
330
47
100
AcDbScale
 70
     0
300
1:8
140
1.0
141
8.0
290
     0
  0
SCALE
  5
4D
102
{ACAD_REACTORS
330
47
102
}
330
47
100
AcDbScale
 70
     0
300
1:10
140
1.0
141
10.0
290
     0
  0
SCALE
  5
4E
102
{ACAD_REACTORS
330
47
102
}
330
47
100
AcDbScale
 70
     0
300
1:16
140
1.0
141
16.0
290
     0
  0
SCALE
  5
4F
102
{ACAD_REACTORS
330
47
102
}
330
47
100
AcDbScale
 70
     0
300
1:20
140
1.0
141
20.0
290
     0
  0
SCALE
  5
50
102
{ACAD_REACTORS
330
47
102
}
330
47
100
AcDbScale
 70
     0
300
1:30
140
1.0
141
30.0
290
     0
  0
SCALE
  5
51
102
{ACAD_REACTORS
330
47
102
}
330
47
100
AcDbScale
 70
     0
300
1:40
140
1.0
141
40.0
290
     0
  0
SCALE
  5
52
102
{ACAD_REACTORS
330
47
102
}
330
47
100
AcDbScale
 70
     0
300
1:50
140
1.0
141
50.0
290
     0
  0
SCALE
  5
53
102
{ACAD_REACTORS
330
47
102
}
330
47
100
AcDbScale
 70
     0
300
1:100
140
1.0
141
100.0
290
     0
  0
SCALE
  5
54
102
{ACAD_REACTORS
330
47
102
}
330
47
100
AcDbScale
 70
     0
300
2:1
140
2.0
141
1.0
290
     0
  0
SCALE
  5
55
102
{ACAD_REACTORS
330
47
102
}
330
47
100
AcDbScale
 70
     0
300
4:1
140
4.0
141
1.0
290
     0
  0
SCALE
  5
56
102
{ACAD_REACTORS
330
47
102
}
330
47
100
AcDbScale
 70
     0
300
8:1
140
8.0
141
1.0
290
     0
  0
SCALE
  5
57
102
{ACAD_REACTORS
330
47
102
}
330
47
100
AcDbScale
 70
     0
300
10:1
140
10.0
141
1.0
290
     0
  0
SCALE
  5
58
102
{ACAD_REACTORS
330
47
102
}
330
47
100
AcDbScale
 70
     0
300
100:1
140
100.0
141
1.0
290
     0
  0
SCALE
  5
59
102
{ACAD_REACTORS
330
47
102
}
330
47
100
AcDbScale
 70
     0
300
1/128" = 1'-0"
140
0.0078125
141
12.0
290
     0
  0
SCALE
  5
5A
102
{ACAD_REACTORS
330
47
102
}
330
47
100
AcDbScale
 70
     0
300
1/64" = 1'-0"
140
0.015625
141
12.0
290
     0
  0
SCALE
  5
5B
102
{ACAD_REACTORS
330
47
102
}
330
47
100
AcDbScale
 70
     0
300
1/32" = 1'-0"
140
0.03125
141
12.0
290
     0
  0
SCALE
  5
5C
102
{ACAD_REACTORS
330
47
102
}
330
47
100
AcDbScale
 70
     0
300
1/16" = 1'-0"
140
0.0625
141
12.0
290
     0
  0
SCALE
  5
5D
102
{ACAD_REACTORS
330
47
102
}
330
47
100
AcDbScale
 70
     0
300
3/32" = 1'-0"
140
0.09375
141
12.0
290
     0
  0
SCALE
  5
5E
102
{ACAD_REACTORS
330
47
102
}
330
47
100
AcDbScale
 70
     0
300
1/8" = 1'-0"
140
0.125
141
12.0
290
     0
  0
SCALE
  5
5F
102
{ACAD_REACTORS
330
47
102
}
330
47
100
AcDbScale
 70
     0
300
3/16" = 1'-0"
140
0.1875
141
12.0
290
     0
  0
SCALE
  5
60
102
{ACAD_REACTORS
330
47
102
}
330
47
100
AcDbScale
 70
     0
300
1/4" = 1'-0"
140
0.25
141
12.0
290
     0
  0
SCALE
  5
61
102
{ACAD_REACTORS
330
47
102
}
330
47
100
AcDbScale
 70
     0
300
3/8" = 1'-0"
140
0.375
141
12.0
290
     0
  0
SCALE
  5
62
102
{ACAD_REACTORS
330
47
102
}
330
47
100
AcDbScale
 70
     0
300
1/2" = 1'-0"
140
0.5
141
12.0
290
     0
  0
SCALE
  5
63
102
{ACAD_REACTORS
330
47
102
}
330
47
100
AcDbScale
 70
     0
300
3/4" = 1'-0"
140
0.75
141
12.0
290
     0
  0
SCALE
  5
64
102
{ACAD_REACTORS
330
47
102
}
330
47
100
AcDbScale
 70
     0
300
1" = 1'-0"
140
1.0
141
12.0
290
     0
  0
SCALE
  5
65
102
{ACAD_REACTORS
330
47
102
}
330
47
100
AcDbScale
 70
     0
300
1-1/2" = 1'-0"
140
1.5
141
12.0
290
     0
  0
SCALE
  5
66
102
{ACAD_REACTORS
330
47
102
}
330
47
100
AcDbScale
 70
     0
300
3" = 1'-0"
140
3.0
141
12.0
290
     0
  0
SCALE
  5
67
102
{ACAD_REACTORS
330
47
102
}
330
47
100
AcDbScale
 70
     0
300
6" = 1'-0"
140
6.0
141
12.0
290
     0
  0
SCALE
  5
68
102
{ACAD_REACTORS
330
47
102
}
330
47
100
AcDbScale
 70
     0
300
1'-0" = 1'-0"
140
12.0
141
12.0
290
     0
  0
ENDSEC
  0
EOF
