  0
SECTION
  2
HEADER
  9
$ACADVER
  1
AC1015
  9
$ACADMAINTVER
 70
     6
  9
$DWGCODEPAGE
  3
ANSI_949
  9
$INSBASE
 10
0.0
 20
0.0
 30
0.0
  9
$EXTMIN
 10
-73.0134684361648
 20
-49.97180738881175
 30
0.0
  9
$EXTMAX
 10
69.81293259806142
 20
34.38683152277643
 30
0.0
  9
$LIMMIN
 10
0.0
 20
0.0
  9
$LIMMAX
 10
420.0
 20
297.0
  9
$ORTHOMODE
 70
     0
  9
$REGENMODE
 70
     1
  9
$FILLMODE
 70
     1
  9
$QTEXTMODE
 70
     0
  9
$MIRRTEXT
 70
     1
  9
$LTSCALE
 40
1.0
  9
$ATTMODE
 70
     1
  9
$TEXTSIZE
 40
3.5
  9
$TRACEWID
 40
1.0
  9
$TEXTSTYLE
  7
Standard
  9
$CLAYER
  8
0
  9
$CELTYPE
  6
ByLayer
  9
$CECOLOR
 62
   256
  9
$CELTSCALE
 40
1.0
  9
$DISPSILH
 70
     0
  9
$DIMSCALE
 40
1.0
  9
$DIMASZ
 40
3.302
  9
$DIMEXO
 40
1.0
  9
$DIMDLI
 40
3.75
  9
$DIMRND
 40
0.0
  9
$DIMDLE
 40
0.0
  9
$DIMEXE
 40
1.0
  9
$DIMTP
 40
0.0
  9
$DIMTM
 40
0.0
  9
$DIMTXT
 40
3.5
  9
$DIMCEN
 40
2.5
  9
$DIMTSZ
 40
0.0
  9
$DIMTOL
 70
     0
  9
$DIMLIM
 70
     0
  9
$DIMTIH
 70
     1
  9
$DIMTOH
 70
     1
  9
$DIMSE1
 70
     0
  9
$DIMSE2
 70
     0
  9
$DIMTAD
 70
     1
  9
$DIMZIN
 70
     0
  9
$DIMBLK
  1

  9
$DIMASO
 70
     1
  9
$DIMSHO
 70
     1
  9
$DIMPOST
  1

  9
$DIMAPOST
  1

  9
$DIMALT
 70
     0
  9
$DIMALTD
 70
     3
  9
$DIMALTF
 40
0.0393700787401575
  9
$DIMLFAC
 40
1.0
  9
$DIMTOFL
 70
     1
  9
$DIMTVP
 40
0.0
  9
$DIMTIX
 70
     0
  9
$DIMSOXD
 70
     0
  9
$DIMSAH
 70
     0
  9
$DIMBLK1
  1

  9
$DIMBLK2
  1

  9
$DIMSTYLE
  2
ISO-25
  9
$DIMCLRD
 70
     0
  9
$DIMCLRE
 70
     0
  9
$DIMCLRT
 70
     0
  9
$DIMTFAC
 40
1.0
  9
$DIMGAP
 40
1.524
  9
$DIMJUST
 70
     0
  9
$DIMSD1
 70
     0
  9
$DIMSD2
 70
     0
  9
$DIMTOLJ
 70
     0
  9
$DIMTZIN
 70
     0
  9
$DIMALTZ
 70
     0
  9
$DIMALTTZ
 70
     0
  9
$DIMUPT
 70
     0
  9
$DIMDEC
 70
     2
  9
$DIMTDEC
 70
     2
  9
$DIMALTU
 70
     2
  9
$DIMALTTD
 70
     3
  9
$DIMTXSTY
  7
Standard
  9
$DIMAUNIT
 70
     0
  9
$DIMADEC
 70
     2
  9
$DIMALTRND
 40
0.0
  9
$DIMAZIN
 70
     0
  9
$DIMDSEP
 70
    44
  9
$DIMATFIT
 70
     3
  9
$DIMFRAC
 70
     0
  9
$DIMLDRBLK
  1

  9
$DIMLUNIT
 70
     2
  9
$DIMLWD
 70
    -2
  9
$DIMLWE
 70
    -2
  9
$DIMTMOVE
 70
     0
  9
$LUNITS
 70
     2
  9
$LUPREC
 70
     2
  9
$SKETCHINC
 40
1.0
  9
$FILLETRAD
 40
10.0
  9
$AUNITS
 70
     0
  9
$AUPREC
 70
     2
  9
$MENU
  1
.
  9
$ELEVATION
 40
0.0
  9
$PELEVATION
 40
0.0
  9
$THICKNESS
 40
0.0
  9
$LIMCHECK
 70
     0
  9
$CHAMFERA
 40
0.0
  9
$CHAMFERB
 40
0.0
  9
$CHAMFERC
 40
0.0
  9
$CHAMFERD
 40
0.0
  9
$SKPOLY
 70
     0
  9
$TDCREATE
 40
2458274.71328588
  9
$TDUCREATE
 40
2458274.33828588
  9
$TDUPDATE
 40
2458275.465902905
  9
$TDUUPDATE
 40
2458275.090902905
  9
$TDINDWG
 40
0.0007852199
  9
$TDUSRTIMER
 40
0.0010817477
  9
$USRTIMER
 70
     1
  9
$ANGBASE
 50
0.0
  9
$ANGDIR
 70
     0
  9
$PDMODE
 70
     0
  9
$PDSIZE
 40
-1.0
  9
$PLINEWID
 40
0.0
  9
$SPLFRAME
 70
     0
  9
$SPLINETYPE
 70
     6
  9
$SPLINESEGS
 70
     8
  9
$HANDSEED
  5
162
  9
$SURFTAB1
 70
     6
  9
$SURFTAB2
 70
     6
  9
$SURFTYPE
 70
     6
  9
$SURFU
 70
     6
  9
$SURFV
 70
     6
  9
$UCSBASE
  2

  9
$UCSNAME
  2

  9
$UCSORG
 10
0.0
 20
0.0
 30
0.0
  9
$UCSXDIR
 10
1.0
 20
0.0
 30
0.0
  9
$UCSYDIR
 10
0.0
 20
1.0
 30
0.0
  9
$UCSORTHOREF
  2

  9
$UCSORTHOVIEW
 70
     0
  9
$UCSORGTOP
 10
0.0
 20
0.0
 30
0.0
  9
$UCSORGBOTTOM
 10
0.0
 20
0.0
 30
0.0
  9
$UCSORGLEFT
 10
0.0
 20
0.0
 30
0.0
  9
$UCSORGRIGHT
 10
0.0
 20
0.0
 30
0.0
  9
$UCSORGFRONT
 10
0.0
 20
0.0
 30
0.0
  9
$UCSORGBACK
 10
0.0
 20
0.0
 30
0.0
  9
$PUCSBASE
  2

  9
$PUCSNAME
  2

  9
$PUCSORG
 10
0.0
 20
0.0
 30
0.0
  9
$PUCSXDIR
 10
1.0
 20
0.0
 30
0.0
  9
$PUCSYDIR
 10
0.0
 20
1.0
 30
0.0
  9
$PUCSORTHOREF
  2

  9
$PUCSORTHOVIEW
 70
     0
  9
$PUCSORGTOP
 10
0.0
 20
0.0
 30
0.0
  9
$PUCSORGBOTTOM
 10
0.0
 20
0.0
 30
0.0
  9
$PUCSORGLEFT
 10
0.0
 20
0.0
 30
0.0
  9
$PUCSORGRIGHT
 10
0.0
 20
0.0
 30
0.0
  9
$PUCSORGFRONT
 10
0.0
 20
0.0
 30
0.0
  9
$PUCSORGBACK
 10
0.0
 20
0.0
 30
0.0
  9
$USERI1
 70
     0
  9
$USERI2
 70
     0
  9
$USERI3
 70
     0
  9
$USERI4
 70
     0
  9
$USERI5
 70
     0
  9
$USERR1
 40
0.0
  9
$USERR2
 40
0.0
  9
$USERR3
 40
0.0
  9
$USERR4
 40
0.0
  9
$USERR5
 40
0.0
  9
$WORLDVIEW
 70
     1
  9
$SHADEDGE
 70
     3
  9
$SHADEDIF
 70
    70
  9
$TILEMODE
 70
     1
  9
$MAXACTVP
 70
    64
  9
$PINSBASE
 10
0.0
 20
0.0
 30
0.0
  9
$PLIMCHECK
 70
     0
  9
$PEXTMIN
 10
1.000000000000000E+20
 20
1.000000000000000E+20
 30
1.000000000000000E+20
  9
$PEXTMAX
 10
-1.000000000000000E+20
 20
-1.000000000000000E+20
 30
-1.000000000000000E+20
  9
$PLIMMIN
 10
0.0
 20
0.0
  9
$PLIMMAX
 10
0.0
 20
0.0
  9
$UNITMODE
 70
     0
  9
$VISRETAIN
 70
     1
  9
$PLINEGEN
 70
     0
  9
$PSLTSCALE
 70
     1
  9
$TREEDEPTH
 70
  3020
  9
$CMLSTYLE
  2
Standard
  9
$CMLJUST
 70
     0
  9
$CMLSCALE
 40
20.0
  9
$PROXYGRAPHICS
 70
     1
  9
$MEASUREMENT
 70
     1
  9
$CELWEIGHT
370
    -1
  9
$ENDCAPS
280
     0
  9
$JOINSTYLE
280
     0
  9
$LWDISPLAY
290
     1
  9
$INSUNITS
 70
     4
  9
$HYPERLINKBASE
  1

  9
$STYLESHEET
  1

  9
$XEDIT
290
     1
  9
$CEPSNTYPE
380
     0
  9
$PSTYLEMODE
290
     1
  9
$FINGERPRINTGUID
  2
{A7B35FF9-17A6-4DB0-8B32-53B0D81DAC3D}
  9
$VERSIONGUID
  2
{FAEB1C32-E019-11D5-929B-00C0DF256EC4}
  9
$EXTNAMES
290
     1
  9
$PSVPSCALE
 40
0.0
  9
$OLESTARTUP
290
     0
  0
ENDSEC
  0
SECTION
  2
CLASSES
  0
CLASS
  1
ACDBDICTIONARYWDFLT
  2
AcDbDictionaryWithDefault
  3
ObjectDBX Classes
 90
        0
280
     0
281
     0
  0
CLASS
  1
VISUALSTYLE
  2
AcDbVisualStyle
  3
ObjectDBX Classes
 90
     4095
280
     0
281
     0
  0
CLASS
  1
MATERIAL
  2
AcDbMaterial
  3
ObjectDBX Classes
 90
     1153
280
     0
281
     0
  0
CLASS
  1
SCALE
  2
AcDbScale
  3
ObjectDBX Classes
 90
     1153
280
     0
281
     0
  0
CLASS
  1
SUN
  2
AcDbSun
  3
SCENEOE
 90
     1153
280
     0
281
     0
  0
CLASS
  1
ACDBPLACEHOLDER
  2
AcDbPlaceHolder
  3
ObjectDBX Classes
 90
        0
280
     0
281
     0
  0
CLASS
  1
LAYOUT
  2
AcDbLayout
  3
ObjectDBX Classes
 90
        0
280
     0
281
     0
  0
CLASS
  1
TABLESTYLE
  2
AcDbTableStyle
  3
ObjectDBX Classes
 90
     4095
280
     0
281
     0
  0
CLASS
  1
MLEADERSTYLE
  2
AcDbMLeaderStyle
  3
ACDB_MLEADERSTYLE_CLASS
 90
     4095
280
     0
281
     0
  0
CLASS
  1
DICTIONARYVAR
  2
AcDbDictionaryVar
  3
ObjectDBX Classes
 90
        0
280
     0
281
     0
  0
CLASS
  1
DIMASSOC
  2
AcDbDimAssoc
  3
"AcDbDimAssoc|Product Desc:     AcDim ARX App For Dimension|Company:          Autodesk, Inc.|WEB Address:      www.autodesk.com"
 90
        0
280
     0
281
     0
  0
ENDSEC
  0
SECTION
  2
TABLES
  0
TABLE
  2
VPORT
  5
8
330
0
100
AcDbSymbolTable
 70
     1
  0
VPORT
  5
29
330
8
100
AcDbSymbolTableRecord
100
AcDbViewportTableRecord
  2
*Active
 70
     0
 10
0.0
 20
0.0
 11
1.0
 21
1.0
 12
-1.600267919051674
 22
-7.792487933017661
 13
0.0
 23
0.0
 14
10.0
 24
10.0
 15
10.0
 25
10.0
 16
0.0
 26
0.0
 36
1.0
 17
0.0
 27
0.0
 37
0.0
 40
86.04581168981994
 41
2.400311526479751
 42
50.0
 43
0.0
 44
0.0
 50
0.0
 51
0.0
 71
    16
 72
  2000
 73
     1
 74
     3
 75
     0
 76
     0
 77
     0
 78
     0
281
     0
 65
     1
110
0.0
120
0.0
130
0.0
111
1.0
121
0.0
131
0.0
112
0.0
122
1.0
132
0.0
 79
     0
146
0.0
  0
ENDTAB
  0
TABLE
  2
LTYPE
  5
5
330
0
100
AcDbSymbolTable
 70
     6
  0
LTYPE
  5
14
330
5
100
AcDbSymbolTableRecord
100
AcDbLinetypeTableRecord
  2
ByBlock
 70
     0
  3

 72
    65
 73
     0
 40
0.0
  0
LTYPE
  5
15
330
5
100
AcDbSymbolTableRecord
100
AcDbLinetypeTableRecord
  2
ByLayer
 70
     0
  3

 72
    65
 73
     0
 40
0.0
  0
LTYPE
  5
16
330
5
100
AcDbSymbolTableRecord
100
AcDbLinetypeTableRecord
  2
Continuous
 70
     0
  3
Solid line
 72
    65
 73
     0
 40
0.0
  0
LTYPE
  5
6A
330
5
100
AcDbSymbolTableRecord
100
AcDbLinetypeTableRecord
  2
HIDDEN
 70
     0
  3
Hidden __ __ __ __ __ __ __ __ __ __ __ __ __ __
 72
    65
 73
     2
 40
1.905
 49
1.27
 74
     0
 49
-0.635
 74
     0
  0
LTYPE
  5
6B
330
5
100
AcDbSymbolTableRecord
100
AcDbLinetypeTableRecord
  2
PHANTOM
 70
     0
  3
Phantom ______  __  __  ______  __  __  ______
 72
    65
 73
     6
 40
12.7
 49
6.35
 74
     0
 49
-1.27
 74
     0
 49
1.27
 74
     0
 49
-1.27
 74
     0
 49
1.27
 74
     0
 49
-1.27
 74
     0
  0
LTYPE
  5
6C
330
5
100
AcDbSymbolTableRecord
100
AcDbLinetypeTableRecord
  2
CENTER
 70
     0
  3
Center ____ _ ____ _ ____ _ ____ _ ____ _ ____
 72
    65
 73
     4
 40
10.16
 49
6.35
 74
     0
 49
-1.27
 74
     0
 49
1.27
 74
     0
 49
-1.27
 74
     0
  0
LTYPE
  5
6D
330
5
100
AcDbSymbolTableRecord
100
AcDbLinetypeTableRecord
  2
CENTERX2
 70
     0
  3
Center (2x) ________  __  ________  __  _____
 72
    65
 73
     4
 40
20.32
 49
12.7
 74
     0
 49
-2.54
 74
     0
 49
2.54
 74
     0
 49
-2.54
 74
     0
  0
LTYPE
  5
6E
330
5
100
AcDbSymbolTableRecord
100
AcDbLinetypeTableRecord
  2
DOT2
 70
     0
  3
Dot (.5x) ........................................
 72
    65
 73
     2
 40
0.635
 49
0.0
 74
     0
 49
-0.635
 74
     0
  0
ENDTAB
  0
TABLE
  2
LAYER
  5
2
330
0
100
AcDbSymbolTable
 70
    18
  0
LAYER
  5
10
330
2
100
AcDbSymbolTableRecord
100
AcDbLayerTableRecord
  2
0
 70
     0
 62
     7
  6
Continuous
370
    -3
390
F
  0
LAYER
  5
6F
330
2
100
AcDbSymbolTableRecord
100
AcDbLayerTableRecord
  2
FORMAT
 70
     0
 62
     2
  6
Continuous
370
    -3
390
F
  0
LAYER
  5
70
330
2
100
AcDbSymbolTableRecord
100
AcDbLayerTableRecord
  2
외형선
 70
     0
 62
     4
  6
Continuous
370
    30
390
F
  0
LAYER
  5
71
330
2
100
AcDbSymbolTableRecord
100
AcDbLayerTableRecord
  2
숨은선
 70
     0
 62
     2
  6
HIDDEN
370
    15
390
F
  0
LAYER
  5
72
330
2
100
AcDbSymbolTableRecord
100
AcDbLayerTableRecord
  2
중심선
 70
     0
 62
     1
  6
CENTERX2
370
    -3
390
F
  0
LAYER
  5
73
330
2
100
AcDbSymbolTableRecord
100
AcDbLayerTableRecord
  2
파단선
 70
     0
 62
     4
  6
Continuous
370
    -3
390
F
  0
LAYER
  5
74
330
2
100
AcDbSymbolTableRecord
100
AcDbLayerTableRecord
  2
해칭선
 70
     0
 62
   100
  6
Continuous
370
    -3
390
F
  0
LAYER
  5
75
330
2
100
AcDbSymbolTableRecord
100
AcDbLayerTableRecord
  2
가는실선
 70
     0
 62
     4
  6
Continuous
370
    -3
390
F
  0
LAYER
  5
76
330
2
100
AcDbSymbolTableRecord
100
AcDbLayerTableRecord
  2
치수_보조선
 70
     0
 62
     4
  6
Continuous
370
    -3
390
F
  0
LAYER
  5
77
330
2
100
AcDbSymbolTableRecord
100
AcDbLayerTableRecord
  2
치수문자_일반주서
 70
     0
 62
     7
  6
Continuous
370
    15
390
F
  0
LAYER
  5
78
330
2
100
AcDbSymbolTableRecord
100
AcDbLayerTableRecord
  2
개별주서
 70
     0
 62
   100
  6
Continuous
370
    30
390
F
  0
LAYER
  5
79
330
2
100
AcDbSymbolTableRecord
100
AcDbLayerTableRecord
  2
중간선
 70
     0
 62
     2
  6
Continuous
370
    15
390
F
  0
LAYER
  5
7A
330
2
100
AcDbSymbolTableRecord
100
AcDbLayerTableRecord
  2
윤곽선
 70
     0
 62
     3
  6
Continuous
370
    40
390
F
  0
LAYER
  5
7B
330
2
100
AcDbSymbolTableRecord
100
AcDbLayerTableRecord
  2
중심마크
 70
     0
 62
   100
  6
Continuous
370
    30
390
F
  0
LAYER
  5
7C
330
2
100
AcDbSymbolTableRecord
100
AcDbLayerTableRecord
  2
가상선
 70
     0
 62
     4
  6
PHANTOM
370
    -3
390
F
  0
LAYER
  5
7D
330
2
100
AcDbSymbolTableRecord
100
AcDbLayerTableRecord
  2
특수지정선
 70
     0
 62
     5
  6
CENTERX2
370
    60
390
F
  0
LAYER
  5
7E
330
2
100
AcDbSymbolTableRecord
100
AcDbLayerTableRecord
  2
참조1
 70
     0
 62
    -4
  6
Continuous
370
    -3
390
F
  0
LAYER
  5
144
330
2
100
AcDbSymbolTableRecord
100
AcDbLayerTableRecord
  2
Defpoints
 70
     0
 62
     7
  6
Continuous
290
     0
370
    -3
390
F
  0
ENDTAB
  0
TABLE
  2
STYLE
  5
3
330
0
100
AcDbSymbolTable
 70
     2
  0
STYLE
  5
11
330
3
100
AcDbSymbolTableRecord
100
AcDbTextStyleTableRecord
  2
Standard
 70
     0
 40
0.0
 41
1.0
 50
0.0
 71
     0
 42
3.5
  3
txt
  4

  0
STYLE
  5
94
330
3
100
AcDbSymbolTableRecord
100
AcDbTextStyleTableRecord
  2
SLDTEXTSTYLE0
 70
     0
 40
0.0
 41
0.75
 50
0.0
 71
     0
 42
3.5
  3
TXT
  4

  0
ENDTAB
  0
TABLE
  2
VIEW
  5
6
330
0
100
AcDbSymbolTable
 70
     0
  0
ENDTAB
  0
TABLE
  2
UCS
  5
7
330
0
100
AcDbSymbolTable
 70
     0
  0
ENDTAB
  0
TABLE
  2
APPID
  5
9
330
0
100
AcDbSymbolTable
 70
     3
  0
APPID
  5
12
330
9
100
AcDbSymbolTableRecord
100
AcDbRegAppTableRecord
  2
ACAD
 70
     0
  0
APPID
  5
150
330
9
100
AcDbSymbolTableRecord
100
AcDbRegAppTableRecord
  2
PE_URL
 70
     0
  0
APPID
  5
153
330
9
100
AcDbSymbolTableRecord
100
AcDbRegAppTableRecord
  2
ACAD_DSTYLE_DIMRADIAL_EXTENSION
 70
     0
  0
ENDTAB
  0
TABLE
  2
DIMSTYLE
  5
A
330
0
100
AcDbSymbolTable
 70
     3
100
AcDbDimStyleTable
  0
DIMSTYLE
105
27
102
{ACAD_REACTORS
330
154
102
}
330
A
100
AcDbSymbolTableRecord
100
AcDbDimStyleTableRecord
  2
ISO-25
 70
     0
 41
2.5
 42
0.625
 43
3.75
 44
1.25
 73
     0
 74
     0
 77
     1
 78
     8
140
2.5
141
2.5
143
0.03937007874016
147
0.625
171
     3
172
     1
178
     0
271
     2
272
     2
274
     3
278
    44
283
     0
284
     8
340
11
  0
DIMSTYLE
105
D3
330
A
100
AcDbSymbolTableRecord
100
AcDbDimStyleTableRecord
  2
SLDDIMSTYLE0
 70
     0
 41
3.302
 44
0.0
 45
0.000000001
 73
     0
 74
     0
 77
     1
 78
    12
 79
     3
140
3.5
147
0.875
173
     1
178
     0
271
     2
272
     2
276
     2
284
    12
340
94
  0
DIMSTYLE
105
E0
102
{ACAD_REACTORS
330
DF
330
D2
330
ED
330
F7
330
101
102
}
330
A
100
AcDbSymbolTableRecord
100
AcDbDimStyleTableRecord
  2
SLDDIMSTYLE1
 70
     0
 41
3.302
 44
0.0
 45
0.000000001
 73
     0
 74
     0
 77
     1
 78
    12
 79
     3
140
3.5
147
0.875
172
     1
173
     1
178
     0
271
     2
272
     2
276
     2
284
    12
289
     0
340
94
  0
ENDTAB
  0
TABLE
  2
BLOCK_RECORD
  5
1
330
0
100
AcDbSymbolTable
 70
     9
  0
BLOCK_RECORD
  5
1F
330
1
100
AcDbSymbolTableRecord
100
AcDbBlockTableRecord
  2
*Model_Space
340
22
  0
BLOCK_RECORD
  5
1B
330
1
100
AcDbSymbolTableRecord
100
AcDbBlockTableRecord
  2
*Paper_Space
340
1E
  0
BLOCK_RECORD
  5
23
330
1
100
AcDbSymbolTableRecord
100
AcDbBlockTableRecord
  2
*Paper_Space0
340
26
  0
BLOCK_RECORD
  5
7F
330
1
100
AcDbSymbolTableRecord
100
AcDbBlockTableRecord
  2
블럭10
340
0
102
{BLKREFS
331
CB
102
}
  0
BLOCK_RECORD
  5
D4
330
1
100
AcDbSymbolTableRecord
100
AcDbBlockTableRecord
  2
_D
340
0
  0
BLOCK_RECORD
  5
E1
330
1
100
AcDbSymbolTableRecord
100
AcDbBlockTableRecord
  2
_D_1
340
0
  0
BLOCK_RECORD
  5
EE
330
1
100
AcDbSymbolTableRecord
100
AcDbBlockTableRecord
  2
_D_2
340
0
  0
BLOCK_RECORD
  5
F8
330
1
100
AcDbSymbolTableRecord
100
AcDbBlockTableRecord
  2
_D_3
340
0
  0
BLOCK_RECORD
  5
102
330
1
100
AcDbSymbolTableRecord
100
AcDbBlockTableRecord
  2
_D_4
340
0
  0
BLOCK_RECORD
  5
112
330
1
100
AcDbSymbolTableRecord
100
AcDbBlockTableRecord
  2
SW_DOWELSYMBOL_0
340
0
102
{BLKREFS
331
118
102
}
  0
BLOCK_RECORD
  5
157
330
1
100
AcDbSymbolTableRecord
100
AcDbBlockTableRecord
  2
*D8
340
0
  0
ENDTAB
  0
ENDSEC
  0
SECTION
  2
BLOCKS
  0
BLOCK
  5
20
330
1F
100
AcDbEntity
  8
0
100
AcDbBlockBegin
  2
*Model_Space
 70
     0
 10
0.0
 20
0.0
 30
0.0
  3
*Model_Space
  1

  0
ENDBLK
  5
21
330
1F
100
AcDbEntity
  8
0
100
AcDbBlockEnd
  0
BLOCK
  5
1C
330
1B
100
AcDbEntity
 67
     1
  8
0
100
AcDbBlockBegin
  2
*Paper_Space
 70
     0
 10
0.0
 20
0.0
 30
0.0
  3
*Paper_Space
  1

  0
ENDBLK
  5
1D
330
1B
100
AcDbEntity
 67
     1
  8
0
100
AcDbBlockEnd
  0
BLOCK
  5
24
330
23
100
AcDbEntity
  8
0
100
AcDbBlockBegin
  2
*Paper_Space0
 70
     0
 10
0.0
 20
0.0
 30
0.0
  3
*Paper_Space0
  1

  0
ENDBLK
  5
25
330
23
100
AcDbEntity
  8
0
100
AcDbBlockEnd
  0
BLOCK
  5
80
330
7F
100
AcDbEntity
  8
0
100
AcDbBlockBegin
  2
블럭10
 70
     2
 10
0.0
 20
0.0
 30
0.0
  3
블럭10
  1

  0
ELLIPSE
  5
82
330
7F
100
AcDbEntity
  8
중심선
100
AcDbEllipse
 10
20.54032771741204
 20
12.0471743016438
 30
0.0
 11
6.600054785286829
 21
-1.261213355974178E-13
 31
0.0
210
0.0
220
0.0
230
1.0
 40
0.636358354079598
 41
0.9219305317359503
 42
6.513795318482858
  0
ELLIPSE
  5
83
330
7F
100
AcDbEntity
  8
중심선
100
AcDbEllipse
 10
20.54032771746488
 20
12.04717430159265
 30
0.0
 11
3.960054785062283
 21
1.540847449632565E-10
 31
0.0
210
0.0
220
0.0
230
1.0
 40
0.3939339440162632
 41
1.131841032648279
 42
5.62031148352944
  0
LINE
  5
84
330
7F
100
AcDbEntity
  8
중심선
100
AcDbLine
 10
2.268634060543552
 20
16.24717430164393
 30
0.0
 11
5.714909304380834
 21
16.24717430164393
 31
0.0
  0
LINE
  5
85
330
7F
100
AcDbEntity
  8
중심선
100
AcDbLine
 10
5.245725140726316
 20
7.84717430164391
 30
0.0
 11
8.692000384563599
 21
7.84717430164391
 31
0.0
  0
LINE
  5
86
330
7F
100
AcDbEntity
  8
중심선
100
AcDbLine
 10
15.74043728645272
 20
16.24717430164393
 30
0.0
 11
8.692000384563599
 21
7.84717430164391
 31
0.0
  0
LINE
  5
87
330
7F
100
AcDbEntity
  8
중심선
100
AcDbLine
 10
0.1404042013395286
 20
13.71084872107135
 30
0.0
 11
3.58671253028996
 21
13.71088815037384
 31
0.0
  0
LINE
  5
88
330
7F
100
AcDbEntity
  8
중심선
100
AcDbLine
 10
2.750260043222114
 20
10.84717430164391
 30
0.0
 11
6.196535287059397
 21
10.84717430164391
 31
0.0
  0
LINE
  5
89
330
7F
100
AcDbEntity
  8
중심선
100
AcDbLine
 10
12.29416204261559
 20
16.24717430164393
 30
0.0
 11
5.245725140726316
 21
7.84717430164391
 31
0.0
  0
LINE
  5
8A
330
7F
100
AcDbEntity
  8
중심선
100
AcDbLine
 10
10.72767329541681
 20
16.24717430164393
 30
0.0
 11
6.196535287059397
 21
10.84717430164391
 31
0.0
  0
LINE
  5
8B
330
7F
100
AcDbEntity
  8
중심선
100
AcDbLine
 10
7.28139805157953
 20
16.24717430164393
 30
0.0
 11
2.750260043222114
 21
10.84717430164391
 31
0.0
  0
LINE
  5
8C
330
7F
100
AcDbEntity
  8
중심선
100
AcDbLine
 10
5.714909304380834
 20
16.24717430164393
 30
0.0
 11
3.58671253028996
 21
13.71088815037384
 31
0.0
  0
LINE
  5
8D
330
7F
100
AcDbEntity
  8
중심선
100
AcDbLine
 10
2.268634060543552
 20
16.24717430164393
 30
0.0
 11
0.1404042013395286
 21
13.71084872107135
 31
0.0
  0
LINE
  5
8E
330
7F
100
AcDbEntity
  8
중심선
100
AcDbLine
 10
7.28139805157953
 20
16.24717430164393
 30
0.0
 11
10.72767329541681
 21
16.24717430164393
 31
0.0
  0
LINE
  5
8F
330
7F
100
AcDbEntity
  8
중심선
100
AcDbLine
 10
12.29416204261559
 20
16.24717430164393
 30
0.0
 11
15.74043728645272
 21
16.24717430164393
 31
0.0
  0
LINE
  5
90
330
7F
100
AcDbEntity
  8
중심선
100
AcDbLine
 10
19.22036997980202
 20
11.08717430171403
 30
0.0
 11
23.66174974927406
 21
11.08717430171406
 31
0.0
  0
LINE
  5
91
330
7F
100
AcDbEntity
  8
중심선
100
AcDbLine
 10
19.22039502424796
 20
13.00717430171391
 30
0.0
 11
19.22036997980202
 21
11.08717430171403
 31
0.0
  0
LINE
  5
92
330
7F
100
AcDbEntity
  8
중심선
100
AcDbLine
 10
19.22039502424796
 20
13.00717430171391
 30
0.0
 11
26.96566020931264
 21
13.00717430171391
 31
0.0
  0
LINE
  5
93
330
7F
100
AcDbEntity
  8
중심선
100
AcDbLine
 10
22.22332737316547
 20
13.45928029700563
 30
0.0
 11
24.52862924686651
 21
15.39360700705356
 31
0.0
  0
ATTDEF
  5
95
330
7F
100
AcDbEntity
  8
FORMAT
 62
     2
100
AcDbText
 10
-7.268459303319146
 20
2.075366912832191
 30
0.0
 40
4.233333333333333
  1
SEME6412005110E
 41
0.75
  7
SLDTEXTSTYLE0
 11
-7.268459303319146
 21
-0.0412997538344756
 31
0.0
100
AcDbAttributeDefinition
  3

  2
AUTOATTR0
 70
     0
 74
     1
  0
ENDBLK
  5
81
330
7F
100
AcDbEntity
  8
0
100
AcDbBlockEnd
  0
BLOCK
  5
D5
330
D4
100
AcDbEntity
  8
0
100
AcDbBlockBegin
  2
_D
 70
     0
 10
0.0
 20
0.0
 30
0.0
  3
_D
  1

  0
LINE
  5
D7
330
D4
100
AcDbEntity
  8
치수문자_일반주서
 62
     0
370
    -2
100
AcDbLine
 10
38.43853232075094
 20
6.000000000000004
 30
0.0
 11
69.26259926472807
 21
6.00000000000012
 31
0.0
  0
LINE
  5
D8
330
D4
100
AcDbEntity
  8
치수문자_일반주서
 62
     0
370
    -2
100
AcDbLine
 10
38.43853232075094
 20
-5.999999999999994
 30
0.0
 11
69.26259926472811
 21
-5.999999999999876
 31
0.0
  0
LINE
  5
D9
330
D4
100
AcDbEntity
  8
치수문자_일반주서
 62
     0
370
    -2
100
AcDbLine
 10
69.26259926472807
 20
6.00000000000012
 30
0.0
 11
69.26259926472801
 21
20.47900000000012
 31
0.0
  0
LINE
  5
DA
330
D4
100
AcDbEntity
  8
치수문자_일반주서
 62
     0
370
    -2
100
AcDbLine
 10
69.26259926472807
 20
6.00000000000012
 30
0.0
 11
69.26259926472811
 21
-5.999999999999876
 31
0.0
  0
LINE
  5
DB
330
D4
100
AcDbEntity
  8
치수문자_일반주서
 62
     0
370
    -2
100
AcDbLine
 10
69.26259926472805
 20
9.30200000000012
 30
0.0
 11
69.26259926472804
 21
12.60400000000012
 31
0.0
  0
LINE
  5
DC
330
D4
100
AcDbEntity
  8
치수문자_일반주서
 62
     0
370
    -2
100
AcDbLine
 10
69.26259926472812
 20
-9.301999999999875
 30
0.0
 11
69.26259926472814
 21
-12.60399999999987
 31
0.0
  0
SOLID
  5
DD
330
D4
100
AcDbEntity
  8
치수문자_일반주서
 62
     0
100
AcDbTrace
 10
68.71226593139473
 20
9.302000000000119
 30
0.0
 11
69.81293259806138
 21
9.302000000000122
 31
0.0
 12
69.26259926472807
 22
6.00000000000012
 32
0.0
 13
69.26259926472807
 23
6.00000000000012
 33
0.0
  0
SOLID
  5
DE
330
D4
100
AcDbEntity
  8
치수문자_일반주서
 62
     0
100
AcDbTrace
 10
69.81293259806145
 20
-9.301999999999873
 30
0.0
 11
68.7122659313948
 21
-9.301999999999877
 31
0.0
 12
69.26259926472811
 22
-5.999999999999876
 32
0.0
 13
69.26259926472811
 23
-5.999999999999876
 33
0.0
  0
MTEXT
  5
145
330
D4
100
AcDbEntity
  8
치수문자_일반주서
 62
     0
100
AcDbMText
 10
64.88759926472802
 20
16.5415000000001
 30
0.0
 40
3.5
 41
0.0
 71
     2
 72
     1
  1
\A1;%%c12
  7
SLDTEXTSTYLE0
 11
-3.552713678800502E-15
 21
1.0
 31
0.0
 73
     1
 44
1.0
  0
POINT
  5
146
330
D4
100
AcDbEntity
  8
Defpoints
 62
     0
100
AcDbPoint
 10
38.37603232075094
 20
6.000000000000004
 30
0.0
  0
POINT
  5
151
330
D4
100
AcDbEntity
  8
Defpoints
 62
     0
100
AcDbPoint
 10
38.37603232075094
 20
-5.999999999999994
 30
0.0
  0
POINT
  5
152
330
D4
100
AcDbEntity
  8
Defpoints
 62
     0
100
AcDbPoint
 10
69.26259926472811
 20
-5.999999999999878
 30
0.0
  0
ENDBLK
  5
D6
330
D4
100
AcDbEntity
  8
0
100
AcDbBlockEnd
  0
BLOCK
  5
E2
330
E1
100
AcDbEntity
  8
0
100
AcDbBlockBegin
  2
_D_1
 70
     0
 10
0.0
 20
0.0
 30
0.0
  3
_D_1
  1

  0
LINE
  5
E4
330
E1
100
AcDbEntity
  8
치수문자_일반주서
 62
     0
370
    -2
100
AcDbLine
 10
-58.71249999999998
 20
6.000000000000005
 30
0.0
 11
-68.6384684361648
 21
5.999999999999968
 31
0.0
  0
LINE
  5
E5
330
E1
100
AcDbEntity
  8
치수문자_일반주서
 62
     0
370
    -2
100
AcDbLine
 10
-58.71249999999998
 20
-6.000000000000005
 30
0.0
 11
-68.63846843616476
 21
-6.000000000000043
 31
0.0
  0
LINE
  5
E6
330
E1
100
AcDbEntity
  8
치수문자_일반주서
 62
     0
370
    -2
100
AcDbLine
 10
-68.63846843616479
 20
2.697999999999968
 30
0.0
 11
-68.63846843616477
 21
-2.698000000000043
 31
0.0
  0
SOLID
  5
E7
330
E1
100
AcDbEntity
  8
치수문자_일반주서
 62
     0
100
AcDbTrace
 10
-68.08813510283146
 20
2.69799999999997
 30
0.0
 11
-69.18880176949811
 21
2.697999999999967
 31
0.0
 12
-68.6384684361648
 22
5.999999999999968
 32
0.0
 13
-68.6384684361648
 23
5.999999999999968
 33
0.0
  0
SOLID
  5
E8
330
E1
100
AcDbEntity
  8
치수문자_일반주서
 62
     0
100
AcDbTrace
 10
-69.1888017694981
 20
-2.698000000000045
 30
0.0
 11
-68.08813510283144
 21
-2.698000000000041
 31
0.0
 12
-68.63846843616476
 22
-6.000000000000043
 32
0.0
 13
-68.63846843616476
 23
-6.000000000000043
 33
0.0
  0
MTEXT
  5
E9
330
E1
100
AcDbEntity
  8
치수문자_일반주서
 62
     0
100
AcDbMText
 10
-73.01346843616479
 20
-0.0000000000000108
 30
0.0
 40
3.5
 41
0.0
 71
     2
 72
     1
  1
\A1;%%c12
  7
SLDTEXTSTYLE0
 11
-3.552713678800498E-15
 21
1.0
 31
0.0
 73
     1
 44
1.0
  0
POINT
  5
EA
330
E1
100
AcDbEntity
  8
Defpoints
 62
     0
100
AcDbPoint
 10
-58.64999999999998
 20
6.000000000000005
 30
0.0
  0
POINT
  5
EB
330
E1
100
AcDbEntity
  8
Defpoints
 62
     0
100
AcDbPoint
 10
-58.64999999999998
 20
-6.000000000000005
 30
0.0
  0
POINT
  5
EC
330
E1
100
AcDbEntity
  8
Defpoints
 62
     0
100
AcDbPoint
 10
-68.63846843616479
 20
-6.000000000000043
 30
0.0
  0
ENDBLK
  5
E3
330
E1
100
AcDbEntity
  8
0
100
AcDbBlockEnd
  0
BLOCK
  5
EF
330
EE
100
AcDbEntity
  8
0
100
AcDbBlockBegin
  2
_D_2
 70
     0
 10
0.0
 20
0.0
 30
0.0
  3
_D_2
  1

  0
LINE
  5
F1
330
EE
100
AcDbEntity
  8
치수문자_일반주서
 62
     0
370
    -2
100
AcDbLine
 10
50.15000000000001
 20
5.530795457571534
 30
0.0
 11
50.15000000000001
 21
15.60433422161454
 31
0.0
  0
LINE
  5
F2
330
EE
100
AcDbEntity
  8
치수문자_일반주서
 62
     0
370
    -2
100
AcDbLine
 10
20.15000000000001
 20
5.976891029504524
 30
0.0
 11
20.15000000000001
 21
15.60433422161454
 31
0.0
  0
LINE
  5
F3
330
EE
100
AcDbEntity
  8
치수문자_일반주서
 62
     0
370
    -2
100
AcDbLine
 10
46.84800000000001
 20
15.60433422161454
 30
0.0
 11
23.45200000000001
 21
15.60433422161454
 31
0.0
  0
SOLID
  5
F4
330
EE
100
AcDbEntity
  8
치수문자_일반주서
 62
     0
100
AcDbTrace
 10
46.84800000000001
 20
15.0540008882812
 30
0.0
 11
46.84800000000001
 21
16.15466755494787
 31
0.0
 12
50.15000000000001
 22
15.60433422161454
 32
0.0
 13
50.15000000000001
 23
15.60433422161454
 33
0.0
  0
SOLID
  5
F5
330
EE
100
AcDbEntity
  8
치수문자_일반주서
 62
     0
100
AcDbTrace
 10
23.45200000000001
 20
16.15466755494787
 30
0.0
 11
23.45200000000001
 21
15.0540008882812
 31
0.0
 12
20.15000000000001
 22
15.60433422161454
 32
0.0
 13
20.15000000000001
 23
15.60433422161454
 33
0.0
  0
MTEXT
  5
F6
330
EE
100
AcDbEntity
  8
치수문자_일반주서
 62
     0
100
AcDbMText
 10
35.15
 20
19.97933422161454
 30
0.0
 40
3.5
 41
0.0
 71
     2
 72
     1
  1
\A1;30
  7
SLDTEXTSTYLE0
 73
     1
 44
1.0
  0
POINT
  5
147
330
EE
100
AcDbEntity
  8
Defpoints
 62
     0
100
AcDbPoint
 10
50.15000000000001
 20
5.468295457571534
 30
0.0
  0
POINT
  5
148
330
EE
100
AcDbEntity
  8
Defpoints
 62
     0
100
AcDbPoint
 10
20.15000000000001
 20
5.914391029504524
 30
0.0
  0
POINT
  5
149
330
EE
100
AcDbEntity
  8
Defpoints
 62
     0
100
AcDbPoint
 10
20.15000000000001
 20
15.60433422161454
 30
0.0
  0
ENDBLK
  5
F0
330
EE
100
AcDbEntity
  8
0
100
AcDbBlockEnd
  0
BLOCK
  5
F9
330
F8
100
AcDbEntity
  8
0
100
AcDbBlockBegin
  2
_D_3
 70
     0
 10
0.0
 20
0.0
 30
0.0
  3
_D_3
  1

  0
LINE
  5
FB
330
F8
100
AcDbEntity
  8
치수문자_일반주서
 62
     0
370
    -2
100
AcDbLine
 10
50.15000000000001
 20
5.530795457571534
 30
0.0
 11
50.15000000000001
 21
21.60433422161451
 31
0.0
  0
LINE
  5
FC
330
F8
100
AcDbEntity
  8
치수문자_일반주서
 62
     0
370
    -2
100
AcDbLine
 10
0.1500000000000057
 20
5.912499999999999
 30
0.0
 11
0.1500000000000057
 21
21.60433422161451
 31
0.0
  0
LINE
  5
FD
330
F8
100
AcDbEntity
  8
치수문자_일반주서
 62
     0
370
    -2
100
AcDbLine
 10
46.84800000000001
 20
21.60433422161451
 30
0.0
 11
3.452000000000005
 21
21.60433422161451
 31
0.0
  0
SOLID
  5
FE
330
F8
100
AcDbEntity
  8
치수문자_일반주서
 62
     0
100
AcDbTrace
 10
46.84800000000001
 20
21.05400088828118
 30
0.0
 11
46.84800000000001
 21
22.15466755494785
 31
0.0
 12
50.15000000000001
 22
21.60433422161451
 32
0.0
 13
50.15000000000001
 23
21.60433422161451
 33
0.0
  0
SOLID
  5
FF
330
F8
100
AcDbEntity
  8
치수문자_일반주서
 62
     0
100
AcDbTrace
 10
3.452000000000005
 20
22.15466755494785
 30
0.0
 11
3.452000000000005
 21
21.05400088828118
 31
0.0
 12
0.1500000000000057
 22
21.60433422161451
 32
0.0
 13
0.1500000000000057
 23
21.60433422161451
 33
0.0
  0
MTEXT
  5
100
330
F8
100
AcDbEntity
  8
치수문자_일반주서
 62
     0
100
AcDbMText
 10
25.15000000000001
 20
25.97933422161451
 30
0.0
 40
3.5
 41
0.0
 71
     2
 72
     1
  1
\A1;50
  7
SLDTEXTSTYLE0
 73
     1
 44
1.0
  0
POINT
  5
14A
330
F8
100
AcDbEntity
  8
Defpoints
 62
     0
100
AcDbPoint
 10
50.15000000000001
 20
5.468295457571534
 30
0.0
  0
POINT
  5
14B
330
F8
100
AcDbEntity
  8
Defpoints
 62
     0
100
AcDbPoint
 10
0.1500000000000057
 20
5.849999999999999
 30
0.0
  0
POINT
  5
14C
330
F8
100
AcDbEntity
  8
Defpoints
 62
     0
100
AcDbPoint
 10
0.1500000000000057
 20
21.60433422161451
 30
0.0
  0
ENDBLK
  5
FA
330
F8
100
AcDbEntity
  8
0
100
AcDbBlockEnd
  0
BLOCK
  5
103
330
102
100
AcDbEntity
  8
0
100
AcDbBlockBegin
  2
_D_4
 70
     0
 10
0.0
 20
0.0
 30
0.0
  3
_D_4
  1

  0
LINE
  5
105
330
102
100
AcDbEntity
  8
치수문자_일반주서
 62
     0
370
    -2
100
AcDbLine
 10
50.15000000000001
 20
5.530795457571534
 30
0.0
 11
50.15000000000001
 21
30.01183152277643
 31
0.0
  0
LINE
  5
106
330
102
100
AcDbEntity
  8
치수문자_일반주서
 62
     0
370
    -2
100
AcDbLine
 10
-59.84999999999999
 20
4.862500000000012
 30
0.0
 11
-59.84999999999999
 21
30.01183152277643
 31
0.0
  0
LINE
  5
107
330
102
100
AcDbEntity
  8
치수문자_일반주서
 62
     0
370
    -2
100
AcDbLine
 10
46.84800000000001
 20
30.01183152277643
 30
0.0
 11
-56.54799999999999
 21
30.01183152277643
 31
0.0
  0
SOLID
  5
108
330
102
100
AcDbEntity
  8
치수문자_일반주서
 62
     0
100
AcDbTrace
 10
46.84800000000001
 20
29.46149818944309
 30
0.0
 11
46.84800000000001
 21
30.56216485610976
 31
0.0
 12
50.15000000000001
 22
30.01183152277643
 32
0.0
 13
50.15000000000001
 23
30.01183152277643
 33
0.0
  0
SOLID
  5
109
330
102
100
AcDbEntity
  8
치수문자_일반주서
 62
     0
100
AcDbTrace
 10
-56.54799999999999
 20
30.56216485610976
 30
0.0
 11
-56.54799999999999
 21
29.46149818944309
 31
0.0
 12
-59.84999999999999
 22
30.01183152277643
 32
0.0
 13
-59.84999999999999
 23
30.01183152277643
 33
0.0
  0
MTEXT
  5
10A
330
102
100
AcDbEntity
  8
치수문자_일반주서
 62
     0
100
AcDbMText
 10
-4.849999999999993
 20
34.38683152277643
 30
0.0
 40
3.5
 41
0.0
 71
     2
 72
     1
  1
\A1;110
  7
SLDTEXTSTYLE0
 73
     1
 44
1.0
  0
POINT
  5
14D
330
102
100
AcDbEntity
  8
Defpoints
 62
     0
100
AcDbPoint
 10
50.15000000000001
 20
5.468295457571534
 30
0.0
  0
POINT
  5
14E
330
102
100
AcDbEntity
  8
Defpoints
 62
     0
100
AcDbPoint
 10
-59.84999999999999
 20
4.800000000000012
 30
0.0
  0
POINT
  5
14F
330
102
100
AcDbEntity
  8
Defpoints
 62
     0
100
AcDbPoint
 10
-59.84999999999999
 20
30.01183152277643
 30
0.0
  0
ENDBLK
  5
104
330
102
100
AcDbEntity
  8
0
100
AcDbBlockEnd
  0
BLOCK
  5
113
330
112
100
AcDbEntity
  8
0
100
AcDbBlockBegin
  2
SW_DOWELSYMBOL_0
 70
     0
 10
0.0
 20
0.0
 30
0.0
  3
SW_DOWELSYMBOL_0
  1

  0
CIRCLE
  5
115
330
112
100
AcDbEntity
  8
해칭선
 62
     0
100
AcDbCircle
 10
0.0
 20
0.0
 30
0.0
 40
3.000000000000001
  0
HATCH
  5
116
330
112
100
AcDbEntity
  8
0
  6
Continuous
 62
     0
370
     0
100
AcDbHatch
 10
0.0
 20
0.0
 30
0.0
210
0.0
220
0.0
230
1.0
  2
SOLID
 70
     1
 71
     0
 91
        1
 92
        0
 93
        3
 72
     2
 10
0.0
 20
0.0
 40
3.000000000000001
 50
0.0
 51
90.0
 73
     1
 72
     1
 10
0.0
 20
3.000000000000001
 11
0.0
 21
0.0
 72
     1
 10
0.0
 20
0.0
 11
3.000000000000003
 21
0.0
 97
        0
 75
     0
 76
     1
 98
        1
 10
0.0
 20
0.0
  0
HATCH
  5
117
330
112
100
AcDbEntity
  8
0
  6
Continuous
 62
     0
370
     0
100
AcDbHatch
 10
0.0
 20
0.0
 30
0.0
210
0.0
220
0.0
230
1.0
  2
SOLID
 70
     1
 71
     0
 91
        1
 92
        0
 93
        3
 72
     2
 10
0.0
 20
0.0
 40
3.000000000000001
 50
180.0
 51
270.0000000000008
 73
     1
 72
     1
 10
0.0
 20
-3.000000000000001
 11
0.0
 21
0.0
 72
     1
 10
0.0
 20
0.0
 11
-3.000000000000003
 21
0.0
 97
        0
 75
     0
 76
     1
 98
        1
 10
0.0
 20
0.0
  0
ENDBLK
  5
114
330
112
100
AcDbEntity
  8
0
100
AcDbBlockEnd
  0
BLOCK
  5
158
330
157
100
AcDbEntity
  8
0
100
AcDbBlockBegin
  2
*D8
 70
     1
 10
0.0
 20
0.0
 30
0.0
  3
*D8
  1

  0
LINE
  5
15A
330
157
100
AcDbEntity
  8
0
 62
     0
370
    -2
100
AcDbLine
 10
67.65993118810789
 20
-13.54677768257017
 30
0.0
 11
52.71926452144122
 21
-13.54677768257017
 31
0.0
  0
LINE
  5
15B
330
157
100
AcDbEntity
  8
0
 62
     0
370
    -2
100
AcDbLine
 10
52.71926452144122
 20
-13.54677768257017
 30
0.0
 11
51.0003231290462
 21
-9.0224242463414
 31
0.0
  0
MTEXT
  5
15C
330
157
100
AcDbEntity
  8
0
 62
     0
100
AcDbMText
 10
60.95159785477455
 20
-9.981111015903501
 30
0.0
 40
3.5
 41
0.0
 71
     5
 72
     1
  1
R0,50
 73
     1
 44
1.0
  0
LINE
  5
15D
330
157
100
AcDbEntity
  8
0
 62
     0
370
    -2
100
AcDbLine
 10
49.65000000000001
 20
-5.468295457571514
 30
0.0
 11
49.82758063243639
 21
-5.935697981081494
 31
0.0
  0
SOLID
  5
15E
330
157
100
AcDbEntity
  8
0
 62
     0
100
AcDbTrace
 10
51.51477750658952
 20
-8.826967163573096
 30
0.0
 11
50.48586875150288
 21
-9.217881329109703
 31
0.0
 12
49.82758063243639
 22
-5.935697981081494
 32
0.0
 13
49.82758063243639
 23
-5.935697981081494
 33
0.0
  0
POINT
  5
15F
330
157
100
AcDbEntity
  8
Defpoints
 62
     0
100
AcDbPoint
 10
49.82758063243639
 20
-5.935697981081494
 30
0.0
  0
POINT
  5
160
330
157
100
AcDbEntity
  8
Defpoints
 62
     0
100
AcDbPoint
 10
49.65000000000001
 20
-5.468295457571514
 30
0.0
  0
ENDBLK
  5
159
330
157
100
AcDbEntity
  8
0
100
AcDbBlockEnd
  0
ENDSEC
  0
SECTION
  2
ENTITIES
  0
LINE
  5
96
330
1F
100
AcDbEntity
  8
외형선
  6
Continuous
 62
     1
370
    15
100
AcDbLine
 10
34.7177127511445
 20
-5.999999999999995
 30
0.0
 11
38.37549493885043
 21
-5.999999999999994
 31
0.0
  0
LINE
  5
97
330
1F
100
AcDbEntity
  8
외형선
  6
Continuous
 62
     1
370
    15
100
AcDbLine
 10
22.05135454329266
 20
6.000000000000002
 30
0.0
 11
20.15000000000001
 21
6.000000000000001
 31
0.0
  0
LINE
  5
98
330
1F
100
AcDbEntity
  8
외형선
  6
Continuous
 62
     1
370
    15
100
AcDbLine
 10
38.37549493885043
 20
6.000000000000004
 30
0.0
 11
34.71771275114455
 21
6.000000000000003
 31
0.0
  0
LINE
  5
99
330
1F
100
AcDbEntity
  8
외형선
  6
Continuous
 62
     1
370
    15
100
AcDbLine
 10
20.15000000000001
 20
-5.999999999999996
 30
0.0
 11
22.05135454329259
 21
-5.999999999999996
 31
0.0
  0
LINE
  5
9A
330
1F
100
AcDbEntity
  8
외형선
  6
Continuous
370
    15
100
AcDbLine
 10
-58.64999999999998
 20
-6.0
 30
0.0
 11
0.0
 21
-6.0
 31
0.0
  0
LINE
  5
9B
330
1F
100
AcDbEntity
  8
외형선
  6
Continuous
370
    15
100
AcDbLine
 10
0.0
 20
6.0
 30
0.0
 11
-58.64999999999998
 21
6.0
 31
0.0
  0
LINE
  5
9C
330
1F
100
AcDbEntity
  8
외형선
  6
Continuous
370
    15
100
AcDbLine
 10
-58.64999999999998
 20
6.0
 30
0.0
 11
-59.84999999999999
 21
4.800000000000012
 31
0.0
  0
LINE
  5
9D
330
1F
100
AcDbEntity
  8
외형선
  6
Continuous
370
    15
100
AcDbLine
 10
-59.84999999999999
 20
-4.800000000000013
 30
0.0
 11
-58.64999999999998
 21
-6.0
 31
0.0
  0
LINE
  5
9E
330
1F
100
AcDbEntity
  8
외형선
  6
Continuous
370
    15
100
AcDbLine
 10
0.0
 20
-6.0
 30
0.0
 11
0.1500000000000057
 21
-5.85
 31
0.0
  0
LINE
  5
9F
330
1F
100
AcDbEntity
  8
외형선
  6
Continuous
370
    15
100
AcDbLine
 10
0.1500000000000057
 20
5.849999999999999
 30
0.0
 11
0.0
 21
6.0
 31
0.0
  0
LINE
  5
A0
330
1F
100
AcDbEntity
  8
외형선
  6
Continuous
370
    15
100
AcDbLine
 10
0.1500000000000057
 20
-5.85
 30
0.0
 11
20.15000000000001
 21
-5.85
 31
0.0
  0
LINE
  5
A1
330
1F
100
AcDbEntity
  8
외형선
  6
Continuous
370
    15
100
AcDbLine
 10
20.15000000000001
 20
5.849999999999999
 30
0.0
 11
0.1500000000000057
 21
5.849999999999999
 31
0.0
  0
SPLINE
  5
A2
330
1F
100
AcDbEntity
  8
외형선
  6
Continuous
 62
     1
370
    15
100
AcDbSpline
210
0.0
220
0.0
230
1.0
 70
     8
 71
     3
 72
    14
 73
    10
 74
     0
 42
0.000000001
 43
0.00000001
 40
0.0
 40
0.0
 40
0.0
 40
0.0
 40
0.25
 40
0.25
 40
0.5
 40
0.5
 40
0.75
 40
0.75
 40
1.0
 40
1.0
 40
1.0
 40
1.0
 10
49.65000000000001
 20
0.8014316404216669
 30
0.0
 10
49.70968983405981
 20
0.7672863444884684
 30
0.0
 10
49.76979525714207
 20
0.7347661541074407
 30
0.0
 10
49.88775994563571
 20
0.6758263270275631
 30
0.0
 10
49.94369372389163
 20
0.6504435083911332
 30
0.0
 10
50.04116646076526
 20
0.611204903488471
 30
0.0
 10
50.08151677330054
 20
0.597861842554171
 30
0.0
 10
50.13582133345304
 20
0.5845832608180371
 30
0.0
 10
50.14999999999998
 20
0.5844721389750908
 30
0.0
 10
50.15000000000001
 20
0.5896988966450737
 30
0.0
  0
LINE
  5
A3
330
1F
100
AcDbEntity
  8
외형선
  6
Continuous
 62
     1
370
    15
100
AcDbLine
 10
50.15000000000001
 20
-5.030532229978355
 30
0.0
 11
50.15000000000001
 21
0.5891892091271704
 31
0.0
  0
SPLINE
  5
A4
330
1F
100
AcDbEntity
  8
외형선
  6
Continuous
 62
     1
370
    15
100
AcDbSpline
210
0.0
220
0.0
230
1.0
 70
     8
 71
     3
 72
    10
 73
     6
 74
     0
 42
0.000000001
 43
0.00000001
 40
0.0
 40
0.0
 40
0.0
 40
0.0
 40
0.5
 40
0.5
 40
1.0
 40
1.0
 40
1.0
 40
1.0
 10
50.15000000000001
 20
-5.030532229978356
 30
0.0
 10
50.14999999999998
 20
-5.154427337832917
 30
0.0
 10
50.08492504794804
 20
-5.244714136608253
 30
0.0
 10
49.89997108130627
 20
-5.335460718515296
 30
0.0
 10
49.77951226533585
 20
-5.34017345421773
 30
0.0
 10
49.65000000000001
 20
-5.305255226666147
 30
0.0
  0
SPLINE
  5
A5
330
1F
100
AcDbEntity
  8
외형선
  6
Continuous
 62
     1
370
    15
100
AcDbSpline
210
0.0
220
0.0
230
1.0
 70
     8
 71
     3
 72
    21
 73
    17
 74
     0
 42
0.000000001
 43
0.00000001
 40
0.0
 40
0.0
 40
0.0
 40
0.0
 40
0.0748194112713146
 40
0.1496424839206898
 40
0.2244697979786916
 40
0.2993019311432943
 40
0.3741379581231269
 40
0.4489699456110691
 40
0.5237971304621816
 40
0.5986200904454446
 40
0.6769989245659379
 40
0.7553777072996757
 40
0.8337564396486897
 40
0.9121351226154194
 40
0.9905137572026886
 40
1.0
 40
1.0
 40
1.0
 40
1.0
 10
49.65000000000004
 20
-5.305255226666157
 30
0.0
 10
48.96171626845214
 20
-5.099423017464161
 30
0.0
 10
47.58511512336251
 20
-4.687748526412951
 30
0.0
 10
45.52013290302322
 20
-3.829844302430266
 30
0.0
 10
43.45501106883341
 20
-2.836201184583585
 30
0.0
 10
41.38974473552882
 20
-1.726908205117797
 30
0.0
 10
39.32439996805441
 20
-0.5507647936483445
 30
0.0
 10
37.25913913679947
 20
0.647365560275833
 30
0.0
 10
35.19401379049132
 20
1.819954100468275
 30
0.0
 10
33.09631939998745
 20
2.938239927563688
 30
0.0
 10
30.9658340785096
 20
3.953120580664975
 30
0.0
 10
28.80266997675719
 20
4.811032003199937
 30
0.0
 10
26.63949864346421
 20
5.468177145452146
 30
0.0
 10
24.47633136291817
 20
5.863436456257776
 30
0.0
 10
22.94694990846366
 20
6.03205053281339
 30
0.0
 10
22.13862457229987
 20
5.990673515371055
 30
0.0
 10
22.05135454329266
 20
5.986206287448248
 30
0.0
  0
SPLINE
  5
A6
330
1F
100
AcDbEntity
  8
외형선
  6
Continuous
 62
     1
370
    15
100
AcDbSpline
210
0.0
220
0.0
230
1.0
 70
     8
 71
     3
 72
    18
 73
    14
 74
     0
 42
0.000000001
 43
0.00000001
 40
0.0
 40
0.0
 40
0.0
 40
0.0
 40
0.0023513469285049
 40
0.099364124042504
 40
0.1963705186706972
 40
0.2933708759388363
 40
0.3903659456323749
 40
0.4919717767327421
 40
0.5935775439502262
 40
0.6951832485848912
 40
0.7967888919372963
 40
0.8983944753084914
 40
1.0
 40
1.0
 40
1.0
 40
1.0
 10
28.36030969214362
 20
4.909871286933404
 30
0.0
 10
28.37699624296906
 20
4.91612858828648
 30
0.0
 10
29.08214293398385
 20
5.180552038642199
 30
0.0
 10
30.47572583329163
 20
5.529745827462027
 30
0.0
 10
32.54095077249135
 20
5.91125507954521
 30
0.0
 10
34.60604035289656
 20
6.038275670507385
 30
0.0
 10
36.70370729543829
 20
5.931889925052316
 30
0.0
 10
38.83418298807005
 20
5.575555061338504
 30
0.0
 10
40.99734311663007
 20
4.973442477295309
 30
0.0
 10
43.16051117852876
 20
4.156683751383358
 30
0.0
 10
45.32367511742525
 20
3.159845300536089
 30
0.0
 10
47.48683822240971
 20
2.029070677127258
 30
0.0
 10
48.92894621294534
 20
1.21064457388003
 30
0.0
 10
49.65000000000001
 20
0.8014316404216767
 30
0.0
  0
SPLINE
  5
A8
330
1F
100
AcDbEntity
  8
외형선
  6
Continuous
 62
     1
370
    15
100
AcDbSpline
210
0.0
220
0.0
230
1.0
 70
     8
 71
     3
 72
    19
 73
    15
 74
     0
 42
0.000000001
 43
0.00000001
 40
0.0
 40
0.0
 40
0.0
 40
0.0
 40
0.0509444637729144
 40
0.1350490990261766
 40
0.2191581105800435
 40
0.3032625821057489
 40
0.3873616558965268
 40
0.4714559813131192
 40
0.5595467917244709
 40
0.6476375443816981
 40
0.7357282404109968
 40
0.823818880939015
 40
0.9119094670928422
 40
1.0
 40
1.0
 40
1.0
 40
1.0
 10
44.70602923160109
 20
-4.897639777223261
 30
0.0
 10
44.2890373591425
 20
-5.037661940555704
 30
0.0
 10
43.18363016656141
 20
-5.408847847743456
 30
0.0
 10
41.38974408992317
 20
-5.782109119786982
 30
0.0
 10
39.32440014103803
 20
-6.015871034412542
 30
0.0
 10
37.25913909045185
 20
-6.004439456954823
 30
0.0
 10
35.19401380291299
 20
-5.758979648735731
 30
0.0
 10
33.09631939639444
 20
-5.2788362334013
 30
0.0
 10
30.96583407983955
 20
-4.571543260030062
 30
0.0
 10
28.80266997510589
 20
-3.656057143665413
 30
0.0
 10
26.6394986487394
 20
-2.582505574515818
 30
0.0
 10
24.47633134346883
 20
-1.398369442305895
 30
0.0
 10
22.3131649869833
 20
-0.1504836935516281
 30
0.0
 10
20.87105485037963
 20
0.6773558098560323
 30
0.0
 10
20.15000000000001
 20
1.091275436462189
 30
0.0
  0
SPLINE
  5
A9
330
1F
100
AcDbEntity
  8
외형선
  6
Continuous
370
    15
100
AcDbSpline
210
0.0
220
0.0
230
1.0
 70
    24
 71
     3
 72
    16
 73
    12
 74
     0
 42
0.000000001
 43
0.00000001
 40
0.0
 40
0.0
 40
0.0
 40
0.0
 40
0.0911526823139006
 40
0.203946535769101
 40
0.3135615464876201
 40
0.4263553999428245
 40
0.5359704106613462
 40
0.6487642641165409
 40
0.7583792748350573
 40
0.8711731282902588
 40
1.0
 40
1.0
 40
1.0
 40
1.0
 10
20.15000000000007
 20
1.167259665197394
 30
0.0
 10
20.15000000000003
 20
1.254177408855508
 30
0.0
 10
20.14999999999999
 20
1.448648622054637
 30
0.0
 10
20.14999999999996
 20
1.846666392421705
 30
0.0
 10
20.15000000000006
 20
2.331863176763057
 30
0.0
 10
20.15000000000006
 20
2.869942094453576
 30
0.0
 10
20.14999999999999
 20
3.452163200736909
 30
0.0
 10
20.15000000000002
 20
4.052715721450665
 30
0.0
 10
20.14999999999996
 20
4.664003088121252
 30
0.0
 10
20.14999999999996
 20
5.296802408259955
 30
0.0
 10
20.15000000000001
 20
5.699618384872188
 30
0.0
 10
20.15000000000001
 20
5.914391029504524
 30
0.0
  0
SPLINE
  5
AA
330
1F
100
AcDbEntity
  8
외형선
  6
Continuous
 62
     1
370
    15
100
AcDbSpline
210
0.0
220
0.0
230
1.0
 70
     8
 71
     3
 72
    56
 73
    52
 74
     0
 42
0.000000001
 43
0.00000001
 40
0.0
 40
0.0
 40
0.0
 40
0.0
 40
0.0312499999999993
 40
0.0312499999999993
 40
0.0624999999999987
 40
0.0624999999999987
 40
0.1249999999999973
 40
0.1249999999999973
 40
0.1562499999999966
 40
0.1562499999999966
 40
0.1874999999999959
 40
0.1874999999999959
 40
0.2187499999999953
 40
0.2187499999999953
 40
0.2499999999999946
 40
0.2499999999999946
 40
0.3124999999999933
 40
0.3124999999999933
 40
0.3437499999999931
 40
0.3437499999999931
 40
0.3749999999999929
 40
0.3749999999999929
 40
0.4062499999999927
 40
0.4062499999999927
 40
0.4374999999999926
 40
0.4374999999999926
 40
0.4999999999999922
 40
0.4999999999999922
 40
0.5624999999999919
 40
0.5624999999999919
 40
0.5937499999999922
 40
0.5937499999999922
 40
0.6249999999999926
 40
0.6249999999999926
 40
0.6562499999999929
 40
0.6562499999999929
 40
0.6874999999999932
 40
0.6874999999999932
 40
0.7499999999999949
 40
0.7499999999999949
 40
0.7812499999999958
 40
0.7812499999999958
 40
0.8124999999999967
 40
0.8124999999999967
 40
0.8437499999999976
 40
0.8437499999999976
 40
0.8749999999999984
 40
0.8749999999999984
 40
0.9374999999999992
 40
0.9374999999999992
 40
1.0
 40
1.0
 40
1.0
 40
1.0
 10
49.65000000000001
 20
-5.968295457571514
 30
0.0
 10
49.34262623818167
 20
-5.922536170349146
 30
0.0
 10
49.03409398833984
 20
-5.890993451175413
 30
0.0
 10
48.41835047752888
 20
-5.812566621218294
 30
0.0
 10
48.11227318552078
 20
-5.765752302504318
 30
0.0
 10
47.19336425836661
 20
-5.602866805782085
 30
0.0
 10
46.57351460320334
 20
-5.463723304967397
 30
0.0
 10
45.65464604412579
 20
-5.214067437430852
 30
0.0
 10
45.34854258325614
 20
-5.123938991238003
 30
0.0
 10
44.73278929627434
 20
-4.930117852717244
 30
0.0
 10
44.42425893546929
 20
-4.82652539558037
 30
0.0
 10
43.80952867022895
 20
-4.607219591090228
 30
0.0
 10
43.50454513592204
 20
-4.491679628736106
 30
0.0
 10
42.89020972614575
 20
-4.248595870912093
 30
0.0
 10
42.58173215970013
 20
-4.121140910601882
 30
0.0
 10
41.65782361361376
 20
-3.723248161128918
 30
0.0
 10
41.04722870742065
 20
-3.437829683542206
 30
0.0
 10
40.12293000150655
 20
-2.98364513289911
 30
0.0
 10
39.81468346803464
 20
-2.828100460177775
 30
0.0
 10
39.20152326196758
 20
-2.510581688181894
 30
0.0
 10
38.89593464382211
 20
-2.348503255667791
 30
0.0
 10
38.28042539469934
 20
-2.017847200642926
 30
0.0
 10
37.97186478213711
 20
-1.849503897789906
 30
0.0
 10
37.35677065588006
 20
-1.508775599877404
 30
0.0
 10
37.05163648254768
 20
-1.336659248244668
 30
0.0
 10
36.1308271210501
 20
-0.8147311470898421
 30
0.0
 10
35.51137736139882
 20
-0.4596025343623558
 30
0.0
 10
34.28878037467906
 20
0.2486462422944374
 30
0.0
 10
33.66903220540269
 20
0.6049427817090067
 30
0.0
 10
32.74849524562377
 20
1.130120363348073
 30
0.0
 10
32.44326757027824
 20
1.303624232660603
 30
0.0
 10
31.82805306966517
 20
1.647655483343722
 30
0.0
 10
31.51948778237524
 20
1.817908957124122
 30
0.0
 10
30.90408039165099
 20
2.152882177511806
 30
0.0
 10
30.59864155495573
 20
2.317356363706779
 30
0.0
 10
29.98528141083106
 20
2.640258340852715
 30
0.0
 10
29.67698985110599
 20
2.798739014706061
 30
0.0
 10
28.7527235349804
 20
3.262419931035723
 30
0.0
 10
28.14217589745547
 20
3.555100754541607
 30
0.0
 10
27.21817917697167
 20
3.965204584880566
 30
0.0
 10
26.90972797627757
 20
4.096934084712377
 30
0.0
 10
26.29555578097083
 20
4.348927769771239
 30
0.0
 10
25.99053504968884
 20
4.46912150469678
 30
0.0
 10
25.37566592721155
 20
4.698113963062544
 30
0.0
 10
25.06712154351764
 20
4.806723149876916
 30
0.0
 10
24.45145157097129
 20
5.010870374247492
 30
0.0
 10
24.1455541299873
 20
5.106291713618988
 30
0.0
 10
23.22635824055413
 20
5.372324170256694
 30
0.0
 10
22.6065116305271
 20
5.52293967472187
 30
0.0
 10
21.38174788169486
 20
5.763676464435353
 30
0.0
 10
20.76460274061147
 20
5.854667325868973
 30
0.0
 10
20.15000000000001
 20
5.91439102950452
 30
0.0
  0
SPLINE
  5
AB
330
1F
100
AcDbEntity
  8
외형선
  6
Continuous
 62
     1
370
    15
100
AcDbSpline
210
0.0
220
0.0
230
1.0
 70
     8
 71
     3
 72
    15
 73
    11
 74
     0
 42
0.000000001
 43
0.00000001
 40
0.0
 40
0.0
 40
0.0
 40
0.0
 40
0.1417469241144501
 40
0.2835010621106702
 40
0.4252635117980551
 40
0.5670353664167127
 40
0.7088114021098548
 40
0.8505781103353957
 40
0.9923359954656702
 40
1.0
 40
1.0
 40
1.0
 40
1.0
 10
20.15000000000001
 20
-1.009939973521401
 30
0.0
 10
20.83829324336345
 20
-1.397808259901438
 30
0.0
 10
22.21491475918254
 20
-2.173564572320609
 30
0.0
 10
24.27993083890367
 20
-3.240883335510921
 30
0.0
 10
26.34509024006283
 20
-4.184057314727068
 30
0.0
 10
28.41038609250957
 20
-4.959918397663663
 30
0.0
 10
30.47572399268084
 20
-5.547884663853888
 30
0.0
 10
32.54095139319654
 20
-5.891006808072566
 30
0.0
 10
33.95493181419219
 20
-6.034876892486828
 30
0.0
 10
34.68049771927093
 20
-5.995955867932948
 30
0.0
 10
34.7177127511445
 20
-5.993959567997702
 30
0.0
  0
LINE
  5
AC
330
1F
100
AcDbEntity
  8
외형선
  6
Continuous
370
    15
100
AcDbLine
 10
20.15000000000001
 20
1.091275436462189
 30
0.0
 11
20.15000000000001
 21
-1.0099399735214
 31
0.0
  0
SPLINE
  5
AD
330
1F
100
AcDbEntity
  8
외형선
  6
Continuous
 62
     1
370
    15
100
AcDbSpline
210
0.0
220
0.0
230
1.0
 70
     8
 71
     3
 72
    10
 73
     6
 74
     0
 42
0.000000001
 43
0.00000001
 40
0.0
 40
0.0
 40
0.0
 40
0.0
 40
0.5
 40
0.5
 40
1.0
 40
1.0
 40
1.0
 40
1.0
 10
50.15000000000001
 20
2.223453503707406
 30
0.0
 10
50.15000000000001
 20
2.308081317182721
 30
0.0
 10
50.08492504794818
 20
2.424279554605806
 30
0.0
 10
49.89997108130637
 20
2.637430933547089
 30
0.0
 10
49.77951226533582
 20
2.736445880272206
 30
0.0
 10
49.65000000000001
 20
2.802546516996859
 30
0.0
  0
LINE
  5
AE
330
1F
100
AcDbEntity
  8
외형선
  6
Continuous
 62
     1
370
    15
100
AcDbLine
 10
50.15000000000001
 20
2.223453503707409
 30
0.0
 11
50.15000000000001
 21
0.5896988966450747
 31
0.0
  0
SPLINE
  5
AF
330
1F
100
AcDbEntity
  8
외형선
  6
Continuous
 62
     1
370
    15
100
AcDbSpline
210
0.0
220
0.0
230
1.0
 70
     8
 71
     3
 72
    13
 73
     9
 74
     0
 42
0.000000001
 43
0.00000001
 40
0.0
 40
0.0
 40
0.0
 40
0.0
 40
0.1831479449323483
 40
0.366304852430107
 40
0.5494721423307766
 40
0.7326512287619904
 40
0.9158398467338179
 40
1.0
 40
1.0
 40
1.0
 40
1.0
 10
49.65000000000004
 20
2.802546516996848
 30
0.0
 10
48.96171626275778
 20
3.143279999617688
 30
0.0
 10
47.58511510627925
 20
3.824763639062983
 30
0.0
 10
45.5201329713618
 20
4.666045888449425
 30
0.0
 10
43.45501081254067
 20
5.335184935722786
 30
0.0
 10
41.3897456924427
 20
5.779018524086029
 30
0.0
 10
39.69653591866399
 20
5.997428201232623
 30
0.0
 10
38.69178566031315
 20
5.977028899793631
 30
0.0
 10
38.37549493885043
 20
5.970607294309237
 30
0.0
  0
SPLINE
  5
B0
330
1F
100
AcDbEntity
  8
외형선
  6
Continuous
 62
     1
370
    15
100
AcDbSpline
210
0.0
220
0.0
230
1.0
 70
     8
 71
     3
 72
    11
 73
     7
 74
     0
 42
0.000000001
 43
0.00000001
 40
0.0
 40
0.0
 40
0.0
 40
0.0
 40
0.209591450421896
 40
0.4730611284512191
 40
0.7365306438531533
 40
1.0
 40
1.0
 40
1.0
 40
1.0
 10
28.36030969214357
 20
-4.909871286933404
 30
0.0
 10
27.78670599338066
 20
-5.093114992748316
 30
0.0
 10
26.49204625189625
 20
-5.506707599125597
 30
0.0
 10
24.47633124286416
 20
-5.872465987805684
 30
0.0
 10
22.31316501213443
 20
-6.054032519365146
 30
0.0
 10
20.87105485876332
 20
-5.95129432752792
 30
0.0
 10
20.15000000000001
 20
-5.899925247134427
 30
0.0
  0
SPLINE
  5
B1
330
1F
100
AcDbEntity
  8
외형선
  6
Continuous
370
    15
100
AcDbSpline
210
0.0
220
0.0
230
1.0
 70
    24
 71
     3
 72
    17
 73
    13
 74
     0
 42
0.000000001
 43
0.00000001
 40
0.0
 40
0.0
 40
0.0
 40
0.0
 40
0.1000541449288318
 40
0.2025911107721205
 40
0.3103673796006772
 40
0.421269167526545
 40
0.5290454363550967
 40
0.6399472242809585
 40
0.7477234931095074
 40
0.8586252810353671
 40
0.9664015498639198
 40
1.0
 40
1.0
 40
1.0
 40
1.0
 10
20.15000000000001
 20
-5.899925247134428
 30
0.0
 10
20.14999999999999
 20
-5.732431713769286
 30
0.0
 10
20.15000000000001
 20
-5.393288332995533
 30
0.0
 10
20.15000000000008
 20
-4.833138359195535
 30
0.0
 10
20.14999999999992
 20
-4.239618494962364
 30
0.0
 10
20.15000000000008
 20
-3.634606840329683
 30
0.0
 10
20.14999999999989
 20
-3.040686467217135
 30
0.0
 10
20.15000000000018
 20
-2.48568241430748
 30
0.0
 10
20.14999999999995
 20
-1.973122147083616
 30
0.0
 10
20.14999999999996
 20
-1.535168629263101
 30
0.0
 10
20.15000000000004
 20
-1.236315303562325
 30
0.0
 10
20.15000000000004
 20
-1.11912607646346
 30
0.0
 10
20.15000000000003
 20
-1.091275436462173
 30
0.0
  0
SPLINE
  5
B3
330
1F
100
AcDbEntity
  8
외형선
  6
Continuous
 62
     1
370
    15
100
AcDbSpline
210
0.0
220
0.0
230
1.0
 70
     8
 71
     3
 72
    10
 73
     6
 74
     0
 42
0.000000001
 43
0.00000001
 40
0.0
 40
0.0
 40
0.0
 40
0.0
 40
0.1249291954388824
 40
0.5624647240631243
 40
1.0
 40
1.0
 40
1.0
 40
1.0
 10
44.70602923160109
 20
4.897639777223259
 30
0.0
 10
44.91191136230255
 20
4.971727037271353
 30
0.0
 10
45.83884789965651
 20
5.305287740461269
 30
0.0
 10
47.48683818318221
 20
5.696059945960147
 30
0.0
 10
48.92894619986955
 20
5.862843143608083
 30
0.0
 10
49.65000000000001
 20
5.968295457571534
 30
0.0
  0
LINE
  5
B4
330
1F
100
AcDbEntity
  8
외형선
  6
Continuous
 62
     1
370
    15
100
AcDbLine
 10
50.15000000000001
 20
2.212497620966063
 30
0.0
 11
50.15000000000001
 21
5.468295457571534
 31
0.0
  0
LINE
  5
B5
330
1F
100
AcDbEntity
  8
외형선
  6
Continuous
 62
     1
370
    15
100
AcDbLine
 10
50.15000000000001
 20
-5.030532229978355
 30
0.0
 11
50.15000000000001
 21
-5.468295457571535
 31
0.0
  0
LINE
  5
B6
330
1F
100
AcDbEntity
  8
외형선
  6
Continuous
370
    15
100
AcDbLine
 10
20.15000000000001
 20
-5.899925247134428
 30
0.0
 11
20.15000000000001
 21
-5.999999999999996
 31
0.0
  0
LINE
  5
B7
330
1F
100
AcDbEntity
  8
외형선
  6
Continuous
370
    15
100
AcDbLine
 10
0.0
 20
0.0
 30
0.0
 11
0.0
 21
6.0
 31
0.0
  0
LINE
  5
B8
330
1F
100
AcDbEntity
  8
외형선
  6
Continuous
370
    15
100
AcDbLine
 10
0.0
 20
-6.0
 30
0.0
 11
0.0
 21
0.0
 31
0.0
  0
LINE
  5
B9
330
1F
100
AcDbEntity
  8
외형선
  6
Continuous
370
    15
100
AcDbLine
 10
-58.64999999999998
 20
0.0
 30
0.0
 11
-58.64999999999998
 21
6.0
 31
0.0
  0
LINE
  5
BA
330
1F
100
AcDbEntity
  8
외형선
  6
Continuous
370
    15
100
AcDbLine
 10
-58.64999999999998
 20
-6.0
 30
0.0
 11
-58.64999999999998
 21
0.0
 31
0.0
  0
LINE
  5
BB
330
1F
100
AcDbEntity
  8
외형선
  6
Continuous
370
    15
100
AcDbLine
 10
-59.84999999999999
 20
0.0
 30
0.0
 11
-59.84999999999999
 21
4.800000000000012
 31
0.0
  0
LINE
  5
BC
330
1F
100
AcDbEntity
  8
외형선
  6
Continuous
370
    15
100
AcDbLine
 10
-59.84999999999999
 20
-4.800000000000013
 30
0.0
 11
-59.84999999999999
 21
0.0
 31
0.0
  0
LINE
  5
BD
330
1F
100
AcDbEntity
  8
외형선
  6
Continuous
370
    15
100
AcDbLine
 10
0.1500000000000057
 20
0.0
 30
0.0
 11
0.1500000000000057
 21
5.849999999999999
 31
0.0
  0
LINE
  5
BE
330
1F
100
AcDbEntity
  8
외형선
  6
Continuous
370
    15
100
AcDbLine
 10
0.1500000000000057
 20
-5.85
 30
0.0
 11
0.1500000000000057
 21
0.0
 31
0.0
  0
SPLINE
  5
BF
330
1F
100
AcDbEntity
  8
외형선
  6
Continuous
370
    15
100
AcDbSpline
210
0.0
220
0.0
230
1.0
 70
     8
 71
     3
 72
     8
 73
     4
 74
     0
 42
0.000000001
 43
0.00000001
 40
0.0
 40
0.0
 40
0.0
 40
0.0
 40
1.0
 40
1.0
 40
1.0
 40
1.0
 10
20.15000000000003
 20
5.773720209327451
 30
0.0
 10
19.81598227747748
 20
5.803982619117882
 30
0.0
 10
19.48450518325566
 20
5.825247193933133
 30
0.0
 10
19.15033464349922
 20
5.837522216829214
 30
0.0
  0
LINE
  5
C0
330
1F
100
AcDbEntity
  8
외형선
  6
Continuous
370
    15
100
AcDbLine
 10
19.15033464349925
 20
1.570356113090276
 30
0.0
 11
19.15033464349924
 21
5.837524827842988
 31
0.0
  0
SPLINE
  5
C1
330
1F
100
AcDbEntity
  8
외형선
  6
Continuous
370
    15
100
AcDbSpline
210
0.0
220
0.0
230
1.0
 70
     8
 71
     3
 72
     8
 73
     4
 74
     0
 42
0.000000001
 43
0.00000001
 40
0.0
 40
0.0
 40
0.0
 40
0.0
 40
1.0
 40
1.0
 40
1.0
 40
1.0
 10
20.15000000000002
 20
1.02102870678735
 30
0.0
 10
19.81598227747747
 20
1.206153412467498
 30
0.0
 10
19.48450518325565
 20
1.389231593191357
 30
0.0
 10
19.15033464349925
 20
1.570369056396058
 30
0.0
  0
SPLINE
  5
C2
330
1F
100
AcDbEntity
  8
외형선
  6
Continuous
370
    15
100
AcDbSpline
210
0.0
220
0.0
230
1.0
 70
     8
 71
     3
 72
     8
 73
     4
 74
     0
 42
0.000000001
 43
0.00000001
 40
0.0
 40
0.0
 40
0.0
 40
0.0
 40
1.0
 40
1.0
 40
1.0
 40
1.0
 10
20.15000000000003
 20
-0.9416235683136239
 30
0.0
 10
19.81598227747748
 20
-0.7560646115610099
 30
0.0
 10
19.48450518325566
 20
-0.5695207145291676
 30
0.0
 10
19.15033464349922
 20
-0.3818826626402856
 30
0.0
  0
LINE
  5
C3
330
1F
100
AcDbEntity
  8
외형선
  6
Continuous
370
    15
100
AcDbLine
 10
19.15033464349925
 20
-5.635288961364797
 30
0.0
 11
19.15033464349924
 21
-0.3818427481525166
 31
0.0
  0
SPLINE
  5
C4
330
1F
100
AcDbEntity
  8
외형선
  6
Continuous
370
    15
100
AcDbSpline
210
0.0
220
0.0
230
1.0
 70
     8
 71
     3
 72
     8
 73
     4
 74
     0
 42
0.000000001
 43
0.00000001
 40
0.0
 40
0.0
 40
0.0
 40
0.0
 40
1.0
 40
1.0
 40
1.0
 40
1.0
 10
20.15000000000002
 20
-5.760208362543502
 30
0.0
 10
19.81598227747747
 20
-5.7273939872747
 30
0.0
 10
19.48450518325565
 20
-5.685762419867953
 30
0.0
 10
19.15033464349925
 20
-5.635285354506342
 30
0.0
  0
SPLINE
  5
C5
330
1F
100
AcDbEntity
  8
외형선
  6
Continuous
370
    15
100
AcDbSpline
210
0.0
220
0.0
230
1.0
 70
    24
 71
     3
 72
    17
 73
    13
 74
     0
 42
0.000000001
 43
0.00000001
 40
0.0
 40
0.0
 40
0.0
 40
0.0
 40
0.1026576549998739
 40
0.2053153099997462
 40
0.3143468871437153
 40
0.4233784642876844
 40
0.5324100414316418
 40
0.6414416185755996
 40
0.7504731957195593
 40
0.859504772863519
 40
0.9685363500074778
 40
1.0
 40
1.0
 40
1.0
 40
1.0
 10
20.14999999999984
 20
-5.760208362543482
 30
0.0
 10
20.14999999999986
 20
-5.584330677534929
 30
0.0
 10
20.14999999999995
 20
-5.232575307517826
 30
0.0
 10
20.15000000000004
 20
-4.657532378082235
 30
0.0
 10
20.15000000000001
 20
-4.061119727504807
 30
0.0
 10
20.15000000000002
 20
-3.456311843633944
 30
0.0
 10
20.15000000000001
 20
-2.873520339581789
 30
0.0
 10
20.15000000000001
 20
-2.32841583420531
 30
0.0
 10
20.14999999999998
 20
-1.8360879200365
 30
0.0
 10
20.14999999999991
 20
-1.416747465607003
 30
0.0
 10
20.15000000000001
 20
-1.139021904514014
 30
0.0
 10
20.14999999999999
 20
-1.033558345337484
 30
0.0
 10
20.14999999999999
 20
-1.00993997352139
 30
0.0
  0
SPLINE
  5
C6
330
1F
100
AcDbEntity
  8
외형선
  6
Continuous
370
    15
100
AcDbSpline
210
0.0
220
0.0
230
1.0
 70
    24
 71
     3
 72
    17
 73
    13
 74
     0
 42
0.000000001
 43
0.00000001
 40
0.0
 40
0.0
 40
0.0
 40
0.0
 40
0.0442087223310247
 40
0.1551653666194872
 40
0.2661220109079497
 40
0.3770786551964113
 40
0.4880352994848728
 40
0.5989919437733342
 40
0.7099485880617958
 40
0.8209052323502128
 40
0.9318618766386297
 40
1.0
 40
1.0
 40
1.0
 40
1.0
 10
20.15000000000001
 20
1.091275436462188
 30
0.0
 10
20.15000000000002
 20
1.125780966387442
 30
0.0
 10
20.15000000000002
 20
1.246889718664009
 30
0.0
 10
20.14999999999996
 20
1.549034875934282
 30
0.0
 10
20.14999999999995
 20
1.981462880333904
 30
0.0
 10
20.14999999999999
 20
2.485919973505414
 30
0.0
 10
20.14999999999999
 20
3.038517804196779
 30
0.0
 10
20.15000000000003
 20
3.627204825849467
 30
0.0
 10
20.14999999999998
 20
4.233878856900962
 30
0.0
 10
20.15000000000004
 20
4.841020618291232
 30
0.0
 10
20.15000000000004
 20
5.358407472226244
 30
0.0
 10
20.15000000000002
 20
5.659258778238389
 30
0.0
 10
20.15000000000001
 20
5.773720209309176
 30
0.0
  0
LINE
  5
C7
330
1F
100
AcDbEntity
  8
중심선
 62
     1
100
AcDbLine
 10
-62.84999999999998
 20
-0.0000000000000039
 30
0.0
 11
53.15000000000001
 21
0.0000000000000099
 31
0.0
  0
LINE
  5
C8
330
1F
100
AcDbEntity
  8
참조1
100
AcDbLine
 10
-4.849999999999985
 20
-0.0000000000000039
 30
0.0
 11
-4.849999999999978
 21
-40.00000000000001
 31
0.0
  0
LINE
  5
C9
330
1F
100
AcDbEntity
  8
참조1
100
AcDbLine
 10
-4.849999999999978
 20
-40.00000000000001
 30
0.0
 11
-45.00885681430866
 21
-40.0
 31
0.0
  0
CIRCLE
  5
CA
330
1F
100
AcDbEntity
  8
해칭선
100
AcDbCircle
 10
0.0000000000000071
 20
-0.0010749287238931
 30
0.0
 40
3.000000000000001
  0
INSERT
  5
CB
330
1F
100
AcDbEntity
  8
0
  6
Continuous
 62
     7
100
AcDbBlockReference
 66
     1
  2
블럭10
 10
-18.79027293212519
 20
-52.04717430164393
 30
0.0
  0
ATTRIB
  5
CC
330
CB
100
AcDbEntity
  8
FORMAT
 62
     2
100
AcDbText
 10
-39.64852046371773
 20
-49.97180738881175
 30
0.0
 40
4.233333333333333
  1
SEME6412005110E [ 4 FLUTE ]
 41
0.75
  7
SLDTEXTSTYLE0
 11
-39.64852046371773
 21
-52.08847405547841
 31
0.0
100
AcDbAttribute
  2
AUTOATTR0
 70
     0
 74
     1
  0
SEQEND
  5
CD
330
CB
100
AcDbEntity
  8
0
  6
Continuous
 62
     7
  0
HATCH
  5
CE
330
1F
100
AcDbEntity
  8
중심선
100
AcDbHatch
 10
0.0
 20
0.0
 30
0.0
210
0.0
220
0.0
230
1.0
  2
SOLID
 70
     1
 71
     0
 91
        1
 92
        0
 93
        4
 72
     1
 10
-13.07536362774436
 20
-35.8
 11
-16.52163887158164
 21
-35.8
 72
     1
 10
-16.52163887158164
 20
-35.8
 11
-18.64986873078566
 21
-38.33632558057257
 72
     1
 10
-18.64986873078566
 20
-38.33632558057257
 11
-15.20356040183523
 21
-38.33628615127008
 72
     1
 10
-15.20356040183523
 20
-38.33628615127008
 11
-13.07536362774436
 21
-35.8
 97
        0
 75
     0
 76
     1
 98
        1
 10
-19.92499999999999
 20
-0.0010749287238931
  0
HATCH
  5
CF
330
1F
100
AcDbEntity
  8
중심선
100
AcDbHatch
 10
0.0
 20
0.0
 30
0.0
210
0.0
220
0.0
230
1.0
  2
SOLID
 70
     1
 71
     0
 91
        1
 92
        0
 93
        4
 72
     1
 10
-8.062599636708349
 20
-35.79999999999998
 11
-11.50887488054563
 21
-35.8
 72
     1
 10
-11.50887488054563
 20
-35.8
 11
-16.04001288890307
 21
-41.20000000000002
 72
     1
 10
-16.04001288890307
 20
-41.20000000000002
 11
-12.59373764506579
 21
-41.20000000000002
 72
     1
 10
-12.59373764506579
 20
-41.20000000000002
 11
-8.062599636708349
 21
-35.79999999999998
 97
        0
 75
     0
 76
     1
 98
        1
 10
-19.92499999999999
 20
-0.0010749287238931
  0
HATCH
  5
D0
330
1F
100
AcDbEntity
  8
중심선
100
AcDbHatch
 10
0.0
 20
0.0
 30
0.0
210
0.0
220
0.0
230
1.0
  2
SOLID
 70
     1
 71
     0
 91
        1
 92
        0
 93
        4
 72
     1
 10
-3.049835645672509
 20
-35.79999999999998
 11
-6.496110889509568
 21
-35.8
 72
     1
 10
-6.496110889509568
 20
-35.8
 11
-13.54454779139887
 21
-44.20000000000002
 72
     1
 10
-13.54454779139887
 20
-44.20000000000002
 11
-10.09827254756159
 21
-44.20000000000002
 72
     1
 10
-10.09827254756159
 20
-44.20000000000002
 11
-3.049835645672509
 21
-35.79999999999998
 97
        0
 75
     0
 76
     1
 98
        1
 10
-19.92499999999999
 20
-0.0010749287238931
  0
HATCH
  5
D1
330
1F
100
AcDbEntity
  8
중심선
100
AcDbHatch
 10
0.0
 20
0.0
 30
0.0
210
0.0
220
0.0
230
1.0
  2
SOLID
 70
     1
 71
     0
 91
        1
 92
        0
 93
        6
 72
     3
 10
1.750054785339692
 20
-40.00000000005127
 11
3.960054785062283
 21
1.540882976769353E-10
 40
0.3939339440162628
 50
17.09539180608437
 51
320.0019657685082
 73
     0
 72
     1
 10
3.433054441040259
 20
-38.58789400463833
 11
5.738356314741296
 21
-36.65356729459038
 72
     3
 10
1.750054785286846
 20
-40.00000000000015
 11
6.600054785286829
 21
-1.278976924368180E-13
 40
0.636358354079598
 50
39.99873849337429
 51
368.4976242363725
 73
     1
 72
     1
 10
8.175387277187454
 20
-39.03999999993002
 11
0.4301220921227653
 21
-39.03999999993
 72
     1
 10
0.4301220921227653
 20
-39.03999999993
 11
0.4300970476768349
 21
-40.95999999992991
 72
     1
 10
0.4300970476768349
 20
-40.95999999992991
 11
4.871476817148871
 21
-40.95999999992988
 97
        0
 75
     0
 76
     1
 98
        1
 10
-19.92499999999999
 20
-0.0010749287238931
  0
DIMENSION
  5
D2
330
1F
100
AcDbEntity
  8
치수문자_일반주서
100
AcDbDimension
  2
_D
 10
69.26259926472811
 20
-5.999999999999876
 30
0.0
 11
69.26259926472802
 21
16.54150000000012
 31
0.0
 70
   160
  1
%%c<>
 71
     2
 42
12.0
 52
-270.0
  3
SLDDIMSTYLE1
100
AcDbAlignedDimension
 13
38.37603232075094
 23
6.000000000000004
 33
0.0
 14
38.37603232075094
 24
-5.999999999999994
 34
0.0
 50
90.0000000000002
100
AcDbRotatedDimension
1001
PE_URL
1000

  0
DIMENSION
  5
DF
330
1F
100
AcDbEntity
  8
치수문자_일반주서
100
AcDbDimension
  2
_D_1
 10
-68.63846843616476
 20
-6.000000000000043
 30
0.0
 11
-68.63846843616479
 21
0.0000000000000046
 31
0.0
 70
   160
  1
%%c<>
 71
     2
 42
12.00000000000001
 52
-270.0
  3
SLDDIMSTYLE1
100
AcDbAlignedDimension
 13
-58.64999999999998
 23
6.000000000000005
 33
0.0
 14
-58.64999999999998
 24
-6.000000000000005
 34
0.0
 50
90.0000000000002
100
AcDbRotatedDimension
  0
DIMENSION
  5
ED
330
1F
100
AcDbEntity
  8
치수문자_일반주서
100
AcDbDimension
  2
_D_2
 10
20.15000000000001
 20
15.60433422161454
 30
0.0
 11
35.15
 21
15.60433422161454
 31
0.0
 70
   160
  1
<>
 71
     2
 42
30.00000000000001
  3
SLDDIMSTYLE1
100
AcDbAlignedDimension
 13
50.15000000000001
 23
5.468295457571534
 33
0.0
 14
20.15000000000001
 24
5.914391029504524
 34
0.0
 50
0.0000000000000068
100
AcDbRotatedDimension
1001
PE_URL
1000

  0
DIMENSION
  5
F7
330
1F
100
AcDbEntity
  8
치수문자_일반주서
100
AcDbDimension
  2
_D_3
 10
0.1500000000000057
 20
21.60433422161451
 30
0.0
 11
25.15000000000001
 21
21.60433422161451
 31
0.0
 70
   160
  1
<>
 71
     2
 42
50.00000000000001
  3
SLDDIMSTYLE1
100
AcDbAlignedDimension
 13
50.15000000000001
 23
5.468295457571534
 33
0.0
 14
0.1500000000000057
 24
5.849999999999999
 34
0.0
 50
0.0000000000000041
100
AcDbRotatedDimension
1001
PE_URL
1000

  0
DIMENSION
  5
101
330
1F
100
AcDbEntity
  8
치수문자_일반주서
100
AcDbDimension
  2
_D_4
 10
-59.84999999999999
 20
30.01183152277643
 30
0.0
 11
-4.849999999999993
 21
30.01183152277643
 31
0.0
 70
   160
  1
<>
 71
     2
 42
110.0
  3
SLDDIMSTYLE1
100
AcDbAlignedDimension
 13
50.15000000000001
 23
5.468295457571534
 33
0.0
 14
-59.84999999999999
 24
4.800000000000012
 34
0.0
 50
0.0000000000000037
100
AcDbRotatedDimension
1001
PE_URL
1000

  0
LINE
  5
10B
330
1F
100
AcDbEntity
  8
참조1
100
AcDbLine
 10
52.9634838153456
 20
7.440000000000002
 30
0.0
 11
52.9634838153456
 21
-7.440000000000002
 31
0.0
  0
LINE
  5
10C
330
1F
100
AcDbEntity
  8
참조1
100
AcDbLine
 10
65.66348381534561
 20
5.440000000000002
 30
0.0
 11
52.9634838153456
 21
5.440000000000002
 31
0.0
  0
SOLID
  5
10D
330
1F
100
AcDbEntity
  8
참조1
100
AcDbTrace
 10
52.9634838153456
 20
5.440000000000002
 30
0.0
 11
59.3134838153456
 21
4.424000000000002
 31
0.0
 12
59.3134838153456
 22
6.456000000000002
 32
0.0
 13
59.3134838153456
 23
6.456000000000002
 33
0.0
  0
LINE
  5
10E
330
1F
100
AcDbEntity
  8
참조1
100
AcDbLine
 10
65.66348381534561
 20
-5.440000000000002
 30
0.0
 11
52.9634838153456
 21
-5.440000000000002
 31
0.0
  0
SOLID
  5
10F
330
1F
100
AcDbEntity
  8
참조1
100
AcDbTrace
 10
52.9634838153456
 20
-5.440000000000002
 30
0.0
 11
59.3134838153456
 21
-6.456000000000002
 31
0.0
 12
59.3134838153456
 22
-4.424000000000002
 32
0.0
 13
59.3134838153456
 23
-4.424000000000002
 33
0.0
  0
MTEXT
  5
110
330
1F
100
AcDbEntity
  8
참조1
100
AcDbMText
 10
62.36097390781588
 20
10.98821664464994
 30
0.0
 40
3.5
 41
0.0
 71
     1
 72
     1
  1
A
  7
SLDTEXTSTYLE0
 73
     1
 44
1.0
  0
MTEXT
  5
111
330
1F
100
AcDbEntity
  8
참조1
100
AcDbMText
 10
62.36097390781588
 20
0.1082166446499328
 30
0.0
 40
3.5
 41
0.0
 71
     1
 72
     1
  1
A
  7
SLDTEXTSTYLE0
 73
     1
 44
1.0
  0
INSERT
  5
118
330
1F
100
AcDbEntity
  8
해칭선
100
AcDbBlockReference
  2
SW_DOWELSYMBOL_0
 10
0.0000000000000071
 20
-0.0010749287238931
 30
0.0
  0
ARC
  5
13B
330
1F
100
AcDbEntity
  8
0
 62
     1
100
AcDbCircle
 10
49.65000000000001
 20
5.468295457571534
 30
0.0
 40
0.5
100
AcDbArc
 50
0.0
 51
90.0
  0
ARC
  5
13C
102
{ACAD_REACTORS
102
}
330
1F
100
AcDbEntity
  8
0
 62
     1
100
AcDbCircle
 10
49.65000000000001
 20
-5.468295457571514
 30
0.0
 40
0.5
100
AcDbArc
 50
270.0
 51
0.0
  0
DIMENSION
  5
154
102
{ACAD_REACTORS
102
}
102
{ACAD_XDICTIONARY
360
155
102
}
330
1F
100
AcDbEntity
  8
0
100
AcDbDimension
  2
*D8
 10
49.65000000000001
 20
-5.468295457571514
 30
0.0
 11
60.95159785477455
 21
-13.54677768257017
 31
0.0
 70
   164
 71
     5
 42
0.4999999999999993
  3
ISO-25
100
AcDbRadialDimension
 15
49.82758063243639
 25
-5.935697981081494
 35
0.0
 40
0.0
1001
ACAD
1000
DSTYLE
1002
{
1070
   179
1070
     2
1070
   143
1040
0.0393700787401575
1070
    41
1040
3.302
1070
    44
1040
1.0
1070
    42
1040
1.0
1070
   147
1040
1.524
1070
    73
1070
     1
1070
    74
1070
     1
1070
   140
1040
3.5
1070
   284
1070
     0
1070
    78
1070
     0
1002
}
1001
ACAD_DSTYLE_DIMRADIAL_EXTENSION
1070
   387
1070
     1
1070
   388
1040
4.71238898038469
1070
   390
1040
0.0
  0
ENDSEC
  0
SECTION
  2
OBJECTS
  0
DICTIONARY
  5
C
330
0
100
AcDbDictionary
281
     1
  3
ACAD_DETAILVIEWSTYLE
350
142
  3
ACAD_GROUP
350
D
  3
ACAD_LAYOUT
350
1A
  3
ACAD_MLINESTYLE
350
17
  3
ACAD_PLOTSETTINGS
350
19
  3
ACAD_PLOTSTYLENAME
350
E
  3
ACAD_SCALELIST
350
47
  3
ACAD_SECTIONVIEWSTYLE
350
143
  3
AcDbVariableDictionary
350
13D
  3
APPDATA
350
13A
  3
DWGPROPS
350
161
  0
DICTIONARY
  5
155
330
154
100
AcDbDictionary
280
     1
281
     1
  0
DICTIONARY
  5
142
102
{ACAD_REACTORS
330
C
102
}
330
C
100
AcDbDictionary
281
     1
  0
DICTIONARY
  5
D
102
{ACAD_REACTORS
330
C
102
}
330
C
100
AcDbDictionary
281
     1
  0
DICTIONARY
  5
1A
102
{ACAD_REACTORS
330
C
102
}
330
C
100
AcDbDictionary
281
     1
  3
Layout1
350
1E
  3
Layout2
350
26
  3
Model
350
22
  0
DICTIONARY
  5
17
102
{ACAD_REACTORS
330
C
102
}
330
C
100
AcDbDictionary
281
     1
  3
Standard
350
18
  0
DICTIONARY
  5
19
102
{ACAD_REACTORS
330
C
102
}
330
C
100
AcDbDictionary
281
     1
  0
ACDBDICTIONARYWDFLT
  5
E
102
{ACAD_REACTORS
330
C
102
}
330
C
100
AcDbDictionary
281
     1
  3
Normal
350
F
100
AcDbDictionaryWithDefault
340
F
  0
DICTIONARY
  5
47
102
{ACAD_REACTORS
330
C
102
}
330
C
100
AcDbDictionary
281
     1
  3
A0
350
48
  3
A1
350
49
  3
A2
350
4A
  3
A3
350
4B
  3
A4
350
4C
  3
A5
350
4D
  3
A6
350
4E
  3
A7
350
4F
  3
A8
350
50
  3
A9
350
51
  3
B0
350
52
  3
B1
350
53
  3
B2
350
54
  3
B3
350
55
  3
B4
350
56
  3
B5
350
57
  3
B6
350
58
  3
B7
350
59
  3
B8
350
5A
  3
B9
350
5B
  3
C0
350
5C
  3
C1
350
5D
  3
C2
350
5E
  3
C3
350
5F
  3
C4
350
60
  3
C5
350
61
  3
C6
350
62
  3
C7
350
63
  3
C8
350
64
  3
C9
350
65
  3
D0
350
66
  3
D1
350
67
  3
D2
350
68
  0
DICTIONARY
  5
143
102
{ACAD_REACTORS
330
C
102
}
330
C
100
AcDbDictionary
281
     1
  0
DICTIONARY
  5
13D
102
{ACAD_REACTORS
330
C
102
}
330
C
100
AcDbDictionary
281
     1
  0
DICTIONARY
  5
13A
102
{ACAD_REACTORS
330
C
102
}
330
C
100
AcDbDictionary
281
     1
  0
XRECORD
  5
161
102
{ACAD_REACTORS
330
C
102
}
330
C
100
AcDbXrecord
280
     1
  1
DWGPROPS COOKIE
  2

  3

  4

  6

  7

  8
USER
  9

300
=
301
=
302
=
303
=
304
=
305
=
306
=
307
=
308
=
309
=
 40
0.0
 41
2458274.33828588
 42
2458275.090902905
  1

 90
        0
  0
LAYOUT
  5
1E
102
{ACAD_REACTORS
330
1A
102
}
330
1A
100
AcDbPlotSettings
  1

  2
none_device
  4

  6

 40
0.0
 41
0.0
 42
0.0
 43
0.0
 44
0.0
 45
0.0
 46
0.0
 47
0.0
 48
0.0
 49
0.0
140
0.0
141
0.0
142
1.0
143
1.0
 70
   688
 72
     1
 73
     0
 74
     5
  7

 75
    16
147
1.0
148
0.0
149
0.0
100
AcDbLayout
  1
Layout1
 70
     1
 71
     1
 10
0.0
 20
0.0
 11
420.0
 21
297.0
 12
0.0
 22
0.0
 32
0.0
 14
1.000000000000000E+20
 24
1.000000000000000E+20
 34
1.000000000000000E+20
 15
-1.000000000000000E+20
 25
-1.000000000000000E+20
 35
-1.000000000000000E+20
146
0.0
 13
0.0
 23
0.0
 33
0.0
 16
1.0
 26
0.0
 36
0.0
 17
0.0
 27
1.0
 37
0.0
 76
     0
330
1B
  0
LAYOUT
  5
26
102
{ACAD_REACTORS
330
1A
102
}
330
1A
100
AcDbPlotSettings
  1

  2
none_device
  4

  6

 40
0.0
 41
0.0
 42
0.0
 43
0.0
 44
0.0
 45
0.0
 46
0.0
 47
0.0
 48
0.0
 49
0.0
140
0.0
141
0.0
142
1.0
143
1.0
 70
   688
 72
     1
 73
     0
 74
     5
  7

 75
    16
147
1.0
148
0.0
149
0.0
100
AcDbLayout
  1
Layout2
 70
     1
 71
     2
 10
0.0
 20
0.0
 11
0.0
 21
0.0
 12
0.0
 22
0.0
 32
0.0
 14
0.0
 24
0.0
 34
0.0
 15
0.0
 25
0.0
 35
0.0
146
0.0
 13
0.0
 23
0.0
 33
0.0
 16
1.0
 26
0.0
 36
0.0
 17
0.0
 27
1.0
 37
0.0
 76
     0
330
23
  0
LAYOUT
  5
22
102
{ACAD_REACTORS
330
1A
102
}
330
1A
100
AcDbPlotSettings
  1

  2
none_device
  4
ANSI_A_(11.00_x_8.50_Inches)
  6

 40
6.35
 41
19.05
 42
6.35000508
 43
19.05000254
 44
279.4
 45
215.9
 46
97.7694088588948
 47
104.5073818778372
 48
0.0
 49
0.0
140
0.0
141
0.0
142
0.0759063400141313
143
1.0
 70
  1696
 72
     0
 73
     0
 74
     0
  7

 75
     0
147
0.0235690232323232
148
0.0
149
0.0
100
AcDbLayout
  1
Model
 70
     1
 71
     0
 10
0.0
 20
0.0
 11
420.0
 21
297.0
 12
0.0
 22
0.0
 32
0.0
 14
-73.0134684361648
 24
-49.97180738881175
 34
0.0
 15
69.81293259806142
 25
34.38683152277643
 35
0.0
146
0.0
 13
0.0
 23
0.0
 33
0.0
 16
1.0
 26
0.0
 36
0.0
 17
0.0
 27
1.0
 37
0.0
 76
     0
330
1F
331
29
  0
MLINESTYLE
  5
18
102
{ACAD_REACTORS
330
17
102
}
330
17
100
AcDbMlineStyle
  2
Standard
 70
     0
  3

 62
   256
 51
90.0
 52
90.0
 71
     2
 49
0.5
 62
   256
  6
BYLAYER
 49
-0.5
 62
   256
  6
BYLAYER
  0
ACDBPLACEHOLDER
  5
F
102
{ACAD_REACTORS
330
E
102
}
330
E
  0
SCALE
  5
48
102
{ACAD_REACTORS
330
47
102
}
330
47
100
AcDbScale
 70
     0
300
1:1
140
1.0
141
1.0
290
     1
  0
SCALE
  5
49
102
{ACAD_REACTORS
330
47
102
}
330
47
100
AcDbScale
 70
     0
300
1:2
140
1.0
141
2.0
290
     0
  0
SCALE
  5
4A
102
{ACAD_REACTORS
330
47
102
}
330
47
100
AcDbScale
 70
     0
300
1:4
140
1.0
141
4.0
290
     0
  0
SCALE
  5
4B
102
{ACAD_REACTORS
330
47
102
}
330
47
100
AcDbScale
 70
     0
300
1:5
140
1.0
141
5.0
290
     0
  0
SCALE
  5
4C
102
{ACAD_REACTORS
330
47
102
}
330
47
100
AcDbScale
 70
     0
300
1:8
140
1.0
141
8.0
290
     0
  0
SCALE
  5
4D
102
{ACAD_REACTORS
330
47
102
}
330
47
100
AcDbScale
 70
     0
300
1:10
140
1.0
141
10.0
290
     0
  0
SCALE
  5
4E
102
{ACAD_REACTORS
330
47
102
}
330
47
100
AcDbScale
 70
     0
300
1:16
140
1.0
141
16.0
290
     0
  0
SCALE
  5
4F
102
{ACAD_REACTORS
330
47
102
}
330
47
100
AcDbScale
 70
     0
300
1:20
140
1.0
141
20.0
290
     0
  0
SCALE
  5
50
102
{ACAD_REACTORS
330
47
102
}
330
47
100
AcDbScale
 70
     0
300
1:30
140
1.0
141
30.0
290
     0
  0
SCALE
  5
51
102
{ACAD_REACTORS
330
47
102
}
330
47
100
AcDbScale
 70
     0
300
1:40
140
1.0
141
40.0
290
     0
  0
SCALE
  5
52
102
{ACAD_REACTORS
330
47
102
}
330
47
100
AcDbScale
 70
     0
300
1:50
140
1.0
141
50.0
290
     0
  0
SCALE
  5
53
102
{ACAD_REACTORS
330
47
102
}
330
47
100
AcDbScale
 70
     0
300
1:100
140
1.0
141
100.0
290
     0
  0
SCALE
  5
54
102
{ACAD_REACTORS
330
47
102
}
330
47
100
AcDbScale
 70
     0
300
2:1
140
2.0
141
1.0
290
     0
  0
SCALE
  5
55
102
{ACAD_REACTORS
330
47
102
}
330
47
100
AcDbScale
 70
     0
300
4:1
140
4.0
141
1.0
290
     0
  0
SCALE
  5
56
102
{ACAD_REACTORS
330
47
102
}
330
47
100
AcDbScale
 70
     0
300
8:1
140
8.0
141
1.0
290
     0
  0
SCALE
  5
57
102
{ACAD_REACTORS
330
47
102
}
330
47
100
AcDbScale
 70
     0
300
10:1
140
10.0
141
1.0
290
     0
  0
SCALE
  5
58
102
{ACAD_REACTORS
330
47
102
}
330
47
100
AcDbScale
 70
     0
300
100:1
140
100.0
141
1.0
290
     0
  0
SCALE
  5
59
102
{ACAD_REACTORS
330
47
102
}
330
47
100
AcDbScale
 70
     0
300
1/128" = 1'-0"
140
0.0078125
141
12.0
290
     0
  0
SCALE
  5
5A
102
{ACAD_REACTORS
330
47
102
}
330
47
100
AcDbScale
 70
     0
300
1/64" = 1'-0"
140
0.015625
141
12.0
290
     0
  0
SCALE
  5
5B
102
{ACAD_REACTORS
330
47
102
}
330
47
100
AcDbScale
 70
     0
300
1/32" = 1'-0"
140
0.03125
141
12.0
290
     0
  0
SCALE
  5
5C
102
{ACAD_REACTORS
330
47
102
}
330
47
100
AcDbScale
 70
     0
300
1/16" = 1'-0"
140
0.0625
141
12.0
290
     0
  0
SCALE
  5
5D
102
{ACAD_REACTORS
330
47
102
}
330
47
100
AcDbScale
 70
     0
300
3/32" = 1'-0"
140
0.09375
141
12.0
290
     0
  0
SCALE
  5
5E
102
{ACAD_REACTORS
330
47
102
}
330
47
100
AcDbScale
 70
     0
300
1/8" = 1'-0"
140
0.125
141
12.0
290
     0
  0
SCALE
  5
5F
102
{ACAD_REACTORS
330
47
102
}
330
47
100
AcDbScale
 70
     0
300
3/16" = 1'-0"
140
0.1875
141
12.0
290
     0
  0
SCALE
  5
60
102
{ACAD_REACTORS
330
47
102
}
330
47
100
AcDbScale
 70
     0
300
1/4" = 1'-0"
140
0.25
141
12.0
290
     0
  0
SCALE
  5
61
102
{ACAD_REACTORS
330
47
102
}
330
47
100
AcDbScale
 70
     0
300
3/8" = 1'-0"
140
0.375
141
12.0
290
     0
  0
SCALE
  5
62
102
{ACAD_REACTORS
330
47
102
}
330
47
100
AcDbScale
 70
     0
300
1/2" = 1'-0"
140
0.5
141
12.0
290
     0
  0
SCALE
  5
63
102
{ACAD_REACTORS
330
47
102
}
330
47
100
AcDbScale
 70
     0
300
3/4" = 1'-0"
140
0.75
141
12.0
290
     0
  0
SCALE
  5
64
102
{ACAD_REACTORS
330
47
102
}
330
47
100
AcDbScale
 70
     0
300
1" = 1'-0"
140
1.0
141
12.0
290
     0
  0
SCALE
  5
65
102
{ACAD_REACTORS
330
47
102
}
330
47
100
AcDbScale
 70
     0
300
1-1/2" = 1'-0"
140
1.5
141
12.0
290
     0
  0
SCALE
  5
66
102
{ACAD_REACTORS
330
47
102
}
330
47
100
AcDbScale
 70
     0
300
3" = 1'-0"
140
3.0
141
12.0
290
     0
  0
SCALE
  5
67
102
{ACAD_REACTORS
330
47
102
}
330
47
100
AcDbScale
 70
     0
300
6" = 1'-0"
140
6.0
141
12.0
290
     0
  0
SCALE
  5
68
102
{ACAD_REACTORS
330
47
102
}
330
47
100
AcDbScale
 70
     0
300
1'-0" = 1'-0"
140
12.0
141
12.0
290
     0
  0
ENDSEC
  0
EOF
