  0
SECTION
  2
HEADER
  9
$ACADVER
  1
AC1015
  9
$ACADMAINTVER
 70
     6
  9
$DWGCODEPAGE
  3
ANSI_949
  9
$INSBASE
 10
0.0
 20
0.0
 30
0.0
  9
$EXTMIN
 10
-73.2134684361648
 20
-49.97180738881175
 30
0.0
  9
$EXTMAX
 10
65.66348381534559
 20
33.39104871690483
 30
0.0
  9
$LIMMIN
 10
0.0
 20
0.0
  9
$LIMMAX
 10
420.0
 20
297.0
  9
$ORTHOMODE
 70
     0
  9
$REGENMODE
 70
     1
  9
$FILLMODE
 70
     1
  9
$QTEXTMODE
 70
     0
  9
$MIRRTEXT
 70
     1
  9
$LTSCALE
 40
1.0
  9
$ATTMODE
 70
     1
  9
$TEXTSIZE
 40
3.5
  9
$TRACEWID
 40
1.0
  9
$TEXTSTYLE
  7
Standard
  9
$CLAYER
  8
0
  9
$CELTYPE
  6
ByLayer
  9
$CECOLOR
 62
   256
  9
$CELTSCALE
 40
1.0
  9
$DISPSILH
 70
     0
  9
$DIMSCALE
 40
1.0
  9
$DIMASZ
 40
3.302
  9
$DIMEXO
 40
1.0
  9
$DIMDLI
 40
3.75
  9
$DIMRND
 40
0.0
  9
$DIMDLE
 40
0.0
  9
$DIMEXE
 40
1.0
  9
$DIMTP
 40
0.0
  9
$DIMTM
 40
0.0
  9
$DIMTXT
 40
3.5
  9
$DIMCEN
 40
2.5
  9
$DIMTSZ
 40
0.0
  9
$DIMTOL
 70
     0
  9
$DIMLIM
 70
     0
  9
$DIMTIH
 70
     1
  9
$DIMTOH
 70
     1
  9
$DIMSE1
 70
     0
  9
$DIMSE2
 70
     0
  9
$DIMTAD
 70
     1
  9
$DIMZIN
 70
     0
  9
$DIMBLK
  1

  9
$DIMASO
 70
     1
  9
$DIMSHO
 70
     1
  9
$DIMPOST
  1

  9
$DIMAPOST
  1

  9
$DIMALT
 70
     0
  9
$DIMALTD
 70
     3
  9
$DIMALTF
 40
0.0393700787401575
  9
$DIMLFAC
 40
1.0
  9
$DIMTOFL
 70
     1
  9
$DIMTVP
 40
0.0
  9
$DIMTIX
 70
     0
  9
$DIMSOXD
 70
     0
  9
$DIMSAH
 70
     0
  9
$DIMBLK1
  1

  9
$DIMBLK2
  1

  9
$DIMSTYLE
  2
ISO-25
  9
$DIMCLRD
 70
     0
  9
$DIMCLRE
 70
     0
  9
$DIMCLRT
 70
     0
  9
$DIMTFAC
 40
1.0
  9
$DIMGAP
 40
1.524
  9
$DIMJUST
 70
     0
  9
$DIMSD1
 70
     0
  9
$DIMSD2
 70
     0
  9
$DIMTOLJ
 70
     0
  9
$DIMTZIN
 70
     0
  9
$DIMALTZ
 70
     0
  9
$DIMALTTZ
 70
     0
  9
$DIMUPT
 70
     0
  9
$DIMDEC
 70
     2
  9
$DIMTDEC
 70
     2
  9
$DIMALTU
 70
     2
  9
$DIMALTTD
 70
     3
  9
$DIMTXSTY
  7
Standard
  9
$DIMAUNIT
 70
     0
  9
$DIMADEC
 70
     2
  9
$DIMALTRND
 40
0.0
  9
$DIMAZIN
 70
     0
  9
$DIMDSEP
 70
    44
  9
$DIMATFIT
 70
     3
  9
$DIMFRAC
 70
     0
  9
$DIMLDRBLK
  1

  9
$DIMLUNIT
 70
     2
  9
$DIMLWD
 70
    -2
  9
$DIMLWE
 70
    -2
  9
$DIMTMOVE
 70
     0
  9
$LUNITS
 70
     2
  9
$LUPREC
 70
     2
  9
$SKETCHINC
 40
1.0
  9
$FILLETRAD
 40
10.0
  9
$AUNITS
 70
     0
  9
$AUPREC
 70
     2
  9
$MENU
  1
.
  9
$ELEVATION
 40
0.0
  9
$PELEVATION
 40
0.0
  9
$THICKNESS
 40
0.0
  9
$LIMCHECK
 70
     0
  9
$CHAMFERA
 40
0.0
  9
$CHAMFERB
 40
0.0
  9
$CHAMFERC
 40
0.0
  9
$CHAMFERD
 40
0.0
  9
$SKPOLY
 70
     0
  9
$TDCREATE
 40
2458274.711584502
  9
$TDUCREATE
 40
2458274.336584502
  9
$TDUPDATE
 40
2458275.456862512
  9
$TDUUPDATE
 40
2458275.081862512
  9
$TDINDWG
 40
0.0008326968
  9
$TDUSRTIMER
 40
0.0008326852
  9
$USRTIMER
 70
     1
  9
$ANGBASE
 50
0.0
  9
$ANGDIR
 70
     0
  9
$PDMODE
 70
     0
  9
$PDSIZE
 40
-1.0
  9
$PLINEWID
 40
0.0
  9
$SPLFRAME
 70
     0
  9
$SPLINETYPE
 70
     6
  9
$SPLINESEGS
 70
     8
  9
$HANDSEED
  5
15A
  9
$SURFTAB1
 70
     6
  9
$SURFTAB2
 70
     6
  9
$SURFTYPE
 70
     6
  9
$SURFU
 70
     6
  9
$SURFV
 70
     6
  9
$UCSBASE
  2

  9
$UCSNAME
  2

  9
$UCSORG
 10
0.0
 20
0.0
 30
0.0
  9
$UCSXDIR
 10
1.0
 20
0.0
 30
0.0
  9
$UCSYDIR
 10
0.0
 20
1.0
 30
0.0
  9
$UCSORTHOREF
  2

  9
$UCSORTHOVIEW
 70
     0
  9
$UCSORGTOP
 10
0.0
 20
0.0
 30
0.0
  9
$UCSORGBOTTOM
 10
0.0
 20
0.0
 30
0.0
  9
$UCSORGLEFT
 10
0.0
 20
0.0
 30
0.0
  9
$UCSORGRIGHT
 10
0.0
 20
0.0
 30
0.0
  9
$UCSORGFRONT
 10
0.0
 20
0.0
 30
0.0
  9
$UCSORGBACK
 10
0.0
 20
0.0
 30
0.0
  9
$PUCSBASE
  2

  9
$PUCSNAME
  2

  9
$PUCSORG
 10
0.0
 20
0.0
 30
0.0
  9
$PUCSXDIR
 10
1.0
 20
0.0
 30
0.0
  9
$PUCSYDIR
 10
0.0
 20
1.0
 30
0.0
  9
$PUCSORTHOREF
  2

  9
$PUCSORTHOVIEW
 70
     0
  9
$PUCSORGTOP
 10
0.0
 20
0.0
 30
0.0
  9
$PUCSORGBOTTOM
 10
0.0
 20
0.0
 30
0.0
  9
$PUCSORGLEFT
 10
0.0
 20
0.0
 30
0.0
  9
$PUCSORGRIGHT
 10
0.0
 20
0.0
 30
0.0
  9
$PUCSORGFRONT
 10
0.0
 20
0.0
 30
0.0
  9
$PUCSORGBACK
 10
0.0
 20
0.0
 30
0.0
  9
$USERI1
 70
     0
  9
$USERI2
 70
     0
  9
$USERI3
 70
     0
  9
$USERI4
 70
     0
  9
$USERI5
 70
     0
  9
$USERR1
 40
0.0
  9
$USERR2
 40
0.0
  9
$USERR3
 40
0.0
  9
$USERR4
 40
0.0
  9
$USERR5
 40
0.0
  9
$WORLDVIEW
 70
     1
  9
$SHADEDGE
 70
     3
  9
$SHADEDIF
 70
    70
  9
$TILEMODE
 70
     1
  9
$MAXACTVP
 70
    64
  9
$PINSBASE
 10
0.0
 20
0.0
 30
0.0
  9
$PLIMCHECK
 70
     0
  9
$PEXTMIN
 10
1.000000000000000E+20
 20
1.000000000000000E+20
 30
1.000000000000000E+20
  9
$PEXTMAX
 10
-1.000000000000000E+20
 20
-1.000000000000000E+20
 30
-1.000000000000000E+20
  9
$PLIMMIN
 10
0.0
 20
0.0
  9
$PLIMMAX
 10
0.0
 20
0.0
  9
$UNITMODE
 70
     0
  9
$VISRETAIN
 70
     1
  9
$PLINEGEN
 70
     0
  9
$PSLTSCALE
 70
     1
  9
$TREEDEPTH
 70
  3020
  9
$CMLSTYLE
  2
Standard
  9
$CMLJUST
 70
     0
  9
$CMLSCALE
 40
20.0
  9
$PROXYGRAPHICS
 70
     1
  9
$MEASUREMENT
 70
     1
  9
$CELWEIGHT
370
    -1
  9
$ENDCAPS
280
     0
  9
$JOINSTYLE
280
     0
  9
$LWDISPLAY
290
     1
  9
$INSUNITS
 70
     4
  9
$HYPERLINKBASE
  1

  9
$STYLESHEET
  1

  9
$XEDIT
290
     1
  9
$CEPSNTYPE
380
     0
  9
$PSTYLEMODE
290
     1
  9
$FINGERPRINTGUID
  2
{125372D4-34EC-4A88-A961-CC98522E7E93}
  9
$VERSIONGUID
  2
{FAEB1C32-E019-11D5-929B-00C0DF256EC4}
  9
$EXTNAMES
290
     1
  9
$PSVPSCALE
 40
0.0
  9
$OLESTARTUP
290
     0
  0
ENDSEC
  0
SECTION
  2
CLASSES
  0
CLASS
  1
ACDBDICTIONARYWDFLT
  2
AcDbDictionaryWithDefault
  3
ObjectDBX Classes
 90
        0
280
     0
281
     0
  0
CLASS
  1
VISUALSTYLE
  2
AcDbVisualStyle
  3
ObjectDBX Classes
 90
     4095
280
     0
281
     0
  0
CLASS
  1
MATERIAL
  2
AcDbMaterial
  3
ObjectDBX Classes
 90
     1153
280
     0
281
     0
  0
CLASS
  1
SCALE
  2
AcDbScale
  3
ObjectDBX Classes
 90
     1153
280
     0
281
     0
  0
CLASS
  1
SUN
  2
AcDbSun
  3
SCENEOE
 90
     1153
280
     0
281
     0
  0
CLASS
  1
ACDBPLACEHOLDER
  2
AcDbPlaceHolder
  3
ObjectDBX Classes
 90
        0
280
     0
281
     0
  0
CLASS
  1
LAYOUT
  2
AcDbLayout
  3
ObjectDBX Classes
 90
        0
280
     0
281
     0
  0
CLASS
  1
TABLESTYLE
  2
AcDbTableStyle
  3
ObjectDBX Classes
 90
     4095
280
     0
281
     0
  0
CLASS
  1
MLEADERSTYLE
  2
AcDbMLeaderStyle
  3
ACDB_MLEADERSTYLE_CLASS
 90
     4095
280
     0
281
     0
  0
CLASS
  1
DIMASSOC
  2
AcDbDimAssoc
  3
"AcDbDimAssoc|Product Desc:     AcDim ARX App For Dimension|Company:          Autodesk, Inc.|WEB Address:      www.autodesk.com"
 90
        0
280
     0
281
     0
  0
ENDSEC
  0
SECTION
  2
TABLES
  0
TABLE
  2
VPORT
  5
8
330
0
100
AcDbSymbolTable
 70
     1
  0
VPORT
  5
29
330
8
100
AcDbSymbolTableRecord
100
AcDbViewportTableRecord
  2
*Active
 70
     0
 10
0.0
 20
0.0
 11
1.0
 21
1.0
 12
-3.774992310409615
 22
-8.290379335953453
 13
0.0
 23
0.0
 14
10.0
 24
10.0
 15
10.0
 25
10.0
 16
0.0
 26
0.0
 36
1.0
 17
0.0
 27
0.0
 37
0.0
 40
85.03011322783092
 41
2.400311526479751
 42
50.0
 43
0.0
 44
0.0
 50
0.0
 51
0.0
 71
    16
 72
  2000
 73
     1
 74
     3
 75
     0
 76
     0
 77
     0
 78
     0
281
     0
 65
     1
110
0.0
120
0.0
130
0.0
111
1.0
121
0.0
131
0.0
112
0.0
122
1.0
132
0.0
 79
     0
146
0.0
  0
ENDTAB
  0
TABLE
  2
LTYPE
  5
5
330
0
100
AcDbSymbolTable
 70
     6
  0
LTYPE
  5
14
330
5
100
AcDbSymbolTableRecord
100
AcDbLinetypeTableRecord
  2
ByBlock
 70
     0
  3

 72
    65
 73
     0
 40
0.0
  0
LTYPE
  5
15
330
5
100
AcDbSymbolTableRecord
100
AcDbLinetypeTableRecord
  2
ByLayer
 70
     0
  3

 72
    65
 73
     0
 40
0.0
  0
LTYPE
  5
16
330
5
100
AcDbSymbolTableRecord
100
AcDbLinetypeTableRecord
  2
Continuous
 70
     0
  3
Solid line
 72
    65
 73
     0
 40
0.0
  0
LTYPE
  5
6A
330
5
100
AcDbSymbolTableRecord
100
AcDbLinetypeTableRecord
  2
HIDDEN
 70
     0
  3
Hidden __ __ __ __ __ __ __ __ __ __ __ __ __ __
 72
    65
 73
     2
 40
1.905
 49
1.27
 74
     0
 49
-0.635
 74
     0
  0
LTYPE
  5
6B
330
5
100
AcDbSymbolTableRecord
100
AcDbLinetypeTableRecord
  2
PHANTOM
 70
     0
  3
Phantom ______  __  __  ______  __  __  ______
 72
    65
 73
     6
 40
12.7
 49
6.35
 74
     0
 49
-1.27
 74
     0
 49
1.27
 74
     0
 49
-1.27
 74
     0
 49
1.27
 74
     0
 49
-1.27
 74
     0
  0
LTYPE
  5
6C
330
5
100
AcDbSymbolTableRecord
100
AcDbLinetypeTableRecord
  2
CENTER
 70
     0
  3
Center ____ _ ____ _ ____ _ ____ _ ____ _ ____
 72
    65
 73
     4
 40
10.16
 49
6.35
 74
     0
 49
-1.27
 74
     0
 49
1.27
 74
     0
 49
-1.27
 74
     0
  0
LTYPE
  5
6D
330
5
100
AcDbSymbolTableRecord
100
AcDbLinetypeTableRecord
  2
CENTERX2
 70
     0
  3
Center (2x) ________  __  ________  __  _____
 72
    65
 73
     4
 40
20.32
 49
12.7
 74
     0
 49
-2.54
 74
     0
 49
2.54
 74
     0
 49
-2.54
 74
     0
  0
LTYPE
  5
6E
330
5
100
AcDbSymbolTableRecord
100
AcDbLinetypeTableRecord
  2
DOT2
 70
     0
  3
Dot (.5x) ........................................
 72
    65
 73
     2
 40
0.635
 49
0.0
 74
     0
 49
-0.635
 74
     0
  0
ENDTAB
  0
TABLE
  2
LAYER
  5
2
330
0
100
AcDbSymbolTable
 70
    18
  0
LAYER
  5
10
330
2
100
AcDbSymbolTableRecord
100
AcDbLayerTableRecord
  2
0
 70
     0
 62
     7
  6
Continuous
370
    -3
390
F
  0
LAYER
  5
6F
330
2
100
AcDbSymbolTableRecord
100
AcDbLayerTableRecord
  2
FORMAT
 70
     0
 62
     2
  6
Continuous
370
    -3
390
F
  0
LAYER
  5
70
330
2
100
AcDbSymbolTableRecord
100
AcDbLayerTableRecord
  2
외형선
 70
     0
 62
     4
  6
Continuous
370
    30
390
F
  0
LAYER
  5
71
330
2
100
AcDbSymbolTableRecord
100
AcDbLayerTableRecord
  2
숨은선
 70
     0
 62
     2
  6
HIDDEN
370
    15
390
F
  0
LAYER
  5
72
330
2
100
AcDbSymbolTableRecord
100
AcDbLayerTableRecord
  2
중심선
 70
     0
 62
     1
  6
CENTERX2
370
    -3
390
F
  0
LAYER
  5
73
330
2
100
AcDbSymbolTableRecord
100
AcDbLayerTableRecord
  2
파단선
 70
     0
 62
     4
  6
Continuous
370
    -3
390
F
  0
LAYER
  5
74
330
2
100
AcDbSymbolTableRecord
100
AcDbLayerTableRecord
  2
해칭선
 70
     0
 62
   100
  6
Continuous
370
    -3
390
F
  0
LAYER
  5
75
330
2
100
AcDbSymbolTableRecord
100
AcDbLayerTableRecord
  2
가는실선
 70
     0
 62
     4
  6
Continuous
370
    -3
390
F
  0
LAYER
  5
76
330
2
100
AcDbSymbolTableRecord
100
AcDbLayerTableRecord
  2
치수_보조선
 70
     0
 62
     4
  6
Continuous
370
    -3
390
F
  0
LAYER
  5
77
330
2
100
AcDbSymbolTableRecord
100
AcDbLayerTableRecord
  2
치수문자_일반주서
 70
     0
 62
     7
  6
Continuous
370
    15
390
F
  0
LAYER
  5
78
330
2
100
AcDbSymbolTableRecord
100
AcDbLayerTableRecord
  2
개별주서
 70
     0
 62
   100
  6
Continuous
370
    30
390
F
  0
LAYER
  5
79
330
2
100
AcDbSymbolTableRecord
100
AcDbLayerTableRecord
  2
중간선
 70
     0
 62
     2
  6
Continuous
370
    15
390
F
  0
LAYER
  5
7A
330
2
100
AcDbSymbolTableRecord
100
AcDbLayerTableRecord
  2
윤곽선
 70
     0
 62
     3
  6
Continuous
370
    40
390
F
  0
LAYER
  5
7B
330
2
100
AcDbSymbolTableRecord
100
AcDbLayerTableRecord
  2
중심마크
 70
     0
 62
   100
  6
Continuous
370
    30
390
F
  0
LAYER
  5
7C
330
2
100
AcDbSymbolTableRecord
100
AcDbLayerTableRecord
  2
가상선
 70
     0
 62
     4
  6
PHANTOM
370
    -3
390
F
  0
LAYER
  5
7D
330
2
100
AcDbSymbolTableRecord
100
AcDbLayerTableRecord
  2
특수지정선
 70
     0
 62
     5
  6
CENTERX2
370
    60
390
F
  0
LAYER
  5
7E
330
2
100
AcDbSymbolTableRecord
100
AcDbLayerTableRecord
  2
참조1
 70
     0
 62
    -4
  6
Continuous
370
    -3
390
F
  0
LAYER
  5
13A
330
2
100
AcDbSymbolTableRecord
100
AcDbLayerTableRecord
  2
Defpoints
 70
     0
 62
     7
  6
Continuous
290
     0
370
    -3
390
F
  0
ENDTAB
  0
TABLE
  2
STYLE
  5
3
330
0
100
AcDbSymbolTable
 70
     2
  0
STYLE
  5
11
330
3
100
AcDbSymbolTableRecord
100
AcDbTextStyleTableRecord
  2
Standard
 70
     0
 40
0.0
 41
1.0
 50
0.0
 71
     0
 42
3.5
  3
txt
  4

  0
STYLE
  5
94
330
3
100
AcDbSymbolTableRecord
100
AcDbTextStyleTableRecord
  2
SLDTEXTSTYLE0
 70
     0
 40
0.0
 41
0.75
 50
0.0
 71
     0
 42
3.5
  3
TXT
  4

  0
ENDTAB
  0
TABLE
  2
VIEW
  5
6
330
0
100
AcDbSymbolTable
 70
     0
  0
ENDTAB
  0
TABLE
  2
UCS
  5
7
330
0
100
AcDbSymbolTable
 70
     0
  0
ENDTAB
  0
TABLE
  2
APPID
  5
9
330
0
100
AcDbSymbolTable
 70
     3
  0
APPID
  5
12
330
9
100
AcDbSymbolTableRecord
100
AcDbRegAppTableRecord
  2
ACAD
 70
     0
  0
APPID
  5
148
330
9
100
AcDbSymbolTableRecord
100
AcDbRegAppTableRecord
  2
PE_URL
 70
     0
  0
APPID
  5
14B
330
9
100
AcDbSymbolTableRecord
100
AcDbRegAppTableRecord
  2
ACAD_DSTYLE_DIMRADIAL_EXTENSION
 70
     0
  0
ENDTAB
  0
TABLE
  2
DIMSTYLE
  5
A
330
0
100
AcDbSymbolTable
 70
     3
100
AcDbDimStyleTable
  0
DIMSTYLE
105
27
102
{ACAD_REACTORS
330
14C
102
}
330
A
100
AcDbSymbolTableRecord
100
AcDbDimStyleTableRecord
  2
ISO-25
 70
     0
 41
2.5
 42
0.625
 43
3.75
 44
1.25
 73
     0
 74
     0
 77
     1
 78
     8
140
2.5
141
2.5
143
0.03937007874016
147
0.625
171
     3
172
     1
178
     0
271
     2
272
     2
274
     3
278
    44
283
     0
284
     8
340
11
  0
DIMSTYLE
105
D2
330
A
100
AcDbSymbolTableRecord
100
AcDbDimStyleTableRecord
  2
SLDDIMSTYLE0
 70
     0
 41
3.302
 44
0.0
 45
0.000000001
 73
     0
 74
     0
 77
     1
 78
    12
 79
     3
140
3.5
147
0.875
173
     1
178
     0
271
     2
272
     2
276
     2
284
    12
340
94
  0
DIMSTYLE
105
DF
102
{ACAD_REACTORS
330
DE
330
D1
330
EC
330
F6
330
100
102
}
330
A
100
AcDbSymbolTableRecord
100
AcDbDimStyleTableRecord
  2
SLDDIMSTYLE1
 70
     0
 41
3.302
 44
0.0
 45
0.000000001
 73
     0
 74
     0
 77
     1
 78
    12
 79
     3
140
3.5
147
0.875
172
     1
173
     1
178
     0
271
     2
272
     2
276
     2
284
    12
289
     0
340
94
  0
ENDTAB
  0
TABLE
  2
BLOCK_RECORD
  5
1
330
0
100
AcDbSymbolTable
 70
     9
  0
BLOCK_RECORD
  5
1F
330
1
100
AcDbSymbolTableRecord
100
AcDbBlockTableRecord
  2
*Model_Space
340
22
  0
BLOCK_RECORD
  5
1B
330
1
100
AcDbSymbolTableRecord
100
AcDbBlockTableRecord
  2
*Paper_Space
340
1E
  0
BLOCK_RECORD
  5
23
330
1
100
AcDbSymbolTableRecord
100
AcDbBlockTableRecord
  2
*Paper_Space0
340
26
  0
BLOCK_RECORD
  5
7F
330
1
100
AcDbSymbolTableRecord
100
AcDbBlockTableRecord
  2
블럭10
340
0
102
{BLKREFS
331
CA
102
}
  0
BLOCK_RECORD
  5
D3
330
1
100
AcDbSymbolTableRecord
100
AcDbBlockTableRecord
  2
_D
340
0
  0
BLOCK_RECORD
  5
E0
330
1
100
AcDbSymbolTableRecord
100
AcDbBlockTableRecord
  2
_D_1
340
0
  0
BLOCK_RECORD
  5
ED
330
1
100
AcDbSymbolTableRecord
100
AcDbBlockTableRecord
  2
_D_2
340
0
  0
BLOCK_RECORD
  5
F7
330
1
100
AcDbSymbolTableRecord
100
AcDbBlockTableRecord
  2
_D_3
340
0
  0
BLOCK_RECORD
  5
101
330
1
100
AcDbSymbolTableRecord
100
AcDbBlockTableRecord
  2
_D_4
340
0
  0
BLOCK_RECORD
  5
111
330
1
100
AcDbSymbolTableRecord
100
AcDbBlockTableRecord
  2
SW_DOWELSYMBOL_0
340
0
102
{BLKREFS
331
117
102
}
  0
BLOCK_RECORD
  5
14F
330
1
100
AcDbSymbolTableRecord
100
AcDbBlockTableRecord
  2
*D8
340
0
  0
ENDTAB
  0
ENDSEC
  0
SECTION
  2
BLOCKS
  0
BLOCK
  5
20
330
1F
100
AcDbEntity
  8
0
100
AcDbBlockBegin
  2
*Model_Space
 70
     0
 10
0.0
 20
0.0
 30
0.0
  3
*Model_Space
  1

  0
ENDBLK
  5
21
330
1F
100
AcDbEntity
  8
0
100
AcDbBlockEnd
  0
BLOCK
  5
1C
330
1B
100
AcDbEntity
 67
     1
  8
0
100
AcDbBlockBegin
  2
*Paper_Space
 70
     0
 10
0.0
 20
0.0
 30
0.0
  3
*Paper_Space
  1

  0
ENDBLK
  5
1D
330
1B
100
AcDbEntity
 67
     1
  8
0
100
AcDbBlockEnd
  0
BLOCK
  5
24
330
23
100
AcDbEntity
  8
0
100
AcDbBlockBegin
  2
*Paper_Space0
 70
     0
 10
0.0
 20
0.0
 30
0.0
  3
*Paper_Space0
  1

  0
ENDBLK
  5
25
330
23
100
AcDbEntity
  8
0
100
AcDbBlockEnd
  0
BLOCK
  5
80
330
7F
100
AcDbEntity
  8
0
100
AcDbBlockBegin
  2
블럭10
 70
     2
 10
0.0
 20
0.0
 30
0.0
  3
블럭10
  1

  0
ELLIPSE
  5
82
330
7F
100
AcDbEntity
  8
중심선
100
AcDbEllipse
 10
20.54032771741204
 20
12.0471743016438
 30
0.0
 11
6.600054785286829
 21
-1.261213355974178E-13
 31
0.0
210
0.0
220
0.0
230
1.0
 40
0.636358354079598
 41
0.9219305317359503
 42
6.513795318482858
  0
ELLIPSE
  5
83
330
7F
100
AcDbEntity
  8
중심선
100
AcDbEllipse
 10
20.54032771746488
 20
12.04717430159265
 30
0.0
 11
3.960054785062283
 21
1.540847449632565E-10
 31
0.0
210
0.0
220
0.0
230
1.0
 40
0.3939339440162632
 41
1.131841032648279
 42
5.62031148352944
  0
LINE
  5
84
330
7F
100
AcDbEntity
  8
중심선
100
AcDbLine
 10
2.268634060543552
 20
16.24717430164393
 30
0.0
 11
5.714909304380834
 21
16.24717430164393
 31
0.0
  0
LINE
  5
85
330
7F
100
AcDbEntity
  8
중심선
100
AcDbLine
 10
5.245725140726316
 20
7.84717430164391
 30
0.0
 11
8.692000384563599
 21
7.84717430164391
 31
0.0
  0
LINE
  5
86
330
7F
100
AcDbEntity
  8
중심선
100
AcDbLine
 10
15.74043728645272
 20
16.24717430164393
 30
0.0
 11
8.692000384563599
 21
7.84717430164391
 31
0.0
  0
LINE
  5
87
330
7F
100
AcDbEntity
  8
중심선
100
AcDbLine
 10
0.1404042013395286
 20
13.71084872107135
 30
0.0
 11
3.58671253028996
 21
13.71088815037384
 31
0.0
  0
LINE
  5
88
330
7F
100
AcDbEntity
  8
중심선
100
AcDbLine
 10
2.750260043222114
 20
10.84717430164391
 30
0.0
 11
6.196535287059397
 21
10.84717430164391
 31
0.0
  0
LINE
  5
89
330
7F
100
AcDbEntity
  8
중심선
100
AcDbLine
 10
12.29416204261559
 20
16.24717430164393
 30
0.0
 11
5.245725140726316
 21
7.84717430164391
 31
0.0
  0
LINE
  5
8A
330
7F
100
AcDbEntity
  8
중심선
100
AcDbLine
 10
10.72767329541681
 20
16.24717430164393
 30
0.0
 11
6.196535287059397
 21
10.84717430164391
 31
0.0
  0
LINE
  5
8B
330
7F
100
AcDbEntity
  8
중심선
100
AcDbLine
 10
7.28139805157953
 20
16.24717430164393
 30
0.0
 11
2.750260043222114
 21
10.84717430164391
 31
0.0
  0
LINE
  5
8C
330
7F
100
AcDbEntity
  8
중심선
100
AcDbLine
 10
5.714909304380834
 20
16.24717430164393
 30
0.0
 11
3.58671253028996
 21
13.71088815037384
 31
0.0
  0
LINE
  5
8D
330
7F
100
AcDbEntity
  8
중심선
100
AcDbLine
 10
2.268634060543552
 20
16.24717430164393
 30
0.0
 11
0.1404042013395286
 21
13.71084872107135
 31
0.0
  0
LINE
  5
8E
330
7F
100
AcDbEntity
  8
중심선
100
AcDbLine
 10
7.28139805157953
 20
16.24717430164393
 30
0.0
 11
10.72767329541681
 21
16.24717430164393
 31
0.0
  0
LINE
  5
8F
330
7F
100
AcDbEntity
  8
중심선
100
AcDbLine
 10
12.29416204261559
 20
16.24717430164393
 30
0.0
 11
15.74043728645272
 21
16.24717430164393
 31
0.0
  0
LINE
  5
90
330
7F
100
AcDbEntity
  8
중심선
100
AcDbLine
 10
19.22036997980202
 20
11.08717430171403
 30
0.0
 11
23.66174974927406
 21
11.08717430171406
 31
0.0
  0
LINE
  5
91
330
7F
100
AcDbEntity
  8
중심선
100
AcDbLine
 10
19.22039502424796
 20
13.00717430171391
 30
0.0
 11
19.22036997980202
 21
11.08717430171403
 31
0.0
  0
LINE
  5
92
330
7F
100
AcDbEntity
  8
중심선
100
AcDbLine
 10
19.22039502424796
 20
13.00717430171391
 30
0.0
 11
26.96566020931264
 21
13.00717430171391
 31
0.0
  0
LINE
  5
93
330
7F
100
AcDbEntity
  8
중심선
100
AcDbLine
 10
22.22332737316547
 20
13.45928029700563
 30
0.0
 11
24.52862924686651
 21
15.39360700705356
 31
0.0
  0
ATTDEF
  5
95
330
7F
100
AcDbEntity
  8
FORMAT
 62
     2
100
AcDbText
 10
-7.268459303319146
 20
2.075366912832191
 30
0.0
 40
4.233333333333333
  1
SEME6410005100E
 41
0.75
  7
SLDTEXTSTYLE0
 11
-7.268459303319146
 21
-0.0412997538344756
 31
0.0
100
AcDbAttributeDefinition
  3

  2
AUTOATTR0
 70
     0
 74
     1
  0
ENDBLK
  5
81
330
7F
100
AcDbEntity
  8
0
100
AcDbBlockEnd
  0
BLOCK
  5
D4
330
D3
100
AcDbEntity
  8
0
100
AcDbBlockBegin
  2
_D
 70
     0
 10
0.0
 20
0.0
 30
0.0
  3
_D
  1

  0
LINE
  5
D6
330
D3
100
AcDbEntity
  8
치수문자_일반주서
 62
     0
370
    -2
100
AcDbLine
 10
30.40091287702403
 20
5.000000000000003
 30
0.0
 11
61.22497982100113
 21
5.000000000000118
 31
0.0
  0
LINE
  5
D7
330
D3
100
AcDbEntity
  8
치수문자_일반주서
 62
     0
370
    -2
100
AcDbLine
 10
30.40091287702403
 20
-4.999999999999996
 30
0.0
 11
61.22497982100116
 21
-4.999999999999883
 31
0.0
  0
LINE
  5
D8
330
D3
100
AcDbEntity
  8
치수문자_일반주서
 62
     0
370
    -2
100
AcDbLine
 10
61.22497982100113
 20
5.000000000000118
 30
0.0
 11
61.22497982100107
 21
19.04150000000012
 31
0.0
  0
LINE
  5
D9
330
D3
100
AcDbEntity
  8
치수문자_일반주서
 62
     0
370
    -2
100
AcDbLine
 10
61.22497982100113
 20
5.000000000000118
 30
0.0
 11
61.22497982100116
 21
-4.999999999999883
 31
0.0
  0
LINE
  5
DA
330
D3
100
AcDbEntity
  8
치수문자_일반주서
 62
     0
370
    -2
100
AcDbLine
 10
61.22497982100111
 20
8.302000000000117
 30
0.0
 11
61.2249798210011
 21
11.60400000000012
 31
0.0
  0
LINE
  5
DB
330
D3
100
AcDbEntity
  8
치수문자_일반주서
 62
     0
370
    -2
100
AcDbLine
 10
61.22497982100118
 20
-8.301999999999882
 30
0.0
 11
61.22497982100119
 21
-11.60399999999988
 31
0.0
  0
SOLID
  5
DC
330
D3
100
AcDbEntity
  8
치수문자_일반주서
 62
     0
100
AcDbTrace
 10
60.67464648766778
 20
8.302000000000115
 30
0.0
 11
61.77531315433445
 21
8.302000000000119
 31
0.0
 12
61.22497982100113
 22
5.000000000000118
 32
0.0
 13
61.22497982100113
 23
5.000000000000118
 33
0.0
  0
SOLID
  5
DD
330
D3
100
AcDbEntity
  8
치수문자_일반주서
 62
     0
100
AcDbTrace
 10
61.77531315433451
 20
-8.30199999999988
 30
0.0
 11
60.67464648766784
 21
-8.301999999999884
 31
0.0
 12
61.22497982100116
 22
-4.999999999999883
 32
0.0
 13
61.22497982100116
 23
-4.999999999999883
 33
0.0
  0
MTEXT
  5
13B
330
D3
100
AcDbEntity
  8
치수문자_일반주서
 62
     0
100
AcDbMText
 10
56.84997982100109
 20
15.3227500000001
 30
0.0
 40
3.5
 41
0.0
 71
     2
 72
     1
  1
\A1;%%c10
  7
SLDTEXTSTYLE0
 11
-3.552713678800502E-15
 21
1.0
 31
0.0
 73
     1
 44
1.0
  0
POINT
  5
13C
330
D3
100
AcDbEntity
  8
Defpoints
 62
     0
100
AcDbPoint
 10
30.33841287702403
 20
5.000000000000003
 30
0.0
  0
POINT
  5
149
330
D3
100
AcDbEntity
  8
Defpoints
 62
     0
100
AcDbPoint
 10
30.33841287702403
 20
-4.999999999999996
 30
0.0
  0
POINT
  5
14A
330
D3
100
AcDbEntity
  8
Defpoints
 62
     0
100
AcDbPoint
 10
61.22497982100116
 20
-4.99999999999988
 30
0.0
  0
ENDBLK
  5
D5
330
D3
100
AcDbEntity
  8
0
100
AcDbBlockEnd
  0
BLOCK
  5
E1
330
E0
100
AcDbEntity
  8
0
100
AcDbBlockBegin
  2
_D_1
 70
     0
 10
0.0
 20
0.0
 30
0.0
  3
_D_1
  1

  0
LINE
  5
E3
330
E0
100
AcDbEntity
  8
치수문자_일반주서
 62
     0
370
    -2
100
AcDbLine
 10
-58.9125
 20
5.000000000000004
 30
0.0
 11
-68.83846843616482
 21
4.999999999999967
 31
0.0
  0
LINE
  5
E4
330
E0
100
AcDbEntity
  8
치수문자_일반주서
 62
     0
370
    -2
100
AcDbLine
 10
-58.9125
 20
-5.000000000000004
 30
0.0
 11
-68.83846843616479
 21
-5.000000000000042
 31
0.0
  0
LINE
  5
E5
330
E0
100
AcDbEntity
  8
치수문자_일반주서
 62
     0
370
    -2
100
AcDbLine
 10
-68.8384684361648
 20
1.697999999999968
 30
0.0
 11
-68.8384684361648
 21
-1.698000000000042
 31
0.0
  0
SOLID
  5
E6
330
E0
100
AcDbEntity
  8
치수문자_일반주서
 62
     0
100
AcDbTrace
 10
-68.28813510283148
 20
1.697999999999969
 30
0.0
 11
-69.38880176949813
 21
1.697999999999966
 31
0.0
 12
-68.83846843616482
 22
4.999999999999967
 32
0.0
 13
-68.83846843616482
 23
4.999999999999967
 33
0.0
  0
SOLID
  5
E7
330
E0
100
AcDbEntity
  8
치수문자_일반주서
 62
     0
100
AcDbTrace
 10
-69.38880176949813
 20
-1.698000000000044
 30
0.0
 11
-68.28813510283148
 21
-1.698000000000041
 31
0.0
 12
-68.83846843616479
 22
-5.000000000000042
 32
0.0
 13
-68.83846843616479
 23
-5.000000000000042
 33
0.0
  0
MTEXT
  5
E8
330
E0
100
AcDbEntity
  8
치수문자_일반주서
 62
     0
100
AcDbMText
 10
-73.2134684361648
 20
-0.0000000000000087
 30
0.0
 40
3.5
 41
0.0
 71
     2
 72
     1
  1
\A1;%%c10
  7
SLDTEXTSTYLE0
 11
-2.842170943040398E-15
 21
1.0
 31
0.0
 73
     1
 44
1.0
  0
POINT
  5
E9
330
E0
100
AcDbEntity
  8
Defpoints
 62
     0
100
AcDbPoint
 10
-58.85
 20
5.000000000000004
 30
0.0
  0
POINT
  5
EA
330
E0
100
AcDbEntity
  8
Defpoints
 62
     0
100
AcDbPoint
 10
-58.85
 20
-5.000000000000004
 30
0.0
  0
POINT
  5
EB
330
E0
100
AcDbEntity
  8
Defpoints
 62
     0
100
AcDbPoint
 10
-68.8384684361648
 20
-5.000000000000042
 30
0.0
  0
ENDBLK
  5
E2
330
E0
100
AcDbEntity
  8
0
100
AcDbBlockEnd
  0
BLOCK
  5
EE
330
ED
100
AcDbEntity
  8
0
100
AcDbBlockBegin
  2
_D_2
 70
     0
 10
0.0
 20
0.0
 30
0.0
  3
_D_2
  1

  0
LINE
  5
F0
330
ED
100
AcDbEntity
  8
치수문자_일반주서
 62
     0
370
    -2
100
AcDbLine
 10
40.15000000000001
 20
4.53501265169994
 30
0.0
 11
40.15000000000001
 21
14.60855141574294
 31
0.0
  0
LINE
  5
F1
330
ED
100
AcDbEntity
  8
치수문자_일반주서
 62
     0
370
    -2
100
AcDbLine
 10
15.14999999999998
 20
4.99115334899627
 30
0.0
 11
15.14999999999998
 21
14.60855141574294
 31
0.0
  0
LINE
  5
F2
330
ED
100
AcDbEntity
  8
치수문자_일반주서
 62
     0
370
    -2
100
AcDbLine
 10
36.84800000000001
 20
14.60855141574294
 30
0.0
 11
18.45199999999998
 21
14.60855141574294
 31
0.0
  0
SOLID
  5
F3
330
ED
100
AcDbEntity
  8
치수문자_일반주서
 62
     0
100
AcDbTrace
 10
36.84800000000001
 20
14.05821808240961
 30
0.0
 11
36.84800000000001
 21
15.15888474907628
 31
0.0
 12
40.15000000000001
 22
14.60855141574294
 32
0.0
 13
40.15000000000001
 23
14.60855141574294
 33
0.0
  0
SOLID
  5
F4
330
ED
100
AcDbEntity
  8
치수문자_일반주서
 62
     0
100
AcDbTrace
 10
18.45199999999998
 20
15.15888474907628
 30
0.0
 11
18.45199999999998
 21
14.05821808240961
 31
0.0
 12
15.14999999999998
 22
14.60855141574294
 32
0.0
 13
15.14999999999998
 23
14.60855141574294
 33
0.0
  0
MTEXT
  5
F5
330
ED
100
AcDbEntity
  8
치수문자_일반주서
 62
     0
100
AcDbMText
 10
27.64999999999999
 20
18.98355141574294
 30
0.0
 40
3.5
 41
0.0
 71
     2
 72
     1
  1
\A1;25
  7
SLDTEXTSTYLE0
 73
     1
 44
1.0
  0
POINT
  5
13D
330
ED
100
AcDbEntity
  8
Defpoints
 62
     0
100
AcDbPoint
 10
40.15000000000001
 20
4.47251265169994
 30
0.0
  0
POINT
  5
13E
330
ED
100
AcDbEntity
  8
Defpoints
 62
     0
100
AcDbPoint
 10
15.14999999999998
 20
4.92865334899627
 30
0.0
  0
POINT
  5
13F
330
ED
100
AcDbEntity
  8
Defpoints
 62
     0
100
AcDbPoint
 10
15.14999999999998
 20
14.60855141574294
 30
0.0
  0
ENDBLK
  5
EF
330
ED
100
AcDbEntity
  8
0
100
AcDbBlockEnd
  0
BLOCK
  5
F8
330
F7
100
AcDbEntity
  8
0
100
AcDbBlockBegin
  2
_D_3
 70
     0
 10
0.0
 20
0.0
 30
0.0
  3
_D_3
  1

  0
LINE
  5
FA
330
F7
100
AcDbEntity
  8
치수문자_일반주서
 62
     0
370
    -2
100
AcDbLine
 10
40.15000000000001
 20
4.53501265169994
 30
0.0
 11
40.15000000000001
 21
20.60855141574292
 31
0.0
  0
LINE
  5
FB
330
F7
100
AcDbEntity
  8
치수문자_일반주서
 62
     0
370
    -2
100
AcDbLine
 10
0.1500000000000057
 20
4.912499999999999
 30
0.0
 11
0.1500000000000057
 21
20.60855141574292
 31
0.0
  0
LINE
  5
FC
330
F7
100
AcDbEntity
  8
치수문자_일반주서
 62
     0
370
    -2
100
AcDbLine
 10
36.84800000000001
 20
20.60855141574292
 30
0.0
 11
3.452000000000005
 21
20.60855141574292
 31
0.0
  0
SOLID
  5
FD
330
F7
100
AcDbEntity
  8
치수문자_일반주서
 62
     0
100
AcDbTrace
 10
36.84800000000001
 20
20.05821808240958
 30
0.0
 11
36.84800000000001
 21
21.15888474907625
 31
0.0
 12
40.15000000000001
 22
20.60855141574292
 32
0.0
 13
40.15000000000001
 23
20.60855141574292
 33
0.0
  0
SOLID
  5
FE
330
F7
100
AcDbEntity
  8
치수문자_일반주서
 62
     0
100
AcDbTrace
 10
3.452000000000005
 20
21.15888474907625
 30
0.0
 11
3.452000000000005
 21
20.05821808240958
 31
0.0
 12
0.1500000000000057
 22
20.60855141574292
 32
0.0
 13
0.1500000000000057
 23
20.60855141574292
 33
0.0
  0
MTEXT
  5
FF
330
F7
100
AcDbEntity
  8
치수문자_일반주서
 62
     0
100
AcDbMText
 10
20.15000000000001
 20
24.98355141574292
 30
0.0
 40
3.5
 41
0.0
 71
     2
 72
     1
  1
\A1;40
  7
SLDTEXTSTYLE0
 73
     1
 44
1.0
  0
POINT
  5
140
330
F7
100
AcDbEntity
  8
Defpoints
 62
     0
100
AcDbPoint
 10
40.15000000000001
 20
4.47251265169994
 30
0.0
  0
POINT
  5
141
330
F7
100
AcDbEntity
  8
Defpoints
 62
     0
100
AcDbPoint
 10
0.1500000000000057
 20
4.849999999999999
 30
0.0
  0
POINT
  5
142
330
F7
100
AcDbEntity
  8
Defpoints
 62
     0
100
AcDbPoint
 10
0.1500000000000057
 20
20.60855141574292
 30
0.0
  0
ENDBLK
  5
F9
330
F7
100
AcDbEntity
  8
0
100
AcDbBlockEnd
  0
BLOCK
  5
102
330
101
100
AcDbEntity
  8
0
100
AcDbBlockBegin
  2
_D_4
 70
     0
 10
0.0
 20
0.0
 30
0.0
  3
_D_4
  1

  0
LINE
  5
104
330
101
100
AcDbEntity
  8
치수문자_일반주서
 62
     0
370
    -2
100
AcDbLine
 10
40.15000000000001
 20
4.53501265169994
 30
0.0
 11
40.15
 21
29.01604871690483
 31
0.0
  0
LINE
  5
105
330
101
100
AcDbEntity
  8
치수문자_일반주서
 62
     0
370
    -2
100
AcDbLine
 10
-59.85
 20
4.062500000000011
 30
0.0
 11
-59.85000000000001
 21
29.01604871690483
 31
0.0
  0
LINE
  5
106
330
101
100
AcDbEntity
  8
치수문자_일반주서
 62
     0
370
    -2
100
AcDbLine
 10
36.848
 20
29.01604871690483
 30
0.0
 11
-56.54800000000001
 21
29.01604871690483
 31
0.0
  0
SOLID
  5
107
330
101
100
AcDbEntity
  8
치수문자_일반주서
 62
     0
100
AcDbTrace
 10
36.848
 20
28.4657153835715
 30
0.0
 11
36.848
 21
29.56638205023816
 31
0.0
 12
40.15
 22
29.01604871690483
 32
0.0
 13
40.15
 23
29.01604871690483
 33
0.0
  0
SOLID
  5
108
330
101
100
AcDbEntity
  8
치수문자_일반주서
 62
     0
100
AcDbTrace
 10
-56.54800000000001
 20
29.56638205023816
 30
0.0
 11
-56.54800000000001
 21
28.4657153835715
 31
0.0
 12
-59.85000000000001
 22
29.01604871690483
 32
0.0
 13
-59.85000000000001
 23
29.01604871690483
 33
0.0
  0
MTEXT
  5
109
330
101
100
AcDbEntity
  8
치수문자_일반주서
 62
     0
100
AcDbMText
 10
-9.849999999999996
 20
33.39104871690483
 30
0.0
 40
3.5
 41
0.0
 71
     2
 72
     1
  1
\A1;100
  7
SLDTEXTSTYLE0
 73
     1
 44
1.0
  0
POINT
  5
143
330
101
100
AcDbEntity
  8
Defpoints
 62
     0
100
AcDbPoint
 10
40.15000000000001
 20
4.47251265169994
 30
0.0
  0
POINT
  5
144
330
101
100
AcDbEntity
  8
Defpoints
 62
     0
100
AcDbPoint
 10
-59.85
 20
4.000000000000011
 30
0.0
  0
POINT
  5
145
330
101
100
AcDbEntity
  8
Defpoints
 62
     0
100
AcDbPoint
 10
-59.85
 20
29.01604871690483
 30
0.0
  0
ENDBLK
  5
103
330
101
100
AcDbEntity
  8
0
100
AcDbBlockEnd
  0
BLOCK
  5
112
330
111
100
AcDbEntity
  8
0
100
AcDbBlockBegin
  2
SW_DOWELSYMBOL_0
 70
     0
 10
0.0
 20
0.0
 30
0.0
  3
SW_DOWELSYMBOL_0
  1

  0
CIRCLE
  5
114
330
111
100
AcDbEntity
  8
해칭선
 62
     0
100
AcDbCircle
 10
0.0
 20
0.0
 30
0.0
 40
3.000000000000001
  0
HATCH
  5
115
330
111
100
AcDbEntity
  8
0
  6
Continuous
 62
     0
370
     0
100
AcDbHatch
 10
0.0
 20
0.0
 30
0.0
210
0.0
220
0.0
230
1.0
  2
SOLID
 70
     1
 71
     0
 91
        1
 92
        0
 93
        3
 72
     2
 10
0.0
 20
0.0
 40
3.000000000000001
 50
0.0
 51
90.0
 73
     1
 72
     1
 10
0.0
 20
3.000000000000001
 11
0.0
 21
0.0
 72
     1
 10
0.0
 20
0.0
 11
3.000000000000003
 21
0.0
 97
        0
 75
     0
 76
     1
 98
        1
 10
0.0
 20
0.0
  0
HATCH
  5
116
330
111
100
AcDbEntity
  8
0
  6
Continuous
 62
     0
370
     0
100
AcDbHatch
 10
0.0
 20
0.0
 30
0.0
210
0.0
220
0.0
230
1.0
  2
SOLID
 70
     1
 71
     0
 91
        1
 92
        0
 93
        3
 72
     2
 10
0.0
 20
0.0
 40
3.000000000000001
 50
180.0
 51
270.0000000000008
 73
     1
 72
     1
 10
0.0
 20
-3.000000000000001
 11
0.0
 21
0.0
 72
     1
 10
0.0
 20
0.0
 11
-3.000000000000003
 21
0.0
 97
        0
 75
     0
 76
     1
 98
        1
 10
0.0
 20
0.0
  0
ENDBLK
  5
113
330
111
100
AcDbEntity
  8
0
100
AcDbBlockEnd
  0
BLOCK
  5
150
330
14F
100
AcDbEntity
  8
0
100
AcDbBlockBegin
  2
*D8
 70
     1
 10
0.0
 20
0.0
 30
0.0
  3
*D8
  1

  0
LINE
  5
152
330
14F
100
AcDbEntity
  8
0
 62
     0
370
    -2
100
AcDbLine
 10
58.5676620289389
 20
-12.36605334427215
 30
0.0
 11
43.62699536227223
 21
-12.36605334427215
 31
0.0
  0
LINE
  5
153
330
14F
100
AcDbEntity
  8
0
 62
     0
370
    -2
100
AcDbLine
 10
43.62699536227223
 20
-12.36605334427215
 30
0.0
 11
41.36069913659112
 21
-7.867908425989929
 31
0.0
  0
MTEXT
  5
154
330
14F
100
AcDbEntity
  8
0
 62
     0
100
AcDbMText
 10
51.85932869560557
 20
-8.800386677605488
 30
0.0
 40
3.5
 41
0.0
 71
     5
 72
     1
  1
R0,50
 73
     1
 44
1.0
  0
LINE
  5
155
330
14F
100
AcDbEntity
  8
0
 62
     0
370
    -2
100
AcDbLine
 10
39.65000000000001
 20
-4.47251265169992
 30
0.0
 11
39.874973584507
 21
-4.919040239060521
 31
0.0
  0
SOLID
  5
156
330
14F
100
AcDbEntity
  8
0
 62
     0
100
AcDbTrace
 10
41.85217716774601
 20
-7.620287500642576
 30
0.0
 11
40.86922110543622
 21
-8.115529351337283
 31
0.0
 12
39.874973584507
 22
-4.919040239060521
 32
0.0
 13
39.874973584507
 23
-4.919040239060521
 33
0.0
  0
POINT
  5
157
330
14F
100
AcDbEntity
  8
Defpoints
 62
     0
100
AcDbPoint
 10
39.874973584507
 20
-4.919040239060521
 30
0.0
  0
POINT
  5
158
330
14F
100
AcDbEntity
  8
Defpoints
 62
     0
100
AcDbPoint
 10
39.65000000000001
 20
-4.47251265169992
 30
0.0
  0
ENDBLK
  5
151
330
14F
100
AcDbEntity
  8
0
100
AcDbBlockEnd
  0
ENDSEC
  0
SECTION
  2
ENTITIES
  0
LINE
  5
96
330
1F
100
AcDbEntity
  8
외형선
  6
Continuous
 62
     1
370
    15
100
AcDbLine
 10
27.28785873009057
 20
-4.999999999999996
 30
0.0
 11
30.3379739028947
 21
-4.999999999999996
 31
0.0
  0
LINE
  5
97
330
1F
100
AcDbEntity
  8
외형선
  6
Continuous
 62
     1
370
    15
100
AcDbLine
 10
16.73464638539256
 20
5.000000000000001
 30
0.0
 11
15.15000000000001
 21
5.000000000000001
 31
0.0
  0
LINE
  5
98
330
1F
100
AcDbEntity
  8
외형선
  6
Continuous
 62
     1
370
    15
100
AcDbLine
 10
30.3379739028947
 20
5.000000000000003
 30
0.0
 11
27.28785873009065
 21
5.000000000000002
 31
0.0
  0
LINE
  5
99
330
1F
100
AcDbEntity
  8
외형선
  6
Continuous
 62
     1
370
    15
100
AcDbLine
 10
15.15000000000001
 20
-4.999999999999997
 30
0.0
 11
16.73464638539249
 21
-4.999999999999997
 31
0.0
  0
LINE
  5
9A
330
1F
100
AcDbEntity
  8
외형선
  6
Continuous
370
    15
100
AcDbLine
 10
-58.85
 20
-4.999999999999999
 30
0.0
 11
0.0
 21
-4.999999999999999
 31
0.0
  0
LINE
  5
9B
330
1F
100
AcDbEntity
  8
외형선
  6
Continuous
370
    15
100
AcDbLine
 10
0.0
 20
4.999999999999999
 30
0.0
 11
-58.85
 21
4.999999999999999
 31
0.0
  0
LINE
  5
9C
330
1F
100
AcDbEntity
  8
외형선
  6
Continuous
370
    15
100
AcDbLine
 10
-58.85
 20
5.0
 30
0.0
 11
-59.85
 21
4.000000000000011
 31
0.0
  0
LINE
  5
9D
330
1F
100
AcDbEntity
  8
외형선
  6
Continuous
370
    15
100
AcDbLine
 10
-59.85
 20
-4.000000000000011
 30
0.0
 11
-58.85
 21
-5.0
 31
0.0
  0
LINE
  5
9E
330
1F
100
AcDbEntity
  8
외형선
  6
Continuous
370
    15
100
AcDbLine
 10
0.0
 20
-4.999999999999999
 30
0.0
 11
0.1500000000000057
 21
-4.85
 31
0.0
  0
LINE
  5
9F
330
1F
100
AcDbEntity
  8
외형선
  6
Continuous
370
    15
100
AcDbLine
 10
0.1500000000000057
 20
4.849999999999999
 30
0.0
 11
0.0
 21
4.999999999999999
 31
0.0
  0
LINE
  5
A0
330
1F
100
AcDbEntity
  8
외형선
  6
Continuous
370
    15
100
AcDbLine
 10
0.1500000000000057
 20
-4.85
 30
0.0
 11
15.15000000000001
 21
-4.85
 31
0.0
  0
LINE
  5
A1
330
1F
100
AcDbEntity
  8
외형선
  6
Continuous
370
    15
100
AcDbLine
 10
15.15000000000001
 20
4.849999999999999
 30
0.0
 11
0.1500000000000057
 21
4.849999999999999
 31
0.0
  0
SPLINE
  5
A3
330
1F
100
AcDbEntity
  8
외형선
  6
Continuous
 62
     1
370
    15
100
AcDbSpline
210
0.0
220
0.0
230
1.0
 70
     8
 71
     3
 72
    18
 73
    14
 74
     0
 42
0.000000001
 43
0.00000001
 40
0.0
 40
0.0
 40
0.0
 40
0.0
 40
0.0908705721598737
 40
0.1865555571321292
 40
0.2822406317276776
 40
0.3779257923110931
 40
0.4736110352454486
 40
0.5613211317849638
 40
0.6490400611334295
 40
0.7367703861465011
 40
0.824514654119558
 40
0.9122644680541334
 40
1.0
 40
1.0
 40
1.0
 40
1.0
 10
35.63170522801659
 20
-4.089651381291941
 30
0.0
 10
35.01129233000282
 20
-4.279053652045402
 30
0.0
 10
33.73759644485657
 20
-4.667892913234791
 30
0.0
 10
31.81061830451296
 20
-4.967342422605288
 30
0.0
 10
29.85076114102367
 20
-5.035622407070045
 30
0.0
 10
27.89092964447271
 20
-4.842553630815963
 30
0.0
 10
25.98544502939626
 20
-4.415941789210748
 30
0.0
 10
24.13470175331918
 20
-3.797998509558385
 30
0.0
 10
22.33813159903894
 20
-3.035521877141095
 30
0.0
 10
20.54130845720591
 20
-2.142602176600872
 30
0.0
 10
18.74420409336449
 20
-1.158542002061634
 30
0.0
 10
16.94702334445654
 20
-0.122048037204917
 30
0.0
 10
15.74897528018045
 20
0.5655773539363357
 30
0.0
 10
15.15000000000185
 20
0.9093620680877078
 30
0.0
  0
SPLINE
  5
A4
330
1F
100
AcDbEntity
  8
외형선
  6
Continuous
370
    15
100
AcDbSpline
210
0.0
220
0.0
230
1.0
 70
    24
 71
     3
 72
    16
 73
    12
 74
     0
 42
0.000000001
 43
0.00000001
 40
0.0
 40
0.0
 40
0.0
 40
0.0
 40
0.0890300000354059
 40
0.2020763968053188
 40
0.3119368334694967
 40
0.4249832302394109
 40
0.5348436669035944
 40
0.6478900636735008
 40
0.7577505003376779
 40
0.8707968971075917
 40
1.0
 40
1.0
 40
1.0
 40
1.0
 10
15.14999999999998
 20
0.9783077262277748
 30
0.0
 10
15.15000000000001
 20
1.048926310544945
 30
0.0
 10
15.15000000000006
 20
1.209213281910005
 30
0.0
 10
15.15000000000001
 20
1.538634887007052
 30
0.0
 10
15.15000000000001
 20
1.942858794246106
 30
0.0
 10
15.15000000000001
 20
2.391246620925055
 30
0.0
 10
15.1500000000001
 20
2.876406130661697
 30
0.0
 10
15.14999999999996
 20
3.376858702715325
 30
0.0
 10
15.14999999999997
 20
3.886265921197185
 30
0.0
 10
15.15000000000012
 20
4.413743732972333
 30
0.0
 10
15.15000000000004
 20
4.749551305715718
 30
0.0
 10
15.14999999999998
 20
4.92865334899627
 30
0.0
  0
SPLINE
  5
A5
330
1F
100
AcDbEntity
  8
외형선
  6
Continuous
 62
     1
370
    15
100
AcDbSpline
210
0.0
220
0.0
230
1.0
 70
     8
 71
     3
 72
    54
 73
    50
 74
     0
 42
0.000000001
 43
0.00000001
 40
0.0
 40
0.0
 40
0.0
 40
0.0
 40
0.0624999999999987
 40
0.0624999999999987
 40
0.1249999999999973
 40
0.1249999999999973
 40
0.1562499999999966
 40
0.1562499999999966
 40
0.1874999999999959
 40
0.1874999999999959
 40
0.2499999999999959
 40
0.2499999999999959
 40
0.2812499999999952
 40
0.2812499999999952
 40
0.3124999999999946
 40
0.3124999999999946
 40
0.3749999999999932
 40
0.3749999999999932
 40
0.4374999999999919
 40
0.4374999999999919
 40
0.4687499999999919
 40
0.4687499999999919
 40
0.4999999999999919
 40
0.4999999999999919
 40
0.5624999999999919
 40
0.5624999999999919
 40
0.5937499999999926
 40
0.5937499999999926
 40
0.6249999999999932
 40
0.6249999999999932
 40
0.6874999999999944
 40
0.6874999999999944
 40
0.718749999999995
 40
0.718749999999995
 40
0.7499999999999954
 40
0.7499999999999954
 40
0.781249999999996
 40
0.781249999999996
 40
0.8124999999999966
 40
0.8124999999999966
 40
0.8437499999999971
 40
0.8437499999999971
 40
0.8749999999999977
 40
0.8749999999999977
 40
0.9062499999999982
 40
0.9062499999999982
 40
0.9374999999999988
 40
0.9374999999999988
 40
1.0
 40
1.0
 40
1.0
 40
1.0
 10
39.65000000000001
 20
-4.97251265169992
 30
0.0
 10
39.13915375698595
 20
-4.906345674048523
 30
0.0
 10
38.62623588607791
 20
-4.838165714096449
 30
0.0
 10
37.61023632133092
 20
-4.652829477850845
 30
0.0
 10
37.09533416665419
 20
-4.534907158126535
 30
0.0
 10
36.33059018884909
 20
-4.324129474798587
 30
0.0
 10
36.07752620319206
 20
-4.248337289443286
 30
0.0
 10
35.5669814608513
 20
-4.085458208360524
 30
0.0
 10
35.31067108752202
 20
-3.998469673357646
 30
0.0
 10
34.54312867923436
 20
-3.722350210279511
 30
0.0
 10
34.0367693981903
 20
-3.518567121598952
 30
0.0
 10
33.2690369608882
 20
-3.185950830866656
 30
0.0
 10
33.01278114766797
 20
-3.070719056188917
 30
0.0
 10
32.50257921110128
 20
-2.832911584838591
 30
0.0
 10
32.24957478419137
 20
-2.710501264839781
 30
0.0
 10
31.48426287140214
 20
-2.332168038700567
 30
0.0
 10
30.96945295898496
 20
-2.065635185365378
 30
0.0
 10
29.95456555783311
 20
-1.516468737280337
 30
0.0
 10
29.44043583569587
 20
-1.231328159719391
 30
0.0
 10
28.67462683468174
 20
-0.7971993786333706
 30
0.0
 10
28.42156483201698
 20
-0.6516834467585534
 30
0.0
 10
27.91172891261323
 20
-0.3586304872104126
 30
0.0
 10
27.65554341793211
 20
-0.2112027488212606
 30
0.0
 10
26.88767976755982
 20
0.231199331372992
 30
0.0
 10
26.38122224965243
 20
0.5254176781486813
 30
0.0
 10
25.61391598980267
 20
0.9618132137577167
 30
0.0
 10
25.35757046021769
 20
1.106320350527742
 30
0.0
 10
24.84672902732317
 20
1.391729072292407
 30
0.0
 10
24.59349232766718
 20
1.532402845936657
 30
0.0
 10
23.82934918635652
 20
1.948721944493641
 30
0.0
 10
23.31439355209185
 20
2.21849512335424
 30
0.0
 10
22.55163871455336
 20
2.602110873849912
 30
0.0
 10
22.29769558631268
 20
2.726720786259813
 30
0.0
 10
21.78635345181871
 20
2.969068611723756
 30
0.0
 10
21.52998990752634
 20
3.086630509077612
 30
0.0
 10
21.01888174417109
 20
3.313156357094369
 30
0.0
 10
20.7653532665347
 20
3.421956228755527
 30
0.0
 10
20.25636670633992
 20
3.630667681669359
 30
0.0
 10
20.00037753069535
 20
3.730634281636365
 30
0.0
 10
19.48839672379773
 20
3.920563499307451
 30
0.0
 10
19.23240900163567
 20
4.010524667004947
 30
0.0
 10
18.72342819895464
 20
4.179448078000702
 30
0.0
 10
18.46989532681278
 20
4.258491103686867
 30
0.0
 10
17.95878404872465
 20
4.405692949229622
 30
0.0
 10
17.70242039236754
 20
4.473712640132572
 30
0.0
 10
17.19108092870474
 20
4.597787389617464
 30
0.0
 10
16.93714365930819
 20
4.653776235295376
 30
0.0
 10
16.17437953040038
 20
4.803491584227663
 30
0.0
 10
15.65942344141849
 20
4.879083349393128
 30
0.0
 10
15.15
 20
4.928653348996265
 30
0.0
  0
SPLINE
  5
A6
330
1F
100
AcDbEntity
  8
외형선
  6
Continuous
 62
     1
370
    15
100
AcDbSpline
210
0.0
220
0.0
230
1.0
 70
     8
 71
     3
 72
    12
 73
     8
 74
     0
 42
0.000000001
 43
0.00000001
 40
0.0
 40
0.0
 40
0.0
 40
0.0
 40
0.25
 40
0.25
 40
0.5
 40
0.5
 40
1.0
 40
1.0
 40
1.0
 40
1.0
 10
39.65000000000001
 20
0.7155792774307456
 30
0.0
 10
39.70968267151054
 20
0.6814973134197579
 30
0.0
 10
39.76979543579389
 20
0.648925788234296
 30
0.0
 10
39.8877132909518
 20
0.5897667466091759
 30
0.0
 10
39.94366087817149
 20
0.5641899939767908
 30
0.0
 10
40.0897170178753
 20
0.5042245844747292
 30
0.0
 10
40.15000000000004
 20
0.4900584594403417
 30
0.0
 10
40.15000000000004
 20
0.4966191502389347
 30
0.0
  0
LINE
  5
A7
330
1F
100
AcDbEntity
  8
외형선
  6
Continuous
 62
     1
370
    15
100
AcDbLine
 10
40.15000000000001
 20
-4.121619150238883
 30
0.0
 11
40.15000000000001
 21
0.490168823913908
 31
0.0
  0
SPLINE
  5
A8
330
1F
100
AcDbEntity
  8
외형선
  6
Continuous
 62
     1
370
    15
100
AcDbSpline
210
0.0
220
0.0
230
1.0
 70
     8
 71
     3
 72
    10
 73
     6
 74
     0
 42
0.000000001
 43
0.00000001
 40
0.0
 40
0.0
 40
0.0
 40
0.0
 40
0.5
 40
0.5
 40
1.0
 40
1.0
 40
1.0
 40
1.0
 10
40.15000000000001
 20
-4.121619150238884
 30
0.0
 10
40.14999999999998
 20
-4.247486389517072
 30
0.0
 10
40.08453059426414
 20
-4.339186700434329
 30
0.0
 10
39.89910074361982
 20
-4.43000845844331
 30
0.0
 10
39.77915588608471
 20
-4.433777114173094
 30
0.0
 10
39.64999999999998
 20
-4.398335201871405
 30
0.0
  0
SPLINE
  5
A9
330
1F
100
AcDbEntity
  8
외형선
  6
Continuous
 62
     1
370
    15
100
AcDbSpline
210
0.0
220
0.0
230
1.0
 70
     8
 71
     3
 72
    20
 73
    16
 74
     0
 42
0.000000001
 43
0.00000001
 40
0.0
 40
0.0
 40
0.0
 40
0.0
 40
0.0855233566913394
 40
0.1710468032278319
 40
0.2565703363644642
 40
0.3420939528547184
 40
0.4276176494506247
 40
0.5131414229028236
 40
0.5986652699606199
 40
0.6770608997550304
 40
0.7554644243488741
 40
0.8338781344326323
 40
0.9123043067889502
 40
0.9907354361475206
 40
0.9999999999999999
 40
0.9999999999999999
 40
0.9999999999999999
 40
0.9999999999999999
 10
39.64999999999998
 20
-4.398335201871404
 30
0.0
 10
38.99671936257345
 20
-4.197192351920735
 30
0.0
 10
37.69015740142716
 20
-3.794906440712088
 30
0.0
 10
35.7303130622211
 20
-2.937860404575971
 30
0.0
 10
33.77046584065959
 20
-1.947103643972582
 30
0.0
 10
31.81061831312962
 20
-0.8527376322718198
 30
0.0
 10
29.85076114024314
 20
0.2839479746296366
 30
0.0
 10
27.89092963897814
 20
1.406499635688041
 30
0.0
 10
25.98544505137025
 20
2.427922923266717
 30
0.0
 10
24.134701678382
 20
3.307249869995315
 30
0.0
 10
22.33813187971057
 20
4.017373853955806
 30
0.0
 10
20.54130740925059
 20
4.561013486025193
 30
0.0
 10
18.74420800523419
 20
4.887573128879194
 30
0.0
 10
17.4752535942937
 20
5.026761350643906
 30
0.0
 10
16.80541149043942
 20
4.99244294920531
 30
0.0
 10
16.73464638539256
 20
4.988817400335109
 30
0.0
  0
SPLINE
  5
AA
330
1F
100
AcDbEntity
  8
외형선
  6
Continuous
 62
     1
370
    15
100
AcDbSpline
210
0.0
220
0.0
230
1.0
 70
     8
 71
     3
 72
    17
 73
    13
 74
     0
 42
0.000000001
 43
0.00000001
 40
0.0
 40
0.0
 40
0.0
 40
0.0
 40
0.0543154647457457
 40
0.1655530117080917
 40
0.2767907191146288
 40
0.3880285827691612
 40
0.4900146545674188
 40
0.5920157838455554
 40
0.6940315609540513
 40
0.7960356267384568
 40
0.8980241178852315
 40
1.0
 40
1.0
 40
1.0
 40
1.0
 10
22.0322656605315
 20
4.080716241758156
 30
0.0
 10
22.35124665430956
 20
4.191004434433352
 30
0.0
 10
23.3234976411104
 20
4.527161780019741
 30
0.0
 10
24.94902408536102
 20
4.852947938062153
 30
0.0
 10
26.90882398689671
 20
5.039897382169335
 30
0.0
 10
28.81436013590736
 20
4.960867295867632
 30
0.0
 10
30.66541893997535
 20
4.658140664224836
 30
0.0
 10
32.46244121141133
 20
4.163795210662157
 30
0.0
 10
34.2596332191721
 20
3.491276625313303
 30
0.0
 10
36.05668641951176
 20
2.668345553207072
 30
0.0
 10
37.85345266741096
 20
1.733235969091486
 30
0.0
 10
39.05117557012444
 20
1.054784194071912
 30
0.0
 10
39.64999999999998
 20
0.7155792774307358
 30
0.0
  0
SPLINE
  5
AB
330
1F
100
AcDbEntity
  8
외형선
  6
Continuous
 62
     1
370
    15
100
AcDbSpline
210
0.0
220
0.0
230
1.0
 70
     8
 71
     3
 72
    14
 73
    10
 74
     0
 42
0.000000001
 43
0.00000001
 40
0.0
 40
0.0
 40
0.0
 40
0.0
 40
0.1614616152412408
 40
0.3229234876910249
 40
0.4843856112752888
 40
0.6458479799156309
 40
0.8073105875293971
 40
0.968773428029791
 40
0.9999999999999999
 40
0.9999999999999999
 40
0.9999999999999999
 40
0.9999999999999999
 10
15.15
 20
-0.8416508572014016
 30
0.0
 10
15.80326552368698
 20
-1.209242602435526
 30
0.0
 10
17.1097976117137
 20
-1.944426678477859
 30
0.0
 10
19.06959807392072
 20
-2.936949319565776
 30
0.0
 10
21.02940215086521
 20
-3.781187036783018
 30
0.0
 10
22.98920979582017
 20
-4.437787897871784
 30
0.0
 10
24.94902096576793
 20
-4.845892054092547
 30
0.0
 10
26.38190428247986
 20
-5.024730701491838
 30
0.0
 10
27.16151736223024
 20
-4.986300918956449
 30
0.0
 10
27.28785873009058
 20
-4.98007312286348
 30
0.0
  0
LINE
  5
AC
330
1F
100
AcDbEntity
  8
외형선
  6
Continuous
370
    15
100
AcDbLine
 10
15.14999999999998
 20
0.9093620680821359
 30
0.0
 11
15.14999999999998
 21
-0.8416508572013992
 31
0.0
  0
SPLINE
  5
AD
330
1F
100
AcDbEntity
  8
외형선
  6
Continuous
 62
     1
370
    15
100
AcDbSpline
210
0.0
220
0.0
230
1.0
 70
     8
 71
     3
 72
    10
 73
     6
 74
     0
 42
0.000000001
 43
0.00000001
 40
0.0
 40
0.0
 40
0.0
 40
0.0
 40
0.5
 40
0.5
 40
1.0
 40
1.0
 40
1.0
 40
1.0
 10
40.15000000000001
 20
1.806171525737229
 30
0.0
 10
40.15000000000001
 20
1.887040117181229
 30
0.0
 10
40.08453059426417
 20
2.001784177212153
 30
0.0
 10
39.89910074361982
 20
2.213753704641921
 30
0.0
 10
39.77915588608471
 20
2.312395733284444
 30
0.0
 10
39.64999999999998
 20
2.37795026272178
 30
0.0
  0
LINE
  5
AE
330
1F
100
AcDbEntity
  8
외형선
  6
Continuous
 62
     1
370
    15
100
AcDbLine
 10
40.15000000000001
 20
1.806171525737231
 30
0.0
 11
40.15000000000001
 21
0.4966191502389357
 31
0.0
  0
SPLINE
  5
AF
330
1F
100
AcDbEntity
  8
외형선
  6
Continuous
 62
     1
370
    15
100
AcDbSpline
210
0.0
220
0.0
230
1.0
 70
     8
 71
     3
 72
    12
 73
     8
 74
     0
 42
0.000000001
 43
0.00000001
 40
0.0
 40
0.0
 40
0.0
 40
0.0
 40
0.210463620990281
 40
0.4209274630796566
 40
0.6313915182824988
 40
0.8418557786094786
 40
1.0
 40
1.0
 40
1.0
 40
1.0
 10
39.64999999999998
 20
2.377950262721785
 30
0.0
 10
38.99671936979548
 20
2.697843338581054
 30
0.0
 10
37.69015742309328
 20
3.337629826358
 30
0.0
 10
35.73031297555676
 20
4.096711089724472
 30
0.0
 10
33.77046616565138
 20
4.647213209434851
 30
0.0
 10
31.9730196013551
 20
4.961423216785445
 30
0.0
 10
30.828855159688
 20
4.971713987036303
 30
0.0
 10
30.3379739028947
 20
4.976129039672227
 30
0.0
  0
SPLINE
  5
B0
330
1F
100
AcDbEntity
  8
외형선
  6
Continuous
 62
     1
370
    15
100
AcDbSpline
210
0.0
220
0.0
230
1.0
 70
     8
 71
     3
 72
    11
 73
     7
 74
     0
 42
0.000000001
 43
0.00000001
 40
0.0
 40
0.0
 40
0.0
 40
0.0
 40
0.216630399939527
 40
0.477756764497841
 40
0.7388996338011702
 40
1.0
 40
1.0
 40
1.0
 40
1.0
 10
22.03226566053146
 20
-4.080716241758156
 30
0.0
 10
21.53531093003969
 20
-4.239073851862693
 30
0.0
 10
20.43932678281055
 20
-4.588315784011987
 30
0.0
 10
18.74420352122638
 20
-4.89535497032924
 30
0.0
 10
16.9470234874676
 20
-5.044744811310114
 30
0.0
 10
15.74897532784824
 20
-4.959319743064412
 30
0.0
 10
15.15000000000185
 20
-4.916610685128856
 30
0.0
  0
SPLINE
  5
B1
330
1F
100
AcDbEntity
  8
외형선
  6
Continuous
370
    15
100
AcDbSpline
210
0.0
220
0.0
230
1.0
 70
    24
 71
     3
 72
    17
 73
    13
 74
     0
 42
0.000000001
 43
0.00000001
 40
0.0
 40
0.0
 40
0.0
 40
0.0
 40
0.1000097810158317
 40
0.2024991300013026
 40
0.3102723616073082
 40
0.4211710242309612
 40
0.5289442558370905
 40
0.6398429184608794
 40
0.7476161500669427
 40
0.8585148126906591
 40
0.9662880442967231
 40
1.0
 40
1.0
 40
1.0
 40
1.0
 10
15.14999999999998
 20
-4.916610685116209
 30
0.0
 10
15.15000000000003
 20
-4.77709168769366
 30
0.0
 10
15.15000000000008
 20
-4.494594562814965
 30
0.0
 10
15.15000000000001
 20
-4.027946606619098
 30
0.0
 10
15.14999999999996
 20
-3.533421084074787
 30
0.0
 10
15.15000000000008
 20
-3.029239851462376
 30
0.0
 10
15.15000000000001
 20
-2.534290672615308
 30
0.0
 10
15.15
 20
-2.071761020675157
 30
0.0
 10
15.15000000000004
 20
-1.644594082023042
 30
0.0
 10
15.15000000000004
 20
-1.279581232087036
 30
0.0
 10
15.15000000000001
 20
-1.030406993606315
 30
0.0
 10
15.15000000000001
 20
-0.9326538929266824
 30
0.0
 10
15.15000000000001
 20
-0.9093620680887604
 30
0.0
  0
LINE
  5
B3
330
1F
100
AcDbEntity
  8
외형선
  6
Continuous
 62
     1
370
    15
100
AcDbLine
 10
40.15000000000001
 20
1.806171525737231
 30
0.0
 11
40.15000000000001
 21
4.47251265169994
 31
0.0
  0
SPLINE
  5
B4
330
1F
100
AcDbEntity
  8
외형선
  6
Continuous
 62
     1
370
    15
100
AcDbSpline
210
0.0
220
0.0
230
1.0
 70
     8
 71
     3
 72
    10
 73
     6
 74
     0
 42
0.000000001
 43
0.00000001
 40
0.0
 40
0.0
 40
0.0
 40
0.0
 40
0.1057781016473749
 40
0.5529166911227178
 40
1.0
 40
1.0
 40
1.0
 40
1.0
 10
35.63170522801659
 20
4.08965138129194
 30
0.0
 10
35.77339355281413
 20
4.140953049015001
 30
0.0
 10
36.51401792116351
 20
4.409113924704299
 30
0.0
 10
37.8534499501899
 20
4.730589717992415
 30
0.0
 10
39.0511746644214
 20
4.87588604052831
 30
0.0
 10
39.65000000000001
 20
4.97251265169994
 30
0.0
  0
LINE
  5
B5
330
1F
100
AcDbEntity
  8
외형선
  6
Continuous
 62
     1
370
    15
100
AcDbLine
 10
40.15000000000001
 20
-4.121619150238883
 30
0.0
 11
40.15000000000001
 21
-4.47251265169994
 31
0.0
  0
LINE
  5
B6
330
1F
100
AcDbEntity
  8
외형선
  6
Continuous
370
    15
100
AcDbLine
 10
0.0
 20
0.0
 30
0.0
 11
0.0
 21
4.999999999999999
 31
0.0
  0
LINE
  5
B7
330
1F
100
AcDbEntity
  8
외형선
  6
Continuous
370
    15
100
AcDbLine
 10
0.0
 20
-4.999999999999999
 30
0.0
 11
0.0
 21
0.0
 31
0.0
  0
LINE
  5
B8
330
1F
100
AcDbEntity
  8
외형선
  6
Continuous
370
    15
100
AcDbLine
 10
-58.85
 20
0.0
 30
0.0
 11
-58.85
 21
4.999999999999999
 31
0.0
  0
LINE
  5
B9
330
1F
100
AcDbEntity
  8
외형선
  6
Continuous
370
    15
100
AcDbLine
 10
-58.85
 20
-4.999999999999999
 30
0.0
 11
-58.85
 21
0.0
 31
0.0
  0
LINE
  5
BA
330
1F
100
AcDbEntity
  8
외형선
  6
Continuous
370
    15
100
AcDbLine
 10
-59.85
 20
0.0
 30
0.0
 11
-59.85
 21
4.000000000000011
 31
0.0
  0
LINE
  5
BB
330
1F
100
AcDbEntity
  8
외형선
  6
Continuous
370
    15
100
AcDbLine
 10
-59.85
 20
-4.000000000000011
 30
0.0
 11
-59.85
 21
0.0
 31
0.0
  0
LINE
  5
BC
330
1F
100
AcDbEntity
  8
외형선
  6
Continuous
370
    15
100
AcDbLine
 10
0.1500000000000057
 20
0.0
 30
0.0
 11
0.1500000000000057
 21
4.85
 31
0.0
  0
LINE
  5
BD
330
1F
100
AcDbEntity
  8
외형선
  6
Continuous
370
    15
100
AcDbLine
 10
0.1500000000000057
 20
-4.850000000000004
 30
0.0
 11
0.1500000000000057
 21
0.0
 31
0.0
  0
SPLINE
  5
BE
330
1F
100
AcDbEntity
  8
외형선
  6
Continuous
370
    15
100
AcDbSpline
210
0.0
220
0.0
230
1.0
 70
     8
 71
     3
 72
     8
 73
     4
 74
     0
 42
0.000000001
 43
0.00000001
 40
0.0
 40
0.0
 40
0.0
 40
0.0
 40
1.0
 40
1.0
 40
1.0
 40
1.0
 10
15.15000000000004
 20
4.787839103651912
 30
0.0
 10
14.81677383838373
 20
4.817658275686067
 30
0.0
 10
14.48492042014141
 20
4.836795662706995
 30
0.0
 10
14.15020642201123
 20
4.845156488964355
 30
0.0
  0
LINE
  5
BF
330
1F
100
AcDbEntity
  8
외형선
  6
Continuous
370
    15
100
AcDbLine
 10
14.15020642201123
 20
1.385057802010074
 30
0.0
 11
14.15020642201122
 21
4.845158204525445
 31
0.0
  0
SPLINE
  5
C0
330
1F
100
AcDbEntity
  8
외형선
  6
Continuous
370
    15
100
AcDbSpline
210
0.0
220
0.0
230
1.0
 70
     8
 71
     3
 72
     8
 73
     4
 74
     0
 42
0.000000001
 43
0.00000001
 40
0.0
 40
0.0
 40
0.0
 40
0.0
 40
1.0
 40
1.0
 40
1.0
 40
1.0
 10
15.15000000000003
 20
0.8397941724881259
 30
0.0
 10
14.81677383838373
 20
1.023819975067388
 30
0.0
 10
14.48492042014141
 20
1.205728103235108
 30
0.0
 10
14.15020642201122
 20
1.385060929151863
 30
0.0
  0
SPLINE
  5
C1
330
1F
100
AcDbEntity
  8
외형선
  6
Continuous
370
    15
100
AcDbSpline
210
0.0
220
0.0
230
1.0
 70
     8
 71
     3
 72
     8
 73
     4
 74
     0
 42
0.000000001
 43
0.00000001
 40
0.0
 40
0.0
 40
0.0
 40
0.0
 40
1.0
 40
1.0
 40
1.0
 40
1.0
 10
15.15000000000004
 20
-0.774013383309097
 30
0.0
 10
14.81677383838373
 20
-0.5895599862718636
 30
0.0
 10
14.48492042014141
 20
-0.4036381241556223
 30
0.0
 10
14.15020642201123
 20
-0.2166993249794171
 30
0.0
  0
LINE
  5
C2
330
1F
100
AcDbEntity
  8
외형선
  6
Continuous
370
    15
100
AcDbLine
 10
14.15020642201123
 20
-4.648022685518108
 30
0.0
 11
14.15020642201122
 21
-0.2166609635346127
 31
0.0
  0
SPLINE
  5
C3
330
1F
100
AcDbEntity
  8
외형선
  6
Continuous
370
    15
100
AcDbSpline
210
0.0
220
0.0
230
1.0
 70
     8
 71
     3
 72
     8
 73
     4
 74
     0
 42
0.000000001
 43
0.00000001
 40
0.0
 40
0.0
 40
0.0
 40
0.0
 40
1.0
 40
1.0
 40
1.0
 40
1.0
 10
15.15000000000003
 20
-4.776740075391891
 30
0.0
 10
14.81677383838373
 20
-4.744386672411128
 30
0.0
 10
14.48492042014141
 20
-4.701461023886313
 30
0.0
 10
14.15020642201122
 20
-4.648021753664337
 30
0.0
  0
SPLINE
  5
C4
330
1F
100
AcDbEntity
  8
외형선
  6
Continuous
370
    15
100
AcDbSpline
210
0.0
220
0.0
230
1.0
 70
    24
 71
     3
 72
    20
 73
    16
 74
     0
 42
0.000000001
 43
0.00000001
 40
0.0
 40
0.0
 40
0.0
 40
0.0
 40
0.079074525654176
 40
0.1581490513083512
 40
0.2419265663509192
 40
0.3257040813934869
 40
0.4094815964360458
 40
0.4932591114786046
 40
0.5770366265211638
 40
0.6608141415637231
 40
0.7445916566062822
 40
0.8283691716488414
 40
0.9121466866914005
 40
0.9959242017339598
 40
1.0
 40
1.0
 40
1.0
 40
1.0
 10
15.14999999999993
 20
-4.776740075391882
 30
0.0
 10
15.14999999999994
 20
-4.629277886580918
 30
0.0
 10
15.14999999999998
 20
-4.334353508958992
 30
0.0
 10
15.15000000000007
 20
-3.853488334113861
 30
0.0
 10
15.15000000000004
 20
-3.355915195475568
 30
0.0
 10
15.15000000000006
 20
-2.852504701357043
 30
0.0
 10
15.15000000000003
 20
-2.368357209605349
 30
0.0
 10
15.15000000000007
 20
-1.915920467958454
 30
0.0
 10
15.15000000000006
 20
-1.509762620689687
 30
0.0
 10
15.14999999999998
 20
-1.159057078601597
 30
0.0
 10
15.15000000000003
 20
-0.8771937485229387
 30
0.0
 10
15.15
 20
-0.6659555331798707
 30
0.0
 10
15.15000000000006
 20
-0.5468640654322114
 30
0.0
 10
15.14999999999987
 20
-0.4970479307137242
 30
0.0
 10
15.15
 20
-0.5124806532431078
 30
0.0
 10
15.14999999999998
 20
-0.5131966269651754
 30
0.0
  0
SPLINE
  5
C5
330
1F
100
AcDbEntity
  8
외형선
  6
Continuous
370
    15
100
AcDbSpline
210
0.0
220
0.0
230
1.0
 70
    24
 71
     3
 72
    20
 73
    16
 74
     0
 42
0.000000001
 43
0.00000001
 40
0.0
 40
0.0
 40
0.0
 40
0.0
 40
0.0237757674554731
 40
0.1086128331360381
 40
0.1934498988165938
 40
0.2782869644971495
 40
0.3631240301777056
 40
0.4479610958582618
 40
0.5327981615388178
 40
0.6176352272193738
 40
0.7024722928999299
 40
0.7873093585804859
 40
0.8721464242609872
 40
0.9569834899414884
 40
1.0
 40
1.0
 40
1.0
 40
1.0
 10
15.15000000000004
 20
0.5686124631658023
 30
0.0
 10
15.15000000000004
 20
0.566333808700984
 30
0.0
 10
15.1500000000001
 20
0.5559244236989864
 30
0.0
 10
15.15000000000001
 20
0.6220681921037682
 30
0.0
 10
15.15000000000008
 20
0.7701009833134089
 30
0.0
 10
15.15000000000006
 20
1.002151365845723
 30
0.0
 10
15.15000000000007
 20
1.306569712108588
 30
0.0
 10
15.14999999999998
 20
1.674096404749133
 30
0.0
 10
15.15000000000003
 20
2.096127307086364
 30
0.0
 10
15.15000000000001
 20
2.558893522529845
 30
0.0
 10
15.15000000000001
 20
3.050612100526561
 30
0.0
 10
15.15
 20
3.55662178949906
 30
0.0
 10
15.14999999999998
 20
4.062225276809078
 30
0.0
 10
15.15
 20
4.474624719953852
 30
0.0
 10
15.15000000000004
 20
4.708987444938976
 30
0.0
 10
15.15000000000004
 20
4.787839103630493
 30
0.0
  0
LINE
  5
C6
330
1F
100
AcDbEntity
  8
중심선
 62
     1
100
AcDbLine
 10
-62.84999999999999
 20
-0.0000000000000039
 30
0.0
 11
43.15000000000001
 21
0.0000000000000086
 31
0.0
  0
LINE
  5
C7
330
1F
100
AcDbEntity
  8
참조1
100
AcDbLine
 10
-9.849999999999989
 20
-0.0000000000000039
 30
0.0
 11
-9.849999999999984
 21
-40.00000000000001
 31
0.0
  0
LINE
  5
C8
330
1F
100
AcDbEntity
  8
참조1
100
AcDbLine
 10
-9.849999999999984
 20
-40.00000000000001
 30
0.0
 11
-45.00885681430867
 21
-40.0
 31
0.0
  0
CIRCLE
  5
C9
330
1F
100
AcDbEntity
  8
해칭선
100
AcDbCircle
 10
0.0000000000000071
 20
-0.0010749287238931
 30
0.0
 40
3.000000000000001
  0
INSERT
  5
CA
330
1F
100
AcDbEntity
  8
0
  6
Continuous
 62
     7
100
AcDbBlockReference
 66
     1
  2
블럭10
 10
-23.79027293212519
 20
-52.04717430164393
 30
0.0
  0
ATTRIB
  5
CB
330
CA
100
AcDbEntity
  8
FORMAT
 62
     2
100
AcDbText
 10
-44.64852046371773
 20
-49.97180738881175
 30
0.0
 40
4.233333333333333
  1
SEME6410005100E [ 4 FLUTE ]
 41
0.75
  7
SLDTEXTSTYLE0
 11
-44.64852046371773
 21
-52.08847405547841
 31
0.0
100
AcDbAttribute
  2
AUTOATTR0
 70
     0
 74
     1
  0
SEQEND
  5
CC
330
CA
100
AcDbEntity
  8
0
  6
Continuous
 62
     7
  0
HATCH
  5
CD
330
1F
100
AcDbEntity
  8
중심선
100
AcDbHatch
 10
0.0
 20
0.0
 30
0.0
210
0.0
220
0.0
230
1.0
  2
SOLID
 70
     1
 71
     0
 91
        1
 92
        0
 93
        4
 72
     1
 10
-18.07536362774434
 20
-35.8
 11
-21.52163887158163
 21
-35.8
 72
     1
 10
-21.52163887158163
 20
-35.8
 11
-23.64986873078565
 21
-38.33632558057257
 72
     1
 10
-23.64986873078565
 20
-38.33632558057257
 11
-20.20356040183522
 21
-38.33628615127008
 72
     1
 10
-20.20356040183522
 20
-38.33628615127008
 11
-18.07536362774434
 21
-35.8
 97
        0
 75
     0
 76
     1
 98
        1
 10
-19.925
 20
-0.0010749287238931
  0
HATCH
  5
CE
330
1F
100
AcDbEntity
  8
중심선
100
AcDbHatch
 10
0.0
 20
0.0
 30
0.0
210
0.0
220
0.0
230
1.0
  2
SOLID
 70
     1
 71
     0
 91
        1
 92
        0
 93
        4
 72
     1
 10
-13.06259963670837
 20
-35.79999999999998
 11
-16.50887488054565
 21
-35.8
 72
     1
 10
-16.50887488054565
 20
-35.8
 11
-21.04001288890306
 21
-41.20000000000002
 72
     1
 10
-21.04001288890306
 20
-41.20000000000002
 11
-17.59373764506578
 21
-41.20000000000002
 72
     1
 10
-17.59373764506578
 20
-41.20000000000002
 11
-13.06259963670837
 21
-35.79999999999998
 97
        0
 75
     0
 76
     1
 98
        1
 10
-19.925
 20
-0.0010749287238931
  0
HATCH
  5
CF
330
1F
100
AcDbEntity
  8
중심선
100
AcDbHatch
 10
0.0
 20
0.0
 30
0.0
210
0.0
220
0.0
230
1.0
  2
SOLID
 70
     1
 71
     0
 91
        1
 92
        0
 93
        4
 72
     1
 10
-8.049835645672472
 20
-35.8
 11
-11.49611088950959
 21
-35.79999999999998
 72
     1
 10
-11.49611088950959
 20
-35.79999999999998
 11
-18.54454779139886
 21
-44.20000000000002
 72
     1
 10
-18.54454779139886
 20
-44.20000000000002
 11
-15.09827254756158
 21
-44.20000000000002
 72
     1
 10
-15.09827254756158
 20
-44.20000000000002
 11
-8.049835645672472
 21
-35.8
 97
        0
 75
     0
 76
     1
 98
        1
 10
-19.925
 20
-0.0010749287238931
  0
HATCH
  5
D0
330
1F
100
AcDbEntity
  8
중심선
100
AcDbHatch
 10
0.0
 20
0.0
 30
0.0
210
0.0
220
0.0
230
1.0
  2
SOLID
 70
     1
 71
     0
 91
        1
 92
        0
 93
        6
 72
     3
 10
-3.249945214660301
 20
-40.00000000005127
 11
3.960054785062283
 21
1.540882976769353E-10
 40
0.3939339440162628
 50
17.09539180608437
 51
320.0019657685086
 73
     0
 72
     1
 10
-1.566945558959706
 20
-38.58789400463833
 11
0.7383563147413597
 21
-36.65356729459038
 72
     3
 10
-3.249945214713147
 20
-40.00000000000015
 11
6.600054785286829
 21
-1.278976924368180E-13
 40
0.636358354079598
 50
39.99873849337386
 51
368.4976242363725
 73
     1
 72
     1
 10
3.175387277187465
 20
-39.03999999993002
 11
-4.569877907877224
 21
-39.03999999993002
 72
     1
 10
-4.569877907877224
 20
-39.03999999993002
 11
-4.569902952323158
 21
-40.95999999992991
 72
     1
 10
-4.569902952323158
 20
-40.95999999992991
 11
-0.1285231828511222
 21
-40.95999999992988
 97
        0
 75
     0
 76
     1
 98
        1
 10
-19.925
 20
-0.0010749287238931
  0
DIMENSION
  5
D1
330
1F
100
AcDbEntity
  8
치수문자_일반주서
100
AcDbDimension
  2
_D
 10
61.22497982100116
 20
-4.999999999999883
 30
0.0
 11
61.22497982100109
 21
15.32275000000012
 31
0.0
 70
   160
  1
%%c<>
 71
     2
 42
9.999999999999998
 52
-270.0
  3
SLDDIMSTYLE1
100
AcDbAlignedDimension
 13
30.33841287702403
 23
5.000000000000003
 33
0.0
 14
30.33841287702403
 24
-4.999999999999996
 34
0.0
 50
90.0000000000002
100
AcDbRotatedDimension
1001
PE_URL
1000

  0
DIMENSION
  5
DE
330
1F
100
AcDbEntity
  8
치수문자_일반주서
100
AcDbDimension
  2
_D_1
 10
-68.83846843616479
 20
-5.000000000000042
 30
0.0
 11
-68.8384684361648
 21
0.0000000000000037
 31
0.0
 70
   160
  1
%%c<>
 71
     2
 42
10.00000000000001
 52
-270.0
  3
SLDDIMSTYLE1
100
AcDbAlignedDimension
 13
-58.85
 23
5.000000000000004
 33
0.0
 14
-58.85
 24
-5.000000000000004
 34
0.0
 50
90.0000000000002
100
AcDbRotatedDimension
  0
DIMENSION
  5
EC
330
1F
100
AcDbEntity
  8
치수문자_일반주서
100
AcDbDimension
  2
_D_2
 10
15.14999999999998
 20
14.60855141574294
 30
0.0
 11
27.64999999999999
 21
14.60855141574294
 31
0.0
 70
   160
  1
<>
 71
     2
 42
25.00000000000002
  3
SLDDIMSTYLE1
100
AcDbAlignedDimension
 13
40.15000000000001
 23
4.47251265169994
 33
0.0
 14
15.14999999999998
 24
4.92865334899627
 34
0.0
100
AcDbRotatedDimension
1001
PE_URL
1000

  0
DIMENSION
  5
F6
330
1F
100
AcDbEntity
  8
치수문자_일반주서
100
AcDbDimension
  2
_D_3
 10
0.1500000000000057
 20
20.60855141574292
 30
0.0
 11
20.15000000000001
 21
20.60855141574292
 31
0.0
 70
   160
  1
<>
 71
     2
 42
40.0
  3
SLDDIMSTYLE1
100
AcDbAlignedDimension
 13
40.15000000000001
 23
4.47251265169994
 33
0.0
 14
0.1500000000000057
 24
4.849999999999999
 34
0.0
100
AcDbRotatedDimension
1001
PE_URL
1000

  0
DIMENSION
  5
100
330
1F
100
AcDbEntity
  8
치수문자_일반주서
100
AcDbDimension
  2
_D_4
 10
-59.85000000000001
 20
29.01604871690483
 30
0.0
 11
-9.849999999999996
 21
29.01604871690483
 31
0.0
 70
   160
  1
<>
 71
     2
 42
100.0
  3
SLDDIMSTYLE1
100
AcDbAlignedDimension
 13
40.15000000000001
 23
4.47251265169994
 33
0.0
 14
-59.85
 24
4.000000000000011
 34
0.0
 50
0.0000000000000041
100
AcDbRotatedDimension
1001
PE_URL
1000

  0
LINE
  5
10A
330
1F
100
AcDbEntity
  8
참조1
100
AcDbLine
 10
52.96348381534559
 20
7.440000000000002
 30
0.0
 11
52.96348381534559
 21
-7.440000000000002
 31
0.0
  0
LINE
  5
10B
330
1F
100
AcDbEntity
  8
참조1
100
AcDbLine
 10
65.66348381534559
 20
5.440000000000002
 30
0.0
 11
52.96348381534559
 21
5.440000000000002
 31
0.0
  0
SOLID
  5
10C
330
1F
100
AcDbEntity
  8
참조1
100
AcDbTrace
 10
52.96348381534559
 20
5.440000000000002
 30
0.0
 11
59.31348381534558
 21
4.424000000000002
 31
0.0
 12
59.31348381534558
 22
6.456000000000002
 32
0.0
 13
59.31348381534558
 23
6.456000000000002
 33
0.0
  0
LINE
  5
10D
330
1F
100
AcDbEntity
  8
참조1
100
AcDbLine
 10
65.66348381534559
 20
-5.440000000000002
 30
0.0
 11
52.96348381534559
 21
-5.440000000000002
 31
0.0
  0
SOLID
  5
10E
330
1F
100
AcDbEntity
  8
참조1
100
AcDbTrace
 10
52.96348381534559
 20
-5.440000000000002
 30
0.0
 11
59.31348381534558
 21
-6.456000000000002
 31
0.0
 12
59.31348381534558
 22
-4.424000000000002
 32
0.0
 13
59.31348381534558
 23
-4.424000000000002
 33
0.0
  0
MTEXT
  5
10F
330
1F
100
AcDbEntity
  8
참조1
100
AcDbMText
 10
62.36097390781587
 20
10.98821664464994
 30
0.0
 40
3.5
 41
0.0
 71
     1
 72
     1
  1
A
  7
SLDTEXTSTYLE0
 73
     1
 44
1.0
  0
MTEXT
  5
110
330
1F
100
AcDbEntity
  8
참조1
100
AcDbMText
 10
62.36097390781587
 20
0.1082166446499328
 30
0.0
 40
3.5
 41
0.0
 71
     1
 72
     1
  1
A
  7
SLDTEXTSTYLE0
 73
     1
 44
1.0
  0
INSERT
  5
117
330
1F
100
AcDbEntity
  8
해칭선
100
AcDbBlockReference
  2
SW_DOWELSYMBOL_0
 10
0.0000000000000071
 20
-0.0010749287238931
 30
0.0
  0
ARC
  5
146
330
1F
100
AcDbEntity
  8
0
 62
     1
100
AcDbCircle
 10
39.65000000000001
 20
4.47251265169994
 30
0.0
 40
0.5
100
AcDbArc
 50
0.0
 51
90.0
  0
ARC
  5
147
102
{ACAD_REACTORS
102
}
330
1F
100
AcDbEntity
  8
0
 62
     1
100
AcDbCircle
 10
39.65000000000001
 20
-4.47251265169992
 30
0.0
 40
0.5
100
AcDbArc
 50
269.9999999999992
 51
359.9999999999999
  0
DIMENSION
  5
14C
102
{ACAD_REACTORS
102
}
102
{ACAD_XDICTIONARY
360
14D
102
}
330
1F
100
AcDbEntity
  8
0
100
AcDbDimension
  2
*D8
 10
39.65000000000001
 20
-4.47251265169992
 30
0.0
 11
51.85932869560557
 21
-12.36605334427215
 31
0.0
 70
   164
 71
     5
 42
0.4999999999999998
  3
ISO-25
100
AcDbRadialDimension
 15
39.874973584507
 25
-4.919040239060521
 35
0.0
 40
0.0
1001
ACAD
1000
DSTYLE
1002
{
1070
   179
1070
     2
1070
   143
1040
0.0393700787401575
1070
    41
1040
3.302
1070
    44
1040
1.0
1070
    42
1040
1.0
1070
   147
1040
1.524
1070
    73
1070
     1
1070
    74
1070
     1
1070
   140
1040
3.5
1070
   284
1070
     0
1070
    78
1070
     0
1002
}
1001
ACAD_DSTYLE_DIMRADIAL_EXTENSION
1070
   387
1070
     1
1070
   388
1040
4.712388980384675
1070
   390
1040
6.283185307179584
  0
ENDSEC
  0
SECTION
  2
OBJECTS
  0
DICTIONARY
  5
C
330
0
100
AcDbDictionary
281
     1
  3
ACAD_GROUP
350
D
  3
ACAD_LAYOUT
350
1A
  3
ACAD_MLINESTYLE
350
17
  3
ACAD_PLOTSETTINGS
350
19
  3
ACAD_PLOTSTYLENAME
350
E
  3
ACAD_SCALELIST
350
47
  3
APPDATA
350
139
  3
DWGPROPS
350
159
  0
DICTIONARY
  5
14D
330
14C
100
AcDbDictionary
280
     1
281
     1
  0
DICTIONARY
  5
D
102
{ACAD_REACTORS
330
C
102
}
330
C
100
AcDbDictionary
281
     1
  0
DICTIONARY
  5
1A
102
{ACAD_REACTORS
330
C
102
}
330
C
100
AcDbDictionary
281
     1
  3
Layout1
350
1E
  3
Layout2
350
26
  3
Model
350
22
  0
DICTIONARY
  5
17
102
{ACAD_REACTORS
330
C
102
}
330
C
100
AcDbDictionary
281
     1
  3
Standard
350
18
  0
DICTIONARY
  5
19
102
{ACAD_REACTORS
330
C
102
}
330
C
100
AcDbDictionary
281
     1
  0
ACDBDICTIONARYWDFLT
  5
E
102
{ACAD_REACTORS
330
C
102
}
330
C
100
AcDbDictionary
281
     1
  3
Normal
350
F
100
AcDbDictionaryWithDefault
340
F
  0
DICTIONARY
  5
47
102
{ACAD_REACTORS
330
C
102
}
330
C
100
AcDbDictionary
281
     1
  3
A0
350
48
  3
A1
350
49
  3
A2
350
4A
  3
A3
350
4B
  3
A4
350
4C
  3
A5
350
4D
  3
A6
350
4E
  3
A7
350
4F
  3
A8
350
50
  3
A9
350
51
  3
B0
350
52
  3
B1
350
53
  3
B2
350
54
  3
B3
350
55
  3
B4
350
56
  3
B5
350
57
  3
B6
350
58
  3
B7
350
59
  3
B8
350
5A
  3
B9
350
5B
  3
C0
350
5C
  3
C1
350
5D
  3
C2
350
5E
  3
C3
350
5F
  3
C4
350
60
  3
C5
350
61
  3
C6
350
62
  3
C7
350
63
  3
C8
350
64
  3
C9
350
65
  3
D0
350
66
  3
D1
350
67
  3
D2
350
68
  0
DICTIONARY
  5
139
102
{ACAD_REACTORS
330
C
102
}
330
C
100
AcDbDictionary
281
     1
  0
XRECORD
  5
159
102
{ACAD_REACTORS
330
C
102
}
330
C
100
AcDbXrecord
280
     1
  1
DWGPROPS COOKIE
  2

  3

  4

  6

  7

  8
USER
  9

300
=
301
=
302
=
303
=
304
=
305
=
306
=
307
=
308
=
309
=
 40
0.0
 41
2458274.336584502
 42
2458275.081862512
  1

 90
        0
  0
LAYOUT
  5
1E
102
{ACAD_REACTORS
330
1A
102
}
330
1A
100
AcDbPlotSettings
  1

  2
none_device
  4

  6

 40
0.0
 41
0.0
 42
0.0
 43
0.0
 44
0.0
 45
0.0
 46
0.0
 47
0.0
 48
0.0
 49
0.0
140
0.0
141
0.0
142
1.0
143
1.0
 70
   688
 72
     1
 73
     0
 74
     5
  7

 75
    16
147
1.0
148
0.0
149
0.0
100
AcDbLayout
  1
Layout1
 70
     1
 71
     1
 10
0.0
 20
0.0
 11
420.0
 21
297.0
 12
0.0
 22
0.0
 32
0.0
 14
1.000000000000000E+20
 24
1.000000000000000E+20
 34
1.000000000000000E+20
 15
-1.000000000000000E+20
 25
-1.000000000000000E+20
 35
-1.000000000000000E+20
146
0.0
 13
0.0
 23
0.0
 33
0.0
 16
1.0
 26
0.0
 36
0.0
 17
0.0
 27
1.0
 37
0.0
 76
     0
330
1B
  0
LAYOUT
  5
26
102
{ACAD_REACTORS
330
1A
102
}
330
1A
100
AcDbPlotSettings
  1

  2
none_device
  4

  6

 40
0.0
 41
0.0
 42
0.0
 43
0.0
 44
0.0
 45
0.0
 46
0.0
 47
0.0
 48
0.0
 49
0.0
140
0.0
141
0.0
142
1.0
143
1.0
 70
   688
 72
     1
 73
     0
 74
     5
  7

 75
    16
147
1.0
148
0.0
149
0.0
100
AcDbLayout
  1
Layout2
 70
     1
 71
     2
 10
0.0
 20
0.0
 11
0.0
 21
0.0
 12
0.0
 22
0.0
 32
0.0
 14
0.0
 24
0.0
 34
0.0
 15
0.0
 25
0.0
 35
0.0
146
0.0
 13
0.0
 23
0.0
 33
0.0
 16
1.0
 26
0.0
 36
0.0
 17
0.0
 27
1.0
 37
0.0
 76
     0
330
23
  0
LAYOUT
  5
22
102
{ACAD_REACTORS
330
1A
102
}
330
1A
100
AcDbPlotSettings
  1

  2
none_device
  4
ANSI_A_(11.00_x_8.50_Inches)
  6

 40
6.35
 41
19.05
 42
6.35000508
 43
19.05000254
 44
279.4
 45
215.9
 46
101.4166318369761
 47
105.9914017390232
 48
0.0
 49
0.0
140
0.0
141
0.0
142
0.0783074874124013
143
1.0
 70
  1696
 72
     0
 73
     0
 74
     0
  7

 75
     0
147
0.0235690232323232
148
0.0
149
0.0
100
AcDbLayout
  1
Model
 70
     1
 71
     0
 10
0.0
 20
0.0
 11
420.0
 21
297.0
 12
0.0
 22
0.0
 32
0.0
 14
-73.2134684361648
 24
-49.97180738881175
 34
0.0
 15
65.66348381534559
 25
33.39104871690483
 35
0.0
146
0.0
 13
0.0
 23
0.0
 33
0.0
 16
1.0
 26
0.0
 36
0.0
 17
0.0
 27
1.0
 37
0.0
 76
     0
330
1F
331
29
  0
MLINESTYLE
  5
18
102
{ACAD_REACTORS
330
17
102
}
330
17
100
AcDbMlineStyle
  2
Standard
 70
     0
  3

 62
   256
 51
90.0
 52
90.0
 71
     2
 49
0.5
 62
   256
  6
BYLAYER
 49
-0.5
 62
   256
  6
BYLAYER
  0
ACDBPLACEHOLDER
  5
F
102
{ACAD_REACTORS
330
E
102
}
330
E
  0
SCALE
  5
48
102
{ACAD_REACTORS
330
47
102
}
330
47
100
AcDbScale
 70
     0
300
1:1
140
1.0
141
1.0
290
     1
  0
SCALE
  5
49
102
{ACAD_REACTORS
330
47
102
}
330
47
100
AcDbScale
 70
     0
300
1:2
140
1.0
141
2.0
290
     0
  0
SCALE
  5
4A
102
{ACAD_REACTORS
330
47
102
}
330
47
100
AcDbScale
 70
     0
300
1:4
140
1.0
141
4.0
290
     0
  0
SCALE
  5
4B
102
{ACAD_REACTORS
330
47
102
}
330
47
100
AcDbScale
 70
     0
300
1:5
140
1.0
141
5.0
290
     0
  0
SCALE
  5
4C
102
{ACAD_REACTORS
330
47
102
}
330
47
100
AcDbScale
 70
     0
300
1:8
140
1.0
141
8.0
290
     0
  0
SCALE
  5
4D
102
{ACAD_REACTORS
330
47
102
}
330
47
100
AcDbScale
 70
     0
300
1:10
140
1.0
141
10.0
290
     0
  0
SCALE
  5
4E
102
{ACAD_REACTORS
330
47
102
}
330
47
100
AcDbScale
 70
     0
300
1:16
140
1.0
141
16.0
290
     0
  0
SCALE
  5
4F
102
{ACAD_REACTORS
330
47
102
}
330
47
100
AcDbScale
 70
     0
300
1:20
140
1.0
141
20.0
290
     0
  0
SCALE
  5
50
102
{ACAD_REACTORS
330
47
102
}
330
47
100
AcDbScale
 70
     0
300
1:30
140
1.0
141
30.0
290
     0
  0
SCALE
  5
51
102
{ACAD_REACTORS
330
47
102
}
330
47
100
AcDbScale
 70
     0
300
1:40
140
1.0
141
40.0
290
     0
  0
SCALE
  5
52
102
{ACAD_REACTORS
330
47
102
}
330
47
100
AcDbScale
 70
     0
300
1:50
140
1.0
141
50.0
290
     0
  0
SCALE
  5
53
102
{ACAD_REACTORS
330
47
102
}
330
47
100
AcDbScale
 70
     0
300
1:100
140
1.0
141
100.0
290
     0
  0
SCALE
  5
54
102
{ACAD_REACTORS
330
47
102
}
330
47
100
AcDbScale
 70
     0
300
2:1
140
2.0
141
1.0
290
     0
  0
SCALE
  5
55
102
{ACAD_REACTORS
330
47
102
}
330
47
100
AcDbScale
 70
     0
300
4:1
140
4.0
141
1.0
290
     0
  0
SCALE
  5
56
102
{ACAD_REACTORS
330
47
102
}
330
47
100
AcDbScale
 70
     0
300
8:1
140
8.0
141
1.0
290
     0
  0
SCALE
  5
57
102
{ACAD_REACTORS
330
47
102
}
330
47
100
AcDbScale
 70
     0
300
10:1
140
10.0
141
1.0
290
     0
  0
SCALE
  5
58
102
{ACAD_REACTORS
330
47
102
}
330
47
100
AcDbScale
 70
     0
300
100:1
140
100.0
141
1.0
290
     0
  0
SCALE
  5
59
102
{ACAD_REACTORS
330
47
102
}
330
47
100
AcDbScale
 70
     0
300
1/128" = 1'-0"
140
0.0078125
141
12.0
290
     0
  0
SCALE
  5
5A
102
{ACAD_REACTORS
330
47
102
}
330
47
100
AcDbScale
 70
     0
300
1/64" = 1'-0"
140
0.015625
141
12.0
290
     0
  0
SCALE
  5
5B
102
{ACAD_REACTORS
330
47
102
}
330
47
100
AcDbScale
 70
     0
300
1/32" = 1'-0"
140
0.03125
141
12.0
290
     0
  0
SCALE
  5
5C
102
{ACAD_REACTORS
330
47
102
}
330
47
100
AcDbScale
 70
     0
300
1/16" = 1'-0"
140
0.0625
141
12.0
290
     0
  0
SCALE
  5
5D
102
{ACAD_REACTORS
330
47
102
}
330
47
100
AcDbScale
 70
     0
300
3/32" = 1'-0"
140
0.09375
141
12.0
290
     0
  0
SCALE
  5
5E
102
{ACAD_REACTORS
330
47
102
}
330
47
100
AcDbScale
 70
     0
300
1/8" = 1'-0"
140
0.125
141
12.0
290
     0
  0
SCALE
  5
5F
102
{ACAD_REACTORS
330
47
102
}
330
47
100
AcDbScale
 70
     0
300
3/16" = 1'-0"
140
0.1875
141
12.0
290
     0
  0
SCALE
  5
60
102
{ACAD_REACTORS
330
47
102
}
330
47
100
AcDbScale
 70
     0
300
1/4" = 1'-0"
140
0.25
141
12.0
290
     0
  0
SCALE
  5
61
102
{ACAD_REACTORS
330
47
102
}
330
47
100
AcDbScale
 70
     0
300
3/8" = 1'-0"
140
0.375
141
12.0
290
     0
  0
SCALE
  5
62
102
{ACAD_REACTORS
330
47
102
}
330
47
100
AcDbScale
 70
     0
300
1/2" = 1'-0"
140
0.5
141
12.0
290
     0
  0
SCALE
  5
63
102
{ACAD_REACTORS
330
47
102
}
330
47
100
AcDbScale
 70
     0
300
3/4" = 1'-0"
140
0.75
141
12.0
290
     0
  0
SCALE
  5
64
102
{ACAD_REACTORS
330
47
102
}
330
47
100
AcDbScale
 70
     0
300
1" = 1'-0"
140
1.0
141
12.0
290
     0
  0
SCALE
  5
65
102
{ACAD_REACTORS
330
47
102
}
330
47
100
AcDbScale
 70
     0
300
1-1/2" = 1'-0"
140
1.5
141
12.0
290
     0
  0
SCALE
  5
66
102
{ACAD_REACTORS
330
47
102
}
330
47
100
AcDbScale
 70
     0
300
3" = 1'-0"
140
3.0
141
12.0
290
     0
  0
SCALE
  5
67
102
{ACAD_REACTORS
330
47
102
}
330
47
100
AcDbScale
 70
     0
300
6" = 1'-0"
140
6.0
141
12.0
290
     0
  0
SCALE
  5
68
102
{ACAD_REACTORS
330
47
102
}
330
47
100
AcDbScale
 70
     0
300
1'-0" = 1'-0"
140
12.0
141
12.0
290
     0
  0
ENDSEC
  0
EOF
