  0
SECTION
  2
HEADER
  9
$ACADVER
  1
AC1015
  9
$ACADMAINTVER
 70
     6
  9
$DWGCODEPAGE
  3
ANSI_949
  9
$INSBASE
 10
0.0
 20
0.0
 30
0.0
  9
$EXTMIN
 10
-58.2134684361648
 20
-49.97180738881175
 30
0.0
  9
$EXTMAX
 10
80.66348381534559
 20
33.69581439225273
 30
0.0
  9
$LIMMIN
 10
0.0
 20
0.0
  9
$LIMMAX
 10
420.0
 20
297.0
  9
$ORTHOMODE
 70
     0
  9
$REGENMODE
 70
     1
  9
$FILLMODE
 70
     1
  9
$QTEXTMODE
 70
     0
  9
$MIRRTEXT
 70
     1
  9
$LTSCALE
 40
1.0
  9
$ATTMODE
 70
     1
  9
$TEXTSIZE
 40
3.5
  9
$TRACEWID
 40
1.0
  9
$TEXTSTYLE
  7
Standard
  9
$CLAYER
  8
0
  9
$CELTYPE
  6
ByLayer
  9
$CECOLOR
 62
   256
  9
$CELTSCALE
 40
1.0
  9
$DISPSILH
 70
     0
  9
$DIMSCALE
 40
1.0
  9
$DIMASZ
 40
3.302
  9
$DIMEXO
 40
1.0
  9
$DIMDLI
 40
3.75
  9
$DIMRND
 40
0.0
  9
$DIMDLE
 40
0.0
  9
$DIMEXE
 40
1.0
  9
$DIMTP
 40
0.0
  9
$DIMTM
 40
0.0
  9
$DIMTXT
 40
3.5
  9
$DIMCEN
 40
2.5
  9
$DIMTSZ
 40
0.0
  9
$DIMTOL
 70
     0
  9
$DIMLIM
 70
     0
  9
$DIMTIH
 70
     1
  9
$DIMTOH
 70
     1
  9
$DIMSE1
 70
     0
  9
$DIMSE2
 70
     0
  9
$DIMTAD
 70
     1
  9
$DIMZIN
 70
     0
  9
$DIMBLK
  1

  9
$DIMASO
 70
     1
  9
$DIMSHO
 70
     1
  9
$DIMPOST
  1

  9
$DIMAPOST
  1

  9
$DIMALT
 70
     0
  9
$DIMALTD
 70
     3
  9
$DIMALTF
 40
0.0393700787401575
  9
$DIMLFAC
 40
1.0
  9
$DIMTOFL
 70
     1
  9
$DIMTVP
 40
0.0
  9
$DIMTIX
 70
     0
  9
$DIMSOXD
 70
     0
  9
$DIMSAH
 70
     0
  9
$DIMBLK1
  1

  9
$DIMBLK2
  1

  9
$DIMSTYLE
  2
ISO-25
  9
$DIMCLRD
 70
     0
  9
$DIMCLRE
 70
     0
  9
$DIMCLRT
 70
     0
  9
$DIMTFAC
 40
1.0
  9
$DIMGAP
 40
1.524
  9
$DIMJUST
 70
     0
  9
$DIMSD1
 70
     0
  9
$DIMSD2
 70
     0
  9
$DIMTOLJ
 70
     0
  9
$DIMTZIN
 70
     0
  9
$DIMALTZ
 70
     0
  9
$DIMALTTZ
 70
     0
  9
$DIMUPT
 70
     0
  9
$DIMDEC
 70
     2
  9
$DIMTDEC
 70
     2
  9
$DIMALTU
 70
     2
  9
$DIMALTTD
 70
     3
  9
$DIMTXSTY
  7
Standard
  9
$DIMAUNIT
 70
     0
  9
$DIMADEC
 70
     2
  9
$DIMALTRND
 40
0.0
  9
$DIMAZIN
 70
     0
  9
$DIMDSEP
 70
    44
  9
$DIMATFIT
 70
     3
  9
$DIMFRAC
 70
     0
  9
$DIMLDRBLK
  1

  9
$DIMLUNIT
 70
     2
  9
$DIMLWD
 70
    -2
  9
$DIMLWE
 70
    -2
  9
$DIMTMOVE
 70
     0
  9
$LUNITS
 70
     2
  9
$LUPREC
 70
     2
  9
$SKETCHINC
 40
1.0
  9
$FILLETRAD
 40
10.0
  9
$AUNITS
 70
     0
  9
$AUPREC
 70
     2
  9
$MENU
  1
.
  9
$ELEVATION
 40
0.0
  9
$PELEVATION
 40
0.0
  9
$THICKNESS
 40
0.0
  9
$LIMCHECK
 70
     0
  9
$CHAMFERA
 40
0.0
  9
$CHAMFERB
 40
0.0
  9
$CHAMFERC
 40
0.0
  9
$CHAMFERD
 40
0.0
  9
$SKPOLY
 70
     0
  9
$TDCREATE
 40
2458274.711017373
  9
$TDUCREATE
 40
2458274.336017373
  9
$TDUPDATE
 40
2458275.454176805
  9
$TDUUPDATE
 40
2458275.079176805
  9
$TDINDWG
 40
0.0008990856
  9
$TDUSRTIMER
 40
0.0008990741
  9
$USRTIMER
 70
     1
  9
$ANGBASE
 50
0.0
  9
$ANGDIR
 70
     0
  9
$PDMODE
 70
     0
  9
$PDSIZE
 40
-1.0
  9
$PLINEWID
 40
0.0
  9
$SPLFRAME
 70
     0
  9
$SPLINETYPE
 70
     6
  9
$SPLINESEGS
 70
     8
  9
$HANDSEED
  5
15B
  9
$SURFTAB1
 70
     6
  9
$SURFTAB2
 70
     6
  9
$SURFTYPE
 70
     6
  9
$SURFU
 70
     6
  9
$SURFV
 70
     6
  9
$UCSBASE
  2

  9
$UCSNAME
  2

  9
$UCSORG
 10
0.0
 20
0.0
 30
0.0
  9
$UCSXDIR
 10
1.0
 20
0.0
 30
0.0
  9
$UCSYDIR
 10
0.0
 20
1.0
 30
0.0
  9
$UCSORTHOREF
  2

  9
$UCSORTHOVIEW
 70
     0
  9
$UCSORGTOP
 10
0.0
 20
0.0
 30
0.0
  9
$UCSORGBOTTOM
 10
0.0
 20
0.0
 30
0.0
  9
$UCSORGLEFT
 10
0.0
 20
0.0
 30
0.0
  9
$UCSORGRIGHT
 10
0.0
 20
0.0
 30
0.0
  9
$UCSORGFRONT
 10
0.0
 20
0.0
 30
0.0
  9
$UCSORGBACK
 10
0.0
 20
0.0
 30
0.0
  9
$PUCSBASE
  2

  9
$PUCSNAME
  2

  9
$PUCSORG
 10
0.0
 20
0.0
 30
0.0
  9
$PUCSXDIR
 10
1.0
 20
0.0
 30
0.0
  9
$PUCSYDIR
 10
0.0
 20
1.0
 30
0.0
  9
$PUCSORTHOREF
  2

  9
$PUCSORTHOVIEW
 70
     0
  9
$PUCSORGTOP
 10
0.0
 20
0.0
 30
0.0
  9
$PUCSORGBOTTOM
 10
0.0
 20
0.0
 30
0.0
  9
$PUCSORGLEFT
 10
0.0
 20
0.0
 30
0.0
  9
$PUCSORGRIGHT
 10
0.0
 20
0.0
 30
0.0
  9
$PUCSORGFRONT
 10
0.0
 20
0.0
 30
0.0
  9
$PUCSORGBACK
 10
0.0
 20
0.0
 30
0.0
  9
$USERI1
 70
     0
  9
$USERI2
 70
     0
  9
$USERI3
 70
     0
  9
$USERI4
 70
     0
  9
$USERI5
 70
     0
  9
$USERR1
 40
0.0
  9
$USERR2
 40
0.0
  9
$USERR3
 40
0.0
  9
$USERR4
 40
0.0
  9
$USERR5
 40
0.0
  9
$WORLDVIEW
 70
     1
  9
$SHADEDGE
 70
     3
  9
$SHADEDIF
 70
    70
  9
$TILEMODE
 70
     1
  9
$MAXACTVP
 70
    64
  9
$PINSBASE
 10
0.0
 20
0.0
 30
0.0
  9
$PLIMCHECK
 70
     0
  9
$PEXTMIN
 10
1.000000000000000E+20
 20
1.000000000000000E+20
 30
1.000000000000000E+20
  9
$PEXTMAX
 10
-1.000000000000000E+20
 20
-1.000000000000000E+20
 30
-1.000000000000000E+20
  9
$PLIMMIN
 10
0.0
 20
0.0
  9
$PLIMMAX
 10
0.0
 20
0.0
  9
$UNITMODE
 70
     0
  9
$VISRETAIN
 70
     1
  9
$PLINEGEN
 70
     0
  9
$PSLTSCALE
 70
     1
  9
$TREEDEPTH
 70
  3020
  9
$CMLSTYLE
  2
Standard
  9
$CMLJUST
 70
     0
  9
$CMLSCALE
 40
20.0
  9
$PROXYGRAPHICS
 70
     1
  9
$MEASUREMENT
 70
     1
  9
$CELWEIGHT
370
    -1
  9
$ENDCAPS
280
     0
  9
$JOINSTYLE
280
     0
  9
$LWDISPLAY
290
     1
  9
$INSUNITS
 70
     4
  9
$HYPERLINKBASE
  1

  9
$STYLESHEET
  1

  9
$XEDIT
290
     1
  9
$CEPSNTYPE
380
     0
  9
$PSTYLEMODE
290
     1
  9
$FINGERPRINTGUID
  2
{C7693FCC-0389-4AF9-AA01-369E02B709C4}
  9
$VERSIONGUID
  2
{FAEB1C32-E019-11D5-929B-00C0DF256EC4}
  9
$EXTNAMES
290
     1
  9
$PSVPSCALE
 40
0.0
  9
$OLESTARTUP
290
     0
  0
ENDSEC
  0
SECTION
  2
CLASSES
  0
CLASS
  1
ACDBDICTIONARYWDFLT
  2
AcDbDictionaryWithDefault
  3
ObjectDBX Classes
 90
        0
280
     0
281
     0
  0
CLASS
  1
VISUALSTYLE
  2
AcDbVisualStyle
  3
ObjectDBX Classes
 90
     4095
280
     0
281
     0
  0
CLASS
  1
MATERIAL
  2
AcDbMaterial
  3
ObjectDBX Classes
 90
     1153
280
     0
281
     0
  0
CLASS
  1
SCALE
  2
AcDbScale
  3
ObjectDBX Classes
 90
     1153
280
     0
281
     0
  0
CLASS
  1
SUN
  2
AcDbSun
  3
SCENEOE
 90
     1153
280
     0
281
     0
  0
CLASS
  1
ACDBPLACEHOLDER
  2
AcDbPlaceHolder
  3
ObjectDBX Classes
 90
        0
280
     0
281
     0
  0
CLASS
  1
LAYOUT
  2
AcDbLayout
  3
ObjectDBX Classes
 90
        0
280
     0
281
     0
  0
CLASS
  1
TABLESTYLE
  2
AcDbTableStyle
  3
ObjectDBX Classes
 90
     4095
280
     0
281
     0
  0
CLASS
  1
MLEADERSTYLE
  2
AcDbMLeaderStyle
  3
ACDB_MLEADERSTYLE_CLASS
 90
     4095
280
     0
281
     0
  0
CLASS
  1
DIMASSOC
  2
AcDbDimAssoc
  3
"AcDbDimAssoc|Product Desc:     AcDim ARX App For Dimension|Company:          Autodesk, Inc.|WEB Address:      www.autodesk.com"
 90
        0
280
     0
281
     0
  0
ENDSEC
  0
SECTION
  2
TABLES
  0
TABLE
  2
VPORT
  5
8
330
0
100
AcDbSymbolTable
 70
     1
  0
VPORT
  5
29
330
8
100
AcDbSymbolTableRecord
100
AcDbViewportTableRecord
  2
*Active
 70
     0
 10
0.0
 20
0.0
 11
1.0
 21
1.0
 12
11.22500768959038
 22
-8.137996498279513
 13
0.0
 23
0.0
 14
10.0
 24
10.0
 15
10.0
 25
10.0
 16
0.0
 26
0.0
 36
1.0
 17
0.0
 27
0.0
 37
0.0
 40
85.34097421668577
 41
2.400311526479751
 42
50.0
 43
0.0
 44
0.0
 50
0.0
 51
0.0
 71
    16
 72
  2000
 73
     1
 74
     3
 75
     0
 76
     0
 77
     0
 78
     0
281
     0
 65
     1
110
0.0
120
0.0
130
0.0
111
1.0
121
0.0
131
0.0
112
0.0
122
1.0
132
0.0
 79
     0
146
0.0
  0
ENDTAB
  0
TABLE
  2
LTYPE
  5
5
330
0
100
AcDbSymbolTable
 70
     6
  0
LTYPE
  5
14
330
5
100
AcDbSymbolTableRecord
100
AcDbLinetypeTableRecord
  2
ByBlock
 70
     0
  3

 72
    65
 73
     0
 40
0.0
  0
LTYPE
  5
15
330
5
100
AcDbSymbolTableRecord
100
AcDbLinetypeTableRecord
  2
ByLayer
 70
     0
  3

 72
    65
 73
     0
 40
0.0
  0
LTYPE
  5
16
330
5
100
AcDbSymbolTableRecord
100
AcDbLinetypeTableRecord
  2
Continuous
 70
     0
  3
Solid line
 72
    65
 73
     0
 40
0.0
  0
LTYPE
  5
6A
330
5
100
AcDbSymbolTableRecord
100
AcDbLinetypeTableRecord
  2
HIDDEN
 70
     0
  3
Hidden __ __ __ __ __ __ __ __ __ __ __ __ __ __
 72
    65
 73
     2
 40
1.905
 49
1.27
 74
     0
 49
-0.635
 74
     0
  0
LTYPE
  5
6B
330
5
100
AcDbSymbolTableRecord
100
AcDbLinetypeTableRecord
  2
PHANTOM
 70
     0
  3
Phantom ______  __  __  ______  __  __  ______
 72
    65
 73
     6
 40
12.7
 49
6.35
 74
     0
 49
-1.27
 74
     0
 49
1.27
 74
     0
 49
-1.27
 74
     0
 49
1.27
 74
     0
 49
-1.27
 74
     0
  0
LTYPE
  5
6C
330
5
100
AcDbSymbolTableRecord
100
AcDbLinetypeTableRecord
  2
CENTER
 70
     0
  3
Center ____ _ ____ _ ____ _ ____ _ ____ _ ____
 72
    65
 73
     4
 40
10.16
 49
6.35
 74
     0
 49
-1.27
 74
     0
 49
1.27
 74
     0
 49
-1.27
 74
     0
  0
LTYPE
  5
6D
330
5
100
AcDbSymbolTableRecord
100
AcDbLinetypeTableRecord
  2
CENTERX2
 70
     0
  3
Center (2x) ________  __  ________  __  _____
 72
    65
 73
     4
 40
20.32
 49
12.7
 74
     0
 49
-2.54
 74
     0
 49
2.54
 74
     0
 49
-2.54
 74
     0
  0
LTYPE
  5
6E
330
5
100
AcDbSymbolTableRecord
100
AcDbLinetypeTableRecord
  2
DOT2
 70
     0
  3
Dot (.5x) ........................................
 72
    65
 73
     2
 40
0.635
 49
0.0
 74
     0
 49
-0.635
 74
     0
  0
ENDTAB
  0
TABLE
  2
LAYER
  5
2
330
0
100
AcDbSymbolTable
 70
    18
  0
LAYER
  5
10
330
2
100
AcDbSymbolTableRecord
100
AcDbLayerTableRecord
  2
0
 70
     0
 62
     7
  6
Continuous
370
    -3
390
F
  0
LAYER
  5
6F
330
2
100
AcDbSymbolTableRecord
100
AcDbLayerTableRecord
  2
FORMAT
 70
     0
 62
     2
  6
Continuous
370
    -3
390
F
  0
LAYER
  5
70
330
2
100
AcDbSymbolTableRecord
100
AcDbLayerTableRecord
  2
외형선
 70
     0
 62
     4
  6
Continuous
370
    30
390
F
  0
LAYER
  5
71
330
2
100
AcDbSymbolTableRecord
100
AcDbLayerTableRecord
  2
숨은선
 70
     0
 62
     2
  6
HIDDEN
370
    15
390
F
  0
LAYER
  5
72
330
2
100
AcDbSymbolTableRecord
100
AcDbLayerTableRecord
  2
중심선
 70
     0
 62
     1
  6
CENTERX2
370
    -3
390
F
  0
LAYER
  5
73
330
2
100
AcDbSymbolTableRecord
100
AcDbLayerTableRecord
  2
파단선
 70
     0
 62
     4
  6
Continuous
370
    -3
390
F
  0
LAYER
  5
74
330
2
100
AcDbSymbolTableRecord
100
AcDbLayerTableRecord
  2
해칭선
 70
     0
 62
   100
  6
Continuous
370
    -3
390
F
  0
LAYER
  5
75
330
2
100
AcDbSymbolTableRecord
100
AcDbLayerTableRecord
  2
가는실선
 70
     0
 62
     4
  6
Continuous
370
    -3
390
F
  0
LAYER
  5
76
330
2
100
AcDbSymbolTableRecord
100
AcDbLayerTableRecord
  2
치수_보조선
 70
     0
 62
     4
  6
Continuous
370
    -3
390
F
  0
LAYER
  5
77
330
2
100
AcDbSymbolTableRecord
100
AcDbLayerTableRecord
  2
치수문자_일반주서
 70
     0
 62
     7
  6
Continuous
370
    15
390
F
  0
LAYER
  5
78
330
2
100
AcDbSymbolTableRecord
100
AcDbLayerTableRecord
  2
개별주서
 70
     0
 62
   100
  6
Continuous
370
    30
390
F
  0
LAYER
  5
79
330
2
100
AcDbSymbolTableRecord
100
AcDbLayerTableRecord
  2
중간선
 70
     0
 62
     2
  6
Continuous
370
    15
390
F
  0
LAYER
  5
7A
330
2
100
AcDbSymbolTableRecord
100
AcDbLayerTableRecord
  2
윤곽선
 70
     0
 62
     3
  6
Continuous
370
    40
390
F
  0
LAYER
  5
7B
330
2
100
AcDbSymbolTableRecord
100
AcDbLayerTableRecord
  2
중심마크
 70
     0
 62
   100
  6
Continuous
370
    30
390
F
  0
LAYER
  5
7C
330
2
100
AcDbSymbolTableRecord
100
AcDbLayerTableRecord
  2
가상선
 70
     0
 62
     4
  6
PHANTOM
370
    -3
390
F
  0
LAYER
  5
7D
330
2
100
AcDbSymbolTableRecord
100
AcDbLayerTableRecord
  2
특수지정선
 70
     0
 62
     5
  6
CENTERX2
370
    60
390
F
  0
LAYER
  5
7E
330
2
100
AcDbSymbolTableRecord
100
AcDbLayerTableRecord
  2
참조1
 70
     0
 62
    -4
  6
Continuous
370
    -3
390
F
  0
LAYER
  5
13F
330
2
100
AcDbSymbolTableRecord
100
AcDbLayerTableRecord
  2
Defpoints
 70
     0
 62
     7
  6
Continuous
290
     0
370
    -3
390
F
  0
ENDTAB
  0
TABLE
  2
STYLE
  5
3
330
0
100
AcDbSymbolTable
 70
     2
  0
STYLE
  5
11
330
3
100
AcDbSymbolTableRecord
100
AcDbTextStyleTableRecord
  2
Standard
 70
     0
 40
0.0
 41
1.0
 50
0.0
 71
     0
 42
3.5
  3
txt
  4

  0
STYLE
  5
94
330
3
100
AcDbSymbolTableRecord
100
AcDbTextStyleTableRecord
  2
SLDTEXTSTYLE0
 70
     0
 40
0.0
 41
0.75
 50
0.0
 71
     0
 42
3.5
  3
TXT
  4

  0
ENDTAB
  0
TABLE
  2
VIEW
  5
6
330
0
100
AcDbSymbolTable
 70
     0
  0
ENDTAB
  0
TABLE
  2
UCS
  5
7
330
0
100
AcDbSymbolTable
 70
     0
  0
ENDTAB
  0
TABLE
  2
APPID
  5
9
330
0
100
AcDbSymbolTable
 70
     3
  0
APPID
  5
12
330
9
100
AcDbSymbolTableRecord
100
AcDbRegAppTableRecord
  2
ACAD
 70
     0
  0
APPID
  5
149
330
9
100
AcDbSymbolTableRecord
100
AcDbRegAppTableRecord
  2
PE_URL
 70
     0
  0
APPID
  5
14C
330
9
100
AcDbSymbolTableRecord
100
AcDbRegAppTableRecord
  2
ACAD_DSTYLE_DIMRADIAL_EXTENSION
 70
     0
  0
ENDTAB
  0
TABLE
  2
DIMSTYLE
  5
A
330
0
100
AcDbSymbolTable
 70
     3
100
AcDbDimStyleTable
  0
DIMSTYLE
105
27
102
{ACAD_REACTORS
330
14D
102
}
330
A
100
AcDbSymbolTableRecord
100
AcDbDimStyleTableRecord
  2
ISO-25
 70
     0
 41
2.5
 42
0.625
 43
3.75
 44
1.25
 73
     0
 74
     0
 77
     1
 78
     8
140
2.5
141
2.5
143
0.03937007874016
147
0.625
171
     3
172
     1
178
     0
271
     2
272
     2
274
     3
278
    44
283
     0
284
     8
340
11
  0
DIMSTYLE
105
D3
330
A
100
AcDbSymbolTableRecord
100
AcDbDimStyleTableRecord
  2
SLDDIMSTYLE0
 70
     0
 41
3.302
 44
0.0
 45
0.000000001
 73
     0
 74
     0
 77
     1
 78
    12
 79
     3
140
3.5
147
0.875
173
     1
178
     0
271
     2
272
     2
276
     2
284
    12
340
94
  0
DIMSTYLE
105
E0
102
{ACAD_REACTORS
330
DF
330
ED
330
D2
330
F9
330
103
102
}
330
A
100
AcDbSymbolTableRecord
100
AcDbDimStyleTableRecord
  2
SLDDIMSTYLE1
 70
     0
 41
3.302
 44
0.0
 45
0.000000001
 73
     0
 74
     0
 77
     1
 78
    12
 79
     3
140
3.5
147
0.875
172
     1
173
     1
178
     0
271
     2
272
     2
276
     2
284
    12
289
     0
340
94
  0
ENDTAB
  0
TABLE
  2
BLOCK_RECORD
  5
1
330
0
100
AcDbSymbolTable
 70
     9
  0
BLOCK_RECORD
  5
1F
330
1
100
AcDbSymbolTableRecord
100
AcDbBlockTableRecord
  2
*Model_Space
340
22
  0
BLOCK_RECORD
  5
1B
330
1
100
AcDbSymbolTableRecord
100
AcDbBlockTableRecord
  2
*Paper_Space
340
1E
  0
BLOCK_RECORD
  5
23
330
1
100
AcDbSymbolTableRecord
100
AcDbBlockTableRecord
  2
*Paper_Space0
340
26
  0
BLOCK_RECORD
  5
7F
330
1
100
AcDbSymbolTableRecord
100
AcDbBlockTableRecord
  2
블럭10
340
0
102
{BLKREFS
331
CB
102
}
  0
BLOCK_RECORD
  5
D4
330
1
100
AcDbSymbolTableRecord
100
AcDbBlockTableRecord
  2
_D
340
0
  0
BLOCK_RECORD
  5
E1
330
1
100
AcDbSymbolTableRecord
100
AcDbBlockTableRecord
  2
_D_1
340
0
  0
BLOCK_RECORD
  5
EE
330
1
100
AcDbSymbolTableRecord
100
AcDbBlockTableRecord
  2
_D_2
340
0
  0
BLOCK_RECORD
  5
FA
330
1
100
AcDbSymbolTableRecord
100
AcDbBlockTableRecord
  2
_D_3
340
0
  0
BLOCK_RECORD
  5
104
330
1
100
AcDbSymbolTableRecord
100
AcDbBlockTableRecord
  2
_D_4
340
0
  0
BLOCK_RECORD
  5
114
330
1
100
AcDbSymbolTableRecord
100
AcDbBlockTableRecord
  2
SW_DOWELSYMBOL_0
340
0
102
{BLKREFS
331
11A
102
}
  0
BLOCK_RECORD
  5
150
330
1
100
AcDbSymbolTableRecord
100
AcDbBlockTableRecord
  2
*D8
340
0
  0
ENDTAB
  0
ENDSEC
  0
SECTION
  2
BLOCKS
  0
BLOCK
  5
20
330
1F
100
AcDbEntity
  8
0
100
AcDbBlockBegin
  2
*Model_Space
 70
     0
 10
0.0
 20
0.0
 30
0.0
  3
*Model_Space
  1

  0
ENDBLK
  5
21
330
1F
100
AcDbEntity
  8
0
100
AcDbBlockEnd
  0
BLOCK
  5
1C
330
1B
100
AcDbEntity
 67
     1
  8
0
100
AcDbBlockBegin
  2
*Paper_Space
 70
     0
 10
0.0
 20
0.0
 30
0.0
  3
*Paper_Space
  1

  0
ENDBLK
  5
1D
330
1B
100
AcDbEntity
 67
     1
  8
0
100
AcDbBlockEnd
  0
BLOCK
  5
24
330
23
100
AcDbEntity
  8
0
100
AcDbBlockBegin
  2
*Paper_Space0
 70
     0
 10
0.0
 20
0.0
 30
0.0
  3
*Paper_Space0
  1

  0
ENDBLK
  5
25
330
23
100
AcDbEntity
  8
0
100
AcDbBlockEnd
  0
BLOCK
  5
80
330
7F
100
AcDbEntity
  8
0
100
AcDbBlockBegin
  2
블럭10
 70
     2
 10
0.0
 20
0.0
 30
0.0
  3
블럭10
  1

  0
ELLIPSE
  5
82
330
7F
100
AcDbEntity
  8
중심선
100
AcDbEllipse
 10
20.54032771741204
 20
12.0471743016438
 30
0.0
 11
6.600054785286829
 21
-1.261213355974178E-13
 31
0.0
210
0.0
220
0.0
230
1.0
 40
0.636358354079598
 41
0.9219305317359503
 42
6.513795318482858
  0
ELLIPSE
  5
83
330
7F
100
AcDbEntity
  8
중심선
100
AcDbEllipse
 10
20.54032771746488
 20
12.04717430159265
 30
0.0
 11
3.960054785062283
 21
1.540847449632565E-10
 31
0.0
210
0.0
220
0.0
230
1.0
 40
0.3939339440162632
 41
1.131841032648279
 42
5.62031148352944
  0
LINE
  5
84
330
7F
100
AcDbEntity
  8
중심선
100
AcDbLine
 10
2.268634060543552
 20
16.24717430164393
 30
0.0
 11
5.714909304380834
 21
16.24717430164393
 31
0.0
  0
LINE
  5
85
330
7F
100
AcDbEntity
  8
중심선
100
AcDbLine
 10
5.245725140726316
 20
7.84717430164391
 30
0.0
 11
8.692000384563599
 21
7.84717430164391
 31
0.0
  0
LINE
  5
86
330
7F
100
AcDbEntity
  8
중심선
100
AcDbLine
 10
15.74043728645272
 20
16.24717430164393
 30
0.0
 11
8.692000384563599
 21
7.84717430164391
 31
0.0
  0
LINE
  5
87
330
7F
100
AcDbEntity
  8
중심선
100
AcDbLine
 10
0.1404042013395286
 20
13.71084872107135
 30
0.0
 11
3.58671253028996
 21
13.71088815037384
 31
0.0
  0
LINE
  5
88
330
7F
100
AcDbEntity
  8
중심선
100
AcDbLine
 10
2.750260043222114
 20
10.84717430164391
 30
0.0
 11
6.196535287059397
 21
10.84717430164391
 31
0.0
  0
LINE
  5
89
330
7F
100
AcDbEntity
  8
중심선
100
AcDbLine
 10
12.29416204261559
 20
16.24717430164393
 30
0.0
 11
5.245725140726316
 21
7.84717430164391
 31
0.0
  0
LINE
  5
8A
330
7F
100
AcDbEntity
  8
중심선
100
AcDbLine
 10
10.72767329541681
 20
16.24717430164393
 30
0.0
 11
6.196535287059397
 21
10.84717430164391
 31
0.0
  0
LINE
  5
8B
330
7F
100
AcDbEntity
  8
중심선
100
AcDbLine
 10
7.28139805157953
 20
16.24717430164393
 30
0.0
 11
2.750260043222114
 21
10.84717430164391
 31
0.0
  0
LINE
  5
8C
330
7F
100
AcDbEntity
  8
중심선
100
AcDbLine
 10
5.714909304380834
 20
16.24717430164393
 30
0.0
 11
3.58671253028996
 21
13.71088815037384
 31
0.0
  0
LINE
  5
8D
330
7F
100
AcDbEntity
  8
중심선
100
AcDbLine
 10
2.268634060543552
 20
16.24717430164393
 30
0.0
 11
0.1404042013395286
 21
13.71084872107135
 31
0.0
  0
LINE
  5
8E
330
7F
100
AcDbEntity
  8
중심선
100
AcDbLine
 10
7.28139805157953
 20
16.24717430164393
 30
0.0
 11
10.72767329541681
 21
16.24717430164393
 31
0.0
  0
LINE
  5
8F
330
7F
100
AcDbEntity
  8
중심선
100
AcDbLine
 10
12.29416204261559
 20
16.24717430164393
 30
0.0
 11
15.74043728645272
 21
16.24717430164393
 31
0.0
  0
LINE
  5
90
330
7F
100
AcDbEntity
  8
중심선
100
AcDbLine
 10
19.22036997980202
 20
11.08717430171403
 30
0.0
 11
23.66174974927406
 21
11.08717430171406
 31
0.0
  0
LINE
  5
91
330
7F
100
AcDbEntity
  8
중심선
100
AcDbLine
 10
19.22039502424796
 20
13.00717430171391
 30
0.0
 11
19.22036997980202
 21
11.08717430171403
 31
0.0
  0
LINE
  5
92
330
7F
100
AcDbEntity
  8
중심선
100
AcDbLine
 10
19.22039502424796
 20
13.00717430171391
 30
0.0
 11
26.96566020931264
 21
13.00717430171391
 31
0.0
  0
LINE
  5
93
330
7F
100
AcDbEntity
  8
중심선
100
AcDbLine
 10
22.22332737316547
 20
13.45928029700563
 30
0.0
 11
24.52862924686651
 21
15.39360700705356
 31
0.0
  0
ATTDEF
  5
95
330
7F
100
AcDbEntity
  8
FORMAT
 62
     2
100
AcDbText
 10
-2.529476536452461
 20
2.075366912832191
 30
0.0
 40
4.233333333333333
  1
SEME6410002E
 41
0.75
  7
SLDTEXTSTYLE0
 11
-2.529476536452461
 21
-0.0412997538344756
 31
0.0
100
AcDbAttributeDefinition
  3

  2
AUTOATTR0
 70
     0
 74
     1
  0
ENDBLK
  5
81
330
7F
100
AcDbEntity
  8
0
100
AcDbBlockEnd
  0
BLOCK
  5
D5
330
D4
100
AcDbEntity
  8
0
100
AcDbBlockBegin
  2
_D
 70
     0
 10
0.0
 20
0.0
 30
0.0
  3
_D
  1

  0
LINE
  5
D7
330
D4
100
AcDbEntity
  8
치수문자_일반주서
 62
     0
370
    -2
100
AcDbLine
 10
20.40091287702401
 20
5.000000000000001
 30
0.0
 11
51.22497982100111
 21
5.000000000000116
 31
0.0
  0
LINE
  5
D8
330
D4
100
AcDbEntity
  8
치수문자_일반주서
 62
     0
370
    -2
100
AcDbLine
 10
20.40091287702401
 20
-4.999999999999999
 30
0.0
 11
51.22497982100115
 21
-4.999999999999886
 31
0.0
  0
LINE
  5
D9
330
D4
100
AcDbEntity
  8
치수문자_일반주서
 62
     0
370
    -2
100
AcDbLine
 10
51.22497982100111
 20
5.000000000000116
 30
0.0
 11
51.22497982100106
 21
19.04150000000012
 31
0.0
  0
LINE
  5
DA
330
D4
100
AcDbEntity
  8
치수문자_일반주서
 62
     0
370
    -2
100
AcDbLine
 10
51.22497982100111
 20
5.000000000000116
 30
0.0
 11
51.22497982100115
 21
-4.999999999999886
 31
0.0
  0
LINE
  5
DB
330
D4
100
AcDbEntity
  8
치수문자_일반주서
 62
     0
370
    -2
100
AcDbLine
 10
51.2249798210011
 20
8.302000000000117
 30
0.0
 11
51.22497982100109
 21
11.60400000000012
 31
0.0
  0
LINE
  5
DC
330
D4
100
AcDbEntity
  8
치수문자_일반주서
 62
     0
370
    -2
100
AcDbLine
 10
51.22497982100116
 20
-8.301999999999886
 30
0.0
 11
51.22497982100118
 21
-11.60399999999989
 31
0.0
  0
SOLID
  5
DD
330
D4
100
AcDbEntity
  8
치수문자_일반주서
 62
     0
100
AcDbTrace
 10
50.67464648766776
 20
8.302000000000115
 30
0.0
 11
51.77531315433443
 21
8.302000000000119
 31
0.0
 12
51.22497982100111
 22
5.000000000000116
 32
0.0
 13
51.22497982100111
 23
5.000000000000116
 33
0.0
  0
SOLID
  5
DE
330
D4
100
AcDbEntity
  8
치수문자_일반주서
 62
     0
100
AcDbTrace
 10
51.7753131543345
 20
-8.301999999999884
 30
0.0
 11
50.67464648766783
 21
-8.301999999999888
 31
0.0
 12
51.22497982100115
 22
-4.999999999999886
 32
0.0
 13
51.22497982100115
 23
-4.999999999999886
 33
0.0
  0
MTEXT
  5
140
330
D4
100
AcDbEntity
  8
치수문자_일반주서
 62
     0
100
AcDbMText
 10
46.84997982100107
 20
15.3227500000001
 30
0.0
 40
3.5
 41
0.0
 71
     2
 72
     1
  1
\A1;%%c10
  7
SLDTEXTSTYLE0
 11
-3.552713678800501E-15
 21
1.0
 31
0.0
 73
     1
 44
1.0
  0
POINT
  5
141
330
D4
100
AcDbEntity
  8
Defpoints
 62
     0
100
AcDbPoint
 10
20.33841287702401
 20
5.000000000000001
 30
0.0
  0
POINT
  5
14A
330
D4
100
AcDbEntity
  8
Defpoints
 62
     0
100
AcDbPoint
 10
20.33841287702401
 20
-4.999999999999999
 30
0.0
  0
POINT
  5
14B
330
D4
100
AcDbEntity
  8
Defpoints
 62
     0
100
AcDbPoint
 10
51.22497982100115
 20
-4.999999999999884
 30
0.0
  0
ENDBLK
  5
D6
330
D4
100
AcDbEntity
  8
0
100
AcDbBlockEnd
  0
BLOCK
  5
E2
330
E1
100
AcDbEntity
  8
0
100
AcDbBlockBegin
  2
_D_1
 70
     0
 10
0.0
 20
0.0
 30
0.0
  3
_D_1
  1

  0
LINE
  5
E4
330
E1
100
AcDbEntity
  8
치수문자_일반주서
 62
     0
370
    -2
100
AcDbLine
 10
-43.9125
 20
5.000000000000004
 30
0.0
 11
-53.83846843616482
 21
4.999999999999967
 31
0.0
  0
LINE
  5
E5
330
E1
100
AcDbEntity
  8
치수문자_일반주서
 62
     0
370
    -2
100
AcDbLine
 10
-43.9125
 20
-5.000000000000004
 30
0.0
 11
-53.83846843616478
 21
-5.000000000000042
 31
0.0
  0
LINE
  5
E6
330
E1
100
AcDbEntity
  8
치수문자_일반주서
 62
     0
370
    -2
100
AcDbLine
 10
-53.8384684361648
 20
1.697999999999968
 30
0.0
 11
-53.8384684361648
 21
-1.698000000000042
 31
0.0
  0
SOLID
  5
E7
330
E1
100
AcDbEntity
  8
치수문자_일반주서
 62
     0
100
AcDbTrace
 10
-53.28813510283147
 20
1.69799999999997
 30
0.0
 11
-54.38880176949814
 21
1.697999999999966
 31
0.0
 12
-53.83846843616482
 22
4.999999999999967
 32
0.0
 13
-53.83846843616482
 23
4.999999999999967
 33
0.0
  0
SOLID
  5
E8
330
E1
100
AcDbEntity
  8
치수문자_일반주서
 62
     0
100
AcDbTrace
 10
-54.38880176949813
 20
-1.698000000000044
 30
0.0
 11
-53.28813510283146
 21
-1.69800000000004
 31
0.0
 12
-53.83846843616478
 22
-5.000000000000042
 32
0.0
 13
-53.83846843616478
 23
-5.000000000000042
 33
0.0
  0
MTEXT
  5
E9
330
E1
100
AcDbEntity
  8
치수문자_일반주서
 62
     0
100
AcDbMText
 10
-58.2134684361648
 20
-0.0000000000000117
 30
0.0
 40
3.5
 41
0.0
 71
     2
 72
     1
  1
\A1;%%c10
  7
SLDTEXTSTYLE0
 11
-3.552713678800498E-15
 21
1.0
 31
0.0
 73
     1
 44
1.0
  0
POINT
  5
EA
330
E1
100
AcDbEntity
  8
Defpoints
 62
     0
100
AcDbPoint
 10
-43.85
 20
5.000000000000004
 30
0.0
  0
POINT
  5
EB
330
E1
100
AcDbEntity
  8
Defpoints
 62
     0
100
AcDbPoint
 10
-43.85
 20
-5.000000000000004
 30
0.0
  0
POINT
  5
EC
330
E1
100
AcDbEntity
  8
Defpoints
 62
     0
100
AcDbPoint
 10
-53.8384684361648
 20
-5.000000000000042
 30
0.0
  0
ENDBLK
  5
E3
330
E1
100
AcDbEntity
  8
0
100
AcDbBlockEnd
  0
BLOCK
  5
EF
330
EE
100
AcDbEntity
  8
0
100
AcDbBlockBegin
  2
_D_2
 70
     0
 10
0.0
 20
0.0
 30
0.0
  3
_D_2
  1

  0
LINE
  5
F1
330
EE
100
AcDbEntity
  8
치수문자_일반주서
 62
     0
370
    -2
100
AcDbLine
 10
30.14999999999998
 20
4.839778327047831
 30
0.0
 11
30.14999999999998
 21
14.91331709109084
 31
0.0
  0
LINE
  5
F2
330
EE
100
AcDbEntity
  8
치수문자_일반주서
 62
     0
370
    -2
100
AcDbLine
 10
15.14999999999998
 20
4.910803036299052
 30
0.0
 11
15.14999999999998
 21
14.91331709109084
 31
0.0
  0
LINE
  5
F3
330
EE
100
AcDbEntity
  8
치수문자_일반주서
 62
     0
370
    -2
100
AcDbLine
 10
26.84799999999998
 20
14.91331709109084
 30
0.0
 11
18.45199999999998
 21
14.91331709109084
 31
0.0
  0
SOLID
  5
F4
330
EE
100
AcDbEntity
  8
치수문자_일반주서
 62
     0
100
AcDbTrace
 10
26.84799999999998
 20
14.3629837577575
 30
0.0
 11
26.84799999999998
 21
15.46365042442417
 31
0.0
 12
30.14999999999998
 22
14.91331709109084
 32
0.0
 13
30.14999999999998
 23
14.91331709109084
 33
0.0
  0
SOLID
  5
F5
330
EE
100
AcDbEntity
  8
치수문자_일반주서
 62
     0
100
AcDbTrace
 10
18.45199999999998
 20
15.46365042442417
 30
0.0
 11
18.45199999999998
 21
14.3629837577575
 31
0.0
 12
15.14999999999998
 22
14.91331709109084
 32
0.0
 13
15.14999999999998
 23
14.91331709109084
 33
0.0
  0
MTEXT
  5
F6
330
EE
100
AcDbEntity
  8
치수문자_일반주서
 62
     0
100
AcDbMText
 10
22.64999999999998
 20
19.28831709109084
 30
0.0
 40
3.5
 41
0.0
 71
     2
 72
     1
  1
\A1;15
  7
SLDTEXTSTYLE0
 73
     1
 44
1.0
  0
POINT
  5
F7
330
EE
100
AcDbEntity
  8
Defpoints
 62
     0
100
AcDbPoint
 10
30.14999999999998
 20
4.777278327047831
 30
0.0
  0
POINT
  5
F8
330
EE
100
AcDbEntity
  8
Defpoints
 62
     0
100
AcDbPoint
 10
15.14999999999998
 20
4.848303036299052
 30
0.0
  0
POINT
  5
142
330
EE
100
AcDbEntity
  8
Defpoints
 62
     0
100
AcDbPoint
 10
15.14999999999998
 20
14.91331709109084
 30
0.0
  0
ENDBLK
  5
F0
330
EE
100
AcDbEntity
  8
0
100
AcDbBlockEnd
  0
BLOCK
  5
FB
330
FA
100
AcDbEntity
  8
0
100
AcDbBlockBegin
  2
_D_3
 70
     0
 10
0.0
 20
0.0
 30
0.0
  3
_D_3
  1

  0
LINE
  5
FD
330
FA
100
AcDbEntity
  8
치수문자_일반주서
 62
     0
370
    -2
100
AcDbLine
 10
30.14999999999998
 20
4.839778327047831
 30
0.0
 11
30.14999999999998
 21
20.91331709109081
 31
0.0
  0
LINE
  5
FE
330
FA
100
AcDbEntity
  8
치수문자_일반주서
 62
     0
370
    -2
100
AcDbLine
 10
0.1499999999999968
 20
4.912499999999999
 30
0.0
 11
0.1499999999999968
 21
20.91331709109081
 31
0.0
  0
LINE
  5
FF
330
FA
100
AcDbEntity
  8
치수문자_일반주서
 62
     0
370
    -2
100
AcDbLine
 10
26.84799999999998
 20
20.91331709109081
 30
0.0
 11
3.451999999999996
 21
20.91331709109081
 31
0.0
  0
SOLID
  5
100
330
FA
100
AcDbEntity
  8
치수문자_일반주서
 62
     0
100
AcDbTrace
 10
26.84799999999998
 20
20.36298375775748
 30
0.0
 11
26.84799999999998
 21
21.46365042442415
 31
0.0
 12
30.14999999999998
 22
20.91331709109081
 32
0.0
 13
30.14999999999998
 23
20.91331709109081
 33
0.0
  0
SOLID
  5
101
330
FA
100
AcDbEntity
  8
치수문자_일반주서
 62
     0
100
AcDbTrace
 10
3.451999999999996
 20
21.46365042442415
 30
0.0
 11
3.451999999999996
 21
20.36298375775748
 31
0.0
 12
0.1499999999999968
 22
20.91331709109081
 32
0.0
 13
0.1499999999999968
 23
20.91331709109081
 33
0.0
  0
MTEXT
  5
102
330
FA
100
AcDbEntity
  8
치수문자_일반주서
 62
     0
100
AcDbMText
 10
15.15
 20
25.28831709109081
 30
0.0
 40
3.5
 41
0.0
 71
     2
 72
     1
  1
\A1;30
  7
SLDTEXTSTYLE0
 73
     1
 44
1.0
  0
POINT
  5
143
330
FA
100
AcDbEntity
  8
Defpoints
 62
     0
100
AcDbPoint
 10
30.14999999999998
 20
4.777278327047831
 30
0.0
  0
POINT
  5
144
330
FA
100
AcDbEntity
  8
Defpoints
 62
     0
100
AcDbPoint
 10
0.1499999999999968
 20
4.849999999999999
 30
0.0
  0
POINT
  5
145
330
FA
100
AcDbEntity
  8
Defpoints
 62
     0
100
AcDbPoint
 10
0.1499999999999968
 20
20.91331709109081
 30
0.0
  0
ENDBLK
  5
FC
330
FA
100
AcDbEntity
  8
0
100
AcDbBlockEnd
  0
BLOCK
  5
105
330
104
100
AcDbEntity
  8
0
100
AcDbBlockBegin
  2
_D_4
 70
     0
 10
0.0
 20
0.0
 30
0.0
  3
_D_4
  1

  0
LINE
  5
107
330
104
100
AcDbEntity
  8
치수문자_일반주서
 62
     0
370
    -2
100
AcDbLine
 10
30.14999999999998
 20
4.839778327047831
 30
0.0
 11
30.14999999999998
 21
29.32081439225272
 31
0.0
  0
LINE
  5
108
330
104
100
AcDbEntity
  8
치수문자_일반주서
 62
     0
370
    -2
100
AcDbLine
 10
-44.85
 20
4.062500000000011
 30
0.0
 11
-44.85
 21
29.32081439225272
 31
0.0
  0
LINE
  5
109
330
104
100
AcDbEntity
  8
치수문자_일반주서
 62
     0
370
    -2
100
AcDbLine
 10
26.84799999999998
 20
29.32081439225272
 30
0.0
 11
-41.548
 21
29.32081439225272
 31
0.0
  0
SOLID
  5
10A
330
104
100
AcDbEntity
  8
치수문자_일반주서
 62
     0
100
AcDbTrace
 10
26.84799999999998
 20
28.77048105891939
 30
0.0
 11
26.84799999999998
 21
29.87114772558606
 31
0.0
 12
30.14999999999998
 22
29.32081439225272
 32
0.0
 13
30.14999999999998
 23
29.32081439225272
 33
0.0
  0
SOLID
  5
10B
330
104
100
AcDbEntity
  8
치수문자_일반주서
 62
     0
100
AcDbTrace
 10
-41.548
 20
29.87114772558606
 30
0.0
 11
-41.548
 21
28.77048105891939
 31
0.0
 12
-44.85
 22
29.32081439225272
 32
0.0
 13
-44.85
 23
29.32081439225272
 33
0.0
  0
MTEXT
  5
10C
330
104
100
AcDbEntity
  8
치수문자_일반주서
 62
     0
100
AcDbMText
 10
-7.350000000000009
 20
33.69581439225273
 30
0.0
 40
3.5
 41
0.0
 71
     2
 72
     1
  1
\A1;75
  7
SLDTEXTSTYLE0
 73
     1
 44
1.0
  0
POINT
  5
146
330
104
100
AcDbEntity
  8
Defpoints
 62
     0
100
AcDbPoint
 10
30.14999999999998
 20
4.777278327047831
 30
0.0
  0
POINT
  5
147
330
104
100
AcDbEntity
  8
Defpoints
 62
     0
100
AcDbPoint
 10
-44.85
 20
4.000000000000011
 30
0.0
  0
POINT
  5
148
330
104
100
AcDbEntity
  8
Defpoints
 62
     0
100
AcDbPoint
 10
-44.85
 20
29.32081439225272
 30
0.0
  0
ENDBLK
  5
106
330
104
100
AcDbEntity
  8
0
100
AcDbBlockEnd
  0
BLOCK
  5
115
330
114
100
AcDbEntity
  8
0
100
AcDbBlockBegin
  2
SW_DOWELSYMBOL_0
 70
     0
 10
0.0
 20
0.0
 30
0.0
  3
SW_DOWELSYMBOL_0
  1

  0
CIRCLE
  5
117
330
114
100
AcDbEntity
  8
해칭선
 62
     0
100
AcDbCircle
 10
0.0
 20
0.0
 30
0.0
 40
3.000000000000001
  0
HATCH
  5
118
330
114
100
AcDbEntity
  8
0
  6
Continuous
 62
     0
370
     0
100
AcDbHatch
 10
0.0
 20
0.0
 30
0.0
210
0.0
220
0.0
230
1.0
  2
SOLID
 70
     1
 71
     0
 91
        1
 92
        0
 93
        3
 72
     2
 10
0.0
 20
0.0
 40
3.000000000000001
 50
0.0
 51
90.0
 73
     1
 72
     1
 10
0.0
 20
3.000000000000001
 11
0.0
 21
0.0
 72
     1
 10
0.0
 20
0.0
 11
3.000000000000001
 21
0.0
 97
        0
 75
     0
 76
     1
 98
        1
 10
0.0
 20
0.0
  0
HATCH
  5
119
330
114
100
AcDbEntity
  8
0
  6
Continuous
 62
     0
370
     0
100
AcDbHatch
 10
0.0
 20
0.0
 30
0.0
210
0.0
220
0.0
230
1.0
  2
SOLID
 70
     1
 71
     0
 91
        1
 92
        0
 93
        3
 72
     2
 10
0.0
 20
0.0
 40
3.000000000000001
 50
180.0
 51
270.0000000000008
 73
     1
 72
     1
 10
0.0
 20
-3.000000000000001
 11
0.0
 21
0.0
 72
     1
 10
0.0
 20
0.0
 11
-3.000000000000001
 21
0.0
 97
        0
 75
     0
 76
     1
 98
        1
 10
0.0
 20
0.0
  0
ENDBLK
  5
116
330
114
100
AcDbEntity
  8
0
100
AcDbBlockEnd
  0
BLOCK
  5
151
330
150
100
AcDbEntity
  8
0
100
AcDbBlockBegin
  2
*D8
 70
     1
 10
0.0
 20
0.0
 30
0.0
  3
*D8
  1

  0
LINE
  5
153
330
150
100
AcDbEntity
  8
0
 62
     0
370
    -2
100
AcDbLine
 10
48.98812728469713
 20
-12.1397947162614
 30
0.0
 11
34.04746061803046
 21
-12.1397947162614
 31
0.0
  0
LINE
  5
154
330
150
100
AcDbEntity
  8
0
 62
     0
370
    -2
100
AcDbLine
 10
34.04746061803046
 20
-12.1397947162614
 30
0.0
 11
31.65299944373504
 21
-7.837310499205175
 31
0.0
  0
MTEXT
  5
155
330
150
100
AcDbEntity
  8
0
 62
     0
100
AcDbMText
 10
42.27979395136379
 20
-8.57412804959473
 30
0.0
 40
3.5
 41
0.0
 71
     5
 72
     1
  1
R0,20
 73
     1
 44
1.0
  0
LINE
  5
156
330
150
100
AcDbEntity
  8
0
 62
     0
370
    -2
100
AcDbLine
 10
29.94999999999998
 20
-4.777278327047821
 30
0.0
 11
30.04725867754053
 21
-4.952037445960291
 31
0.0
  0
SOLID
  5
157
330
150
100
AcDbEntity
  8
0
 62
     0
100
AcDbTrace
 10
32.13387828594252
 20
-7.569687038172757
 30
0.0
 11
31.17212060152756
 21
-8.104933960237593
 31
0.0
 12
30.04725867754053
 22
-4.952037445960291
 32
0.0
 13
30.04725867754053
 23
-4.952037445960291
 33
0.0
  0
POINT
  5
158
330
150
100
AcDbEntity
  8
Defpoints
 62
     0
100
AcDbPoint
 10
30.04725867754053
 20
-4.952037445960291
 30
0.0
  0
POINT
  5
159
330
150
100
AcDbEntity
  8
Defpoints
 62
     0
100
AcDbPoint
 10
29.94999999999998
 20
-4.777278327047821
 30
0.0
  0
ENDBLK
  5
152
330
150
100
AcDbEntity
  8
0
100
AcDbBlockEnd
  0
ENDSEC
  0
SECTION
  2
ENTITIES
  0
LINE
  5
96
330
1F
100
AcDbEntity
  8
외형선
  6
Continuous
 62
     1
370
    15
100
AcDbLine
 10
20.33834660197326
 20
5.000000000000001
 30
0.0
 11
17.2885348814678
 21
5.0
 31
0.0
  0
LINE
  5
97
330
1F
100
AcDbEntity
  8
외형선
  6
Continuous
 62
     1
370
    15
100
AcDbLine
 10
17.28853488146774
 20
-5.0
 30
0.0
 11
20.33834660197326
 21
-4.999999999999999
 31
0.0
  0
LINE
  5
98
330
1F
100
AcDbEntity
  8
외형선
  6
Continuous
370
    15
100
AcDbLine
 10
-43.85
 20
-4.999999999999999
 30
0.0
 11
0.0
 21
-4.999999999999999
 31
0.0
  0
LINE
  5
99
330
1F
100
AcDbEntity
  8
외형선
  6
Continuous
370
    15
100
AcDbLine
 10
0.0
 20
4.999999999999999
 30
0.0
 11
-43.85
 21
4.999999999999999
 31
0.0
  0
LINE
  5
9A
330
1F
100
AcDbEntity
  8
외형선
  6
Continuous
370
    15
100
AcDbLine
 10
-43.85
 20
5.0
 30
0.0
 11
-44.85
 21
4.000000000000011
 31
0.0
  0
LINE
  5
9B
330
1F
100
AcDbEntity
  8
외형선
  6
Continuous
370
    15
100
AcDbLine
 10
-44.85
 20
-4.000000000000011
 30
0.0
 11
-43.85
 21
-5.0
 31
0.0
  0
LINE
  5
9C
330
1F
100
AcDbEntity
  8
외형선
  6
Continuous
370
    15
100
AcDbLine
 10
0.0
 20
-4.999999999999999
 30
0.0
 11
0.1499999999999968
 21
-4.85
 31
0.0
  0
LINE
  5
9D
330
1F
100
AcDbEntity
  8
외형선
  6
Continuous
370
    15
100
AcDbLine
 10
0.1499999999999968
 20
4.849999999999999
 30
0.0
 11
0.0
 21
4.999999999999999
 31
0.0
  0
LINE
  5
9E
330
1F
100
AcDbEntity
  8
외형선
  6
Continuous
370
    15
100
AcDbLine
 10
0.1499999999999968
 20
-4.85
 30
0.0
 11
14.1503460981544
 21
-4.85
 31
0.0
  0
LINE
  5
9F
330
1F
100
AcDbEntity
  8
외형선
  6
Continuous
370
    15
100
AcDbLine
 10
14.1503460981544
 20
4.849999999999999
 30
0.0
 11
0.1499999999999968
 21
4.849999999999999
 31
0.0
  0
SPLINE
  5
A1
330
1F
100
AcDbEntity
  8
외형선
  6
Continuous
 62
     1
370
    15
100
AcDbSpline
210
0.0
220
0.0
230
1.0
 70
     8
 71
     3
 72
    14
 73
    10
 74
     0
 42
0.000000001
 43
0.00000001
 40
0.0
 40
0.0
 40
0.0
 40
0.0
 40
0.0608837335576952
 40
0.2192213357190925
 40
0.3775551861309147
 40
0.533096132350333
 40
0.6887280632111832
 40
0.84441727256038
 40
0.9999999999999999
 40
0.9999999999999999
 40
0.9999999999999999
 40
0.9999999999999999
 10
25.61309708090738
 20
-4.083005396809931
 30
0.0
 10
25.40075580020807
 20
-4.157642002631903
 30
0.0
 10
24.6361880501194
 20
-4.426382690262814
 30
0.0
 10
23.31951708643579
 20
-4.729530036383193
 30
0.0
 10
21.67270480090072
 20
-4.971930562855662
 30
0.0
 10
20.03532630611529
 20
-5.026497926169125
 30
0.0
 10
18.40694063360466
 20
-4.9033007961075
 30
0.0
 10
16.77819033268391
 20
-4.617288809433614
 30
0.0
 10
15.69260632303724
 20
-4.292089797700488
 30
0.0
 10
15.14999999999999
 20
-4.129545914920475
 30
0.0
  0
SPLINE
  5
A2
330
1F
100
AcDbEntity
  8
외형선
  6
Continuous
370
    15
100
AcDbSpline
210
0.0
220
0.0
230
1.0
 70
    24
 71
     3
 72
    21
 73
    17
 74
     0
 42
0.000000001
 43
0.00000001
 40
0.0
 40
0.0
 40
0.0
 40
0.0
 40
0.1069138699881108
 40
0.1791903581012397
 40
0.253562869266005
 40
0.3258393573791761
 40
0.4002118685439871
 40
0.4724883566571371
 40
0.5468608678219254
 40
0.6191373559350754
 40
0.6935098670998635
 40
0.7657863552130362
 40
0.8401588663778033
 40
0.9124353544909506
 40
0.9868078656557357
 40
1.0
 40
1.0
 40
1.0
 40
1.0
 10
15.14999999999999
 20
-4.129545914920475
 30
0.0
 10
15.14999999999999
 20
-3.963617102894236
 30
0.0
 10
15.14999999999998
 20
-3.685516204950861
 30
0.0
 10
15.15
 20
-3.189121365038239
 30
0.0
 10
15.15
 20
-2.725771923255946
 30
0.0
 10
15.14999999999992
 20
-2.229532747283422
 30
0.0
 10
15.15000000000002
 20
-1.725252971555095
 30
0.0
 10
15.15
 20
-1.217632970805757
 30
0.0
 10
15.14999999999996
 20
-0.7302899885681221
 30
0.0
 10
15.15000000000002
 20
-0.2682916666468615
 30
0.0
 10
15.14999999999998
 20
0.1472615130875695
 30
0.0
 10
15.14999999999999
 20
0.5109629804302349
 30
0.0
 10
15.14999999999998
 20
0.810166535804379
 30
0.0
 10
15.15
 20
1.026100149784763
 30
0.0
 10
15.14999999999998
 20
1.158327521182691
 30
0.0
 10
15.14999999999998
 20
1.169973221628956
 30
0.0
 10
15.14999999999999
 20
1.171727715625101
 30
0.0
  0
SPLINE
  5
A3
330
1F
100
AcDbEntity
  8
외형선
  6
Continuous
 62
     1
370
    15
100
AcDbSpline
210
0.0
220
0.0
230
1.0
 70
     8
 71
     3
 72
    30
 73
    26
 74
     0
 42
0.000000001
 43
0.00000001
 40
0.0
 40
0.0
 40
0.0
 40
0.0
 40
0.125
 40
0.125
 40
0.25
 40
0.25
 40
0.375
 40
0.375
 40
0.5
 40
0.5
 40
0.5625
 40
0.5625
 40
0.625
 40
0.625
 40
0.6875
 40
0.6875
 40
0.75
 40
0.75
 40
0.8125
 40
0.8125
 40
0.875
 40
0.875
 40
0.9375
 40
0.9375
 40
1.0
 40
1.0
 40
1.0
 40
1.0
 10
29.94999999999998
 20
-4.977278327047821
 30
0.0
 10
29.33514154604107
 20
-4.931682479213581
 30
0.0
 10
28.71383233882064
 20
-4.854826085521291
 30
0.0
 10
27.48599872248948
 20
-4.62946447562951
 30
0.0
 10
26.86254930114093
 20
-4.47986158550497
 30
0.0
 10
25.63681082269666
 20
-4.116888557507516
 30
0.0
 10
25.01302229964983
 20
-3.901418803226954
 30
0.0
 10
23.78577971733998
 20
-3.41700710245601
 30
0.0
 10
23.16386801354577
 20
-3.145733725140243
 30
0.0
 10
22.24197703967408
 20
-2.70774276422617
 30
0.0
 10
21.93498784826614
 20
-2.556384937343877
 30
0.0
 10
21.31675992450399
 20
-2.243817097082342
 30
0.0
 10
21.00701683417419
 20
-2.082845035105028
 30
0.0
 10
20.39155647630897
 20
-1.754309651662385
 30
0.0
 10
20.08530804269991
 20
-1.586669364812622
 30
0.0
 10
19.46738982453
 20
-1.24500853735746
 30
0.0
 10
19.15753265911645
 20
-1.071310962843832
 30
0.0
 10
18.54131274567561
 20
-0.7211601701619703
 30
0.0
 10
18.23551887430512
 20
-0.5448243141353925
 30
0.0
 10
17.61801861475145
 20
-0.189624861115702
 30
0.0
 10
17.30810202526003
 20
-0.0111019038939221
 30
0.0
 10
16.69122981814544
 20
0.3447404931541096
 30
0.0
 10
16.38560404896396
 20
0.5218055968873893
 30
0.0
 10
15.76862975682255
 20
0.8743783664437107
 30
0.0
 10
15.45870842930284
 20
1.049605568086867
 30
0.0
 10
15.15
 20
1.222275610577774
 30
0.0
  0
SPLINE
  5
A4
330
1F
100
AcDbEntity
  8
외형선
  6
Continuous
 62
     1
370
    15
100
AcDbSpline
210
0.0
220
0.0
230
1.0
 70
     8
 71
     3
 72
    10
 73
     6
 74
     0
 42
0.000000001
 43
0.00000001
 40
0.0
 40
0.0
 40
0.0
 40
0.0
 40
0.5
 40
0.5
 40
1.0
 40
1.0
 40
1.0
 40
1.0
 10
29.94999999999997
 20
0.5436718804098359
 30
0.0
 10
29.99778228141467
 20
0.5161970061933598
 30
0.0
 10
30.0479915860539
 20
0.4910835043053773
 30
0.0
 10
30.12620801875538
 20
0.4611824393195589
 30
0.0
 10
30.15000000000003
 20
0.4582311552601739
 30
0.0
 10
30.15000000000001
 20
0.4664887843445112
 30
0.0
  0
LINE
  5
A5
330
1F
100
AcDbEntity
  8
외형선
  6
Continuous
 62
     1
370
    15
100
AcDbLine
 10
30.14999999999998
 20
-4.3704887843448
 30
0.0
 11
30.14999999999998
 21
0.4664887843445118
 31
0.0
  0
SPLINE
  5
A6
330
1F
100
AcDbEntity
  8
외형선
  6
Continuous
 62
     1
370
    15
100
AcDbSpline
210
0.0
220
0.0
230
1.0
 70
     8
 71
     3
 72
    10
 73
     6
 74
     0
 42
0.000000001
 43
0.00000001
 40
0.0
 40
0.0
 40
0.0
 40
0.0
 40
0.5
 40
0.5
 40
1.0
 40
1.0
 40
1.0
 40
1.0
 10
30.14999999999998
 20
-4.370488784344977
 30
0.0
 10
30.14999999999983
 20
-4.417810046291738
 30
0.0
 10
30.12444035571857
 20
-4.452470330972337
 30
0.0
 10
30.05084142642664
 20
-4.488689268523624
 30
0.0
 10
30.00222226266197
 20
-4.491531726861754
 30
0.0
 10
29.94999999999998
 20
-4.478095001708537
 30
0.0
  0
SPLINE
  5
A7
330
1F
100
AcDbEntity
  8
외형선
  6
Continuous
 62
     1
370
    15
100
AcDbSpline
210
0.0
220
0.0
230
1.0
 70
     8
 71
     3
 72
    30
 73
    26
 74
     0
 42
0.000000001
 43
0.00000001
 40
0.0
 40
0.0
 40
0.0
 40
0.0
 40
0.1250000000000016
 40
0.1250000000000016
 40
0.2500000000000031
 40
0.2500000000000031
 40
0.3750000000000046
 40
0.3750000000000046
 40
0.500000000000006
 40
0.500000000000006
 40
0.5625000000000057
 40
0.5625000000000057
 40
0.6250000000000053
 40
0.6250000000000053
 40
0.687500000000005
 40
0.687500000000005
 40
0.7500000000000047
 40
0.7500000000000047
 40
0.8125000000000043
 40
0.8125000000000043
 40
0.8750000000000029
 40
0.8750000000000029
 40
0.9375000000000014
 40
0.9375000000000014
 40
1.0
 40
1.0
 40
1.0
 40
1.0
 10
29.94999999999998
 20
-4.478095001708536
 30
0.0
 10
29.33514154604109
 20
-4.319892663608907
 30
0.0
 10
28.71383233882062
 20
-4.126865509857937
 30
0.0
 10
27.48599872248957
 20
-3.682832368715573
 30
0.0
 10
26.86254930114097
 20
-3.429756514228846
 30
0.0
 10
25.63681082269665
 20
-2.878427096622875
 30
0.0
 10
25.01302229964985
 20
-2.576993326795932
 30
0.0
 10
23.78577971733997
 20
-1.942917338216642
 30
0.0
 10
23.16386801354578
 20
-1.607185603988545
 30
0.0
 10
22.24197703967412
 20
-1.091083409991514
 30
0.0
 10
21.93498784826614
 20
-0.9167116922737928
 30
0.0
 10
21.31675992450398
 20
-0.5643399587291221
 30
0.0
 10
21.00701683417419
 20
-0.386621867456083
 30
0.0
 10
20.39155647630896
 20
-0.0311634781078933
 30
0.0
 10
20.08530804269994
 20
0.1466775632534204
 30
0.0
 10
19.46738982453
 20
0.502168543028363
 30
0.0
 10
19.15753265911643
 20
0.6794655994762744
 30
0.0
 10
18.5413127456756
 20
1.030140930851431
 30
0.0
 10
18.23551887430511
 20
1.203420666745648
 30
0.0
 10
17.61801861475143
 20
1.545857291790753
 30
0.0
 10
17.30810202526006
 20
1.714667027805507
 30
0.0
 10
16.69122981814545
 20
2.044591966806793
 30
0.0
 10
16.38560404896395
 20
2.20549100952087
 30
0.0
 10
15.76862975682254
 20
2.519301777254051
 30
0.0
 10
15.45870842930282
 20
2.671944036703574
 30
0.0
 10
15.14999999999999
 20
2.819015880864077
 30
0.0
  0
SPLINE
  5
A8
330
1F
100
AcDbEntity
  8
외형선
  6
Continuous
370
    15
100
AcDbSpline
210
0.0
220
0.0
230
1.0
 70
    24
 71
     3
 72
    12
 73
     8
 74
     0
 42
0.000000001
 43
0.00000001
 40
0.0
 40
0.0
 40
0.0
 40
0.0
 40
0.1508069502555613
 40
0.3864524711980225
 40
0.6289317282115756
 40
0.8128730127472469
 40
1.0
 40
1.0
 40
1.0
 40
1.0
 10
15.14999999999999
 20
2.871116152472756
 30
0.0
 10
15.15
 20
2.955544582199001
 30
0.0
 10
15.14999999999999
 20
3.171897842123586
 30
0.0
 10
15.15000000000001
 20
3.57679696932709
 30
0.0
 10
15.14999999999999
 20
4.024574398791509
 30
0.0
 10
15.14999999999998
 20
4.454453243947831
 30
0.0
 10
15.14999999999998
 20
4.716270519219989
 30
0.0
 10
15.14999999999998
 20
4.848303036299052
 30
0.0
  0
SPLINE
  5
A9
330
1F
100
AcDbEntity
  8
외형선
  6
Continuous
 62
     1
370
    15
100
AcDbSpline
210
0.0
220
0.0
230
1.0
 70
     8
 71
     3
 72
    30
 73
    26
 74
     0
 42
0.000000001
 43
0.00000001
 40
0.0
 40
0.0
 40
0.0
 40
0.0
 40
0.1249999999999989
 40
0.1249999999999989
 40
0.2499999999999979
 40
0.2499999999999979
 40
0.3749999999999968
 40
0.3749999999999968
 40
0.4999999999999958
 40
0.4999999999999958
 40
0.5624999999999963
 40
0.5624999999999963
 40
0.6249999999999969
 40
0.6249999999999969
 40
0.6874999999999976
 40
0.6874999999999976
 40
0.7499999999999981
 40
0.7499999999999981
 40
0.8124999999999986
 40
0.8124999999999986
 40
0.874999999999999
 40
0.874999999999999
 40
0.9374999999999996
 40
0.9374999999999996
 40
1.0
 40
1.0
 40
1.0
 40
1.0
 10
29.94999999999999
 20
0.5436718804089178
 30
0.0
 10
29.33514154604109
 20
0.8972162944322045
 30
0.0
 10
28.71383233882062
 20
1.247807617394842
 30
0.0
 10
27.48599872248951
 20
1.922087105094611
 30
0.0
 10
26.86254930114096
 20
2.248790080547662
 30
0.0
 10
25.63681082269665
 20
2.859623271816823
 30
0.0
 10
25.01302229964984
 20
3.147260873975418
 30
0.0
 10
23.78577971734001
 20
3.667476264244195
 30
0.0
 10
23.16386801354579
 20
3.90266732645002
 30
0.0
 10
22.24197703967415
 20
4.207106173533933
 30
0.0
 10
21.93498784826613
 20
4.300771289095096
 30
0.0
 10
21.31675992450399
 20
4.471803043943719
 30
0.0
 10
21.00701683417418
 20
4.548999830440263
 30
0.0
 10
20.39155647630894
 20
4.685513903905459
 30
0.0
 10
20.08530804269991
 20
4.744913840855422
 30
0.0
 10
19.46738982453
 20
4.84579000497166
 30
0.0
 10
19.15753265911643
 20
4.887122028569786
 30
0.0
 10
18.54131274567563
 20
4.950918794548479
 30
0.0
 10
18.23551887430515
 20
4.973417255064479
 30
0.0
 10
17.61801861475146
 20
4.999575495808919
 30
0.0
 10
17.30810202526006
 20
5.003155801852897
 30
0.0
 10
16.69122981814547
 20
4.99127691300174
 30
0.0
 10
16.38560404896396
 20
4.97588320232427
 30
0.0
 10
15.76862975682256
 20
4.926170642234292
 30
0.0
 10
15.45870842930283
 20
4.891833809857133
 30
0.0
 10
15.14999999999998
 20
4.848303036299053
 30
0.0
  0
LINE
  5
AA
330
1F
100
AcDbEntity
  8
외형선
  6
Continuous
370
    15
100
AcDbLine
 10
15.14999999999999
 20
2.819015880864078
 30
0.0
 11
15.14999999999998
 21
1.222275610577778
 31
0.0
  0
SPLINE
  5
AB
330
1F
100
AcDbEntity
  8
외형선
  6
Continuous
 62
     1
370
    15
100
AcDbSpline
210
0.0
220
0.0
230
1.0
 70
     8
 71
     3
 72
    10
 73
     6
 74
     0
 42
0.000000001
 43
0.00000001
 40
0.0
 40
0.0
 40
0.0
 40
0.0
 40
0.5
 40
0.5
 40
1.0
 40
1.0
 40
1.0
 40
1.0
 10
30.14999999999998
 20
1.984648025701117
 30
0.0
 10
30.14999999999983
 20
2.022386112458048
 30
0.0
 10
30.12444035571854
 20
2.070392921188976
 30
0.0
 10
30.05084142642663
 20
2.157118638068726
 30
0.0
 10
30.00222226266196
 20
2.197056031989757
 30
0.0
 10
29.94999999999998
 20
2.224109969329949
 30
0.0
  0
LINE
  5
AC
330
1F
100
AcDbEntity
  8
외형선
  6
Continuous
 62
     1
370
    15
100
AcDbLine
 10
30.14999999999998
 20
1.984648025701339
 30
0.0
 11
30.14999999999998
 21
0.466488784344512
 31
0.0
  0
SPLINE
  5
AD
330
1F
100
AcDbEntity
  8
외형선
  6
Continuous
 62
     1
370
    15
100
AcDbSpline
210
0.0
220
0.0
230
1.0
 70
     8
 71
     3
 72
    13
 73
     9
 74
     0
 42
0.000000001
 43
0.00000001
 40
0.0
 40
0.0
 40
0.0
 40
0.0
 40
0.1725518166385754
 40
0.3450460120195436
 40
0.5174549538139087
 40
0.6898191114816402
 40
0.862179185045871
 40
1.0
 40
1.0
 40
1.0
 40
1.0
 10
29.94999999999999
 20
2.224109969329938
 30
0.0
 10
29.39707866193034
 20
2.501999629687282
 30
0.0
 10
28.29142062611226
 20
3.057686153049741
 30
0.0
 10
26.63341544543699
 20
3.757424887107605
 30
0.0
 10
24.9762088760284
 20
4.32718078748152
 30
0.0
 10
23.31950862855999
 20
4.732039063841363
 30
0.0
 10
21.77362787382118
 20
4.967399768011361
 30
0.0
 10
20.77988875023122
 20
4.980727671276318
 30
0.0
 10
20.33834660197326
 20
4.986649578645854
 30
0.0
  0
SPLINE
  5
AF
330
1F
100
AcDbEntity
  8
외형선
  6
Continuous
 62
     1
370
    15
100
AcDbSpline
210
0.0
220
0.0
230
1.0
 70
     8
 71
     3
 72
    10
 73
     6
 74
     0
 42
0.000000001
 43
0.00000001
 40
0.0
 40
0.0
 40
0.0
 40
0.0
 40
0.2488851545782214
 40
0.6243540666215697
 40
1.0
 40
1.0
 40
1.0
 40
1.0
 10
25.61309708090738
 20
4.083005396809931
 30
0.0
 10
25.97284467508538
 20
4.201923941696444
 30
0.0
 10
26.87530859971363
 20
4.500243370279637
 30
0.0
 10
28.32094871793134
 20
4.814063693747357
 30
0.0
 10
29.40689759451369
 20
4.918249180707373
 30
0.0
 10
29.94999999999998
 20
4.977278327047832
 30
0.0
  0
LINE
  5
B0
330
1F
100
AcDbEntity
  8
외형선
  6
Continuous
 62
     1
370
    15
100
AcDbLine
 10
30.14999999999998
 20
1.978247121836593
 30
0.0
 11
30.14999999999998
 21
4.777278327047831
 31
0.0
  0
SPLINE
  5
B1
330
1F
100
AcDbEntity
  8
외형선
  6
Continuous
 62
     1
370
    15
100
AcDbSpline
210
0.0
220
0.0
230
1.0
 70
     8
 71
     3
 72
     9
 73
     5
 74
     0
 42
0.000000001
 43
0.00000001
 40
0.0
 40
0.0
 40
0.0
 40
0.0
 40
0.7750447752375771
 40
1.0
 40
1.0
 40
1.0
 40
1.0
 10
15.14999999999998
 20
-4.848303036299064
 30
0.0
 10
15.70244773956765
 20
-4.919843289327786
 30
0.0
 10
16.4152423512058
 20
-5.012147960379587
 30
0.0
 10
17.12816027065983
 20
-4.986848262175164
 30
0.0
 10
17.28853488146775
 20
-4.981156962879164
 30
0.0
  0
LINE
  5
B2
330
1F
100
AcDbEntity
  8
외형선
  6
Continuous
370
    15
100
AcDbLine
 10
15.14999999999999
 20
-4.129545914920475
 30
0.0
 11
15.14999999999998
 21
-4.84830303629906
 31
0.0
  0
LINE
  5
B3
330
1F
100
AcDbEntity
  8
외형선
  6
Continuous
 62
     1
370
    15
100
AcDbLine
 10
30.14999999999998
 20
-4.3704887843448
 30
0.0
 11
30.14999999999998
 21
-4.777278327047832
 31
0.0
  0
LINE
  5
B4
330
1F
100
AcDbEntity
  8
외형선
  6
Continuous
370
    15
100
AcDbLine
 10
0.0
 20
0.0
 30
0.0
 11
0.0
 21
4.999999999999999
 31
0.0
  0
LINE
  5
B5
330
1F
100
AcDbEntity
  8
외형선
  6
Continuous
370
    15
100
AcDbLine
 10
0.0
 20
-4.999999999999999
 30
0.0
 11
0.0
 21
0.0
 31
0.0
  0
LINE
  5
B6
330
1F
100
AcDbEntity
  8
외형선
  6
Continuous
370
    15
100
AcDbLine
 10
-43.85
 20
0.0
 30
0.0
 11
-43.85
 21
4.999999999999999
 31
0.0
  0
LINE
  5
B7
330
1F
100
AcDbEntity
  8
외형선
  6
Continuous
370
    15
100
AcDbLine
 10
-43.85
 20
-4.999999999999999
 30
0.0
 11
-43.85
 21
0.0
 31
0.0
  0
LINE
  5
B8
330
1F
100
AcDbEntity
  8
외형선
  6
Continuous
370
    15
100
AcDbLine
 10
-44.85
 20
0.0
 30
0.0
 11
-44.85
 21
4.000000000000011
 31
0.0
  0
LINE
  5
B9
330
1F
100
AcDbEntity
  8
외형선
  6
Continuous
370
    15
100
AcDbLine
 10
-44.85
 20
-4.000000000000011
 30
0.0
 11
-44.85
 21
0.0
 31
0.0
  0
LINE
  5
BA
330
1F
100
AcDbEntity
  8
외형선
  6
Continuous
370
    15
100
AcDbLine
 10
0.1499999999999968
 20
0.0
 30
0.0
 11
0.1499999999999968
 21
4.849999999999998
 31
0.0
  0
LINE
  5
BB
330
1F
100
AcDbEntity
  8
외형선
  6
Continuous
370
    15
100
AcDbLine
 10
0.1499999999999968
 20
-4.849999999999996
 30
0.0
 11
0.1499999999999968
 21
0.0
 31
0.0
  0
SPLINE
  5
BC
330
1F
100
AcDbEntity
  8
외형선
  6
Continuous
370
    15
100
AcDbSpline
210
0.0
220
0.0
230
1.0
 70
     8
 71
     3
 72
     8
 73
     4
 74
     0
 42
0.000000001
 43
0.00000001
 40
0.0
 40
0.0
 40
0.0
 40
0.0
 40
1.0
 40
1.0
 40
1.0
 40
1.0
 10
15.14999999999998
 20
1.227226202336924
 30
0.0
 10
14.81558104824154
 20
1.40825303043181
 30
0.0
 10
14.4844688007219
 20
1.585951721863203
 30
0.0
 10
14.1503460981544
 20
1.76025747851006
 30
0.0
  0
SPLINE
  5
BD
330
1F
100
AcDbEntity
  8
외형선
  6
Continuous
370
    15
100
AcDbSpline
210
0.0
220
0.0
230
1.0
 70
     8
 71
     3
 72
     8
 73
     4
 74
     0
 42
0.000000001
 43
0.00000001
 40
0.0
 40
0.0
 40
0.0
 40
0.0
 40
1.0
 40
1.0
 40
1.0
 40
1.0
 10
15.15
 20
-4.029728412175562
 30
0.0
 10
14.81558104824154
 20
-3.925605020060217
 30
0.0
 10
14.48446880072193
 20
-3.812855326970708
 30
0.0
 10
14.15034609815441
 20
-3.691529953713466
 30
0.0
  0
LINE
  5
BE
330
1F
100
AcDbEntity
  8
외형선
  6
Continuous
370
    15
100
AcDbLine
 10
15.14999999999999
 20
-4.129545914920475
 30
0.0
 11
15.14999999999998
 21
-4.029728412175562
 31
0.0
  0
SPLINE
  5
BF
330
1F
100
AcDbEntity
  8
외형선
  6
Continuous
370
    15
100
AcDbSpline
210
0.0
220
0.0
230
1.0
 70
     8
 71
     3
 72
     8
 73
     4
 74
     0
 42
0.000000001
 43
0.00000001
 40
0.0
 40
0.0
 40
0.0
 40
0.0
 40
1.0
 40
1.0
 40
1.0
 40
1.0
 10
15.14999999999998
 20
-4.692165368814026
 30
0.0
 10
14.81558104824154
 20
-4.644818174224389
 30
0.0
 10
14.4844688007219
 20
-4.587183115486954
 30
0.0
 10
14.1503460981544
 20
-4.519291272904343
 30
0.0
  0
LINE
  5
C0
330
1F
100
AcDbEntity
  8
외형선
  6
Continuous
370
    15
100
AcDbLine
 10
14.1503460981544
 20
-4.85
 30
0.0
 11
14.1503460981544
 21
-4.519279752114119
 31
0.0
  0
SPLINE
  5
C1
330
1F
100
AcDbEntity
  8
외형선
  6
Continuous
370
    15
100
AcDbSpline
210
0.0
220
0.0
230
1.0
 70
     8
 71
     3
 72
     8
 73
     4
 74
     0
 42
0.000000001
 43
0.00000001
 40
0.0
 40
0.0
 40
0.0
 40
0.0
 40
1.0
 40
1.0
 40
1.0
 40
1.0
 10
15.14999999999998
 20
4.692165368814016
 30
0.0
 10
14.81558104824154
 20
4.644818174224379
 30
0.0
 10
14.4844688007219
 20
4.587183115486942
 30
0.0
 10
14.1503460981544
 20
4.51929127290433
 30
0.0
  0
LINE
  5
C2
330
1F
100
AcDbEntity
  8
외형선
  6
Continuous
370
    15
100
AcDbLine
 10
14.1503460981544
 20
3.145651761539603
 30
0.0
 11
14.1503460981544
 21
4.849999999999999
 31
0.0
  0
SPLINE
  5
C3
330
1F
100
AcDbEntity
  8
외형선
  6
Continuous
370
    15
100
AcDbSpline
210
0.0
220
0.0
230
1.0
 70
     8
 71
     3
 72
     8
 73
     4
 74
     0
 42
0.000000001
 43
0.00000001
 40
0.0
 40
0.0
 40
0.0
 40
0.0
 40
1.0
 40
1.0
 40
1.0
 40
1.0
 10
15.15
 20
2.698849555663532
 30
0.0
 10
14.81558104824154
 20
2.854319129985967
 30
0.0
 10
14.48446880072193
 20
3.003269227805066
 30
0.0
 10
14.15034609815441
 20
3.145648836223855
 30
0.0
  0
LINE
  5
C4
330
1F
100
AcDbEntity
  8
외형선
  6
Continuous
370
    15
100
AcDbLine
 10
14.1503460981544
 20
-3.691527460973713
 30
0.0
 11
14.1503460981544
 21
1.760287056741395
 31
0.0
  0
SPLINE
  5
C5
330
1F
100
AcDbEntity
  8
외형선
  6
Continuous
370
    15
100
AcDbSpline
210
0.0
220
0.0
230
1.0
 70
    24
 71
     3
 72
    20
 73
    16
 74
     0
 42
0.000000001
 43
0.00000001
 40
0.0
 40
0.0
 40
0.0
 40
0.0
 40
0.1090183597799598
 40
0.1830771232503853
 40
0.2592835958785483
 40
0.3333423593490482
 40
0.4095488319772919
 40
0.4836075954477542
 40
0.5598140680759568
 40
0.6338728315464204
 40
0.7100793041746246
 40
0.7841380676450933
 40
0.8603445402732892
 40
0.934403303743752
 40
1.0
 40
1.0
 40
1.0
 40
1.0
 10
15.14999999999998
 20
-4.029728412175562
 30
0.0
 10
15.14999999999998
 20
-3.855417730457178
 30
0.0
 10
15.15
 20
-3.562693658794143
 30
0.0
 10
15.14999999999998
 20
-3.052046024371841
 30
0.0
 10
15.15
 20
-2.579099727884336
 30
0.0
 10
15.14999999999995
 20
-2.077427777046506
 30
0.0
 10
15.15000000000005
 20
-1.572046303320905
 30
0.0
 10
15.14999999999996
 20
-1.067680718644583
 30
0.0
 10
15.14999999999994
 20
-0.5878275091633005
 30
0.0
 10
15.15000000000008
 20
-0.1373434639197166
 30
0.0
 10
15.15000000000004
 20
0.262700400137177
 30
0.0
 10
15.14999999999998
 20
0.6089425832798653
 30
0.0
 10
15.15000000000002
 20
0.8825224543647071
 30
0.0
 10
15.15000000000001
 20
1.081420160102073
 30
0.0
 10
15.15000000000002
 20
1.145306048551458
 30
0.0
 10
15.15
 20
1.175313491353017
 30
0.0
  0
SPLINE
  5
C6
330
1F
100
AcDbEntity
  8
외형선
  6
Continuous
370
    15
100
AcDbSpline
210
0.0
220
0.0
230
1.0
 70
    24
 71
     3
 72
    11
 73
     7
 74
     0
 42
0.000000001
 43
0.00000001
 40
0.0
 40
0.0
 40
0.0
 40
0.0
 40
0.2386607016272687
 40
0.4975062337698386
 40
0.7563517659124087
 40
1.0
 40
1.0
 40
1.0
 40
1.0
 10
15.15000000000001
 20
2.871116152472755
 30
0.0
 10
15.15
 20
2.998736615531485
 30
0.0
 10
15.14999999999999
 20
3.26477109668151
 30
0.0
 10
15.15000000000001
 20
3.722817343214779
 30
0.0
 10
15.14999999999998
 20
4.205703047434493
 30
0.0
 10
15.15000000000001
 20
4.533313989982934
 30
0.0
 10
15.15
 20
4.692165368814045
 30
0.0
  0
LINE
  5
C7
330
1F
100
AcDbEntity
  8
중심선
 62
     1
100
AcDbLine
 10
-47.84999999999999
 20
-0.0000000000000039
 30
0.0
 11
33.14999999999999
 21
0.0000000000000056
 31
0.0
  0
LINE
  5
C8
330
1F
100
AcDbEntity
  8
참조1
100
AcDbLine
 10
-7.350000000000003
 20
-0.0000000000000039
 30
0.0
 11
-7.349999999999998
 21
-40.00000000000001
 31
0.0
  0
LINE
  5
C9
330
1F
100
AcDbEntity
  8
참조1
100
AcDbLine
 10
-7.349999999999998
 20
-40.00000000000001
 30
0.0
 11
-30.00885681430867
 21
-40.0
 31
0.0
  0
CIRCLE
  5
CA
330
1F
100
AcDbEntity
  8
해칭선
100
AcDbCircle
 10
0.0000000000000133
 20
-0.0010749287238931
 30
0.0
 40
3.000000000000002
  0
INSERT
  5
CB
330
1F
100
AcDbEntity
  8
0
  6
Continuous
 62
     7
100
AcDbBlockReference
 66
     1
  2
블럭10
 10
-21.29027293212521
 20
-52.04717430164393
 30
0.0
  0
ATTRIB
  5
CC
330
CB
100
AcDbEntity
  8
FORMAT
 62
     2
100
AcDbText
 10
-37.40953397156076
 20
-49.97180738881175
 30
0.0
 40
4.233333333333333
  1
SEME6410002E [ 4 FLUTE ]
 41
0.75
  7
SLDTEXTSTYLE0
 11
-37.40953397156076
 21
-52.08847405547841
 31
0.0
100
AcDbAttribute
  2
AUTOATTR0
 70
     0
 74
     1
  0
SEQEND
  5
CD
330
CB
100
AcDbEntity
  8
0
  6
Continuous
 62
     7
  0
HATCH
  5
CE
330
1F
100
AcDbEntity
  8
중심선
100
AcDbHatch
 10
0.0
 20
0.0
 30
0.0
210
0.0
220
0.0
230
1.0
  2
SOLID
 70
     1
 71
     0
 91
        1
 92
        0
 93
        4
 72
     1
 10
-15.57536362774436
 20
-35.8
 11
-19.02163887158164
 21
-35.8
 72
     1
 10
-19.02163887158164
 20
-35.8
 11
-21.14986873078567
 21
-38.3363255805726
 72
     1
 10
-21.14986873078566
 20
-38.3363255805726
 11
-17.7035604018352
 21
-38.33628615127011
 72
     1
 10
-17.7035604018352
 20
-38.33628615127011
 11
-15.57536362774436
 21
-35.8
 97
        0
 75
     0
 76
     1
 98
        1
 10
-4.925000000000006
 20
-0.0010749287238931
  0
HATCH
  5
CF
330
1F
100
AcDbEntity
  8
중심선
100
AcDbHatch
 10
0.0
 20
0.0
 30
0.0
210
0.0
220
0.0
230
1.0
  2
SOLID
 70
     1
 71
     0
 91
        1
 92
        0
 93
        4
 72
     1
 10
-10.56259963670838
 20
-35.8
 11
-14.00887488054566
 21
-35.8
 72
     1
 10
-14.00887488054566
 20
-35.8
 11
-18.54001288890308
 21
-41.20000000000002
 72
     1
 10
-18.54001288890308
 20
-41.20000000000002
 11
-15.0937376450658
 21
-41.20000000000002
 72
     1
 10
-15.0937376450658
 20
-41.20000000000002
 11
-10.56259963670838
 21
-35.8
 97
        0
 75
     0
 76
     1
 98
        1
 10
-4.925000000000006
 20
-0.0010749287238931
  0
HATCH
  5
D0
330
1F
100
AcDbEntity
  8
중심선
100
AcDbHatch
 10
0.0
 20
0.0
 30
0.0
210
0.0
220
0.0
230
1.0
  2
SOLID
 70
     1
 71
     0
 91
        1
 92
        0
 93
        4
 72
     1
 10
-5.549835645672539
 20
-35.80000000000003
 11
-8.9961108895096
 21
-35.8
 72
     1
 10
-8.9961108895096
 20
-35.8
 11
-16.04454779139888
 21
-44.20000000000002
 72
     1
 10
-16.04454779139888
 20
-44.20000000000002
 11
-12.59827254756159
 21
-44.20000000000002
 72
     1
 10
-12.59827254756159
 20
-44.20000000000002
 11
-5.549835645672539
 21
-35.80000000000003
 97
        0
 75
     0
 76
     1
 98
        1
 10
-4.925000000000006
 20
-0.0010749287238931
  0
HATCH
  5
D1
330
1F
100
AcDbEntity
  8
중심선
100
AcDbHatch
 10
0.0
 20
0.0
 30
0.0
210
0.0
220
0.0
230
1.0
  2
SOLID
 70
     1
 71
     0
 91
        1
 92
        0
 93
        6
 72
     3
 10
-0.7499452146603129
 20
-40.00000000005127
 11
3.960054785062283
 21
1.540882976769353E-10
 40
0.3939339440162628
 50
17.09539180608437
 51
320.0019657685077
 73
     0
 72
     1
 10
0.9330544410402277
 20
-38.58789400463833
 11
3.238356314741321
 21
-36.65356729459041
 72
     3
 10
-0.7499452147131596
 20
-40.00000000000015
 11
6.600054785286829
 21
-1.278976924368180E-13
 40
0.636358354079598
 50
39.99873849337382
 51
368.4976242363725
 73
     1
 72
     1
 10
5.675387277187451
 20
-39.03999999993002
 11
-2.069877907877236
 21
-39.03999999993002
 72
     1
 10
-2.069877907877236
 20
-39.03999999993002
 11
-2.06990295232317
 21
-40.95999999992991
 72
     1
 10
-2.06990295232317
 20
-40.95999999992991
 11
2.371476817148866
 21
-40.95999999992988
 97
        0
 75
     0
 76
     1
 98
        1
 10
-4.925000000000006
 20
-0.0010749287238931
  0
DIMENSION
  5
D2
330
1F
100
AcDbEntity
  8
치수문자_일반주서
100
AcDbDimension
  2
_D
 10
51.22497982100115
 20
-4.999999999999886
 30
0.0
 11
51.22497982100107
 21
15.32275000000012
 31
0.0
 70
   160
  1
%%c<>
 71
     2
 42
10.0
 52
-270.0
  3
SLDDIMSTYLE1
100
AcDbAlignedDimension
 13
20.33841287702401
 23
5.000000000000001
 33
0.0
 14
20.33841287702401
 24
-4.999999999999999
 34
0.0
 50
90.0000000000002
100
AcDbRotatedDimension
1001
PE_URL
1000

  0
DIMENSION
  5
DF
330
1F
100
AcDbEntity
  8
치수문자_일반주서
100
AcDbDimension
  2
_D_1
 10
-53.83846843616478
 20
-5.000000000000042
 30
0.0
 11
-53.8384684361648
 21
0.0000000000000037
 31
0.0
 70
   160
  1
%%c<>
 71
     2
 42
10.00000000000001
 52
-270.0
  3
SLDDIMSTYLE1
100
AcDbAlignedDimension
 13
-43.85
 23
5.000000000000004
 33
0.0
 14
-43.85
 24
-5.000000000000004
 34
0.0
 50
90.0000000000002
100
AcDbRotatedDimension
  0
DIMENSION
  5
ED
330
1F
100
AcDbEntity
  8
치수문자_일반주서
100
AcDbDimension
  2
_D_2
 10
15.14999999999998
 20
14.91331709109084
 30
0.0
 11
22.64999999999998
 21
14.91331709109084
 31
0.0
 70
   160
  1
<>
 71
     2
 42
15.0
  3
SLDDIMSTYLE1
100
AcDbAlignedDimension
 13
30.14999999999998
 23
4.777278327047831
 33
0.0
 14
15.14999999999998
 24
4.848303036299052
 34
0.0
100
AcDbRotatedDimension
1001
PE_URL
1000

  0
DIMENSION
  5
F9
330
1F
100
AcDbEntity
  8
치수문자_일반주서
100
AcDbDimension
  2
_D_3
 10
0.1499999999999968
 20
20.91331709109081
 30
0.0
 11
15.15
 21
20.91331709109081
 31
0.0
 70
   160
  1
<>
 71
     2
 42
29.99999999999999
  3
SLDDIMSTYLE1
100
AcDbAlignedDimension
 13
30.14999999999998
 23
4.777278327047831
 33
0.0
 14
0.1499999999999968
 24
4.849999999999999
 34
0.0
 50
0.0000000000000068
100
AcDbRotatedDimension
1001
PE_URL
1000

  0
DIMENSION
  5
103
330
1F
100
AcDbEntity
  8
치수문자_일반주서
100
AcDbDimension
  2
_D_4
 10
-44.85
 20
29.32081439225272
 30
0.0
 11
-7.350000000000009
 21
29.32081439225272
 31
0.0
 70
   160
  1
<>
 71
     2
 42
74.99999999999999
  3
SLDDIMSTYLE1
100
AcDbAlignedDimension
 13
30.14999999999998
 23
4.777278327047831
 33
0.0
 14
-44.85
 24
4.000000000000011
 34
0.0
100
AcDbRotatedDimension
1001
PE_URL
1000

  0
LINE
  5
10D
330
1F
100
AcDbEntity
  8
참조1
100
AcDbLine
 10
67.96348381534558
 20
7.440000000000002
 30
0.0
 11
67.96348381534558
 21
-7.440000000000002
 31
0.0
  0
LINE
  5
10E
330
1F
100
AcDbEntity
  8
참조1
100
AcDbLine
 10
80.66348381534559
 20
5.440000000000002
 30
0.0
 11
67.96348381534558
 21
5.440000000000002
 31
0.0
  0
SOLID
  5
10F
330
1F
100
AcDbEntity
  8
참조1
100
AcDbTrace
 10
67.96348381534558
 20
5.440000000000002
 30
0.0
 11
74.31348381534558
 21
4.424000000000002
 31
0.0
 12
74.31348381534558
 22
6.456000000000002
 32
0.0
 13
74.31348381534558
 23
6.456000000000002
 33
0.0
  0
LINE
  5
110
330
1F
100
AcDbEntity
  8
참조1
100
AcDbLine
 10
80.66348381534559
 20
-5.440000000000002
 30
0.0
 11
67.96348381534558
 21
-5.440000000000002
 31
0.0
  0
SOLID
  5
111
330
1F
100
AcDbEntity
  8
참조1
100
AcDbTrace
 10
67.96348381534558
 20
-5.440000000000002
 30
0.0
 11
74.31348381534558
 21
-6.456000000000002
 31
0.0
 12
74.31348381534558
 22
-4.424000000000002
 32
0.0
 13
74.31348381534558
 23
-4.424000000000002
 33
0.0
  0
MTEXT
  5
112
330
1F
100
AcDbEntity
  8
참조1
100
AcDbMText
 10
77.36097390781586
 20
10.98821664464994
 30
0.0
 40
3.5
 41
0.0
 71
     1
 72
     1
  1
A
  7
SLDTEXTSTYLE0
 73
     1
 44
1.0
  0
MTEXT
  5
113
330
1F
100
AcDbEntity
  8
참조1
100
AcDbMText
 10
77.36097390781586
 20
0.1082166446499328
 30
0.0
 40
3.5
 41
0.0
 71
     1
 72
     1
  1
A
  7
SLDTEXTSTYLE0
 73
     1
 44
1.0
  0
INSERT
  5
11A
330
1F
100
AcDbEntity
  8
해칭선
100
AcDbBlockReference
  2
SW_DOWELSYMBOL_0
 10
0.0000000000000133
 20
-0.0010749287238931
 30
0.0
  0
ARC
  5
13D
330
1F
100
AcDbEntity
  8
0
 62
     1
100
AcDbCircle
 10
29.94999999999998
 20
4.777278327047831
 30
0.0
 40
0.2
100
AcDbArc
 50
0.0
 51
90.0
  0
ARC
  5
13E
102
{ACAD_REACTORS
102
}
330
1F
100
AcDbEntity
  8
0
 62
     1
100
AcDbCircle
 10
29.94999999999998
 20
-4.777278327047821
 30
0.0
 40
0.2
100
AcDbArc
 50
270.0
 51
0.0
  0
DIMENSION
  5
14D
102
{ACAD_REACTORS
102
}
102
{ACAD_XDICTIONARY
360
14E
102
}
330
1F
100
AcDbEntity
  8
0
100
AcDbDimension
  2
*D8
 10
29.94999999999998
 20
-4.777278327047821
 30
0.0
 11
42.27979395136379
 21
-12.1397947162614
 31
0.0
 70
   164
 71
     5
 42
0.1999999999999996
  3
ISO-25
100
AcDbRadialDimension
 15
30.04725867754053
 25
-4.952037445960291
 35
0.0
 40
0.0
1001
ACAD
1000
DSTYLE
1002
{
1070
   179
1070
     2
1070
   143
1040
0.0393700787401575
1070
    41
1040
3.302
1070
    44
1040
1.0
1070
    42
1040
1.0
1070
   147
1040
1.524
1070
    73
1070
     1
1070
    74
1070
     1
1070
   140
1040
3.5
1070
   284
1070
     0
1070
    78
1070
     0
1002
}
1001
ACAD_DSTYLE_DIMRADIAL_EXTENSION
1070
   387
1070
     1
1070
   388
1040
4.71238898038469
1070
   390
1040
0.0
  0
ENDSEC
  0
SECTION
  2
OBJECTS
  0
DICTIONARY
  5
C
330
0
100
AcDbDictionary
281
     1
  3
ACAD_GROUP
350
D
  3
ACAD_LAYOUT
350
1A
  3
ACAD_MLINESTYLE
350
17
  3
ACAD_PLOTSETTINGS
350
19
  3
ACAD_PLOTSTYLENAME
350
E
  3
ACAD_SCALELIST
350
47
  3
APPDATA
350
13C
  3
DWGPROPS
350
15A
  0
DICTIONARY
  5
14E
330
14D
100
AcDbDictionary
280
     1
281
     1
  0
DICTIONARY
  5
D
102
{ACAD_REACTORS
330
C
102
}
330
C
100
AcDbDictionary
281
     1
  0
DICTIONARY
  5
1A
102
{ACAD_REACTORS
330
C
102
}
330
C
100
AcDbDictionary
281
     1
  3
Layout1
350
1E
  3
Layout2
350
26
  3
Model
350
22
  0
DICTIONARY
  5
17
102
{ACAD_REACTORS
330
C
102
}
330
C
100
AcDbDictionary
281
     1
  3
Standard
350
18
  0
DICTIONARY
  5
19
102
{ACAD_REACTORS
330
C
102
}
330
C
100
AcDbDictionary
281
     1
  0
ACDBDICTIONARYWDFLT
  5
E
102
{ACAD_REACTORS
330
C
102
}
330
C
100
AcDbDictionary
281
     1
  3
Normal
350
F
100
AcDbDictionaryWithDefault
340
F
  0
DICTIONARY
  5
47
102
{ACAD_REACTORS
330
C
102
}
330
C
100
AcDbDictionary
281
     1
  3
A0
350
48
  3
A1
350
49
  3
A2
350
4A
  3
A3
350
4B
  3
A4
350
4C
  3
A5
350
4D
  3
A6
350
4E
  3
A7
350
4F
  3
A8
350
50
  3
A9
350
51
  3
B0
350
52
  3
B1
350
53
  3
B2
350
54
  3
B3
350
55
  3
B4
350
56
  3
B5
350
57
  3
B6
350
58
  3
B7
350
59
  3
B8
350
5A
  3
B9
350
5B
  3
C0
350
5C
  3
C1
350
5D
  3
C2
350
5E
  3
C3
350
5F
  3
C4
350
60
  3
C5
350
61
  3
C6
350
62
  3
C7
350
63
  3
C8
350
64
  3
C9
350
65
  3
D0
350
66
  3
D1
350
67
  3
D2
350
68
  0
DICTIONARY
  5
13C
102
{ACAD_REACTORS
330
C
102
}
330
C
100
AcDbDictionary
281
     1
  0
XRECORD
  5
15A
102
{ACAD_REACTORS
330
C
102
}
330
C
100
AcDbXrecord
280
     1
  1
DWGPROPS COOKIE
  2

  3

  4

  6

  7

  8
USER
  9

300
=
301
=
302
=
303
=
304
=
305
=
306
=
307
=
308
=
309
=
 40
0.0
 41
2458274.336017373
 42
2458275.079176805
  1

 90
        0
  0
LAYOUT
  5
1E
102
{ACAD_REACTORS
330
1A
102
}
330
1A
100
AcDbPlotSettings
  1

  2
none_device
  4

  6

 40
0.0
 41
0.0
 42
0.0
 43
0.0
 44
0.0
 45
0.0
 46
0.0
 47
0.0
 48
0.0
 49
0.0
140
0.0
141
0.0
142
1.0
143
1.0
 70
   688
 72
     1
 73
     0
 74
     5
  7

 75
    16
147
1.0
148
0.0
149
0.0
100
AcDbLayout
  1
Layout1
 70
     1
 71
     1
 10
0.0
 20
0.0
 11
420.0
 21
297.0
 12
0.0
 22
0.0
 32
0.0
 14
1.000000000000000E+20
 24
1.000000000000000E+20
 34
1.000000000000000E+20
 15
-1.000000000000000E+20
 25
-1.000000000000000E+20
 35
-1.000000000000000E+20
146
0.0
 13
0.0
 23
0.0
 33
0.0
 16
1.0
 26
0.0
 36
0.0
 17
0.0
 27
1.0
 37
0.0
 76
     0
330
1B
  0
LAYOUT
  5
26
102
{ACAD_REACTORS
330
1A
102
}
330
1A
100
AcDbPlotSettings
  1

  2
none_device
  4

  6

 40
0.0
 41
0.0
 42
0.0
 43
0.0
 44
0.0
 45
0.0
 46
0.0
 47
0.0
 48
0.0
 49
0.0
140
0.0
141
0.0
142
1.0
143
1.0
 70
   688
 72
     1
 73
     0
 74
     5
  7

 75
    16
147
1.0
148
0.0
149
0.0
100
AcDbLayout
  1
Layout2
 70
     1
 71
     2
 10
0.0
 20
0.0
 11
0.0
 21
0.0
 12
0.0
 22
0.0
 32
0.0
 14
0.0
 24
0.0
 34
0.0
 15
0.0
 25
0.0
 35
0.0
146
0.0
 13
0.0
 23
0.0
 33
0.0
 16
1.0
 26
0.0
 36
0.0
 17
0.0
 27
1.0
 37
0.0
 76
     0
330
23
  0
LAYOUT
  5
22
102
{ACAD_REACTORS
330
1A
102
}
330
1A
100
AcDbPlotSettings
  1

  2
none_device
  4
ANSI_A_(11.00_x_8.50_Inches)
  6

 40
6.35
 41
19.05
 42
6.35000508
 43
19.05000254
 44
279.4
 45
215.9
 46
101.4166318369761
 47
105.691791491406
 48
0.0
 49
0.0
140
0.0
141
0.0
142
0.0783074874124013
143
1.0
 70
  1696
 72
     0
 73
     0
 74
     0
  7

 75
     0
147
0.0235690232323232
148
0.0
149
0.0
100
AcDbLayout
  1
Model
 70
     1
 71
     0
 10
0.0
 20
0.0
 11
420.0
 21
297.0
 12
0.0
 22
0.0
 32
0.0
 14
-58.2134684361648
 24
-49.97180738881175
 34
0.0
 15
80.66348381534559
 25
33.69581439225273
 35
0.0
146
0.0
 13
0.0
 23
0.0
 33
0.0
 16
1.0
 26
0.0
 36
0.0
 17
0.0
 27
1.0
 37
0.0
 76
     0
330
1F
331
29
  0
MLINESTYLE
  5
18
102
{ACAD_REACTORS
330
17
102
}
330
17
100
AcDbMlineStyle
  2
Standard
 70
     0
  3

 62
   256
 51
90.0
 52
90.0
 71
     2
 49
0.5
 62
   256
  6
BYLAYER
 49
-0.5
 62
   256
  6
BYLAYER
  0
ACDBPLACEHOLDER
  5
F
102
{ACAD_REACTORS
330
E
102
}
330
E
  0
SCALE
  5
48
102
{ACAD_REACTORS
330
47
102
}
330
47
100
AcDbScale
 70
     0
300
1:1
140
1.0
141
1.0
290
     1
  0
SCALE
  5
49
102
{ACAD_REACTORS
330
47
102
}
330
47
100
AcDbScale
 70
     0
300
1:2
140
1.0
141
2.0
290
     0
  0
SCALE
  5
4A
102
{ACAD_REACTORS
330
47
102
}
330
47
100
AcDbScale
 70
     0
300
1:4
140
1.0
141
4.0
290
     0
  0
SCALE
  5
4B
102
{ACAD_REACTORS
330
47
102
}
330
47
100
AcDbScale
 70
     0
300
1:5
140
1.0
141
5.0
290
     0
  0
SCALE
  5
4C
102
{ACAD_REACTORS
330
47
102
}
330
47
100
AcDbScale
 70
     0
300
1:8
140
1.0
141
8.0
290
     0
  0
SCALE
  5
4D
102
{ACAD_REACTORS
330
47
102
}
330
47
100
AcDbScale
 70
     0
300
1:10
140
1.0
141
10.0
290
     0
  0
SCALE
  5
4E
102
{ACAD_REACTORS
330
47
102
}
330
47
100
AcDbScale
 70
     0
300
1:16
140
1.0
141
16.0
290
     0
  0
SCALE
  5
4F
102
{ACAD_REACTORS
330
47
102
}
330
47
100
AcDbScale
 70
     0
300
1:20
140
1.0
141
20.0
290
     0
  0
SCALE
  5
50
102
{ACAD_REACTORS
330
47
102
}
330
47
100
AcDbScale
 70
     0
300
1:30
140
1.0
141
30.0
290
     0
  0
SCALE
  5
51
102
{ACAD_REACTORS
330
47
102
}
330
47
100
AcDbScale
 70
     0
300
1:40
140
1.0
141
40.0
290
     0
  0
SCALE
  5
52
102
{ACAD_REACTORS
330
47
102
}
330
47
100
AcDbScale
 70
     0
300
1:50
140
1.0
141
50.0
290
     0
  0
SCALE
  5
53
102
{ACAD_REACTORS
330
47
102
}
330
47
100
AcDbScale
 70
     0
300
1:100
140
1.0
141
100.0
290
     0
  0
SCALE
  5
54
102
{ACAD_REACTORS
330
47
102
}
330
47
100
AcDbScale
 70
     0
300
2:1
140
2.0
141
1.0
290
     0
  0
SCALE
  5
55
102
{ACAD_REACTORS
330
47
102
}
330
47
100
AcDbScale
 70
     0
300
4:1
140
4.0
141
1.0
290
     0
  0
SCALE
  5
56
102
{ACAD_REACTORS
330
47
102
}
330
47
100
AcDbScale
 70
     0
300
8:1
140
8.0
141
1.0
290
     0
  0
SCALE
  5
57
102
{ACAD_REACTORS
330
47
102
}
330
47
100
AcDbScale
 70
     0
300
10:1
140
10.0
141
1.0
290
     0
  0
SCALE
  5
58
102
{ACAD_REACTORS
330
47
102
}
330
47
100
AcDbScale
 70
     0
300
100:1
140
100.0
141
1.0
290
     0
  0
SCALE
  5
59
102
{ACAD_REACTORS
330
47
102
}
330
47
100
AcDbScale
 70
     0
300
1/128" = 1'-0"
140
0.0078125
141
12.0
290
     0
  0
SCALE
  5
5A
102
{ACAD_REACTORS
330
47
102
}
330
47
100
AcDbScale
 70
     0
300
1/64" = 1'-0"
140
0.015625
141
12.0
290
     0
  0
SCALE
  5
5B
102
{ACAD_REACTORS
330
47
102
}
330
47
100
AcDbScale
 70
     0
300
1/32" = 1'-0"
140
0.03125
141
12.0
290
     0
  0
SCALE
  5
5C
102
{ACAD_REACTORS
330
47
102
}
330
47
100
AcDbScale
 70
     0
300
1/16" = 1'-0"
140
0.0625
141
12.0
290
     0
  0
SCALE
  5
5D
102
{ACAD_REACTORS
330
47
102
}
330
47
100
AcDbScale
 70
     0
300
3/32" = 1'-0"
140
0.09375
141
12.0
290
     0
  0
SCALE
  5
5E
102
{ACAD_REACTORS
330
47
102
}
330
47
100
AcDbScale
 70
     0
300
1/8" = 1'-0"
140
0.125
141
12.0
290
     0
  0
SCALE
  5
5F
102
{ACAD_REACTORS
330
47
102
}
330
47
100
AcDbScale
 70
     0
300
3/16" = 1'-0"
140
0.1875
141
12.0
290
     0
  0
SCALE
  5
60
102
{ACAD_REACTORS
330
47
102
}
330
47
100
AcDbScale
 70
     0
300
1/4" = 1'-0"
140
0.25
141
12.0
290
     0
  0
SCALE
  5
61
102
{ACAD_REACTORS
330
47
102
}
330
47
100
AcDbScale
 70
     0
300
3/8" = 1'-0"
140
0.375
141
12.0
290
     0
  0
SCALE
  5
62
102
{ACAD_REACTORS
330
47
102
}
330
47
100
AcDbScale
 70
     0
300
1/2" = 1'-0"
140
0.5
141
12.0
290
     0
  0
SCALE
  5
63
102
{ACAD_REACTORS
330
47
102
}
330
47
100
AcDbScale
 70
     0
300
3/4" = 1'-0"
140
0.75
141
12.0
290
     0
  0
SCALE
  5
64
102
{ACAD_REACTORS
330
47
102
}
330
47
100
AcDbScale
 70
     0
300
1" = 1'-0"
140
1.0
141
12.0
290
     0
  0
SCALE
  5
65
102
{ACAD_REACTORS
330
47
102
}
330
47
100
AcDbScale
 70
     0
300
1-1/2" = 1'-0"
140
1.5
141
12.0
290
     0
  0
SCALE
  5
66
102
{ACAD_REACTORS
330
47
102
}
330
47
100
AcDbScale
 70
     0
300
3" = 1'-0"
140
3.0
141
12.0
290
     0
  0
SCALE
  5
67
102
{ACAD_REACTORS
330
47
102
}
330
47
100
AcDbScale
 70
     0
300
6" = 1'-0"
140
6.0
141
12.0
290
     0
  0
SCALE
  5
68
102
{ACAD_REACTORS
330
47
102
}
330
47
100
AcDbScale
 70
     0
300
1'-0" = 1'-0"
140
12.0
141
12.0
290
     0
  0
ENDSEC
  0
EOF
