  0
SECTION
  2
HEADER
  9
$ACADVER
  1
AC1015
  9
$ACADMAINTVER
 70
     6
  9
$DWGCODEPAGE
  3
ANSI_949
  9
$INSBASE
 10
0.0
 20
0.0
 30
0.0
  9
$EXTMIN
 10
-58.41346843616482
 20
-49.97180738881175
 30
0.0
  9
$EXTMAX
 10
80.66348381534559
 20
30.91602180854834
 30
0.0
  9
$LIMMIN
 10
0.0
 20
0.0
  9
$LIMMAX
 10
420.0
 20
297.0
  9
$ORTHOMODE
 70
     0
  9
$REGENMODE
 70
     1
  9
$FILLMODE
 70
     1
  9
$QTEXTMODE
 70
     0
  9
$MIRRTEXT
 70
     1
  9
$LTSCALE
 40
1.0
  9
$ATTMODE
 70
     1
  9
$TEXTSIZE
 40
3.5
  9
$TRACEWID
 40
1.0
  9
$TEXTSTYLE
  7
Standard
  9
$CLAYER
  8
0
  9
$CELTYPE
  6
ByLayer
  9
$CECOLOR
 62
   256
  9
$CELTSCALE
 40
1.0
  9
$DISPSILH
 70
     0
  9
$DIMSCALE
 40
1.0
  9
$DIMASZ
 40
3.302
  9
$DIMEXO
 40
1.0
  9
$DIMDLI
 40
3.75
  9
$DIMRND
 40
0.0
  9
$DIMDLE
 40
0.0
  9
$DIMEXE
 40
1.0
  9
$DIMTP
 40
0.0
  9
$DIMTM
 40
0.0
  9
$DIMTXT
 40
3.5
  9
$DIMCEN
 40
2.5
  9
$DIMTSZ
 40
0.0
  9
$DIMTOL
 70
     0
  9
$DIMLIM
 70
     0
  9
$DIMTIH
 70
     1
  9
$DIMTOH
 70
     1
  9
$DIMSE1
 70
     0
  9
$DIMSE2
 70
     0
  9
$DIMTAD
 70
     1
  9
$DIMZIN
 70
     0
  9
$DIMBLK
  1

  9
$DIMASO
 70
     1
  9
$DIMSHO
 70
     1
  9
$DIMPOST
  1

  9
$DIMAPOST
  1

  9
$DIMALT
 70
     0
  9
$DIMALTD
 70
     3
  9
$DIMALTF
 40
0.0393700787401575
  9
$DIMLFAC
 40
1.0
  9
$DIMTOFL
 70
     1
  9
$DIMTVP
 40
0.0
  9
$DIMTIX
 70
     0
  9
$DIMSOXD
 70
     0
  9
$DIMSAH
 70
     0
  9
$DIMBLK1
  1

  9
$DIMBLK2
  1

  9
$DIMSTYLE
  2
ISO-25
  9
$DIMCLRD
 70
     0
  9
$DIMCLRE
 70
     0
  9
$DIMCLRT
 70
     0
  9
$DIMTFAC
 40
1.0
  9
$DIMGAP
 40
1.524
  9
$DIMJUST
 70
     0
  9
$DIMSD1
 70
     0
  9
$DIMSD2
 70
     0
  9
$DIMTOLJ
 70
     0
  9
$DIMTZIN
 70
     0
  9
$DIMALTZ
 70
     0
  9
$DIMALTTZ
 70
     0
  9
$DIMUPT
 70
     0
  9
$DIMDEC
 70
     2
  9
$DIMTDEC
 70
     2
  9
$DIMALTU
 70
     2
  9
$DIMALTTD
 70
     3
  9
$DIMTXSTY
  7
Standard
  9
$DIMAUNIT
 70
     0
  9
$DIMADEC
 70
     2
  9
$DIMALTRND
 40
0.0
  9
$DIMAZIN
 70
     0
  9
$DIMDSEP
 70
    44
  9
$DIMATFIT
 70
     3
  9
$DIMFRAC
 70
     0
  9
$DIMLDRBLK
  1

  9
$DIMLUNIT
 70
     2
  9
$DIMLWD
 70
    -2
  9
$DIMLWE
 70
    -2
  9
$DIMTMOVE
 70
     0
  9
$LUNITS
 70
     2
  9
$LUPREC
 70
     2
  9
$SKETCHINC
 40
1.0
  9
$FILLETRAD
 40
10.0
  9
$AUNITS
 70
     0
  9
$AUPREC
 70
     2
  9
$MENU
  1
.
  9
$ELEVATION
 40
0.0
  9
$PELEVATION
 40
0.0
  9
$THICKNESS
 40
0.0
  9
$LIMCHECK
 70
     0
  9
$CHAMFERA
 40
0.0
  9
$CHAMFERB
 40
0.0
  9
$CHAMFERC
 40
0.0
  9
$CHAMFERD
 40
0.0
  9
$SKPOLY
 70
     0
  9
$TDCREATE
 40
2458274.710639294
  9
$TDUCREATE
 40
2458274.335639294
  9
$TDUPDATE
 40
2458275.452283044
  9
$TDUUPDATE
 40
2458275.077283044
  9
$TDINDWG
 40
0.0010709375
  9
$TDUSRTIMER
 40
0.0016227431
  9
$USRTIMER
 70
     1
  9
$ANGBASE
 50
0.0
  9
$ANGDIR
 70
     0
  9
$PDMODE
 70
     0
  9
$PDSIZE
 40
-1.0
  9
$PLINEWID
 40
0.0
  9
$SPLFRAME
 70
     0
  9
$SPLINETYPE
 70
     6
  9
$SPLINESEGS
 70
     8
  9
$HANDSEED
  5
175
  9
$SURFTAB1
 70
     6
  9
$SURFTAB2
 70
     6
  9
$SURFTYPE
 70
     6
  9
$SURFU
 70
     6
  9
$SURFV
 70
     6
  9
$UCSBASE
  2

  9
$UCSNAME
  2

  9
$UCSORG
 10
0.0
 20
0.0
 30
0.0
  9
$UCSXDIR
 10
1.0
 20
0.0
 30
0.0
  9
$UCSYDIR
 10
0.0
 20
1.0
 30
0.0
  9
$UCSORTHOREF
  2

  9
$UCSORTHOVIEW
 70
     0
  9
$UCSORGTOP
 10
0.0
 20
0.0
 30
0.0
  9
$UCSORGBOTTOM
 10
0.0
 20
0.0
 30
0.0
  9
$UCSORGLEFT
 10
0.0
 20
0.0
 30
0.0
  9
$UCSORGRIGHT
 10
0.0
 20
0.0
 30
0.0
  9
$UCSORGFRONT
 10
0.0
 20
0.0
 30
0.0
  9
$UCSORGBACK
 10
0.0
 20
0.0
 30
0.0
  9
$PUCSBASE
  2

  9
$PUCSNAME
  2

  9
$PUCSORG
 10
0.0
 20
0.0
 30
0.0
  9
$PUCSXDIR
 10
1.0
 20
0.0
 30
0.0
  9
$PUCSYDIR
 10
0.0
 20
1.0
 30
0.0
  9
$PUCSORTHOREF
  2

  9
$PUCSORTHOVIEW
 70
     0
  9
$PUCSORGTOP
 10
0.0
 20
0.0
 30
0.0
  9
$PUCSORGBOTTOM
 10
0.0
 20
0.0
 30
0.0
  9
$PUCSORGLEFT
 10
0.0
 20
0.0
 30
0.0
  9
$PUCSORGRIGHT
 10
0.0
 20
0.0
 30
0.0
  9
$PUCSORGFRONT
 10
0.0
 20
0.0
 30
0.0
  9
$PUCSORGBACK
 10
0.0
 20
0.0
 30
0.0
  9
$USERI1
 70
     0
  9
$USERI2
 70
     0
  9
$USERI3
 70
     0
  9
$USERI4
 70
     0
  9
$USERI5
 70
     0
  9
$USERR1
 40
0.0
  9
$USERR2
 40
0.0
  9
$USERR3
 40
0.0
  9
$USERR4
 40
0.0
  9
$USERR5
 40
0.0
  9
$WORLDVIEW
 70
     1
  9
$SHADEDGE
 70
     3
  9
$SHADEDIF
 70
    70
  9
$TILEMODE
 70
     1
  9
$MAXACTVP
 70
    64
  9
$PINSBASE
 10
0.0
 20
0.0
 30
0.0
  9
$PLIMCHECK
 70
     0
  9
$PEXTMIN
 10
1.000000000000000E+20
 20
1.000000000000000E+20
 30
1.000000000000000E+20
  9
$PEXTMAX
 10
-1.000000000000000E+20
 20
-1.000000000000000E+20
 30
-1.000000000000000E+20
  9
$PLIMMIN
 10
0.0
 20
0.0
  9
$PLIMMAX
 10
0.0
 20
0.0
  9
$UNITMODE
 70
     0
  9
$VISRETAIN
 70
     1
  9
$PLINEGEN
 70
     0
  9
$PSLTSCALE
 70
     1
  9
$TREEDEPTH
 70
  3020
  9
$CMLSTYLE
  2
Standard
  9
$CMLJUST
 70
     0
  9
$CMLSCALE
 40
20.0
  9
$PROXYGRAPHICS
 70
     1
  9
$MEASUREMENT
 70
     1
  9
$CELWEIGHT
370
    -1
  9
$ENDCAPS
280
     0
  9
$JOINSTYLE
280
     0
  9
$LWDISPLAY
290
     1
  9
$INSUNITS
 70
     4
  9
$HYPERLINKBASE
  1

  9
$STYLESHEET
  1

  9
$XEDIT
290
     1
  9
$CEPSNTYPE
380
     0
  9
$PSTYLEMODE
290
     1
  9
$FINGERPRINTGUID
  2
{08ACB1E2-8FA3-4517-977B-BD63C1838987}
  9
$VERSIONGUID
  2
{FAEB1C32-E019-11D5-929B-00C0DF256EC4}
  9
$EXTNAMES
290
     1
  9
$PSVPSCALE
 40
0.0
  9
$OLESTARTUP
290
     0
  0
ENDSEC
  0
SECTION
  2
CLASSES
  0
CLASS
  1
ACDBDICTIONARYWDFLT
  2
AcDbDictionaryWithDefault
  3
ObjectDBX Classes
 90
        0
280
     0
281
     0
  0
CLASS
  1
VISUALSTYLE
  2
AcDbVisualStyle
  3
ObjectDBX Classes
 90
     4095
280
     0
281
     0
  0
CLASS
  1
MATERIAL
  2
AcDbMaterial
  3
ObjectDBX Classes
 90
     1153
280
     0
281
     0
  0
CLASS
  1
SCALE
  2
AcDbScale
  3
ObjectDBX Classes
 90
     1153
280
     0
281
     0
  0
CLASS
  1
SUN
  2
AcDbSun
  3
SCENEOE
 90
     1153
280
     0
281
     0
  0
CLASS
  1
ACDBPLACEHOLDER
  2
AcDbPlaceHolder
  3
ObjectDBX Classes
 90
        0
280
     0
281
     0
  0
CLASS
  1
LAYOUT
  2
AcDbLayout
  3
ObjectDBX Classes
 90
        0
280
     0
281
     0
  0
CLASS
  1
TABLESTYLE
  2
AcDbTableStyle
  3
ObjectDBX Classes
 90
     4095
280
     0
281
     0
  0
CLASS
  1
MLEADERSTYLE
  2
AcDbMLeaderStyle
  3
ACDB_MLEADERSTYLE_CLASS
 90
     4095
280
     0
281
     0
  0
CLASS
  1
DICTIONARYVAR
  2
AcDbDictionaryVar
  3
ObjectDBX Classes
 90
        0
280
     0
281
     0
  0
CLASS
  1
DIMASSOC
  2
AcDbDimAssoc
  3
"AcDbDimAssoc|Product Desc:     AcDim ARX App For Dimension|Company:          Autodesk, Inc.|WEB Address:      www.autodesk.com"
 90
        0
280
     0
281
     0
  0
ENDSEC
  0
SECTION
  2
TABLES
  0
TABLE
  2
VPORT
  5
8
330
0
100
AcDbSymbolTable
 70
     1
  0
VPORT
  5
29
330
8
100
AcDbSymbolTableRecord
100
AcDbViewportTableRecord
  2
*Active
 70
     0
 10
0.0
 20
0.0
 11
1.0
 21
1.0
 12
11.12500768959039
 22
-9.527892790131709
 13
0.0
 23
0.0
 14
10.0
 24
10.0
 15
10.0
 25
10.0
 16
0.0
 26
0.0
 36
1.0
 17
0.0
 27
0.0
 37
0.0
 40
82.50558578130729
 41
2.400311526479751
 42
50.0
 43
0.0
 44
0.0
 50
0.0
 51
0.0
 71
    16
 72
  2000
 73
     1
 74
     3
 75
     0
 76
     0
 77
     0
 78
     0
281
     0
 65
     1
110
0.0
120
0.0
130
0.0
111
1.0
121
0.0
131
0.0
112
0.0
122
1.0
132
0.0
 79
     0
146
0.0
  0
ENDTAB
  0
TABLE
  2
LTYPE
  5
5
330
0
100
AcDbSymbolTable
 70
     6
  0
LTYPE
  5
14
330
5
100
AcDbSymbolTableRecord
100
AcDbLinetypeTableRecord
  2
ByBlock
 70
     0
  3

 72
    65
 73
     0
 40
0.0
  0
LTYPE
  5
15
330
5
100
AcDbSymbolTableRecord
100
AcDbLinetypeTableRecord
  2
ByLayer
 70
     0
  3

 72
    65
 73
     0
 40
0.0
  0
LTYPE
  5
16
330
5
100
AcDbSymbolTableRecord
100
AcDbLinetypeTableRecord
  2
Continuous
 70
     0
  3
Solid line
 72
    65
 73
     0
 40
0.0
  0
LTYPE
  5
6A
330
5
100
AcDbSymbolTableRecord
100
AcDbLinetypeTableRecord
  2
HIDDEN
 70
     0
  3
Hidden __ __ __ __ __ __ __ __ __ __ __ __ __ __
 72
    65
 73
     2
 40
1.905
 49
1.27
 74
     0
 49
-0.635
 74
     0
  0
LTYPE
  5
6B
330
5
100
AcDbSymbolTableRecord
100
AcDbLinetypeTableRecord
  2
PHANTOM
 70
     0
  3
Phantom ______  __  __  ______  __  __  ______
 72
    65
 73
     6
 40
12.7
 49
6.35
 74
     0
 49
-1.27
 74
     0
 49
1.27
 74
     0
 49
-1.27
 74
     0
 49
1.27
 74
     0
 49
-1.27
 74
     0
  0
LTYPE
  5
6C
330
5
100
AcDbSymbolTableRecord
100
AcDbLinetypeTableRecord
  2
CENTER
 70
     0
  3
Center ____ _ ____ _ ____ _ ____ _ ____ _ ____
 72
    65
 73
     4
 40
10.16
 49
6.35
 74
     0
 49
-1.27
 74
     0
 49
1.27
 74
     0
 49
-1.27
 74
     0
  0
LTYPE
  5
6D
330
5
100
AcDbSymbolTableRecord
100
AcDbLinetypeTableRecord
  2
CENTERX2
 70
     0
  3
Center (2x) ________  __  ________  __  _____
 72
    65
 73
     4
 40
20.32
 49
12.7
 74
     0
 49
-2.54
 74
     0
 49
2.54
 74
     0
 49
-2.54
 74
     0
  0
LTYPE
  5
6E
330
5
100
AcDbSymbolTableRecord
100
AcDbLinetypeTableRecord
  2
DOT2
 70
     0
  3
Dot (.5x) ........................................
 72
    65
 73
     2
 40
0.635
 49
0.0
 74
     0
 49
-0.635
 74
     0
  0
ENDTAB
  0
TABLE
  2
LAYER
  5
2
330
0
100
AcDbSymbolTable
 70
    18
  0
LAYER
  5
10
330
2
100
AcDbSymbolTableRecord
100
AcDbLayerTableRecord
  2
0
 70
     0
 62
     7
  6
Continuous
370
    -3
390
F
  0
LAYER
  5
6F
330
2
100
AcDbSymbolTableRecord
100
AcDbLayerTableRecord
  2
FORMAT
 70
     0
 62
     2
  6
Continuous
370
    -3
390
F
  0
LAYER
  5
70
330
2
100
AcDbSymbolTableRecord
100
AcDbLayerTableRecord
  2
외형선
 70
     0
 62
     4
  6
Continuous
370
    30
390
F
  0
LAYER
  5
71
330
2
100
AcDbSymbolTableRecord
100
AcDbLayerTableRecord
  2
숨은선
 70
     0
 62
     2
  6
HIDDEN
370
    15
390
F
  0
LAYER
  5
72
330
2
100
AcDbSymbolTableRecord
100
AcDbLayerTableRecord
  2
중심선
 70
     0
 62
     1
  6
CENTERX2
370
    -3
390
F
  0
LAYER
  5
73
330
2
100
AcDbSymbolTableRecord
100
AcDbLayerTableRecord
  2
파단선
 70
     0
 62
     4
  6
Continuous
370
    -3
390
F
  0
LAYER
  5
74
330
2
100
AcDbSymbolTableRecord
100
AcDbLayerTableRecord
  2
해칭선
 70
     0
 62
   100
  6
Continuous
370
    -3
390
F
  0
LAYER
  5
75
330
2
100
AcDbSymbolTableRecord
100
AcDbLayerTableRecord
  2
가는실선
 70
     0
 62
     4
  6
Continuous
370
    -3
390
F
  0
LAYER
  5
76
330
2
100
AcDbSymbolTableRecord
100
AcDbLayerTableRecord
  2
치수_보조선
 70
     0
 62
     4
  6
Continuous
370
    -3
390
F
  0
LAYER
  5
77
330
2
100
AcDbSymbolTableRecord
100
AcDbLayerTableRecord
  2
치수문자_일반주서
 70
     0
 62
     7
  6
Continuous
370
    15
390
F
  0
LAYER
  5
78
330
2
100
AcDbSymbolTableRecord
100
AcDbLayerTableRecord
  2
개별주서
 70
     0
 62
   100
  6
Continuous
370
    30
390
F
  0
LAYER
  5
79
330
2
100
AcDbSymbolTableRecord
100
AcDbLayerTableRecord
  2
중간선
 70
     0
 62
     2
  6
Continuous
370
    15
390
F
  0
LAYER
  5
7A
330
2
100
AcDbSymbolTableRecord
100
AcDbLayerTableRecord
  2
윤곽선
 70
     0
 62
     3
  6
Continuous
370
    40
390
F
  0
LAYER
  5
7B
330
2
100
AcDbSymbolTableRecord
100
AcDbLayerTableRecord
  2
중심마크
 70
     0
 62
   100
  6
Continuous
370
    30
390
F
  0
LAYER
  5
7C
330
2
100
AcDbSymbolTableRecord
100
AcDbLayerTableRecord
  2
가상선
 70
     0
 62
     4
  6
PHANTOM
370
    -3
390
F
  0
LAYER
  5
7D
330
2
100
AcDbSymbolTableRecord
100
AcDbLayerTableRecord
  2
특수지정선
 70
     0
 62
     5
  6
CENTERX2
370
    60
390
F
  0
LAYER
  5
7E
330
2
100
AcDbSymbolTableRecord
100
AcDbLayerTableRecord
  2
참조1
 70
     0
 62
    -4
  6
Continuous
370
    -3
390
F
  0
LAYER
  5
141
330
2
100
AcDbSymbolTableRecord
100
AcDbLayerTableRecord
  2
Defpoints
 70
     0
 62
     7
  6
Continuous
290
     0
370
    -3
390
F
  0
ENDTAB
  0
TABLE
  2
STYLE
  5
3
330
0
100
AcDbSymbolTable
 70
     2
  0
STYLE
  5
11
330
3
100
AcDbSymbolTableRecord
100
AcDbTextStyleTableRecord
  2
Standard
 70
     0
 40
0.0
 41
1.0
 50
0.0
 71
     0
 42
3.5
  3
txt
  4

  0
STYLE
  5
94
330
3
100
AcDbSymbolTableRecord
100
AcDbTextStyleTableRecord
  2
SLDTEXTSTYLE0
 70
     0
 40
0.0
 41
0.75
 50
0.0
 71
     0
 42
3.5
  3
TXT
  4

  0
ENDTAB
  0
TABLE
  2
VIEW
  5
6
330
0
100
AcDbSymbolTable
 70
     0
  0
ENDTAB
  0
TABLE
  2
UCS
  5
7
330
0
100
AcDbSymbolTable
 70
     0
  0
ENDTAB
  0
TABLE
  2
APPID
  5
9
330
0
100
AcDbSymbolTable
 70
     5
  0
APPID
  5
12
330
9
100
AcDbSymbolTableRecord
100
AcDbRegAppTableRecord
  2
ACAD
 70
     0
  0
APPID
  5
158
330
9
100
AcDbSymbolTableRecord
100
AcDbRegAppTableRecord
  2
PE_URL
 70
     0
  0
APPID
  5
164
330
9
100
AcDbSymbolTableRecord
100
AcDbRegAppTableRecord
  2
ACAD_DSTYLE_DIMRADIAL_EXTENSION
 70
     0
  0
APPID
  5
173
330
9
100
AcDbSymbolTableRecord
100
AcDbRegAppTableRecord
  2
ACAD_DSTYLE_DIMFLIPARROW_SYMBOL
 70
     0
  0
APPID
  5
174
330
9
100
AcDbSymbolTableRecord
100
AcDbRegAppTableRecord
  2
ACAD_DSTYLE_DIMFLIPARROW_WHICH_SYMBOL
 70
     0
  0
ENDTAB
  0
TABLE
  2
DIMSTYLE
  5
A
330
0
100
AcDbSymbolTable
 70
     3
100
AcDbDimStyleTable
  0
DIMSTYLE
105
27
102
{ACAD_REACTORS
330
165
102
}
330
A
100
AcDbSymbolTableRecord
100
AcDbDimStyleTableRecord
  2
ISO-25
 70
     0
 41
2.5
 42
0.625
 43
3.75
 44
1.25
 73
     0
 74
     0
 77
     1
 78
     8
140
2.5
141
2.5
143
0.03937007874016
147
0.625
171
     3
172
     1
178
     0
271
     2
272
     2
274
     3
278
    44
283
     0
284
     8
340
11
  0
DIMSTYLE
105
D7
330
A
100
AcDbSymbolTableRecord
100
AcDbDimStyleTableRecord
  2
SLDDIMSTYLE0
 70
     0
 41
3.302
 44
0.0
 45
0.000000001
 73
     0
 74
     0
 77
     1
 78
    12
 79
     3
140
3.5
147
0.875
173
     1
178
     0
271
     2
272
     2
276
     2
284
    12
340
94
  0
DIMSTYLE
105
E4
102
{ACAD_REACTORS
330
E3
330
F1
330
D6
330
FD
330
107
102
}
330
A
100
AcDbSymbolTableRecord
100
AcDbDimStyleTableRecord
  2
SLDDIMSTYLE1
 70
     0
 41
3.302
 44
0.0
 45
0.000000001
 73
     0
 74
     0
 77
     1
 78
    12
 79
     3
140
3.5
147
0.875
172
     1
173
     1
178
     0
271
     2
272
     2
276
     2
284
    12
289
     0
340
94
  0
ENDTAB
  0
TABLE
  2
BLOCK_RECORD
  5
1
330
0
100
AcDbSymbolTable
 70
     9
  0
BLOCK_RECORD
  5
1F
330
1
100
AcDbSymbolTableRecord
100
AcDbBlockTableRecord
  2
*Model_Space
340
22
  0
BLOCK_RECORD
  5
1B
330
1
100
AcDbSymbolTableRecord
100
AcDbBlockTableRecord
  2
*Paper_Space
340
1E
  0
BLOCK_RECORD
  5
23
330
1
100
AcDbSymbolTableRecord
100
AcDbBlockTableRecord
  2
*Paper_Space0
340
26
  0
BLOCK_RECORD
  5
7F
330
1
100
AcDbSymbolTableRecord
100
AcDbBlockTableRecord
  2
블럭10
340
0
102
{BLKREFS
331
CF
102
}
  0
BLOCK_RECORD
  5
D8
330
1
100
AcDbSymbolTableRecord
100
AcDbBlockTableRecord
  2
_D
340
0
  0
BLOCK_RECORD
  5
E5
330
1
100
AcDbSymbolTableRecord
100
AcDbBlockTableRecord
  2
_D_1
340
0
  0
BLOCK_RECORD
  5
F2
330
1
100
AcDbSymbolTableRecord
100
AcDbBlockTableRecord
  2
_D_2
340
0
  0
BLOCK_RECORD
  5
FE
330
1
100
AcDbSymbolTableRecord
100
AcDbBlockTableRecord
  2
_D_3
340
0
  0
BLOCK_RECORD
  5
108
330
1
100
AcDbSymbolTableRecord
100
AcDbBlockTableRecord
  2
_D_4
340
0
  0
BLOCK_RECORD
  5
118
330
1
100
AcDbSymbolTableRecord
100
AcDbBlockTableRecord
  2
SW_DOWELSYMBOL_0
340
0
102
{BLKREFS
331
11E
102
}
  0
BLOCK_RECORD
  5
168
330
1
100
AcDbSymbolTableRecord
100
AcDbBlockTableRecord
  2
*D8
340
0
  0
ENDTAB
  0
ENDSEC
  0
SECTION
  2
BLOCKS
  0
BLOCK
  5
20
330
1F
100
AcDbEntity
  8
0
100
AcDbBlockBegin
  2
*Model_Space
 70
     0
 10
0.0
 20
0.0
 30
0.0
  3
*Model_Space
  1

  0
ENDBLK
  5
21
330
1F
100
AcDbEntity
  8
0
100
AcDbBlockEnd
  0
BLOCK
  5
1C
330
1B
100
AcDbEntity
 67
     1
  8
0
100
AcDbBlockBegin
  2
*Paper_Space
 70
     0
 10
0.0
 20
0.0
 30
0.0
  3
*Paper_Space
  1

  0
ENDBLK
  5
1D
330
1B
100
AcDbEntity
 67
     1
  8
0
100
AcDbBlockEnd
  0
BLOCK
  5
24
330
23
100
AcDbEntity
  8
0
100
AcDbBlockBegin
  2
*Paper_Space0
 70
     0
 10
0.0
 20
0.0
 30
0.0
  3
*Paper_Space0
  1

  0
ENDBLK
  5
25
330
23
100
AcDbEntity
  8
0
100
AcDbBlockEnd
  0
BLOCK
  5
80
330
7F
100
AcDbEntity
  8
0
100
AcDbBlockBegin
  2
블럭10
 70
     2
 10
0.0
 20
0.0
 30
0.0
  3
블럭10
  1

  0
ELLIPSE
  5
82
330
7F
100
AcDbEntity
  8
중심선
100
AcDbEllipse
 10
20.54032771741204
 20
12.0471743016438
 30
0.0
 11
6.600054785286829
 21
-1.261213355974178E-13
 31
0.0
210
0.0
220
0.0
230
1.0
 40
0.636358354079598
 41
0.9219305317359503
 42
6.513795318482858
  0
ELLIPSE
  5
83
330
7F
100
AcDbEntity
  8
중심선
100
AcDbEllipse
 10
20.54032771746488
 20
12.04717430159265
 30
0.0
 11
3.960054785062283
 21
1.540847449632565E-10
 31
0.0
210
0.0
220
0.0
230
1.0
 40
0.3939339440162632
 41
1.131841032648279
 42
5.62031148352944
  0
LINE
  5
84
330
7F
100
AcDbEntity
  8
중심선
100
AcDbLine
 10
2.268634060543552
 20
16.24717430164393
 30
0.0
 11
5.714909304380834
 21
16.24717430164393
 31
0.0
  0
LINE
  5
85
330
7F
100
AcDbEntity
  8
중심선
100
AcDbLine
 10
5.245725140726316
 20
7.84717430164391
 30
0.0
 11
8.692000384563599
 21
7.84717430164391
 31
0.0
  0
LINE
  5
86
330
7F
100
AcDbEntity
  8
중심선
100
AcDbLine
 10
15.74043728645272
 20
16.24717430164393
 30
0.0
 11
8.692000384563599
 21
7.84717430164391
 31
0.0
  0
LINE
  5
87
330
7F
100
AcDbEntity
  8
중심선
100
AcDbLine
 10
0.1404042013395286
 20
13.71084872107135
 30
0.0
 11
3.58671253028996
 21
13.71088815037384
 31
0.0
  0
LINE
  5
88
330
7F
100
AcDbEntity
  8
중심선
100
AcDbLine
 10
2.750260043222114
 20
10.84717430164391
 30
0.0
 11
6.196535287059397
 21
10.84717430164391
 31
0.0
  0
LINE
  5
89
330
7F
100
AcDbEntity
  8
중심선
100
AcDbLine
 10
12.29416204261559
 20
16.24717430164393
 30
0.0
 11
5.245725140726316
 21
7.84717430164391
 31
0.0
  0
LINE
  5
8A
330
7F
100
AcDbEntity
  8
중심선
100
AcDbLine
 10
10.72767329541681
 20
16.24717430164393
 30
0.0
 11
6.196535287059397
 21
10.84717430164391
 31
0.0
  0
LINE
  5
8B
330
7F
100
AcDbEntity
  8
중심선
100
AcDbLine
 10
7.28139805157953
 20
16.24717430164393
 30
0.0
 11
2.750260043222114
 21
10.84717430164391
 31
0.0
  0
LINE
  5
8C
330
7F
100
AcDbEntity
  8
중심선
100
AcDbLine
 10
5.714909304380834
 20
16.24717430164393
 30
0.0
 11
3.58671253028996
 21
13.71088815037384
 31
0.0
  0
LINE
  5
8D
330
7F
100
AcDbEntity
  8
중심선
100
AcDbLine
 10
2.268634060543552
 20
16.24717430164393
 30
0.0
 11
0.1404042013395286
 21
13.71084872107135
 31
0.0
  0
LINE
  5
8E
330
7F
100
AcDbEntity
  8
중심선
100
AcDbLine
 10
7.28139805157953
 20
16.24717430164393
 30
0.0
 11
10.72767329541681
 21
16.24717430164393
 31
0.0
  0
LINE
  5
8F
330
7F
100
AcDbEntity
  8
중심선
100
AcDbLine
 10
12.29416204261559
 20
16.24717430164393
 30
0.0
 11
15.74043728645272
 21
16.24717430164393
 31
0.0
  0
LINE
  5
90
330
7F
100
AcDbEntity
  8
중심선
100
AcDbLine
 10
19.22036997980202
 20
11.08717430171403
 30
0.0
 11
23.66174974927406
 21
11.08717430171406
 31
0.0
  0
LINE
  5
91
330
7F
100
AcDbEntity
  8
중심선
100
AcDbLine
 10
19.22039502424796
 20
13.00717430171391
 30
0.0
 11
19.22036997980202
 21
11.08717430171403
 31
0.0
  0
LINE
  5
92
330
7F
100
AcDbEntity
  8
중심선
100
AcDbLine
 10
19.22039502424796
 20
13.00717430171391
 30
0.0
 11
26.96566020931264
 21
13.00717430171391
 31
0.0
  0
LINE
  5
93
330
7F
100
AcDbEntity
  8
중심선
100
AcDbLine
 10
22.22332737316547
 20
13.45928029700563
 30
0.0
 11
24.52862924686651
 21
15.39360700705356
 31
0.0
  0
ATTDEF
  5
95
330
7F
100
AcDbEntity
  8
FORMAT
 62
     2
100
AcDbText
 10
-2.529476536452461
 20
2.075366912832191
 30
0.0
 40
4.233333333333333
  1
SEME6408020E
 41
0.75
  7
SLDTEXTSTYLE0
 11
-2.529476536452461
 21
-0.0412997538344756
 31
0.0
100
AcDbAttributeDefinition
  3

  2
AUTOATTR0
 70
     0
 74
     1
  0
ENDBLK
  5
81
330
7F
100
AcDbEntity
  8
0
100
AcDbBlockEnd
  0
BLOCK
  5
D9
330
D8
100
AcDbEntity
  8
0
100
AcDbBlockBegin
  2
_D
 70
     0
 10
0.0
 20
0.0
 30
0.0
  3
_D
  1

  0
LINE
  5
DB
330
D8
100
AcDbEntity
  8
치수문자_일반주서
 62
     0
370
    -2
100
AcDbLine
 10
17.36229656378855
 20
3.999999999999999
 30
0.0
 11
48.18636350776566
 21
4.000000000000114
 31
0.0
  0
LINE
  5
DC
330
D8
100
AcDbEntity
  8
치수문자_일반주서
 62
     0
370
    -2
100
AcDbLine
 10
17.36229656378855
 20
-3.999999999999998
 30
0.0
 11
48.18636350776569
 21
-3.999999999999886
 31
0.0
  0
LINE
  5
DD
330
D8
100
AcDbEntity
  8
치수문자_일반주서
 62
     0
370
    -2
100
AcDbLine
 10
48.18636350776566
 20
4.000000000000114
 30
0.0
 11
48.18636350776561
 21
16.72900000000011
 31
0.0
  0
LINE
  5
DE
330
D8
100
AcDbEntity
  8
치수문자_일반주서
 62
     0
370
    -2
100
AcDbLine
 10
48.18636350776566
 20
4.000000000000114
 30
0.0
 11
48.18636350776569
 21
-3.999999999999886
 31
0.0
  0
LINE
  5
DF
330
D8
100
AcDbEntity
  8
치수문자_일반주서
 62
     0
370
    -2
100
AcDbLine
 10
48.18636350776565
 20
7.302000000000113
 30
0.0
 11
48.18636350776563
 21
10.60400000000011
 31
0.0
  0
LINE
  5
E0
330
D8
100
AcDbEntity
  8
치수문자_일반주서
 62
     0
370
    -2
100
AcDbLine
 10
48.18636350776571
 20
-7.301999999999886
 30
0.0
 11
48.18636350776572
 21
-10.60399999999989
 31
0.0
  0
SOLID
  5
E1
330
D8
100
AcDbEntity
  8
치수문자_일반주서
 62
     0
100
AcDbTrace
 10
47.63603017443231
 20
7.302000000000112
 30
0.0
 11
48.73669684109898
 21
7.302000000000115
 31
0.0
 12
48.18636350776566
 22
4.000000000000114
 32
0.0
 13
48.18636350776566
 23
4.000000000000114
 33
0.0
  0
SOLID
  5
E2
330
D8
100
AcDbEntity
  8
치수문자_일반주서
 62
     0
100
AcDbTrace
 10
48.73669684109904
 20
-7.301999999999884
 30
0.0
 11
47.63603017443237
 21
-7.301999999999888
 31
0.0
 12
48.18636350776569
 22
-3.999999999999886
 32
0.0
 13
48.18636350776569
 23
-3.999999999999886
 33
0.0
  0
MTEXT
  5
14C
330
D8
100
AcDbEntity
  8
치수문자_일반주서
 62
     0
100
AcDbMText
 10
43.81136350776563
 20
13.6665000000001
 30
0.0
 40
3.5
 41
0.0
 71
     2
 72
     1
  1
\A1;%%c8
  7
SLDTEXTSTYLE0
 11
-3.552713678800503E-15
 21
1.0
 31
0.0
 73
     1
 44
1.0
  0
POINT
  5
14D
330
D8
100
AcDbEntity
  8
Defpoints
 62
     0
100
AcDbPoint
 10
17.29979656378855
 20
3.999999999999998
 30
0.0
  0
POINT
  5
14E
330
D8
100
AcDbEntity
  8
Defpoints
 62
     0
100
AcDbPoint
 10
17.29979656378855
 20
-3.999999999999998
 30
0.0
  0
POINT
  5
159
330
D8
100
AcDbEntity
  8
Defpoints
 62
     0
100
AcDbPoint
 10
48.18636350776569
 20
-3.999999999999883
 30
0.0
  0
ENDBLK
  5
DA
330
D8
100
AcDbEntity
  8
0
100
AcDbBlockEnd
  0
BLOCK
  5
E6
330
E5
100
AcDbEntity
  8
0
100
AcDbBlockBegin
  2
_D_1
 70
     0
 10
0.0
 20
0.0
 30
0.0
  3
_D_1
  1

  0
LINE
  5
E8
330
E5
100
AcDbEntity
  8
치수문자_일반주서
 62
     0
370
    -2
100
AcDbLine
 10
-44.11250000000001
 20
4.000000000000004
 30
0.0
 11
-54.03846843616483
 21
3.999999999999966
 31
0.0
  0
LINE
  5
E9
330
E5
100
AcDbEntity
  8
치수문자_일반주서
 62
     0
370
    -2
100
AcDbLine
 10
-44.11250000000001
 20
-4.000000000000004
 30
0.0
 11
-54.03846843616481
 21
-4.000000000000041
 31
0.0
  0
LINE
  5
EA
330
E5
100
AcDbEntity
  8
치수문자_일반주서
 62
     0
370
    -2
100
AcDbLine
 10
-54.03846843616483
 20
3.999999999999966
 30
0.0
 11
-54.03846843616481
 21
-4.000000000000041
 31
0.0
  0
LINE
  5
EB
330
E5
100
AcDbEntity
  8
치수문자_일반주서
 62
     0
370
    -2
100
AcDbLine
 10
-54.03846843616485
 20
7.301999999999966
 30
0.0
 11
-54.03846843616486
 21
10.60399999999997
 31
0.0
  0
LINE
  5
EC
330
E5
100
AcDbEntity
  8
치수문자_일반주서
 62
     0
370
    -2
100
AcDbLine
 10
-54.03846843616479
 20
-7.30200000000004
 30
0.0
 11
-54.03846843616478
 21
-10.60400000000004
 31
0.0
  0
SOLID
  5
ED
330
E5
100
AcDbEntity
  8
치수문자_일반주서
 62
     0
100
AcDbTrace
 10
-54.58880176949818
 20
7.301999999999964
 30
0.0
 11
-53.48813510283151
 21
7.301999999999968
 31
0.0
 12
-54.03846843616483
 22
3.999999999999966
 32
0.0
 13
-54.03846843616483
 23
3.999999999999966
 33
0.0
  0
SOLID
  5
EE
330
E5
100
AcDbEntity
  8
치수문자_일반주서
 62
     0
100
AcDbTrace
 10
-53.48813510283146
 20
-7.302000000000039
 30
0.0
 11
-54.58880176949813
 21
-7.302000000000042
 31
0.0
 12
-54.03846843616481
 22
-4.000000000000041
 32
0.0
 13
-54.03846843616481
 23
-4.000000000000041
 33
0.0
  0
MTEXT
  5
EF
330
E5
100
AcDbEntity
  8
치수문자_일반주서
 62
     0
100
AcDbMText
 10
-58.41346843616482
 20
-0.0000000000000126
 30
0.0
 40
3.5
 41
0.0
 71
     2
 72
     1
  1
\A1;%%c8
  7
SLDTEXTSTYLE0
 11
-3.552713678800498E-15
 21
1.0
 31
0.0
 73
     1
 44
1.0
  0
POINT
  5
F0
330
E5
100
AcDbEntity
  8
Defpoints
 62
     0
100
AcDbPoint
 10
-44.05000000000001
 20
4.000000000000004
 30
0.0
  0
POINT
  5
156
330
E5
100
AcDbEntity
  8
Defpoints
 62
     0
100
AcDbPoint
 10
-44.05000000000001
 20
-4.000000000000004
 30
0.0
  0
POINT
  5
157
330
E5
100
AcDbEntity
  8
Defpoints
 62
     0
100
AcDbPoint
 10
-54.03846843616481
 20
-4.000000000000041
 30
0.0
  0
ENDBLK
  5
E7
330
E5
100
AcDbEntity
  8
0
100
AcDbBlockEnd
  0
BLOCK
  5
F3
330
F2
100
AcDbEntity
  8
0
100
AcDbBlockBegin
  2
_D_2
 70
     0
 10
0.0
 20
0.0
 30
0.0
  3
_D_2
  1

  0
LINE
  5
F5
330
F2
100
AcDbEntity
  8
치수문자_일반주서
 62
     0
370
    -2
100
AcDbLine
 10
25.15
 20
2.059985743343442
 30
0.0
 11
25.15
 21
12.13352450738645
 31
0.0
  0
LINE
  5
F6
330
F2
100
AcDbEntity
  8
치수문자_일반주서
 62
     0
370
    -2
100
AcDbLine
 10
13.14999999999958
 20
3.940954087803585
 30
0.0
 11
13.14999999999958
 21
12.13352450738645
 31
0.0
  0
LINE
  5
F7
330
F2
100
AcDbEntity
  8
치수문자_일반주서
 62
     0
370
    -2
100
AcDbLine
 10
21.848
 20
12.13352450738645
 30
0.0
 11
16.45199999999958
 21
12.13352450738645
 31
0.0
  0
SOLID
  5
F8
330
F2
100
AcDbEntity
  8
치수문자_일반주서
 62
     0
100
AcDbTrace
 10
21.848
 20
11.58319117405311
 30
0.0
 11
21.848
 21
12.68385784071978
 31
0.0
 12
25.15
 22
12.13352450738645
 32
0.0
 13
25.15
 23
12.13352450738645
 33
0.0
  0
SOLID
  5
F9
330
F2
100
AcDbEntity
  8
치수문자_일반주서
 62
     0
100
AcDbTrace
 10
16.45199999999958
 20
12.68385784071978
 30
0.0
 11
16.45199999999958
 21
11.58319117405311
 31
0.0
 12
13.14999999999958
 22
12.13352450738645
 32
0.0
 13
13.14999999999958
 23
12.13352450738645
 33
0.0
  0
MTEXT
  5
FA
330
F2
100
AcDbEntity
  8
치수문자_일반주서
 62
     0
100
AcDbMText
 10
19.14999999999979
 20
16.50852450738645
 30
0.0
 40
3.5
 41
0.0
 71
     2
 72
     1
  1
\A1;12
  7
SLDTEXTSTYLE0
 73
     1
 44
1.0
  0
POINT
  5
FB
330
F2
100
AcDbEntity
  8
Defpoints
 62
     0
100
AcDbPoint
 10
25.15
 20
1.997485743343442
 30
0.0
  0
POINT
  5
FC
330
F2
100
AcDbEntity
  8
Defpoints
 62
     0
100
AcDbPoint
 10
13.14999999999958
 20
3.878454087803585
 30
0.0
  0
POINT
  5
14F
330
F2
100
AcDbEntity
  8
Defpoints
 62
     0
100
AcDbPoint
 10
13.14999999999958
 20
12.13352450738645
 30
0.0
  0
ENDBLK
  5
F4
330
F2
100
AcDbEntity
  8
0
100
AcDbBlockEnd
  0
BLOCK
  5
FF
330
FE
100
AcDbEntity
  8
0
100
AcDbBlockBegin
  2
_D_3
 70
     0
 10
0.0
 20
0.0
 30
0.0
  3
_D_3
  1

  0
LINE
  5
101
330
FE
100
AcDbEntity
  8
치수문자_일반주서
 62
     0
370
    -2
100
AcDbLine
 10
25.15
 20
2.059985743343442
 30
0.0
 11
25.15
 21
18.13352450738642
 31
0.0
  0
LINE
  5
102
330
FE
100
AcDbEntity
  8
치수문자_일반주서
 62
     0
370
    -2
100
AcDbLine
 10
0.1499999999999968
 20
3.912500000000001
 30
0.0
 11
0.1499999999999968
 21
18.13352450738642
 31
0.0
  0
LINE
  5
103
330
FE
100
AcDbEntity
  8
치수문자_일반주서
 62
     0
370
    -2
100
AcDbLine
 10
21.848
 20
18.13352450738642
 30
0.0
 11
3.451999999999996
 21
18.13352450738642
 31
0.0
  0
SOLID
  5
104
330
FE
100
AcDbEntity
  8
치수문자_일반주서
 62
     0
100
AcDbTrace
 10
21.848
 20
17.58319117405309
 30
0.0
 11
21.848
 21
18.68385784071976
 31
0.0
 12
25.15
 22
18.13352450738642
 32
0.0
 13
25.15
 23
18.13352450738642
 33
0.0
  0
SOLID
  5
105
330
FE
100
AcDbEntity
  8
치수문자_일반주서
 62
     0
100
AcDbTrace
 10
3.451999999999996
 20
18.68385784071976
 30
0.0
 11
3.451999999999996
 21
17.58319117405309
 31
0.0
 12
0.1499999999999968
 22
18.13352450738642
 32
0.0
 13
0.1499999999999968
 23
18.13352450738642
 33
0.0
  0
MTEXT
  5
106
330
FE
100
AcDbEntity
  8
치수문자_일반주서
 62
     0
100
AcDbMText
 10
12.65
 20
22.50852450738642
 30
0.0
 40
3.5
 41
0.0
 71
     2
 72
     1
  1
\A1;25
  7
SLDTEXTSTYLE0
 73
     1
 44
1.0
  0
POINT
  5
150
330
FE
100
AcDbEntity
  8
Defpoints
 62
     0
100
AcDbPoint
 10
25.15
 20
1.997485743343442
 30
0.0
  0
POINT
  5
151
330
FE
100
AcDbEntity
  8
Defpoints
 62
     0
100
AcDbPoint
 10
0.1499999999999968
 20
3.850000000000001
 30
0.0
  0
POINT
  5
152
330
FE
100
AcDbEntity
  8
Defpoints
 62
     0
100
AcDbPoint
 10
0.1499999999999968
 20
18.13352450738642
 30
0.0
  0
ENDBLK
  5
100
330
FE
100
AcDbEntity
  8
0
100
AcDbBlockEnd
  0
BLOCK
  5
109
330
108
100
AcDbEntity
  8
0
100
AcDbBlockBegin
  2
_D_4
 70
     0
 10
0.0
 20
0.0
 30
0.0
  3
_D_4
  1

  0
LINE
  5
10B
330
108
100
AcDbEntity
  8
치수문자_일반주서
 62
     0
370
    -2
100
AcDbLine
 10
25.15
 20
2.059985743343442
 30
0.0
 11
25.14999999999999
 21
26.54102180854834
 31
0.0
  0
LINE
  5
10C
330
108
100
AcDbEntity
  8
치수문자_일반주서
 62
     0
370
    -2
100
AcDbLine
 10
-44.85000000000001
 20
3.262500000000008
 30
0.0
 11
-44.85000000000001
 21
26.54102180854834
 31
0.0
  0
LINE
  5
10D
330
108
100
AcDbEntity
  8
치수문자_일반주서
 62
     0
370
    -2
100
AcDbLine
 10
21.84799999999999
 20
26.54102180854834
 30
0.0
 11
-41.54800000000001
 21
26.54102180854834
 31
0.0
  0
SOLID
  5
10E
330
108
100
AcDbEntity
  8
치수문자_일반주서
 62
     0
100
AcDbTrace
 10
21.84799999999999
 20
25.990688475215
 30
0.0
 11
21.84799999999999
 21
27.09135514188167
 31
0.0
 12
25.14999999999999
 22
26.54102180854834
 32
0.0
 13
25.14999999999999
 23
26.54102180854834
 33
0.0
  0
SOLID
  5
10F
330
108
100
AcDbEntity
  8
치수문자_일반주서
 62
     0
100
AcDbTrace
 10
-41.54800000000001
 20
27.09135514188167
 30
0.0
 11
-41.54800000000001
 21
25.990688475215
 31
0.0
 12
-44.85000000000001
 22
26.54102180854834
 32
0.0
 13
-44.85000000000001
 23
26.54102180854834
 33
0.0
  0
MTEXT
  5
110
330
108
100
AcDbEntity
  8
치수문자_일반주서
 62
     0
100
AcDbMText
 10
-9.850000000000005
 20
30.91602180854834
 30
0.0
 40
3.5
 41
0.0
 71
     2
 72
     1
  1
\A1;70
  7
SLDTEXTSTYLE0
 73
     1
 44
1.0
  0
POINT
  5
153
330
108
100
AcDbEntity
  8
Defpoints
 62
     0
100
AcDbPoint
 10
25.15
 20
1.997485743343442
 30
0.0
  0
POINT
  5
154
330
108
100
AcDbEntity
  8
Defpoints
 62
     0
100
AcDbPoint
 10
-44.85000000000001
 20
3.200000000000008
 30
0.0
  0
POINT
  5
155
330
108
100
AcDbEntity
  8
Defpoints
 62
     0
100
AcDbPoint
 10
-44.85000000000001
 20
26.54102180854834
 30
0.0
  0
ENDBLK
  5
10A
330
108
100
AcDbEntity
  8
0
100
AcDbBlockEnd
  0
BLOCK
  5
119
330
118
100
AcDbEntity
  8
0
100
AcDbBlockBegin
  2
SW_DOWELSYMBOL_0
 70
     0
 10
0.0
 20
0.0
 30
0.0
  3
SW_DOWELSYMBOL_0
  1

  0
CIRCLE
  5
11B
330
118
100
AcDbEntity
  8
해칭선
 62
     0
100
AcDbCircle
 10
0.0
 20
0.0
 30
0.0
 40
3.000000000000001
  0
HATCH
  5
11C
330
118
100
AcDbEntity
  8
0
  6
Continuous
 62
     0
370
     0
100
AcDbHatch
 10
0.0
 20
0.0
 30
0.0
210
0.0
220
0.0
230
1.0
  2
SOLID
 70
     1
 71
     0
 91
        1
 92
        0
 93
        3
 72
     2
 10
0.0
 20
0.0
 40
3.000000000000001
 50
0.0
 51
90.0
 73
     1
 72
     1
 10
0.0
 20
3.000000000000001
 11
0.0
 21
0.0
 72
     1
 10
0.0
 20
0.0
 11
3.000000000000001
 21
0.0
 97
        0
 75
     0
 76
     1
 98
        1
 10
0.0
 20
0.0
  0
HATCH
  5
11D
330
118
100
AcDbEntity
  8
0
  6
Continuous
 62
     0
370
     0
100
AcDbHatch
 10
0.0
 20
0.0
 30
0.0
210
0.0
220
0.0
230
1.0
  2
SOLID
 70
     1
 71
     0
 91
        1
 92
        0
 93
        3
 72
     2
 10
0.0
 20
0.0
 40
3.000000000000001
 50
180.0
 51
270.0000000000008
 73
     1
 72
     1
 10
0.0
 20
-3.000000000000001
 11
0.0
 21
0.0
 72
     1
 10
0.0
 20
0.0
 11
-3.000000000000001
 21
0.0
 97
        0
 75
     0
 76
     1
 98
        1
 10
0.0
 20
0.0
  0
ENDBLK
  5
11A
330
118
100
AcDbEntity
  8
0
100
AcDbBlockEnd
  0
BLOCK
  5
169
330
168
100
AcDbEntity
  8
0
100
AcDbBlockBegin
  2
*D8
 70
     1
 10
0.0
 20
0.0
 30
0.0
  3
*D8
  1

  0
LINE
  5
16B
330
168
100
AcDbEntity
  8
0
 62
     0
370
    -2
100
AcDbLine
 10
45.91743742288678
 20
-11.14140389698759
 30
0.0
 11
30.97677075622011
 21
-11.14140389698759
 31
0.0
  0
LINE
  5
16C
330
168
100
AcDbEntity
  8
0
 62
     0
370
    -2
100
AcDbLine
 10
30.97677075622011
 20
-11.14140389698759
 30
0.0
 11
26.59773388346476
 21
-6.025430016643273
 31
0.0
  0
MTEXT
  5
16D
330
168
100
AcDbEntity
  8
0
 62
     0
100
AcDbMText
 10
39.20910408955345
 20
-7.575737230320924
 30
0.0
 40
3.5
 41
0.0
 71
     5
 72
     1
  1
R2,00
 73
     1
 44
1.0
  0
LINE
  5
16E
330
168
100
AcDbEntity
  8
0
 62
     0
370
    -2
100
AcDbLine
 10
23.15
 20
-1.997485743343431
 30
0.0
 11
24.45054088399274
 21
-3.516891353792259
 31
0.0
  0
SOLID
  5
16F
330
168
100
AcDbEntity
  8
0
 62
     0
100
AcDbTrace
 10
27.0158236606066
 20
-5.667564516731271
 30
0.0
 11
26.17964410632292
 21
-6.383295516555276
 31
0.0
 12
24.45054088399274
 22
-3.516891353792259
 32
0.0
 13
24.45054088399274
 23
-3.516891353792259
 33
0.0
  0
POINT
  5
170
330
168
100
AcDbEntity
  8
Defpoints
 62
     0
100
AcDbPoint
 10
24.45054088399274
 20
-3.516891353792259
 30
0.0
  0
POINT
  5
171
330
168
100
AcDbEntity
  8
Defpoints
 62
     0
100
AcDbPoint
 10
23.15
 20
-1.997485743343431
 30
0.0
  0
ENDBLK
  5
16A
330
168
100
AcDbEntity
  8
0
100
AcDbBlockEnd
  0
ENDSEC
  0
SECTION
  2
ENTITIES
  0
LINE
  5
96
330
1F
100
AcDbEntity
  8
외형선
  6
Continuous
 62
     1
370
    15
100
AcDbLine
 10
17.30088736856454
 20
3.999999999999998
 30
0.0
 11
14.8615703968331
 21
3.999999999999997
 31
0.0
  0
ARC
  5
97
330
1F
100
AcDbEntity
  8
외형선
  6
Continuous
 62
     1
370
    15
100
AcDbCircle
 10
23.15
 20
-1.999999999999997
 30
0.0
 40
2.0
100
AcDbArc
 50
355.9396331519962
 51
0.0
  0
LINE
  5
98
330
1F
100
AcDbEntity
  8
외형선
  6
Continuous
 62
     1
370
    15
100
AcDbLine
 10
14.86157039683304
 20
-3.999999999999999
 30
0.0
 11
17.30088736856455
 21
-3.999999999999998
 31
0.0
  0
ARC
  5
99
330
1F
100
AcDbEntity
  8
외형선
  6
Continuous
 62
     1
370
    15
100
AcDbCircle
 10
23.15
 20
1.999999999999999
 30
0.0
 40
2.0
100
AcDbArc
 50
0.0000000000000191
 51
4.038696310466088
  0
LINE
  5
9A
330
1F
100
AcDbEntity
  8
외형선
  6
Continuous
370
    15
100
AcDbLine
 10
-44.05
 20
-4.0
 30
0.0
 11
0.0
 21
-4.0
 31
0.0
  0
LINE
  5
9B
330
1F
100
AcDbEntity
  8
외형선
  6
Continuous
370
    15
100
AcDbLine
 10
0.0
 20
4.0
 30
0.0
 11
-44.05
 21
4.0
 31
0.0
  0
LINE
  5
9C
330
1F
100
AcDbEntity
  8
외형선
  6
Continuous
370
    15
100
AcDbLine
 10
-44.05
 20
4.0
 30
0.0
 11
-44.85000000000001
 21
3.200000000000008
 31
0.0
  0
LINE
  5
9D
330
1F
100
AcDbEntity
  8
외형선
  6
Continuous
370
    15
100
AcDbLine
 10
-44.85000000000001
 20
-3.200000000000008
 30
0.0
 11
-44.05
 21
-4.0
 31
0.0
  0
LINE
  5
9E
330
1F
100
AcDbEntity
  8
외형선
  6
Continuous
370
    15
100
AcDbLine
 10
0.0
 20
-4.0
 30
0.0
 11
0.1499999999999968
 21
-3.850000000000001
 31
0.0
  0
LINE
  5
9F
330
1F
100
AcDbEntity
  8
외형선
  6
Continuous
370
    15
100
AcDbLine
 10
0.1499999999999968
 20
3.850000000000001
 30
0.0
 11
0.0
 21
4.0
 31
0.0
  0
LINE
  5
A0
330
1F
100
AcDbEntity
  8
외형선
  6
Continuous
370
    15
100
AcDbLine
 10
0.1499999999999968
 20
-3.850000000000001
 30
0.0
 11
12.14965477449866
 21
-3.850000000000001
 31
0.0
  0
LINE
  5
A1
330
1F
100
AcDbEntity
  8
외형선
  6
Continuous
370
    15
100
AcDbLine
 10
12.14965477449866
 20
3.850000000000001
 30
0.0
 11
0.1499999999999968
 21
3.850000000000001
 31
0.0
  0
SPLINE
  5
A2
330
1F
100
AcDbEntity
  8
외형선
  6
Continuous
 62
     1
370
    15
100
AcDbSpline
210
0.0
220
0.0
230
1.0
 70
     8
 71
     3
 72
    22
 73
    18
 74
     0
 42
0.000000001
 43
0.00000001
 40
0.0
 40
0.0
 40
0.0
 40
0.0
 40
0.125
 40
0.125
 40
0.25
 40
0.25
 40
0.375
 40
0.375
 40
0.5
 40
0.5
 40
0.625
 40
0.625
 40
0.75
 40
0.75
 40
0.875
 40
0.875
 40
1.0
 40
1.0
 40
1.0
 40
1.0
 10
23.15
 20
1.463506054986256
 30
0.0
 10
23.27441274425458
 20
1.396637761268904
 30
0.0
 10
23.39836947627599
 20
1.328329810552026
 30
0.0
 10
23.64681608732095
 20
1.191426398368661
 30
0.0
 10
23.77297654265272
 20
1.122181160229925
 30
0.0
 10
24.01644264513288
 20
0.989456432125054
 30
0.0
 10
24.13402747723584
 20
0.9258246615380341
 30
0.0
 10
24.3596821838021
 20
0.8019850078142317
 30
0.0
 10
24.46714970265511
 20
0.7420408179534964
 30
0.0
 10
24.66017219246753
 20
0.6267829553196612
 30
0.0
 10
24.7477826310244
 20
0.5702482323828746
 30
0.0
 10
24.89866370528133
 20
0.4555065340150022
 30
0.0
 10
24.96102893457154
 20
0.3980745021251192
 30
0.0
 10
25.05974040509188
 20
0.2750322576562693
 30
0.0
 10
25.09587098986516
 20
0.2088935828277567
 30
0.0
 10
25.14076622499418
 20
0.065425112750255
 30
0.0
 10
25.15000000000001
 20
-0.0124366985938643
 30
0.0
 10
25.15
 20
-0.1002532051346718
 30
0.0
  0
LINE
  5
A3
330
1F
100
AcDbEntity
  8
외형선
  6
Continuous
 62
     1
370
    15
100
AcDbLine
 10
25.15
 20
-1.679746794865286
 30
0.0
 11
25.15
 21
-0.1002532051346707
 31
0.0
  0
SPLINE
  5
A4
330
1F
100
AcDbEntity
  8
외형선
  6
Continuous
 62
     1
370
    15
100
AcDbSpline
210
0.0
220
0.0
230
1.0
 70
     8
 71
     3
 72
    20
 73
    16
 74
     0
 42
0.000000001
 43
0.00000001
 40
0.0
 40
0.0
 40
0.0
 40
0.0
 40
0.1250000000000012
 40
0.1250000000000012
 40
0.2500000000000024
 40
0.2500000000000024
 40
0.3750000000000036
 40
0.3750000000000036
 40
0.5000000000000048
 40
0.5000000000000048
 40
0.625000000000006
 40
0.625000000000006
 40
0.7500000000000071
 40
0.7500000000000071
 40
1.0
 40
1.0
 40
1.0
 40
1.0
 10
25.15
 20
-1.679746794865286
 30
0.0
 10
25.15000000000001
 20
-1.824203057703098
 30
0.0
 10
25.14072614905729
 20
-1.967703644275606
 30
0.0
 10
25.09068517606548
 20
-2.251506020504958
 30
0.0
 10
25.0500241534922
 20
-2.388178126623724
 30
0.0
 10
24.93705214659601
 20
-2.634028157680826
 30
0.0
 10
24.86660474302949
 20
-2.740314439283051
 30
0.0
 10
24.70308622641402
 20
-2.917834322016979
 30
0.0
 10
24.61280662756158
 20
-2.98650963274171
 30
0.0
 10
24.41764376322025
 20
-3.090713463294732
 30
0.0
 10
24.31574987375879
 20
-3.124755170099777
 30
0.0
 10
24.10175300113865
 20
-3.164639429590489
 30
0.0
 10
23.98914311911137
 20
-3.170051928462434
 30
0.0
 10
23.64544421998339
 20
-3.149291247833491
 30
0.0
 10
23.40225882628184
 20
-3.086531351343906
 30
0.0
 10
23.15
 20
-2.989749376734266
 30
0.0
  0
SPLINE
  5
A5
330
1F
100
AcDbEntity
  8
외형선
  6
Continuous
 62
     1
370
    15
100
AcDbSpline
210
0.0
220
0.0
230
1.0
 70
     8
 71
     3
 72
    26
 73
    22
 74
     0
 42
0.000000001
 43
0.00000001
 40
0.0
 40
0.0
 40
0.0
 40
0.0
 40
0.1250000000000031
 40
0.1250000000000031
 40
0.2500000000000062
 40
0.2500000000000062
 40
0.3750000000000093
 40
0.3750000000000093
 40
0.4375000000000109
 40
0.4375000000000109
 40
0.5000000000000124
 40
0.5000000000000124
 40
0.6250000000000093
 40
0.6250000000000093
 40
0.7500000000000062
 40
0.7500000000000062
 40
0.8750000000000031
 40
0.8750000000000031
 40
0.9375000000000016
 40
0.9375000000000016
 40
1.0
 40
1.0
 40
1.0
 40
1.0
 10
23.15
 20
-2.989749376734264
 30
0.0
 10
22.73351177945865
 20
-2.829958922700325
 30
0.0
 10
22.31286359258692
 20
-2.653297869515736
 30
0.0
 10
21.48361915801421
 20
-2.274924445670437
 30
0.0
 10
21.06538588509551
 20
-2.071800263407857
 30
0.0
 10
20.23030917049818
 20
-1.645472854277003
 30
0.0
 10
19.81734545201482
 20
-1.423013840777456
 30
0.0
 10
19.19017724528372
 20
-1.078199528820218
 30
0.0
 10
18.98089947923427
 20
-0.9615959958259376
 30
0.0
 10
18.56445105163697
 20
-0.7264913761340484
 30
0.0
 10
18.35817076305526
 20
-0.6081640624609309
 30
0.0
 10
17.73367153279009
 20
-0.2501208520852214
 30
0.0
 10
17.31299179978047
 20
-0.0079354432599291
 30
0.0
 10
16.48331538101112
 20
0.4716772523050965
 30
0.0
 10
16.0655454298774
 20
0.710785252163502
 30
0.0
 10
15.23028700121165
 20
1.178657828774535
 30
0.0
 10
14.81740614772019
 20
1.406588217101001
 30
0.0
 10
14.19029190691276
 20
1.736619688090411
 30
0.0
 10
13.98098524007207
 20
1.84446112291662
 30
0.0
 10
13.56438640156463
 20
2.054507447856787
 30
0.0
 10
13.35808534122108
 20
2.156559922410892
 30
0.0
 10
13.14999999999947
 20
2.255848744379531
 30
0.0
  0
SPLINE
  5
A6
330
1F
100
AcDbEntity
  8
외형선
  6
Continuous
370
    15
100
AcDbSpline
210
0.0
220
0.0
230
1.0
 70
    24
 71
     3
 72
    12
 73
     8
 74
     0
 42
0.000000001
 43
0.00000001
 40
0.0
 40
0.0
 40
0.0
 40
0.0
 40
0.1463560289995192
 40
0.3832914611958974
 40
0.6270980369771137
 40
0.8119499972697526
 40
1.0
 40
1.0
 40
1.0
 40
1.0
 10
13.15000000000002
 20
2.304251509237236
 30
0.0
 10
13.15000000000003
 20
2.369467076226147
 30
0.0
 10
13.15000000000003
 20
2.540259971706938
 30
0.0
 10
13.15000000000004
 20
2.861630204963532
 30
0.0
 10
13.14999999999998
 20
3.219746346879516
 30
0.0
 10
13.15000000000009
 20
3.563543228845792
 30
0.0
 10
13.14999999999977
 20
3.772885355537374
 30
0.0
 10
13.14999999999958
 20
3.878454087803585
 30
0.0
  0
SPLINE
  5
A7
330
1F
100
AcDbEntity
  8
외형선
  6
Continuous
 62
     1
370
    15
100
AcDbSpline
210
0.0
220
0.0
230
1.0
 70
     8
 71
     3
 72
    26
 73
    22
 74
     0
 42
0.000000001
 43
0.00000001
 40
0.0
 40
0.0
 40
0.0
 40
0.0
 40
0.1250000000000037
 40
0.1250000000000037
 40
0.2500000000000074
 40
0.2500000000000074
 40
0.3750000000000111
 40
0.3750000000000111
 40
0.4375000000000114
 40
0.4375000000000114
 40
0.5000000000000117
 40
0.5000000000000117
 40
0.6250000000000091
 40
0.6250000000000091
 40
0.7500000000000066
 40
0.7500000000000066
 40
0.8750000000000041
 40
0.8750000000000041
 40
0.937500000000002
 40
0.937500000000002
 40
1.0
 40
1.0
 40
1.0
 40
1.0
 10
23.15
 20
1.463506054986264
 30
0.0
 10
22.73351177945861
 20
1.687356568274442
 30
0.0
 10
22.31286359258685
 20
1.90393780714469
 30
0.0
 10
21.48361915801413
 20
2.312156301590376
 30
0.0
 10
21.06538588509541
 20
2.505397573925399
 30
0.0
 10
20.23030917049804
 20
2.862390796468014
 30
0.0
 10
19.81734545201473
 20
3.025690863237462
 30
0.0
 10
19.1901772452835
 20
3.245732898485604
 30
0.0
 10
18.98089947923404
 20
3.314784320342063
 30
0.0
 10
18.56445105163677
 20
3.443488460458538
 30
0.0
 10
18.35817076305502
 20
3.503074422219773
 30
0.0
 10
17.73367153278981
 20
3.667909032353334
 30
0.0
 10
17.31299179978018
 20
3.758725403789078
 30
0.0
 10
16.48331538101076
 20
3.897954775013131
 30
0.0
 10
16.06554542987706
 20
3.946932871688536
 30
0.0
 10
15.2302870012113
 20
4.001509514528368
 30
0.0
 10
14.81740614771978
 20
4.007155562790044
 30
0.0
 10
14.19029190691234
 20
3.98305609637383
 30
0.0
 10
13.98098524007161
 20
3.969583066257376
 30
0.0
 10
13.56438640156419
 20
3.931959734746825
 30
0.0
 10
13.35808534122065
 20
3.90786820703658
 30
0.0
 10
13.14999999999902
 20
3.878454087803518
 30
0.0
  0
SPLINE
  5
A9
330
1F
100
AcDbEntity
  8
외형선
  6
Continuous
 62
     1
370
    15
100
AcDbSpline
210
0.0
220
0.0
230
1.0
 70
     8
 71
     3
 72
    13
 73
     9
 74
     0
 42
0.000000001
 43
0.00000001
 40
0.0
 40
0.0
 40
0.0
 40
0.0
 40
0.139908508710695
 40
0.3071954938010461
 40
0.4744023342829731
 40
0.6495732788113096
 40
0.8247631956207075
 40
1.0
 40
1.0
 40
1.0
 40
1.0
 10
21.51887259396929
 20
-3.271714613255339
 30
0.0
 10
21.12850415250043
 20
-3.395318725678748
 30
0.0
 10
20.27137668222377
 20
-3.666714845197575
 30
0.0
 10
18.94800074462096
 20
-3.911399482895393
 30
0.0
 10
17.52641656516687
 20
-4.027601428356779
 30
0.0
 10
16.08263064471326
 20
-3.965889409091424
 30
0.0
 10
14.61646910361404
 20
-3.737845698913113
 30
0.0
 10
13.63886663604905
 20
-3.448096457612869
 30
0.0
 10
13.14999999999947
 20
-3.303202452542294
 30
0.0
  0
SPLINE
  5
AA
330
1F
100
AcDbEntity
  8
외형선
  6
Continuous
370
    15
100
AcDbSpline
210
0.0
220
0.0
230
1.0
 70
    24
 71
     3
 72
    22
 73
    18
 74
     0
 42
0.000000001
 43
0.00000001
 40
0.0
 40
0.0
 40
0.0
 40
0.0
 40
0.0531627337183087
 40
0.1071407741201323
 40
0.1793927609439253
 40
0.2537400602803043
 40
0.3259920471041404
 40
0.400339346440567
 40
0.4725913332643795
 40
0.5469386326007796
 40
0.6191906194245945
 40
0.6935379187609977
 40
0.7657899055848336
 40
0.8401372049212134
 40
0.9123891917450244
 40
0.9867364910814231
 40
1.0
 40
1.0
 40
1.0
 40
1.0
 10
13.15000000000002
 20
-3.303202452542465
 30
0.0
 10
13.15000000000004
 20
-3.239968177858076
 30
0.0
 10
13.15000000000007
 20
-3.112529864085334
 30
0.0
 10
13.14999999999996
 20
-2.862083065255931
 30
0.0
 10
13.14999999999999
 20
-2.551570574997051
 30
0.0
 10
13.14999999999999
 20
-2.179789741682883
 30
0.0
 10
13.14999999999998
 20
-1.783097288685586
 30
0.0
 10
13.15000000000008
 20
-1.379595707272666
 30
0.0
 10
13.15000000000001
 20
-0.973517017219855
 30
0.0
 10
13.14999999999998
 20
-0.5836370989323113
 30
0.0
 10
13.14999999999999
 20
-0.2140086209267863
 30
0.0
 10
13.15
 20
0.1183635412678179
 30
0.0
 10
13.15
 20
0.4096468063855835
 30
0.0
 10
13.15000000000004
 20
0.647868356669291
 30
0.0
 10
13.15000000000003
 20
0.8249093287645981
 30
0.0
 10
13.15
 20
0.9189634511608894
 30
0.0
 10
13.15000000000001
 20
0.9397643270837109
 30
0.0
 10
13.15
 20
0.9429133974873717
 30
0.0
  0
SPLINE
  5
AB
330
1F
100
AcDbEntity
  8
외형선
  6
Continuous
 62
     1
370
    15
100
AcDbSpline
210
0.0
220
0.0
230
1.0
 70
     8
 71
     3
 72
    26
 73
    22
 74
     0
 42
0.000000001
 43
0.00000001
 40
0.0
 40
0.0
 40
0.0
 40
0.0
 40
0.1250000000000037
 40
0.1250000000000037
 40
0.2500000000000075
 40
0.2500000000000075
 40
0.3750000000000112
 40
0.3750000000000112
 40
0.4375000000000115
 40
0.4375000000000115
 40
0.5000000000000119
 40
0.5000000000000119
 40
0.6250000000000093
 40
0.6250000000000093
 40
0.7500000000000067
 40
0.7500000000000067
 40
0.8750000000000041
 40
0.8750000000000041
 40
0.9375000000000021
 40
0.9375000000000021
 40
1.0
 40
1.0
 40
1.0
 40
1.0
 10
23.15
 20
-3.997485743343431
 30
0.0
 10
22.71531640647763
 20
-3.800738259875197
 30
0.0
 10
22.30836679486036
 20
-3.68769670109262
 30
0.0
 10
21.48361915801414
 20
-3.272860250336918
 30
0.0
 10
21.06538588509541
 20
-3.127448450917767
 30
0.0
 10
20.23030917049804
 20
-2.804401851531704
 30
0.0
 10
19.81734545201471
 20
-2.627393896024499
 30
0.0
 10
19.19017724528351
 20
-2.340879946275485
 30
0.0
 10
18.98089947923404
 20
-2.242023061133139
 30
0.0
 10
18.56445105163677
 20
-2.038835383185042
 30
0.0
 10
18.35817076305501
 20
-1.934665194630099
 30
0.0
 10
17.73367153278981
 20
-1.6137789879889
 30
0.0
 10
17.31299179978019
 20
-1.389130776229118
 30
0.0
 10
16.48331538101078
 20
-0.929327470006432
 30
0.0
 10
16.06554542987707
 20
-0.6925894359176444
 30
0.0
 10
15.23028700121127
 20
-0.2141980987290482
 30
0.0
 10
14.81740614771978
 20
0.02654906956871
 30
0.0
 10
14.19029190691234
 20
0.3869938920871319
 30
0.0
 10
13.98098524007162
 20
0.5068296125441006
 30
0.0
 10
13.56438640156418
 20
0.7444183100908742
 30
0.0
 10
13.35808534122063
 20
0.8619873252023208
 30
0.0
 10
13.14999999999901
 20
0.9785672632987897
 30
0.0
  0
LINE
  5
AC
330
1F
100
AcDbEntity
  8
외형선
  6
Continuous
370
    15
100
AcDbLine
 10
13.15000000000002
 20
2.255848744379288
 30
0.0
 11
13.14999999999958
 21
0.9785672632985297
 31
0.0
  0
SPLINE
  5
AD
330
1F
100
AcDbEntity
  8
외형선
  6
Continuous
 62
     1
370
    15
100
AcDbSpline
210
0.0
220
0.0
230
1.0
 70
     8
 71
     3
 72
     8
 73
     4
 74
     0
 42
0.000000001
 43
0.00000001
 40
0.0
 40
0.0
 40
0.0
 40
0.0
 40
1.0
 40
1.0
 40
1.0
 40
1.0
 10
25.15
 20
1.085564694129171
 30
0.0
 10
25.15
 20
1.074300277741348
 30
0.0
 10
25.14689653293433
 20
1.068234093861602
 30
0.0
 10
25.13941379137709
 20
1.068049491668039
 30
0.0
  0
SPLINE
  5
AE
330
1F
100
AcDbEntity
  8
외형선
  6
Continuous
 62
     1
370
    15
100
AcDbSpline
210
0.0
220
0.0
230
1.0
 70
     8
 71
     3
 72
    16
 73
    12
 74
     0
 42
0.000000001
 43
0.00000001
 40
0.0
 40
0.0
 40
0.0
 40
0.0
 40
0.0641749292778475
 40
0.1882496282414565
 40
0.312198267601834
 40
0.4437310726107657
 40
0.5422752420869756
 40
0.6436451168215434
 40
0.7443932316347225
 40
0.8472049219144066
 40
1.0
 40
1.0
 40
1.0
 40
1.0
 10
25.13115099996818
 20
1.072200487718232
 30
0.0
 10
25.12262792259605
 20
1.075305331683797
 30
0.0
 10
25.0976264747591
 20
1.084413027303294
 30
0.0
 10
24.99024121456679
 20
1.183019709236404
 30
0.0
 10
24.79258423647848
 20
1.382113510457987
 30
0.0
 10
24.55880324647621
 20
1.617738139760862
 30
0.0
 10
24.3154034981033
 20
1.849765236998939
 30
0.0
 10
24.07910310535814
 20
2.059154528786969
 30
0.0
 10
23.82677512198098
 20
2.259397092914823
 30
0.0
 10
23.52019486678075
 20
2.474792086461243
 30
0.0
 10
23.28850072928957
 20
2.589036747949622
 30
0.0
 10
23.15
 20
2.657329235212845
 30
0.0
  0
LINE
  5
AF
330
1F
100
AcDbEntity
  8
외형선
  6
Continuous
 62
     1
370
    15
100
AcDbLine
 10
25.15
 20
1.085564694129172
 30
0.0
 11
25.15
 21
-0.1002532051346707
 31
0.0
  0
SPLINE
  5
B0
330
1F
100
AcDbEntity
  8
외형선
  6
Continuous
 62
     1
370
    15
100
AcDbSpline
210
0.0
220
0.0
230
1.0
 70
     8
 71
     3
 72
    12
 73
     8
 74
     0
 42
0.000000001
 43
0.00000001
 40
0.0
 40
0.0
 40
0.0
 40
0.0
 40
0.239478206797929
 40
0.4790358878482265
 40
0.7183978548714605
 40
0.9576451472766517
 40
1.0
 40
1.0
 40
1.0
 40
1.0
 10
23.15
 20
2.657329235212849
 30
0.0
 10
22.68307323027022
 20
2.84806140032428
 30
0.0
 10
21.74906473451454
 20
3.22958902773158
 30
0.0
 10
20.34812820538939
 20
3.644960471001497
 30
0.0
 10
18.94799716844788
 20
3.90451746420386
 30
0.0
 10
17.93245964346293
 20
4.017973123854473
 30
0.0
 10
17.38346052137446
 20
3.991436174226319
 30
0.0
 10
17.30088736856454
 20
3.987444838887898
 30
0.0
  0
LINE
  5
B2
330
1F
100
AcDbEntity
  8
외형선
  6
Continuous
 62
     1
370
    15
100
AcDbLine
 10
25.15
 20
1.085564694129172
 30
0.0
 11
25.15
 21
1.997485743343442
 31
0.0
  0
SPLINE
  5
B3
330
1F
100
AcDbEntity
  8
외형선
  6
Continuous
 62
     1
370
    15
100
AcDbSpline
210
0.0
220
0.0
230
1.0
 70
     8
 71
     3
 72
     9
 73
     5
 74
     0
 42
0.000000001
 43
0.00000001
 40
0.0
 40
0.0
 40
0.0
 40
0.0
 40
0.1005285798154752
 40
1.0
 40
1.0
 40
1.0
 40
1.0
 10
21.51887259396926
 20
3.271714613255344
 30
0.0
 10
21.57353537763042
 20
3.292085576655793
 30
0.0
 10
22.06886161662648
 20
3.577142668388664
 30
0.0
 10
22.58885278702633
 20
3.80774744830512
 30
0.0
 10
23.15
 20
3.997485743343441
 30
0.0
  0
LINE
  5
B4
330
1F
100
AcDbEntity
  8
외형선
  6
Continuous
 62
     1
370
    15
100
AcDbLine
 10
25.15
 20
-1.679746794865286
 30
0.0
 11
25.15
 21
-1.999999999999997
 31
0.0
  0
SPLINE
  5
B5
330
1F
100
AcDbEntity
  8
외형선
  6
Continuous
370
    15
100
AcDbSpline
210
0.0
220
0.0
230
1.0
 70
     8
 71
     3
 72
     9
 73
     5
 74
     0
 42
0.000000001
 43
0.00000001
 40
0.0
 40
0.0
 40
0.0
 40
0.0
 40
0.8178179494510244
 40
1.0
 40
1.0
 40
1.0
 40
1.0
 10
13.14999999999902
 20
-3.878454087803525
 30
0.0
 10
13.6166061780968
 20
-3.939776105149176
 30
0.0
 10
14.1871563578905
 20
-4.014758584302164
 30
0.0
 10
14.7576387456322
 20
-3.990334814081081
 30
0.0
 10
14.86157039683305
 20
-3.985885241540068
 30
0.0
  0
LINE
  5
B6
330
1F
100
AcDbEntity
  8
외형선
  6
Continuous
370
    15
100
AcDbLine
 10
13.15000000000002
 20
-3.303202452542465
 30
0.0
 11
13.14999999999958
 21
-3.878454087803593
 31
0.0
  0
LINE
  5
B7
330
1F
100
AcDbEntity
  8
외형선
  6
Continuous
 62
     1
370
    15
100
AcDbLine
 10
25.15
 20
2.0
 30
0.0
 11
25.15
 21
1.997485743343442
 31
0.0
  0
LINE
  5
B8
330
1F
100
AcDbEntity
  8
외형선
  6
Continuous
370
    15
100
AcDbLine
 10
0.0
 20
0.0
 30
0.0
 11
0.0
 21
4.0
 31
0.0
  0
LINE
  5
B9
330
1F
100
AcDbEntity
  8
외형선
  6
Continuous
370
    15
100
AcDbLine
 10
0.0
 20
-4.0
 30
0.0
 11
0.0
 21
0.0
 31
0.0
  0
LINE
  5
BA
330
1F
100
AcDbEntity
  8
외형선
  6
Continuous
370
    15
100
AcDbLine
 10
-44.05
 20
0.0
 30
0.0
 11
-44.05
 21
4.0
 31
0.0
  0
LINE
  5
BB
330
1F
100
AcDbEntity
  8
외형선
  6
Continuous
370
    15
100
AcDbLine
 10
-44.05
 20
-4.0
 30
0.0
 11
-44.05
 21
0.0
 31
0.0
  0
LINE
  5
BC
330
1F
100
AcDbEntity
  8
외형선
  6
Continuous
370
    15
100
AcDbLine
 10
-44.85000000000001
 20
0.0
 30
0.0
 11
-44.85000000000001
 21
3.200000000000008
 31
0.0
  0
LINE
  5
BD
330
1F
100
AcDbEntity
  8
외형선
  6
Continuous
370
    15
100
AcDbLine
 10
-44.85000000000001
 20
-3.200000000000008
 30
0.0
 11
-44.85000000000001
 21
0.0
 31
0.0
  0
LINE
  5
BE
330
1F
100
AcDbEntity
  8
외형선
  6
Continuous
370
    15
100
AcDbLine
 10
0.1499999999999968
 20
0.0
 30
0.0
 11
0.1499999999999968
 21
3.850000000000003
 31
0.0
  0
LINE
  5
BF
330
1F
100
AcDbEntity
  8
외형선
  6
Continuous
370
    15
100
AcDbLine
 10
0.1499999999999968
 20
-3.850000000000008
 30
0.0
 11
0.1499999999999968
 21
0.0
 31
0.0
  0
SPLINE
  5
C0
330
1F
100
AcDbEntity
  8
외형선
  6
Continuous
370
    15
100
AcDbSpline
210
0.0
220
0.0
230
1.0
 70
     8
 71
     3
 72
     8
 73
     4
 74
     0
 42
0.000000001
 43
0.00000001
 40
0.0
 40
0.0
 40
0.0
 40
0.0
 40
1.0
 40
1.0
 40
1.0
 40
1.0
 10
13.14999999999942
 20
0.9824727941474508
 30
0.0
 10
12.81771321171224
 20
1.1611525025673
 30
0.0
 10
12.48253311548808
 20
1.336934401263708
 30
0.0
 10
12.14965477449866
 20
1.507086177962113
 30
0.0
  0
SPLINE
  5
C1
330
1F
100
AcDbEntity
  8
외형선
  6
Continuous
370
    15
100
AcDbSpline
210
0.0
220
0.0
230
1.0
 70
     8
 71
     3
 72
     8
 73
     4
 74
     0
 42
0.000000001
 43
0.00000001
 40
0.0
 40
0.0
 40
0.0
 40
0.0
 40
1.0
 40
1.0
 40
1.0
 40
1.0
 10
13.14999999999942
 20
-3.202791751099464
 30
0.0
 10
12.81771321171223
 20
-3.100240891523276
 30
0.0
 10
12.48253311548807
 20
-2.986268187284634
 30
0.0
 10
12.14965477449866
 20
-2.862621667750418
 30
0.0
  0
LINE
  5
C2
330
1F
100
AcDbEntity
  8
외형선
  6
Continuous
370
    15
100
AcDbLine
 10
13.15
 20
-3.303202452542465
 30
0.0
 11
13.14999999999999
 21
-3.202791751099642
 31
0.0
  0
SPLINE
  5
C3
330
1F
100
AcDbEntity
  8
외형선
  6
Continuous
370
    15
100
AcDbSpline
210
0.0
220
0.0
230
1.0
 70
     8
 71
     3
 72
     8
 73
     4
 74
     0
 42
0.000000001
 43
0.00000001
 40
0.0
 40
0.0
 40
0.0
 40
0.0
 40
1.0
 40
1.0
 40
1.0
 40
1.0
 10
13.14999999999942
 20
-3.722532365038628
 30
0.0
 10
12.81771321171224
 20
-3.675374157889801
 30
0.0
 10
12.48253311548808
 20
-3.615148299100183
 30
0.0
 10
12.14965477449866
 20
-3.542766045365616
 30
0.0
  0
LINE
  5
C4
330
1F
100
AcDbEntity
  8
외형선
  6
Continuous
370
    15
100
AcDbLine
 10
12.14965477449866
 20
-3.850000000000001
 30
0.0
 11
12.14965477449866
 21
-3.542766430238347
 31
0.0
  0
SPLINE
  5
C5
330
1F
100
AcDbEntity
  8
외형선
  6
Continuous
370
    15
100
AcDbSpline
210
0.0
220
0.0
230
1.0
 70
     8
 71
     3
 72
     8
 73
     4
 74
     0
 42
0.000000001
 43
0.00000001
 40
0.0
 40
0.0
 40
0.0
 40
0.0
 40
1.0
 40
1.0
 40
1.0
 40
1.0
 10
13.14999999999942
 20
3.722532365038621
 30
0.0
 10
12.81771321171224
 20
3.675374157889793
 30
0.0
 10
12.48253311548808
 20
3.615148299100174
 30
0.0
 10
12.14965477449866
 20
3.542766045365606
 30
0.0
  0
LINE
  5
C6
330
1F
100
AcDbEntity
  8
외형선
  6
Continuous
370
    15
100
AcDbLine
 10
12.14965477449866
 20
2.574469725756019
 30
0.0
 11
12.14965477449866
 21
3.850000000000001
 31
0.0
  0
SPLINE
  5
C7
330
1F
100
AcDbEntity
  8
외형선
  6
Continuous
370
    15
100
AcDbSpline
210
0.0
220
0.0
230
1.0
 70
     8
 71
     3
 72
     8
 73
     4
 74
     0
 42
0.000000001
 43
0.00000001
 40
0.0
 40
0.0
 40
0.0
 40
0.0
 40
1.0
 40
1.0
 40
1.0
 40
1.0
 10
13.14999999999942
 20
2.136498303086001
 30
0.0
 10
12.81771321171223
 20
2.290230719650229
 30
0.0
 10
12.48253311548807
 20
2.436984433963667
 30
0.0
 10
12.14965477449866
 20
2.574470273148627
 30
0.0
  0
LINE
  5
C8
330
1F
100
AcDbEntity
  8
외형선
  6
Continuous
370
    15
100
AcDbLine
 10
12.14965477449866
 20
-2.862622160042411
 30
0.0
 11
12.14965477449866
 21
1.507085273226504
 31
0.0
  0
SPLINE
  5
C9
330
1F
100
AcDbEntity
  8
외형선
  6
Continuous
370
    15
100
AcDbSpline
210
0.0
220
0.0
230
1.0
 70
    24
 71
     3
 72
    24
 73
    20
 74
     0
 42
0.000000001
 43
0.00000001
 40
0.0
 40
0.0
 40
0.0
 40
0.0
 40
0.1250000000000001
 40
0.1250000000000001
 40
0.2500000000000002
 40
0.2500000000000002
 40
0.3125000000000001
 40
0.3125000000000001
 40
0.375
 40
0.375
 40
0.5
 40
0.5
 40
0.625
 40
0.625
 40
0.7499999999999999
 40
0.7499999999999999
 40
0.8749999999999999
 40
0.8749999999999999
 40
1.0
 40
1.0
 40
1.0
 40
1.0
 10
13.15
 20
-3.202791751102091
 30
0.0
 10
13.14999999999999
 20
-3.029032373387985
 30
0.0
 10
13.14999999999999
 20
-2.838285013732984
 30
0.0
 10
13.15
 20
-2.462800082572852
 30
0.0
 10
13.15000000000001
 20
-2.277920020872525
 30
0.0
 10
13.15
 20
-2.018647661442885
 30
0.0
 10
13.15000000000001
 20
-1.935078459174802
 30
0.0
 10
13.14999999999999
 20
-1.774498027063158
 30
0.0
 10
13.14999999999999
 20
-1.695338759964926
 30
0.0
 10
13.15000000000001
 20
-1.436952019881589
 30
0.0
 10
13.15
 20
-1.245470765003305
 30
0.0
 10
13.14999999999998
 20
-0.8305313626056029
 30
0.0
 10
13.15
 20
-0.6066972504689601
 30
0.0
 10
13.14999999999999
 20
-0.1537359618366539
 30
0.0
 10
13.15000000000001
 20
0.0752552265824808
 30
0.0
 10
13.15000000000002
 20
0.4846342071624982
 30
0.0
 10
13.15000000000001
 20
0.6637188226894793
 30
0.0
 10
13.15000000000001
 20
0.9121469603789295
 30
0.0
 10
13.15000000000001
 20
0.9801034339560345
 30
0.0
 10
13.15000000000001
 20
0.9824727941471515
 30
0.0
  0
SPLINE
  5
CA
330
1F
100
AcDbEntity
  8
외형선
  6
Continuous
370
    15
100
AcDbSpline
210
0.0
220
0.0
230
1.0
 70
    24
 71
     3
 72
    11
 73
     7
 74
     0
 42
0.000000001
 43
0.00000001
 40
0.0
 40
0.0
 40
0.0
 40
0.0
 40
0.2585111788740253
 40
0.5243822225253184
 40
0.7902532661766117
 40
1.0
 40
1.0
 40
1.0
 40
1.0
 10
13.14999999999999
 20
2.304251509237235
 30
0.0
 10
13.14999999999998
 20
2.41280150045821
 30
0.0
 10
13.14999999999996
 20
2.632991922781481
 30
0.0
 10
13.14999999999997
 20
3.007408456480094
 30
0.0
 10
13.14999999999997
 20
3.374862727024393
 30
0.0
 10
13.14999999999997
 20
3.616132675791668
 30
0.0
 10
13.14999999999998
 20
3.722532365038704
 30
0.0
  0
LINE
  5
CB
330
1F
100
AcDbEntity
  8
중심선
 62
     1
100
AcDbLine
 10
-47.85
 20
-0.0000000000000039
 30
0.0
 11
28.15000000000001
 21
0.0000000000000054
 31
0.0
  0
LINE
  5
CC
330
1F
100
AcDbEntity
  8
참조1
100
AcDbLine
 10
-9.849999999999998
 20
-0.0000000000000039
 30
0.0
 11
-9.849999999999993
 21
-40.00000000000001
 31
0.0
  0
LINE
  5
CD
330
1F
100
AcDbEntity
  8
참조1
100
AcDbLine
 10
-9.849999999999993
 20
-40.00000000000001
 30
0.0
 11
-30.00885681430868
 21
-40.0
 31
0.0
  0
CIRCLE
  5
CE
330
1F
100
AcDbEntity
  8
해칭선
100
AcDbCircle
 10
0.0000000000000062
 20
-0.0010749287238931
 30
0.0
 40
3.000000000000002
  0
INSERT
  5
CF
330
1F
100
AcDbEntity
  8
0
  6
Continuous
 62
     7
100
AcDbBlockReference
 66
     1
  2
블럭10
 10
-23.79027293212521
 20
-52.04717430164393
 30
0.0
  0
ATTRIB
  5
D0
330
CF
100
AcDbEntity
  8
FORMAT
 62
     2
100
AcDbText
 10
-39.90953397156076
 20
-49.97180738881175
 30
0.0
 40
4.233333333333333
  1
SEME6408020E [ 4 FLUTE ]
 41
0.75
  7
SLDTEXTSTYLE0
 11
-39.90953397156076
 21
-52.08847405547841
 31
0.0
100
AcDbAttribute
  2
AUTOATTR0
 70
     0
 74
     1
  0
SEQEND
  5
D1
330
CF
100
AcDbEntity
  8
0
  6
Continuous
 62
     7
  0
HATCH
  5
D2
330
1F
100
AcDbEntity
  8
중심선
100
AcDbHatch
 10
0.0
 20
0.0
 30
0.0
210
0.0
220
0.0
230
1.0
  2
SOLID
 70
     1
 71
     0
 91
        1
 92
        0
 93
        4
 72
     1
 10
-18.07536362774437
 20
-35.8
 11
-21.52163887158165
 21
-35.8
 72
     1
 10
-21.52163887158165
 20
-35.8
 11
-23.64986873078567
 21
-38.3363255805726
 72
     1
 10
-23.64986873078567
 20
-38.3363255805726
 11
-20.20356040183524
 21
-38.33628615127011
 72
     1
 10
-20.20356040183524
 20
-38.33628615127011
 11
-18.07536362774437
 21
-35.8
 97
        0
 75
     0
 76
     1
 98
        1
 10
-4.925000000000013
 20
-0.0010749287238931
  0
HATCH
  5
D3
330
1F
100
AcDbEntity
  8
중심선
100
AcDbHatch
 10
0.0
 20
0.0
 30
0.0
210
0.0
220
0.0
230
1.0
  2
SOLID
 70
     1
 71
     0
 91
        1
 92
        0
 93
        4
 72
     1
 10
-13.06259963670836
 20
-35.79999999999998
 11
-16.50887488054567
 21
-35.80000000000003
 72
     1
 10
-16.50887488054567
 20
-35.80000000000003
 11
-21.04001288890309
 21
-41.20000000000002
 72
     1
 10
-21.04001288890309
 20
-41.20000000000002
 11
-17.5937376450658
 21
-41.20000000000002
 72
     1
 10
-17.5937376450658
 20
-41.20000000000002
 11
-13.06259963670836
 21
-35.79999999999998
 97
        0
 75
     0
 76
     1
 98
        1
 10
-4.925000000000013
 20
-0.0010749287238931
  0
HATCH
  5
D4
330
1F
100
AcDbEntity
  8
중심선
100
AcDbHatch
 10
0.0
 20
0.0
 30
0.0
210
0.0
220
0.0
230
1.0
  2
SOLID
 70
     1
 71
     0
 91
        1
 92
        0
 93
        4
 72
     1
 10
-8.049835645672493
 20
-35.79999999999998
 11
-11.49611088950964
 21
-35.8
 72
     1
 10
-11.49611088950964
 20
-35.8
 11
-18.54454779139888
 21
-44.20000000000002
 72
     1
 10
-18.54454779139888
 20
-44.20000000000002
 11
-15.0982725475616
 21
-44.20000000000002
 72
     1
 10
-15.0982725475616
 20
-44.20000000000002
 11
-8.049835645672493
 21
-35.79999999999998
 97
        0
 75
     0
 76
     1
 98
        1
 10
-4.925000000000013
 20
-0.0010749287238931
  0
HATCH
  5
D5
330
1F
100
AcDbEntity
  8
중심선
100
AcDbHatch
 10
0.0
 20
0.0
 30
0.0
210
0.0
220
0.0
230
1.0
  2
SOLID
 70
     1
 71
     0
 91
        1
 92
        0
 93
        6
 72
     3
 10
-3.249945214660322
 20
-40.00000000005127
 11
3.960054785062283
 21
1.540882976769353E-10
 40
0.3939339440162628
 50
17.09539180608437
 51
320.0019657685075
 73
     0
 72
     1
 10
-1.566945558959726
 20
-38.58789400463827
 11
0.7383563147413117
 21
-36.65356729459038
 72
     3
 10
-3.249945214713168
 20
-40.00000000000015
 11
6.600054785286829
 21
-1.278976924368180E-13
 40
0.636358354079598
 50
39.9987384933741
 51
368.4976242363725
 73
     1
 72
     1
 10
3.175387277187442
 20
-39.03999999993002
 11
-4.569877907877246
 21
-39.03999999993002
 72
     1
 10
-4.569877907877246
 20
-39.03999999993002
 11
-4.56990295232318
 21
-40.95999999992991
 72
     1
 10
-4.569902952323179
 20
-40.95999999992991
 11
-0.1285231828511417
 21
-40.95999999992988
 97
        0
 75
     0
 76
     1
 98
        1
 10
-4.925000000000013
 20
-0.0010749287238931
  0
DIMENSION
  5
D6
330
1F
100
AcDbEntity
  8
치수문자_일반주서
100
AcDbDimension
  2
_D
 10
48.18636350776569
 20
-3.999999999999886
 30
0.0
 11
48.18636350776563
 21
13.66650000000011
 31
0.0
 70
   160
  1
%%c<>
 71
     2
 42
7.999999999999996
 52
-270.0
  3
SLDDIMSTYLE1
100
AcDbAlignedDimension
 13
17.29979656378855
 23
3.999999999999998
 33
0.0
 14
17.29979656378855
 24
-3.999999999999998
 34
0.0
 50
90.0000000000002
100
AcDbRotatedDimension
1001
PE_URL
1000

  0
DIMENSION
  5
E3
330
1F
100
AcDbEntity
  8
치수문자_일반주서
100
AcDbDimension
  2
_D_1
 10
-54.03846843616481
 20
-4.000000000000041
 30
0.0
 11
-54.03846843616482
 21
0.0000000000000029
 31
0.0
 70
   160
  1
%%c<>
 71
     2
 42
8.000000000000007
 52
-270.0
  3
SLDDIMSTYLE1
100
AcDbAlignedDimension
 13
-44.05000000000001
 23
4.000000000000004
 33
0.0
 14
-44.05000000000001
 24
-4.000000000000004
 34
0.0
 50
90.0000000000002
100
AcDbRotatedDimension
1001
ACAD_DSTYLE_DIMFLIPARROW_SYMBOL
1070
   385
1070
     0
1001
ACAD_DSTYLE_DIMFLIPARROW_WHICH_SYMBOL
1070
   386
1070
     3
  0
DIMENSION
  5
F1
330
1F
100
AcDbEntity
  8
치수문자_일반주서
100
AcDbDimension
  2
_D_2
 10
13.14999999999958
 20
12.13352450738645
 30
0.0
 11
19.14999999999979
 21
12.13352450738645
 31
0.0
 70
   160
  1
<>
 71
     2
 42
12.00000000000042
  3
SLDDIMSTYLE1
100
AcDbAlignedDimension
 13
25.15
 23
1.997485743343442
 33
0.0
 14
13.14999999999958
 24
3.878454087803585
 34
0.0
100
AcDbRotatedDimension
1001
PE_URL
1000

  0
DIMENSION
  5
FD
330
1F
100
AcDbEntity
  8
치수문자_일반주서
100
AcDbDimension
  2
_D_3
 10
0.1499999999999968
 20
18.13352450738642
 30
0.0
 11
12.65
 21
18.13352450738642
 31
0.0
 70
   160
  1
<>
 71
     2
 42
25.0
  3
SLDDIMSTYLE1
100
AcDbAlignedDimension
 13
25.15
 23
1.997485743343442
 33
0.0
 14
0.1499999999999968
 24
3.850000000000001
 34
0.0
100
AcDbRotatedDimension
1001
PE_URL
1000

  0
DIMENSION
  5
107
330
1F
100
AcDbEntity
  8
치수문자_일반주서
100
AcDbDimension
  2
_D_4
 10
-44.85000000000001
 20
26.54102180854834
 30
0.0
 11
-9.850000000000005
 21
26.54102180854834
 31
0.0
 70
   160
  1
<>
 71
     2
 42
70.0
  3
SLDDIMSTYLE1
100
AcDbAlignedDimension
 13
25.15
 23
1.997485743343442
 33
0.0
 14
-44.85000000000001
 24
3.200000000000008
 34
0.0
 50
0.0000000000000058
100
AcDbRotatedDimension
1001
PE_URL
1000

  0
LINE
  5
111
330
1F
100
AcDbEntity
  8
참조1
100
AcDbLine
 10
67.96348381534558
 20
7.440000000000002
 30
0.0
 11
67.96348381534558
 21
-7.440000000000002
 31
0.0
  0
LINE
  5
112
330
1F
100
AcDbEntity
  8
참조1
100
AcDbLine
 10
80.66348381534559
 20
5.440000000000002
 30
0.0
 11
67.96348381534558
 21
5.440000000000002
 31
0.0
  0
SOLID
  5
113
330
1F
100
AcDbEntity
  8
참조1
100
AcDbTrace
 10
67.96348381534558
 20
5.440000000000002
 30
0.0
 11
74.31348381534558
 21
4.424000000000002
 31
0.0
 12
74.31348381534558
 22
6.456000000000002
 32
0.0
 13
74.31348381534558
 23
6.456000000000002
 33
0.0
  0
LINE
  5
114
330
1F
100
AcDbEntity
  8
참조1
100
AcDbLine
 10
80.66348381534559
 20
-5.440000000000002
 30
0.0
 11
67.96348381534558
 21
-5.440000000000002
 31
0.0
  0
SOLID
  5
115
330
1F
100
AcDbEntity
  8
참조1
100
AcDbTrace
 10
67.96348381534558
 20
-5.440000000000002
 30
0.0
 11
74.31348381534558
 21
-6.456000000000002
 31
0.0
 12
74.31348381534558
 22
-4.424000000000002
 32
0.0
 13
74.31348381534558
 23
-4.424000000000002
 33
0.0
  0
MTEXT
  5
116
330
1F
100
AcDbEntity
  8
참조1
100
AcDbMText
 10
77.36097390781586
 20
10.98821664464994
 30
0.0
 40
3.5
 41
0.0
 71
     1
 72
     1
  1
A
  7
SLDTEXTSTYLE0
 73
     1
 44
1.0
  0
MTEXT
  5
117
330
1F
100
AcDbEntity
  8
참조1
100
AcDbMText
 10
77.36097390781586
 20
0.1082166446499328
 30
0.0
 40
3.5
 41
0.0
 71
     1
 72
     1
  1
A
  7
SLDTEXTSTYLE0
 73
     1
 44
1.0
  0
INSERT
  5
11E
330
1F
100
AcDbEntity
  8
해칭선
100
AcDbBlockReference
  2
SW_DOWELSYMBOL_0
 10
0.0000000000000062
 20
-0.0010749287238931
 30
0.0
  0
ARC
  5
162
330
1F
100
AcDbEntity
  8
외형선
  6
Continuous
 62
     1
370
    15
100
AcDbCircle
 10
23.15
 20
1.997485743343441
 30
0.0
 40
2.0
100
AcDbArc
 50
0.0000000000000509
 51
90.0
1001
PE_URL
1000

  0
ARC
  5
163
102
{ACAD_REACTORS
102
}
330
1F
100
AcDbEntity
  8
외형선
  6
Continuous
 62
     1
370
    15
100
AcDbCircle
 10
23.15
 20
-1.997485743343431
 30
0.0
 40
2.0
100
AcDbArc
 50
270.0
 51
359.9999999999999
1001
PE_URL
1000

  0
DIMENSION
  5
165
102
{ACAD_REACTORS
102
}
102
{ACAD_XDICTIONARY
360
166
102
}
330
1F
100
AcDbEntity
  8
0
100
AcDbDimension
  2
*D8
 10
23.15
 20
-1.997485743343431
 30
0.0
 11
39.20910408955345
 21
-11.14140389698759
 31
0.0
 70
   164
 71
     5
 42
1.999999999999999
  3
ISO-25
100
AcDbRadialDimension
 15
24.45054088399274
 25
-3.516891353792259
 35
0.0
 40
0.0
1001
ACAD
1000
DSTYLE
1002
{
1070
   179
1070
     2
1070
   143
1040
0.0393700787401575
1070
    41
1040
3.302
1070
    44
1040
1.0
1070
    42
1040
1.0
1070
   147
1040
1.524
1070
    73
1070
     1
1070
    74
1070
     1
1070
   140
1040
3.5
1070
   284
1070
     0
1070
    78
1070
     0
1002
}
1001
ACAD_DSTYLE_DIMRADIAL_EXTENSION
1070
   387
1070
     1
1070
   388
1040
4.71238898038469
1070
   390
1040
6.283185307179585
  0
ENDSEC
  0
SECTION
  2
OBJECTS
  0
DICTIONARY
  5
C
330
0
100
AcDbDictionary
281
     1
  3
ACAD_DETAILVIEWSTYLE
350
15F
  3
ACAD_GROUP
350
D
  3
ACAD_LAYOUT
350
1A
  3
ACAD_MLINESTYLE
350
17
  3
ACAD_PLOTSETTINGS
350
19
  3
ACAD_PLOTSTYLENAME
350
E
  3
ACAD_SCALELIST
350
47
  3
ACAD_SECTIONVIEWSTYLE
350
160
  3
AcDbVariableDictionary
350
15A
  3
APPDATA
350
140
  3
DWGPROPS
350
172
  0
DICTIONARY
  5
166
330
165
100
AcDbDictionary
280
     1
281
     1
  0
DICTIONARY
  5
15F
102
{ACAD_REACTORS
330
C
102
}
330
C
100
AcDbDictionary
281
     1
  0
DICTIONARY
  5
D
102
{ACAD_REACTORS
330
C
102
}
330
C
100
AcDbDictionary
281
     1
  0
DICTIONARY
  5
1A
102
{ACAD_REACTORS
330
C
102
}
330
C
100
AcDbDictionary
281
     1
  3
Layout1
350
1E
  3
Layout2
350
26
  3
Model
350
22
  0
DICTIONARY
  5
17
102
{ACAD_REACTORS
330
C
102
}
330
C
100
AcDbDictionary
281
     1
  3
Standard
350
18
  0
DICTIONARY
  5
19
102
{ACAD_REACTORS
330
C
102
}
330
C
100
AcDbDictionary
281
     1
  0
ACDBDICTIONARYWDFLT
  5
E
102
{ACAD_REACTORS
330
C
102
}
330
C
100
AcDbDictionary
281
     1
  3
Normal
350
F
100
AcDbDictionaryWithDefault
340
F
  0
DICTIONARY
  5
47
102
{ACAD_REACTORS
330
C
102
}
330
C
100
AcDbDictionary
281
     1
  3
A0
350
48
  3
A1
350
49
  3
A2
350
4A
  3
A3
350
4B
  3
A4
350
4C
  3
A5
350
4D
  3
A6
350
4E
  3
A7
350
4F
  3
A8
350
50
  3
A9
350
51
  3
B0
350
52
  3
B1
350
53
  3
B2
350
54
  3
B3
350
55
  3
B4
350
56
  3
B5
350
57
  3
B6
350
58
  3
B7
350
59
  3
B8
350
5A
  3
B9
350
5B
  3
C0
350
5C
  3
C1
350
5D
  3
C2
350
5E
  3
C3
350
5F
  3
C4
350
60
  3
C5
350
61
  3
C6
350
62
  3
C7
350
63
  3
C8
350
64
  3
C9
350
65
  3
D0
350
66
  3
D1
350
67
  3
D2
350
68
  0
DICTIONARY
  5
160
102
{ACAD_REACTORS
330
C
102
}
330
C
100
AcDbDictionary
281
     1
  0
DICTIONARY
  5
15A
102
{ACAD_REACTORS
330
C
102
}
330
C
100
AcDbDictionary
281
     1
  0
DICTIONARY
  5
140
102
{ACAD_REACTORS
330
C
102
}
330
C
100
AcDbDictionary
281
     1
  0
XRECORD
  5
172
102
{ACAD_REACTORS
330
C
102
}
330
C
100
AcDbXrecord
280
     1
  1
DWGPROPS COOKIE
  2

  3

  4

  6

  7

  8
USER
  9

300
=
301
=
302
=
303
=
304
=
305
=
306
=
307
=
308
=
309
=
 40
0.0
 41
2458274.335639294
 42
2458275.077283044
  1

 90
        0
  0
LAYOUT
  5
1E
102
{ACAD_REACTORS
330
1A
102
}
330
1A
100
AcDbPlotSettings
  1

  2
none_device
  4

  6

 40
0.0
 41
0.0
 42
0.0
 43
0.0
 44
0.0
 45
0.0
 46
0.0
 47
0.0
 48
0.0
 49
0.0
140
0.0
141
0.0
142
1.0
143
1.0
 70
   688
 72
     1
 73
     0
 74
     5
  7

 75
    16
147
1.0
148
0.0
149
0.0
100
AcDbLayout
  1
Layout1
 70
     1
 71
     1
 10
0.0
 20
0.0
 11
420.0
 21
297.0
 12
0.0
 22
0.0
 32
0.0
 14
1.000000000000000E+20
 24
1.000000000000000E+20
 34
1.000000000000000E+20
 15
-1.000000000000000E+20
 25
-1.000000000000000E+20
 35
-1.000000000000000E+20
146
0.0
 13
0.0
 23
0.0
 33
0.0
 16
1.0
 26
0.0
 36
0.0
 17
0.0
 27
1.0
 37
0.0
 76
     0
330
1B
  0
LAYOUT
  5
26
102
{ACAD_REACTORS
330
1A
102
}
330
1A
100
AcDbPlotSettings
  1

  2
none_device
  4

  6

 40
0.0
 41
0.0
 42
0.0
 43
0.0
 44
0.0
 45
0.0
 46
0.0
 47
0.0
 48
0.0
 49
0.0
140
0.0
141
0.0
142
1.0
143
1.0
 70
   688
 72
     1
 73
     0
 74
     5
  7

 75
    16
147
1.0
148
0.0
149
0.0
100
AcDbLayout
  1
Layout2
 70
     1
 71
     2
 10
0.0
 20
0.0
 11
0.0
 21
0.0
 12
0.0
 22
0.0
 32
0.0
 14
0.0
 24
0.0
 34
0.0
 15
0.0
 25
0.0
 35
0.0
146
0.0
 13
0.0
 23
0.0
 33
0.0
 16
1.0
 26
0.0
 36
0.0
 17
0.0
 27
1.0
 37
0.0
 76
     0
330
23
  0
LAYOUT
  5
22
102
{ACAD_REACTORS
330
1A
102
}
330
1A
100
AcDbPlotSettings
  1

  2
none_device
  4
ANSI_A_(11.00_x_8.50_Inches)
  6

 40
6.35
 41
19.05
 42
6.35000508
 43
19.05000254
 44
279.4
 45
215.9
 46
101.6611063617215
 47
108.424748999155
 48
0.0
 49
0.0
140
0.0
141
0.0
142
0.0781950309128802
143
1.0
 70
  1696
 72
     0
 73
     0
 74
     0
  7

 75
     0
147
0.0235690232323232
148
0.0
149
0.0
100
AcDbLayout
  1
Model
 70
     1
 71
     0
 10
0.0
 20
0.0
 11
420.0
 21
297.0
 12
0.0
 22
0.0
 32
0.0
 14
-58.41346843616482
 24
-49.97180738881175
 34
0.0
 15
80.66348381534559
 25
30.91602180854834
 35
0.0
146
0.0
 13
0.0
 23
0.0
 33
0.0
 16
1.0
 26
0.0
 36
0.0
 17
0.0
 27
1.0
 37
0.0
 76
     0
330
1F
331
29
  0
MLINESTYLE
  5
18
102
{ACAD_REACTORS
330
17
102
}
330
17
100
AcDbMlineStyle
  2
Standard
 70
     0
  3

 62
   256
 51
90.0
 52
90.0
 71
     2
 49
0.5
 62
   256
  6
BYLAYER
 49
-0.5
 62
   256
  6
BYLAYER
  0
ACDBPLACEHOLDER
  5
F
102
{ACAD_REACTORS
330
E
102
}
330
E
  0
SCALE
  5
48
102
{ACAD_REACTORS
330
47
102
}
330
47
100
AcDbScale
 70
     0
300
1:1
140
1.0
141
1.0
290
     1
  0
SCALE
  5
49
102
{ACAD_REACTORS
330
47
102
}
330
47
100
AcDbScale
 70
     0
300
1:2
140
1.0
141
2.0
290
     0
  0
SCALE
  5
4A
102
{ACAD_REACTORS
330
47
102
}
330
47
100
AcDbScale
 70
     0
300
1:4
140
1.0
141
4.0
290
     0
  0
SCALE
  5
4B
102
{ACAD_REACTORS
330
47
102
}
330
47
100
AcDbScale
 70
     0
300
1:5
140
1.0
141
5.0
290
     0
  0
SCALE
  5
4C
102
{ACAD_REACTORS
330
47
102
}
330
47
100
AcDbScale
 70
     0
300
1:8
140
1.0
141
8.0
290
     0
  0
SCALE
  5
4D
102
{ACAD_REACTORS
330
47
102
}
330
47
100
AcDbScale
 70
     0
300
1:10
140
1.0
141
10.0
290
     0
  0
SCALE
  5
4E
102
{ACAD_REACTORS
330
47
102
}
330
47
100
AcDbScale
 70
     0
300
1:16
140
1.0
141
16.0
290
     0
  0
SCALE
  5
4F
102
{ACAD_REACTORS
330
47
102
}
330
47
100
AcDbScale
 70
     0
300
1:20
140
1.0
141
20.0
290
     0
  0
SCALE
  5
50
102
{ACAD_REACTORS
330
47
102
}
330
47
100
AcDbScale
 70
     0
300
1:30
140
1.0
141
30.0
290
     0
  0
SCALE
  5
51
102
{ACAD_REACTORS
330
47
102
}
330
47
100
AcDbScale
 70
     0
300
1:40
140
1.0
141
40.0
290
     0
  0
SCALE
  5
52
102
{ACAD_REACTORS
330
47
102
}
330
47
100
AcDbScale
 70
     0
300
1:50
140
1.0
141
50.0
290
     0
  0
SCALE
  5
53
102
{ACAD_REACTORS
330
47
102
}
330
47
100
AcDbScale
 70
     0
300
1:100
140
1.0
141
100.0
290
     0
  0
SCALE
  5
54
102
{ACAD_REACTORS
330
47
102
}
330
47
100
AcDbScale
 70
     0
300
2:1
140
2.0
141
1.0
290
     0
  0
SCALE
  5
55
102
{ACAD_REACTORS
330
47
102
}
330
47
100
AcDbScale
 70
     0
300
4:1
140
4.0
141
1.0
290
     0
  0
SCALE
  5
56
102
{ACAD_REACTORS
330
47
102
}
330
47
100
AcDbScale
 70
     0
300
8:1
140
8.0
141
1.0
290
     0
  0
SCALE
  5
57
102
{ACAD_REACTORS
330
47
102
}
330
47
100
AcDbScale
 70
     0
300
10:1
140
10.0
141
1.0
290
     0
  0
SCALE
  5
58
102
{ACAD_REACTORS
330
47
102
}
330
47
100
AcDbScale
 70
     0
300
100:1
140
100.0
141
1.0
290
     0
  0
SCALE
  5
59
102
{ACAD_REACTORS
330
47
102
}
330
47
100
AcDbScale
 70
     0
300
1/128" = 1'-0"
140
0.0078125
141
12.0
290
     0
  0
SCALE
  5
5A
102
{ACAD_REACTORS
330
47
102
}
330
47
100
AcDbScale
 70
     0
300
1/64" = 1'-0"
140
0.015625
141
12.0
290
     0
  0
SCALE
  5
5B
102
{ACAD_REACTORS
330
47
102
}
330
47
100
AcDbScale
 70
     0
300
1/32" = 1'-0"
140
0.03125
141
12.0
290
     0
  0
SCALE
  5
5C
102
{ACAD_REACTORS
330
47
102
}
330
47
100
AcDbScale
 70
     0
300
1/16" = 1'-0"
140
0.0625
141
12.0
290
     0
  0
SCALE
  5
5D
102
{ACAD_REACTORS
330
47
102
}
330
47
100
AcDbScale
 70
     0
300
3/32" = 1'-0"
140
0.09375
141
12.0
290
     0
  0
SCALE
  5
5E
102
{ACAD_REACTORS
330
47
102
}
330
47
100
AcDbScale
 70
     0
300
1/8" = 1'-0"
140
0.125
141
12.0
290
     0
  0
SCALE
  5
5F
102
{ACAD_REACTORS
330
47
102
}
330
47
100
AcDbScale
 70
     0
300
3/16" = 1'-0"
140
0.1875
141
12.0
290
     0
  0
SCALE
  5
60
102
{ACAD_REACTORS
330
47
102
}
330
47
100
AcDbScale
 70
     0
300
1/4" = 1'-0"
140
0.25
141
12.0
290
     0
  0
SCALE
  5
61
102
{ACAD_REACTORS
330
47
102
}
330
47
100
AcDbScale
 70
     0
300
3/8" = 1'-0"
140
0.375
141
12.0
290
     0
  0
SCALE
  5
62
102
{ACAD_REACTORS
330
47
102
}
330
47
100
AcDbScale
 70
     0
300
1/2" = 1'-0"
140
0.5
141
12.0
290
     0
  0
SCALE
  5
63
102
{ACAD_REACTORS
330
47
102
}
330
47
100
AcDbScale
 70
     0
300
3/4" = 1'-0"
140
0.75
141
12.0
290
     0
  0
SCALE
  5
64
102
{ACAD_REACTORS
330
47
102
}
330
47
100
AcDbScale
 70
     0
300
1" = 1'-0"
140
1.0
141
12.0
290
     0
  0
SCALE
  5
65
102
{ACAD_REACTORS
330
47
102
}
330
47
100
AcDbScale
 70
     0
300
1-1/2" = 1'-0"
140
1.5
141
12.0
290
     0
  0
SCALE
  5
66
102
{ACAD_REACTORS
330
47
102
}
330
47
100
AcDbScale
 70
     0
300
3" = 1'-0"
140
3.0
141
12.0
290
     0
  0
SCALE
  5
67
102
{ACAD_REACTORS
330
47
102
}
330
47
100
AcDbScale
 70
     0
300
6" = 1'-0"
140
6.0
141
12.0
290
     0
  0
SCALE
  5
68
102
{ACAD_REACTORS
330
47
102
}
330
47
100
AcDbScale
 70
     0
300
1'-0" = 1'-0"
140
12.0
141
12.0
290
     0
  0
ENDSEC
  0
EOF
