  0
SECTION
  2
HEADER
  9
$ACADVER
  1
AC1015
  9
$ACADMAINTVER
 70
     6
  9
$DWGCODEPAGE
  3
ANSI_949
  9
$INSBASE
 10
0.0
 20
0.0
 30
0.0
  9
$EXTMIN
 10
-58.41346843616482
 20
-49.97180738881175
 30
0.0
  9
$EXTMAX
 10
80.66348381534559
 20
31.8979841470039
 30
0.0
  9
$LIMMIN
 10
0.0
 20
0.0
  9
$LIMMAX
 10
420.0
 20
297.0
  9
$ORTHOMODE
 70
     0
  9
$REGENMODE
 70
     1
  9
$FILLMODE
 70
     1
  9
$QTEXTMODE
 70
     0
  9
$MIRRTEXT
 70
     1
  9
$LTSCALE
 40
1.0
  9
$ATTMODE
 70
     1
  9
$TEXTSIZE
 40
3.5
  9
$TRACEWID
 40
1.0
  9
$TEXTSTYLE
  7
Standard
  9
$CLAYER
  8
0
  9
$CELTYPE
  6
ByLayer
  9
$CECOLOR
 62
   256
  9
$CELTSCALE
 40
1.0
  9
$DISPSILH
 70
     0
  9
$DIMSCALE
 40
1.0
  9
$DIMASZ
 40
3.302
  9
$DIMEXO
 40
1.0
  9
$DIMDLI
 40
3.75
  9
$DIMRND
 40
0.0
  9
$DIMDLE
 40
0.0
  9
$DIMEXE
 40
1.0
  9
$DIMTP
 40
0.0
  9
$DIMTM
 40
0.0
  9
$DIMTXT
 40
3.5
  9
$DIMCEN
 40
2.5
  9
$DIMTSZ
 40
0.0
  9
$DIMTOL
 70
     0
  9
$DIMLIM
 70
     0
  9
$DIMTIH
 70
     1
  9
$DIMTOH
 70
     1
  9
$DIMSE1
 70
     0
  9
$DIMSE2
 70
     0
  9
$DIMTAD
 70
     1
  9
$DIMZIN
 70
     0
  9
$DIMBLK
  1

  9
$DIMASO
 70
     1
  9
$DIMSHO
 70
     1
  9
$DIMPOST
  1

  9
$DIMAPOST
  1

  9
$DIMALT
 70
     0
  9
$DIMALTD
 70
     3
  9
$DIMALTF
 40
0.0393700787401575
  9
$DIMLFAC
 40
1.0
  9
$DIMTOFL
 70
     1
  9
$DIMTVP
 40
0.0
  9
$DIMTIX
 70
     0
  9
$DIMSOXD
 70
     0
  9
$DIMSAH
 70
     0
  9
$DIMBLK1
  1

  9
$DIMBLK2
  1

  9
$DIMSTYLE
  2
ISO-25
  9
$DIMCLRD
 70
     0
  9
$DIMCLRE
 70
     0
  9
$DIMCLRT
 70
     0
  9
$DIMTFAC
 40
1.0
  9
$DIMGAP
 40
1.524
  9
$DIMJUST
 70
     0
  9
$DIMSD1
 70
     0
  9
$DIMSD2
 70
     0
  9
$DIMTOLJ
 70
     0
  9
$DIMTZIN
 70
     0
  9
$DIMALTZ
 70
     0
  9
$DIMALTTZ
 70
     0
  9
$DIMUPT
 70
     0
  9
$DIMDEC
 70
     2
  9
$DIMTDEC
 70
     2
  9
$DIMALTU
 70
     2
  9
$DIMALTTD
 70
     3
  9
$DIMTXSTY
  7
Standard
  9
$DIMAUNIT
 70
     0
  9
$DIMADEC
 70
     2
  9
$DIMALTRND
 40
0.0
  9
$DIMAZIN
 70
     0
  9
$DIMDSEP
 70
    44
  9
$DIMATFIT
 70
     3
  9
$DIMFRAC
 70
     0
  9
$DIMLDRBLK
  1

  9
$DIMLUNIT
 70
     2
  9
$DIMLWD
 70
    -2
  9
$DIMLWE
 70
    -2
  9
$DIMTMOVE
 70
     0
  9
$LUNITS
 70
     2
  9
$LUPREC
 70
     2
  9
$SKETCHINC
 40
1.0
  9
$FILLETRAD
 40
10.0
  9
$AUNITS
 70
     0
  9
$AUPREC
 70
     2
  9
$MENU
  1
.
  9
$ELEVATION
 40
0.0
  9
$PELEVATION
 40
0.0
  9
$THICKNESS
 40
0.0
  9
$LIMCHECK
 70
     0
  9
$CHAMFERA
 40
0.0
  9
$CHAMFERB
 40
0.0
  9
$CHAMFERC
 40
0.0
  9
$CHAMFERD
 40
0.0
  9
$SKPOLY
 70
     0
  9
$TDCREATE
 40
2458274.710261204
  9
$TDUCREATE
 40
2458274.335261204
  9
$TDUPDATE
 40
2458275.449337674
  9
$TDUUPDATE
 40
2458275.074337674
  9
$TDINDWG
 40
0.0008127315
  9
$TDUSRTIMER
 40
0.0008127199
  9
$USRTIMER
 70
     1
  9
$ANGBASE
 50
0.0
  9
$ANGDIR
 70
     0
  9
$PDMODE
 70
     0
  9
$PDSIZE
 40
-1.0
  9
$PLINEWID
 40
0.0
  9
$SPLFRAME
 70
     0
  9
$SPLINETYPE
 70
     6
  9
$SPLINESEGS
 70
     8
  9
$HANDSEED
  5
160
  9
$SURFTAB1
 70
     6
  9
$SURFTAB2
 70
     6
  9
$SURFTYPE
 70
     6
  9
$SURFU
 70
     6
  9
$SURFV
 70
     6
  9
$UCSBASE
  2

  9
$UCSNAME
  2

  9
$UCSORG
 10
0.0
 20
0.0
 30
0.0
  9
$UCSXDIR
 10
1.0
 20
0.0
 30
0.0
  9
$UCSYDIR
 10
0.0
 20
1.0
 30
0.0
  9
$UCSORTHOREF
  2

  9
$UCSORTHOVIEW
 70
     0
  9
$UCSORGTOP
 10
0.0
 20
0.0
 30
0.0
  9
$UCSORGBOTTOM
 10
0.0
 20
0.0
 30
0.0
  9
$UCSORGLEFT
 10
0.0
 20
0.0
 30
0.0
  9
$UCSORGRIGHT
 10
0.0
 20
0.0
 30
0.0
  9
$UCSORGFRONT
 10
0.0
 20
0.0
 30
0.0
  9
$UCSORGBACK
 10
0.0
 20
0.0
 30
0.0
  9
$PUCSBASE
  2

  9
$PUCSNAME
  2

  9
$PUCSORG
 10
0.0
 20
0.0
 30
0.0
  9
$PUCSXDIR
 10
1.0
 20
0.0
 30
0.0
  9
$PUCSYDIR
 10
0.0
 20
1.0
 30
0.0
  9
$PUCSORTHOREF
  2

  9
$PUCSORTHOVIEW
 70
     0
  9
$PUCSORGTOP
 10
0.0
 20
0.0
 30
0.0
  9
$PUCSORGBOTTOM
 10
0.0
 20
0.0
 30
0.0
  9
$PUCSORGLEFT
 10
0.0
 20
0.0
 30
0.0
  9
$PUCSORGRIGHT
 10
0.0
 20
0.0
 30
0.0
  9
$PUCSORGFRONT
 10
0.0
 20
0.0
 30
0.0
  9
$PUCSORGBACK
 10
0.0
 20
0.0
 30
0.0
  9
$USERI1
 70
     0
  9
$USERI2
 70
     0
  9
$USERI3
 70
     0
  9
$USERI4
 70
     0
  9
$USERI5
 70
     0
  9
$USERR1
 40
0.0
  9
$USERR2
 40
0.0
  9
$USERR3
 40
0.0
  9
$USERR4
 40
0.0
  9
$USERR5
 40
0.0
  9
$WORLDVIEW
 70
     1
  9
$SHADEDGE
 70
     3
  9
$SHADEDIF
 70
    70
  9
$TILEMODE
 70
     1
  9
$MAXACTVP
 70
    64
  9
$PINSBASE
 10
0.0
 20
0.0
 30
0.0
  9
$PLIMCHECK
 70
     0
  9
$PEXTMIN
 10
1.000000000000000E+20
 20
1.000000000000000E+20
 30
1.000000000000000E+20
  9
$PEXTMAX
 10
-1.000000000000000E+20
 20
-1.000000000000000E+20
 30
-1.000000000000000E+20
  9
$PLIMMIN
 10
0.0
 20
0.0
  9
$PLIMMAX
 10
0.0
 20
0.0
  9
$UNITMODE
 70
     0
  9
$VISRETAIN
 70
     1
  9
$PLINEGEN
 70
     0
  9
$PSLTSCALE
 70
     1
  9
$TREEDEPTH
 70
  3020
  9
$CMLSTYLE
  2
Standard
  9
$CMLJUST
 70
     0
  9
$CMLSCALE
 40
20.0
  9
$PROXYGRAPHICS
 70
     1
  9
$MEASUREMENT
 70
     1
  9
$CELWEIGHT
370
    -1
  9
$ENDCAPS
280
     0
  9
$JOINSTYLE
280
     0
  9
$LWDISPLAY
290
     1
  9
$INSUNITS
 70
     4
  9
$HYPERLINKBASE
  1

  9
$STYLESHEET
  1

  9
$XEDIT
290
     1
  9
$CEPSNTYPE
380
     0
  9
$PSTYLEMODE
290
     1
  9
$FINGERPRINTGUID
  2
{2D133DAB-9180-4E7F-8216-4C81BEEEDB2F}
  9
$VERSIONGUID
  2
{FAEB1C32-E019-11D5-929B-00C0DF256EC4}
  9
$EXTNAMES
290
     1
  9
$PSVPSCALE
 40
0.0
  9
$OLESTARTUP
290
     0
  0
ENDSEC
  0
SECTION
  2
CLASSES
  0
CLASS
  1
ACDBDICTIONARYWDFLT
  2
AcDbDictionaryWithDefault
  3
ObjectDBX Classes
 90
        0
280
     0
281
     0
  0
CLASS
  1
VISUALSTYLE
  2
AcDbVisualStyle
  3
ObjectDBX Classes
 90
     4095
280
     0
281
     0
  0
CLASS
  1
MATERIAL
  2
AcDbMaterial
  3
ObjectDBX Classes
 90
     1153
280
     0
281
     0
  0
CLASS
  1
SCALE
  2
AcDbScale
  3
ObjectDBX Classes
 90
     1153
280
     0
281
     0
  0
CLASS
  1
SUN
  2
AcDbSun
  3
SCENEOE
 90
     1153
280
     0
281
     0
  0
CLASS
  1
ACDBPLACEHOLDER
  2
AcDbPlaceHolder
  3
ObjectDBX Classes
 90
        0
280
     0
281
     0
  0
CLASS
  1
LAYOUT
  2
AcDbLayout
  3
ObjectDBX Classes
 90
        0
280
     0
281
     0
  0
CLASS
  1
TABLESTYLE
  2
AcDbTableStyle
  3
ObjectDBX Classes
 90
     4095
280
     0
281
     0
  0
CLASS
  1
MLEADERSTYLE
  2
AcDbMLeaderStyle
  3
ACDB_MLEADERSTYLE_CLASS
 90
     4095
280
     0
281
     0
  0
CLASS
  1
DIMASSOC
  2
AcDbDimAssoc
  3
"AcDbDimAssoc|Product Desc:     AcDim ARX App For Dimension|Company:          Autodesk, Inc.|WEB Address:      www.autodesk.com"
 90
        0
280
     0
281
     0
  0
ENDSEC
  0
SECTION
  2
TABLES
  0
TABLE
  2
VPORT
  5
8
330
0
100
AcDbSymbolTable
 70
     1
  0
VPORT
  5
29
330
8
100
AcDbSymbolTableRecord
100
AcDbViewportTableRecord
  2
*Active
 70
     0
 10
0.0
 20
0.0
 11
1.0
 21
1.0
 12
11.12500768959039
 22
-9.036911620903929
 13
0.0
 23
0.0
 14
10.0
 24
10.0
 15
10.0
 25
10.0
 16
0.0
 26
0.0
 36
1.0
 17
0.0
 27
0.0
 37
0.0
 40
83.50718736653195
 41
2.400311526479751
 42
50.0
 43
0.0
 44
0.0
 50
0.0
 51
0.0
 71
    16
 72
  2000
 73
     1
 74
     3
 75
     0
 76
     0
 77
     0
 78
     0
281
     0
 65
     1
110
0.0
120
0.0
130
0.0
111
1.0
121
0.0
131
0.0
112
0.0
122
1.0
132
0.0
 79
     0
146
0.0
  0
ENDTAB
  0
TABLE
  2
LTYPE
  5
5
330
0
100
AcDbSymbolTable
 70
     6
  0
LTYPE
  5
14
330
5
100
AcDbSymbolTableRecord
100
AcDbLinetypeTableRecord
  2
ByBlock
 70
     0
  3

 72
    65
 73
     0
 40
0.0
  0
LTYPE
  5
15
330
5
100
AcDbSymbolTableRecord
100
AcDbLinetypeTableRecord
  2
ByLayer
 70
     0
  3

 72
    65
 73
     0
 40
0.0
  0
LTYPE
  5
16
330
5
100
AcDbSymbolTableRecord
100
AcDbLinetypeTableRecord
  2
Continuous
 70
     0
  3
Solid line
 72
    65
 73
     0
 40
0.0
  0
LTYPE
  5
6A
330
5
100
AcDbSymbolTableRecord
100
AcDbLinetypeTableRecord
  2
HIDDEN
 70
     0
  3
Hidden __ __ __ __ __ __ __ __ __ __ __ __ __ __
 72
    65
 73
     2
 40
1.905
 49
1.27
 74
     0
 49
-0.635
 74
     0
  0
LTYPE
  5
6B
330
5
100
AcDbSymbolTableRecord
100
AcDbLinetypeTableRecord
  2
PHANTOM
 70
     0
  3
Phantom ______  __  __  ______  __  __  ______
 72
    65
 73
     6
 40
12.7
 49
6.35
 74
     0
 49
-1.27
 74
     0
 49
1.27
 74
     0
 49
-1.27
 74
     0
 49
1.27
 74
     0
 49
-1.27
 74
     0
  0
LTYPE
  5
6C
330
5
100
AcDbSymbolTableRecord
100
AcDbLinetypeTableRecord
  2
CENTER
 70
     0
  3
Center ____ _ ____ _ ____ _ ____ _ ____ _ ____
 72
    65
 73
     4
 40
10.16
 49
6.35
 74
     0
 49
-1.27
 74
     0
 49
1.27
 74
     0
 49
-1.27
 74
     0
  0
LTYPE
  5
6D
330
5
100
AcDbSymbolTableRecord
100
AcDbLinetypeTableRecord
  2
CENTERX2
 70
     0
  3
Center (2x) ________  __  ________  __  _____
 72
    65
 73
     4
 40
20.32
 49
12.7
 74
     0
 49
-2.54
 74
     0
 49
2.54
 74
     0
 49
-2.54
 74
     0
  0
LTYPE
  5
6E
330
5
100
AcDbSymbolTableRecord
100
AcDbLinetypeTableRecord
  2
DOT2
 70
     0
  3
Dot (.5x) ........................................
 72
    65
 73
     2
 40
0.635
 49
0.0
 74
     0
 49
-0.635
 74
     0
  0
ENDTAB
  0
TABLE
  2
LAYER
  5
2
330
0
100
AcDbSymbolTable
 70
    18
  0
LAYER
  5
10
330
2
100
AcDbSymbolTableRecord
100
AcDbLayerTableRecord
  2
0
 70
     0
 62
     7
  6
Continuous
370
    -3
390
F
  0
LAYER
  5
6F
330
2
100
AcDbSymbolTableRecord
100
AcDbLayerTableRecord
  2
FORMAT
 70
     0
 62
     2
  6
Continuous
370
    -3
390
F
  0
LAYER
  5
70
330
2
100
AcDbSymbolTableRecord
100
AcDbLayerTableRecord
  2
외형선
 70
     0
 62
     4
  6
Continuous
370
    30
390
F
  0
LAYER
  5
71
330
2
100
AcDbSymbolTableRecord
100
AcDbLayerTableRecord
  2
숨은선
 70
     0
 62
     2
  6
HIDDEN
370
    15
390
F
  0
LAYER
  5
72
330
2
100
AcDbSymbolTableRecord
100
AcDbLayerTableRecord
  2
중심선
 70
     0
 62
     1
  6
CENTERX2
370
    -3
390
F
  0
LAYER
  5
73
330
2
100
AcDbSymbolTableRecord
100
AcDbLayerTableRecord
  2
파단선
 70
     0
 62
     4
  6
Continuous
370
    -3
390
F
  0
LAYER
  5
74
330
2
100
AcDbSymbolTableRecord
100
AcDbLayerTableRecord
  2
해칭선
 70
     0
 62
   100
  6
Continuous
370
    -3
390
F
  0
LAYER
  5
75
330
2
100
AcDbSymbolTableRecord
100
AcDbLayerTableRecord
  2
가는실선
 70
     0
 62
     4
  6
Continuous
370
    -3
390
F
  0
LAYER
  5
76
330
2
100
AcDbSymbolTableRecord
100
AcDbLayerTableRecord
  2
치수_보조선
 70
     0
 62
     4
  6
Continuous
370
    -3
390
F
  0
LAYER
  5
77
330
2
100
AcDbSymbolTableRecord
100
AcDbLayerTableRecord
  2
치수문자_일반주서
 70
     0
 62
     7
  6
Continuous
370
    15
390
F
  0
LAYER
  5
78
330
2
100
AcDbSymbolTableRecord
100
AcDbLayerTableRecord
  2
개별주서
 70
     0
 62
   100
  6
Continuous
370
    30
390
F
  0
LAYER
  5
79
330
2
100
AcDbSymbolTableRecord
100
AcDbLayerTableRecord
  2
중간선
 70
     0
 62
     2
  6
Continuous
370
    15
390
F
  0
LAYER
  5
7A
330
2
100
AcDbSymbolTableRecord
100
AcDbLayerTableRecord
  2
윤곽선
 70
     0
 62
     3
  6
Continuous
370
    40
390
F
  0
LAYER
  5
7B
330
2
100
AcDbSymbolTableRecord
100
AcDbLayerTableRecord
  2
중심마크
 70
     0
 62
   100
  6
Continuous
370
    30
390
F
  0
LAYER
  5
7C
330
2
100
AcDbSymbolTableRecord
100
AcDbLayerTableRecord
  2
가상선
 70
     0
 62
     4
  6
PHANTOM
370
    -3
390
F
  0
LAYER
  5
7D
330
2
100
AcDbSymbolTableRecord
100
AcDbLayerTableRecord
  2
특수지정선
 70
     0
 62
     5
  6
CENTERX2
370
    60
390
F
  0
LAYER
  5
7E
330
2
100
AcDbSymbolTableRecord
100
AcDbLayerTableRecord
  2
참조1
 70
     0
 62
    -4
  6
Continuous
370
    -3
390
F
  0
LAYER
  5
140
330
2
100
AcDbSymbolTableRecord
100
AcDbLayerTableRecord
  2
Defpoints
 70
     0
 62
     7
  6
Continuous
290
     0
370
    -3
390
F
  0
ENDTAB
  0
TABLE
  2
STYLE
  5
3
330
0
100
AcDbSymbolTable
 70
     2
  0
STYLE
  5
11
330
3
100
AcDbSymbolTableRecord
100
AcDbTextStyleTableRecord
  2
Standard
 70
     0
 40
0.0
 41
1.0
 50
0.0
 71
     0
 42
3.5
  3
txt
  4

  0
STYLE
  5
94
330
3
100
AcDbSymbolTableRecord
100
AcDbTextStyleTableRecord
  2
SLDTEXTSTYLE0
 70
     0
 40
0.0
 41
0.75
 50
0.0
 71
     0
 42
3.5
  3
TXT
  4

  0
ENDTAB
  0
TABLE
  2
VIEW
  5
6
330
0
100
AcDbSymbolTable
 70
     0
  0
ENDTAB
  0
TABLE
  2
UCS
  5
7
330
0
100
AcDbSymbolTable
 70
     0
  0
ENDTAB
  0
TABLE
  2
APPID
  5
9
330
0
100
AcDbSymbolTable
 70
     5
  0
APPID
  5
12
330
9
100
AcDbSymbolTableRecord
100
AcDbRegAppTableRecord
  2
ACAD
 70
     0
  0
APPID
  5
14B
330
9
100
AcDbSymbolTableRecord
100
AcDbRegAppTableRecord
  2
PE_URL
 70
     0
  0
APPID
  5
14F
330
9
100
AcDbSymbolTableRecord
100
AcDbRegAppTableRecord
  2
ACAD_DSTYLE_DIMRADIAL_EXTENSION
 70
     0
  0
APPID
  5
15E
330
9
100
AcDbSymbolTableRecord
100
AcDbRegAppTableRecord
  2
ACAD_DSTYLE_DIMFLIPARROW_SYMBOL
 70
     0
  0
APPID
  5
15F
330
9
100
AcDbSymbolTableRecord
100
AcDbRegAppTableRecord
  2
ACAD_DSTYLE_DIMFLIPARROW_WHICH_SYMBOL
 70
     0
  0
ENDTAB
  0
TABLE
  2
DIMSTYLE
  5
A
330
0
100
AcDbSymbolTable
 70
     3
100
AcDbDimStyleTable
  0
DIMSTYLE
105
27
102
{ACAD_REACTORS
330
150
102
}
330
A
100
AcDbSymbolTableRecord
100
AcDbDimStyleTableRecord
  2
ISO-25
 70
     0
 41
2.5
 42
0.625
 43
3.75
 44
1.25
 73
     0
 74
     0
 77
     1
 78
     8
140
2.5
141
2.5
143
0.03937007874016
147
0.625
171
     3
172
     1
178
     0
271
     2
272
     2
274
     3
278
    44
283
     0
284
     8
340
11
  0
DIMSTYLE
105
D3
330
A
100
AcDbSymbolTableRecord
100
AcDbDimStyleTableRecord
  2
SLDDIMSTYLE0
 70
     0
 41
3.302
 44
0.0
 45
0.000000001
 73
     0
 74
     0
 77
     1
 78
    12
 79
     3
140
3.5
147
0.875
173
     1
178
     0
271
     2
272
     2
276
     2
284
    12
340
94
  0
DIMSTYLE
105
E0
102
{ACAD_REACTORS
330
DF
330
ED
330
D2
330
F9
330
103
102
}
330
A
100
AcDbSymbolTableRecord
100
AcDbDimStyleTableRecord
  2
SLDDIMSTYLE1
 70
     0
 41
3.302
 44
0.0
 45
0.000000001
 73
     0
 74
     0
 77
     1
 78
    12
 79
     3
140
3.5
147
0.875
172
     1
173
     1
178
     0
271
     2
272
     2
276
     2
284
    12
289
     0
340
94
  0
ENDTAB
  0
TABLE
  2
BLOCK_RECORD
  5
1
330
0
100
AcDbSymbolTable
 70
     9
  0
BLOCK_RECORD
  5
1F
330
1
100
AcDbSymbolTableRecord
100
AcDbBlockTableRecord
  2
*Model_Space
340
22
  0
BLOCK_RECORD
  5
1B
330
1
100
AcDbSymbolTableRecord
100
AcDbBlockTableRecord
  2
*Paper_Space
340
1E
  0
BLOCK_RECORD
  5
23
330
1
100
AcDbSymbolTableRecord
100
AcDbBlockTableRecord
  2
*Paper_Space0
340
26
  0
BLOCK_RECORD
  5
7F
330
1
100
AcDbSymbolTableRecord
100
AcDbBlockTableRecord
  2
블럭10
340
0
102
{BLKREFS
331
CB
102
}
  0
BLOCK_RECORD
  5
D4
330
1
100
AcDbSymbolTableRecord
100
AcDbBlockTableRecord
  2
_D
340
0
  0
BLOCK_RECORD
  5
E1
330
1
100
AcDbSymbolTableRecord
100
AcDbBlockTableRecord
  2
_D_1
340
0
  0
BLOCK_RECORD
  5
EE
330
1
100
AcDbSymbolTableRecord
100
AcDbBlockTableRecord
  2
_D_2
340
0
  0
BLOCK_RECORD
  5
FA
330
1
100
AcDbSymbolTableRecord
100
AcDbBlockTableRecord
  2
_D_3
340
0
  0
BLOCK_RECORD
  5
104
330
1
100
AcDbSymbolTableRecord
100
AcDbBlockTableRecord
  2
_D_4
340
0
  0
BLOCK_RECORD
  5
114
330
1
100
AcDbSymbolTableRecord
100
AcDbBlockTableRecord
  2
SW_DOWELSYMBOL_0
340
0
102
{BLKREFS
331
11A
102
}
  0
BLOCK_RECORD
  5
153
330
1
100
AcDbSymbolTableRecord
100
AcDbBlockTableRecord
  2
*D8
340
0
  0
ENDTAB
  0
ENDSEC
  0
SECTION
  2
BLOCKS
  0
BLOCK
  5
20
330
1F
100
AcDbEntity
  8
0
100
AcDbBlockBegin
  2
*Model_Space
 70
     0
 10
0.0
 20
0.0
 30
0.0
  3
*Model_Space
  1

  0
ENDBLK
  5
21
330
1F
100
AcDbEntity
  8
0
100
AcDbBlockEnd
  0
BLOCK
  5
1C
330
1B
100
AcDbEntity
 67
     1
  8
0
100
AcDbBlockBegin
  2
*Paper_Space
 70
     0
 10
0.0
 20
0.0
 30
0.0
  3
*Paper_Space
  1

  0
ENDBLK
  5
1D
330
1B
100
AcDbEntity
 67
     1
  8
0
100
AcDbBlockEnd
  0
BLOCK
  5
24
330
23
100
AcDbEntity
  8
0
100
AcDbBlockBegin
  2
*Paper_Space0
 70
     0
 10
0.0
 20
0.0
 30
0.0
  3
*Paper_Space0
  1

  0
ENDBLK
  5
25
330
23
100
AcDbEntity
  8
0
100
AcDbBlockEnd
  0
BLOCK
  5
80
330
7F
100
AcDbEntity
  8
0
100
AcDbBlockBegin
  2
블럭10
 70
     2
 10
0.0
 20
0.0
 30
0.0
  3
블럭10
  1

  0
ELLIPSE
  5
82
330
7F
100
AcDbEntity
  8
중심선
100
AcDbEllipse
 10
20.54032771741204
 20
12.0471743016438
 30
0.0
 11
6.600054785286829
 21
-1.261213355974178E-13
 31
0.0
210
0.0
220
0.0
230
1.0
 40
0.636358354079598
 41
0.9219305317359503
 42
6.513795318482858
  0
ELLIPSE
  5
83
330
7F
100
AcDbEntity
  8
중심선
100
AcDbEllipse
 10
20.54032771746488
 20
12.04717430159265
 30
0.0
 11
3.960054785062283
 21
1.540847449632565E-10
 31
0.0
210
0.0
220
0.0
230
1.0
 40
0.3939339440162632
 41
1.131841032648279
 42
5.62031148352944
  0
LINE
  5
84
330
7F
100
AcDbEntity
  8
중심선
100
AcDbLine
 10
2.268634060543552
 20
16.24717430164393
 30
0.0
 11
5.714909304380834
 21
16.24717430164393
 31
0.0
  0
LINE
  5
85
330
7F
100
AcDbEntity
  8
중심선
100
AcDbLine
 10
5.245725140726316
 20
7.84717430164391
 30
0.0
 11
8.692000384563599
 21
7.84717430164391
 31
0.0
  0
LINE
  5
86
330
7F
100
AcDbEntity
  8
중심선
100
AcDbLine
 10
15.74043728645272
 20
16.24717430164393
 30
0.0
 11
8.692000384563599
 21
7.84717430164391
 31
0.0
  0
LINE
  5
87
330
7F
100
AcDbEntity
  8
중심선
100
AcDbLine
 10
0.1404042013395286
 20
13.71084872107135
 30
0.0
 11
3.58671253028996
 21
13.71088815037384
 31
0.0
  0
LINE
  5
88
330
7F
100
AcDbEntity
  8
중심선
100
AcDbLine
 10
2.750260043222114
 20
10.84717430164391
 30
0.0
 11
6.196535287059397
 21
10.84717430164391
 31
0.0
  0
LINE
  5
89
330
7F
100
AcDbEntity
  8
중심선
100
AcDbLine
 10
12.29416204261559
 20
16.24717430164393
 30
0.0
 11
5.245725140726316
 21
7.84717430164391
 31
0.0
  0
LINE
  5
8A
330
7F
100
AcDbEntity
  8
중심선
100
AcDbLine
 10
10.72767329541681
 20
16.24717430164393
 30
0.0
 11
6.196535287059397
 21
10.84717430164391
 31
0.0
  0
LINE
  5
8B
330
7F
100
AcDbEntity
  8
중심선
100
AcDbLine
 10
7.28139805157953
 20
16.24717430164393
 30
0.0
 11
2.750260043222114
 21
10.84717430164391
 31
0.0
  0
LINE
  5
8C
330
7F
100
AcDbEntity
  8
중심선
100
AcDbLine
 10
5.714909304380834
 20
16.24717430164393
 30
0.0
 11
3.58671253028996
 21
13.71088815037384
 31
0.0
  0
LINE
  5
8D
330
7F
100
AcDbEntity
  8
중심선
100
AcDbLine
 10
2.268634060543552
 20
16.24717430164393
 30
0.0
 11
0.1404042013395286
 21
13.71084872107135
 31
0.0
  0
LINE
  5
8E
330
7F
100
AcDbEntity
  8
중심선
100
AcDbLine
 10
7.28139805157953
 20
16.24717430164393
 30
0.0
 11
10.72767329541681
 21
16.24717430164393
 31
0.0
  0
LINE
  5
8F
330
7F
100
AcDbEntity
  8
중심선
100
AcDbLine
 10
12.29416204261559
 20
16.24717430164393
 30
0.0
 11
15.74043728645272
 21
16.24717430164393
 31
0.0
  0
LINE
  5
90
330
7F
100
AcDbEntity
  8
중심선
100
AcDbLine
 10
19.22036997980202
 20
11.08717430171403
 30
0.0
 11
23.66174974927406
 21
11.08717430171406
 31
0.0
  0
LINE
  5
91
330
7F
100
AcDbEntity
  8
중심선
100
AcDbLine
 10
19.22039502424796
 20
13.00717430171391
 30
0.0
 11
19.22036997980202
 21
11.08717430171403
 31
0.0
  0
LINE
  5
92
330
7F
100
AcDbEntity
  8
중심선
100
AcDbLine
 10
19.22039502424796
 20
13.00717430171391
 30
0.0
 11
26.96566020931264
 21
13.00717430171391
 31
0.0
  0
LINE
  5
93
330
7F
100
AcDbEntity
  8
중심선
100
AcDbLine
 10
22.22332737316547
 20
13.45928029700563
 30
0.0
 11
24.52862924686651
 21
15.39360700705356
 31
0.0
  0
ATTDEF
  5
95
330
7F
100
AcDbEntity
  8
FORMAT
 62
     2
100
AcDbText
 10
-2.529476536452461
 20
2.075366912832191
 30
0.0
 40
4.233333333333333
  1
SEME6408010E
 41
0.75
  7
SLDTEXTSTYLE0
 11
-2.529476536452461
 21
-0.0412997538344756
 31
0.0
100
AcDbAttributeDefinition
  3

  2
AUTOATTR0
 70
     0
 74
     1
  0
ENDBLK
  5
81
330
7F
100
AcDbEntity
  8
0
100
AcDbBlockEnd
  0
BLOCK
  5
D5
330
D4
100
AcDbEntity
  8
0
100
AcDbBlockBegin
  2
_D
 70
     0
 10
0.0
 20
0.0
 30
0.0
  3
_D
  1

  0
LINE
  5
D7
330
D4
100
AcDbEntity
  8
치수문자_일반주서
 62
     0
370
    -2
100
AcDbLine
 10
17.36229656378855
 20
3.999999999999999
 30
0.0
 11
48.18636350776566
 21
4.000000000000114
 31
0.0
  0
LINE
  5
D8
330
D4
100
AcDbEntity
  8
치수문자_일반주서
 62
     0
370
    -2
100
AcDbLine
 10
17.36229656378855
 20
-3.999999999999998
 30
0.0
 11
48.18636350776569
 21
-3.999999999999885
 31
0.0
  0
LINE
  5
D9
330
D4
100
AcDbEntity
  8
치수문자_일반주서
 62
     0
370
    -2
100
AcDbLine
 10
48.18636350776566
 20
4.000000000000114
 30
0.0
 11
48.18636350776561
 21
16.72900000000011
 31
0.0
  0
LINE
  5
DA
330
D4
100
AcDbEntity
  8
치수문자_일반주서
 62
     0
370
    -2
100
AcDbLine
 10
48.18636350776566
 20
4.000000000000114
 30
0.0
 11
48.18636350776569
 21
-3.999999999999885
 31
0.0
  0
LINE
  5
DB
330
D4
100
AcDbEntity
  8
치수문자_일반주서
 62
     0
370
    -2
100
AcDbLine
 10
48.18636350776565
 20
7.302000000000113
 30
0.0
 11
48.18636350776563
 21
10.60400000000011
 31
0.0
  0
LINE
  5
DC
330
D4
100
AcDbEntity
  8
치수문자_일반주서
 62
     0
370
    -2
100
AcDbLine
 10
48.18636350776571
 20
-7.301999999999884
 30
0.0
 11
48.18636350776572
 21
-10.60399999999988
 31
0.0
  0
SOLID
  5
DD
330
D4
100
AcDbEntity
  8
치수문자_일반주서
 62
     0
100
AcDbTrace
 10
47.63603017443231
 20
7.302000000000112
 30
0.0
 11
48.73669684109898
 21
7.302000000000115
 31
0.0
 12
48.18636350776566
 22
4.000000000000114
 32
0.0
 13
48.18636350776566
 23
4.000000000000114
 33
0.0
  0
SOLID
  5
DE
330
D4
100
AcDbEntity
  8
치수문자_일반주서
 62
     0
100
AcDbTrace
 10
48.73669684109904
 20
-7.301999999999882
 30
0.0
 11
47.63603017443237
 21
-7.301999999999886
 31
0.0
 12
48.18636350776569
 22
-3.999999999999885
 32
0.0
 13
48.18636350776569
 23
-3.999999999999885
 33
0.0
  0
MTEXT
  5
141
330
D4
100
AcDbEntity
  8
치수문자_일반주서
 62
     0
100
AcDbMText
 10
43.81136350776563
 20
13.6665000000001
 30
0.0
 40
3.5
 41
0.0
 71
     2
 72
     1
  1
\A1;%%c8
  7
SLDTEXTSTYLE0
 11
-3.552713678800503E-15
 21
1.0
 31
0.0
 73
     1
 44
1.0
  0
POINT
  5
142
330
D4
100
AcDbEntity
  8
Defpoints
 62
     0
100
AcDbPoint
 10
17.29979656378855
 20
3.999999999999998
 30
0.0
  0
POINT
  5
143
330
D4
100
AcDbEntity
  8
Defpoints
 62
     0
100
AcDbPoint
 10
17.29979656378855
 20
-3.999999999999998
 30
0.0
  0
POINT
  5
14C
330
D4
100
AcDbEntity
  8
Defpoints
 62
     0
100
AcDbPoint
 10
48.18636350776569
 20
-3.999999999999883
 30
0.0
  0
ENDBLK
  5
D6
330
D4
100
AcDbEntity
  8
0
100
AcDbBlockEnd
  0
BLOCK
  5
E2
330
E1
100
AcDbEntity
  8
0
100
AcDbBlockBegin
  2
_D_1
 70
     0
 10
0.0
 20
0.0
 30
0.0
  3
_D_1
  1

  0
LINE
  5
E4
330
E1
100
AcDbEntity
  8
치수문자_일반주서
 62
     0
370
    -2
100
AcDbLine
 10
-44.11250000000001
 20
4.000000000000004
 30
0.0
 11
-54.03846843616483
 21
3.999999999999966
 31
0.0
  0
LINE
  5
E5
330
E1
100
AcDbEntity
  8
치수문자_일반주서
 62
     0
370
    -2
100
AcDbLine
 10
-44.11250000000001
 20
-4.000000000000004
 30
0.0
 11
-54.03846843616481
 21
-4.000000000000041
 31
0.0
  0
LINE
  5
E6
330
E1
100
AcDbEntity
  8
치수문자_일반주서
 62
     0
370
    -2
100
AcDbLine
 10
-54.03846843616483
 20
3.999999999999966
 30
0.0
 11
-54.03846843616481
 21
-4.000000000000041
 31
0.0
  0
LINE
  5
E7
330
E1
100
AcDbEntity
  8
치수문자_일반주서
 62
     0
370
    -2
100
AcDbLine
 10
-54.03846843616485
 20
7.301999999999966
 30
0.0
 11
-54.03846843616486
 21
10.60399999999997
 31
0.0
  0
LINE
  5
E8
330
E1
100
AcDbEntity
  8
치수문자_일반주서
 62
     0
370
    -2
100
AcDbLine
 10
-54.03846843616479
 20
-7.30200000000004
 30
0.0
 11
-54.03846843616478
 21
-10.60400000000004
 31
0.0
  0
SOLID
  5
E9
330
E1
100
AcDbEntity
  8
치수문자_일반주서
 62
     0
100
AcDbTrace
 10
-54.58880176949818
 20
7.301999999999964
 30
0.0
 11
-53.48813510283151
 21
7.301999999999968
 31
0.0
 12
-54.03846843616483
 22
3.999999999999966
 32
0.0
 13
-54.03846843616483
 23
3.999999999999966
 33
0.0
  0
SOLID
  5
EA
330
E1
100
AcDbEntity
  8
치수문자_일반주서
 62
     0
100
AcDbTrace
 10
-53.48813510283146
 20
-7.302000000000039
 30
0.0
 11
-54.58880176949813
 21
-7.302000000000042
 31
0.0
 12
-54.03846843616481
 22
-4.000000000000041
 32
0.0
 13
-54.03846843616481
 23
-4.000000000000041
 33
0.0
  0
MTEXT
  5
EB
330
E1
100
AcDbEntity
  8
치수문자_일반주서
 62
     0
100
AcDbMText
 10
-58.41346843616482
 20
-0.0000000000000126
 30
0.0
 40
3.5
 41
0.0
 71
     2
 72
     1
  1
\A1;%%c8
  7
SLDTEXTSTYLE0
 11
-3.552713678800498E-15
 21
1.0
 31
0.0
 73
     1
 44
1.0
  0
POINT
  5
EC
330
E1
100
AcDbEntity
  8
Defpoints
 62
     0
100
AcDbPoint
 10
-44.05000000000001
 20
4.000000000000004
 30
0.0
  0
POINT
  5
14D
330
E1
100
AcDbEntity
  8
Defpoints
 62
     0
100
AcDbPoint
 10
-44.05000000000001
 20
-4.000000000000004
 30
0.0
  0
POINT
  5
14E
330
E1
100
AcDbEntity
  8
Defpoints
 62
     0
100
AcDbPoint
 10
-54.03846843616481
 20
-4.000000000000041
 30
0.0
  0
ENDBLK
  5
E3
330
E1
100
AcDbEntity
  8
0
100
AcDbBlockEnd
  0
BLOCK
  5
EF
330
EE
100
AcDbEntity
  8
0
100
AcDbBlockBegin
  2
_D_2
 70
     0
 10
0.0
 20
0.0
 30
0.0
  3
_D_2
  1

  0
LINE
  5
F1
330
EE
100
AcDbEntity
  8
치수문자_일반주서
 62
     0
370
    -2
100
AcDbLine
 10
25.15
 20
3.041948081799005
 30
0.0
 11
25.15
 21
13.11548684584201
 31
0.0
  0
LINE
  5
F2
330
EE
100
AcDbEntity
  8
치수문자_일반주서
 62
     0
370
    -2
100
AcDbLine
 10
13.14999999999958
 20
3.940954087803585
 30
0.0
 11
13.14999999999958
 21
13.11548684584201
 31
0.0
  0
LINE
  5
F3
330
EE
100
AcDbEntity
  8
치수문자_일반주서
 62
     0
370
    -2
100
AcDbLine
 10
21.848
 20
13.11548684584201
 30
0.0
 11
16.45199999999958
 21
13.11548684584201
 31
0.0
  0
SOLID
  5
F4
330
EE
100
AcDbEntity
  8
치수문자_일반주서
 62
     0
100
AcDbTrace
 10
21.848
 20
12.56515351250867
 30
0.0
 11
21.848
 21
13.66582017917534
 31
0.0
 12
25.15
 22
13.11548684584201
 32
0.0
 13
25.15
 23
13.11548684584201
 33
0.0
  0
SOLID
  5
F5
330
EE
100
AcDbEntity
  8
치수문자_일반주서
 62
     0
100
AcDbTrace
 10
16.45199999999958
 20
13.66582017917534
 30
0.0
 11
16.45199999999958
 21
12.56515351250867
 31
0.0
 12
13.14999999999958
 22
13.11548684584201
 32
0.0
 13
13.14999999999958
 23
13.11548684584201
 33
0.0
  0
MTEXT
  5
F6
330
EE
100
AcDbEntity
  8
치수문자_일반주서
 62
     0
100
AcDbMText
 10
19.14999999999979
 20
17.49048684584201
 30
0.0
 40
3.5
 41
0.0
 71
     2
 72
     1
  1
\A1;12
  7
SLDTEXTSTYLE0
 73
     1
 44
1.0
  0
POINT
  5
F7
330
EE
100
AcDbEntity
  8
Defpoints
 62
     0
100
AcDbPoint
 10
25.15
 20
2.979448081799005
 30
0.0
  0
POINT
  5
F8
330
EE
100
AcDbEntity
  8
Defpoints
 62
     0
100
AcDbPoint
 10
13.14999999999958
 20
3.878454087803585
 30
0.0
  0
POINT
  5
144
330
EE
100
AcDbEntity
  8
Defpoints
 62
     0
100
AcDbPoint
 10
13.14999999999958
 20
13.11548684584201
 30
0.0
  0
ENDBLK
  5
F0
330
EE
100
AcDbEntity
  8
0
100
AcDbBlockEnd
  0
BLOCK
  5
FB
330
FA
100
AcDbEntity
  8
0
100
AcDbBlockBegin
  2
_D_3
 70
     0
 10
0.0
 20
0.0
 30
0.0
  3
_D_3
  1

  0
LINE
  5
FD
330
FA
100
AcDbEntity
  8
치수문자_일반주서
 62
     0
370
    -2
100
AcDbLine
 10
25.15
 20
3.041948081799005
 30
0.0
 11
25.15
 21
19.11548684584198
 31
0.0
  0
LINE
  5
FE
330
FA
100
AcDbEntity
  8
치수문자_일반주서
 62
     0
370
    -2
100
AcDbLine
 10
0.1499999999999968
 20
3.912500000000001
 30
0.0
 11
0.1499999999999968
 21
19.11548684584198
 31
0.0
  0
LINE
  5
FF
330
FA
100
AcDbEntity
  8
치수문자_일반주서
 62
     0
370
    -2
100
AcDbLine
 10
21.848
 20
19.11548684584198
 30
0.0
 11
3.451999999999996
 21
19.11548684584198
 31
0.0
  0
SOLID
  5
100
330
FA
100
AcDbEntity
  8
치수문자_일반주서
 62
     0
100
AcDbTrace
 10
21.848
 20
18.56515351250865
 30
0.0
 11
21.848
 21
19.66582017917532
 31
0.0
 12
25.15
 22
19.11548684584198
 32
0.0
 13
25.15
 23
19.11548684584198
 33
0.0
  0
SOLID
  5
101
330
FA
100
AcDbEntity
  8
치수문자_일반주서
 62
     0
100
AcDbTrace
 10
3.451999999999996
 20
19.66582017917532
 30
0.0
 11
3.451999999999996
 21
18.56515351250865
 31
0.0
 12
0.1499999999999968
 22
19.11548684584198
 32
0.0
 13
0.1499999999999968
 23
19.11548684584198
 33
0.0
  0
MTEXT
  5
102
330
FA
100
AcDbEntity
  8
치수문자_일반주서
 62
     0
100
AcDbMText
 10
12.65
 20
23.49048684584198
 30
0.0
 40
3.5
 41
0.0
 71
     2
 72
     1
  1
\A1;25
  7
SLDTEXTSTYLE0
 73
     1
 44
1.0
  0
POINT
  5
145
330
FA
100
AcDbEntity
  8
Defpoints
 62
     0
100
AcDbPoint
 10
25.15
 20
2.979448081799005
 30
0.0
  0
POINT
  5
146
330
FA
100
AcDbEntity
  8
Defpoints
 62
     0
100
AcDbPoint
 10
0.1499999999999968
 20
3.850000000000001
 30
0.0
  0
POINT
  5
147
330
FA
100
AcDbEntity
  8
Defpoints
 62
     0
100
AcDbPoint
 10
0.1499999999999968
 20
19.11548684584198
 30
0.0
  0
ENDBLK
  5
FC
330
FA
100
AcDbEntity
  8
0
100
AcDbBlockEnd
  0
BLOCK
  5
105
330
104
100
AcDbEntity
  8
0
100
AcDbBlockBegin
  2
_D_4
 70
     0
 10
0.0
 20
0.0
 30
0.0
  3
_D_4
  1

  0
LINE
  5
107
330
104
100
AcDbEntity
  8
치수문자_일반주서
 62
     0
370
    -2
100
AcDbLine
 10
25.15
 20
3.041948081799005
 30
0.0
 11
25.14999999999999
 21
27.5229841470039
 31
0.0
  0
LINE
  5
108
330
104
100
AcDbEntity
  8
치수문자_일반주서
 62
     0
370
    -2
100
AcDbLine
 10
-44.85000000000001
 20
3.262500000000008
 30
0.0
 11
-44.85000000000001
 21
27.5229841470039
 31
0.0
  0
LINE
  5
109
330
104
100
AcDbEntity
  8
치수문자_일반주서
 62
     0
370
    -2
100
AcDbLine
 10
21.84799999999999
 20
27.5229841470039
 30
0.0
 11
-41.54800000000001
 21
27.5229841470039
 31
0.0
  0
SOLID
  5
10A
330
104
100
AcDbEntity
  8
치수문자_일반주서
 62
     0
100
AcDbTrace
 10
21.84799999999999
 20
26.97265081367056
 30
0.0
 11
21.84799999999999
 21
28.07331748033723
 31
0.0
 12
25.14999999999999
 22
27.5229841470039
 32
0.0
 13
25.14999999999999
 23
27.5229841470039
 33
0.0
  0
SOLID
  5
10B
330
104
100
AcDbEntity
  8
치수문자_일반주서
 62
     0
100
AcDbTrace
 10
-41.54800000000001
 20
28.07331748033723
 30
0.0
 11
-41.54800000000001
 21
26.97265081367056
 31
0.0
 12
-44.85000000000001
 22
27.5229841470039
 32
0.0
 13
-44.85000000000001
 23
27.5229841470039
 33
0.0
  0
MTEXT
  5
10C
330
104
100
AcDbEntity
  8
치수문자_일반주서
 62
     0
100
AcDbMText
 10
-9.850000000000005
 20
31.8979841470039
 30
0.0
 40
3.5
 41
0.0
 71
     2
 72
     1
  1
\A1;70
  7
SLDTEXTSTYLE0
 73
     1
 44
1.0
  0
POINT
  5
148
330
104
100
AcDbEntity
  8
Defpoints
 62
     0
100
AcDbPoint
 10
25.15
 20
2.979448081799005
 30
0.0
  0
POINT
  5
149
330
104
100
AcDbEntity
  8
Defpoints
 62
     0
100
AcDbPoint
 10
-44.85000000000001
 20
3.200000000000008
 30
0.0
  0
POINT
  5
14A
330
104
100
AcDbEntity
  8
Defpoints
 62
     0
100
AcDbPoint
 10
-44.85000000000001
 20
27.5229841470039
 30
0.0
  0
ENDBLK
  5
106
330
104
100
AcDbEntity
  8
0
100
AcDbBlockEnd
  0
BLOCK
  5
115
330
114
100
AcDbEntity
  8
0
100
AcDbBlockBegin
  2
SW_DOWELSYMBOL_0
 70
     0
 10
0.0
 20
0.0
 30
0.0
  3
SW_DOWELSYMBOL_0
  1

  0
CIRCLE
  5
117
330
114
100
AcDbEntity
  8
해칭선
 62
     0
100
AcDbCircle
 10
0.0
 20
0.0
 30
0.0
 40
3.000000000000001
  0
HATCH
  5
118
330
114
100
AcDbEntity
  8
0
  6
Continuous
 62
     0
370
     0
100
AcDbHatch
 10
0.0
 20
0.0
 30
0.0
210
0.0
220
0.0
230
1.0
  2
SOLID
 70
     1
 71
     0
 91
        1
 92
        0
 93
        3
 72
     2
 10
0.0
 20
0.0
 40
3.000000000000001
 50
0.0
 51
90.0
 73
     1
 72
     1
 10
0.0
 20
3.000000000000001
 11
0.0
 21
0.0
 72
     1
 10
0.0
 20
0.0
 11
3.000000000000001
 21
0.0
 97
        0
 75
     0
 76
     1
 98
        1
 10
0.0
 20
0.0
  0
HATCH
  5
119
330
114
100
AcDbEntity
  8
0
  6
Continuous
 62
     0
370
     0
100
AcDbHatch
 10
0.0
 20
0.0
 30
0.0
210
0.0
220
0.0
230
1.0
  2
SOLID
 70
     1
 71
     0
 91
        1
 92
        0
 93
        3
 72
     2
 10
0.0
 20
0.0
 40
3.000000000000001
 50
180.0
 51
270.0000000000008
 73
     1
 72
     1
 10
0.0
 20
-3.000000000000001
 11
0.0
 21
0.0
 72
     1
 10
0.0
 20
0.0
 11
-3.000000000000001
 21
0.0
 97
        0
 75
     0
 76
     1
 98
        1
 10
0.0
 20
0.0
  0
ENDBLK
  5
116
330
114
100
AcDbEntity
  8
0
100
AcDbBlockEnd
  0
BLOCK
  5
154
330
153
100
AcDbEntity
  8
0
100
AcDbBlockBegin
  2
*D8
 70
     1
 10
0.0
 20
0.0
 30
0.0
  3
*D8
  1

  0
LINE
  5
156
330
153
100
AcDbEntity
  8
0
 62
     0
370
    -2
100
AcDbLine
 10
46.57955470595123
 20
-10.83921004481463
 30
0.0
 11
32.80555470595123
 21
-10.83921004481463
 31
0.0
  0
LINE
  5
157
330
153
100
AcDbEntity
  8
0
 62
     0
370
    -2
100
AcDbLine
 10
32.80555470595123
 20
-10.83921004481463
 30
0.0
 11
27.33485609939357
 21
-5.871488127537567
 31
0.0
  0
MTEXT
  5
158
330
153
100
AcDbEntity
  8
0
 62
     0
100
AcDbMText
 10
40.45455470595123
 20
-7.27354337814796
 30
0.0
 40
3.5
 41
0.0
 71
     5
 72
     1
  1
R1,00
 73
     1
 44
1.0
  0
LINE
  5
159
330
153
100
AcDbEntity
  8
0
 62
     0
370
    -2
100
AcDbLine
 10
24.15
 20
-2.979448081798993
 30
0.0
 11
24.89031987433602
 21
-3.651702857656403
 31
0.0
  0
SOLID
  5
15A
330
153
100
AcDbEntity
  8
0
 62
     0
100
AcDbTrace
 10
27.70482031104043
 20
-5.464065423361309
 30
0.0
 11
26.96489188774671
 21
-6.278910831713826
 31
0.0
 12
24.89031987433602
 22
-3.651702857656403
 32
0.0
 13
24.89031987433602
 23
-3.651702857656403
 33
0.0
  0
POINT
  5
15B
330
153
100
AcDbEntity
  8
Defpoints
 62
     0
100
AcDbPoint
 10
24.89031987433602
 20
-3.651702857656403
 30
0.0
  0
POINT
  5
15C
330
153
100
AcDbEntity
  8
Defpoints
 62
     0
100
AcDbPoint
 10
24.15
 20
-2.979448081798993
 30
0.0
  0
ENDBLK
  5
155
330
153
100
AcDbEntity
  8
0
100
AcDbBlockEnd
  0
ENDSEC
  0
SECTION
  2
ENTITIES
  0
LINE
  5
96
330
1F
100
AcDbEntity
  8
외형선
  6
Continuous
 62
     1
370
    15
100
AcDbLine
 10
17.30066262484789
 20
3.999999999999998
 30
0.0
 11
14.86128266496815
 21
3.999999999999997
 31
0.0
  0
LINE
  5
97
330
1F
100
AcDbEntity
  8
외형선
  6
Continuous
 62
     1
370
    15
100
AcDbLine
 10
14.86128266496809
 20
-3.999999999999999
 30
0.0
 11
17.30066262484789
 21
-3.999999999999998
 31
0.0
1001
PE_URL
1000

  0
LINE
  5
98
330
1F
100
AcDbEntity
  8
외형선
  6
Continuous
370
    15
100
AcDbLine
 10
-44.05
 20
-4.0
 30
0.0
 11
0.0
 21
-4.0
 31
0.0
  0
LINE
  5
99
330
1F
100
AcDbEntity
  8
외형선
  6
Continuous
370
    15
100
AcDbLine
 10
0.0
 20
4.0
 30
0.0
 11
-44.05
 21
4.0
 31
0.0
  0
LINE
  5
9A
330
1F
100
AcDbEntity
  8
외형선
  6
Continuous
370
    15
100
AcDbLine
 10
-44.05
 20
4.0
 30
0.0
 11
-44.85000000000001
 21
3.200000000000008
 31
0.0
  0
LINE
  5
9B
330
1F
100
AcDbEntity
  8
외형선
  6
Continuous
370
    15
100
AcDbLine
 10
-44.85000000000001
 20
-3.200000000000008
 30
0.0
 11
-44.05
 21
-4.0
 31
0.0
  0
LINE
  5
9C
330
1F
100
AcDbEntity
  8
외형선
  6
Continuous
370
    15
100
AcDbLine
 10
0.0
 20
-4.0
 30
0.0
 11
0.1499999999999968
 21
-3.850000000000001
 31
0.0
  0
LINE
  5
9D
330
1F
100
AcDbEntity
  8
외형선
  6
Continuous
370
    15
100
AcDbLine
 10
0.1499999999999968
 20
3.850000000000001
 30
0.0
 11
0.0
 21
4.0
 31
0.0
  0
LINE
  5
9E
330
1F
100
AcDbEntity
  8
외형선
  6
Continuous
370
    15
100
AcDbLine
 10
0.1499999999999968
 20
-3.850000000000001
 30
0.0
 11
12.14965477449866
 21
-3.850000000000001
 31
0.0
  0
LINE
  5
9F
330
1F
100
AcDbEntity
  8
외형선
  6
Continuous
370
    15
100
AcDbLine
 10
12.14965477449866
 20
3.850000000000001
 30
0.0
 11
0.1499999999999968
 21
3.850000000000001
 31
0.0
  0
SPLINE
  5
A0
330
1F
100
AcDbEntity
  8
외형선
  6
Continuous
 62
     1
370
    15
100
AcDbSpline
210
0.0
220
0.0
230
1.0
 70
     8
 71
     3
 72
    14
 73
    10
 74
     0
 42
0.000000001
 43
0.00000001
 40
0.0
 40
0.0
 40
0.0
 40
0.0
 40
0.25
 40
0.25
 40
0.5
 40
0.5
 40
0.75
 40
0.75
 40
1.0
 40
1.0
 40
1.0
 40
1.0
 10
24.15
 20
0.9121791767311852
 30
0.0
 10
24.26973313642592
 20
0.8450178867046678
 30
0.0
 10
24.39068856303634
 20
0.7787908798190376
 30
0.0
 10
24.62670807888058
 20
0.6564804383511947
 30
0.0
 10
24.73924164989833
 20
0.6018939118666907
 30
0.0
 10
24.93254610403294
 20
0.5094501276906941
 30
0.0
 10
25.01278108522799
 20
0.4715164761480301
 30
0.0
 10
25.12099968328639
 20
0.4064955145437312
 30
0.0
 10
25.15
 20
0.3785086110685895
 30
0.0
 10
25.15
 20
0.3505554561895348
 30
0.0
  0
LINE
  5
A1
330
1F
100
AcDbEntity
  8
외형선
  6
Continuous
 62
     1
370
    15
100
AcDbLine
 10
25.15
 20
-2.755555456189498
 30
0.0
 11
25.15
 21
0.3505554561895352
 31
0.0
  0
SPLINE
  5
A2
330
1F
100
AcDbEntity
  8
외형선
  6
Continuous
 62
     1
370
    15
100
AcDbSpline
210
0.0
220
0.0
230
1.0
 70
     8
 71
     3
 72
    12
 73
     8
 74
     0
 42
0.000000001
 43
0.00000001
 40
0.0
 40
0.0
 40
0.0
 40
0.0
 40
0.2500000000000038
 40
0.2500000000000038
 40
0.5000000000000075
 40
0.5000000000000075
 40
1.0
 40
1.0
 40
1.0
 40
1.0
 10
25.15
 20
-2.755555456189498
 30
0.0
 10
25.15000000000003
 20
-2.894266671308322
 30
0.0
 10
25.11703965467726
 20
-3.020604519062772
 30
0.0
 10
25.0015192489094
 20
-3.218793296863404
 30
0.0
 10
24.91958419913893
 20
-3.291373456733435
 30
0.0
 10
24.63819554368389
 20
-3.428757596492893
 30
0.0
 10
24.40238037600149
 20
-3.42118719042377
 30
0.0
 10
24.15000000000001
 20
-3.341251256817735
 30
0.0
  0
SPLINE
  5
A3
330
1F
100
AcDbEntity
  8
외형선
  6
Continuous
 62
     1
370
    15
100
AcDbSpline
210
0.0
220
0.0
230
1.0
 70
     8
 71
     3
 72
    30
 73
    26
 74
     0
 42
0.000000001
 43
0.00000001
 40
0.0
 40
0.0
 40
0.0
 40
0.0
 40
0.1249999999999955
 40
0.1249999999999955
 40
0.1874999999999946
 40
0.1874999999999946
 40
0.2499999999999938
 40
0.2499999999999938
 40
0.3749999999999951
 40
0.3749999999999951
 40
0.4999999999999963
 40
0.4999999999999963
 40
0.5624999999999956
 40
0.5624999999999956
 40
0.6249999999999947
 40
0.6249999999999947
 40
0.6874999999999953
 40
0.6874999999999953
 40
0.7499999999999959
 40
0.7499999999999959
 40
0.8749999999999987
 40
0.8749999999999987
 40
0.9374999999999992
 40
0.9374999999999992
 40
1.0
 40
1.0
 40
1.0
 40
1.0
 10
24.15000000000032
 20
-3.341251256817833
 30
0.0
 10
23.6901080585415
 20
-3.195590598565275
 30
0.0
 10
23.23579202861993
 20
-3.028577779211052
 30
0.0
 10
22.54587165701773
 20
-2.74891786092128
 30
0.0
 10
22.31556085417239
 20
-2.650965081430639
 30
0.0
 10
21.8576599191021
 20
-2.44707868636203
 30
0.0
 10
21.63066359529049
 20
-2.341257355408522
 30
0.0
 10
20.94259094309423
 20
-2.011704666286955
 30
0.0
 10
20.48175434908381
 20
-1.776922456542858
 30
0.0
 10
19.5693384186506
 20
-1.288791857419552
 30
0.0
 10
19.10588561621924
 20
-1.033319120050623
 30
0.0
 10
18.42017921285341
 20
-0.6441886637633638
 30
0.0
 10
18.19277019063662
 20
-0.5134317350133597
 30
0.0
 10
17.73355207111373
 20
-0.2498231916379472
 30
0.0
 10
17.50308596263767
 20
-0.1172267284737239
 30
0.0
 10
17.04384260797046
 20
0.147592753380532
 30
0.0
 10
16.81639916746128
 20
0.2795582201207251
 30
0.0
 10
16.35930851016138
 20
0.5425656884302617
 30
0.0
 10
16.12917191598001
 20
0.6736989094793691
 30
0.0
 10
15.43906860686844
 20
1.063067378859253
 30
0.0
 10
14.9845356816927
 20
1.316323317723658
 30
0.0
 10
14.29512597966588
 20
1.682187087984985
 30
0.0
 10
14.06468724107821
 20
1.80168125382777
 30
0.0
 10
13.60594037503188
 20
2.033995230430199
 30
0.0
 10
13.37893022458474
 20
2.146613696015985
 30
0.0
 10
13.14999999999947
 20
2.255848744379531
 30
0.0
  0
SPLINE
  5
A4
330
1F
100
AcDbEntity
  8
외형선
  6
Continuous
370
    15
100
AcDbSpline
210
0.0
220
0.0
230
1.0
 70
    24
 71
     3
 72
    12
 73
     8
 74
     0
 42
0.000000001
 43
0.00000001
 40
0.0
 40
0.0
 40
0.0
 40
0.0
 40
0.1463560289995192
 40
0.3832914611958974
 40
0.6270980369771137
 40
0.8119499972697526
 40
1.0
 40
1.0
 40
1.0
 40
1.0
 10
13.15000000000002
 20
2.304251509237236
 30
0.0
 10
13.15000000000003
 20
2.369467076226147
 30
0.0
 10
13.15000000000003
 20
2.540259971706938
 30
0.0
 10
13.15000000000004
 20
2.861630204963532
 30
0.0
 10
13.14999999999998
 20
3.219746346879516
 30
0.0
 10
13.15000000000009
 20
3.563543228845792
 30
0.0
 10
13.14999999999977
 20
3.772885355537374
 30
0.0
 10
13.14999999999958
 20
3.878454087803585
 30
0.0
  0
SPLINE
  5
A5
330
1F
100
AcDbEntity
  8
외형선
  6
Continuous
 62
     1
370
    15
100
AcDbSpline
210
0.0
220
0.0
230
1.0
 70
     8
 71
     3
 72
    30
 73
    26
 74
     0
 42
0.000000001
 43
0.00000001
 40
0.0
 40
0.0
 40
0.0
 40
0.0
 40
0.1250000000000019
 40
0.1250000000000019
 40
0.1875000000000029
 40
0.1875000000000029
 40
0.2500000000000038
 40
0.2500000000000038
 40
0.3750000000000029
 40
0.3750000000000029
 40
0.5000000000000021
 40
0.5000000000000021
 40
0.5625000000000031
 40
0.5625000000000031
 40
0.625000000000004
 40
0.625000000000004
 40
0.6875000000000036
 40
0.6875000000000036
 40
0.750000000000003
 40
0.750000000000003
 40
0.8750000000000008
 40
0.8750000000000008
 40
0.9375000000000003
 40
0.9375000000000003
 40
1.0
 40
1.0
 40
1.0
 40
1.0
 10
24.15000000000035
 20
0.9121791767309876
 30
0.0
 10
23.6901080585415
 20
1.170143989005705
 30
0.0
 10
23.23579202861988
 20
1.421075055757522
 30
0.0
 10
22.54587165701766
 20
1.782575602787535
 30
0.0
 10
22.31556085417236
 20
1.900392485817365
 30
0.0
 10
21.85765991910205
 20
2.128948066334973
 30
0.0
 10
21.6306635952904
 20
2.239607509023947
 30
0.0
 10
20.94259094309409
 20
2.561164944275363
 30
0.0
 10
20.48175434908362
 20
2.760335776014665
 30
0.0
 10
19.56933841865042
 20
3.118742996464264
 30
0.0
 10
19.10588561621903
 20
3.279451425722641
 30
0.0
 10
18.42017921285318
 20
3.485654633384372
 30
0.0
 10
18.19277019063637
 20
3.548687850868098
 30
0.0
 10
17.73355207111346
 20
3.663296026964128
 30
0.0
 10
17.50308596263742
 20
3.71472964935028
 30
0.0
 10
17.04384260797018
 20
3.805095852581624
 30
0.0
 10
16.81639916746099
 20
3.843970338189176
 30
0.0
 10
16.35930851016105
 20
3.909149651354498
 30
0.0
 10
16.1291719159797
 20
3.93544721704841
 30
0.0
 10
15.43906860686806
 20
3.99475698197979
 30
0.0
 10
14.9845356816923
 20
4.008150490567919
 30
0.0
 10
14.29512597966544
 20
3.988820140915609
 30
0.0
 10
14.06468724107777
 20
3.975784197804745
 30
0.0
 10
13.60594037503145
 20
3.936744209550362
 30
0.0
 10
13.37893022458431
 20
3.910814757144621
 30
0.0
 10
13.14999999999902
 20
3.878454087803518
 30
0.0
  0
SPLINE
  5
A7
330
1F
100
AcDbEntity
  8
외형선
  6
Continuous
 62
     1
370
    15
100
AcDbSpline
210
0.0
220
0.0
230
1.0
 70
     8
 71
     3
 72
    14
 73
    10
 74
     0
 42
0.000000001
 43
0.00000001
 40
0.0
 40
0.0
 40
0.0
 40
0.0
 40
0.1278573549483364
 40
0.2749114038253618
 40
0.4219238123568338
 40
0.5665533710360824
 40
0.7111815185795625
 40
0.8555598776151186
 40
1.0
 40
1.0
 40
1.0
 40
1.0
 10
21.52376255024315
 20
-3.273518786835549
 30
0.0
 10
21.16675359259223
 20
-3.386309633694227
 30
0.0
 10
20.39913382002848
 20
-3.628825913349002
 30
0.0
 10
19.22166212257823
 20
-3.865828070646595
 30
0.0
 10
17.99746121485574
 20
-4.000865498483603
 30
0.0
 10
16.77943079178968
 20
-4.009215886415702
 30
0.0
 10
15.56872583114546
 20
-3.894456580545913
 30
0.0
 10
14.35926794854455
 20
-3.667916277213647
 30
0.0
 10
13.55314677873592
 20
-3.424791058073275
 30
0.0
 10
13.14999999999947
 20
-3.303202452542294
 30
0.0
1001
PE_URL
1000

  0
SPLINE
  5
A8
330
1F
100
AcDbEntity
  8
외형선
  6
Continuous
370
    15
100
AcDbSpline
210
0.0
220
0.0
230
1.0
 70
    24
 71
     3
 72
    21
 73
    17
 74
     0
 42
0.000000001
 43
0.00000001
 40
0.0
 40
0.0
 40
0.0
 40
0.0
 40
0.1069701221979008
 40
0.1792441296725943
 40
0.2536140882602416
 40
0.3258880957349781
 40
0.4002580543226729
 40
0.4725320617973859
 40
0.5469020203850543
 40
0.6191760278597697
 40
0.6935459864474411
 40
0.7658199939221775
 40
0.8401899525098255
 40
0.9124639599845372
 40
0.9868339185722043
 40
1.0
 40
1.0
 40
1.0
 40
1.0
 10
13.15000000000002
 20
-3.303202452542465
 30
0.0
 10
13.15000000000003
 20
-3.170406936159205
 30
0.0
 10
13.15000000000001
 20
-2.947888570568261
 30
0.0
 10
13.14999999999995
 20
-2.550691168895988
 30
0.0
 10
13.15000000000001
 20
-2.180020523104482
 30
0.0
 10
13.14999999999998
 20
-1.783034249986427
 30
0.0
 10
13.15000000000008
 20
-1.379611935937659
 30
0.0
 10
13.14999999999998
 20
-0.9735137269676993
 30
0.0
 10
13.14999999999999
 20
-0.5836335586117812
 30
0.0
 10
13.14999999999999
 20
-0.2140255880283823
 30
0.0
 10
13.14999999999999
 20
0.1184293431007698
 30
0.0
 10
13.15000000000002
 20
0.4094059351093381
 30
0.0
 10
13.15000000000004
 20
0.6487862033500212
 30
0.0
 10
13.14999999999999
 20
0.8215535074049495
 30
0.0
 10
13.15000000000011
 20
0.9273316936956543
 30
0.0
 10
13.14999999999998
 20
0.9366701958078225
 30
0.0
 10
13.14999999999995
 20
0.938074777043171
 30
0.0
  0
SPLINE
  5
A9
330
1F
100
AcDbEntity
  8
외형선
  6
Continuous
 62
     1
370
    15
100
AcDbSpline
210
0.0
220
0.0
230
1.0
 70
     8
 71
     3
 72
    30
 73
    26
 74
     0
 42
0.000000001
 43
0.00000001
 40
0.0
 40
0.0
 40
0.0
 40
0.0
 40
0.1250000000000014
 40
0.1250000000000014
 40
0.1875000000000021
 40
0.1875000000000021
 40
0.2500000000000028
 40
0.2500000000000028
 40
0.3750000000000042
 40
0.3750000000000042
 40
0.5000000000000057
 40
0.5000000000000057
 40
0.5625000000000049
 40
0.5625000000000049
 40
0.6250000000000042
 40
0.6250000000000042
 40
0.6875000000000034
 40
0.6875000000000034
 40
0.7500000000000028
 40
0.7500000000000028
 40
0.8750000000000014
 40
0.8750000000000014
 40
0.9375000000000007
 40
0.9375000000000007
 40
1.0
 40
1.0
 40
1.0
 40
1.0
 10
24.15
 20
-3.979448081798993
 30
0.0
 10
23.6901080585415
 20
-3.834183017443421
 30
0.0
 10
23.23579202861991
 20
-3.748432691877426
 30
0.0
 10
22.54587165701768
 20
-3.583291044592203
 30
0.0
 10
22.31556085417236
 20
-3.522216182144387
 30
0.0
 10
21.85765991910205
 20
-3.38896423185012
 30
0.0
 10
21.63066359529037
 20
-3.316877651861618
 30
0.0
 10
20.94259094309413
 20
-3.083911596624733
 30
0.0
 10
20.48175434908367
 20
-2.906951627332895
 30
0.0
 10
19.56933841865042
 20
-2.518583626168674
 30
0.0
 10
19.10588561621904
 20
-2.305453180909022
 30
0.0
 10
18.42017921285316
 20
-1.966644549105303
 30
0.0
 10
18.1927701906364
 20
-1.850498983298005
 30
0.0
 10
17.73355207111347
 20
-1.611767405339435
 30
0.0
 10
17.50308596263741
 20
-1.489401297278711
 30
0.0
 10
17.04384260797016
 20
-1.240474967407106
 30
0.0
 10
16.81639916746099
 20
-1.114167783564413
 30
0.0
 10
16.35930851016101
 20
-0.8579200511271747
 30
0.0
 10
16.12917191597968
 20
-0.7278796562033052
 30
0.0
 10
15.43906860686808
 20
-0.3348597068600484
 30
0.0
 10
14.9845356816923
 20
-0.069978309058889
 30
0.0
 10
14.29512597966547
 20
0.3268879213439623
 30
0.0
 10
14.06468724107778
 20
0.4589770937721858
 30
0.0
 10
13.60594037503144
 20
0.7208085659127316
 30
0.0
 10
13.37893022458428
 20
0.8503089667081686
 30
0.0
 10
13.14999999999901
 20
0.9785672632987891
 30
0.0
  0
LINE
  5
AA
330
1F
100
AcDbEntity
  8
외형선
  6
Continuous
370
    15
100
AcDbLine
 10
13.15000000000002
 20
2.255848744379288
 30
0.0
 11
13.14999999999958
 21
0.9785672632985297
 31
0.0
  0
SPLINE
  5
AB
330
1F
100
AcDbEntity
  8
외형선
  6
Continuous
 62
     1
370
    15
100
AcDbSpline
210
0.0
220
0.0
230
1.0
 70
     8
 71
     3
 72
    12
 73
     8
 74
     0
 42
0.000000001
 43
0.00000001
 40
0.0
 40
0.0
 40
0.0
 40
0.0
 40
0.2499999999999961
 40
0.2499999999999961
 40
0.4999999999999922
 40
0.4999999999999922
 40
1.0
 40
1.0
 40
1.0
 40
1.0
 10
25.15
 20
1.186134110404136
 30
0.0
 10
25.15000000000003
 20
1.232141797168729
 30
0.0
 10
25.11703965467723
 20
1.304441289685794
 30
0.0
 10
25.0015192489094
 20
1.47966091031164
 30
0.0
 10
24.9195841991389
 20
1.58181695443568
 30
0.0
 10
24.63819554368386
 20
1.882429929747781
 30
0.0
 10
24.40238037600147
 20
2.077647385059868
 30
0.0
 10
24.15000000000001
 20
2.199099824658663
 30
0.0
  0
LINE
  5
AC
330
1F
100
AcDbEntity
  8
외형선
  6
Continuous
 62
     1
370
    15
100
AcDbLine
 10
25.15
 20
1.186134110404136
 30
0.0
 11
25.15
 21
0.3505554561895352
 31
0.0
  0
SPLINE
  5
AD
330
1F
100
AcDbEntity
  8
외형선
  6
Continuous
 62
     1
370
    15
100
AcDbSpline
210
0.0
220
0.0
230
1.0
 70
     8
 71
     3
 72
    13
 73
     9
 74
     0
 42
0.000000001
 43
0.00000001
 40
0.0
 40
0.0
 40
0.0
 40
0.0
 40
0.1797144449523079
 40
0.3596374150629131
 40
0.5397567407588432
 40
0.7195388991511045
 40
0.8992701497903527
 40
1.0
 40
1.0
 40
1.0
 40
1.0
 10
24.15000000000033
 20
2.1990998246585
 30
0.0
 10
23.73977957323347
 20
2.390438340683312
 30
0.0
 10
22.91886273525981
 20
2.773337385461813
 30
0.0
 10
21.68650412261638
 20
3.241072229174591
 30
0.0
 10
20.45346314727563
 20
3.612714281764935
 30
0.0
 10
19.22165770905733
 20
3.863838229633463
 30
0.0
 10
18.17116148859316
 20
3.992618569658894
 30
0.0
 10
17.53069227248048
 20
3.987043762464815
 30
0.0
 10
17.3006626248479
 20
3.985041525819849
 30
0.0
  0
LINE
  5
AF
330
1F
100
AcDbEntity
  8
외형선
  6
Continuous
 62
     1
370
    15
100
AcDbLine
 10
25.15
 20
1.186134110404136
 30
0.0
 11
25.15
 21
2.979448081799005
 31
0.0
  0
SPLINE
  5
B0
330
1F
100
AcDbEntity
  8
외형선
  6
Continuous
 62
     1
370
    15
100
AcDbSpline
210
0.0
220
0.0
230
1.0
 70
     8
 71
     3
 72
    10
 73
     6
 74
     0
 42
0.000000001
 43
0.00000001
 40
0.0
 40
0.0
 40
0.0
 40
0.0
 40
0.0787563119621527
 40
0.5397012563553211
 40
1.0
 40
1.0
 40
1.0
 40
1.0
 10
21.52376255024315
 20
3.273518786835548
 30
0.0
 10
21.5927259303025
 20
3.298432100531399
 30
0.0
 10
22.06531818269771
 20
3.469158057177095
 30
0.0
 10
22.94085115910723
 20
3.69590743764378
 30
0.0
 10
23.7471389082388
 20
3.828401835885495
 30
0.0
 10
24.15
 20
3.979448081799005
 30
0.0
  0
LINE
  5
B1
330
1F
100
AcDbEntity
  8
외형선
  6
Continuous
 62
     1
370
    15
100
AcDbLine
 10
25.15
 20
-2.755555456189498
 30
0.0
 11
25.15
 21
-2.979448081799005
 31
0.0
  0
SPLINE
  5
B2
330
1F
100
AcDbEntity
  8
외형선
  6
Continuous
 62
     1
370
    15
100
AcDbSpline
210
0.0
220
0.0
230
1.0
 70
     8
 71
     3
 72
     9
 73
     5
 74
     0
 42
0.000000001
 43
0.00000001
 40
0.0
 40
0.0
 40
0.0
 40
0.0
 40
0.7195959621110808
 40
1.0
 40
1.0
 40
1.0
 40
1.0
 10
13.14999999999902
 20
-3.878454087803525
 30
0.0
 10
13.56050223871308
 20
-3.930857136129418
 30
0.0
 10
14.13096435958126
 20
-4.003680013250854
 30
0.0
 10
14.70134549223604
 20
-3.989071230911298
 30
0.0
 10
14.86128266496809
 20
-3.984974869354645
 30
0.0
1001
PE_URL
1000

  0
LINE
  5
B3
330
1F
100
AcDbEntity
  8
외형선
  6
Continuous
370
    15
100
AcDbLine
 10
13.15000000000002
 20
-3.303202452542465
 30
0.0
 11
13.14999999999958
 21
-3.878454087803593
 31
0.0
  0
LINE
  5
B4
330
1F
100
AcDbEntity
  8
외형선
  6
Continuous
370
    15
100
AcDbLine
 10
0.0
 20
0.0
 30
0.0
 11
0.0
 21
4.0
 31
0.0
  0
LINE
  5
B5
330
1F
100
AcDbEntity
  8
외형선
  6
Continuous
370
    15
100
AcDbLine
 10
0.0
 20
-4.0
 30
0.0
 11
0.0
 21
0.0
 31
0.0
  0
LINE
  5
B6
330
1F
100
AcDbEntity
  8
외형선
  6
Continuous
370
    15
100
AcDbLine
 10
-44.05
 20
0.0
 30
0.0
 11
-44.05
 21
4.0
 31
0.0
  0
LINE
  5
B7
330
1F
100
AcDbEntity
  8
외형선
  6
Continuous
370
    15
100
AcDbLine
 10
-44.05
 20
-4.0
 30
0.0
 11
-44.05
 21
0.0
 31
0.0
  0
LINE
  5
B8
330
1F
100
AcDbEntity
  8
외형선
  6
Continuous
370
    15
100
AcDbLine
 10
-44.85000000000001
 20
0.0
 30
0.0
 11
-44.85000000000001
 21
3.200000000000008
 31
0.0
  0
LINE
  5
B9
330
1F
100
AcDbEntity
  8
외형선
  6
Continuous
370
    15
100
AcDbLine
 10
-44.85000000000001
 20
-3.200000000000008
 30
0.0
 11
-44.85000000000001
 21
0.0
 31
0.0
  0
LINE
  5
BA
330
1F
100
AcDbEntity
  8
외형선
  6
Continuous
370
    15
100
AcDbLine
 10
0.1499999999999968
 20
0.0
 30
0.0
 11
0.1499999999999968
 21
3.850000000000003
 31
0.0
  0
LINE
  5
BB
330
1F
100
AcDbEntity
  8
외형선
  6
Continuous
370
    15
100
AcDbLine
 10
0.1499999999999968
 20
-3.850000000000008
 30
0.0
 11
0.1499999999999968
 21
0.0
 31
0.0
  0
SPLINE
  5
BC
330
1F
100
AcDbEntity
  8
외형선
  6
Continuous
370
    15
100
AcDbSpline
210
0.0
220
0.0
230
1.0
 70
     8
 71
     3
 72
     8
 73
     4
 74
     0
 42
0.000000001
 43
0.00000001
 40
0.0
 40
0.0
 40
0.0
 40
0.0
 40
1.0
 40
1.0
 40
1.0
 40
1.0
 10
13.14999999999942
 20
0.9824727941474508
 30
0.0
 10
12.81771321171224
 20
1.1611525025673
 30
0.0
 10
12.48253311548808
 20
1.336934401263708
 30
0.0
 10
12.14965477449866
 20
1.507086177962113
 30
0.0
  0
SPLINE
  5
BD
330
1F
100
AcDbEntity
  8
외형선
  6
Continuous
370
    15
100
AcDbSpline
210
0.0
220
0.0
230
1.0
 70
     8
 71
     3
 72
     8
 73
     4
 74
     0
 42
0.000000001
 43
0.00000001
 40
0.0
 40
0.0
 40
0.0
 40
0.0
 40
1.0
 40
1.0
 40
1.0
 40
1.0
 10
13.14999999999942
 20
-3.202791751099464
 30
0.0
 10
12.81771321171223
 20
-3.100240891523276
 30
0.0
 10
12.48253311548807
 20
-2.986268187284634
 30
0.0
 10
12.14965477449866
 20
-2.862621667750418
 30
0.0
  0
LINE
  5
BE
330
1F
100
AcDbEntity
  8
외형선
  6
Continuous
370
    15
100
AcDbLine
 10
13.15
 20
-3.303202452542465
 30
0.0
 11
13.14999999999999
 21
-3.202791751099642
 31
0.0
  0
SPLINE
  5
BF
330
1F
100
AcDbEntity
  8
외형선
  6
Continuous
370
    15
100
AcDbSpline
210
0.0
220
0.0
230
1.0
 70
     8
 71
     3
 72
     8
 73
     4
 74
     0
 42
0.000000001
 43
0.00000001
 40
0.0
 40
0.0
 40
0.0
 40
0.0
 40
1.0
 40
1.0
 40
1.0
 40
1.0
 10
13.14999999999942
 20
-3.722532365038628
 30
0.0
 10
12.81771321171224
 20
-3.675374157889801
 30
0.0
 10
12.48253311548808
 20
-3.615148299100183
 30
0.0
 10
12.14965477449866
 20
-3.542766045365616
 30
0.0
  0
LINE
  5
C0
330
1F
100
AcDbEntity
  8
외형선
  6
Continuous
370
    15
100
AcDbLine
 10
12.14965477449866
 20
-3.850000000000001
 30
0.0
 11
12.14965477449866
 21
-3.542766430238347
 31
0.0
  0
SPLINE
  5
C1
330
1F
100
AcDbEntity
  8
외형선
  6
Continuous
370
    15
100
AcDbSpline
210
0.0
220
0.0
230
1.0
 70
     8
 71
     3
 72
     8
 73
     4
 74
     0
 42
0.000000001
 43
0.00000001
 40
0.0
 40
0.0
 40
0.0
 40
0.0
 40
1.0
 40
1.0
 40
1.0
 40
1.0
 10
13.14999999999942
 20
3.722532365038621
 30
0.0
 10
12.81771321171224
 20
3.675374157889793
 30
0.0
 10
12.48253311548808
 20
3.615148299100174
 30
0.0
 10
12.14965477449866
 20
3.542766045365606
 30
0.0
  0
LINE
  5
C2
330
1F
100
AcDbEntity
  8
외형선
  6
Continuous
370
    15
100
AcDbLine
 10
12.14965477449866
 20
2.574469725756019
 30
0.0
 11
12.14965477449866
 21
3.850000000000001
 31
0.0
  0
SPLINE
  5
C3
330
1F
100
AcDbEntity
  8
외형선
  6
Continuous
370
    15
100
AcDbSpline
210
0.0
220
0.0
230
1.0
 70
     8
 71
     3
 72
     8
 73
     4
 74
     0
 42
0.000000001
 43
0.00000001
 40
0.0
 40
0.0
 40
0.0
 40
0.0
 40
1.0
 40
1.0
 40
1.0
 40
1.0
 10
13.14999999999942
 20
2.136498303086001
 30
0.0
 10
12.81771321171223
 20
2.290230719650229
 30
0.0
 10
12.48253311548807
 20
2.436984433963667
 30
0.0
 10
12.14965477449866
 20
2.574470273148627
 30
0.0
  0
LINE
  5
C4
330
1F
100
AcDbEntity
  8
외형선
  6
Continuous
370
    15
100
AcDbLine
 10
12.14965477449866
 20
-2.862622160042411
 30
0.0
 11
12.14965477449866
 21
1.507085273226504
 31
0.0
  0
SPLINE
  5
C5
330
1F
100
AcDbEntity
  8
외형선
  6
Continuous
370
    15
100
AcDbSpline
210
0.0
220
0.0
230
1.0
 70
    24
 71
     3
 72
    24
 73
    20
 74
     0
 42
0.000000001
 43
0.00000001
 40
0.0
 40
0.0
 40
0.0
 40
0.0
 40
0.1250000000000001
 40
0.1250000000000001
 40
0.2500000000000002
 40
0.2500000000000002
 40
0.3125000000000001
 40
0.3125000000000001
 40
0.375
 40
0.375
 40
0.5
 40
0.5
 40
0.625
 40
0.625
 40
0.7499999999999999
 40
0.7499999999999999
 40
0.8749999999999999
 40
0.8749999999999999
 40
1.0
 40
1.0
 40
1.0
 40
1.0
 10
13.15
 20
-3.202791751102091
 30
0.0
 10
13.14999999999999
 20
-3.029032373387985
 30
0.0
 10
13.14999999999999
 20
-2.838285013732984
 30
0.0
 10
13.15
 20
-2.462800082572852
 30
0.0
 10
13.15000000000001
 20
-2.277920020872525
 30
0.0
 10
13.15
 20
-2.018647661442885
 30
0.0
 10
13.15000000000001
 20
-1.935078459174802
 30
0.0
 10
13.14999999999999
 20
-1.774498027063158
 30
0.0
 10
13.14999999999999
 20
-1.695338759964926
 30
0.0
 10
13.15000000000001
 20
-1.436952019881589
 30
0.0
 10
13.15
 20
-1.245470765003305
 30
0.0
 10
13.14999999999998
 20
-0.8305313626056029
 30
0.0
 10
13.15
 20
-0.6066972504689601
 30
0.0
 10
13.14999999999999
 20
-0.1537359618366539
 30
0.0
 10
13.15000000000001
 20
0.0752552265824808
 30
0.0
 10
13.15000000000002
 20
0.4846342071624982
 30
0.0
 10
13.15000000000001
 20
0.6637188226894793
 30
0.0
 10
13.15000000000001
 20
0.9121469603789295
 30
0.0
 10
13.15000000000001
 20
0.9801034339560345
 30
0.0
 10
13.15000000000001
 20
0.9824727941471515
 30
0.0
  0
SPLINE
  5
C6
330
1F
100
AcDbEntity
  8
외형선
  6
Continuous
370
    15
100
AcDbSpline
210
0.0
220
0.0
230
1.0
 70
    24
 71
     3
 72
    11
 73
     7
 74
     0
 42
0.000000001
 43
0.00000001
 40
0.0
 40
0.0
 40
0.0
 40
0.0
 40
0.2585111788740253
 40
0.5243822225253184
 40
0.7902532661766117
 40
1.0
 40
1.0
 40
1.0
 40
1.0
 10
13.14999999999999
 20
2.304251509237235
 30
0.0
 10
13.14999999999998
 20
2.41280150045821
 30
0.0
 10
13.14999999999996
 20
2.632991922781481
 30
0.0
 10
13.14999999999997
 20
3.007408456480094
 30
0.0
 10
13.14999999999997
 20
3.374862727024393
 30
0.0
 10
13.14999999999997
 20
3.616132675791668
 30
0.0
 10
13.14999999999998
 20
3.722532365038704
 30
0.0
  0
LINE
  5
C7
330
1F
100
AcDbEntity
  8
중심선
 62
     1
100
AcDbLine
 10
-47.85
 20
-0.0000000000000039
 30
0.0
 11
28.15000000000001
 21
0.0000000000000054
 31
0.0
  0
LINE
  5
C8
330
1F
100
AcDbEntity
  8
참조1
100
AcDbLine
 10
-9.849999999999998
 20
-0.0000000000000039
 30
0.0
 11
-9.849999999999993
 21
-40.00000000000001
 31
0.0
  0
LINE
  5
C9
330
1F
100
AcDbEntity
  8
참조1
100
AcDbLine
 10
-9.849999999999993
 20
-40.00000000000001
 30
0.0
 11
-30.00885681430868
 21
-40.0
 31
0.0
  0
CIRCLE
  5
CA
330
1F
100
AcDbEntity
  8
해칭선
100
AcDbCircle
 10
0.0000000000000062
 20
-0.0010749287238931
 30
0.0
 40
3.000000000000002
  0
INSERT
  5
CB
330
1F
100
AcDbEntity
  8
0
  6
Continuous
 62
     7
100
AcDbBlockReference
 66
     1
  2
블럭10
 10
-23.79027293212521
 20
-52.04717430164393
 30
0.0
  0
ATTRIB
  5
CC
330
CB
100
AcDbEntity
  8
FORMAT
 62
     2
100
AcDbText
 10
-39.90953397156076
 20
-49.97180738881175
 30
0.0
 40
4.233333333333333
  1
SEME6408010E [ 4 FLUTE ]
 41
0.75
  7
SLDTEXTSTYLE0
 11
-39.90953397156076
 21
-52.08847405547841
 31
0.0
100
AcDbAttribute
  2
AUTOATTR0
 70
     0
 74
     1
  0
SEQEND
  5
CD
330
CB
100
AcDbEntity
  8
0
  6
Continuous
 62
     7
  0
HATCH
  5
CE
330
1F
100
AcDbEntity
  8
중심선
100
AcDbHatch
 10
0.0
 20
0.0
 30
0.0
210
0.0
220
0.0
230
1.0
  2
SOLID
 70
     1
 71
     0
 91
        1
 92
        0
 93
        4
 72
     1
 10
-18.07536362774437
 20
-35.8
 11
-21.52163887158165
 21
-35.8
 72
     1
 10
-21.52163887158165
 20
-35.8
 11
-23.64986873078567
 21
-38.3363255805726
 72
     1
 10
-23.64986873078567
 20
-38.3363255805726
 11
-20.20356040183524
 21
-38.33628615127011
 72
     1
 10
-20.20356040183524
 20
-38.33628615127011
 11
-18.07536362774437
 21
-35.8
 97
        0
 75
     0
 76
     1
 98
        1
 10
-4.925000000000013
 20
-0.0010749287238931
  0
HATCH
  5
CF
330
1F
100
AcDbEntity
  8
중심선
100
AcDbHatch
 10
0.0
 20
0.0
 30
0.0
210
0.0
220
0.0
230
1.0
  2
SOLID
 70
     1
 71
     0
 91
        1
 92
        0
 93
        4
 72
     1
 10
-13.06259963670836
 20
-35.79999999999998
 11
-16.50887488054567
 21
-35.80000000000003
 72
     1
 10
-16.50887488054567
 20
-35.80000000000003
 11
-21.04001288890309
 21
-41.20000000000002
 72
     1
 10
-21.04001288890309
 20
-41.20000000000002
 11
-17.5937376450658
 21
-41.20000000000002
 72
     1
 10
-17.5937376450658
 20
-41.20000000000002
 11
-13.06259963670836
 21
-35.79999999999998
 97
        0
 75
     0
 76
     1
 98
        1
 10
-4.925000000000013
 20
-0.0010749287238931
  0
HATCH
  5
D0
330
1F
100
AcDbEntity
  8
중심선
100
AcDbHatch
 10
0.0
 20
0.0
 30
0.0
210
0.0
220
0.0
230
1.0
  2
SOLID
 70
     1
 71
     0
 91
        1
 92
        0
 93
        4
 72
     1
 10
-8.049835645672493
 20
-35.79999999999998
 11
-11.49611088950964
 21
-35.8
 72
     1
 10
-11.49611088950964
 20
-35.8
 11
-18.54454779139888
 21
-44.20000000000002
 72
     1
 10
-18.54454779139888
 20
-44.20000000000002
 11
-15.0982725475616
 21
-44.20000000000002
 72
     1
 10
-15.0982725475616
 20
-44.20000000000002
 11
-8.049835645672493
 21
-35.79999999999998
 97
        0
 75
     0
 76
     1
 98
        1
 10
-4.925000000000013
 20
-0.0010749287238931
  0
HATCH
  5
D1
330
1F
100
AcDbEntity
  8
중심선
100
AcDbHatch
 10
0.0
 20
0.0
 30
0.0
210
0.0
220
0.0
230
1.0
  2
SOLID
 70
     1
 71
     0
 91
        1
 92
        0
 93
        6
 72
     3
 10
-3.249945214660322
 20
-40.00000000005127
 11
3.960054785062283
 21
1.540882976769353E-10
 40
0.3939339440162628
 50
17.09539180608437
 51
320.0019657685075
 73
     0
 72
     1
 10
-1.566945558959726
 20
-38.58789400463827
 11
0.7383563147413117
 21
-36.65356729459038
 72
     3
 10
-3.249945214713168
 20
-40.00000000000015
 11
6.600054785286829
 21
-1.278976924368180E-13
 40
0.636358354079598
 50
39.9987384933741
 51
368.4976242363725
 73
     1
 72
     1
 10
3.175387277187442
 20
-39.03999999993002
 11
-4.569877907877246
 21
-39.03999999993002
 72
     1
 10
-4.569877907877246
 20
-39.03999999993002
 11
-4.56990295232318
 21
-40.95999999992991
 72
     1
 10
-4.569902952323179
 20
-40.95999999992991
 11
-0.1285231828511417
 21
-40.95999999992988
 97
        0
 75
     0
 76
     1
 98
        1
 10
-4.925000000000013
 20
-0.0010749287238931
  0
DIMENSION
  5
D2
330
1F
100
AcDbEntity
  8
치수문자_일반주서
100
AcDbDimension
  2
_D
 10
48.18636350776569
 20
-3.999999999999885
 30
0.0
 11
48.18636350776563
 21
13.66650000000011
 31
0.0
 70
   160
  1
%%c<>
 71
     2
 42
7.999999999999996
 52
-270.0
  3
SLDDIMSTYLE1
100
AcDbAlignedDimension
 13
17.29979656378855
 23
3.999999999999998
 33
0.0
 14
17.29979656378855
 24
-3.999999999999998
 34
0.0
 50
90.0000000000002
100
AcDbRotatedDimension
1001
PE_URL
1000

  0
DIMENSION
  5
DF
330
1F
100
AcDbEntity
  8
치수문자_일반주서
100
AcDbDimension
  2
_D_1
 10
-54.03846843616481
 20
-4.000000000000041
 30
0.0
 11
-54.03846843616482
 21
0.0000000000000029
 31
0.0
 70
   160
  1
%%c<>
 71
     2
 42
8.000000000000007
 52
-270.0
  3
SLDDIMSTYLE1
100
AcDbAlignedDimension
 13
-44.05000000000001
 23
4.000000000000004
 33
0.0
 14
-44.05000000000001
 24
-4.000000000000004
 34
0.0
 50
90.0000000000002
100
AcDbRotatedDimension
1001
ACAD_DSTYLE_DIMFLIPARROW_SYMBOL
1070
   385
1070
     0
1001
ACAD_DSTYLE_DIMFLIPARROW_WHICH_SYMBOL
1070
   386
1070
     3
  0
DIMENSION
  5
ED
330
1F
100
AcDbEntity
  8
치수문자_일반주서
100
AcDbDimension
  2
_D_2
 10
13.14999999999958
 20
13.11548684584201
 30
0.0
 11
19.14999999999979
 21
13.11548684584201
 31
0.0
 70
   160
  1
<>
 71
     2
 42
12.00000000000042
  3
SLDDIMSTYLE1
100
AcDbAlignedDimension
 13
25.15
 23
2.979448081799005
 33
0.0
 14
13.14999999999958
 24
3.878454087803585
 34
0.0
100
AcDbRotatedDimension
1001
PE_URL
1000

  0
DIMENSION
  5
F9
330
1F
100
AcDbEntity
  8
치수문자_일반주서
100
AcDbDimension
  2
_D_3
 10
0.1499999999999968
 20
19.11548684584198
 30
0.0
 11
12.65
 21
19.11548684584198
 31
0.0
 70
   160
  1
<>
 71
     2
 42
25.0
  3
SLDDIMSTYLE1
100
AcDbAlignedDimension
 13
25.15
 23
2.979448081799005
 33
0.0
 14
0.1499999999999968
 24
3.850000000000001
 34
0.0
100
AcDbRotatedDimension
1001
PE_URL
1000

  0
DIMENSION
  5
103
330
1F
100
AcDbEntity
  8
치수문자_일반주서
100
AcDbDimension
  2
_D_4
 10
-44.85000000000001
 20
27.5229841470039
 30
0.0
 11
-9.850000000000005
 21
27.5229841470039
 31
0.0
 70
   160
  1
<>
 71
     2
 42
70.0
  3
SLDDIMSTYLE1
100
AcDbAlignedDimension
 13
25.15
 23
2.979448081799005
 33
0.0
 14
-44.85000000000001
 24
3.200000000000008
 34
0.0
 50
0.0000000000000058
100
AcDbRotatedDimension
1001
PE_URL
1000

  0
LINE
  5
10D
330
1F
100
AcDbEntity
  8
참조1
100
AcDbLine
 10
67.96348381534558
 20
7.440000000000002
 30
0.0
 11
67.96348381534558
 21
-7.440000000000002
 31
0.0
  0
LINE
  5
10E
330
1F
100
AcDbEntity
  8
참조1
100
AcDbLine
 10
80.66348381534559
 20
5.440000000000002
 30
0.0
 11
67.96348381534558
 21
5.440000000000002
 31
0.0
  0
SOLID
  5
10F
330
1F
100
AcDbEntity
  8
참조1
100
AcDbTrace
 10
67.96348381534558
 20
5.440000000000002
 30
0.0
 11
74.31348381534558
 21
4.424000000000002
 31
0.0
 12
74.31348381534558
 22
6.456000000000002
 32
0.0
 13
74.31348381534558
 23
6.456000000000002
 33
0.0
  0
LINE
  5
110
330
1F
100
AcDbEntity
  8
참조1
100
AcDbLine
 10
80.66348381534559
 20
-5.440000000000002
 30
0.0
 11
67.96348381534558
 21
-5.440000000000002
 31
0.0
  0
SOLID
  5
111
330
1F
100
AcDbEntity
  8
참조1
100
AcDbTrace
 10
67.96348381534558
 20
-5.440000000000002
 30
0.0
 11
74.31348381534558
 21
-6.456000000000002
 31
0.0
 12
74.31348381534558
 22
-4.424000000000002
 32
0.0
 13
74.31348381534558
 23
-4.424000000000002
 33
0.0
  0
MTEXT
  5
112
330
1F
100
AcDbEntity
  8
참조1
100
AcDbMText
 10
77.36097390781586
 20
10.98821664464994
 30
0.0
 40
3.5
 41
0.0
 71
     1
 72
     1
  1
A
  7
SLDTEXTSTYLE0
 73
     1
 44
1.0
  0
MTEXT
  5
113
330
1F
100
AcDbEntity
  8
참조1
100
AcDbMText
 10
77.36097390781586
 20
0.1082166446499328
 30
0.0
 40
3.5
 41
0.0
 71
     1
 72
     1
  1
A
  7
SLDTEXTSTYLE0
 73
     1
 44
1.0
  0
INSERT
  5
11A
330
1F
100
AcDbEntity
  8
해칭선
100
AcDbBlockReference
  2
SW_DOWELSYMBOL_0
 10
0.0000000000000062
 20
-0.0010749287238931
 30
0.0
  0
ARC
  5
13E
330
1F
100
AcDbEntity
  8
0
 62
     1
100
AcDbCircle
 10
24.15
 20
2.979448081799005
 30
0.0
 40
1.0
100
AcDbArc
 50
0.0
 51
90.0
  0
ARC
  5
13F
102
{ACAD_REACTORS
102
}
330
1F
100
AcDbEntity
  8
0
 62
     1
100
AcDbCircle
 10
24.15
 20
-2.979448081798993
 30
0.0
 40
1.0
100
AcDbArc
 50
270.0
 51
0.0
  0
DIMENSION
  5
150
102
{ACAD_REACTORS
102
}
102
{ACAD_XDICTIONARY
360
151
102
}
330
1F
100
AcDbEntity
  8
0
100
AcDbDimension
  2
*D8
 10
24.15
 20
-2.979448081798993
 30
0.0
 11
40.45455470595123
 21
-10.83921004481463
 31
0.0
 70
   164
 71
     5
 42
1.000000000000001
  3
ISO-25
100
AcDbRadialDimension
 15
24.89031987433602
 25
-3.651702857656403
 35
0.0
 40
0.0
1001
ACAD
1000
DSTYLE
1002
{
1070
   179
1070
     2
1070
   143
1040
0.0393700787401575
1070
    41
1040
3.302
1070
    44
1040
1.0
1070
    42
1040
1.0
1070
   147
1040
1.524
1070
    73
1070
     1
1070
    74
1070
     1
1070
   140
1040
3.5
1070
   284
1070
     0
1070
    78
1070
     0
1002
}
1001
ACAD_DSTYLE_DIMRADIAL_EXTENSION
1070
   387
1070
     1
1070
   388
1040
4.71238898038469
1070
   390
1040
0.0
  0
ENDSEC
  0
SECTION
  2
OBJECTS
  0
DICTIONARY
  5
C
330
0
100
AcDbDictionary
281
     1
  3
ACAD_GROUP
350
D
  3
ACAD_LAYOUT
350
1A
  3
ACAD_MLINESTYLE
350
17
  3
ACAD_PLOTSETTINGS
350
19
  3
ACAD_PLOTSTYLENAME
350
E
  3
ACAD_SCALELIST
350
47
  3
APPDATA
350
13C
  3
DWGPROPS
350
15D
  0
DICTIONARY
  5
151
330
150
100
AcDbDictionary
280
     1
281
     1
  0
DICTIONARY
  5
D
102
{ACAD_REACTORS
330
C
102
}
330
C
100
AcDbDictionary
281
     1
  0
DICTIONARY
  5
1A
102
{ACAD_REACTORS
330
C
102
}
330
C
100
AcDbDictionary
281
     1
  3
Layout1
350
1E
  3
Layout2
350
26
  3
Model
350
22
  0
DICTIONARY
  5
17
102
{ACAD_REACTORS
330
C
102
}
330
C
100
AcDbDictionary
281
     1
  3
Standard
350
18
  0
DICTIONARY
  5
19
102
{ACAD_REACTORS
330
C
102
}
330
C
100
AcDbDictionary
281
     1
  0
ACDBDICTIONARYWDFLT
  5
E
102
{ACAD_REACTORS
330
C
102
}
330
C
100
AcDbDictionary
281
     1
  3
Normal
350
F
100
AcDbDictionaryWithDefault
340
F
  0
DICTIONARY
  5
47
102
{ACAD_REACTORS
330
C
102
}
330
C
100
AcDbDictionary
281
     1
  3
A0
350
48
  3
A1
350
49
  3
A2
350
4A
  3
A3
350
4B
  3
A4
350
4C
  3
A5
350
4D
  3
A6
350
4E
  3
A7
350
4F
  3
A8
350
50
  3
A9
350
51
  3
B0
350
52
  3
B1
350
53
  3
B2
350
54
  3
B3
350
55
  3
B4
350
56
  3
B5
350
57
  3
B6
350
58
  3
B7
350
59
  3
B8
350
5A
  3
B9
350
5B
  3
C0
350
5C
  3
C1
350
5D
  3
C2
350
5E
  3
C3
350
5F
  3
C4
350
60
  3
C5
350
61
  3
C6
350
62
  3
C7
350
63
  3
C8
350
64
  3
C9
350
65
  3
D0
350
66
  3
D1
350
67
  3
D2
350
68
  0
DICTIONARY
  5
13C
102
{ACAD_REACTORS
330
C
102
}
330
C
100
AcDbDictionary
281
     1
  0
XRECORD
  5
15D
102
{ACAD_REACTORS
330
C
102
}
330
C
100
AcDbXrecord
280
     1
  1
DWGPROPS COOKIE
  2

  3

  4

  6

  7

  8
USER
  9

300
=
301
=
302
=
303
=
304
=
305
=
306
=
307
=
308
=
309
=
 40
0.0
 41
2458274.335261204
 42
2458275.074337674
  1

 90
        0
  0
LAYOUT
  5
1E
102
{ACAD_REACTORS
330
1A
102
}
330
1A
100
AcDbPlotSettings
  1

  2
none_device
  4

  6

 40
0.0
 41
0.0
 42
0.0
 43
0.0
 44
0.0
 45
0.0
 46
0.0
 47
0.0
 48
0.0
 49
0.0
140
0.0
141
0.0
142
1.0
143
1.0
 70
   688
 72
     1
 73
     0
 74
     5
  7

 75
    16
147
1.0
148
0.0
149
0.0
100
AcDbLayout
  1
Layout1
 70
     1
 71
     1
 10
0.0
 20
0.0
 11
420.0
 21
297.0
 12
0.0
 22
0.0
 32
0.0
 14
1.000000000000000E+20
 24
1.000000000000000E+20
 34
1.000000000000000E+20
 15
-1.000000000000000E+20
 25
-1.000000000000000E+20
 35
-1.000000000000000E+20
146
0.0
 13
0.0
 23
0.0
 33
0.0
 16
1.0
 26
0.0
 36
0.0
 17
0.0
 27
1.0
 37
0.0
 76
     0
330
1B
  0
LAYOUT
  5
26
102
{ACAD_REACTORS
330
1A
102
}
330
1A
100
AcDbPlotSettings
  1

  2
none_device
  4

  6

 40
0.0
 41
0.0
 42
0.0
 43
0.0
 44
0.0
 45
0.0
 46
0.0
 47
0.0
 48
0.0
 49
0.0
140
0.0
141
0.0
142
1.0
143
1.0
 70
   688
 72
     1
 73
     0
 74
     5
  7

 75
    16
147
1.0
148
0.0
149
0.0
100
AcDbLayout
  1
Layout2
 70
     1
 71
     2
 10
0.0
 20
0.0
 11
0.0
 21
0.0
 12
0.0
 22
0.0
 32
0.0
 14
0.0
 24
0.0
 34
0.0
 15
0.0
 25
0.0
 35
0.0
146
0.0
 13
0.0
 23
0.0
 33
0.0
 16
1.0
 26
0.0
 36
0.0
 17
0.0
 27
1.0
 37
0.0
 76
     0
330
23
  0
LAYOUT
  5
22
102
{ACAD_REACTORS
330
1A
102
}
330
1A
100
AcDbPlotSettings
  1

  2
none_device
  4
ANSI_A_(11.00_x_8.50_Inches)
  6

 40
6.35
 41
19.05
 42
6.35000508
 43
19.05000254
 44
279.4
 45
215.9
 46
101.6611063617215
 47
107.4495848914376
 48
0.0
 49
0.0
140
0.0
141
0.0
142
0.0781950309128802
143
1.0
 70
  1696
 72
     0
 73
     0
 74
     0
  7

 75
     0
147
0.0235690232323232
148
0.0
149
0.0
100
AcDbLayout
  1
Model
 70
     1
 71
     0
 10
0.0
 20
0.0
 11
420.0
 21
297.0
 12
0.0
 22
0.0
 32
0.0
 14
-58.41346843616482
 24
-49.97180738881175
 34
0.0
 15
80.66348381534559
 25
31.8979841470039
 35
0.0
146
0.0
 13
0.0
 23
0.0
 33
0.0
 16
1.0
 26
0.0
 36
0.0
 17
0.0
 27
1.0
 37
0.0
 76
     0
330
1F
331
29
  0
MLINESTYLE
  5
18
102
{ACAD_REACTORS
330
17
102
}
330
17
100
AcDbMlineStyle
  2
Standard
 70
     0
  3

 62
   256
 51
90.0
 52
90.0
 71
     2
 49
0.5
 62
   256
  6
BYLAYER
 49
-0.5
 62
   256
  6
BYLAYER
  0
ACDBPLACEHOLDER
  5
F
102
{ACAD_REACTORS
330
E
102
}
330
E
  0
SCALE
  5
48
102
{ACAD_REACTORS
330
47
102
}
330
47
100
AcDbScale
 70
     0
300
1:1
140
1.0
141
1.0
290
     1
  0
SCALE
  5
49
102
{ACAD_REACTORS
330
47
102
}
330
47
100
AcDbScale
 70
     0
300
1:2
140
1.0
141
2.0
290
     0
  0
SCALE
  5
4A
102
{ACAD_REACTORS
330
47
102
}
330
47
100
AcDbScale
 70
     0
300
1:4
140
1.0
141
4.0
290
     0
  0
SCALE
  5
4B
102
{ACAD_REACTORS
330
47
102
}
330
47
100
AcDbScale
 70
     0
300
1:5
140
1.0
141
5.0
290
     0
  0
SCALE
  5
4C
102
{ACAD_REACTORS
330
47
102
}
330
47
100
AcDbScale
 70
     0
300
1:8
140
1.0
141
8.0
290
     0
  0
SCALE
  5
4D
102
{ACAD_REACTORS
330
47
102
}
330
47
100
AcDbScale
 70
     0
300
1:10
140
1.0
141
10.0
290
     0
  0
SCALE
  5
4E
102
{ACAD_REACTORS
330
47
102
}
330
47
100
AcDbScale
 70
     0
300
1:16
140
1.0
141
16.0
290
     0
  0
SCALE
  5
4F
102
{ACAD_REACTORS
330
47
102
}
330
47
100
AcDbScale
 70
     0
300
1:20
140
1.0
141
20.0
290
     0
  0
SCALE
  5
50
102
{ACAD_REACTORS
330
47
102
}
330
47
100
AcDbScale
 70
     0
300
1:30
140
1.0
141
30.0
290
     0
  0
SCALE
  5
51
102
{ACAD_REACTORS
330
47
102
}
330
47
100
AcDbScale
 70
     0
300
1:40
140
1.0
141
40.0
290
     0
  0
SCALE
  5
52
102
{ACAD_REACTORS
330
47
102
}
330
47
100
AcDbScale
 70
     0
300
1:50
140
1.0
141
50.0
290
     0
  0
SCALE
  5
53
102
{ACAD_REACTORS
330
47
102
}
330
47
100
AcDbScale
 70
     0
300
1:100
140
1.0
141
100.0
290
     0
  0
SCALE
  5
54
102
{ACAD_REACTORS
330
47
102
}
330
47
100
AcDbScale
 70
     0
300
2:1
140
2.0
141
1.0
290
     0
  0
SCALE
  5
55
102
{ACAD_REACTORS
330
47
102
}
330
47
100
AcDbScale
 70
     0
300
4:1
140
4.0
141
1.0
290
     0
  0
SCALE
  5
56
102
{ACAD_REACTORS
330
47
102
}
330
47
100
AcDbScale
 70
     0
300
8:1
140
8.0
141
1.0
290
     0
  0
SCALE
  5
57
102
{ACAD_REACTORS
330
47
102
}
330
47
100
AcDbScale
 70
     0
300
10:1
140
10.0
141
1.0
290
     0
  0
SCALE
  5
58
102
{ACAD_REACTORS
330
47
102
}
330
47
100
AcDbScale
 70
     0
300
100:1
140
100.0
141
1.0
290
     0
  0
SCALE
  5
59
102
{ACAD_REACTORS
330
47
102
}
330
47
100
AcDbScale
 70
     0
300
1/128" = 1'-0"
140
0.0078125
141
12.0
290
     0
  0
SCALE
  5
5A
102
{ACAD_REACTORS
330
47
102
}
330
47
100
AcDbScale
 70
     0
300
1/64" = 1'-0"
140
0.015625
141
12.0
290
     0
  0
SCALE
  5
5B
102
{ACAD_REACTORS
330
47
102
}
330
47
100
AcDbScale
 70
     0
300
1/32" = 1'-0"
140
0.03125
141
12.0
290
     0
  0
SCALE
  5
5C
102
{ACAD_REACTORS
330
47
102
}
330
47
100
AcDbScale
 70
     0
300
1/16" = 1'-0"
140
0.0625
141
12.0
290
     0
  0
SCALE
  5
5D
102
{ACAD_REACTORS
330
47
102
}
330
47
100
AcDbScale
 70
     0
300
3/32" = 1'-0"
140
0.09375
141
12.0
290
     0
  0
SCALE
  5
5E
102
{ACAD_REACTORS
330
47
102
}
330
47
100
AcDbScale
 70
     0
300
1/8" = 1'-0"
140
0.125
141
12.0
290
     0
  0
SCALE
  5
5F
102
{ACAD_REACTORS
330
47
102
}
330
47
100
AcDbScale
 70
     0
300
3/16" = 1'-0"
140
0.1875
141
12.0
290
     0
  0
SCALE
  5
60
102
{ACAD_REACTORS
330
47
102
}
330
47
100
AcDbScale
 70
     0
300
1/4" = 1'-0"
140
0.25
141
12.0
290
     0
  0
SCALE
  5
61
102
{ACAD_REACTORS
330
47
102
}
330
47
100
AcDbScale
 70
     0
300
3/8" = 1'-0"
140
0.375
141
12.0
290
     0
  0
SCALE
  5
62
102
{ACAD_REACTORS
330
47
102
}
330
47
100
AcDbScale
 70
     0
300
1/2" = 1'-0"
140
0.5
141
12.0
290
     0
  0
SCALE
  5
63
102
{ACAD_REACTORS
330
47
102
}
330
47
100
AcDbScale
 70
     0
300
3/4" = 1'-0"
140
0.75
141
12.0
290
     0
  0
SCALE
  5
64
102
{ACAD_REACTORS
330
47
102
}
330
47
100
AcDbScale
 70
     0
300
1" = 1'-0"
140
1.0
141
12.0
290
     0
  0
SCALE
  5
65
102
{ACAD_REACTORS
330
47
102
}
330
47
100
AcDbScale
 70
     0
300
1-1/2" = 1'-0"
140
1.5
141
12.0
290
     0
  0
SCALE
  5
66
102
{ACAD_REACTORS
330
47
102
}
330
47
100
AcDbScale
 70
     0
300
3" = 1'-0"
140
3.0
141
12.0
290
     0
  0
SCALE
  5
67
102
{ACAD_REACTORS
330
47
102
}
330
47
100
AcDbScale
 70
     0
300
6" = 1'-0"
140
6.0
141
12.0
290
     0
  0
SCALE
  5
68
102
{ACAD_REACTORS
330
47
102
}
330
47
100
AcDbScale
 70
     0
300
1'-0" = 1'-0"
140
12.0
141
12.0
290
     0
  0
ENDSEC
  0
EOF
