  0
SECTION
  2
HEADER
  9
$ACADVER
  1
AC1015
  9
$ACADMAINTVER
 70
     6
  9
$DWGCODEPAGE
  3
ANSI_949
  9
$INSBASE
 10
0.0
 20
0.0
 30
0.0
  9
$EXTMIN
 10
-53.48356462559714
 20
-49.97073246008785
 30
0.0
  9
$EXTMAX
 10
85.5884838153456
 20
30.41665037271246
 30
0.0
  9
$LIMMIN
 10
0.0
 20
0.0
  9
$LIMMAX
 10
420.0
 20
297.0
  9
$ORTHOMODE
 70
     0
  9
$REGENMODE
 70
     1
  9
$FILLMODE
 70
     1
  9
$QTEXTMODE
 70
     0
  9
$MIRRTEXT
 70
     1
  9
$LTSCALE
 40
1.0
  9
$ATTMODE
 70
     1
  9
$TEXTSIZE
 40
3.5
  9
$TRACEWID
 40
1.0
  9
$TEXTSTYLE
  7
Standard
  9
$CLAYER
  8
0
  9
$CELTYPE
  6
ByLayer
  9
$CECOLOR
 62
   256
  9
$CELTSCALE
 40
1.0
  9
$DISPSILH
 70
     0
  9
$DIMSCALE
 40
1.0
  9
$DIMASZ
 40
3.302
  9
$DIMEXO
 40
1.0
  9
$DIMDLI
 40
3.75
  9
$DIMRND
 40
0.0
  9
$DIMDLE
 40
0.0
  9
$DIMEXE
 40
1.0
  9
$DIMTP
 40
0.0
  9
$DIMTM
 40
0.0
  9
$DIMTXT
 40
3.5
  9
$DIMCEN
 40
2.5
  9
$DIMTSZ
 40
0.0
  9
$DIMTOL
 70
     0
  9
$DIMLIM
 70
     0
  9
$DIMTIH
 70
     1
  9
$DIMTOH
 70
     1
  9
$DIMSE1
 70
     0
  9
$DIMSE2
 70
     0
  9
$DIMTAD
 70
     1
  9
$DIMZIN
 70
     0
  9
$DIMBLK
  1

  9
$DIMASO
 70
     1
  9
$DIMSHO
 70
     1
  9
$DIMPOST
  1

  9
$DIMAPOST
  1

  9
$DIMALT
 70
     0
  9
$DIMALTD
 70
     3
  9
$DIMALTF
 40
0.0393700787401575
  9
$DIMLFAC
 40
1.0
  9
$DIMTOFL
 70
     1
  9
$DIMTVP
 40
0.0
  9
$DIMTIX
 70
     0
  9
$DIMSOXD
 70
     0
  9
$DIMSAH
 70
     0
  9
$DIMBLK1
  1

  9
$DIMBLK2
  1

  9
$DIMSTYLE
  2
ISO-25
  9
$DIMCLRD
 70
     0
  9
$DIMCLRE
 70
     0
  9
$DIMCLRT
 70
     0
  9
$DIMTFAC
 40
1.0
  9
$DIMGAP
 40
1.524
  9
$DIMJUST
 70
     0
  9
$DIMSD1
 70
     0
  9
$DIMSD2
 70
     0
  9
$DIMTOLJ
 70
     0
  9
$DIMTZIN
 70
     0
  9
$DIMALTZ
 70
     0
  9
$DIMALTTZ
 70
     0
  9
$DIMUPT
 70
     0
  9
$DIMDEC
 70
     2
  9
$DIMTDEC
 70
     2
  9
$DIMALTU
 70
     2
  9
$DIMALTTD
 70
     3
  9
$DIMTXSTY
  7
Standard
  9
$DIMAUNIT
 70
     0
  9
$DIMADEC
 70
     2
  9
$DIMALTRND
 40
0.0
  9
$DIMAZIN
 70
     0
  9
$DIMDSEP
 70
    44
  9
$DIMATFIT
 70
     3
  9
$DIMFRAC
 70
     0
  9
$DIMLDRBLK
  1

  9
$DIMLUNIT
 70
     2
  9
$DIMLWD
 70
    -2
  9
$DIMLWE
 70
    -2
  9
$DIMTMOVE
 70
     0
  9
$LUNITS
 70
     2
  9
$LUPREC
 70
     2
  9
$SKETCHINC
 40
1.0
  9
$FILLETRAD
 40
10.0
  9
$AUNITS
 70
     0
  9
$AUPREC
 70
     2
  9
$MENU
  1
.
  9
$ELEVATION
 40
0.0
  9
$PELEVATION
 40
0.0
  9
$THICKNESS
 40
0.0
  9
$LIMCHECK
 70
     0
  9
$CHAMFERA
 40
0.0
  9
$CHAMFERB
 40
0.0
  9
$CHAMFERC
 40
0.0
  9
$CHAMFERD
 40
0.0
  9
$SKPOLY
 70
     0
  9
$TDCREATE
 40
2458274.708748878
  9
$TDUCREATE
 40
2458274.333748878
  9
$TDUPDATE
 40
2459576.702887928
  9
$TDUUPDATE
 40
2459576.327887928
  9
$TDINDWG
 40
0.0023334491
  9
$TDUSRTIMER
 40
0.0011613194
  9
$USRTIMER
 70
     1
  9
$ANGBASE
 50
0.0
  9
$ANGDIR
 70
     0
  9
$PDMODE
 70
     0
  9
$PDSIZE
 40
-1.0
  9
$PLINEWID
 40
0.0
  9
$SPLFRAME
 70
     0
  9
$SPLINETYPE
 70
     6
  9
$SPLINESEGS
 70
     8
  9
$HANDSEED
  5
180
  9
$SURFTAB1
 70
     6
  9
$SURFTAB2
 70
     6
  9
$SURFTYPE
 70
     6
  9
$SURFU
 70
     6
  9
$SURFV
 70
     6
  9
$UCSBASE
  2

  9
$UCSNAME
  2

  9
$UCSORG
 10
0.0
 20
0.0
 30
0.0
  9
$UCSXDIR
 10
1.0
 20
0.0
 30
0.0
  9
$UCSYDIR
 10
0.0
 20
1.0
 30
0.0
  9
$UCSORTHOREF
  2

  9
$UCSORTHOVIEW
 70
     0
  9
$UCSORGTOP
 10
0.0
 20
0.0
 30
0.0
  9
$UCSORGBOTTOM
 10
0.0
 20
0.0
 30
0.0
  9
$UCSORGLEFT
 10
0.0
 20
0.0
 30
0.0
  9
$UCSORGRIGHT
 10
0.0
 20
0.0
 30
0.0
  9
$UCSORGFRONT
 10
0.0
 20
0.0
 30
0.0
  9
$UCSORGBACK
 10
0.0
 20
0.0
 30
0.0
  9
$PUCSBASE
  2

  9
$PUCSNAME
  2

  9
$PUCSORG
 10
0.0
 20
0.0
 30
0.0
  9
$PUCSXDIR
 10
1.0
 20
0.0
 30
0.0
  9
$PUCSYDIR
 10
0.0
 20
1.0
 30
0.0
  9
$PUCSORTHOREF
  2

  9
$PUCSORTHOVIEW
 70
     0
  9
$PUCSORGTOP
 10
0.0
 20
0.0
 30
0.0
  9
$PUCSORGBOTTOM
 10
0.0
 20
0.0
 30
0.0
  9
$PUCSORGLEFT
 10
0.0
 20
0.0
 30
0.0
  9
$PUCSORGRIGHT
 10
0.0
 20
0.0
 30
0.0
  9
$PUCSORGFRONT
 10
0.0
 20
0.0
 30
0.0
  9
$PUCSORGBACK
 10
0.0
 20
0.0
 30
0.0
  9
$USERI1
 70
     0
  9
$USERI2
 70
     0
  9
$USERI3
 70
     0
  9
$USERI4
 70
     0
  9
$USERI5
 70
     0
  9
$USERR1
 40
0.0
  9
$USERR2
 40
0.0
  9
$USERR3
 40
0.0
  9
$USERR4
 40
0.0
  9
$USERR5
 40
0.0
  9
$WORLDVIEW
 70
     1
  9
$SHADEDGE
 70
     3
  9
$SHADEDIF
 70
    70
  9
$TILEMODE
 70
     1
  9
$MAXACTVP
 70
    64
  9
$PINSBASE
 10
0.0
 20
0.0
 30
0.0
  9
$PLIMCHECK
 70
     0
  9
$PEXTMIN
 10
1.000000000000000E+20
 20
1.000000000000000E+20
 30
1.000000000000000E+20
  9
$PEXTMAX
 10
-1.000000000000000E+20
 20
-1.000000000000000E+20
 30
-1.000000000000000E+20
  9
$PLIMMIN
 10
0.0
 20
0.0
  9
$PLIMMAX
 10
0.0
 20
0.0
  9
$UNITMODE
 70
     0
  9
$VISRETAIN
 70
     1
  9
$PLINEGEN
 70
     0
  9
$PSLTSCALE
 70
     1
  9
$TREEDEPTH
 70
  3020
  9
$CMLSTYLE
  2
Standard
  9
$CMLJUST
 70
     0
  9
$CMLSCALE
 40
20.0
  9
$PROXYGRAPHICS
 70
     1
  9
$MEASUREMENT
 70
     1
  9
$CELWEIGHT
370
    -1
  9
$ENDCAPS
280
     0
  9
$JOINSTYLE
280
     0
  9
$LWDISPLAY
290
     1
  9
$INSUNITS
 70
     4
  9
$HYPERLINKBASE
  1

  9
$STYLESHEET
  1

  9
$XEDIT
290
     1
  9
$CEPSNTYPE
380
     0
  9
$PSTYLEMODE
290
     1
  9
$FINGERPRINTGUID
  2
{8043A649-5C0B-4C03-BA8A-DF9C4A7006BA}
  9
$VERSIONGUID
  2
{FAEB1C32-E019-11D5-929B-00C0DF256EC4}
  9
$EXTNAMES
290
     1
  9
$PSVPSCALE
 40
0.0
  9
$OLESTARTUP
290
     0
  0
ENDSEC
  0
SECTION
  2
CLASSES
  0
CLASS
  1
ACDBDICTIONARYWDFLT
  2
AcDbDictionaryWithDefault
  3
ObjectDBX Classes
 90
        0
280
     0
281
     0
  0
CLASS
  1
VISUALSTYLE
  2
AcDbVisualStyle
  3
ObjectDBX Classes
 90
     4095
280
     0
281
     0
  0
CLASS
  1
MATERIAL
  2
AcDbMaterial
  3
ObjectDBX Classes
 90
     1153
280
     0
281
     0
  0
CLASS
  1
SCALE
  2
AcDbScale
  3
ObjectDBX Classes
 90
     1153
280
     0
281
     0
  0
CLASS
  1
SUN
  2
AcDbSun
  3
SCENEOE
 90
     1153
280
     0
281
     0
  0
CLASS
  1
ACDBPLACEHOLDER
  2
AcDbPlaceHolder
  3
ObjectDBX Classes
 90
        0
280
     0
281
     0
  0
CLASS
  1
LAYOUT
  2
AcDbLayout
  3
ObjectDBX Classes
 90
        0
280
     0
281
     0
  0
CLASS
  1
TABLESTYLE
  2
AcDbTableStyle
  3
ObjectDBX Classes
 90
     4095
280
     0
281
     0
  0
CLASS
  1
MLEADERSTYLE
  2
AcDbMLeaderStyle
  3
ACDB_MLEADERSTYLE_CLASS
 90
     4095
280
     0
281
     0
  0
CLASS
  1
DIMASSOC
  2
AcDbDimAssoc
  3
"AcDbDimAssoc|Product Desc:     AcDim ARX App For Dimension|Company:          Autodesk, Inc.|WEB Address:      www.autodesk.com"
 90
        0
280
     0
281
     0
  0
ENDSEC
  0
SECTION
  2
TABLES
  0
TABLE
  2
VPORT
  5
8
330
0
100
AcDbSymbolTable
 70
     1
  0
VPORT
  5
29
330
8
100
AcDbSymbolTableRecord
100
AcDbViewportTableRecord
  2
*Active
 70
     0
 10
0.0
 20
0.0
 11
1.0
 21
1.0
 12
16.05245959487424
 22
-9.777041043687696
 13
0.0
 23
0.0
 14
10.0
 24
10.0
 15
10.0
 25
10.0
 16
0.0
 26
0.0
 36
1.0
 17
0.0
 27
0.0
 37
0.0
 40
81.99513048945632
 41
2.070175438596491
 42
50.0
 43
0.0
 44
0.0
 50
0.0
 51
0.0
 71
    16
 72
  2000
 73
     1
 74
     3
 75
     0
 76
     0
 77
     0
 78
     0
281
     0
 65
     1
110
0.0
120
0.0
130
0.0
111
1.0
121
0.0
131
0.0
112
0.0
122
1.0
132
0.0
 79
     0
146
0.0
  0
ENDTAB
  0
TABLE
  2
LTYPE
  5
5
330
0
100
AcDbSymbolTable
 70
     6
  0
LTYPE
  5
14
330
5
100
AcDbSymbolTableRecord
100
AcDbLinetypeTableRecord
  2
ByBlock
 70
     0
  3

 72
    65
 73
     0
 40
0.0
  0
LTYPE
  5
15
330
5
100
AcDbSymbolTableRecord
100
AcDbLinetypeTableRecord
  2
ByLayer
 70
     0
  3

 72
    65
 73
     0
 40
0.0
  0
LTYPE
  5
16
330
5
100
AcDbSymbolTableRecord
100
AcDbLinetypeTableRecord
  2
Continuous
 70
     0
  3
Solid line
 72
    65
 73
     0
 40
0.0
  0
LTYPE
  5
6A
330
5
100
AcDbSymbolTableRecord
100
AcDbLinetypeTableRecord
  2
HIDDEN
 70
     0
  3
Hidden __ __ __ __ __ __ __ __ __ __ __ __ __ __
 72
    65
 73
     2
 40
1.905
 49
1.27
 74
     0
 49
-0.635
 74
     0
  0
LTYPE
  5
6B
330
5
100
AcDbSymbolTableRecord
100
AcDbLinetypeTableRecord
  2
PHANTOM
 70
     0
  3
Phantom ______  __  __  ______  __  __  ______
 72
    65
 73
     6
 40
12.7
 49
6.35
 74
     0
 49
-1.27
 74
     0
 49
1.27
 74
     0
 49
-1.27
 74
     0
 49
1.27
 74
     0
 49
-1.27
 74
     0
  0
LTYPE
  5
6C
330
5
100
AcDbSymbolTableRecord
100
AcDbLinetypeTableRecord
  2
CENTER
 70
     0
  3
Center ____ _ ____ _ ____ _ ____ _ ____ _ ____
 72
    65
 73
     4
 40
10.16
 49
6.35
 74
     0
 49
-1.27
 74
     0
 49
1.27
 74
     0
 49
-1.27
 74
     0
  0
LTYPE
  5
6D
330
5
100
AcDbSymbolTableRecord
100
AcDbLinetypeTableRecord
  2
CENTERX2
 70
     0
  3
Center (2x) ________  __  ________  __  _____
 72
    65
 73
     4
 40
20.32
 49
12.7
 74
     0
 49
-2.54
 74
     0
 49
2.54
 74
     0
 49
-2.54
 74
     0
  0
LTYPE
  5
6E
330
5
100
AcDbSymbolTableRecord
100
AcDbLinetypeTableRecord
  2
DOT2
 70
     0
  3
Dot (.5x) ........................................
 72
    65
 73
     2
 40
0.635
 49
0.0
 74
     0
 49
-0.635
 74
     0
  0
ENDTAB
  0
TABLE
  2
LAYER
  5
2
330
0
100
AcDbSymbolTable
 70
    18
  0
LAYER
  5
10
330
2
100
AcDbSymbolTableRecord
100
AcDbLayerTableRecord
  2
0
 70
     0
 62
     7
  6
Continuous
370
    -3
390
F
  0
LAYER
  5
6F
330
2
100
AcDbSymbolTableRecord
100
AcDbLayerTableRecord
  2
FORMAT
 70
     0
 62
     2
  6
Continuous
370
    -3
390
F
  0
LAYER
  5
70
330
2
100
AcDbSymbolTableRecord
100
AcDbLayerTableRecord
  2
외형선
 70
     0
 62
     4
  6
Continuous
370
    30
390
F
  0
LAYER
  5
71
330
2
100
AcDbSymbolTableRecord
100
AcDbLayerTableRecord
  2
숨은선
 70
     0
 62
     2
  6
HIDDEN
370
    15
390
F
  0
LAYER
  5
72
330
2
100
AcDbSymbolTableRecord
100
AcDbLayerTableRecord
  2
중심선
 70
     0
 62
     1
  6
CENTERX2
370
    -3
390
F
  0
LAYER
  5
73
330
2
100
AcDbSymbolTableRecord
100
AcDbLayerTableRecord
  2
파단선
 70
     0
 62
     4
  6
Continuous
370
    -3
390
F
  0
LAYER
  5
74
330
2
100
AcDbSymbolTableRecord
100
AcDbLayerTableRecord
  2
해칭선
 70
     0
 62
   100
  6
Continuous
370
    -3
390
F
  0
LAYER
  5
75
330
2
100
AcDbSymbolTableRecord
100
AcDbLayerTableRecord
  2
가는실선
 70
     0
 62
     4
  6
Continuous
370
    -3
390
F
  0
LAYER
  5
76
330
2
100
AcDbSymbolTableRecord
100
AcDbLayerTableRecord
  2
치수_보조선
 70
     0
 62
     4
  6
Continuous
370
    -3
390
F
  0
LAYER
  5
77
330
2
100
AcDbSymbolTableRecord
100
AcDbLayerTableRecord
  2
치수문자_일반주서
 70
     0
 62
     7
  6
Continuous
370
    15
390
F
  0
LAYER
  5
78
330
2
100
AcDbSymbolTableRecord
100
AcDbLayerTableRecord
  2
개별주서
 70
     0
 62
   100
  6
Continuous
370
    30
390
F
  0
LAYER
  5
79
330
2
100
AcDbSymbolTableRecord
100
AcDbLayerTableRecord
  2
중간선
 70
     0
 62
     2
  6
Continuous
370
    15
390
F
  0
LAYER
  5
7A
330
2
100
AcDbSymbolTableRecord
100
AcDbLayerTableRecord
  2
윤곽선
 70
     0
 62
     3
  6
Continuous
370
    40
390
F
  0
LAYER
  5
7B
330
2
100
AcDbSymbolTableRecord
100
AcDbLayerTableRecord
  2
중심마크
 70
     0
 62
   100
  6
Continuous
370
    30
390
F
  0
LAYER
  5
7C
330
2
100
AcDbSymbolTableRecord
100
AcDbLayerTableRecord
  2
가상선
 70
     0
 62
     4
  6
PHANTOM
370
    -3
390
F
  0
LAYER
  5
7D
330
2
100
AcDbSymbolTableRecord
100
AcDbLayerTableRecord
  2
특수지정선
 70
     0
 62
     5
  6
CENTERX2
370
    60
390
F
  0
LAYER
  5
7E
330
2
100
AcDbSymbolTableRecord
100
AcDbLayerTableRecord
  2
참조1
 70
     0
 62
    -4
  6
Continuous
370
    -3
390
F
  0
LAYER
  5
140
330
2
100
AcDbSymbolTableRecord
100
AcDbLayerTableRecord
  2
Defpoints
 70
     0
 62
     7
  6
Continuous
290
     0
370
    -3
390
F
  0
ENDTAB
  0
TABLE
  2
STYLE
  5
3
330
0
100
AcDbSymbolTable
 70
     2
  0
STYLE
  5
11
330
3
100
AcDbSymbolTableRecord
100
AcDbTextStyleTableRecord
  2
Standard
 70
     0
 40
0.0
 41
1.0
 50
0.0
 71
     0
 42
3.5
  3
txt
  4

  0
STYLE
  5
94
330
3
100
AcDbSymbolTableRecord
100
AcDbTextStyleTableRecord
  2
SLDTEXTSTYLE0
 70
     0
 40
0.0
 41
0.75
 50
0.0
 71
     0
 42
3.5
  3
TXT
  4

  0
ENDTAB
  0
TABLE
  2
VIEW
  5
6
330
0
100
AcDbSymbolTable
 70
     0
  0
ENDTAB
  0
TABLE
  2
UCS
  5
7
330
0
100
AcDbSymbolTable
 70
     0
  0
ENDTAB
  0
TABLE
  2
APPID
  5
9
330
0
100
AcDbSymbolTable
 70
     3
  0
APPID
  5
12
330
9
100
AcDbSymbolTableRecord
100
AcDbRegAppTableRecord
  2
ACAD
 70
     0
  0
APPID
  5
14B
330
9
100
AcDbSymbolTableRecord
100
AcDbRegAppTableRecord
  2
PE_URL
 70
     0
  0
APPID
  5
14C
330
9
100
AcDbSymbolTableRecord
100
AcDbRegAppTableRecord
  2
ACAD_DSTYLE_DIMRADIAL_EXTENSION
 70
     0
  0
ENDTAB
  0
TABLE
  2
DIMSTYLE
  5
A
330
0
100
AcDbSymbolTable
 70
     3
100
AcDbDimStyleTable
  0
DIMSTYLE
105
27
102
{ACAD_REACTORS
330
14D
102
}
330
A
100
AcDbSymbolTableRecord
100
AcDbDimStyleTableRecord
  2
ISO-25
 70
     0
 41
2.5
 42
0.625
 43
3.75
 44
1.25
 73
     0
 74
     0
 77
     1
 78
     8
140
2.5
141
2.5
143
0.03937007874016
147
0.625
171
     3
172
     1
178
     0
271
     2
272
     2
274
     3
278
    44
283
     0
284
     8
340
11
  0
DIMSTYLE
105
D1
102
{ACAD_REACTORS
330
D0
330
DE
330
EB
330
F7
330
101
102
}
330
A
100
AcDbSymbolTableRecord
100
AcDbDimStyleTableRecord
  2
SLDDIMSTYLE0
 70
     0
 41
3.302
 44
0.0
 45
0.000000001
 73
     0
 74
     0
 77
     1
 78
    12
 79
     3
140
3.5
147
0.875
172
     1
173
     1
178
     0
271
     2
272
     2
276
     2
284
    12
289
     0
340
94
  0
DIMSTYLE
105
102
330
A
100
AcDbSymbolTableRecord
100
AcDbDimStyleTableRecord
  2
SLDDIMSTYLE1
 70
     0
 41
3.302
 44
0.0
 45
0.000000001
 73
     0
 74
     0
 77
     1
 78
    12
 79
     3
140
3.5
147
0.875
173
     1
178
     0
271
     2
272
     2
276
     2
284
    12
340
94
  0
ENDTAB
  0
TABLE
  2
BLOCK_RECORD
  5
1
330
0
100
AcDbSymbolTable
 70
     9
  0
BLOCK_RECORD
  5
1F
330
1
100
AcDbSymbolTableRecord
100
AcDbBlockTableRecord
  2
*Model_Space
340
22
  0
BLOCK_RECORD
  5
1B
330
1
100
AcDbSymbolTableRecord
100
AcDbBlockTableRecord
  2
*Paper_Space
340
1E
  0
BLOCK_RECORD
  5
23
330
1
100
AcDbSymbolTableRecord
100
AcDbBlockTableRecord
  2
*Paper_Space0
340
26
  0
BLOCK_RECORD
  5
7F
330
1
100
AcDbSymbolTableRecord
100
AcDbBlockTableRecord
  2
블럭10
340
0
102
{BLKREFS
331
C9
102
}
  0
BLOCK_RECORD
  5
D2
330
1
100
AcDbSymbolTableRecord
100
AcDbBlockTableRecord
  2
_D
340
0
  0
BLOCK_RECORD
  5
DF
330
1
100
AcDbSymbolTableRecord
100
AcDbBlockTableRecord
  2
_D_1
340
0
  0
BLOCK_RECORD
  5
EC
330
1
100
AcDbSymbolTableRecord
100
AcDbBlockTableRecord
  2
_D_2
340
0
  0
BLOCK_RECORD
  5
F8
330
1
100
AcDbSymbolTableRecord
100
AcDbBlockTableRecord
  2
_D_3
340
0
  0
BLOCK_RECORD
  5
103
330
1
100
AcDbSymbolTableRecord
100
AcDbBlockTableRecord
  2
_D_4
340
0
  0
BLOCK_RECORD
  5
113
330
1
100
AcDbSymbolTableRecord
100
AcDbBlockTableRecord
  2
SW_DOWELSYMBOL_0
340
0
102
{BLKREFS
331
119
102
}
  0
BLOCK_RECORD
  5
150
330
1
100
AcDbSymbolTableRecord
100
AcDbBlockTableRecord
  2
*D8
340
0
  0
ENDTAB
  0
ENDSEC
  0
SECTION
  2
BLOCKS
  0
BLOCK
  5
20
330
1F
100
AcDbEntity
  8
0
100
AcDbBlockBegin
  2
*Model_Space
 70
     0
 10
0.0
 20
0.0
 30
0.0
  3
*Model_Space
  1

  0
ENDBLK
  5
21
330
1F
100
AcDbEntity
  8
0
100
AcDbBlockEnd
  0
BLOCK
  5
1C
330
1B
100
AcDbEntity
 67
     1
  8
0
100
AcDbBlockBegin
  2
*Paper_Space
 70
     0
 10
0.0
 20
0.0
 30
0.0
  3
*Paper_Space
  1

  0
ENDBLK
  5
1D
330
1B
100
AcDbEntity
 67
     1
  8
0
100
AcDbBlockEnd
  0
BLOCK
  5
24
330
23
100
AcDbEntity
  8
0
100
AcDbBlockBegin
  2
*Paper_Space0
 70
     0
 10
0.0
 20
0.0
 30
0.0
  3
*Paper_Space0
  1

  0
ENDBLK
  5
25
330
23
100
AcDbEntity
  8
0
100
AcDbBlockEnd
  0
BLOCK
  5
80
330
7F
100
AcDbEntity
  8
0
100
AcDbBlockBegin
  2
블럭10
 70
     2
 10
0.0
 20
0.0
 30
0.0
  3
블럭10
  1

  0
ELLIPSE
  5
82
330
7F
100
AcDbEntity
  8
중심선
100
AcDbEllipse
 10
20.54032771741204
 20
12.0471743016438
 30
0.0
 11
6.600054785286829
 21
-1.261213355974178E-13
 31
0.0
210
0.0
220
0.0
230
1.0
 40
0.636358354079598
 41
0.9219305317359503
 42
6.513795318482858
  0
ELLIPSE
  5
83
330
7F
100
AcDbEntity
  8
중심선
100
AcDbEllipse
 10
20.54032771746488
 20
12.04717430159265
 30
0.0
 11
3.960054785062283
 21
1.540847449632565E-10
 31
0.0
210
0.0
220
0.0
230
1.0
 40
0.3939339440162632
 41
1.131841032648279
 42
5.62031148352944
  0
LINE
  5
84
330
7F
100
AcDbEntity
  8
중심선
100
AcDbLine
 10
2.268634060543552
 20
16.24717430164393
 30
0.0
 11
5.714909304380834
 21
16.24717430164393
 31
0.0
  0
LINE
  5
85
330
7F
100
AcDbEntity
  8
중심선
100
AcDbLine
 10
5.245725140726316
 20
7.84717430164391
 30
0.0
 11
8.692000384563599
 21
7.84717430164391
 31
0.0
  0
LINE
  5
86
330
7F
100
AcDbEntity
  8
중심선
100
AcDbLine
 10
15.74043728645272
 20
16.24717430164393
 30
0.0
 11
8.692000384563599
 21
7.84717430164391
 31
0.0
  0
LINE
  5
87
330
7F
100
AcDbEntity
  8
중심선
100
AcDbLine
 10
0.1404042013395286
 20
13.71084872107135
 30
0.0
 11
3.58671253028996
 21
13.71088815037384
 31
0.0
  0
LINE
  5
88
330
7F
100
AcDbEntity
  8
중심선
100
AcDbLine
 10
2.750260043222114
 20
10.84717430164391
 30
0.0
 11
6.196535287059397
 21
10.84717430164391
 31
0.0
  0
LINE
  5
89
330
7F
100
AcDbEntity
  8
중심선
100
AcDbLine
 10
12.29416204261559
 20
16.24717430164393
 30
0.0
 11
5.245725140726316
 21
7.84717430164391
 31
0.0
  0
LINE
  5
8A
330
7F
100
AcDbEntity
  8
중심선
100
AcDbLine
 10
10.72767329541681
 20
16.24717430164393
 30
0.0
 11
6.196535287059397
 21
10.84717430164391
 31
0.0
  0
LINE
  5
8B
330
7F
100
AcDbEntity
  8
중심선
100
AcDbLine
 10
7.28139805157953
 20
16.24717430164393
 30
0.0
 11
2.750260043222114
 21
10.84717430164391
 31
0.0
  0
LINE
  5
8C
330
7F
100
AcDbEntity
  8
중심선
100
AcDbLine
 10
5.714909304380834
 20
16.24717430164393
 30
0.0
 11
3.58671253028996
 21
13.71088815037384
 31
0.0
  0
LINE
  5
8D
330
7F
100
AcDbEntity
  8
중심선
100
AcDbLine
 10
2.268634060543552
 20
16.24717430164393
 30
0.0
 11
0.1404042013395286
 21
13.71084872107135
 31
0.0
  0
LINE
  5
8E
330
7F
100
AcDbEntity
  8
중심선
100
AcDbLine
 10
7.28139805157953
 20
16.24717430164393
 30
0.0
 11
10.72767329541681
 21
16.24717430164393
 31
0.0
  0
LINE
  5
8F
330
7F
100
AcDbEntity
  8
중심선
100
AcDbLine
 10
12.29416204261559
 20
16.24717430164393
 30
0.0
 11
15.74043728645272
 21
16.24717430164393
 31
0.0
  0
LINE
  5
90
330
7F
100
AcDbEntity
  8
중심선
100
AcDbLine
 10
19.22036997980202
 20
11.08717430171403
 30
0.0
 11
23.66174974927406
 21
11.08717430171406
 31
0.0
  0
LINE
  5
91
330
7F
100
AcDbEntity
  8
중심선
100
AcDbLine
 10
19.22039502424796
 20
13.00717430171391
 30
0.0
 11
19.22036997980202
 21
11.08717430171403
 31
0.0
  0
LINE
  5
92
330
7F
100
AcDbEntity
  8
중심선
100
AcDbLine
 10
19.22039502424796
 20
13.00717430171391
 30
0.0
 11
26.96566020931264
 21
13.00717430171391
 31
0.0
  0
LINE
  5
93
330
7F
100
AcDbEntity
  8
중심선
100
AcDbLine
 10
22.22332737316547
 20
13.45928029700563
 30
0.0
 11
24.52862924686651
 21
15.39360700705356
 31
0.0
  0
ATTDEF
  5
95
330
7F
100
AcDbEntity
  8
FORMAT
 62
     2
100
AcDbText
 10
-2.529476536452461
 20
2.075366912832191
 30
0.0
 40
4.233333333333333
  1
SEME6406020E
 41
0.75
  7
SLDTEXTSTYLE0
 11
-2.529476536452461
 21
-0.0412997538344756
 31
0.0
100
AcDbAttributeDefinition
  3

  2
AUTOATTR0
 70
     0
 74
     1
  0
ENDBLK
  5
81
330
7F
100
AcDbEntity
  8
0
100
AcDbBlockEnd
  0
BLOCK
  5
D3
330
D2
100
AcDbEntity
  8
0
100
AcDbBlockBegin
  2
_D
 70
     0
 10
0.0
 20
0.0
 30
0.0
  3
_D
  1

  0
LINE
  5
D5
330
D2
100
AcDbEntity
  8
치수문자_일반주서
 62
     0
370
    -2
100
AcDbLine
 10
14.45583686659057
 20
2.999999999999997
 30
0.0
 11
45.27990381056766
 21
3.000000000000112
 31
0.0
  0
LINE
  5
D6
330
D2
100
AcDbEntity
  8
치수문자_일반주서
 62
     0
370
    -2
100
AcDbLine
 10
14.45583686659057
 20
-3.000000000000005
 30
0.0
 11
45.27990381056768
 21
-2.99999999999989
 31
0.0
  0
LINE
  5
D7
330
D2
100
AcDbEntity
  8
치수문자_일반주서
 62
     0
370
    -2
100
AcDbLine
 10
45.27990381056766
 20
3.000000000000112
 30
0.0
 11
45.27990381056761
 21
15.72900000000011
 31
0.0
  0
LINE
  5
D8
330
D2
100
AcDbEntity
  8
치수문자_일반주서
 62
     0
370
    -2
100
AcDbLine
 10
45.27990381056766
 20
3.000000000000112
 30
0.0
 11
45.27990381056768
 21
-2.99999999999989
 31
0.0
  0
LINE
  5
D9
330
D2
100
AcDbEntity
  8
치수문자_일반주서
 62
     0
370
    -2
100
AcDbLine
 10
45.27990381056765
 20
6.302000000000112
 30
0.0
 11
45.27990381056763
 21
9.604000000000111
 31
0.0
  0
LINE
  5
DA
330
D2
100
AcDbEntity
  8
치수문자_일반주서
 62
     0
370
    -2
100
AcDbLine
 10
45.2799038105677
 20
-6.301999999999889
 30
0.0
 11
45.27990381056771
 21
-9.603999999999889
 31
0.0
  0
SOLID
  5
DB
330
D2
100
AcDbEntity
  8
치수문자_일반주서
 62
     0
100
AcDbTrace
 10
44.72957047723431
 20
6.30200000000011
 30
0.0
 11
45.83023714390098
 21
6.302000000000113
 31
0.0
 12
45.27990381056766
 22
3.000000000000112
 32
0.0
 13
45.27990381056766
 23
3.000000000000112
 33
0.0
  0
SOLID
  5
DC
330
D2
100
AcDbEntity
  8
치수문자_일반주서
 62
     0
100
AcDbTrace
 10
45.83023714390103
 20
-6.301999999999888
 30
0.0
 11
44.72957047723436
 21
-6.301999999999891
 31
0.0
 12
45.27990381056768
 22
-2.99999999999989
 32
0.0
 13
45.27990381056768
 23
-2.99999999999989
 33
0.0
  0
MTEXT
  5
DD
330
D2
100
AcDbEntity
  8
치수문자_일반주서
 62
     0
100
AcDbMText
 10
40.90490381056762
 20
12.6665000000001
 30
0.0
 40
3.5
 41
0.0
 71
     2
 72
     1
  1
\A1;%%c6
  7
SLDTEXTSTYLE0
 11
-3.552713678800499E-15
 21
1.0
 31
0.0
 73
     1
 44
1.0
  0
POINT
  5
141
330
D2
100
AcDbEntity
  8
Defpoints
 62
     0
100
AcDbPoint
 10
14.39333686659057
 20
2.999999999999997
 30
0.0
  0
POINT
  5
142
330
D2
100
AcDbEntity
  8
Defpoints
 62
     0
100
AcDbPoint
 10
14.39333686659057
 20
-3.000000000000006
 30
0.0
  0
POINT
  5
143
330
D2
100
AcDbEntity
  8
Defpoints
 62
     0
100
AcDbPoint
 10
45.27990381056768
 20
-2.99999999999989
 30
0.0
  0
ENDBLK
  5
D4
330
D2
100
AcDbEntity
  8
0
100
AcDbBlockEnd
  0
BLOCK
  5
E0
330
DF
100
AcDbEntity
  8
0
100
AcDbBlockBegin
  2
_D_1
 70
     0
 10
0.0
 20
0.0
 30
0.0
  3
_D_1
  1

  0
LINE
  5
E2
330
DF
100
AcDbEntity
  8
치수문자_일반주서
 62
     0
370
    -2
100
AcDbLine
 10
-39.18259618943233
 20
3.000000000000003
 30
0.0
 11
-49.10856462559715
 21
2.999999999999966
 31
0.0
  0
LINE
  5
E3
330
DF
100
AcDbEntity
  8
치수문자_일반주서
 62
     0
370
    -2
100
AcDbLine
 10
-39.18259618943233
 20
-3.000000000000002
 30
0.0
 11
-49.10856462559713
 21
-3.000000000000039
 31
0.0
  0
LINE
  5
E4
330
DF
100
AcDbEntity
  8
치수문자_일반주서
 62
     0
370
    -2
100
AcDbLine
 10
-49.10856462559713
 20
-0.3020000000000338
 30
0.0
 11
-49.10856462559714
 21
0.3019999999999614
 31
0.0
  0
SOLID
  5
E5
330
DF
100
AcDbEntity
  8
치수문자_일반주서
 62
     0
100
AcDbTrace
 10
-48.5582312922638
 20
-0.3020000000000319
 30
0.0
 11
-49.65889795893047
 21
-0.3020000000000357
 31
0.0
 12
-49.10856462559715
 22
2.999999999999966
 32
0.0
 13
-49.10856462559715
 23
2.999999999999966
 33
0.0
  0
SOLID
  5
E6
330
DF
100
AcDbEntity
  8
치수문자_일반주서
 62
     0
100
AcDbTrace
 10
-49.65889795893047
 20
0.3019999999999595
 30
0.0
 11
-48.55823129226381
 21
0.3019999999999634
 31
0.0
 12
-49.10856462559713
 22
-3.000000000000039
 32
0.0
 13
-49.10856462559713
 23
-3.000000000000039
 33
0.0
  0
MTEXT
  5
E7
330
DF
100
AcDbEntity
  8
치수문자_일반주서
 62
     0
100
AcDbMText
 10
-53.48356462559714
 20
-0.0000000000000133
 30
0.0
 40
3.5
 41
0.0
 71
     2
 72
     1
  1
\A1;%%c6
  7
SLDTEXTSTYLE0
 11
-3.552713678800498E-15
 21
1.0
 31
0.0
 73
     1
 44
1.0
  0
POINT
  5
E8
330
DF
100
AcDbEntity
  8
Defpoints
 62
     0
100
AcDbPoint
 10
-39.12009618943233
 20
3.000000000000003
 30
0.0
  0
POINT
  5
E9
330
DF
100
AcDbEntity
  8
Defpoints
 62
     0
100
AcDbPoint
 10
-39.12009618943233
 20
-3.000000000000002
 30
0.0
  0
POINT
  5
EA
330
DF
100
AcDbEntity
  8
Defpoints
 62
     0
100
AcDbPoint
 10
-49.10856462559714
 20
-3.000000000000039
 30
0.0
  0
ENDBLK
  5
E1
330
DF
100
AcDbEntity
  8
0
100
AcDbBlockEnd
  0
BLOCK
  5
ED
330
EC
100
AcDbEntity
  8
0
100
AcDbBlockBegin
  2
_D_2
 70
     0
 10
0.0
 20
0.0
 30
0.0
  3
_D_2
  1

  0
LINE
  5
EF
330
EC
100
AcDbEntity
  8
치수문자_일반주서
 62
     0
370
    -2
100
AcDbLine
 10
20.27990381056767
 20
1.560614307507565
 30
0.0
 11
20.27990381056767
 21
11.63415307155057
 31
0.0
  0
LINE
  5
F0
330
EC
100
AcDbEntity
  8
치수문자_일반주서
 62
     0
370
    -2
100
AcDbLine
 10
11.27990381056767
 20
2.971480869898874
 30
0.0
 11
11.27990381056767
 21
11.63415307155057
 31
0.0
  0
LINE
  5
F1
330
EC
100
AcDbEntity
  8
치수문자_일반주서
 62
     0
370
    -2
100
AcDbLine
 10
16.97790381056767
 20
11.63415307155057
 30
0.0
 11
14.58190381056767
 21
11.63415307155057
 31
0.0
  0
SOLID
  5
F2
330
EC
100
AcDbEntity
  8
치수문자_일반주서
 62
     0
100
AcDbTrace
 10
16.97790381056767
 20
11.08381973821723
 30
0.0
 11
16.97790381056767
 21
12.1844864048839
 31
0.0
 12
20.27990381056767
 22
11.63415307155057
 32
0.0
 13
20.27990381056767
 23
11.63415307155057
 33
0.0
  0
SOLID
  5
F3
330
EC
100
AcDbEntity
  8
치수문자_일반주서
 62
     0
100
AcDbTrace
 10
14.58190381056767
 20
12.1844864048839
 30
0.0
 11
14.58190381056767
 21
11.08381973821723
 31
0.0
 12
11.27990381056767
 22
11.63415307155057
 32
0.0
 13
11.27990381056767
 23
11.63415307155057
 33
0.0
  0
MTEXT
  5
F4
330
EC
100
AcDbEntity
  8
치수문자_일반주서
 62
     0
100
AcDbMText
 10
15.77990381056767
 20
16.00915307155056
 30
0.0
 40
3.5
 41
0.0
 71
     2
 72
     1
  1
\A1;9
  7
SLDTEXTSTYLE0
 73
     1
 44
1.0
  0
POINT
  5
F5
330
EC
100
AcDbEntity
  8
Defpoints
 62
     0
100
AcDbPoint
 10
20.27990381056767
 20
1.498114307507565
 30
0.0
  0
POINT
  5
F6
330
EC
100
AcDbEntity
  8
Defpoints
 62
     0
100
AcDbPoint
 10
11.27990381056767
 20
2.908980869898874
 30
0.0
  0
POINT
  5
144
330
EC
100
AcDbEntity
  8
Defpoints
 62
     0
100
AcDbPoint
 10
11.27990381056767
 20
11.63415307155057
 30
0.0
  0
ENDBLK
  5
EE
330
EC
100
AcDbEntity
  8
0
100
AcDbBlockEnd
  0
BLOCK
  5
F9
330
F8
100
AcDbEntity
  8
0
100
AcDbBlockBegin
  2
_D_3
 70
     0
 10
0.0
 20
0.0
 30
0.0
  3
_D_3
  1

  0
LINE
  5
FB
330
F8
100
AcDbEntity
  8
치수문자_일반주서
 62
     0
370
    -2
100
AcDbLine
 10
20.27990381056767
 20
1.062499999999999
 30
0.0
 11
20.27990381056767
 21
17.13603876404298
 31
0.0
  0
LINE
  5
FC
330
F8
100
AcDbEntity
  8
치수문자_일반주서
 62
     0
370
    -2
100
AcDbLine
 10
0.2799038105676698
 20
2.987499999999999
 30
0.0
 11
0.279903810567669
 21
17.13603876404298
 31
0.0
  0
LINE
  5
FD
330
F8
100
AcDbEntity
  8
치수문자_일반주서
 62
     0
370
    -2
100
AcDbLine
 10
16.97790381056767
 20
17.13603876404298
 30
0.0
 11
3.581903810567669
 21
17.13603876404298
 31
0.0
  0
SOLID
  5
FE
330
F8
100
AcDbEntity
  8
치수문자_일반주서
 62
     0
100
AcDbTrace
 10
16.97790381056767
 20
16.58570543070964
 30
0.0
 11
16.97790381056767
 21
17.68637209737631
 31
0.0
 12
20.27990381056767
 22
17.13603876404298
 32
0.0
 13
20.27990381056767
 23
17.13603876404298
 33
0.0
  0
SOLID
  5
FF
330
F8
100
AcDbEntity
  8
치수문자_일반주서
 62
     0
100
AcDbTrace
 10
3.581903810567669
 20
17.68637209737631
 30
0.0
 11
3.581903810567669
 21
16.58570543070964
 31
0.0
 12
0.279903810567669
 22
17.13603876404298
 32
0.0
 13
0.279903810567669
 23
17.13603876404298
 33
0.0
  0
MTEXT
  5
100
330
F8
100
AcDbEntity
  8
치수문자_일반주서
 62
     0
100
AcDbMText
 10
10.27990381056768
 20
21.51103876404298
 30
0.0
 40
3.5
 41
0.0
 71
     2
 72
     1
  1
\A1;20
  7
SLDTEXTSTYLE0
 73
     1
 44
1.0
  0
POINT
  5
145
330
F8
100
AcDbEntity
  8
Defpoints
 62
     0
100
AcDbPoint
 10
20.27990381056767
 20
0.9999999999999991
 30
0.0
  0
POINT
  5
146
330
F8
100
AcDbEntity
  8
Defpoints
 62
     0
100
AcDbPoint
 10
0.2799038105676698
 20
2.924999999999999
 30
0.0
  0
POINT
  5
147
330
F8
100
AcDbEntity
  8
Defpoints
 62
     0
100
AcDbPoint
 10
0.2799038105676698
 20
17.13603876404298
 30
0.0
  0
ENDBLK
  5
FA
330
F8
100
AcDbEntity
  8
0
100
AcDbBlockEnd
  0
BLOCK
  5
104
330
103
100
AcDbEntity
  8
0
100
AcDbBlockBegin
  2
_D_4
 70
     0
 10
0.0
 20
0.0
 30
0.0
  3
_D_4
  1

  0
LINE
  5
106
330
103
100
AcDbEntity
  8
치수문자_일반주서
 62
     0
370
    -2
100
AcDbLine
 10
20.27990381056767
 20
1.560614307507565
 30
0.0
 11
20.27990381056767
 21
26.04165037271246
 31
0.0
  0
LINE
  5
107
330
103
100
AcDbEntity
  8
치수문자_일반주서
 62
     0
370
    -2
100
AcDbLine
 10
-39.72009618943233
 20
2.462500000000006
 30
0.0
 11
-39.72009618943233
 21
26.04165037271246
 31
0.0
  0
LINE
  5
108
330
103
100
AcDbEntity
  8
치수문자_일반주서
 62
     0
370
    -2
100
AcDbLine
 10
16.97790381056767
 20
26.04165037271246
 30
0.0
 11
-36.41809618943233
 21
26.04165037271246
 31
0.0
  0
SOLID
  5
109
330
103
100
AcDbEntity
  8
치수문자_일반주서
 62
     0
100
AcDbTrace
 10
16.97790381056767
 20
25.49131703937912
 30
0.0
 11
16.97790381056767
 21
26.59198370604579
 31
0.0
 12
20.27990381056767
 22
26.04165037271246
 32
0.0
 13
20.27990381056767
 23
26.04165037271246
 33
0.0
  0
SOLID
  5
10A
330
103
100
AcDbEntity
  8
치수문자_일반주서
 62
     0
100
AcDbTrace
 10
-36.41809618943233
 20
26.59198370604579
 30
0.0
 11
-36.41809618943233
 21
25.49131703937912
 31
0.0
 12
-39.72009618943233
 22
26.04165037271246
 32
0.0
 13
-39.72009618943233
 23
26.04165037271246
 33
0.0
  0
MTEXT
  5
10B
330
103
100
AcDbEntity
  8
치수문자_일반주서
 62
     0
100
AcDbMText
 10
-9.720096189432326
 20
30.41665037271246
 30
0.0
 40
3.5
 41
0.0
 71
     2
 72
     1
  1
\A1;60
  7
SLDTEXTSTYLE0
 73
     1
 44
1.0
  0
POINT
  5
148
330
103
100
AcDbEntity
  8
Defpoints
 62
     0
100
AcDbPoint
 10
20.27990381056767
 20
1.498114307507565
 30
0.0
  0
POINT
  5
149
330
103
100
AcDbEntity
  8
Defpoints
 62
     0
100
AcDbPoint
 10
-39.72009618943233
 20
2.400000000000006
 30
0.0
  0
POINT
  5
14A
330
103
100
AcDbEntity
  8
Defpoints
 62
     0
100
AcDbPoint
 10
-39.72009618943233
 20
26.04165037271246
 30
0.0
  0
ENDBLK
  5
105
330
103
100
AcDbEntity
  8
0
100
AcDbBlockEnd
  0
BLOCK
  5
114
330
113
100
AcDbEntity
  8
0
100
AcDbBlockBegin
  2
SW_DOWELSYMBOL_0
 70
     0
 10
0.0
 20
0.0
 30
0.0
  3
SW_DOWELSYMBOL_0
  1

  0
CIRCLE
  5
116
330
113
100
AcDbEntity
  8
해칭선
 62
     0
100
AcDbCircle
 10
0.0
 20
0.0
 30
0.0
 40
3.000000000000001
  0
HATCH
  5
117
330
113
100
AcDbEntity
  8
0
  6
Continuous
 62
     0
370
     0
100
AcDbHatch
 10
0.0
 20
0.0
 30
0.0
210
0.0
220
0.0
230
1.0
  2
SOLID
 70
     1
 71
     0
 91
        1
 92
        0
 93
        3
 72
     2
 10
0.0
 20
0.0
 40
3.000000000000001
 50
0.0
 51
90.0
 73
     1
 72
     1
 10
0.0
 20
3.000000000000001
 11
0.0
 21
0.0
 72
     1
 10
0.0
 20
0.0
 11
3.000000000000001
 21
0.0
 97
        0
 75
     0
 76
     1
 98
        1
 10
0.0
 20
0.0
  0
HATCH
  5
118
330
113
100
AcDbEntity
  8
0
  6
Continuous
 62
     0
370
     0
100
AcDbHatch
 10
0.0
 20
0.0
 30
0.0
210
0.0
220
0.0
230
1.0
  2
SOLID
 70
     1
 71
     0
 91
        1
 92
        0
 93
        3
 72
     2
 10
0.0
 20
0.0
 40
3.000000000000001
 50
180.0
 51
270.0000000000007
 73
     1
 72
     1
 10
0.0
 20
-3.000000000000001
 11
0.0
 21
0.0
 72
     1
 10
0.0
 20
0.0
 11
-3.000000000000001
 21
0.0
 97
        0
 75
     0
 76
     1
 98
        1
 10
0.0
 20
0.0
  0
ENDBLK
  5
115
330
113
100
AcDbEntity
  8
0
100
AcDbBlockEnd
  0
BLOCK
  5
151
330
150
100
AcDbEntity
  8
0
100
AcDbBlockBegin
  2
*D8
 70
     1
 10
0.0
 20
0.0
 30
0.0
  3
*D8
  1

  0
LINE
  5
153
330
150
100
AcDbEntity
  8
0
 62
     0
370
    -2
100
AcDbLine
 10
42.68657747848083
 20
-9.961367540929528
 30
0.0
 11
27.74591081181412
 21
-9.961367540929528
 31
0.0
  0
LINE
  5
154
330
150
100
AcDbEntity
  8
0
 62
     0
370
    -2
100
AcDbLine
 10
27.74591081181412
 20
-9.961367540929528
 30
0.0
 11
22.14617842451869
 21
-4.711936094654362
 31
0.0
  0
MTEXT
  5
155
330
150
100
AcDbEntity
  8
0
 62
     0
100
AcDbMText
 10
35.97824414514749
 20
-6.395700874262862
 30
0.0
 40
3.5
 41
0.0
 71
     5
 72
     1
  1
R2,00
 73
     1
 44
1.0
  0
LINE
  5
156
330
150
100
AcDbEntity
  8
0
 62
     0
370
    -2
100
AcDbLine
 10
18.27806268100365
 20
-1.085797019167737
 30
0.0
 11
19.73717838960985
 21
-2.453635221916368
 31
0.0
  0
SOLID
  5
157
330
150
100
AcDbEntity
  8
0
 62
     0
100
AcDbTrace
 10
22.52256190330836
 20
-4.310436088836221
 30
0.0
 11
21.76979494572903
 21
-5.113436100472503
 31
0.0
 12
19.73717838960985
 22
-2.453635221916368
 32
0.0
 13
19.73717838960985
 23
-2.453635221916368
 33
0.0
  0
POINT
  5
158
330
150
100
AcDbEntity
  8
Defpoints
 62
     0
100
AcDbPoint
 10
19.73717838960985
 20
-2.453635221916368
 30
0.0
  0
POINT
  5
159
330
150
100
AcDbEntity
  8
Defpoints
 62
     0
100
AcDbPoint
 10
18.27806268100365
 20
-1.085797019167737
 30
0.0
  0
ENDBLK
  5
152
330
150
100
AcDbEntity
  8
0
100
AcDbBlockEnd
  0
ENDSEC
  0
SECTION
  2
ENTITIES
  0
LWPOLYLINE
  5
96
330
1F
100
AcDbEntity
  8
외형선
  6
Continuous
 62
     1
370
    15
100
AcDbPolyline
 90
        3
 70
   128
 43
0.0
 10
20.27990381056767
 20
0.9999999999999991
 10
20.27856969184142
 20
1.073038996654261
 10
20.27806268100364
 20
1.08579701916772
  0
LINE
  5
97
330
1F
100
AcDbEntity
  8
외형선
  6
Continuous
 62
     1
370
    15
100
AcDbLine
 10
20.20890993564206
 20
1.528143322806874
 30
0.0
 11
20.1951166557237
 21
1.57615948985447
 31
0.0
  0
ARC
  5
98
330
1F
100
AcDbEntity
  8
외형선
  6
Continuous
 62
     1
370
    15
100
AcDbCircle
 10
18.27990381056767
 20
-1.000000000000006
 30
0.0
 40
2.000000000000004
100
AcDbArc
 50
343.308017253617
 51
0.0000000000000127
  0
LINE
  5
99
330
1F
100
AcDbEntity
  8
외형선
  6
Continuous
 62
     1
370
    15
100
AcDbLine
 10
14.39315364380095
 20
2.999999999999997
 30
0.0
 11
12.5631568775058
 21
2.999999999999996
 31
0.0
  0
LINE
  5
9A
330
1F
100
AcDbEntity
  8
외형선
  6
Continuous
 62
     1
370
    15
100
AcDbLine
 10
12.56315687750577
 20
-3.000000000000006
 30
0.0
 11
14.39315364380095
 21
-3.000000000000006
 31
0.0
  0
LINE
  5
9B
330
1F
100
AcDbEntity
  8
외형선
  6
Continuous
370
    15
100
AcDbLine
 10
-39.12009618943233
 20
3.0
 30
0.0
 11
-39.72009618943233
 21
2.400000000000006
 31
0.0
  0
LINE
  5
9C
330
1F
100
AcDbEntity
  8
외형선
  6
Continuous
370
    15
100
AcDbLine
 10
-39.72009618943233
 20
-2.400000000000006
 30
0.0
 11
-39.12009618943233
 21
-3.0
 31
0.0
  0
LINE
  5
9D
330
1F
100
AcDbEntity
  8
외형선
  6
Continuous
370
    15
100
AcDbLine
 10
-39.12009618943233
 20
-3.0
 30
0.0
 11
0.0000000000000067
 21
-3.0
 31
0.0
  0
LINE
  5
9E
330
1F
100
AcDbEntity
  8
외형선
  6
Continuous
370
    15
100
AcDbLine
 10
0.0000000000000003
 20
3.0
 30
0.0
 11
-39.12009618943233
 21
3.0
 31
0.0
  0
LINE
  5
A1
330
1F
100
AcDbEntity
  8
외형선
  6
Continuous
370
    15
100
AcDbLine
 10
0.2799038105676698
 20
-2.924999999999999
 30
0.0
 11
10.28013802651412
 21
-2.924999999999999
 31
0.0
  0
LINE
  5
A2
330
1F
100
AcDbEntity
  8
외형선
  6
Continuous
370
    15
100
AcDbLine
 10
10.28013802651412
 20
2.924999999999999
 30
0.0
 11
0.2799038105676698
 21
2.924999999999999
 31
0.0
  0
SPLINE
  5
A3
330
1F
100
AcDbEntity
  8
외형선
  6
Continuous
 62
     1
370
    15
100
AcDbSpline
210
0.0
220
0.0
230
1.0
 70
     8
 71
     3
 72
    36
 73
    32
 74
     0
 42
0.000000001
 43
0.00000001
 40
0.0
 40
0.0
 40
0.0
 40
0.0
 40
0.0625000000000002
 40
0.0625000000000002
 40
0.1250000000000003
 40
0.1250000000000003
 40
0.2500000000000007
 40
0.2500000000000007
 40
0.3125000000000008
 40
0.3125000000000008
 40
0.3750000000000009
 40
0.3750000000000009
 40
0.4375000000000011
 40
0.4375000000000011
 40
0.5000000000000012
 40
0.5000000000000012
 40
0.5625000000000013
 40
0.5625000000000013
 40
0.5937500000000014
 40
0.5937500000000014
 40
0.6250000000000016
 40
0.6250000000000016
 40
0.6875000000000009
 40
0.6875000000000009
 40
0.7500000000000003
 40
0.7500000000000003
 40
0.8749999999999991
 40
0.8749999999999991
 40
0.9374999999999996
 40
0.9374999999999996
 40
1.0
 40
1.0
 40
1.0
 40
1.0
 10
18.27990381056768
 20
1.360554576629436
 30
0.0
 10
18.41114426623623
 20
1.293213917489336
 30
0.0
 10
18.54195596047659
 20
1.222710266839725
 30
0.0
 10
18.80455169500735
 20
1.078552028651384
 30
0.0
 10
18.93732145273352
 20
1.004127992876358
 30
0.0
 10
19.31818583433667
 20
0.7892036995820084
 30
0.0
 10
19.55921344377242
 20
0.653057897591746
 30
0.0
 10
19.84867314485292
 20
0.448362680433801
 30
0.0
 10
19.93449948655359
 20
0.3783744733052685
 30
0.0
 10
20.07481660720945
 20
0.2310810521566749
 30
0.0
 10
20.13048446994839
 20
0.1529003726813991
 30
0.0
 10
20.21231656444878
 20
-0.0241404408463501
 30
0.0
 10
20.23694639816807
 20
-0.1200566773818834
 30
0.0
 10
20.2652588112106
 20
-0.3356014720739686
 30
0.0
 10
20.26957710508341
 20
-0.4570878667846433
 30
0.0
 10
20.27015358825236
 20
-0.7149574510445926
 30
0.0
 10
20.26699501617511
 20
-0.8526812831570073
 30
0.0
 10
20.24608910630811
 20
-1.071705953269383
 30
0.0
 10
20.23633542470271
 20
-1.14509499867443
 30
0.0
 10
20.2086063444409
 20
-1.292385523929401
 30
0.0
 10
20.19028989862028
 20
-1.367159524471927
 30
0.0
 10
20.12212070243579
 20
-1.581379500383351
 30
0.0
 10
20.05681932315189
 20
-1.715933079717825
 30
0.0
 10
19.89752177100578
 20
-1.938547662907251
 30
0.0
 10
19.80357674625589
 20
-2.028046418490006
 30
0.0
 10
19.49957495398786
 20
-2.226048475433981
 30
0.0
 10
19.27103041688038
 20
-2.265719245317055
 30
0.0
 10
18.91439646189567
 20
-2.237692985081111
 30
0.0
 10
18.79146656227118
 20
-2.213520552468675
 30
0.0
 10
18.53920911968529
 20
-2.142502746430562
 30
0.0
 10
18.41131030076813
 20
-2.096112397035316
 30
0.0
 10
18.27990381056767
 20
-2.040657808873362
 30
0.0
  0
SPLINE
  5
A4
330
1F
100
AcDbEntity
  8
외형선
  6
Continuous
 62
     1
370
    15
100
AcDbSpline
210
0.0
220
0.0
230
1.0
 70
     8
 71
     3
 72
    22
 73
    18
 74
     0
 42
0.000000001
 43
0.00000001
 40
0.0
 40
0.0
 40
0.0
 40
0.0
 40
0.125
 40
0.125
 40
0.25
 40
0.25
 40
0.375
 40
0.375
 40
0.5
 40
0.5
 40
0.625
 40
0.625
 40
0.75
 40
0.75
 40
0.875
 40
0.875
 40
1.0
 40
1.0
 40
1.0
 40
1.0
 10
18.27990381056768
 20
-2.040657808873365
 30
0.0
 10
17.9870313995869
 20
-1.917063312816419
 30
0.0
 10
17.6963787527072
 20
-1.784109106971367
 30
0.0
 10
17.11509953939412
 20
-1.502701948690147
 30
0.0
 10
16.82072378257534
 20
-1.353597734400427
 30
0.0
 10
16.236937290838
 20
-1.044831981679087
 30
0.0
 10
15.9483315417255
 20
-0.8853757003329877
 30
0.0
 10
15.36286345849451
 20
-0.558106636647337
 30
0.0
 10
15.07032387742151
 20
-0.3910819588752813
 30
0.0
 10
14.49082415770348
 20
-0.0559922086632636
 30
0.0
 10
14.19666563184206
 20
0.1134562718491926
 30
0.0
 10
13.61193847064159
 20
0.4490019511926521
 30
0.0
 10
13.32366647680488
 20
0.6146670694606848
 30
0.0
 10
12.73877536499702
 20
0.940213664216637
 30
0.0
 10
12.4446838033779
 20
1.099578102536921
 30
0.0
 10
11.86560661788029
 20
1.404855752667924
 30
0.0
 10
11.57258824258
 20
1.552183977666768
 30
0.0
 10
11.27990381056768
 20
1.69141274450553
 30
0.0
  0
SPLINE
  5
A5
330
1F
100
AcDbEntity
  8
외형선
  6
Continuous
370
    15
100
AcDbSpline
210
0.0
220
0.0
230
1.0
 70
    24
 71
     3
 72
    11
 73
     7
 74
     0
 42
0.000000001
 43
0.00000001
 40
0.0
 40
0.0
 40
0.0
 40
0.0
 40
0.1419478234275908
 40
0.3801249384284644
 40
0.6252092058996266
 40
1.0
 40
1.0
 40
1.0
 40
1.0
 10
11.27990381056766
 20
1.732776405510426
 30
0.0
 10
11.27990381056766
 20
1.779975785255095
 30
0.0
 10
11.27990381056766
 20
1.906371955947042
 30
0.0
 10
11.27990381056764
 20
2.145467037647118
 30
0.0
 10
11.27990381056767
 20
2.490022531004881
 30
0.0
 10
11.27990381056768
 20
2.751117073093482
 30
0.0
 10
11.27990381056769
 20
2.908980869898876
 30
0.0
  0
SPLINE
  5
A6
330
1F
100
AcDbEntity
  8
외형선
  6
Continuous
 62
     1
370
    15
100
AcDbSpline
210
0.0
220
0.0
230
1.0
 70
     8
 71
     3
 72
    22
 73
    18
 74
     0
 42
0.000000001
 43
0.00000001
 40
0.0
 40
0.0
 40
0.0
 40
0.0
 40
0.125
 40
0.125
 40
0.25
 40
0.25
 40
0.375
 40
0.375
 40
0.5
 40
0.5
 40
0.625
 40
0.625
 40
0.75
 40
0.75
 40
0.875
 40
0.875
 40
1.0
 40
1.0
 40
1.0
 40
1.0
 10
18.27990381056768
 20
1.360554576629247
 30
0.0
 10
17.98703139958691
 20
1.510830046940065
 30
0.0
 10
17.69637875270722
 20
1.654270170401767
 30
0.0
 10
17.1150995393941
 20
1.924262016334055
 30
0.0
 10
16.82072378257534
 20
2.051336731854408
 30
0.0
 10
16.23693729083798
 20
2.284193298239782
 30
0.0
 10
15.9483315417255
 20
2.389970725306725
 30
0.0
 10
15.36286345849452
 20
2.578955682707203
 30
0.0
 10
15.07032387742153
 20
2.661603902505754
 30
0.0
 10
14.4908241577035
 20
2.800645358332115
 30
0.0
 10
14.19666563184206
 20
2.85757601513178
 30
0.0
 10
13.61193847064159
 20
2.943615444003298
 30
0.0
 10
13.32366647680492
 20
2.972760324514234
 30
0.0
 10
12.73877536499706
 20
3.003016971926984
 30
0.0
 10
12.44468380337791
 20
3.003929308711491
 30
0.0
 10
11.86560661788031
 20
2.977563884763482
 30
0.0
 10
11.57258824258002
 20
2.950190474160689
 30
0.0
 10
11.27990381056771
 20
2.908980869898879
 30
0.0
  0
SPLINE
  5
A8
330
1F
100
AcDbEntity
  8
외형선
  6
Continuous
 62
     1
370
    15
100
AcDbSpline
210
0.0
220
0.0
230
1.0
 70
     8
 71
     3
 72
    14
 73
    10
 74
     0
 42
0.000000001
 43
0.00000001
 40
0.0
 40
0.0
 40
0.0
 40
0.0
 40
0.0416586034347027
 40
0.1978835538181322
 40
0.3538493107168083
 40
0.5096238113060858
 40
0.6730085613693676
 40
0.8366534891150765
 40
1.0
 40
1.0
 40
1.0
 40
1.0
 10
17.56263137504148
 20
-2.450684453512285
 30
0.0
 10
17.47541277632798
 20
-2.482020341890642
 30
0.0
 10
17.06111357161461
 20
-2.630869713763538
 30
0.0
 10
16.31959406564448
 20
-2.808330075047287
 30
0.0
 10
15.33971686153553
 20
-2.968838127028187
 30
0.0
 10
14.34509926953039
 20
-3.01856010028488
 30
0.0
 10
13.33406046085705
 20
-2.955915190309906
 30
0.0
 10
12.30658950970857
 20
-2.784052173492894
 30
0.0
 10
11.62192409860741
 20
-2.579772150629797
 30
0.0
 10
11.27990381056769
 20
-2.477725353570159
 30
0.0
  0
SPLINE
  5
A9
330
1F
100
AcDbEntity
  8
외형선
  6
Continuous
370
    15
100
AcDbSpline
210
0.0
220
0.0
230
1.0
 70
    24
 71
     3
 72
    21
 73
    17
 74
     0
 42
0.000000001
 43
0.00000001
 40
0.0
 40
0.0
 40
0.0
 40
0.0
 40
0.1067508481039497
 40
0.1790276982973306
 40
0.2534005820426999
 40
0.3256774322361242
 40
0.4000503159815411
 40
0.4723271661749417
 40
0.5467000499203329
 40
0.6189769001137377
 40
0.6933497838591335
 40
0.7656266340525544
 40
0.8399995177979207
 40
0.9122763679913207
 40
0.9866492517367111
 40
1.0
 40
1.0
 40
1.0
 40
1.0
 10
11.27990381056767
 20
-2.477725353570149
 30
0.0
 10
11.27990381056766
 20
-2.378333301394034
 30
0.0
 10
11.27990381056768
 20
-2.211646753734845
 30
0.0
 10
11.27990381056769
 20
-1.914075899786358
 30
0.0
 10
11.27990381056771
 20
-1.636111379712893
 30
0.0
 10
11.27990381056767
 20
-1.338395283819878
 30
0.0
 10
11.27990381056763
 20
-1.03583527058275
 30
0.0
 10
11.2799038105677
 20
-0.7312516274908243
 30
0.0
 10
11.27990381056768
 20
-0.4388152195633401
 30
0.0
 10
11.27990381056766
 20
-0.1615668848115985
 30
0.0
 10
11.27990381056769
 20
0.0878305326652339
 30
0.0
 10
11.27990381056769
 20
0.3061334363626414
 30
0.0
 10
11.27990381056765
 20
0.4857465034496472
 30
0.0
 10
11.27990381056765
 20
0.6154198101933449
 30
0.0
 10
11.27990381056773
 20
0.6948912698887588
 30
0.0
 10
11.27990381056767
 20
0.7018942174337904
 30
0.0
 10
11.27990381056767
 20
0.7029600031021893
 30
0.0
  0
SPLINE
  5
AA
330
1F
100
AcDbEntity
  8
외형선
  6
Continuous
 62
     1
370
    15
100
AcDbSpline
210
0.0
220
0.0
230
1.0
 70
     8
 71
     3
 72
    22
 73
    18
 74
     0
 42
0.000000001
 43
0.00000001
 40
0.0
 40
0.0
 40
0.0
 40
0.0
 40
0.125
 40
0.125
 40
0.25
 40
0.25
 40
0.375
 40
0.375
 40
0.5
 40
0.5
 40
0.625
 40
0.625
 40
0.75
 40
0.75
 40
0.875
 40
0.875
 40
1.0
 40
1.0
 40
1.0
 40
1.0
 10
19.05125082529512
 20
-2.930296976751663
 30
0.0
 10
17.98703139958693
 20
-2.597272179720614
 30
0.0
 10
17.69637875270722
 20
-2.508321321511046
 30
0.0
 10
17.11509953939413
 20
-2.307704777722231
 30
0.0
 10
16.82072378257535
 20
-2.195537392128708
 30
0.0
 10
16.23693729083799
 20
-1.952134166487261
 30
0.0
 10
15.94833154172552
 20
-1.821115368019322
 30
0.0
 10
15.36286345849453
 20
-1.541884832953333
 30
0.0
 10
15.07032387742154
 20
-1.394307238684019
 30
0.0
 10
14.49082415770349
 20
-1.088399552799094
 30
0.0
 10
14.19666563184208
 20
-0.9287930834258511
 30
0.0
 10
13.61193847064161
 20
-0.6029306692326778
 30
0.0
 10
13.32366647680489
 20
-0.4371482964123208
 30
0.0
 10
12.73877536499705
 20
-0.1014477519742798
 30
0.0
 10
12.44468380337793
 20
0.0679928591432954
 30
0.0
 10
11.86560661788029
 20
0.4028990354698851
 30
0.0
 10
11.57258824258001
 20
0.5699071915139545
 30
0.0
 10
11.27990381056771
 20
0.7333691420848635
 30
0.0
  0
LINE
  5
AB
330
1F
100
AcDbEntity
  8
외형선
  6
Continuous
370
    15
100
AcDbLine
 10
11.27990381056767
 20
1.691412744505535
 30
0.0
 11
11.27990381056769
 21
0.7333691420848759
 31
0.0
  0
SPLINE
  5
AC
330
1F
100
AcDbEntity
  8
외형선
  6
Continuous
 62
     1
370
    15
100
AcDbSpline
210
0.0
220
0.0
230
1.0
 70
     8
 71
     3
 72
    26
 73
    22
 74
     0
 42
0.000000001
 43
0.00000001
 40
0.3884966968531685
 40
0.3884966968531685
 40
0.3884966968531685
 40
0.3884966968531685
 40
0.4374999999999966
 40
0.4374999999999966
 40
0.4999999999999962
 40
0.4999999999999962
 40
0.5624999999999958
 40
0.5624999999999958
 40
0.5937499999999957
 40
0.5937499999999957
 40
0.6249999999999956
 40
0.6249999999999956
 40
0.6874999999999959
 40
0.6874999999999959
 40
0.7499999999999963
 40
0.7499999999999963
 40
0.8749999999999971
 40
0.8749999999999971
 40
0.9374999999999986
 40
0.9374999999999986
 40
1.0
 40
1.0
 40
1.0
 40
1.0
 10
20.19568772966213
 20
1.574171508621122
 30
0.0
 10
20.22246563077214
 20
1.484963635781146
 30
0.0
 10
20.24000339061621
 20
1.398908084133501
 30
0.0
 10
20.26525881121062
 20
1.216303974628593
 30
0.0
 10
20.26957710508337
 20
1.122756434649644
 30
0.0
 10
20.2701535882523
 20
0.9718994934541484
 30
0.0
 10
20.26699501617506
 20
0.9122641172700504
 30
0.0
 10
20.2460891063081
 20
0.8536472531055606
 30
0.0
 10
20.23633542470275
 20
0.8398247937905198
 30
0.0
 10
20.20860634444095
 20
0.8248736334660283
 30
0.0
 10
20.19028989862033
 20
0.8239227402326306
 30
0.0
 10
20.12212070243582
 20
0.8422703766082518
 30
0.0
 10
20.05681932315187
 20
0.8838588042465261
 30
0.0
 10
19.89752177100573
 20
1.00971366171007
 30
0.0
 10
19.80357674625591
 20
1.093394989950054
 30
0.0
 10
19.49957495398791
 20
1.367926222483741
 30
0.0
 10
19.27103041688039
 20
1.576629763948357
 30
0.0
 10
18.91439646189568
 20
1.847860415282423
 30
0.0
 10
18.79146656227118
 20
1.933108257194093
 30
0.0
 10
18.53920911968529
 20
2.083220101089357
 30
0.0
 10
18.41131030076816
 20
2.14756519190913
 30
0.0
 10
18.27990381056767
 20
2.19902608149246
 30
0.0
  0
LINE
  5
AD
330
1F
100
AcDbEntity
  8
외형선
  6
Continuous
 62
     1
370
    15
100
AcDbLine
 10
20.27990381056767
 20
0.9999999999999991
 30
0.0
 11
20.27990381056767
 21
-1.000000000000006
 31
0.0
  0
SPLINE
  5
AE
330
1F
100
AcDbEntity
  8
외형선
  6
Continuous
 62
     1
370
    15
100
AcDbSpline
210
0.0
220
0.0
230
1.0
 70
     8
 71
     3
 72
    11
 73
     7
 74
     0
 42
0.000000001
 43
0.00000001
 40
0.0
 40
0.0
 40
0.0
 40
0.0
 40
0.2519014613051357
 40
0.504410220861011
 40
0.7565000420516672
 40
1.0
 40
1.0
 40
1.0
 40
1.0
 10
18.27990381056768
 20
2.199026081492454
 30
0.0
 10
17.95363703654881
 20
2.319865604004181
 30
0.0
 10
17.30031690617003
 20
2.561835975764135
 30
0.0
 10
16.319615142586
 20
2.810171295721676
 30
0.0
 10
15.35045238559381
 20
2.971432390898222
 30
0.0
 10
14.70854457899266
 20
2.989454640838218
 30
0.0
 10
14.39315364380096
 20
2.998309579513803
 30
0.0
  0
LINE
  5
AF
330
1F
100
AcDbEntity
  8
외형선
  6
Continuous
 62
     1
370
    15
100
AcDbLine
 10
17.56263137504148
 20
2.450684453512285
 30
0.0
 11
19.05125082529511
 21
2.930296976751648
 31
0.0
  0
SPLINE
  5
B0
330
1F
100
AcDbEntity
  8
외형선
  6
Continuous
 62
     1
370
    15
100
AcDbSpline
210
0.0
220
0.0
230
1.0
 70
     8
 71
     3
 72
     9
 73
     5
 74
     0
 42
0.000000001
 43
0.00000001
 40
0.0
 40
0.0
 40
0.0
 40
0.0
 40
0.763486502594383
 40
1.0
 40
1.0
 40
1.0
 40
1.0
 10
11.27990381056771
 20
-2.908980869898884
 30
0.0
 10
11.60641110529301
 20
-2.951128537348438
 30
0.0
 10
12.03406410716769
 20
-3.006332745027725
 30
0.0
 10
12.46195492392643
 20
-2.991994224959418
 30
0.0
 10
12.56315687750578
 20
-2.988602971430443
 30
0.0
  0
LINE
  5
B1
330
1F
100
AcDbEntity
  8
외형선
  6
Continuous
370
    15
100
AcDbLine
 10
11.27990381056767
 20
-2.477725353570149
 30
0.0
 11
11.27990381056769
 21
-2.908980869898892
 31
0.0
  0
LINE
  5
B2
330
1F
100
AcDbEntity
  8
외형선
  6
Continuous
370
    15
100
AcDbLine
 10
-39.12009618943233
 20
0.0000000000000002
 30
0.0
 11
-39.12009618943233
 21
3.0
 31
0.0
  0
LINE
  5
B3
330
1F
100
AcDbEntity
  8
외형선
  6
Continuous
370
    15
100
AcDbLine
 10
-39.12009618943233
 20
-3.0
 30
0.0
 11
-39.12009618943233
 21
0.0000000000000002
 31
0.0
  0
LINE
  5
B4
330
1F
100
AcDbEntity
  8
외형선
  6
Continuous
370
    15
100
AcDbLine
 10
-39.72009618943233
 20
0.0000000000000002
 30
0.0
 11
-39.72009618943233
 21
2.400000000000006
 31
0.0
  0
LINE
  5
B5
330
1F
100
AcDbEntity
  8
외형선
  6
Continuous
370
    15
100
AcDbLine
 10
-39.72009618943233
 20
-2.400000000000006
 30
0.0
 11
-39.72009618943233
 21
0.0000000000000002
 31
0.0
  0
LINE
  5
B8
330
1F
100
AcDbEntity
  8
외형선
  6
Continuous
370
    15
100
AcDbLine
 10
0.2799038105676698
 20
0.0000000000000002
 30
0.0
 11
0.2799038105676698
 21
2.924999999999999
 31
0.0
  0
LINE
  5
B9
330
1F
100
AcDbEntity
  8
외형선
  6
Continuous
370
    15
100
AcDbLine
 10
0.2799038105676698
 20
-2.925000000000001
 30
0.0
 11
0.2799038105676698
 21
0.0000000000000002
 31
0.0
  0
SPLINE
  5
BA
330
1F
100
AcDbEntity
  8
외형선
  6
Continuous
370
    15
100
AcDbSpline
210
0.0
220
0.0
230
1.0
 70
     8
 71
     3
 72
     8
 73
     4
 74
     0
 42
0.000000001
 43
0.00000001
 40
0.0
 40
0.0
 40
0.0
 40
0.0
 40
1.0
 40
1.0
 40
1.0
 40
1.0
 10
11.27990381056768
 20
0.7361843652308443
 30
0.0
 10
10.94496855491114
 20
0.9182183365429565
 30
0.0
 10
10.61492261769882
 20
1.094815047420851
 30
0.0
 10
10.28013802651413
 20
1.264397366803839
 30
0.0
  0
LINE
  5
BB
330
1F
100
AcDbEntity
  8
외형선
  6
Continuous
370
    15
100
AcDbLine
 10
10.28013802651412
 20
-2.070969309779964
 30
0.0
 11
10.28013802651411
 21
1.264391862228857
 31
0.0
  0
SPLINE
  5
BC
330
1F
100
AcDbEntity
  8
외형선
  6
Continuous
370
    15
100
AcDbSpline
210
0.0
220
0.0
230
1.0
 70
     8
 71
     3
 72
     8
 73
     4
 74
     0
 42
0.000000001
 43
0.00000001
 40
0.0
 40
0.0
 40
0.0
 40
0.0
 40
1.0
 40
1.0
 40
1.0
 40
1.0
 10
11.27990381056769
 20
-2.42802375480022
 30
0.0
 10
10.94496855491115
 20
-2.323140911120773
 30
0.0
 10
10.61492261769882
 20
-2.203758616171676
 30
0.0
 10
10.28013802651413
 20
-2.070951186332778
 30
0.0
  0
LINE
  5
BD
330
1F
100
AcDbEntity
  8
외형선
  6
Continuous
370
    15
100
AcDbLine
 10
11.27990381056767
 20
-2.480447691869132
 30
0.0
 11
11.27990381056768
 21
-2.428023754800214
 31
0.0
  0
SPLINE
  5
BE
330
1F
100
AcDbEntity
  8
외형선
  6
Continuous
370
    15
100
AcDbSpline
210
0.0
220
0.0
230
1.0
 70
     8
 71
     3
 72
     8
 73
     4
 74
     0
 42
0.000000001
 43
0.00000001
 40
0.0
 40
0.0
 40
0.0
 40
0.0
 40
1.0
 40
1.0
 40
1.0
 40
1.0
 10
11.27990381056768
 20
-2.830840437112204
 30
0.0
 10
10.94496855491114
 20
-2.783500939673921
 30
0.0
 10
10.61492261769882
 20
-2.718891648958897
 30
0.0
 10
10.28013802651413
 20
-2.637598206478665
 30
0.0
  0
LINE
  5
BF
330
1F
100
AcDbEntity
  8
외형선
  6
Continuous
370
    15
100
AcDbLine
 10
10.28013802651412
 20
-2.924999999999999
 30
0.0
 11
10.28013802651411
 21
-2.637600845224579
 31
0.0
  0
SPLINE
  5
C0
330
1F
100
AcDbEntity
  8
외형선
  6
Continuous
370
    15
100
AcDbSpline
210
0.0
220
0.0
230
1.0
 70
     8
 71
     3
 72
     8
 73
     4
 74
     0
 42
0.000000001
 43
0.00000001
 40
0.0
 40
0.0
 40
0.0
 40
0.0
 40
1.0
 40
1.0
 40
1.0
 40
1.0
 10
11.27990381056768
 20
2.830840437112199
 30
0.0
 10
10.94496855491114
 20
2.783500939673916
 30
0.0
 10
10.61492261769882
 20
2.718891648958889
 30
0.0
 10
10.28013802651413
 20
2.637598206478656
 30
0.0
  0
LINE
  5
C1
330
1F
100
AcDbEntity
  8
외형선
  6
Continuous
370
    15
100
AcDbLine
 10
10.28013802651412
 20
2.065601877891667
 30
0.0
 11
10.28013802651412
 21
2.924999999999999
 31
0.0
  0
SPLINE
  5
C2
330
1F
100
AcDbEntity
  8
외형선
  6
Continuous
370
    15
100
AcDbSpline
210
0.0
220
0.0
230
1.0
 70
     8
 71
     3
 72
     8
 73
     4
 74
     0
 42
0.000000001
 43
0.00000001
 40
0.0
 40
0.0
 40
0.0
 40
0.0
 40
1.0
 40
1.0
 40
1.0
 40
1.0
 10
11.27990381056769
 20
1.631050473199995
 30
0.0
 10
10.94496855491115
 20
1.78718177637486
 30
0.0
 10
10.61492261769882
 20
1.932469857070684
 30
0.0
 10
10.28013802651413
 20
2.065620048272903
 30
0.0
  0
SPLINE
  5
C3
330
1F
100
AcDbEntity
  8
외형선
  6
Continuous
370
    15
100
AcDbSpline
210
0.0
220
0.0
230
1.0
 70
    24
 71
     3
 72
    20
 73
    16
 74
     0
 42
0.000000001
 43
0.00000001
 40
0.0
 40
0.0
 40
0.0
 40
0.0
 40
0.1086208171824629
 40
0.1824711224117693
 40
0.2584630914956987
 40
0.3323133967250708
 40
0.4083053658090717
 40
0.4821556710384123
 40
0.558147640122379
 40
0.6319979453517192
 40
0.707989914435685
 40
0.7818402196650328
 40
0.8578321887489908
 40
0.93168249397833
 40
1.0
 40
1.0
 40
1.0
 40
1.0
 10
11.27990381056769
 20
-2.428023754800214
 30
0.0
 10
11.27990381056768
 20
-2.324432195152164
 30
0.0
 10
11.27990381056767
 20
-2.150409676709748
 30
0.0
 10
11.27990381056766
 20
-1.845666533079955
 30
0.0
 10
11.27990381056771
 20
-1.562846517391134
 30
0.0
 10
11.27990381056762
 20
-1.262354261601901
 30
0.0
 10
11.2799038105677
 20
-0.9591840355133228
 30
0.0
 10
11.27990381056766
 20
-0.6561684419418373
 30
0.0
 10
11.27990381056762
 20
-0.3674236155513066
 30
0.0
 10
11.27990381056773
 20
-0.0958746720604091
 30
0.0
 10
11.27990381056768
 20
0.1457872134503674
 30
0.0
 10
11.27990381056764
 20
0.3554918283861956
 30
0.0
 10
11.27990381056766
 20
0.521967908135219
 30
0.0
 10
11.27990381056765
 20
0.6450087673713266
 30
0.0
 10
11.27990381056766
 20
0.6856695521420171
 30
0.0
 10
11.27990381056766
 20
0.7052087388536485
 30
0.0
  0
SPLINE
  5
C4
330
1F
100
AcDbEntity
  8
외형선
  6
Continuous
370
    15
100
AcDbSpline
210
0.0
220
0.0
230
1.0
 70
    24
 71
     3
 72
    11
 73
     7
 74
     0
 42
0.000000001
 43
0.00000001
 40
0.0
 40
0.0
 40
0.0
 40
0.0
 40
0.2146298393060756
 40
0.4725806461055944
 40
0.7305314529051133
 40
1.0
 40
1.0
 40
1.0
 40
1.0
 10
11.27990381056766
 20
1.732776405510426
 30
0.0
 10
11.27990381056766
 20
1.801521851608088
 30
0.0
 10
11.27990381056764
 20
1.952888350500726
 30
0.0
 10
11.27990381056764
 20
2.218632011402814
 30
0.0
 10
11.27990381056768
 20
2.51778696154178
 30
0.0
 10
11.27990381056766
 20
2.724981049461539
 30
0.0
 10
11.27990381056768
 20
2.830840437112236
 30
0.0
  0
LINE
  5
C5
330
1F
100
AcDbEntity
  8
중심선
 62
     1
100
AcDbLine
 10
-42.72009618943232
 20
-0.0000000000000037
 30
0.0
 11
23.27990381056768
 21
0.0000000000000044
 31
0.0
  0
LINE
  5
C6
330
1F
100
AcDbEntity
  8
참조1
100
AcDbLine
 10
-9.92499999999999
 20
0.0010749287238892
 30
0.0
 11
-9.924999999999985
 21
-39.99892507127611
 31
0.0
  0
LINE
  5
C7
330
1F
100
AcDbEntity
  8
참조1
100
AcDbLine
 10
-9.924999999999985
 20
-39.99892507127611
 30
0.0
 11
-25.08385681430866
 21
-39.9989250712761
 31
0.0
  0
CIRCLE
  5
C8
330
1F
100
AcDbEntity
  8
해칭선
100
AcDbCircle
 10
0.0
 20
0.0
 30
0.0
 40
3.000000000000001
  0
INSERT
  5
C9
330
1F
100
AcDbEntity
  8
0
  6
Continuous
 62
     7
100
AcDbBlockReference
 66
     1
  2
블럭10
 10
-23.8652729321252
 20
-52.04609937292004
 30
0.0
  0
ATTRIB
  5
CA
330
C9
100
AcDbEntity
  8
FORMAT
 62
     2
100
AcDbText
 10
-39.98453397156075
 20
-49.97073246008785
 30
0.0
 40
4.233333333333333
  1
SEME6406020E [ 4 FLUTE ]
 41
0.75
  7
SLDTEXTSTYLE0
 11
-39.98453397156075
 21
-52.08739912675452
 31
0.0
100
AcDbAttribute
  2
AUTOATTR0
 70
     0
 74
     1
  0
SEQEND
  5
CB
330
C9
100
AcDbEntity
  8
0
  6
Continuous
 62
     7
  0
HATCH
  5
CC
330
1F
100
AcDbEntity
  8
중심선
100
AcDbHatch
 10
0.0
 20
0.0
 30
0.0
210
0.0
220
0.0
230
1.0
  2
SOLID
 70
     1
 71
     0
 91
        1
 92
        0
 93
        4
 72
     1
 10
-18.15036362774436
 20
-35.7989250712761
 11
-21.59663887158164
 21
-35.7989250712761
 72
     1
 10
-21.59663887158164
 20
-35.7989250712761
 11
-23.72486873078567
 21
-38.3352506518487
 72
     1
 10
-23.72486873078567
 20
-38.3352506518487
 11
-20.27856040183523
 21
-38.33521122254621
 72
     1
 10
-20.27856040183523
 20
-38.33521122254621
 11
-18.15036362774436
 21
-35.7989250712761
 97
        0
 75
     0
 76
     1
 98
        1
 10
0.0
 20
0.0
  0
HATCH
  5
CD
330
1F
100
AcDbEntity
  8
중심선
100
AcDbHatch
 10
0.0
 20
0.0
 30
0.0
210
0.0
220
0.0
230
1.0
  2
SOLID
 70
     1
 71
     0
 91
        1
 92
        0
 93
        4
 72
     1
 10
-13.13759963670838
 20
-35.7989250712761
 11
-16.58387488054566
 21
-35.7989250712761
 72
     1
 10
-16.58387488054566
 20
-35.7989250712761
 11
-21.11501288890308
 21
-41.19892507127612
 72
     1
 10
-21.11501288890308
 20
-41.19892507127612
 11
-17.6687376450658
 21
-41.19892507127612
 72
     1
 10
-17.6687376450658
 20
-41.19892507127612
 11
-13.13759963670838
 21
-35.7989250712761
 97
        0
 75
     0
 76
     1
 98
        1
 10
0.0
 20
0.0
  0
HATCH
  5
CE
330
1F
100
AcDbEntity
  8
중심선
100
AcDbHatch
 10
0.0
 20
0.0
 30
0.0
210
0.0
220
0.0
230
1.0
  2
SOLID
 70
     1
 71
     0
 91
        1
 92
        0
 93
        4
 72
     1
 10
-8.124835645672512
 20
-35.7989250712761
 11
-11.57111088950963
 21
-35.7989250712761
 72
     1
 10
-11.57111088950963
 20
-35.7989250712761
 11
-18.61954779139888
 21
-44.19892507127612
 72
     1
 10
-18.61954779139888
 20
-44.19892507127612
 11
-15.1732725475616
 21
-44.19892507127612
 72
     1
 10
-15.1732725475616
 20
-44.19892507127612
 11
-8.124835645672512
 21
-35.7989250712761
 97
        0
 75
     0
 76
     1
 98
        1
 10
0.0
 20
0.0
  0
HATCH
  5
CF
330
1F
100
AcDbEntity
  8
중심선
100
AcDbHatch
 10
0.0
 20
0.0
 30
0.0
210
0.0
220
0.0
230
1.0
  2
SOLID
 70
     1
 71
     0
 91
        1
 92
        0
 93
        6
 72
     3
 10
-3.324945214660313
 20
-39.99892507132738
 11
3.960054785062284
 21
1.540850780301639E-10
 40
0.3939339440162633
 50
17.09539180608433
 51
320.0019657685073
 73
     0
 72
     1
 10
-1.641945558959718
 20
-38.58681907591438
 11
0.6633563147413202
 21
-36.65249236586649
 72
     3
 10
-3.32494521471316
 20
-39.99892507127625
 11
6.600054785286829
 21
-1.249000902703301E-13
 40
0.6363583540795982
 50
39.99873849337408
 51
368.4976242363724
 73
     1
 72
     1
 10
3.100387277187449
 20
-39.03892507120613
 11
-4.644877907877238
 21
-39.0389250712061
 72
     1
 10
-4.644877907877238
 20
-39.0389250712061
 11
-4.644902952323172
 21
-40.95892507120602
 72
     1
 10
-4.644902952323172
 20
-40.95892507120602
 11
-0.2035231828511339
 21
-40.95892507120599
 97
        0
 75
     0
 76
     1
 98
        1
 10
0.0
 20
0.0
  0
DIMENSION
  5
D0
330
1F
100
AcDbEntity
  8
치수문자_일반주서
100
AcDbDimension
  2
_D
 10
45.27990381056768
 20
-2.99999999999989
 30
0.0
 11
45.27990381056762
 21
12.66650000000011
 31
0.0
 70
   160
  1
%%c<>
 71
     2
 42
6.000000000000003
 52
-270.0
  3
SLDDIMSTYLE0
100
AcDbAlignedDimension
 13
14.39333686659057
 23
2.999999999999997
 33
0.0
 14
14.39333686659057
 24
-3.000000000000006
 34
0.0
 50
90.0000000000002
100
AcDbRotatedDimension
1001
PE_URL
1000

  0
DIMENSION
  5
DE
330
1F
100
AcDbEntity
  8
치수문자_일반주서
100
AcDbDimension
  2
_D_1
 10
-49.10856462559713
 20
-3.000000000000039
 30
0.0
 11
-49.10856462559714
 21
0.0000000000000022
 31
0.0
 70
   160
  1
%%c<>
 71
     2
 42
6.000000000000005
 52
-270.0
  3
SLDDIMSTYLE0
100
AcDbAlignedDimension
 13
-39.12009618943233
 23
3.000000000000003
 33
0.0
 14
-39.12009618943233
 24
-3.000000000000002
 34
0.0
 50
90.0000000000002
100
AcDbRotatedDimension
  0
DIMENSION
  5
EB
330
1F
100
AcDbEntity
  8
치수문자_일반주서
100
AcDbDimension
  2
_D_2
 10
11.27990381056767
 20
11.63415307155057
 30
0.0
 11
15.77990381056767
 21
11.63415307155057
 31
0.0
 70
   160
  1
<>
 71
     2
 42
9.0
  3
SLDDIMSTYLE0
100
AcDbAlignedDimension
 13
20.27990381056767
 23
1.498114307507565
 33
0.0
 14
11.27990381056767
 24
2.908980869898874
 34
0.0
 50
-0.0000000000000113
100
AcDbRotatedDimension
1001
PE_URL
1000

  0
DIMENSION
  5
F7
330
1F
100
AcDbEntity
  8
치수문자_일반주서
100
AcDbDimension
  2
_D_3
 10
0.279903810567669
 20
17.13603876404298
 30
0.0
 11
10.27990381056768
 21
17.13603876404298
 31
0.0
 70
   160
  1
<>
 71
     2
 42
20.0
  3
SLDDIMSTYLE0
100
AcDbAlignedDimension
 13
20.27990381056767
 23
0.9999999999999991
 33
0.0
 14
0.2799038105676698
 24
2.924999999999999
 34
0.0
100
AcDbRotatedDimension
1001
PE_URL
1000

  0
DIMENSION
  5
101
330
1F
100
AcDbEntity
  8
치수문자_일반주서
100
AcDbDimension
  2
_D_4
 10
-39.72009618943233
 20
26.04165037271246
 30
0.0
 11
-9.720096189432326
 21
26.04165037271246
 31
0.0
 70
   160
  1
<>
 71
     2
 42
60.0
  3
SLDDIMSTYLE0
100
AcDbAlignedDimension
 13
20.27990381056767
 23
1.498114307507565
 33
0.0
 14
-39.72009618943233
 24
2.400000000000006
 34
0.0
 50
0.0000000000000068
100
AcDbRotatedDimension
1001
PE_URL
1000

  0
LINE
  5
10C
330
1F
100
AcDbEntity
  8
참조1
100
AcDbLine
 10
72.8884838153456
 20
7.441074928723896
 30
0.0
 11
72.8884838153456
 21
-7.438925071276109
 31
0.0
  0
LINE
  5
10D
330
1F
100
AcDbEntity
  8
참조1
100
AcDbLine
 10
85.5884838153456
 20
5.441074928723896
 30
0.0
 11
72.8884838153456
 21
5.441074928723896
 31
0.0
  0
SOLID
  5
10E
330
1F
100
AcDbEntity
  8
참조1
100
AcDbTrace
 10
72.8884838153456
 20
5.441074928723896
 30
0.0
 11
79.23848381534559
 21
4.425074928723896
 31
0.0
 12
79.23848381534559
 22
6.457074928723896
 32
0.0
 13
79.23848381534559
 23
6.457074928723896
 33
0.0
  0
LINE
  5
10F
330
1F
100
AcDbEntity
  8
참조1
100
AcDbLine
 10
85.5884838153456
 20
-5.438925071276109
 30
0.0
 11
72.8884838153456
 21
-5.438925071276109
 31
0.0
  0
SOLID
  5
110
330
1F
100
AcDbEntity
  8
참조1
100
AcDbTrace
 10
72.8884838153456
 20
-5.438925071276109
 30
0.0
 11
79.23848381534559
 21
-6.454925071276109
 31
0.0
 12
79.23848381534559
 22
-4.422925071276109
 32
0.0
 13
79.23848381534559
 23
-4.422925071276109
 33
0.0
  0
MTEXT
  5
111
330
1F
100
AcDbEntity
  8
참조1
100
AcDbMText
 10
82.28597390781587
 20
10.98929157337383
 30
0.0
 40
3.5
 41
0.0
 71
     1
 72
     1
  1
A
  7
SLDTEXTSTYLE0
 73
     1
 44
1.0
  0
MTEXT
  5
112
330
1F
100
AcDbEntity
  8
참조1
100
AcDbMText
 10
82.28597390781587
 20
0.1092915733738259
 30
0.0
 40
3.5
 41
0.0
 71
     1
 72
     1
  1
A
  7
SLDTEXTSTYLE0
 73
     1
 44
1.0
  0
INSERT
  5
119
330
1F
100
AcDbEntity
  8
해칭선
100
AcDbBlockReference
  2
SW_DOWELSYMBOL_0
 10
0.0
 20
0.0
 30
0.0
  0
ARC
  5
13E
330
1F
100
AcDbEntity
  8
0
 62
     1
100
AcDbCircle
 10
18.27806268100364
 20
1.08579701916772
 30
0.0
 40
2.0
100
AcDbArc
 50
0.0000000000002036
 51
67.25726207926319
  0
ARC
  5
13F
330
1F
100
AcDbEntity
  8
0
 62
     1
100
AcDbCircle
 10
18.27806268100365
 20
-1.085797019167737
 30
0.0
 40
2.0
100
AcDbArc
 50
292.742737920737
 51
0.0000000000000954
  0
DIMENSION
  5
14D
330
1F
100
AcDbEntity
  8
0
100
AcDbDimension
  2
*D8
 10
18.27806268100365
 20
-1.085797019167737
 30
0.0
 11
35.97824414514749
 21
-9.961367540929528
 31
0.0
 70
   164
 71
     5
 42
1.999999999999996
  3
ISO-25
100
AcDbRadialDimension
 15
19.73717838960985
 25
-2.453635221916368
 35
0.0
 40
0.0
1001
ACAD
1000
DSTYLE
1002
{
1070
   179
1070
     2
1070
   143
1040
0.0393700787401575
1070
    41
1040
3.302
1070
    44
1040
1.0
1070
    42
1040
1.0
1070
   147
1040
1.524
1070
    73
1070
     1
1070
    74
1070
     1
1070
   140
1040
3.5
1070
   284
1070
     0
1070
    78
1070
     0
1002
}
1001
ACAD_DSTYLE_DIMRADIAL_EXTENSION
1070
   387
1070
     1
1070
   388
1040
5.10932463801972
1070
   390
1040
0.0000000000000017
  0
LINE
  5
17C
330
1F
100
AcDbEntity
  8
외형선
  6
Continuous
370
    15
100
AcDbLine
 10
0.2799038105676698
 20
2.924999999999999
 30
0.0
 11
0.0000000000000003
 21
3.0
 31
0.0
1001
PE_URL
1000

  0
LINE
  5
17D
330
1F
100
AcDbEntity
  8
외형선
  6
Continuous
370
    15
100
AcDbLine
 10
0.0000000000000003
 20
3.0
 30
0.0
 11
-0.0000000000000003
 21
-3.0
 31
0.0
1001
PE_URL
1000

  0
LINE
  5
17E
330
1F
100
AcDbEntity
  8
외형선
  6
Continuous
370
    15
100
AcDbLine
 10
0.2799038105676698
 20
-2.924999999999999
 30
0.0
 11
-0.0000000000000003
 21
-3.0
 31
0.0
1001
PE_URL
1000

  0
ENDSEC
  0
SECTION
  2
OBJECTS
  0
DICTIONARY
  5
C
330
0
100
AcDbDictionary
281
     1
  3
ACAD_GROUP
350
D
  3
ACAD_LAYOUT
350
1A
  3
ACAD_MLINESTYLE
350
17
  3
ACAD_PLOTSETTINGS
350
19
  3
ACAD_PLOTSTYLENAME
350
E
  3
ACAD_SCALELIST
350
47
  3
APPDATA
350
13B
  3
DWGPROPS
350
17F
  0
DICTIONARY
  5
D
102
{ACAD_REACTORS
330
C
102
}
330
C
100
AcDbDictionary
281
     1
  0
DICTIONARY
  5
1A
102
{ACAD_REACTORS
330
C
102
}
330
C
100
AcDbDictionary
281
     1
  3
Layout1
350
1E
  3
Layout2
350
26
  3
Model
350
22
  0
DICTIONARY
  5
17
102
{ACAD_REACTORS
330
C
102
}
330
C
100
AcDbDictionary
281
     1
  3
Standard
350
18
  0
DICTIONARY
  5
19
102
{ACAD_REACTORS
330
C
102
}
330
C
100
AcDbDictionary
281
     1
  0
ACDBDICTIONARYWDFLT
  5
E
102
{ACAD_REACTORS
330
C
102
}
330
C
100
AcDbDictionary
281
     1
  3
Normal
350
F
100
AcDbDictionaryWithDefault
340
F
  0
DICTIONARY
  5
47
102
{ACAD_REACTORS
330
C
102
}
330
C
100
AcDbDictionary
281
     1
  3
A0
350
48
  3
A1
350
49
  3
A2
350
4A
  3
A3
350
4B
  3
A4
350
4C
  3
A5
350
4D
  3
A6
350
4E
  3
A7
350
4F
  3
A8
350
50
  3
A9
350
51
  3
B0
350
52
  3
B1
350
53
  3
B2
350
54
  3
B3
350
55
  3
B4
350
56
  3
B5
350
57
  3
B6
350
58
  3
B7
350
59
  3
B8
350
5A
  3
B9
350
5B
  3
C0
350
5C
  3
C1
350
5D
  3
C2
350
5E
  3
C3
350
5F
  3
C4
350
60
  3
C5
350
61
  3
C6
350
62
  3
C7
350
63
  3
C8
350
64
  3
C9
350
65
  3
D0
350
66
  3
D1
350
67
  3
D2
350
68
  0
DICTIONARY
  5
13B
102
{ACAD_REACTORS
330
C
102
}
330
C
100
AcDbDictionary
281
     1
  0
XRECORD
  5
17F
102
{ACAD_REACTORS
330
C
102
}
330
C
100
AcDbXrecord
280
     1
  1
DWGPROPS COOKIE
  2

  3

  4

  6

  7

  8
12014102
  9

300
=
301
=
302
=
303
=
304
=
305
=
306
=
307
=
308
=
309
=
 40
0.0
 41
2458274.333748878
 42
2459576.327887928
  1

 90
        0
  0
LAYOUT
  5
1E
102
{ACAD_REACTORS
330
1A
102
}
330
1A
100
AcDbPlotSettings
  1

  2
none_device
  4

  6

 40
0.0
 41
0.0
 42
0.0
 43
0.0
 44
0.0
 45
0.0
 46
0.0
 47
0.0
 48
0.0
 49
0.0
140
0.0
141
0.0
142
1.0
143
1.0
 70
   688
 72
     1
 73
     0
 74
     5
  7

 75
    16
147
1.0
148
0.0
149
0.0
100
AcDbLayout
  1
Layout1
 70
     1
 71
     1
 10
0.0
 20
0.0
 11
420.0
 21
297.0
 12
0.0
 22
0.0
 32
0.0
 14
1.000000000000000E+20
 24
1.000000000000000E+20
 34
1.000000000000000E+20
 15
-1.000000000000000E+20
 25
-1.000000000000000E+20
 35
-1.000000000000000E+20
146
0.0
 13
0.0
 23
0.0
 33
0.0
 16
1.0
 26
0.0
 36
0.0
 17
0.0
 27
1.0
 37
0.0
 76
     0
330
1B
  0
LAYOUT
  5
26
102
{ACAD_REACTORS
330
1A
102
}
330
1A
100
AcDbPlotSettings
  1

  2
none_device
  4

  6

 40
0.0
 41
0.0
 42
0.0
 43
0.0
 44
0.0
 45
0.0
 46
0.0
 47
0.0
 48
0.0
 49
0.0
140
0.0
141
0.0
142
1.0
143
1.0
 70
   688
 72
     1
 73
     0
 74
     5
  7

 75
    16
147
1.0
148
0.0
149
0.0
100
AcDbLayout
  1
Layout2
 70
     1
 71
     2
 10
0.0
 20
0.0
 11
0.0
 21
0.0
 12
0.0
 22
0.0
 32
0.0
 14
0.0
 24
0.0
 34
0.0
 15
0.0
 25
0.0
 35
0.0
146
0.0
 13
0.0
 23
0.0
 33
0.0
 16
1.0
 26
0.0
 36
0.0
 17
0.0
 27
1.0
 37
0.0
 76
     0
330
23
  0
LAYOUT
  5
22
102
{ACAD_REACTORS
330
1A
102
}
330
1A
100
AcDbPlotSettings
  1

  2
none_device
  4
ANSI_A_(11.00_x_8.50_Inches)
  6

 40
6.35
 41
19.05
 42
6.35000508
 43
19.05000254
 44
279.4
 45
215.9
 46
101.9048797191898
 47
108.8919530128286
 48
0.0
 49
0.0
140
0.0
141
0.0
142
0.0780828969451962
143
1.0
 70
  1696
 72
     0
 73
     0
 74
     0
  7

 75
     0
147
0.0235690232323232
148
0.0
149
0.0
100
AcDbLayout
  1
Model
 70
     1
 71
     0
 10
0.0
 20
0.0
 11
420.0
 21
297.0
 12
0.0
 22
0.0
 32
0.0
 14
-53.48356462559714
 24
-49.97073246008785
 34
0.0
 15
85.5884838153456
 25
30.41665037271246
 35
0.0
146
0.0
 13
0.0
 23
0.0
 33
0.0
 16
1.0
 26
0.0
 36
0.0
 17
0.0
 27
1.0
 37
0.0
 76
     0
330
1F
331
29
  0
MLINESTYLE
  5
18
102
{ACAD_REACTORS
330
17
102
}
330
17
100
AcDbMlineStyle
  2
Standard
 70
     0
  3

 62
   256
 51
90.0
 52
90.0
 71
     2
 49
0.5
 62
   256
  6
BYLAYER
 49
-0.5
 62
   256
  6
BYLAYER
  0
ACDBPLACEHOLDER
  5
F
102
{ACAD_REACTORS
330
E
102
}
330
E
  0
SCALE
  5
48
102
{ACAD_REACTORS
330
47
102
}
330
47
100
AcDbScale
 70
     0
300
1:1
140
1.0
141
1.0
290
     1
  0
SCALE
  5
49
102
{ACAD_REACTORS
330
47
102
}
330
47
100
AcDbScale
 70
     0
300
1:2
140
1.0
141
2.0
290
     0
  0
SCALE
  5
4A
102
{ACAD_REACTORS
330
47
102
}
330
47
100
AcDbScale
 70
     0
300
1:4
140
1.0
141
4.0
290
     0
  0
SCALE
  5
4B
102
{ACAD_REACTORS
330
47
102
}
330
47
100
AcDbScale
 70
     0
300
1:5
140
1.0
141
5.0
290
     0
  0
SCALE
  5
4C
102
{ACAD_REACTORS
330
47
102
}
330
47
100
AcDbScale
 70
     0
300
1:8
140
1.0
141
8.0
290
     0
  0
SCALE
  5
4D
102
{ACAD_REACTORS
330
47
102
}
330
47
100
AcDbScale
 70
     0
300
1:10
140
1.0
141
10.0
290
     0
  0
SCALE
  5
4E
102
{ACAD_REACTORS
330
47
102
}
330
47
100
AcDbScale
 70
     0
300
1:16
140
1.0
141
16.0
290
     0
  0
SCALE
  5
4F
102
{ACAD_REACTORS
330
47
102
}
330
47
100
AcDbScale
 70
     0
300
1:20
140
1.0
141
20.0
290
     0
  0
SCALE
  5
50
102
{ACAD_REACTORS
330
47
102
}
330
47
100
AcDbScale
 70
     0
300
1:30
140
1.0
141
30.0
290
     0
  0
SCALE
  5
51
102
{ACAD_REACTORS
330
47
102
}
330
47
100
AcDbScale
 70
     0
300
1:40
140
1.0
141
40.0
290
     0
  0
SCALE
  5
52
102
{ACAD_REACTORS
330
47
102
}
330
47
100
AcDbScale
 70
     0
300
1:50
140
1.0
141
50.0
290
     0
  0
SCALE
  5
53
102
{ACAD_REACTORS
330
47
102
}
330
47
100
AcDbScale
 70
     0
300
1:100
140
1.0
141
100.0
290
     0
  0
SCALE
  5
54
102
{ACAD_REACTORS
330
47
102
}
330
47
100
AcDbScale
 70
     0
300
2:1
140
2.0
141
1.0
290
     0
  0
SCALE
  5
55
102
{ACAD_REACTORS
330
47
102
}
330
47
100
AcDbScale
 70
     0
300
4:1
140
4.0
141
1.0
290
     0
  0
SCALE
  5
56
102
{ACAD_REACTORS
330
47
102
}
330
47
100
AcDbScale
 70
     0
300
8:1
140
8.0
141
1.0
290
     0
  0
SCALE
  5
57
102
{ACAD_REACTORS
330
47
102
}
330
47
100
AcDbScale
 70
     0
300
10:1
140
10.0
141
1.0
290
     0
  0
SCALE
  5
58
102
{ACAD_REACTORS
330
47
102
}
330
47
100
AcDbScale
 70
     0
300
100:1
140
100.0
141
1.0
290
     0
  0
SCALE
  5
59
102
{ACAD_REACTORS
330
47
102
}
330
47
100
AcDbScale
 70
     0
300
1/128" = 1'-0"
140
0.0078125
141
12.0
290
     0
  0
SCALE
  5
5A
102
{ACAD_REACTORS
330
47
102
}
330
47
100
AcDbScale
 70
     0
300
1/64" = 1'-0"
140
0.015625
141
12.0
290
     0
  0
SCALE
  5
5B
102
{ACAD_REACTORS
330
47
102
}
330
47
100
AcDbScale
 70
     0
300
1/32" = 1'-0"
140
0.03125
141
12.0
290
     0
  0
SCALE
  5
5C
102
{ACAD_REACTORS
330
47
102
}
330
47
100
AcDbScale
 70
     0
300
1/16" = 1'-0"
140
0.0625
141
12.0
290
     0
  0
SCALE
  5
5D
102
{ACAD_REACTORS
330
47
102
}
330
47
100
AcDbScale
 70
     0
300
3/32" = 1'-0"
140
0.09375
141
12.0
290
     0
  0
SCALE
  5
5E
102
{ACAD_REACTORS
330
47
102
}
330
47
100
AcDbScale
 70
     0
300
1/8" = 1'-0"
140
0.125
141
12.0
290
     0
  0
SCALE
  5
5F
102
{ACAD_REACTORS
330
47
102
}
330
47
100
AcDbScale
 70
     0
300
3/16" = 1'-0"
140
0.1875
141
12.0
290
     0
  0
SCALE
  5
60
102
{ACAD_REACTORS
330
47
102
}
330
47
100
AcDbScale
 70
     0
300
1/4" = 1'-0"
140
0.25
141
12.0
290
     0
  0
SCALE
  5
61
102
{ACAD_REACTORS
330
47
102
}
330
47
100
AcDbScale
 70
     0
300
3/8" = 1'-0"
140
0.375
141
12.0
290
     0
  0
SCALE
  5
62
102
{ACAD_REACTORS
330
47
102
}
330
47
100
AcDbScale
 70
     0
300
1/2" = 1'-0"
140
0.5
141
12.0
290
     0
  0
SCALE
  5
63
102
{ACAD_REACTORS
330
47
102
}
330
47
100
AcDbScale
 70
     0
300
3/4" = 1'-0"
140
0.75
141
12.0
290
     0
  0
SCALE
  5
64
102
{ACAD_REACTORS
330
47
102
}
330
47
100
AcDbScale
 70
     0
300
1" = 1'-0"
140
1.0
141
12.0
290
     0
  0
SCALE
  5
65
102
{ACAD_REACTORS
330
47
102
}
330
47
100
AcDbScale
 70
     0
300
1-1/2" = 1'-0"
140
1.5
141
12.0
290
     0
  0
SCALE
  5
66
102
{ACAD_REACTORS
330
47
102
}
330
47
100
AcDbScale
 70
     0
300
3" = 1'-0"
140
3.0
141
12.0
290
     0
  0
SCALE
  5
67
102
{ACAD_REACTORS
330
47
102
}
330
47
100
AcDbScale
 70
     0
300
6" = 1'-0"
140
6.0
141
12.0
290
     0
  0
SCALE
  5
68
102
{ACAD_REACTORS
330
47
102
}
330
47
100
AcDbScale
 70
     0
300
1'-0" = 1'-0"
140
12.0
141
12.0
290
     0
  0
ENDSEC
  0
EOF
