  0
SECTION
  2
HEADER
  9
$ACADVER
  1
AC1015
  9
$ACADMAINTVER
 70
     6
  9
$DWGCODEPAGE
  3
ANSI_949
  9
$INSBASE
 10
0.0
 20
0.0
 30
0.0
  9
$EXTMIN
 10
-57.22907078052725
 20
-49.97180738881174
 30
0.0
  9
$EXTMAX
 10
41.36454284291506
 20
35.37500000000003
 30
0.0
  9
$LIMMIN
 10
0.0
 20
0.0
  9
$LIMMAX
 10
420.0
 20
297.0
  9
$ORTHOMODE
 70
     0
  9
$REGENMODE
 70
     1
  9
$FILLMODE
 70
     1
  9
$QTEXTMODE
 70
     0
  9
$MIRRTEXT
 70
     1
  9
$LTSCALE
 40
1.0
  9
$ATTMODE
 70
     1
  9
$TEXTSIZE
 40
3.5
  9
$TRACEWID
 40
1.0
  9
$TEXTSTYLE
  7
Standard
  9
$CLAYER
  8
0
  9
$CELTYPE
  6
ByLayer
  9
$CECOLOR
 62
   256
  9
$CELTSCALE
 40
1.0
  9
$DISPSILH
 70
     0
  9
$DIMSCALE
 40
1.0
  9
$DIMASZ
 40
3.302
  9
$DIMEXO
 40
1.0
  9
$DIMDLI
 40
3.75
  9
$DIMRND
 40
0.0
  9
$DIMDLE
 40
0.0
  9
$DIMEXE
 40
1.0
  9
$DIMTP
 40
0.0
  9
$DIMTM
 40
0.0
  9
$DIMTXT
 40
3.5
  9
$DIMCEN
 40
2.5
  9
$DIMTSZ
 40
0.0
  9
$DIMTOL
 70
     0
  9
$DIMLIM
 70
     0
  9
$DIMTIH
 70
     1
  9
$DIMTOH
 70
     1
  9
$DIMSE1
 70
     0
  9
$DIMSE2
 70
     0
  9
$DIMTAD
 70
     1
  9
$DIMZIN
 70
     0
  9
$DIMBLK
  1

  9
$DIMASO
 70
     1
  9
$DIMSHO
 70
     1
  9
$DIMPOST
  1

  9
$DIMAPOST
  1

  9
$DIMALT
 70
     0
  9
$DIMALTD
 70
     3
  9
$DIMALTF
 40
0.0393700787401575
  9
$DIMLFAC
 40
1.0
  9
$DIMTOFL
 70
     1
  9
$DIMTVP
 40
0.0
  9
$DIMTIX
 70
     0
  9
$DIMSOXD
 70
     0
  9
$DIMSAH
 70
     0
  9
$DIMBLK1
  1

  9
$DIMBLK2
  1

  9
$DIMSTYLE
  2
ISO-25
  9
$DIMCLRD
 70
     0
  9
$DIMCLRE
 70
     0
  9
$DIMCLRT
 70
     0
  9
$DIMTFAC
 40
1.0
  9
$DIMGAP
 40
1.524
  9
$DIMJUST
 70
     0
  9
$DIMSD1
 70
     0
  9
$DIMSD2
 70
     0
  9
$DIMTOLJ
 70
     0
  9
$DIMTZIN
 70
     0
  9
$DIMALTZ
 70
     0
  9
$DIMALTTZ
 70
     0
  9
$DIMUPT
 70
     0
  9
$DIMDEC
 70
     2
  9
$DIMTDEC
 70
     2
  9
$DIMALTU
 70
     2
  9
$DIMALTTD
 70
     3
  9
$DIMTXSTY
  7
Standard
  9
$DIMAUNIT
 70
     0
  9
$DIMADEC
 70
     2
  9
$DIMALTRND
 40
0.0
  9
$DIMAZIN
 70
     0
  9
$DIMDSEP
 70
    44
  9
$DIMATFIT
 70
     3
  9
$DIMFRAC
 70
     0
  9
$DIMLDRBLK
  1

  9
$DIMLUNIT
 70
     2
  9
$DIMLWD
 70
    -2
  9
$DIMLWE
 70
    -2
  9
$DIMTMOVE
 70
     0
  9
$LUNITS
 70
     2
  9
$LUPREC
 70
     2
  9
$SKETCHINC
 40
1.0
  9
$FILLETRAD
 40
10.0
  9
$AUNITS
 70
     0
  9
$AUPREC
 70
     2
  9
$MENU
  1
.
  9
$ELEVATION
 40
0.0
  9
$PELEVATION
 40
0.0
  9
$THICKNESS
 40
0.0
  9
$LIMCHECK
 70
     0
  9
$CHAMFERA
 40
0.0
  9
$CHAMFERB
 40
0.0
  9
$CHAMFERC
 40
0.0
  9
$CHAMFERD
 40
0.0
  9
$SKPOLY
 70
     0
  9
$TDCREATE
 40
2458213.466881366
  9
$TDUCREATE
 40
2458213.091881366
  9
$TDUPDATE
 40
2458263.621225162
  9
$TDUUPDATE
 40
2458263.246225162
  9
$TDINDWG
 40
0.0075841204
  9
$TDUSRTIMER
 40
0.0000226273
  9
$USRTIMER
 70
     1
  9
$ANGBASE
 50
0.0
  9
$ANGDIR
 70
     0
  9
$PDMODE
 70
     0
  9
$PDSIZE
 40
-1.0
  9
$PLINEWID
 40
0.0
  9
$SPLFRAME
 70
     0
  9
$SPLINETYPE
 70
     6
  9
$SPLINESEGS
 70
     8
  9
$HANDSEED
  5
647
  9
$SURFTAB1
 70
     6
  9
$SURFTAB2
 70
     6
  9
$SURFTYPE
 70
     6
  9
$SURFU
 70
     6
  9
$SURFV
 70
     6
  9
$UCSBASE
  2

  9
$UCSNAME
  2

  9
$UCSORG
 10
0.0
 20
0.0
 30
0.0
  9
$UCSXDIR
 10
1.0
 20
0.0
 30
0.0
  9
$UCSYDIR
 10
0.0
 20
1.0
 30
0.0
  9
$UCSORTHOREF
  2

  9
$UCSORTHOVIEW
 70
     0
  9
$UCSORGTOP
 10
0.0
 20
0.0
 30
0.0
  9
$UCSORGBOTTOM
 10
0.0
 20
0.0
 30
0.0
  9
$UCSORGLEFT
 10
0.0
 20
0.0
 30
0.0
  9
$UCSORGRIGHT
 10
0.0
 20
0.0
 30
0.0
  9
$UCSORGFRONT
 10
0.0
 20
0.0
 30
0.0
  9
$UCSORGBACK
 10
0.0
 20
0.0
 30
0.0
  9
$PUCSBASE
  2

  9
$PUCSNAME
  2

  9
$PUCSORG
 10
0.0
 20
0.0
 30
0.0
  9
$PUCSXDIR
 10
1.0
 20
0.0
 30
0.0
  9
$PUCSYDIR
 10
0.0
 20
1.0
 30
0.0
  9
$PUCSORTHOREF
  2

  9
$PUCSORTHOVIEW
 70
     0
  9
$PUCSORGTOP
 10
0.0
 20
0.0
 30
0.0
  9
$PUCSORGBOTTOM
 10
0.0
 20
0.0
 30
0.0
  9
$PUCSORGLEFT
 10
0.0
 20
0.0
 30
0.0
  9
$PUCSORGRIGHT
 10
0.0
 20
0.0
 30
0.0
  9
$PUCSORGFRONT
 10
0.0
 20
0.0
 30
0.0
  9
$PUCSORGBACK
 10
0.0
 20
0.0
 30
0.0
  9
$USERI1
 70
     0
  9
$USERI2
 70
     0
  9
$USERI3
 70
     0
  9
$USERI4
 70
     0
  9
$USERI5
 70
     0
  9
$USERR1
 40
0.0
  9
$USERR2
 40
0.0
  9
$USERR3
 40
0.0
  9
$USERR4
 40
0.0
  9
$USERR5
 40
0.0
  9
$WORLDVIEW
 70
     1
  9
$SHADEDGE
 70
     3
  9
$SHADEDIF
 70
    70
  9
$TILEMODE
 70
     1
  9
$MAXACTVP
 70
    64
  9
$PINSBASE
 10
0.0
 20
0.0
 30
0.0
  9
$PLIMCHECK
 70
     0
  9
$PEXTMIN
 10
1.000000000000000E+20
 20
1.000000000000000E+20
 30
1.000000000000000E+20
  9
$PEXTMAX
 10
-1.000000000000000E+20
 20
-1.000000000000000E+20
 30
-1.000000000000000E+20
  9
$PLIMMIN
 10
0.0
 20
0.0
  9
$PLIMMAX
 10
0.0
 20
0.0
  9
$UNITMODE
 70
     0
  9
$VISRETAIN
 70
     1
  9
$PLINEGEN
 70
     0
  9
$PSLTSCALE
 70
     1
  9
$TREEDEPTH
 70
  3020
  9
$CMLSTYLE
  2
Standard
  9
$CMLJUST
 70
     0
  9
$CMLSCALE
 40
20.0
  9
$PROXYGRAPHICS
 70
     1
  9
$MEASUREMENT
 70
     1
  9
$CELWEIGHT
370
    -1
  9
$ENDCAPS
280
     0
  9
$JOINSTYLE
280
     0
  9
$LWDISPLAY
290
     1
  9
$INSUNITS
 70
     4
  9
$HYPERLINKBASE
  1

  9
$STYLESHEET
  1

  9
$XEDIT
290
     1
  9
$CEPSNTYPE
380
     0
  9
$PSTYLEMODE
290
     1
  9
$FINGERPRINTGUID
  2
{94B346A6-F221-4E84-A8DD-A9CBEE6E5E59}
  9
$VERSIONGUID
  2
{FAEB1C32-E019-11D5-929B-00C0DF256EC4}
  9
$EXTNAMES
290
     1
  9
$PSVPSCALE
 40
0.0
  9
$OLESTARTUP
290
     0
  0
ENDSEC
  0
SECTION
  2
CLASSES
  0
CLASS
  1
ACDBDICTIONARYWDFLT
  2
AcDbDictionaryWithDefault
  3
ObjectDBX Classes
 90
        0
280
     0
281
     0
  0
CLASS
  1
VISUALSTYLE
  2
AcDbVisualStyle
  3
ObjectDBX Classes
 90
     4095
280
     0
281
     0
  0
CLASS
  1
MATERIAL
  2
AcDbMaterial
  3
ObjectDBX Classes
 90
     1153
280
     0
281
     0
  0
CLASS
  1
SCALE
  2
AcDbScale
  3
ObjectDBX Classes
 90
     1153
280
     0
281
     0
  0
CLASS
  1
SUN
  2
AcDbSun
  3
SCENEOE
 90
     1153
280
     0
281
     0
  0
CLASS
  1
ACDBPLACEHOLDER
  2
AcDbPlaceHolder
  3
ObjectDBX Classes
 90
        0
280
     0
281
     0
  0
CLASS
  1
LAYOUT
  2
AcDbLayout
  3
ObjectDBX Classes
 90
        0
280
     0
281
     0
  0
CLASS
  1
TABLESTYLE
  2
AcDbTableStyle
  3
ObjectDBX Classes
 90
     4095
280
     0
281
     0
  0
CLASS
  1
MLEADERSTYLE
  2
AcDbMLeaderStyle
  3
ACDB_MLEADERSTYLE_CLASS
 90
     4095
280
     0
281
     0
  0
CLASS
  1
RASTERVARIABLES
  2
AcDbRasterVariables
  3
ISM
 90
        0
280
     0
281
     0
  0
CLASS
  1
DICTIONARYVAR
  2
AcDbDictionaryVar
  3
ObjectDBX Classes
 90
        0
280
     0
281
     0
  0
CLASS
  1
DIMASSOC
  2
AcDbDimAssoc
  3
"AcDbDimAssoc|Product Desc:     AcDim ARX App For Dimension|Company:          Autodesk, Inc.|WEB Address:      www.autodesk.com"
 90
        0
280
     0
281
     0
  0
ENDSEC
  0
SECTION
  2
TABLES
  0
TABLE
  2
VPORT
  5
8
330
0
100
AcDbSymbolTable
 70
     1
  0
VPORT
  5
29
330
8
100
AcDbSymbolTableRecord
100
AcDbViewportTableRecord
  2
*Active
 70
     0
 10
0.0
 20
0.0
 11
1.0
 21
1.0
 12
-7.932263968806097
 22
-7.298403694405856
 13
0.0
 23
0.0
 14
10.0
 24
10.0
 15
10.0
 25
10.0
 16
0.0
 26
0.0
 36
1.0
 17
0.0
 27
0.0
 37
0.0
 40
87.053743536588
 41
2.174863387978142
 42
50.0
 43
0.0
 44
0.0
 50
0.0
 51
0.0
 71
    16
 72
  2000
 73
     1
 74
     3
 75
     0
 76
     0
 77
     0
 78
     0
281
     0
 65
     1
110
0.0
120
0.0
130
0.0
111
1.0
121
0.0
131
0.0
112
0.0
122
1.0
132
0.0
 79
     0
146
0.0
  0
ENDTAB
  0
TABLE
  2
LTYPE
  5
5
330
0
100
AcDbSymbolTable
 70
     6
  0
LTYPE
  5
14
330
5
100
AcDbSymbolTableRecord
100
AcDbLinetypeTableRecord
  2
ByBlock
 70
     0
  3

 72
    65
 73
     0
 40
0.0
  0
LTYPE
  5
15
330
5
100
AcDbSymbolTableRecord
100
AcDbLinetypeTableRecord
  2
ByLayer
 70
     0
  3

 72
    65
 73
     0
 40
0.0
  0
LTYPE
  5
16
330
5
100
AcDbSymbolTableRecord
100
AcDbLinetypeTableRecord
  2
Continuous
 70
     0
  3
Solid line
 72
    65
 73
     0
 40
0.0
  0
LTYPE
  5
6A
330
5
100
AcDbSymbolTableRecord
100
AcDbLinetypeTableRecord
  2
HIDDEN
 70
     0
  3
Hidden __ __ __ __ __ __ __ __ __ __ __ __ __ __
 72
    65
 73
     2
 40
1.905
 49
1.27
 74
     0
 49
-0.635
 74
     0
  0
LTYPE
  5
6B
330
5
100
AcDbSymbolTableRecord
100
AcDbLinetypeTableRecord
  2
PHANTOM
 70
     0
  3
Phantom ______  __  __  ______  __  __  ______
 72
    65
 73
     6
 40
12.7
 49
6.35
 74
     0
 49
-1.27
 74
     0
 49
1.27
 74
     0
 49
-1.27
 74
     0
 49
1.27
 74
     0
 49
-1.27
 74
     0
  0
LTYPE
  5
6C
330
5
100
AcDbSymbolTableRecord
100
AcDbLinetypeTableRecord
  2
CENTER
 70
     0
  3
Center ____ _ ____ _ ____ _ ____ _ ____ _ ____
 72
    65
 73
     4
 40
10.16
 49
6.35
 74
     0
 49
-1.27
 74
     0
 49
1.27
 74
     0
 49
-1.27
 74
     0
  0
LTYPE
  5
6D
330
5
100
AcDbSymbolTableRecord
100
AcDbLinetypeTableRecord
  2
CENTERX2
 70
     0
  3
Center (2x) ________  __  ________  __  _____
 72
    65
 73
     4
 40
20.32
 49
12.7
 74
     0
 49
-2.54
 74
     0
 49
2.54
 74
     0
 49
-2.54
 74
     0
  0
LTYPE
  5
6E
330
5
100
AcDbSymbolTableRecord
100
AcDbLinetypeTableRecord
  2
DOT2
 70
     0
  3
Dot (.5x) ........................................
 72
    65
 73
     2
 40
0.635
 49
0.0
 74
     0
 49
-0.635
 74
     0
  0
ENDTAB
  0
TABLE
  2
LAYER
  5
2
102
{ACAD_XDICTIONARY
360
1C4
102
}
330
0
100
AcDbSymbolTable
 70
    18
  0
LAYER
  5
10
330
2
100
AcDbSymbolTableRecord
100
AcDbLayerTableRecord
  2
0
 70
     0
 62
     7
  6
Continuous
370
    -3
390
F
  0
LAYER
  5
6F
330
2
100
AcDbSymbolTableRecord
100
AcDbLayerTableRecord
  2
FORMAT
 70
     0
 62
     2
  6
Continuous
370
    -3
390
F
  0
LAYER
  5
70
330
2
100
AcDbSymbolTableRecord
100
AcDbLayerTableRecord
  2
외형선
 70
     0
 62
   100
  6
Continuous
370
    30
390
F
  0
LAYER
  5
71
330
2
100
AcDbSymbolTableRecord
100
AcDbLayerTableRecord
  2
숨은선
 70
     0
 62
     2
  6
HIDDEN
370
    15
390
F
  0
LAYER
  5
72
330
2
100
AcDbSymbolTableRecord
100
AcDbLayerTableRecord
  2
중심선
 70
     0
 62
     1
  6
CENTERX2
370
    -3
390
F
  0
LAYER
  5
73
330
2
100
AcDbSymbolTableRecord
100
AcDbLayerTableRecord
  2
파단선
 70
     0
 62
     4
  6
Continuous
370
    -3
390
F
  0
LAYER
  5
74
330
2
100
AcDbSymbolTableRecord
100
AcDbLayerTableRecord
  2
해칭선
 70
     0
 62
     4
  6
Continuous
370
    -3
390
F
  0
LAYER
  5
75
330
2
100
AcDbSymbolTableRecord
100
AcDbLayerTableRecord
  2
가는실선
 70
     0
 62
     4
  6
Continuous
370
    -3
390
F
  0
LAYER
  5
76
330
2
100
AcDbSymbolTableRecord
100
AcDbLayerTableRecord
  2
치수_보조선
 70
     0
 62
     4
  6
Continuous
370
    -3
390
F
  0
LAYER
  5
77
330
2
100
AcDbSymbolTableRecord
100
AcDbLayerTableRecord
  2
치수문자_일반주서
 70
     0
 62
     7
  6
Continuous
370
    15
390
F
  0
LAYER
  5
78
330
2
100
AcDbSymbolTableRecord
100
AcDbLayerTableRecord
  2
개별주서
 70
     0
 62
   100
  6
Continuous
370
    30
390
F
  0
LAYER
  5
79
330
2
100
AcDbSymbolTableRecord
100
AcDbLayerTableRecord
  2
중간선
 70
     0
 62
     2
  6
Continuous
370
    15
390
F
  0
LAYER
  5
7A
330
2
100
AcDbSymbolTableRecord
100
AcDbLayerTableRecord
  2
윤곽선
 70
     0
 62
     3
  6
Continuous
370
    40
390
F
  0
LAYER
  5
7B
330
2
100
AcDbSymbolTableRecord
100
AcDbLayerTableRecord
  2
중심마크
 70
     0
 62
   100
  6
Continuous
370
    30
390
F
  0
LAYER
  5
7C
330
2
100
AcDbSymbolTableRecord
100
AcDbLayerTableRecord
  2
가상선
 70
     0
 62
     4
  6
PHANTOM
370
    -3
390
F
  0
LAYER
  5
7D
330
2
100
AcDbSymbolTableRecord
100
AcDbLayerTableRecord
  2
특수지정선
 70
     0
 62
     5
  6
CENTERX2
370
    60
390
F
  0
LAYER
  5
141
330
2
100
AcDbSymbolTableRecord
100
AcDbLayerTableRecord
  2
Defpoints
 70
     0
 62
     7
  6
Continuous
290
     0
370
    -3
390
F
  0
LAYER
  5
194
330
2
100
AcDbSymbolTableRecord
100
AcDbLayerTableRecord
  2
CENTER
 70
     0
 62
     2
  6
CENTER
370
    -3
390
F
1001
AcAecLayerStandard
1000

1000

  0
ENDTAB
  0
TABLE
  2
STYLE
  5
3
330
0
100
AcDbSymbolTable
 70
     2
  0
STYLE
  5
11
330
3
100
AcDbSymbolTableRecord
100
AcDbTextStyleTableRecord
  2
Standard
 70
     0
 40
0.0
 41
1.0
 50
0.0
 71
     0
 42
3.5
  3
txt
  4

  0
STYLE
  5
93
330
3
100
AcDbSymbolTableRecord
100
AcDbTextStyleTableRecord
  2
SLDTEXTSTYLE0
 70
     0
 40
0.0
 41
0.75
 50
0.0
 71
     0
 42
3.5
  3
TXT
  4

  0
ENDTAB
  0
TABLE
  2
VIEW
  5
6
330
0
100
AcDbSymbolTable
 70
     0
  0
ENDTAB
  0
TABLE
  2
UCS
  5
7
330
0
100
AcDbSymbolTable
 70
     0
  0
ENDTAB
  0
TABLE
  2
APPID
  5
9
330
0
100
AcDbSymbolTable
 70
     6
  0
APPID
  5
12
330
9
100
AcDbSymbolTableRecord
100
AcDbRegAppTableRecord
  2
ACAD
 70
     0
  0
APPID
  5
14E
330
9
100
AcDbSymbolTableRecord
100
AcDbRegAppTableRecord
  2
ACAD_DSTYLE_DIMFLIPARROW_SYMBOL
 70
     0
  0
APPID
  5
14F
330
9
100
AcDbSymbolTableRecord
100
AcDbRegAppTableRecord
  2
ACAD_DSTYLE_DIMFLIPARROW_WHICH_SYMBOL
 70
     0
  0
APPID
  5
197
330
9
100
AcDbSymbolTableRecord
100
AcDbRegAppTableRecord
  2
AcAecLayerStandard
 70
     0
  0
APPID
  5
1D9
330
9
100
AcDbSymbolTableRecord
100
AcDbRegAppTableRecord
  2
PE_URL
 70
     0
  0
APPID
  5
211
330
9
100
AcDbSymbolTableRecord
100
AcDbRegAppTableRecord
  2
ACAD_DSTYLE_DIMRADIAL_EXTENSION
 70
     0
  0
ENDTAB
  0
TABLE
  2
DIMSTYLE
  5
A
330
0
100
AcDbSymbolTable
 70
     4
100
AcDbDimStyleTable
  0
DIMSTYLE
105
27
330
A
100
AcDbSymbolTableRecord
100
AcDbDimStyleTableRecord
  2
ISO-25
 70
     0
 41
2.5
 42
0.625
 43
3.75
 44
1.25
 73
     0
 74
     0
 77
     1
 78
     8
140
2.5
141
2.5
143
0.03937007874016
147
0.625
171
     3
172
     1
178
     0
271
     2
272
     2
274
     3
278
    44
283
     0
284
     8
340
11
  0
DIMSTYLE
105
DF
102
{ACAD_REACTORS
102
}
330
A
100
AcDbSymbolTableRecord
100
AcDbDimStyleTableRecord
  2
SLDDIMSTYLE0
 70
     0
 41
3.302
 44
0.0
 45
0.000000001
 73
     0
 74
     0
 77
     1
 78
    12
 79
     3
140
3.5
147
0.875
173
     1
178
     0
271
     2
272
     2
276
     2
284
    12
340
93
  0
DIMSTYLE
105
F4
102
{ACAD_REACTORS
330
617
102
}
330
A
100
AcDbSymbolTableRecord
100
AcDbDimStyleTableRecord
  2
SLDDIMSTYLE1
 70
     0
 41
3.302
 44
0.0
 45
0.000000001
 73
     0
 74
     0
 77
     1
 78
     8
 79
     2
140
3.5
141
0.0
147
0.875
173
     1
178
     0
271
     1
272
     1
276
     2
284
    12
340
93
  0
DIMSTYLE
105
FD
102
{ACAD_REACTORS
330
3BD
330
3BE
330
3BF
330
3BC
330
3BB
102
}
330
A
100
AcDbSymbolTableRecord
100
AcDbDimStyleTableRecord
  2
SLDDIMSTYLE2
 70
     0
 41
3.302
 44
0.0
 45
0.000000001
 73
     0
 74
     0
 77
     1
 78
    12
 79
     3
140
3.5
147
0.875
172
     1
173
     1
178
     0
271
     2
272
     2
276
     2
284
    12
289
     0
340
93
  0
ENDTAB
  0
TABLE
  2
BLOCK_RECORD
  5
1
330
0
100
AcDbSymbolTable
 70
    25
  0
BLOCK_RECORD
  5
1F
330
1
100
AcDbSymbolTableRecord
100
AcDbBlockTableRecord
  2
*Model_Space
340
22
  0
BLOCK_RECORD
  5
1B
330
1
100
AcDbSymbolTableRecord
100
AcDbBlockTableRecord
  2
*Paper_Space
340
1E
  0
BLOCK_RECORD
  5
23
330
1
100
AcDbSymbolTableRecord
100
AcDbBlockTableRecord
  2
*Paper_Space0
340
26
  0
BLOCK_RECORD
  5
7E
330
1
100
AcDbSymbolTableRecord
100
AcDbBlockTableRecord
  2
블럭10
340
0
102
{BLKREFS
331
3B4
102
}
  0
BLOCK_RECORD
  5
E0
330
1
100
AcDbSymbolTableRecord
100
AcDbBlockTableRecord
  2
_D
340
0
  0
BLOCK_RECORD
  5
EA
330
1
100
AcDbSymbolTableRecord
100
AcDbBlockTableRecord
  2
_D_1
340
0
  0
BLOCK_RECORD
  5
F5
330
1
100
AcDbSymbolTableRecord
100
AcDbBlockTableRecord
  2
_D_2
340
0
  0
BLOCK_RECORD
  5
FE
330
1
100
AcDbSymbolTableRecord
100
AcDbBlockTableRecord
  2
_D_3
340
0
  0
BLOCK_RECORD
  5
10B
330
1
100
AcDbSymbolTableRecord
100
AcDbBlockTableRecord
  2
_D_4
340
0
  0
BLOCK_RECORD
  5
117
330
1
100
AcDbSymbolTableRecord
100
AcDbBlockTableRecord
  2
SW_DOWELSYMBOL_0
340
0
102
{BLKREFS
331
3C0
102
}
  0
BLOCK_RECORD
  5
3C1
330
1
100
AcDbSymbolTableRecord
100
AcDbBlockTableRecord
  2
*D8
340
0
  0
BLOCK_RECORD
  5
3CE
330
1
100
AcDbSymbolTableRecord
100
AcDbBlockTableRecord
  2
*D9
340
0
  0
BLOCK_RECORD
  5
3DA
330
1
100
AcDbSymbolTableRecord
100
AcDbBlockTableRecord
  2
*D10
340
0
  0
BLOCK_RECORD
  5
3E6
330
1
100
AcDbSymbolTableRecord
100
AcDbBlockTableRecord
  2
*D11
340
0
  0
BLOCK_RECORD
  5
3F2
330
1
100
AcDbSymbolTableRecord
100
AcDbBlockTableRecord
  2
*D12
340
0
  0
BLOCK_RECORD
  5
410
330
1
100
AcDbSymbolTableRecord
100
AcDbBlockTableRecord
  2
*D13
340
0
  0
BLOCK_RECORD
  5
550
330
1
100
AcDbSymbolTableRecord
100
AcDbBlockTableRecord
  2
*D14
340
0
  0
BLOCK_RECORD
  5
55C
330
1
100
AcDbSymbolTableRecord
100
AcDbBlockTableRecord
  2
*D15
340
0
  0
BLOCK_RECORD
  5
568
330
1
100
AcDbSymbolTableRecord
100
AcDbBlockTableRecord
  2
*D16
340
0
  0
BLOCK_RECORD
  5
574
330
1
100
AcDbSymbolTableRecord
100
AcDbBlockTableRecord
  2
*D17
340
0
  0
BLOCK_RECORD
  5
580
330
1
100
AcDbSymbolTableRecord
100
AcDbBlockTableRecord
  2
*D18
340
0
  0
BLOCK_RECORD
  5
5DB
330
1
100
AcDbSymbolTableRecord
100
AcDbBlockTableRecord
  2
*D19
340
0
  0
BLOCK_RECORD
  5
5E7
330
1
100
AcDbSymbolTableRecord
100
AcDbBlockTableRecord
  2
*D20
340
0
  0
BLOCK_RECORD
  5
5F3
330
1
100
AcDbSymbolTableRecord
100
AcDbBlockTableRecord
  2
*D21
340
0
  0
BLOCK_RECORD
  5
5FF
330
1
100
AcDbSymbolTableRecord
100
AcDbBlockTableRecord
  2
*D22
340
0
  0
BLOCK_RECORD
  5
60B
330
1
100
AcDbSymbolTableRecord
100
AcDbBlockTableRecord
  2
*D23
340
0
  0
BLOCK_RECORD
  5
61A
330
1
100
AcDbSymbolTableRecord
100
AcDbBlockTableRecord
  2
*D24
340
0
  0
ENDTAB
  0
ENDSEC
  0
SECTION
  2
BLOCKS
  0
BLOCK
  5
20
330
1F
100
AcDbEntity
  8
0
100
AcDbBlockBegin
  2
*Model_Space
 70
     0
 10
0.0
 20
0.0
 30
0.0
  3
*Model_Space
  1
*Model_Space
  0
ENDBLK
  5
21
330
1F
100
AcDbEntity
  8
0
100
AcDbBlockEnd
  0
BLOCK
  5
1C
330
1B
100
AcDbEntity
 67
     1
  8
0
100
AcDbBlockBegin
  2
*Paper_Space
 70
     0
 10
0.0
 20
0.0
 30
0.0
  3
*Paper_Space
  1
*Paper_Space
  0
ENDBLK
  5
1D
330
1B
100
AcDbEntity
 67
     1
  8
0
100
AcDbBlockEnd
  0
BLOCK
  5
24
330
23
100
AcDbEntity
  8
0
100
AcDbBlockBegin
  2
*Paper_Space0
 70
     0
 10
0.0
 20
0.0
 30
0.0
  3
*Paper_Space0
  1
*Paper_Space0
  0
ENDBLK
  5
25
330
23
100
AcDbEntity
  8
0
100
AcDbBlockEnd
  0
BLOCK
  5
7F
330
7E
100
AcDbEntity
  8
0
100
AcDbBlockBegin
  2
블럭10
 70
     2
 10
0.0
 20
0.0
 30
0.0
  3
블럭10
  1
블럭10
  0
ELLIPSE
  5
81
330
7E
100
AcDbEntity
  8
중심선
100
AcDbEllipse
 10
20.54032771741204
 20
12.0471743016438
 30
0.0
 11
6.600054785286829
 21
-1.261213355974178E-13
 31
0.0
210
0.0
220
0.0
230
1.0
 40
0.636358354079598
 41
0.9219305317359503
 42
6.513795318482858
  0
ELLIPSE
  5
82
330
7E
100
AcDbEntity
  8
중심선
100
AcDbEllipse
 10
20.54032771746488
 20
12.04717430159265
 30
0.0
 11
3.960054785062283
 21
1.540847449632565E-10
 31
0.0
210
0.0
220
0.0
230
1.0
 40
0.3939339440162632
 41
1.131841032648279
 42
5.62031148352944
  0
LINE
  5
83
330
7E
100
AcDbEntity
  8
중심선
100
AcDbLine
 10
2.268634060543552
 20
16.24717430164393
 30
0.0
 11
5.714909304380834
 21
16.24717430164393
 31
0.0
  0
LINE
  5
84
330
7E
100
AcDbEntity
  8
중심선
100
AcDbLine
 10
5.245725140726316
 20
7.84717430164391
 30
0.0
 11
8.692000384563599
 21
7.84717430164391
 31
0.0
  0
LINE
  5
85
330
7E
100
AcDbEntity
  8
중심선
100
AcDbLine
 10
15.74043728645272
 20
16.24717430164393
 30
0.0
 11
8.692000384563599
 21
7.84717430164391
 31
0.0
  0
LINE
  5
86
330
7E
100
AcDbEntity
  8
중심선
100
AcDbLine
 10
0.1404042013395286
 20
13.71084872107135
 30
0.0
 11
3.58671253028996
 21
13.71088815037384
 31
0.0
  0
LINE
  5
87
330
7E
100
AcDbEntity
  8
중심선
100
AcDbLine
 10
2.750260043222114
 20
10.84717430164391
 30
0.0
 11
6.196535287059397
 21
10.84717430164391
 31
0.0
  0
LINE
  5
88
330
7E
100
AcDbEntity
  8
중심선
100
AcDbLine
 10
12.29416204261559
 20
16.24717430164393
 30
0.0
 11
5.245725140726316
 21
7.84717430164391
 31
0.0
  0
LINE
  5
89
330
7E
100
AcDbEntity
  8
중심선
100
AcDbLine
 10
10.72767329541681
 20
16.24717430164393
 30
0.0
 11
6.196535287059397
 21
10.84717430164391
 31
0.0
  0
LINE
  5
8A
330
7E
100
AcDbEntity
  8
중심선
100
AcDbLine
 10
7.28139805157953
 20
16.24717430164393
 30
0.0
 11
2.750260043222114
 21
10.84717430164391
 31
0.0
  0
LINE
  5
8B
330
7E
100
AcDbEntity
  8
중심선
100
AcDbLine
 10
5.714909304380834
 20
16.24717430164393
 30
0.0
 11
3.58671253028996
 21
13.71088815037384
 31
0.0
  0
LINE
  5
8C
330
7E
100
AcDbEntity
  8
중심선
100
AcDbLine
 10
2.268634060543552
 20
16.24717430164393
 30
0.0
 11
0.1404042013395286
 21
13.71084872107135
 31
0.0
  0
LINE
  5
8D
330
7E
100
AcDbEntity
  8
중심선
100
AcDbLine
 10
7.28139805157953
 20
16.24717430164393
 30
0.0
 11
10.72767329541681
 21
16.24717430164393
 31
0.0
  0
LINE
  5
8E
330
7E
100
AcDbEntity
  8
중심선
100
AcDbLine
 10
12.29416204261559
 20
16.24717430164393
 30
0.0
 11
15.74043728645272
 21
16.24717430164393
 31
0.0
  0
LINE
  5
8F
330
7E
100
AcDbEntity
  8
중심선
100
AcDbLine
 10
19.22036997980202
 20
11.08717430171403
 30
0.0
 11
23.66174974927406
 21
11.08717430171406
 31
0.0
  0
LINE
  5
90
330
7E
100
AcDbEntity
  8
중심선
100
AcDbLine
 10
19.22039502424796
 20
13.00717430171391
 30
0.0
 11
19.22036997980202
 21
11.08717430171403
 31
0.0
  0
LINE
  5
91
330
7E
100
AcDbEntity
  8
중심선
100
AcDbLine
 10
19.22039502424796
 20
13.00717430171391
 30
0.0
 11
26.96566020931264
 21
13.00717430171391
 31
0.0
  0
LINE
  5
92
330
7E
100
AcDbEntity
  8
중심선
100
AcDbLine
 10
22.22332737316547
 20
13.45928029700563
 30
0.0
 11
24.52862924686651
 21
15.39360700705356
 31
0.0
  0
ATTDEF
  5
94
330
7E
100
AcDbEntity
  8
FORMAT
 62
     2
100
AcDbText
 10
-10.82367519849508
 20
2.075366912832191
 30
0.0
 40
4.233333333333333
  1
GMF58140 [ 4 FLUTE ]
 41
0.75
  7
SLDTEXTSTYLE0
 11
-10.82367519849508
 21
-0.0412997538344756
 31
0.0
100
AcDbAttributeDefinition
  3

  2
AUTOATTR0
 70
     0
 74
     1
  0
ENDBLK
  5
80
330
7E
100
AcDbEntity
  8
0
100
AcDbBlockEnd
  0
BLOCK
  5
E1
330
E0
100
AcDbEntity
  8
0
100
AcDbBlockBegin
  2
_D
 70
     0
 10
0.0
 20
0.0
 30
0.0
  3
_D
  1
_D
  0
LINE
  5
E3
330
E0
100
AcDbEntity
  8
치수문자_일반주서
 62
     0
370
    -2
100
AcDbLine
 10
-45.0000427306089
 20
6.562499999999996
 30
0.0
 11
-45.0000427306089
 21
41.66248416807875
 31
0.0
  0
LINE
  5
E4
330
E0
100
AcDbEntity
  8
치수문자_일반주서
 62
     0
370
    -2
100
AcDbLine
 10
37.99995726939112
 20
7.125000000000004
 30
0.0
 11
37.99995726939112
 21
41.66248416807875
 31
0.0
  0
LINE
  5
E5
330
E0
100
AcDbEntity
  8
치수문자_일반주서
 62
     0
370
    -2
100
AcDbLine
 10
-41.6980427306089
 20
41.66248416807875
 30
0.0
 11
34.69795726939113
 21
41.66248416807875
 31
0.0
  0
SOLID
  5
E6
330
E0
100
AcDbEntity
  8
치수문자_일반주서
 62
     0
100
AcDbTrace
 10
-41.6980427306089
 20
42.21281750141208
 30
0.0
 11
-41.6980427306089
 21
41.11215083474541
 31
0.0
 12
-45.0000427306089
 22
41.66248416807875
 32
0.0
 13
-45.0000427306089
 23
41.66248416807875
 33
0.0
  0
SOLID
  5
E7
330
E0
100
AcDbEntity
  8
치수문자_일반주서
 62
     0
100
AcDbTrace
 10
34.69795726939113
 20
41.11215083474541
 30
0.0
 11
34.69795726939113
 21
42.21281750141208
 31
0.0
 12
37.99995726939112
 22
41.66248416807875
 32
0.0
 13
37.99995726939112
 23
41.66248416807875
 33
0.0
  0
MTEXT
  5
E8
330
E0
100
AcDbEntity
  8
치수문자_일반주서
 62
     0
100
AcDbMText
 10
-3.500042730608889
 20
46.03748416807875
 30
0.0
 40
3.5
 41
0.0
 71
     2
 72
     1
  1
\A1;83
  7
SLDTEXTSTYLE0
 73
     1
 44
1.0
  0
POINT
  5
149
330
E0
100
AcDbEntity
  8
Defpoints
 62
     0
100
AcDbPoint
 10
-45.0000427306089
 20
6.499999999999996
 30
0.0
  0
POINT
  5
14A
330
E0
100
AcDbEntity
  8
Defpoints
 62
     0
100
AcDbPoint
 10
37.99995726939112
 20
7.062500000000004
 30
0.0
  0
POINT
  5
14B
330
E0
100
AcDbEntity
  8
Defpoints
 62
     0
100
AcDbPoint
 10
37.99995726939112
 20
41.66248416807875
 30
0.0
  0
ENDBLK
  5
E2
330
E0
100
AcDbEntity
  8
0
100
AcDbBlockEnd
  0
BLOCK
  5
EB
330
EA
100
AcDbEntity
  8
0
100
AcDbBlockBegin
  2
_D_1
 70
     0
 10
0.0
 20
0.0
 30
0.0
  3
_D_1
  1
_D_1
  0
LINE
  5
ED
330
EA
100
AcDbEntity
  8
치수문자_일반주서
 62
     0
370
    -2
100
AcDbLine
 10
11.99999913361988
 20
-0.6010474837848685
 30
0.0
 11
11.99999913361988
 21
32.67947958926196
 31
0.0
  0
LINE
  5
EE
330
EA
100
AcDbEntity
  8
치수문자_일반주서
 62
     0
370
    -2
100
AcDbLine
 10
37.99995726939112
 20
7.062500000000004
 30
0.0
 11
37.99995726939112
 21
32.67947958926196
 31
0.0
  0
LINE
  5
EF
330
EA
100
AcDbEntity
  8
치수문자_일반주서
 62
     0
370
    -2
100
AcDbLine
 10
15.30199913361988
 20
32.67947958926196
 30
0.0
 11
34.69795726939113
 21
32.67947958926196
 31
0.0
  0
SOLID
  5
F0
330
EA
100
AcDbEntity
  8
치수문자_일반주서
 62
     0
100
AcDbTrace
 10
15.30199913361988
 20
33.22981292259529
 30
0.0
 11
15.30199913361988
 21
32.12914625592862
 31
0.0
 12
11.99999913361988
 22
32.67947958926196
 32
0.0
 13
11.99999913361988
 23
32.67947958926196
 33
0.0
  0
SOLID
  5
F1
330
EA
100
AcDbEntity
  8
치수문자_일반주서
 62
     0
100
AcDbTrace
 10
34.69795726939113
 20
32.12914625592862
 30
0.0
 11
34.69795726939113
 21
33.22981292259529
 31
0.0
 12
37.99995726939112
 22
32.67947958926196
 32
0.0
 13
37.99995726939112
 23
32.67947958926196
 33
0.0
  0
MTEXT
  5
F2
330
EA
100
AcDbEntity
  8
치수문자_일반주서
 62
     0
100
AcDbMText
 10
25.04655299632314
 20
37.05447958926196
 30
0.0
 40
3.5
 41
0.0
 71
     2
 72
     1
  1
\A1;26
  7
SLDTEXTSTYLE0
 73
     1
 44
1.0
  0
POINT
  5
146
330
EA
100
AcDbEntity
  8
Defpoints
 62
     0
100
AcDbPoint
 10
11.99999913361988
 20
-0.6635474837848685
 30
0.0
  0
POINT
  5
147
330
EA
100
AcDbEntity
  8
Defpoints
 62
     0
100
AcDbPoint
 10
37.99995726939112
 20
7.000000000000004
 30
0.0
  0
POINT
  5
148
330
EA
100
AcDbEntity
  8
Defpoints
 62
     0
100
AcDbPoint
 10
37.99995726939112
 20
32.67947958926196
 30
0.0
  0
ENDBLK
  5
EC
330
EA
100
AcDbEntity
  8
0
100
AcDbBlockEnd
  0
BLOCK
  5
F6
330
F5
100
AcDbEntity
  8
0
100
AcDbBlockBegin
  2
_D_2
 70
     0
 10
0.0
 20
0.0
 30
0.0
  3
_D_2
  1
_D_2
  0
LINE
  5
F8
330
F5
100
AcDbEntity
  8
치수문자_일반주서
 62
     0
370
    -2
100
AcDbLine
 10
73.85642292674117
 20
9.242246977090005
 30
0.0
 11
86.14290759565546
 21
21.52873164600436
 31
0.0
  0
MTEXT
  5
F9
330
F5
100
AcDbEntity
  8
치수문자_일반주서
 62
     0
100
AcDbMText
 10
77.17149030935114
 20
18.7444986950823
 30
0.0
 40
3.5
 41
0.0
 71
     1
 72
     1
  1
\A1;R0.5
  7
SLDTEXTSTYLE0
 11
0.7071067811865457
 21
0.7071067811865492
 31
0.0
 73
     1
 44
1.0
  0
SOLID
  5
FA
330
F5
100
AcDbEntity
  8
치수문자_일반주서
 62
     0
100
AcDbTrace
 10
73.46727849482818
 20
9.631391409003001
 30
0.0
 11
74.24556735865417
 21
8.85310254517701
 31
0.0
 12
71.5215563352632
 22
6.90738038561202
 32
0.0
 13
71.5215563352632
 23
6.90738038561202
 33
0.0
  0
POINT
  5
FB
330
F5
100
AcDbEntity
  8
Defpoints
 62
     0
100
AcDbPoint
 10
71.5215563352632
 20
6.90738038561202
 30
0.0
  0
POINT
  5
14C
330
F5
100
AcDbEntity
  8
Defpoints
 62
     0
100
AcDbPoint
 10
71.16800294466992
 20
6.553826995018742
 30
0.0
  0
ENDBLK
  5
F7
330
F5
100
AcDbEntity
  8
0
100
AcDbBlockEnd
  0
BLOCK
  5
FF
330
FE
100
AcDbEntity
  8
0
100
AcDbBlockBegin
  2
_D_3
 70
     0
 10
0.0
 20
0.0
 30
0.0
  3
_D_3
  1
_D_3
  0
LINE
  5
101
330
FE
100
AcDbEntity
  8
치수문자_일반주서
 62
     0
370
    -2
100
AcDbLine
 10
-44.56254273060889
 20
7.000000000000005
 30
0.0
 11
-60.00004273060895
 21
6.999999999999948
 31
0.0
  0
LINE
  5
102
330
FE
100
AcDbEntity
  8
치수문자_일반주서
 62
     0
370
    -2
100
AcDbLine
 10
-44.56254273060889
 20
-6.999999999999996
 30
0.0
 11
-60.0000427306089
 21
-7.000000000000054
 31
0.0
  0
LINE
  5
103
330
FE
100
AcDbEntity
  8
치수문자_일반주서
 62
     0
370
    -2
100
AcDbLine
 10
-60.00004273060895
 20
6.999999999999948
 30
0.0
 11
-60.0000427306089
 21
-7.000000000000054
 31
0.0
  0
LINE
  5
104
330
FE
100
AcDbEntity
  8
치수문자_일반주서
 62
     0
370
    -2
100
AcDbLine
 10
-60.00004273060896
 20
10.30199999999995
 30
0.0
 11
-60.00004273060897
 21
13.60399999999995
 31
0.0
  0
LINE
  5
105
330
FE
100
AcDbEntity
  8
치수문자_일반주서
 62
     0
370
    -2
100
AcDbLine
 10
-60.00004273060888
 20
-10.30200000000005
 30
0.0
 11
-60.00004273060887
 21
-13.60400000000005
 31
0.0
  0
SOLID
  5
106
330
FE
100
AcDbEntity
  8
치수문자_일반주서
 62
     0
100
AcDbTrace
 10
-60.55037606394229
 20
10.30199999999995
 30
0.0
 11
-59.44970939727563
 21
10.30199999999995
 31
0.0
 12
-60.00004273060895
 22
6.999999999999948
 32
0.0
 13
-60.00004273060895
 23
6.999999999999948
 33
0.0
  0
SOLID
  5
107
330
FE
100
AcDbEntity
  8
치수문자_일반주서
 62
     0
100
AcDbTrace
 10
-59.44970939727555
 20
-10.30200000000005
 30
0.0
 11
-60.55037606394222
 21
-10.30200000000006
 31
0.0
 12
-60.0000427306089
 22
-7.000000000000054
 32
0.0
 13
-60.0000427306089
 23
-7.000000000000054
 33
0.0
  0
MTEXT
  5
108
330
FE
100
AcDbEntity
  8
치수문자_일반주서
 62
     0
100
AcDbMText
 10
-64.37504273060893
 20
-0.0000000000000101
 30
0.0
 40
3.5
 41
0.0
 71
     2
 72
     1
  1
\A1;%%c14
  7
SLDTEXTSTYLE0
 11
-3.552713678800501E-15
 21
1.0
 31
0.0
 73
     1
 44
1.0
  0
POINT
  5
109
330
FE
100
AcDbEntity
  8
Defpoints
 62
     0
100
AcDbPoint
 10
-44.50004273060889
 20
7.000000000000005
 30
0.0
  0
POINT
  5
144
330
FE
100
AcDbEntity
  8
Defpoints
 62
     0
100
AcDbPoint
 10
-44.50004273060889
 20
-6.999999999999996
 30
0.0
  0
POINT
  5
145
330
FE
100
AcDbEntity
  8
Defpoints
 62
     0
100
AcDbPoint
 10
-60.0000427306089
 20
-7.000000000000054
 30
0.0
  0
ENDBLK
  5
100
330
FE
100
AcDbEntity
  8
0
100
AcDbBlockEnd
  0
BLOCK
  5
10C
330
10B
100
AcDbEntity
  8
0
100
AcDbBlockBegin
  2
_D_4
 70
     0
 10
0.0
 20
0.0
 30
0.0
  3
_D_4
  1
_D_4
  0
LINE
  5
10E
330
10B
100
AcDbEntity
  8
치수문자_일반주서
 62
     0
370
    -2
100
AcDbLine
 10
38.06245726939113
 20
7.000000000000004
 30
0.0
 11
52.99995726939112
 21
7.000000000000061
 31
0.0
  0
LINE
  5
10F
330
10B
100
AcDbEntity
  8
치수문자_일반주서
 62
     0
370
    -2
100
AcDbLine
 10
38.06245726939112
 20
-6.999999999999996
 30
0.0
 11
52.99995726939117
 21
-6.99999999999994
 31
0.0
  0
LINE
  5
110
330
10B
100
AcDbEntity
  8
치수문자_일반주서
 62
     0
370
    -2
100
AcDbLine
 10
52.99995726939112
 20
7.000000000000061
 30
0.0
 11
52.99995726939117
 21
-6.99999999999994
 31
0.0
  0
LINE
  5
111
330
10B
100
AcDbEntity
  8
치수문자_일반주서
 62
     0
370
    -2
100
AcDbLine
 10
52.99995726939111
 20
10.30200000000006
 30
0.0
 11
52.9999572693911
 21
13.60400000000006
 31
0.0
  0
LINE
  5
112
330
10B
100
AcDbEntity
  8
치수문자_일반주서
 62
     0
370
    -2
100
AcDbLine
 10
52.99995726939119
 20
-10.30199999999994
 30
0.0
 11
52.9999572693912
 21
-13.60399999999994
 31
0.0
  0
SOLID
  5
113
330
10B
100
AcDbEntity
  8
치수문자_일반주서
 62
     0
100
AcDbTrace
 10
52.44962393605778
 20
10.30200000000006
 30
0.0
 11
53.55029060272444
 21
10.30200000000006
 31
0.0
 12
52.99995726939112
 22
7.000000000000061
 32
0.0
 13
52.99995726939112
 23
7.000000000000061
 33
0.0
  0
SOLID
  5
114
330
10B
100
AcDbEntity
  8
치수문자_일반주서
 62
     0
100
AcDbTrace
 10
53.55029060272452
 20
-10.30199999999994
 30
0.0
 11
52.44962393605785
 21
-10.30199999999994
 31
0.0
 12
52.99995726939117
 22
-6.99999999999994
 32
0.0
 13
52.99995726939117
 23
-6.99999999999994
 33
0.0
  0
MTEXT
  5
115
330
10B
100
AcDbEntity
  8
치수문자_일반주서
 62
     0
100
AcDbMText
 10
48.62495726939115
 20
0.0657043817130371
 30
0.0
 40
3.5
 41
0.0
 71
     2
 72
     1
  1
\A1;%%c14
  7
SLDTEXTSTYLE0
 11
-3.552713678800501E-15
 21
1.0
 31
0.0
 73
     1
 44
1.0
  0
POINT
  5
116
330
10B
100
AcDbEntity
  8
Defpoints
 62
     0
100
AcDbPoint
 10
37.99995726939113
 20
7.000000000000004
 30
0.0
  0
POINT
  5
142
330
10B
100
AcDbEntity
  8
Defpoints
 62
     0
100
AcDbPoint
 10
37.99995726939112
 20
-6.999999999999996
 30
0.0
  0
POINT
  5
143
330
10B
100
AcDbEntity
  8
Defpoints
 62
     0
100
AcDbPoint
 10
52.99995726939117
 20
-6.99999999999994
 30
0.0
  0
ENDBLK
  5
10D
330
10B
100
AcDbEntity
  8
0
100
AcDbBlockEnd
  0
BLOCK
  5
118
330
117
100
AcDbEntity
  8
0
100
AcDbBlockBegin
  2
SW_DOWELSYMBOL_0
 70
     0
 10
0.0
 20
0.0
 30
0.0
  3
SW_DOWELSYMBOL_0
  1
SW_DOWELSYMBOL_0
  0
CIRCLE
  5
11A
330
117
100
AcDbEntity
  8
외형선
 62
     0
100
AcDbCircle
 10
0.0
 20
0.0
 30
0.0
 40
3.000000000000002
  0
HATCH
  5
11B
330
117
100
AcDbEntity
  8
0
  6
Continuous
 62
     0
370
    30
100
AcDbHatch
 10
0.0
 20
0.0
 30
0.0
210
0.0
220
0.0
230
1.0
  2
SOLID
 70
     1
 71
     0
 91
        1
 92
        0
 93
        3
 72
     2
 10
0.0
 20
0.0
 40
3.000000000000002
 50
0.0
 51
90.0
 73
     1
 72
     1
 10
0.0
 20
3.000000000000002
 11
0.0
 21
0.0
 72
     1
 10
0.0
 20
0.0
 11
3.000000000000002
 21
0.0
 97
        0
 75
     0
 76
     1
 98
        1
 10
0.0
 20
0.0
  0
HATCH
  5
11C
330
117
100
AcDbEntity
  8
0
  6
Continuous
 62
     0
370
    30
100
AcDbHatch
 10
0.0
 20
0.0
 30
0.0
210
0.0
220
0.0
230
1.0
  2
SOLID
 70
     1
 71
     0
 91
        1
 92
        0
 93
        3
 72
     2
 10
0.0
 20
0.0
 40
3.000000000000002
 50
180.0
 51
270.0000000000007
 73
     1
 72
     1
 10
0.0
 20
-3.000000000000002
 11
0.0
 21
0.0
 72
     1
 10
0.0
 20
0.0
 11
-3.000000000000002
 21
0.0
 97
        0
 75
     0
 76
     1
 98
        1
 10
0.0
 20
0.0
  0
ENDBLK
  5
119
330
117
100
AcDbEntity
  8
0
100
AcDbBlockEnd
  0
BLOCK
  5
3C2
330
3C1
100
AcDbEntity
  8
0
100
AcDbBlockBegin
  2
*D8
 70
     1
 10
0.0
 20
0.0
 30
0.0
  3
*D8
  1

  0
LINE
  5
3C4
330
3C1
100
AcDbEntity
  8
치수문자_일반주서
 62
     0
370
    -2
100
AcDbLine
 10
17.20842921947281
 20
-2.499999999999993
 30
0.0
 11
27.14592921947281
 21
-2.499999999999957
 31
0.0
  0
LINE
  5
3C5
330
3C1
100
AcDbEntity
  8
치수문자_일반주서
 62
     0
370
    -2
100
AcDbLine
 10
17.20842921947281
 20
2.500000000000008
 30
0.0
 11
27.14592921947279
 21
2.500000000000044
 31
0.0
  0
LINE
  5
3C6
330
3C1
100
AcDbEntity
  8
치수문자_일반주서
 62
     0
370
    -2
100
AcDbLine
 10
27.14592921947281
 20
-2.499999999999957
 30
0.0
 11
27.14592921947274
 21
16.48961822363192
 31
0.0
  0
LINE
  5
3C7
330
3C1
100
AcDbEntity
  8
치수문자_일반주서
 62
     0
370
    -2
100
AcDbLine
 10
27.14592921947281
 20
-2.499999999999957
 30
0.0
 11
27.14592921947279
 21
2.500000000000044
 31
0.0
  0
LINE
  5
3C8
330
3C1
100
AcDbEntity
  8
치수문자_일반주서
 62
     0
370
    -2
100
AcDbLine
 10
27.14592921947282
 20
-5.801999999999957
 30
0.0
 11
27.14592921947283
 21
-9.103999999999957
 31
0.0
  0
LINE
  5
3C9
330
3C1
100
AcDbEntity
  8
치수문자_일반주서
 62
     0
370
    -2
100
AcDbLine
 10
27.14592921947278
 20
5.802000000000044
 30
0.0
 11
27.14592921947277
 21
9.104000000000044
 31
0.0
  0
SOLID
  5
3CA
330
3C1
100
AcDbEntity
  8
치수문자_일반주서
 62
     0
100
AcDbTrace
 10
27.69626255280615
 20
-5.801999999999955
 30
0.0
 11
26.59559588613948
 21
-5.801999999999959
 31
0.0
 12
27.14592921947281
 22
-2.499999999999957
 32
0.0
 13
27.14592921947281
 23
-2.499999999999957
 33
0.0
  0
SOLID
  5
3CB
330
3C1
100
AcDbEntity
  8
치수문자_일반주서
 62
     0
100
AcDbTrace
 10
26.59559588613945
 20
5.802000000000042
 30
0.0
 11
27.69626255280611
 21
5.802000000000046
 31
0.0
 12
27.14592921947279
 22
2.500000000000044
 32
0.0
 13
27.14592921947279
 23
2.500000000000044
 33
0.0
  0
MTEXT
  5
3CC
330
3C1
100
AcDbEntity
  8
치수문자_일반주서
 62
     0
100
AcDbMText
 10
22.77092921947275
 20
13.42711822363191
 30
0.0
 40
3.5
 41
0.0
 71
     2
 72
     1
  1
\A1;%%c5
  7
SLDTEXTSTYLE0
 11
-3.552713678800500E-15
 21
1.0
 31
0.0
 73
     1
 44
1.0
  0
POINT
  5
40A
330
3C1
100
AcDbEntity
  8
Defpoints
 62
     0
100
AcDbPoint
 10
17.14592921947281
 20
-2.499999999999994
 30
0.0
  0
POINT
  5
40B
330
3C1
100
AcDbEntity
  8
Defpoints
 62
     0
100
AcDbPoint
 10
17.14592921947281
 20
2.500000000000007
 30
0.0
  0
POINT
  5
40C
330
3C1
100
AcDbEntity
  8
Defpoints
 62
     0
100
AcDbPoint
 10
27.14592921947279
 20
2.500000000000044
 30
0.0
  0
ENDBLK
  5
3C3
330
3C1
100
AcDbEntity
  8
0
100
AcDbBlockEnd
  0
BLOCK
  5
3CF
330
3CE
100
AcDbEntity
  8
0
100
AcDbBlockBegin
  2
*D9
 70
     1
 10
0.0
 20
0.0
 30
0.0
  3
*D9
  1

  0
LINE
  5
3D1
330
3CE
100
AcDbEntity
  8
치수문자_일반주서
 62
     0
370
    -2
100
AcDbLine
 10
-42.85407078052719
 20
2.562500000000007
 30
0.0
 11
-42.85407078052719
 21
31.00000000000003
 31
0.0
  0
LINE
  5
3D2
330
3CE
100
AcDbEntity
  8
치수문자_일반주서
 62
     0
370
    -2
100
AcDbLine
 10
17.14592921947281
 20
2.562500000000007
 30
0.0
 11
17.14592921947281
 21
31.00000000000003
 31
0.0
  0
LINE
  5
3D3
330
3CE
100
AcDbEntity
  8
치수문자_일반주서
 62
     0
370
    -2
100
AcDbLine
 10
-39.5520707805272
 20
31.00000000000003
 30
0.0
 11
13.84392921947281
 21
31.00000000000003
 31
0.0
  0
SOLID
  5
3D4
330
3CE
100
AcDbEntity
  8
치수문자_일반주서
 62
     0
100
AcDbTrace
 10
-39.5520707805272
 20
31.55033333333336
 30
0.0
 11
-39.5520707805272
 21
30.44966666666669
 31
0.0
 12
-42.85407078052719
 22
31.00000000000003
 32
0.0
 13
-42.85407078052719
 23
31.00000000000003
 33
0.0
  0
SOLID
  5
3D5
330
3CE
100
AcDbEntity
  8
치수문자_일반주서
 62
     0
100
AcDbTrace
 10
13.84392921947281
 20
30.44966666666669
 30
0.0
 11
13.84392921947281
 21
31.55033333333336
 31
0.0
 12
17.14592921947281
 22
31.00000000000003
 32
0.0
 13
17.14592921947281
 23
31.00000000000003
 33
0.0
  0
MTEXT
  5
3D6
330
3CE
100
AcDbEntity
  8
치수문자_일반주서
 62
     0
100
AcDbMText
 10
-12.85407078052719
 20
35.37500000000003
 30
0.0
 40
3.5
 41
0.0
 71
     2
 72
     1
  1
\A1;60
  7
SLDTEXTSTYLE0
 73
     1
 44
1.0
  0
POINT
  5
3D7
330
3CE
100
AcDbEntity
  8
Defpoints
 62
     0
100
AcDbPoint
 10
-42.85407078052719
 20
2.500000000000007
 30
0.0
  0
POINT
  5
3D8
330
3CE
100
AcDbEntity
  8
Defpoints
 62
     0
100
AcDbPoint
 10
17.14592921947281
 20
2.500000000000007
 30
0.0
  0
POINT
  5
3D9
330
3CE
100
AcDbEntity
  8
Defpoints
 62
     0
100
AcDbPoint
 10
17.14592921947281
 20
31.00000000000003
 30
0.0
  0
ENDBLK
  5
3D0
330
3CE
100
AcDbEntity
  8
0
100
AcDbBlockEnd
  0
BLOCK
  5
3DB
330
3DA
100
AcDbEntity
  8
0
100
AcDbBlockBegin
  2
*D10
 70
     1
 10
0.0
 20
0.0
 30
0.0
  3
*D10
  1

  0
LINE
  5
3DD
330
3DA
100
AcDbEntity
  8
치수문자_일반주서
 62
     0
370
    -2
100
AcDbLine
 10
-42.41657078052719
 20
3.000000000000007
 30
0.0
 11
-52.85407078052722
 21
2.999999999999968
 31
0.0
  0
LINE
  5
3DE
330
3DA
100
AcDbEntity
  8
치수문자_일반주서
 62
     0
370
    -2
100
AcDbLine
 10
-42.41657078052719
 20
-2.999999999999986
 30
0.0
 11
-52.85407078052719
 21
-3.000000000000025
 31
0.0
  0
LINE
  5
3DF
330
3DA
100
AcDbEntity
  8
치수문자_일반주서
 62
     0
370
    -2
100
AcDbLine
 10
-52.85407078052722
 20
2.999999999999968
 30
0.0
 11
-52.85407078052727
 21
15.72899999999997
 31
0.0
  0
LINE
  5
3E0
330
3DA
100
AcDbEntity
  8
치수문자_일반주서
 62
     0
370
    -2
100
AcDbLine
 10
-52.85407078052722
 20
2.999999999999968
 30
0.0
 11
-52.85407078052719
 21
-3.000000000000025
 31
0.0
  0
LINE
  5
3E1
330
3DA
100
AcDbEntity
  8
치수문자_일반주서
 62
     0
370
    -2
100
AcDbLine
 10
-52.85407078052723
 20
6.301999999999968
 30
0.0
 11
-52.85407078052724
 21
9.603999999999967
 31
0.0
  0
LINE
  5
3E2
330
3DA
100
AcDbEntity
  8
치수문자_일반주서
 62
     0
370
    -2
100
AcDbLine
 10
-52.85407078052718
 20
-6.302000000000024
 30
0.0
 11
-52.85407078052717
 21
-9.604000000000024
 31
0.0
  0
SOLID
  5
3E3
330
3DA
100
AcDbEntity
  8
치수문자_일반주서
 62
     0
100
AcDbTrace
 10
-53.40440411386056
 20
6.301999999999966
 30
0.0
 11
-52.3037374471939
 21
6.301999999999969
 31
0.0
 12
-52.85407078052722
 22
2.999999999999968
 32
0.0
 13
-52.85407078052722
 23
2.999999999999968
 33
0.0
  0
SOLID
  5
3E4
330
3DA
100
AcDbEntity
  8
치수문자_일반주서
 62
     0
100
AcDbTrace
 10
-52.30373744719385
 20
-6.302000000000023
 30
0.0
 11
-53.40440411386052
 21
-6.302000000000026
 31
0.0
 12
-52.85407078052719
 22
-3.000000000000025
 32
0.0
 13
-52.85407078052719
 23
-3.000000000000025
 33
0.0
  0
MTEXT
  5
3E5
330
3DA
100
AcDbEntity
  8
치수문자_일반주서
 62
     0
100
AcDbMText
 10
-57.22907078052725
 20
12.66649999999996
 30
0.0
 40
3.5
 41
0.0
 71
     2
 72
     1
  1
\A1;%%c6
  7
SLDTEXTSTYLE0
 11
-3.552713678800505E-15
 21
1.0
 31
0.0
 73
     1
 44
1.0
  0
POINT
  5
405
330
3DA
100
AcDbEntity
  8
Defpoints
 62
     0
100
AcDbPoint
 10
-42.35407078052719
 20
3.000000000000007
 30
0.0
  0
POINT
  5
406
330
3DA
100
AcDbEntity
  8
Defpoints
 62
     0
100
AcDbPoint
 10
-42.35407078052719
 20
-2.999999999999986
 30
0.0
  0
POINT
  5
407
330
3DA
100
AcDbEntity
  8
Defpoints
 62
     0
100
AcDbPoint
 10
-52.85407078052719
 20
-3.000000000000025
 30
0.0
  0
ENDBLK
  5
3DC
330
3DA
100
AcDbEntity
  8
0
100
AcDbBlockEnd
  0
BLOCK
  5
3E7
330
3E6
100
AcDbEntity
  8
0
100
AcDbBlockBegin
  2
*D11
 70
     1
 10
0.0
 20
0.0
 30
0.0
  3
*D11
  1

  0
LINE
  5
3E9
330
3E6
100
AcDbEntity
  8
치수문자_일반주서
 62
     0
370
    -2
100
AcDbLine
 10
9.145929219472805
 20
2.025534946823164
 30
0.0
 11
9.145929219472805
 21
16.78544754509491
 31
0.0
  0
LINE
  5
3EA
330
3E6
100
AcDbEntity
  8
치수문자_일반주서
 62
     0
370
    -2
100
AcDbLine
 10
17.14592921947281
 20
2.562500000000007
 30
0.0
 11
17.14592921947281
 21
16.78544754509491
 31
0.0
  0
LINE
  5
3EB
330
3E6
100
AcDbEntity
  8
치수문자_일반주서
 62
     0
370
    -2
100
AcDbLine
 10
12.4479292194728
 20
16.78544754509491
 30
0.0
 11
13.84392921947281
 21
16.78544754509491
 31
0.0
  0
SOLID
  5
3EC
330
3E6
100
AcDbEntity
  8
치수문자_일반주서
 62
     0
100
AcDbTrace
 10
12.4479292194728
 20
17.33578087842825
 30
0.0
 11
12.4479292194728
 21
16.23511421176158
 31
0.0
 12
9.145929219472805
 22
16.78544754509491
 32
0.0
 13
9.145929219472805
 23
16.78544754509491
 33
0.0
  0
SOLID
  5
3ED
330
3E6
100
AcDbEntity
  8
치수문자_일반주서
 62
     0
100
AcDbTrace
 10
13.84392921947281
 20
16.23511421176158
 30
0.0
 11
13.84392921947281
 21
17.33578087842825
 31
0.0
 12
17.14592921947281
 22
16.78544754509491
 32
0.0
 13
17.14592921947281
 23
16.78544754509491
 33
0.0
  0
MTEXT
  5
3EE
330
3E6
100
AcDbEntity
  8
치수문자_일반주서
 62
     0
100
AcDbMText
 10
13.14592921947281
 20
21.16044754509491
 30
0.0
 40
3.5
 41
0.0
 71
     2
 72
     1
  1
\A1;8
  7
SLDTEXTSTYLE0
 73
     1
 44
1.0
  0
POINT
  5
3EF
330
3E6
100
AcDbEntity
  8
Defpoints
 62
     0
100
AcDbPoint
 10
9.145929219472805
 20
1.963034946823164
 30
0.0
  0
POINT
  5
3F0
330
3E6
100
AcDbEntity
  8
Defpoints
 62
     0
100
AcDbPoint
 10
17.14592921947281
 20
2.500000000000007
 30
0.0
  0
POINT
  5
3F1
330
3E6
100
AcDbEntity
  8
Defpoints
 62
     0
100
AcDbPoint
 10
17.14592921947281
 20
16.78544754509491
 30
0.0
  0
ENDBLK
  5
3E8
330
3E6
100
AcDbEntity
  8
0
100
AcDbBlockEnd
  0
BLOCK
  5
3F3
330
3F2
100
AcDbEntity
  8
0
100
AcDbBlockBegin
  2
*D12
 70
     1
 10
0.0
 20
0.0
 30
0.0
  3
*D12
  1

  0
LINE
  5
3F5
330
3F2
100
AcDbEntity
  8
치수문자_일반주서
 62
     0
370
    -2
100
AcDbLine
 10
17.14592921947281
 20
2.562500000000007
 30
0.0
 11
17.14592921947281
 21
25.84600157995483
 31
0.0
  0
LINE
  5
3F6
330
3F2
100
AcDbEntity
  8
치수문자_일반주서
 62
     0
370
    -2
100
AcDbLine
 10
2.145929214352066
 20
2.487500000000011
 30
0.0
 11
2.145929214352066
 21
25.84600157995483
 31
0.0
  0
LINE
  5
3F7
330
3F2
100
AcDbEntity
  8
치수문자_일반주서
 62
     0
370
    -2
100
AcDbLine
 10
13.84392921947281
 20
25.84600157995483
 30
0.0
 11
5.447929214352065
 21
25.84600157995483
 31
0.0
  0
SOLID
  5
3F8
330
3F2
100
AcDbEntity
  8
치수문자_일반주서
 62
     0
100
AcDbTrace
 10
13.84392921947281
 20
25.2956682466215
 30
0.0
 11
13.84392921947281
 21
26.39633491328816
 31
0.0
 12
17.14592921947281
 22
25.84600157995483
 32
0.0
 13
17.14592921947281
 23
25.84600157995483
 33
0.0
  0
SOLID
  5
3F9
330
3F2
100
AcDbEntity
  8
치수문자_일반주서
 62
     0
100
AcDbTrace
 10
5.447929214352065
 20
26.39633491328816
 30
0.0
 11
5.447929214352065
 21
25.2956682466215
 31
0.0
 12
2.145929214352066
 22
25.84600157995483
 32
0.0
 13
2.145929214352066
 23
25.84600157995483
 33
0.0
  0
MTEXT
  5
3FA
330
3F2
100
AcDbEntity
  8
치수문자_일반주서
 62
     0
100
AcDbMText
 10
9.645929216912435
 20
30.22100157995483
 30
0.0
 40
3.5
 41
0.0
 71
     2
 72
     1
  1
\A1;15
  7
SLDTEXTSTYLE0
 73
     1
 44
1.0
  0
POINT
  5
3FB
330
3F2
100
AcDbEntity
  8
Defpoints
 62
     0
100
AcDbPoint
 10
17.14592921947281
 20
2.500000000000007
 30
0.0
  0
POINT
  5
3FC
330
3F2
100
AcDbEntity
  8
Defpoints
 62
     0
100
AcDbPoint
 10
2.145929214352066
 20
2.425000000000011
 30
0.0
  0
POINT
  5
3FD
330
3F2
100
AcDbEntity
  8
Defpoints
 62
     0
100
AcDbPoint
 10
2.145929214352066
 20
25.84600157995483
 30
0.0
  0
ENDBLK
  5
3F4
330
3F2
100
AcDbEntity
  8
0
100
AcDbBlockEnd
  0
BLOCK
  5
411
330
410
100
AcDbEntity
  8
0
100
AcDbBlockBegin
  2
*D13
 70
     1
 10
0.0
 20
0.0
 30
0.0
  3
*D13
  1

  0
LINE
  5
413
330
410
100
AcDbEntity
  8
치수문자_일반주서
 62
     0
370
    -2
100
AcDbLine
 10
19.16018801248125
 20
-5.065241781937678
 30
0.0
 11
30.66530248717062
 21
-19.56862798296424
 31
0.0
  0
MTEXT
  5
414
330
410
100
AcDbEntity
  8
치수문자_일반주서
 62
     0
100
AcDbMText
 10
30.1388097091415
 20
-14.68110873316244
 30
0.0
 40
3.5
 41
0.0
 71
     5
 72
     1
  1
\A1;R0.1
  7
SLDTEXTSTYLE0
 11
0.6214752477979044
 21
-0.7834337983355921
 31
0.0
 73
     1
 44
1.0
  0
SOLID
  5
415
330
410
100
AcDbEntity
  8
치수문자_일반주서
 62
     0
100
AcDbTrace
 10
19.59133774616527
 20
-4.723223237232897
 30
0.0
 11
18.72903827879723
 21
-5.407260326642458
 31
0.0
 12
17.10807674425257
 22
-2.478343379833553
 32
0.0
 13
17.10807674425257
 23
-2.478343379833553
 33
0.0
  0
POINT
  5
416
330
410
100
AcDbEntity
  8
Defpoints
 62
     0
100
AcDbPoint
 10
17.10807674425257
 20
-2.478343379833553
 30
0.0
  0
POINT
  5
417
330
410
100
AcDbEntity
  8
Defpoints
 62
     0
100
AcDbPoint
 10
17.04592921947278
 20
-2.399999999999991
 30
0.0
  0
ENDBLK
  5
412
330
410
100
AcDbEntity
  8
0
100
AcDbBlockEnd
  0
BLOCK
  5
551
330
550
100
AcDbEntity
  8
0
100
AcDbBlockBegin
  2
*D14
 70
     1
 10
0.0
 20
0.0
 30
0.0
  3
*D14
  1

  0
LINE
  5
553
330
550
100
AcDbEntity
  8
치수문자_일반주서
 62
     0
370
    -2
100
AcDbLine
 10
73.9867752715054
 20
42.30165592565448
 30
0.0
 11
95.64417746898091
 21
42.30165592565456
 31
0.0
  0
LINE
  5
554
330
550
100
AcDbEntity
  8
치수문자_일반주서
 62
     0
370
    -2
100
AcDbLine
 10
73.86178112170916
 20
53.92611185670478
 30
0.0
 11
95.64417746898087
 21
53.92611185670486
 31
0.0
  0
LINE
  5
555
330
550
100
AcDbEntity
  8
치수문자_일반주서
 62
     0
370
    -2
100
AcDbLine
 10
95.6441774689809
 20
45.60365592565456
 30
0.0
 11
95.64417746898089
 21
50.62411185670486
 31
0.0
  0
SOLID
  5
556
330
550
100
AcDbEntity
  8
치수문자_일반주서
 62
     0
100
AcDbTrace
 10
95.09384413564757
 20
45.60365592565456
 30
0.0
 11
96.19451080231423
 21
45.60365592565456
 31
0.0
 12
95.64417746898091
 22
42.30165592565456
 32
0.0
 13
95.64417746898091
 23
42.30165592565456
 33
0.0
  0
SOLID
  5
557
330
550
100
AcDbEntity
  8
치수문자_일반주서
 62
     0
100
AcDbTrace
 10
96.19451080231421
 20
50.62411185670486
 30
0.0
 11
95.09384413564756
 21
50.62411185670486
 31
0.0
 12
95.64417746898087
 22
53.92611185670486
 32
0.0
 13
95.64417746898087
 23
53.92611185670486
 33
0.0
  0
MTEXT
  5
558
330
550
100
AcDbEntity
  8
치수문자_일반주서
 62
     0
100
AcDbMText
 10
91.26917746898089
 20
49.9718073888117
 30
0.0
 40
3.5
 41
0.0
 71
     2
 72
     1
  1
\A1;%%c11.62
  7
SLDTEXTSTYLE0
 11
-3.667488990321635E-15
 21
1.0
 31
0.0
 73
     1
 44
1.0
  0
POINT
  5
559
330
550
100
AcDbEntity
  8
Defpoints
 62
     0
100
AcDbPoint
 10
73.9242752715054
 20
42.30165592565448
 30
0.0
  0
POINT
  5
55A
330
550
100
AcDbEntity
  8
Defpoints
 62
     0
100
AcDbPoint
 10
73.79928112170916
 20
53.92611185670478
 30
0.0
  0
POINT
  5
55B
330
550
100
AcDbEntity
  8
Defpoints
 62
     0
100
AcDbPoint
 10
95.64417746898087
 20
53.92611185670486
 30
0.0
  0
ENDBLK
  5
552
330
550
100
AcDbEntity
  8
0
100
AcDbBlockEnd
  0
BLOCK
  5
55D
330
55C
100
AcDbEntity
  8
0
100
AcDbBlockBegin
  2
*D15
 70
     1
 10
0.0
 20
0.0
 30
0.0
  3
*D15
  1

  0
LINE
  5
55F
330
55C
100
AcDbEntity
  8
치수문자_일반주서
 62
     0
370
    -2
100
AcDbLine
 10
16.56166728747383
 20
52.53430738881175
 30
0.0
 11
16.56166728747383
 21
80.97180738881175
 31
0.0
  0
LINE
  5
560
330
55C
100
AcDbEntity
  8
치수문자_일반주서
 62
     0
370
    -2
100
AcDbLine
 10
76.56166728747384
 20
51.65306730030348
 30
0.0
 11
76.56166728747384
 21
80.97180738881175
 31
0.0
  0
LINE
  5
561
330
55C
100
AcDbEntity
  8
치수문자_일반주서
 62
     0
370
    -2
100
AcDbLine
 10
19.86366728747383
 20
80.97180738881175
 30
0.0
 11
73.25966728747383
 21
80.97180738881175
 31
0.0
  0
SOLID
  5
562
330
55C
100
AcDbEntity
  8
치수문자_일반주서
 62
     0
100
AcDbTrace
 10
19.86366728747383
 20
81.52214072214508
 30
0.0
 11
19.86366728747383
 21
80.42147405547843
 31
0.0
 12
16.56166728747383
 22
80.97180738881175
 32
0.0
 13
16.56166728747383
 23
80.97180738881175
 33
0.0
  0
SOLID
  5
563
330
55C
100
AcDbEntity
  8
치수문자_일반주서
 62
     0
100
AcDbTrace
 10
73.25966728747383
 20
80.42147405547843
 30
0.0
 11
73.25966728747383
 21
81.52214072214508
 31
0.0
 12
76.56166728747384
 22
80.97180738881175
 32
0.0
 13
76.56166728747384
 23
80.97180738881175
 33
0.0
  0
MTEXT
  5
564
330
55C
100
AcDbEntity
  8
치수문자_일반주서
 62
     0
100
AcDbMText
 10
46.56166728747384
 20
85.34680738881175
 30
0.0
 40
3.5
 41
0.0
 71
     2
 72
     1
  1
\A1;60
  7
SLDTEXTSTYLE0
 73
     1
 44
1.0
  0
POINT
  5
565
330
55C
100
AcDbEntity
  8
Defpoints
 62
     0
100
AcDbPoint
 10
16.56166728747383
 20
52.47180738881175
 30
0.0
  0
POINT
  5
566
330
55C
100
AcDbEntity
  8
Defpoints
 62
     0
100
AcDbPoint
 10
76.56166728747384
 20
51.59056730030348
 30
0.0
  0
POINT
  5
567
330
55C
100
AcDbEntity
  8
Defpoints
 62
     0
100
AcDbPoint
 10
76.56166728747384
 20
80.97180738881175
 30
0.0
  0
ENDBLK
  5
55E
330
55C
100
AcDbEntity
  8
0
100
AcDbBlockEnd
  0
BLOCK
  5
569
330
568
100
AcDbEntity
  8
0
100
AcDbBlockBegin
  2
*D16
 70
     1
 10
0.0
 20
0.0
 30
0.0
  3
*D16
  1

  0
LINE
  5
56B
330
568
100
AcDbEntity
  8
치수문자_일반주서
 62
     0
370
    -2
100
AcDbLine
 10
16.99916728747383
 20
52.97180738881175
 30
0.0
 11
4.565209265861743
 21
52.9718073888117
 31
0.0
  0
LINE
  5
56C
330
568
100
AcDbEntity
  8
치수문자_일반주서
 62
     0
370
    -2
100
AcDbLine
 10
16.99916728747383
 20
46.97180738881175
 30
0.0
 11
4.565209265861764
 21
46.9718073888117
 31
0.0
  0
LINE
  5
56D
330
568
100
AcDbEntity
  8
치수문자_일반주서
 62
     0
370
    -2
100
AcDbLine
 10
4.565209265861754
 20
49.6698073888117
 30
0.0
 11
4.565209265861752
 21
50.2738073888117
 31
0.0
  0
SOLID
  5
56E
330
568
100
AcDbEntity
  8
치수문자_일반주서
 62
     0
100
AcDbTrace
 10
5.115542599195088
 20
49.6698073888117
 30
0.0
 11
4.014875932528421
 21
49.6698073888117
 31
0.0
 12
4.565209265861743
 22
52.9718073888117
 32
0.0
 13
4.565209265861743
 23
52.9718073888117
 33
0.0
  0
SOLID
  5
56F
330
568
100
AcDbEntity
  8
치수문자_일반주서
 62
     0
100
AcDbTrace
 10
4.014875932528419
 20
50.2738073888117
 30
0.0
 11
5.115542599195086
 21
50.2738073888117
 31
0.0
 12
4.565209265861764
 22
46.9718073888117
 32
0.0
 13
4.565209265861764
 23
46.9718073888117
 33
0.0
  0
MTEXT
  5
570
330
568
100
AcDbEntity
  8
치수문자_일반주서
 62
     0
100
AcDbMText
 10
0.1902092658617534
 20
49.97180738881173
 30
0.0
 40
3.5
 41
0.0
 71
     2
 72
     1
  1
\A1;%%c6
  7
SLDTEXTSTYLE0
 11
-3.552713678800505E-15
 21
1.0
 31
0.0
 73
     1
 44
1.0
  0
POINT
  5
571
330
568
100
AcDbEntity
  8
Defpoints
 62
     0
100
AcDbPoint
 10
17.06166728747383
 20
52.97180738881175
 30
0.0
  0
POINT
  5
572
330
568
100
AcDbEntity
  8
Defpoints
 62
     0
100
AcDbPoint
 10
17.06166728747383
 20
46.97180738881175
 30
0.0
  0
POINT
  5
573
330
568
100
AcDbEntity
  8
Defpoints
 62
     0
100
AcDbPoint
 10
4.565209265861753
 20
46.9718073888117
 30
0.0
  0
ENDBLK
  5
56A
330
568
100
AcDbEntity
  8
0
100
AcDbBlockEnd
  0
BLOCK
  5
575
330
574
100
AcDbEntity
  8
0
100
AcDbBlockBegin
  2
*D17
 70
     1
 10
0.0
 20
0.0
 30
0.0
  3
*D17
  1

  0
LINE
  5
577
330
574
100
AcDbEntity
  8
치수문자_일반주서
 62
     0
370
    -2
100
AcDbLine
 10
68.56166728747384
 20
51.99734233563491
 30
0.0
 11
68.56166728747384
 21
66.75725493390665
 31
0.0
  0
LINE
  5
578
330
574
100
AcDbEntity
  8
치수문자_일반주서
 62
     0
370
    -2
100
AcDbLine
 10
76.56166728747384
 20
51.65306730030348
 30
0.0
 11
76.56166728747384
 21
66.75725493390665
 31
0.0
  0
LINE
  5
579
330
574
100
AcDbEntity
  8
치수문자_일반주서
 62
     0
370
    -2
100
AcDbLine
 10
71.86366728747385
 20
66.75725493390665
 30
0.0
 11
73.25966728747383
 21
66.75725493390665
 31
0.0
  0
SOLID
  5
57A
330
574
100
AcDbEntity
  8
치수문자_일반주서
 62
     0
100
AcDbTrace
 10
71.86366728747385
 20
67.30758826723998
 30
0.0
 11
71.86366728747385
 21
66.20692160057332
 31
0.0
 12
68.56166728747384
 22
66.75725493390665
 32
0.0
 13
68.56166728747384
 23
66.75725493390665
 33
0.0
  0
SOLID
  5
57B
330
574
100
AcDbEntity
  8
치수문자_일반주서
 62
     0
100
AcDbTrace
 10
73.25966728747383
 20
66.20692160057332
 30
0.0
 11
73.25966728747383
 21
67.30758826723998
 31
0.0
 12
76.56166728747384
 22
66.75725493390665
 32
0.0
 13
76.56166728747384
 23
66.75725493390665
 33
0.0
  0
MTEXT
  5
57C
330
574
100
AcDbEntity
  8
치수문자_일반주서
 62
     0
100
AcDbMText
 10
72.56166728747384
 20
71.13225493390665
 30
0.0
 40
3.5
 41
0.0
 71
     2
 72
     1
  1
\A1;8
  7
SLDTEXTSTYLE0
 73
     1
 44
1.0
  0
POINT
  5
57D
330
574
100
AcDbEntity
  8
Defpoints
 62
     0
100
AcDbPoint
 10
68.56166728747384
 20
51.93484233563491
 30
0.0
  0
POINT
  5
57E
330
574
100
AcDbEntity
  8
Defpoints
 62
     0
100
AcDbPoint
 10
76.56166728747384
 20
51.59056730030348
 30
0.0
  0
POINT
  5
57F
330
574
100
AcDbEntity
  8
Defpoints
 62
     0
100
AcDbPoint
 10
76.56166728747384
 20
66.75725493390665
 30
0.0
  0
ENDBLK
  5
576
330
574
100
AcDbEntity
  8
0
100
AcDbBlockEnd
  0
BLOCK
  5
581
330
580
100
AcDbEntity
  8
0
100
AcDbBlockBegin
  2
*D18
 70
     1
 10
0.0
 20
0.0
 30
0.0
  3
*D18
  1

  0
LINE
  5
583
330
580
100
AcDbEntity
  8
치수문자_일반주서
 62
     0
370
    -2
100
AcDbLine
 10
76.56166728747384
 20
52.32744877187121
 30
0.0
 11
76.56166728747384
 21
75.71662404156508
 31
0.0
  0
LINE
  5
584
330
580
100
AcDbEntity
  8
치수문자_일반주서
 62
     0
370
    -2
100
AcDbLine
 10
61.56166727486906
 20
52.45930738881174
 30
0.0
 11
61.56166727486906
 21
75.71662404156508
 31
0.0
  0
LINE
  5
585
330
580
100
AcDbEntity
  8
치수문자_일반주서
 62
     0
370
    -2
100
AcDbLine
 10
73.25966728747383
 20
75.71662404156508
 30
0.0
 11
64.86366727486906
 21
75.71662404156508
 31
0.0
  0
SOLID
  5
586
330
580
100
AcDbEntity
  8
치수문자_일반주서
 62
     0
100
AcDbTrace
 10
73.25966728747383
 20
75.16629070823176
 30
0.0
 11
73.25966728747383
 21
76.26695737489841
 31
0.0
 12
76.56166728747384
 22
75.71662404156508
 32
0.0
 13
76.56166728747384
 23
75.71662404156508
 33
0.0
  0
SOLID
  5
587
330
580
100
AcDbEntity
  8
치수문자_일반주서
 62
     0
100
AcDbTrace
 10
64.86366727486906
 20
76.26695737489841
 30
0.0
 11
64.86366727486906
 21
75.16629070823176
 31
0.0
 12
61.56166727486906
 22
75.71662404156508
 32
0.0
 13
61.56166727486906
 23
75.71662404156508
 33
0.0
  0
MTEXT
  5
588
330
580
100
AcDbEntity
  8
치수문자_일반주서
 62
     0
100
AcDbMText
 10
69.06166728117144
 20
80.09162404156508
 30
0.0
 40
3.5
 41
0.0
 71
     2
 72
     1
  1
\A1;15
  7
SLDTEXTSTYLE0
 73
     1
 44
1.0
  0
POINT
  5
589
330
580
100
AcDbEntity
  8
Defpoints
 62
     0
100
AcDbPoint
 10
76.56166728747384
 20
52.26494877187121
 30
0.0
  0
POINT
  5
58A
330
580
100
AcDbEntity
  8
Defpoints
 62
     0
100
AcDbPoint
 10
61.56166727486906
 20
52.39680738881174
 30
0.0
  0
POINT
  5
58B
330
580
100
AcDbEntity
  8
Defpoints
 62
     0
100
AcDbPoint
 10
61.56166727486906
 20
75.71662404156508
 30
0.0
  0
ENDBLK
  5
582
330
580
100
AcDbEntity
  8
0
100
AcDbBlockEnd
  0
BLOCK
  5
5DC
330
5DB
100
AcDbEntity
  8
0
100
AcDbBlockBegin
  2
*D19
 70
     1
 10
0.0
 20
0.0
 30
0.0
  3
*D19
  1

  0
LINE
  5
5DE
330
5DB
100
AcDbEntity
  8
치수문자_일반주서
 62
     0
370
    -2
100
AcDbLine
 10
156.5251773809831
 20
-7.714343455379272
 30
0.0
 11
178.1825795784586
 21
-7.71434345537919
 31
0.0
  0
LINE
  5
5DF
330
5DB
100
AcDbEntity
  8
치수문자_일반주서
 62
     0
370
    -2
100
AcDbLine
 10
156.4001832311869
 20
3.910112475671028
 30
0.0
 11
178.1825795784586
 21
3.91011247567111
 31
0.0
  0
LINE
  5
5E0
330
5DB
100
AcDbEntity
  8
치수문자_일반주서
 62
     0
370
    -2
100
AcDbLine
 10
178.1825795784586
 20
-4.41234345537919
 30
0.0
 11
178.1825795784586
 21
0.6081124756711098
 31
0.0
  0
SOLID
  5
5E1
330
5DB
100
AcDbEntity
  8
치수문자_일반주서
 62
     0
100
AcDbTrace
 10
177.6322462451253
 20
-4.412343455379192
 30
0.0
 11
178.732912911792
 21
-4.412343455379188
 31
0.0
 12
178.1825795784586
 22
-7.71434345537919
 32
0.0
 13
178.1825795784586
 23
-7.71434345537919
 33
0.0
  0
SOLID
  5
5E2
330
5DB
100
AcDbEntity
  8
치수문자_일반주서
 62
     0
100
AcDbTrace
 10
178.7329129117919
 20
0.6081124756711112
 30
0.0
 11
177.6322462451253
 21
0.6081124756711085
 31
0.0
 12
178.1825795784586
 22
3.91011247567111
 32
0.0
 13
178.1825795784586
 23
3.91011247567111
 33
0.0
  0
MTEXT
  5
5E3
330
5DB
100
AcDbEntity
  8
치수문자_일반주서
 62
     0
100
AcDbMText
 10
173.8075795784586
 20
-0.0441919922220428
 30
0.0
 40
3.5
 41
0.0
 71
     2
 72
     1
  1
\A1;%%c11.62
  7
SLDTEXTSTYLE0
 11
-2.444992660214424E-15
 21
1.0
 31
0.0
 73
     1
 44
1.0
  0
POINT
  5
5E4
330
5DB
100
AcDbEntity
  8
Defpoints
 62
     0
100
AcDbPoint
 10
156.4626773809831
 20
-7.714343455379272
 30
0.0
  0
POINT
  5
5E5
330
5DB
100
AcDbEntity
  8
Defpoints
 62
     0
100
AcDbPoint
 10
156.3376832311869
 20
3.910112475671028
 30
0.0
  0
POINT
  5
5E6
330
5DB
100
AcDbEntity
  8
Defpoints
 62
     0
100
AcDbPoint
 10
178.1825795784586
 20
3.910112475671109
 30
0.0
  0
ENDBLK
  5
5DD
330
5DB
100
AcDbEntity
  8
0
100
AcDbBlockEnd
  0
BLOCK
  5
5E8
330
5E7
100
AcDbEntity
  8
0
100
AcDbBlockBegin
  2
*D20
 70
     1
 10
0.0
 20
0.0
 30
0.0
  3
*D20
  1

  0
LINE
  5
5EA
330
5E7
100
AcDbEntity
  8
치수문자_일반주서
 62
     0
370
    -2
100
AcDbLine
 10
99.10006939695157
 20
2.518308007777996
 30
0.0
 11
99.10006939695157
 21
30.955808007778
 31
0.0
  0
LINE
  5
5EB
330
5E7
100
AcDbEntity
  8
치수문자_일반주서
 62
     0
370
    -2
100
AcDbLine
 10
159.1000693969516
 20
1.637067919269732
 30
0.0
 11
159.1000693969516
 21
30.955808007778
 31
0.0
  0
LINE
  5
5EC
330
5E7
100
AcDbEntity
  8
치수문자_일반주서
 62
     0
370
    -2
100
AcDbLine
 10
102.4020693969516
 20
30.955808007778
 30
0.0
 11
155.7980693969516
 21
30.955808007778
 31
0.0
  0
SOLID
  5
5ED
330
5E7
100
AcDbEntity
  8
치수문자_일반주서
 62
     0
100
AcDbTrace
 10
102.4020693969516
 20
31.50614134111134
 30
0.0
 11
102.4020693969516
 21
30.40547467444467
 31
0.0
 12
99.10006939695157
 22
30.955808007778
 32
0.0
 13
99.10006939695157
 23
30.955808007778
 33
0.0
  0
SOLID
  5
5EE
330
5E7
100
AcDbEntity
  8
치수문자_일반주서
 62
     0
100
AcDbTrace
 10
155.7980693969516
 20
30.40547467444467
 30
0.0
 11
155.7980693969516
 21
31.50614134111134
 31
0.0
 12
159.1000693969516
 22
30.955808007778
 32
0.0
 13
159.1000693969516
 23
30.955808007778
 33
0.0
  0
MTEXT
  5
5EF
330
5E7
100
AcDbEntity
  8
치수문자_일반주서
 62
     0
100
AcDbMText
 10
129.1000693969516
 20
35.330808007778
 30
0.0
 40
3.5
 41
0.0
 71
     2
 72
     1
  1
\A1;60
  7
SLDTEXTSTYLE0
 73
     1
 44
1.0
  0
POINT
  5
5F0
330
5E7
100
AcDbEntity
  8
Defpoints
 62
     0
100
AcDbPoint
 10
99.10006939695157
 20
2.455808007777996
 30
0.0
  0
POINT
  5
5F1
330
5E7
100
AcDbEntity
  8
Defpoints
 62
     0
100
AcDbPoint
 10
159.1000693969516
 20
1.574567919269732
 30
0.0
  0
POINT
  5
5F2
330
5E7
100
AcDbEntity
  8
Defpoints
 62
     0
100
AcDbPoint
 10
159.1000693969516
 20
30.955808007778
 30
0.0
  0
ENDBLK
  5
5E9
330
5E7
100
AcDbEntity
  8
0
100
AcDbBlockEnd
  0
BLOCK
  5
5F4
330
5F3
100
AcDbEntity
  8
0
100
AcDbBlockBegin
  2
*D21
 70
     1
 10
0.0
 20
0.0
 30
0.0
  3
*D21
  1

  0
LINE
  5
5F6
330
5F3
100
AcDbEntity
  8
치수문자_일반주서
 62
     0
370
    -2
100
AcDbLine
 10
99.53756939695157
 20
2.955808007777996
 30
0.0
 11
87.1036113753395
 21
2.955808007777949
 31
0.0
  0
LINE
  5
5F7
330
5F3
100
AcDbEntity
  8
치수문자_일반주서
 62
     0
370
    -2
100
AcDbLine
 10
99.53756939695157
 20
-3.044191992221997
 30
0.0
 11
87.10361137533951
 21
-3.044191992222044
 31
0.0
  0
LINE
  5
5F8
330
5F3
100
AcDbEntity
  8
치수문자_일반주서
 62
     0
370
    -2
100
AcDbLine
 10
87.10361137533951
 20
-0.3461919922220513
 30
0.0
 11
87.1036113753395
 21
0.2578080077779559
 31
0.0
  0
SOLID
  5
5F9
330
5F3
100
AcDbEntity
  8
치수문자_일반주서
 62
     0
100
AcDbTrace
 10
87.65394470867284
 20
-0.34619199222205
 30
0.0
 11
86.55327804200618
 21
-0.3461919922220526
 31
0.0
 12
87.1036113753395
 22
2.955808007777949
 32
0.0
 13
87.1036113753395
 23
2.955808007777949
 33
0.0
  0
SOLID
  5
5FA
330
5F3
100
AcDbEntity
  8
치수문자_일반주서
 62
     0
100
AcDbTrace
 10
86.55327804200617
 20
0.2578080077779546
 30
0.0
 11
87.65394470867282
 21
0.2578080077779571
 31
0.0
 12
87.10361137533951
 22
-3.044191992222044
 32
0.0
 13
87.10361137533951
 23
-3.044191992222044
 33
0.0
  0
MTEXT
  5
5FB
330
5F3
100
AcDbEntity
  8
치수문자_일반주서
 62
     0
100
AcDbMText
 10
82.7286113753395
 20
-0.0441919922220141
 30
0.0
 40
3.5
 41
0.0
 71
     2
 72
     1
  1
\A1;%%c6
  7
SLDTEXTSTYLE0
 11
-2.368475785867004E-15
 21
1.0
 31
0.0
 73
     1
 44
1.0
  0
POINT
  5
5FC
330
5F3
100
AcDbEntity
  8
Defpoints
 62
     0
100
AcDbPoint
 10
99.60006939695157
 20
2.955808007777996
 30
0.0
  0
POINT
  5
5FD
330
5F3
100
AcDbEntity
  8
Defpoints
 62
     0
100
AcDbPoint
 10
99.60006939695157
 20
-3.044191992221997
 30
0.0
  0
POINT
  5
5FE
330
5F3
100
AcDbEntity
  8
Defpoints
 62
     0
100
AcDbPoint
 10
87.10361137533951
 20
-3.044191992222043
 30
0.0
  0
ENDBLK
  5
5F5
330
5F3
100
AcDbEntity
  8
0
100
AcDbBlockEnd
  0
BLOCK
  5
600
330
5FF
100
AcDbEntity
  8
0
100
AcDbBlockBegin
  2
*D22
 70
     1
 10
0.0
 20
0.0
 30
0.0
  3
*D22
  1

  0
LINE
  5
602
330
5FF
100
AcDbEntity
  8
치수문자_일반주서
 62
     0
370
    -2
100
AcDbLine
 10
151.1000693969516
 20
1.98134295460116
 30
0.0
 11
151.1000693969516
 21
16.7412555528729
 31
0.0
  0
LINE
  5
603
330
5FF
100
AcDbEntity
  8
치수문자_일반주서
 62
     0
370
    -2
100
AcDbLine
 10
159.1000693969516
 20
1.637067919269732
 30
0.0
 11
159.1000693969516
 21
16.7412555528729
 31
0.0
  0
LINE
  5
604
330
5FF
100
AcDbEntity
  8
치수문자_일반주서
 62
     0
370
    -2
100
AcDbLine
 10
154.4020693969516
 20
16.7412555528729
 30
0.0
 11
155.7980693969516
 21
16.7412555528729
 31
0.0
  0
SOLID
  5
605
330
5FF
100
AcDbEntity
  8
치수문자_일반주서
 62
     0
100
AcDbTrace
 10
154.4020693969516
 20
17.29158888620623
 30
0.0
 11
154.4020693969516
 21
16.19092221953957
 31
0.0
 12
151.1000693969516
 22
16.7412555528729
 32
0.0
 13
151.1000693969516
 23
16.7412555528729
 33
0.0
  0
SOLID
  5
606
330
5FF
100
AcDbEntity
  8
치수문자_일반주서
 62
     0
100
AcDbTrace
 10
155.7980693969516
 20
16.19092221953957
 30
0.0
 11
155.7980693969516
 21
17.29158888620623
 31
0.0
 12
159.1000693969516
 22
16.7412555528729
 32
0.0
 13
159.1000693969516
 23
16.7412555528729
 33
0.0
  0
MTEXT
  5
607
330
5FF
100
AcDbEntity
  8
치수문자_일반주서
 62
     0
100
AcDbMText
 10
155.1000693969516
 20
21.1162555528729
 30
0.0
 40
3.5
 41
0.0
 71
     2
 72
     1
  1
\A1;8
  7
SLDTEXTSTYLE0
 73
     1
 44
1.0
  0
POINT
  5
608
330
5FF
100
AcDbEntity
  8
Defpoints
 62
     0
100
AcDbPoint
 10
151.1000693969516
 20
1.91884295460116
 30
0.0
  0
POINT
  5
609
330
5FF
100
AcDbEntity
  8
Defpoints
 62
     0
100
AcDbPoint
 10
159.1000693969516
 20
1.574567919269732
 30
0.0
  0
POINT
  5
60A
330
5FF
100
AcDbEntity
  8
Defpoints
 62
     0
100
AcDbPoint
 10
159.1000693969516
 20
16.7412555528729
 30
0.0
  0
ENDBLK
  5
601
330
5FF
100
AcDbEntity
  8
0
100
AcDbBlockEnd
  0
BLOCK
  5
60C
330
60B
100
AcDbEntity
  8
0
100
AcDbBlockBegin
  2
*D23
 70
     1
 10
0.0
 20
0.0
 30
0.0
  3
*D23
  1

  0
LINE
  5
60E
330
60B
100
AcDbEntity
  8
치수문자_일반주서
 62
     0
370
    -2
100
AcDbLine
 10
159.1000693969516
 20
2.31144939083746
 30
0.0
 11
159.1000693969516
 21
25.70062466053133
 31
0.0
  0
LINE
  5
60F
330
60B
100
AcDbEntity
  8
치수문자_일반주서
 62
     0
370
    -2
100
AcDbLine
 10
144.1000693843468
 20
2.443308007777993
 30
0.0
 11
144.1000693843468
 21
25.70062466053133
 31
0.0
  0
LINE
  5
610
330
60B
100
AcDbEntity
  8
치수문자_일반주서
 62
     0
370
    -2
100
AcDbLine
 10
155.7980693969516
 20
25.70062466053133
 30
0.0
 11
147.4020693843468
 21
25.70062466053133
 31
0.0
  0
SOLID
  5
611
330
60B
100
AcDbEntity
  8
치수문자_일반주서
 62
     0
100
AcDbTrace
 10
155.7980693969516
 20
25.150291327198
 30
0.0
 11
155.7980693969516
 21
26.25095799386467
 31
0.0
 12
159.1000693969516
 22
25.70062466053133
 32
0.0
 13
159.1000693969516
 23
25.70062466053133
 33
0.0
  0
SOLID
  5
612
330
60B
100
AcDbEntity
  8
치수문자_일반주서
 62
     0
100
AcDbTrace
 10
147.4020693843468
 20
26.25095799386467
 30
0.0
 11
147.4020693843468
 21
25.150291327198
 31
0.0
 12
144.1000693843468
 22
25.70062466053133
 32
0.0
 13
144.1000693843468
 23
25.70062466053133
 33
0.0
  0
MTEXT
  5
613
330
60B
100
AcDbEntity
  8
치수문자_일반주서
 62
     0
100
AcDbMText
 10
151.6000693906492
 20
30.07562466053133
 30
0.0
 40
3.5
 41
0.0
 71
     2
 72
     1
  1
\A1;15
  7
SLDTEXTSTYLE0
 73
     1
 44
1.0
  0
POINT
  5
614
330
60B
100
AcDbEntity
  8
Defpoints
 62
     0
100
AcDbPoint
 10
159.1000693969516
 20
2.24894939083746
 30
0.0
  0
POINT
  5
615
330
60B
100
AcDbEntity
  8
Defpoints
 62
     0
100
AcDbPoint
 10
144.1000693843468
 20
2.380808007777993
 30
0.0
  0
POINT
  5
616
330
60B
100
AcDbEntity
  8
Defpoints
 62
     0
100
AcDbPoint
 10
144.1000693843468
 20
25.70062466053133
 30
0.0
  0
ENDBLK
  5
60D
330
60B
100
AcDbEntity
  8
0
100
AcDbBlockEnd
  0
BLOCK
  5
61B
330
61A
100
AcDbEntity
  8
0
100
AcDbBlockBegin
  2
*D24
 70
     1
 10
0.0
 20
0.0
 30
0.0
  3
*D24
  1

  0
LINE
  5
61D
330
61A
100
AcDbEntity
  8
치수문자_일반주서
 62
     0
370
    -2
100
AcDbLine
 10
19.08259257918785
 20
-5.074648389841697
 30
0.0
 11
30.11561901540002
 21
-19.40201956748922
 31
0.0
  0
MTEXT
  5
61E
330
61A
100
AcDbEntity
  8
치수문자_일반주서
 62
     0
100
AcDbMText
 10
29.39264777457861
 20
-14.16079102377495
 30
0.0
 40
3.5
 41
0.0
 71
     5
 72
     1
  1
\A1;R0.2
  7
SLDTEXTSTYLE0
 11
0.6101266018603823
 21
-0.7923039377046556
 31
0.0
 73
     1
 44
1.0
  0
SOLID
  5
61F
330
61A
100
AcDbEntity
  8
치수문자_일반주서
 62
     0
100
AcDbTrace
 10
19.51862384623798
 20
-4.738875383284533
 30
0.0
 11
18.64656131213772
 21
-5.41042139639886
 31
0.0
 12
17.06795453984487
 22
-2.458460787540923
 32
0.0
 13
17.06795453984487
 23
-2.458460787540923
 33
0.0
  0
POINT
  5
620
330
61A
100
AcDbEntity
  8
Defpoints
 62
     0
100
AcDbPoint
 10
17.06795453984487
 20
-2.458460787540923
 30
0.0
  0
POINT
  5
621
330
61A
100
AcDbEntity
  8
Defpoints
 62
     0
100
AcDbPoint
 10
16.94592921947279
 20
-2.29999999999999
 30
0.0
  0
ENDBLK
  5
61C
330
61A
100
AcDbEntity
  8
0
100
AcDbBlockEnd
  0
ENDSEC
  0
SECTION
  2
ENTITIES
  0
LINE
  5
372
330
1F
100
AcDbEntity
  8
0
  6
Continuous
 62
     4
370
    25
100
AcDbLine
 10
0.0
 20
-3.000000000000014
 30
0.0
 11
2.145929214352066
 21
-2.425000000000018
 31
0.0
  0
LINE
  5
373
330
1F
100
AcDbEntity
  8
0
  6
Continuous
 62
     4
370
    25
100
AcDbLine
 10
2.145929214352066
 20
2.425000000000011
 30
0.0
 11
0.0
 21
3.000000000000014
 31
0.0
  0
LINE
  5
374
330
1F
100
AcDbEntity
  8
0
  6
Continuous
 62
     4
370
    25
100
AcDbLine
 10
0.0
 20
3.0
 30
0.0
 11
-42.35407078052719
 21
3.000000000000014
 31
0.0
  0
LINE
  5
375
330
1F
100
AcDbEntity
  8
0
  6
Continuous
 62
     4
370
    25
100
AcDbLine
 10
-42.35407078052719
 20
-2.999999999999993
 30
0.0
 11
0.0
 21
-3.000000000000007
 31
0.0
  0
LINE
  5
376
330
1F
100
AcDbEntity
  8
0
  6
Continuous
 62
     4
370
    25
100
AcDbLine
 10
-42.35407078052719
 20
3.000000000000007
 30
0.0
 11
-42.85407078052719
 21
2.500000000000007
 31
0.0
  0
LINE
  5
377
330
1F
100
AcDbEntity
  8
0
  6
Continuous
 62
     4
370
    25
100
AcDbLine
 10
-42.85407078052719
 20
-2.499999999999986
 30
0.0
 11
-42.35407078052719
 21
-2.999999999999986
 31
0.0
  0
LINE
  5
378
330
1F
100
AcDbEntity
  8
0
  6
Continuous
 62
     4
370
    25
100
AcDbLine
 10
8.255880020668997
 20
2.425000000000011
 30
0.0
 11
2.145929214352066
 21
2.425000000000011
 31
0.0
  0
LINE
  5
379
330
1F
100
AcDbEntity
  8
0
  6
Continuous
 62
     4
370
    25
100
AcDbLine
 10
2.145929214352066
 20
-2.425000000000018
 30
0.0
 11
8.255880020668997
 21
-2.425000000000018
 31
0.0
  0
LINE
  5
380
330
1F
100
AcDbEntity
  8
0
  6
Continuous
 62
     4
370
    25
100
AcDbLine
 10
2.145929214352066
 20
2.425000000000011
 30
0.0
 11
2.145929214352066
 21
-2.425000000000018
 31
0.0
  0
LINE
  5
381
330
1F
100
AcDbEntity
  8
0
  6
Continuous
 62
     4
370
    25
100
AcDbLine
 10
0.0
 20
3.000000000000014
 30
0.0
 11
0.0
 21
-3.000000000000014
 31
0.0
  0
LINE
  5
382
330
1F
100
AcDbEntity
  8
0
  6
Continuous
 62
     4
370
    25
100
AcDbLine
 10
-42.35407078052719
 20
3.000000000000007
 30
0.0
 11
-42.35407078052719
 21
-2.999999999999986
 31
0.0
  0
LINE
  5
383
330
1F
100
AcDbEntity
  8
0
  6
Continuous
 62
     4
370
    25
100
AcDbLine
 10
-42.85407078052719
 20
2.500000000000007
 30
0.0
 11
-42.85407078052719
 21
-2.499999999999986
 31
0.0
  0
LINE
  5
3B2
330
1F
100
AcDbEntity
  8
중심선
100
AcDbLine
 10
-45.85407078052719
 20
0.0
 30
0.0
 11
20.14592921947281
 21
0.0
 31
0.0
  0
CIRCLE
  5
3B3
330
1F
100
AcDbEntity
  8
외형선
100
AcDbCircle
 10
0.0
 20
0.0
 30
0.0
 40
3.000000000000005
  0
INSERT
  5
3B4
330
1F
100
AcDbEntity
  8
0
  6
Continuous
 62
     7
100
AcDbBlockReference
 66
     1
  2
블럭10
 10
-13.95369611764934
 20
-52.04717430164393
 30
0.0
  0
ATTRIB
  5
3B5
330
3B4
100
AcDbEntity
  8
FORMAT
 62
     2
100
AcDbText
 10
-30.07295715708491
 20
-49.97180738881174
 30
0.0
 40
4.233333333333333
  1
SEME6405002E [ 4 FLUTE ]
 41
0.75
  7
SLDTEXTSTYLE0
 11
-30.07295715708491
 21
-52.08847405547841
 31
0.0
100
AcDbAttribute
  2
AUTOATTR0
 70
     0
 74
     1
  0
SEQEND
  5
3B6
330
3B4
100
AcDbEntity
  8
0
  6
Continuous
 62
     7
  0
HATCH
  5
3B7
330
1F
100
AcDbEntity
  8
중심선
100
AcDbHatch
 10
0.0
 20
0.0
 30
0.0
210
0.0
220
0.0
230
1.0
  2
SOLID
 70
     1
 71
     0
 91
        1
 92
        0
 93
        4
 72
     1
 10
-8.238786813268518
 20
-35.79999999999999
 11
-11.6850620571058
 21
-35.79999999999999
 72
     1
 10
-11.68506205710577
 20
-35.79999999999999
 11
-13.81329191630979
 21
-38.33632558057259
 72
     1
 10
-13.81329191630979
 20
-38.33632558057259
 11
-10.36698358735936
 21
-38.3362861512701
 72
     1
 10
-10.36698358735936
 20
-38.3362861512701
 11
-8.23878681326849
 21
-35.79999999999999
 97
        0
 75
     0
 76
     1
 98
        1
 10
8.98574757041655
 20
-0.001074928723888
  0
HATCH
  5
3B8
330
1F
100
AcDbEntity
  8
중심선
100
AcDbHatch
 10
0.0
 20
0.0
 30
0.0
210
0.0
220
0.0
230
1.0
  2
SOLID
 70
     1
 71
     0
 91
        1
 92
        0
 93
        4
 72
     1
 10
-3.226022822232551
 20
-35.79999999999999
 11
-6.672298066069835
 21
-35.79999999999999
 72
     1
 10
-6.672298066069828
 20
-35.79999999999999
 11
-11.20343607442722
 21
-41.20000000000001
 72
     1
 10
-11.2034360744272
 20
-41.20000000000001
 11
-7.757160830589918
 21
-41.20000000000001
 72
     1
 10
-7.757160830589953
 20
-41.20000000000001
 11
-3.226022822232565
 21
-35.79999999999999
 97
        0
 75
     0
 76
     1
 98
        1
 10
8.98574757041655
 20
-0.001074928723888
  0
HATCH
  5
3B9
330
1F
100
AcDbEntity
  8
중심선
100
AcDbHatch
 10
0.0
 20
0.0
 30
0.0
210
0.0
220
0.0
230
1.0
  2
SOLID
 70
     1
 71
     0
 91
        1
 92
        0
 93
        4
 72
     1
 10
1.78674116880336
 20
-35.80000000000002
 11
-1.659534075033754
 21
-35.79999999999999
 72
     1
 10
-1.659534075033775
 20
-35.79999999999999
 11
-8.70797097692303
 21
-44.20000000000001
 72
     1
 10
-8.707970976923036
 20
-44.20000000000001
 11
-5.261695733085752
 21
-44.20000000000001
 72
     1
 10
-5.26169573308573
 20
-44.20000000000001
 11
1.786741168803353
 21
-35.80000000000002
 97
        0
 75
     0
 76
     1
 98
        1
 10
8.98574757041655
 20
-0.001074928723888
  0
HATCH
  5
3BA
330
1F
100
AcDbEntity
  8
중심선
100
AcDbHatch
 10
0.0
 20
0.0
 30
0.0
210
0.0
220
0.0
230
1.0
  2
SOLID
 70
     1
 71
     0
 91
        1
 92
        0
 93
        6
 72
     3
 10
6.586631599815547
 20
-40.00000000005127
 11
3.960054785062283
 21
1.540882976769353E-10
 40
0.3939339440162628
 50
17.09539180608459
 51
320.0019657685078
 73
     0
 72
     1
 10
8.269631255516146
 20
-38.58789400463829
 11
10.57493312921719
 21
-36.65356729459037
 72
     3
 10
6.586631599762711
 20
-40.00000000000014
 11
6.600054785286829
 21
-1.278976924368180E-13
 40
0.636358354079598
 50
39.99873849337402
 51
368.4976242363724
 73
     1
 72
     1
 10
13.01196409166332
 20
-39.03999999993002
 11
5.266698906598627
 21
-39.03999999992999
 72
     1
 10
5.266698906598606
 20
-39.03999999992999
 11
5.266673862152672
 21
-40.95999999992991
 72
     1
 10
5.266673862152686
 20
-40.95999999992991
 11
9.708053631624722
 21
-40.95999999992988
 97
        0
 75
     0
 76
     1
 98
        1
 10
8.98574757041655
 20
-0.001074928723888
  0
DIMENSION
  5
3BB
330
1F
100
AcDbEntity
  8
치수문자_일반주서
100
AcDbDimension
  2
*D8
 10
27.14592921947279
 20
2.500000000000044
 30
0.0
 11
27.14592921947275
 21
13.42711822363192
 31
0.0
 70
   160
  1
%%c<>
 71
     2
 42
5.000000000000001
 52
-270.0
  3
SLDDIMSTYLE2
100
AcDbAlignedDimension
 13
17.14592921947281
 23
-2.499999999999994
 33
0.0
 14
17.14592921947281
 24
2.500000000000007
 34
0.0
 50
90.0000000000002
100
AcDbRotatedDimension
1001
PE_URL
1000

  0
DIMENSION
  5
3BC
330
1F
100
AcDbEntity
  8
치수문자_일반주서
100
AcDbDimension
  2
*D9
 10
17.14592921947281
 20
31.00000000000003
 30
0.0
 11
-12.85407078052719
 21
31.00000000000003
 31
0.0
 70
   160
  1
<>
 71
     2
 42
60.0
  3
SLDDIMSTYLE2
100
AcDbAlignedDimension
 13
-42.85407078052719
 23
2.500000000000007
 33
0.0
 14
17.14592921947281
 24
2.500000000000007
 34
0.0
 50
-0.0000000000000068
100
AcDbRotatedDimension
1001
PE_URL
1000

  0
DIMENSION
  5
3BD
330
1F
100
AcDbEntity
  8
치수문자_일반주서
100
AcDbDimension
  2
*D10
 10
-52.85407078052719
 20
-3.000000000000025
 30
0.0
 11
-52.85407078052725
 21
12.66649999999997
 31
0.0
 70
   160
  1
%%c<>
 71
     2
 42
5.999999999999993
 52
-270.0
  3
SLDDIMSTYLE2
100
AcDbAlignedDimension
 13
-42.35407078052719
 23
3.000000000000007
 33
0.0
 14
-42.35407078052719
 24
-2.999999999999986
 34
0.0
 50
90.0000000000002
100
AcDbRotatedDimension
1001
PE_URL
1000

  0
DIMENSION
  5
3BE
330
1F
100
AcDbEntity
  8
치수문자_일반주서
100
AcDbDimension
  2
*D11
 10
17.14592921947281
 20
16.78544754509491
 30
0.0
 11
13.14592921947281
 21
16.78544754509491
 31
0.0
 70
   160
  1
<>
 71
     2
 42
8.000000000000004
  3
SLDDIMSTYLE2
100
AcDbAlignedDimension
 13
9.145929219472805
 23
1.963034946823164
 33
0.0
 14
17.14592921947281
 24
2.500000000000007
 34
0.0
100
AcDbRotatedDimension
1001
PE_URL
1000

  0
DIMENSION
  5
3BF
330
1F
100
AcDbEntity
  8
치수문자_일반주서
100
AcDbDimension
  2
*D12
 10
2.145929214352066
 20
25.84600157995483
 30
0.0
 11
9.645929216912435
 21
25.84600157995483
 31
0.0
 70
   160
  1
<>
 71
     2
 42
15.00000000512074
  3
SLDDIMSTYLE2
100
AcDbAlignedDimension
 13
17.14592921947281
 23
2.500000000000007
 33
0.0
 14
2.145929214352066
 24
2.425000000000011
 34
0.0
 50
-0.0000000000000271
100
AcDbRotatedDimension
1001
PE_URL
1000

  0
INSERT
  5
3C0
330
1F
100
AcDbEntity
  8
외형선
100
AcDbBlockReference
  2
SW_DOWELSYMBOL_0
 10
0.0
 20
0.0
 30
0.0
  0
LINE
  5
595
330
1F
100
AcDbEntity
  8
0
  6
Continuous
 62
     1
370
    25
100
AcDbLine
 10
12.14274879817995
 20
2.500000000000007
 30
0.0
 11
11.72628212824628
 21
2.500000000000007
 31
0.0
1001
PE_URL
1000

  0
LINE
  5
596
330
1F
100
AcDbEntity
  8
0
  6
Continuous
 62
     1
370
    25
100
AcDbLine
 10
11.72628212824625
 20
-2.499999999999993
 30
0.0
 11
12.14274879817995
 21
-2.499999999999993
 31
0.0
1001
PE_URL
1000

  0
ARC
  5
597
330
1F
100
AcDbEntity
  8
0
  6
Continuous
 62
     1
370
    25
100
AcDbCircle
 10
16.94592921947279
 20
-2.29999999999999
 30
0.0
 40
0.2000000000000028
100
AcDbArc
 50
270.5734170956237
 51
0.0
1001
PE_URL
1000

  0
LWPOLYLINE
  5
598
330
1F
100
AcDbEntity
  8
0
  6
Continuous
 62
     1
370
    25
100
AcDbPolyline
 90
        3
 70
   128
 43
0.0
 10
17.14592921947283
 20
2.300000000000011
 10
17.14208627555345
 20
2.339018064403234
 10
17.13992251181153
 20
2.348647739182667
1001
PE_URL
1000

  0
LINE
  5
599
330
1F
100
AcDbEntity
  8
0
  6
Continuous
 62
     1
370
    25
100
AcDbLine
 10
16.97166326482224
 20
2.498337487404569
 30
0.0
 11
16.94592921947279
 21
2.500000000000014
 31
0.0
1001
PE_URL
1000

  0
SPLINE
  5
59E
330
1F
100
AcDbEntity
  8
0
  6
Continuous
 62
     4
370
    25
100
AcDbSpline
210
0.0
220
0.0
230
1.0
 70
    24
 71
     3
 72
    10
 73
     6
 74
     0
 42
0.000000001
 43
0.00000001
 40
0.0
 40
0.0
 40
0.0
 40
0.0
 40
0.5
 40
0.5
 40
1.0
 40
1.0
 40
1.0
 40
1.0
 10
9.145929219472833
 20
1.62994547927962
 30
0.0
 10
9.145929219472805
 20
1.470645258934809
 30
0.0
 10
9.145929219472833
 20
1.295863649057871
 30
0.0
 10
9.145929219472833
 20
0.9119655619021927
 30
0.0
 10
9.145929219472833
 20
0.7051900478124935
 30
0.0
 10
9.145929219472833
 20
0.4915134047697123
 30
0.0
  0
SPLINE
  5
59F
330
1F
100
AcDbEntity
  8
0
  6
Continuous
 62
     4
370
    25
100
AcDbSpline
210
0.0
220
0.0
230
1.0
 70
     8
 71
     3
 72
    10
 73
     6
 74
     0
 42
0.000000001
 43
0.00000001
 40
0.0
 40
0.0
 40
0.0
 40
0.0
 40
0.5
 40
0.5
 40
1.0
 40
1.0
 40
1.0
 40
1.0
 10
8.567168443573422
 20
-1.13801918789752
 30
0.0
 10
8.46556522866581
 20
-1.072475048013892
 30
0.0
 10
8.38502674173219
 20
-0.9829231061981218
 30
0.0
 10
8.280006243391568
 20
-0.7733465106490769
 30
0.0
 10
8.25588002066533
 20
-0.6536412600356982
 30
0.0
 10
8.255880020665131
 20
-0.5311125982339533
 30
0.0
  0
SPLINE
  5
5A0
330
1F
100
AcDbEntity
  8
0
  6
Continuous
 62
     4
370
    25
100
AcDbSpline
210
0.0
220
0.0
230
1.0
 70
     8
 71
     3
 72
    14
 73
    10
 74
     0
 42
0.000000001
 43
0.00000001
 40
0.0
 40
0.0
 40
0.0
 40
0.0
 40
0.25
 40
0.25
 40
0.5
 40
0.5
 40
0.75
 40
0.75
 40
1.0
 40
1.0
 40
1.0
 40
1.0
 10
8.255880020669025
 20
0.979791145101899
 30
0.0
 10
8.255880020669025
 20
1.084086144451121
 30
0.0
 10
8.275465251000554
 20
1.184164852862729
 30
0.0
 10
8.361656636161825
 20
1.36166327426929
 30
0.0
 10
8.428583664901936
 20
1.438727944264748
 30
0.0
 10
8.597107600158154
 20
1.55629799546746
 30
0.0
 10
8.699175687941619
 20
1.597783310298347
 30
0.0
 10
8.91843134263874
 20
1.642462406475538
 30
0.0
 10
9.033690209777518
 20
1.64582014107701
 30
0.0
 10
9.145929219472805
 20
1.629945479279556
 30
0.0
  0
LINE
  5
5A1
330
1F
100
AcDbEntity
  8
0
  6
Continuous
 62
     4
370
    25
100
AcDbLine
 10
8.255880020669025
 20
2.425000000000004
 30
0.0
 11
8.255880020669025
 21
2.366124343308776
 31
0.0
  0
SPLINE
  5
5A2
330
1F
100
AcDbEntity
  8
0
  6
Continuous
 62
     4
370
    25
100
AcDbSpline
210
0.0
220
0.0
230
1.0
 70
     8
 71
     3
 72
    10
 73
     6
 74
     0
 42
0.000000001
 43
0.00000001
 40
0.0
 40
0.0
 40
0.0
 40
0.0
 40
0.5000000000000002
 40
0.5000000000000002
 40
1.0
 40
1.0
 40
1.0
 40
1.0
 10
8.567168443573422
 20
2.14138677682876
 30
0.0
 10
8.46556522866581
 20
2.176219572869591
 30
0.0
 10
8.385026741732162
 20
2.219712804119645
 30
0.0
 10
8.280006243391597
 20
2.301129709498738
 30
0.0
 10
8.25588002066533
 20
2.338620921473698
 30
0.0
 10
8.255880020665131
 20
2.366124343308528
 30
0.0
  0
SPLINE
  5
5A3
330
1F
100
AcDbEntity
  8
0
  6
Continuous
 62
     4
370
    25
100
AcDbSpline
210
0.0
220
0.0
230
1.0
 70
     8
 71
     3
 72
     8
 73
     4
 74
     0
 42
0.000000001
 43
0.00000001
 40
0.0
 40
0.0
 40
0.0
 40
0.0
 40
1.0
 40
1.0
 40
1.0
 40
1.0
 10
9.145929219472833
 20
1.91069522667722
 30
0.0
 10
8.951510823774214
 20
1.997976421402505
 30
0.0
 10
8.760991964721853
 20
2.074937942643558
 30
0.0
 10
8.567168443573422
 20
2.14138677682876
 30
0.0
  0
LINE
  5
5A4
330
1F
100
AcDbEntity
  8
0
  6
Continuous
 62
     4
370
    25
100
AcDbLine
 10
9.145929219472833
 20
1.754130693720548
 30
0.0
 11
9.145929219472833
 21
1.62994547927962
 31
0.0
  0
SPLINE
  5
5A5
330
1F
100
AcDbEntity
  8
0
  6
Continuous
 62
     4
370
    25
100
AcDbSpline
210
0.0
220
0.0
230
1.0
 70
     8
 71
     3
 72
     8
 73
     4
 74
     0
 42
0.000000001
 43
0.00000001
 40
0.0
 40
0.0
 40
0.0
 40
0.0
 40
1.0
 40
1.0
 40
1.0
 40
1.0
 10
9.145929219472833
 20
-1.493274506161825
 30
0.0
 10
8.951510823774214
 20
-1.381595266040783
 30
0.0
 10
8.760991964721853
 20
-1.263054561969518
 30
0.0
 10
8.567168443573422
 20
-1.13801918789752
 30
0.0
  0
LINE
  5
5A6
330
1F
100
AcDbEntity
  8
0
  6
Continuous
 62
     4
370
    25
100
AcDbLine
 10
9.145929219472833
 20
-1.493274506172163
 30
0.0
 11
9.145929219472833
 21
-1.551541585505511
 31
0.0
  0
LINE
  5
5A7
330
1F
100
AcDbEntity
  8
0
  6
Continuous
 62
     4
370
    25
100
AcDbLine
 10
9.145929219472833
 20
-1.781298826516071
 30
0.0
 11
9.145929219472833
 21
-1.795522969659807
 31
0.0
  0
SPLINE
  5
5A8
330
1F
100
AcDbEntity
  8
0
  6
Continuous
 62
     4
370
    25
100
AcDbSpline
210
0.0
220
0.0
230
1.0
 70
     8
 71
     3
 72
    14
 73
    10
 74
     0
 42
0.000000001
 43
0.00000001
 40
0.0
 40
0.0
 40
0.0
 40
0.0
 40
0.2500000000000001
 40
0.2500000000000001
 40
0.5000000000000002
 40
0.5000000000000002
 40
0.7500000000000001
 40
0.7500000000000001
 40
1.0
 40
1.0
 40
1.0
 40
1.0
 10
8.255880020669025
 20
-2.218250281636386
 30
0.0
 10
8.255880020669025
 20
-2.172183650793727
 30
0.0
 10
8.275465251000554
 20
-2.11878517907661
 30
0.0
 10
8.361656636161825
 20
-2.009320820908485
 30
0.0
 10
8.428583664901936
 20
-1.953528267855887
 30
0.0
 10
8.597107600158154
 20
-1.861222001864441
 30
0.0
 10
8.699175687941619
 20
-1.824449198966747
 30
0.0
 10
8.91843134263874
 20
-1.784332824781558
 30
0.0
 10
9.033690209777518
 20
-1.781112219327468
 30
0.0
 10
9.145929219472805
 20
-1.795522969659864
 30
0.0
  0
LINE
  5
5A9
330
1F
100
AcDbEntity
  8
0
  6
Continuous
 62
     4
370
    25
100
AcDbLine
 10
8.255880020669025
 20
-2.218250281636386
 30
0.0
 11
8.255880020669025
 21
-2.42499999999999
 31
0.0
  0
SPLINE
  5
5AA
330
1F
100
AcDbEntity
  8
0
  6
Continuous
 62
     4
370
    25
100
AcDbSpline
210
0.0
220
0.0
230
1.0
 70
     8
 71
     3
 72
    10
 73
     6
 74
     0
 42
0.000000001
 43
0.00000001
 40
0.0
 40
0.0
 40
0.0
 40
0.0
 40
0.5000000000000002
 40
0.5000000000000002
 40
1.0
 40
1.0
 40
1.0
 40
1.0
 10
8.567168443573422
 20
-2.141386776828732
 30
0.0
 10
8.46556522866581
 20
-2.176219572869563
 30
0.0
 10
8.38502674173219
 20
-2.219712804119617
 30
0.0
 10
8.280006243391597
 20
-2.301129709498717
 30
0.0
 10
8.25588002066533
 20
-2.338620921473677
 30
0.0
 10
8.25588002066516
 20
-2.366124343308499
 30
0.0
  0
SPLINE
  5
5AB
330
1F
100
AcDbEntity
  8
0
  6
Continuous
 62
     4
370
    25
100
AcDbSpline
210
0.0
220
0.0
230
1.0
 70
     8
 71
     3
 72
     8
 73
     4
 74
     0
 42
0.000000001
 43
0.00000001
 40
0.0
 40
0.0
 40
0.0
 40
0.0
 40
1.0
 40
1.0
 40
1.0
 40
1.0
 10
9.145929219472833
 20
-1.910695226677198
 30
0.0
 10
8.951510823774214
 20
-1.997976421402477
 30
0.0
 10
8.760991964721853
 20
-2.07493794264353
 30
0.0
 10
8.567168443573422
 20
-2.141386776828732
 30
0.0
  0
LINE
  5
5AC
330
1F
100
AcDbEntity
  8
0
  6
Continuous
 62
     4
370
    25
100
AcDbLine
 10
8.255880020669025
 20
0.979791145101899
 30
0.0
 11
8.255880020669025
 21
-0.5311125982328377
 31
0.0
  0
SPLINE
  5
5AD
330
1F
100
AcDbEntity
  8
0
  6
Continuous
 62
     4
370
    25
100
AcDbSpline
210
0.0
220
0.0
230
1.0
 70
    24
 71
     3
 72
    10
 73
     6
 74
     0
 42
0.000000001
 43
0.00000001
 40
0.0
 40
0.0
 40
0.0
 40
0.0
 40
0.5
 40
0.5
 40
1.0
 40
1.0
 40
1.0
 40
1.0
 10
9.145929219472833
 20
0.491513404769691
 30
0.0
 10
9.145929219472833
 20
0.1840360751126653
 30
0.0
 10
9.145929219472833
 20
-0.162561686797865
 30
0.0
 10
9.145929219472833
 20
-0.8589272048634342
 30
0.0
 10
9.145929219472805
 20
-1.206140735299293
 30
0.0
 10
9.145929219472833
 20
-1.493274506172177
 30
0.0
  0
SPLINE
  5
5AE
330
1F
100
AcDbEntity
  8
0
  6
Continuous
 62
     4
370
    25
100
AcDbSpline
210
0.0
220
0.0
230
1.0
 70
    24
 71
     3
 72
     9
 73
     5
 74
     0
 42
0.000000001
 43
0.00000001
 40
0.0
 40
0.0
 40
0.0
 40
0.0
 40
0.5
 40
1.0
 40
1.0
 40
1.0
 40
1.0
 10
9.145929219472833
 20
-1.836890913148537
 30
0.0
 10
9.145929219472833
 20
-1.848864296521533
 30
0.0
 10
9.145929219472833
 20
-1.873143547274275
 30
0.0
 10
9.145929219472833
 20
-1.89807245216069
 30
0.0
 10
9.145929219472833
 20
-1.910695226686805
 30
0.0
  0
SPLINE
  5
5AF
330
1F
100
AcDbEntity
  8
0
  6
Continuous
 62
     1
370
    25
100
AcDbSpline
210
0.0
220
0.0
230
1.0
 70
     8
 71
     3
 72
    12
 73
     8
 74
     0
 42
0.000000001
 43
0.00000001
 40
0.0
 40
0.0
 40
0.0
 40
0.0
 40
0.2500000000000026
 40
0.2500000000000026
 40
0.5000000000000051
 40
0.5000000000000051
 40
1.0
 40
1.0
 40
1.0
 40
1.0
 10
17.14592921947283
 20
-2.293141383059456
 30
0.0
 10
17.14592921947283
 20
-2.321953557746944
 30
0.0
 10
17.13960415068195
 20
-2.351024917359432
 30
0.0
 10
17.11586911258186
 20
-2.402067920876213
 30
0.0
 10
17.09852403265126
 20
-2.423998750834926
 30
0.0
 10
17.03968827530431
 20
-2.473111191899406
 30
0.0
 10
16.9922241344938
 20
-2.485341733656036
 30
0.0
 10
16.94592921947284
 20
-2.48105245160194
 30
0.0
1001
PE_URL
1000

  0
SPLINE
  5
5B0
330
1F
100
AcDbEntity
  8
0
  6
Continuous
 62
     1
370
    25
100
AcDbSpline
210
0.0
220
0.0
230
1.0
 70
     8
 71
     3
 72
    34
 73
    30
 74
     0
 42
0.000000001
 43
0.00000001
 40
0.0
 40
0.0
 40
0.0
 40
0.0
 40
0.0625
 40
0.0625
 40
0.125
 40
0.125
 40
0.1875
 40
0.1875
 40
0.25
 40
0.25
 40
0.3749999999999999
 40
0.3749999999999999
 40
0.4999999999999998
 40
0.4999999999999998
 40
0.5624999999999998
 40
0.5624999999999998
 40
0.6249999999999998
 40
0.6249999999999998
 40
0.6874999999999998
 40
0.6874999999999998
 40
0.7499999999999998
 40
0.7499999999999998
 40
0.8124999999999998
 40
0.8124999999999998
 40
0.8749999999999998
 40
0.8749999999999998
 40
0.9374999999999999
 40
0.9374999999999999
 40
1.0
 40
1.0
 40
1.0
 40
1.0
 10
16.94592921947279
 20
-2.48105245159843
 30
0.0
 10
16.78360936710149
 20
-2.4660133132938
 30
0.0
 10
16.61955320683782
 20
-2.441953850089433
 30
0.0
 10
16.29325993727107
 20
-2.376481590071229
 30
0.0
 10
16.13283532664548
 20
-2.335271419245252
 30
0.0
 10
15.80925399178224
 20
-2.236239756184681
 30
0.0
 10
15.64536604869747
 20
-2.178267612869661
 30
0.0
 10
15.31866941571266
 20
-2.047128647534805
 30
0.0
 10
15.15708249885702
 20
-1.974170997051523
 30
0.0
 10
14.67359372777526
 20
-1.735178789166021
 30
0.0
 10
14.34145208899787
 20
-1.546596569864214
 30
0.0
 10
13.69957468646092
 20
-1.134990660438454
 30
0.0
 10
13.36750017967557
 20
-0.907333001942277
 30
0.0
 10
12.88392889360878
 20
-0.5545178726757243
 30
0.0
 10
12.72240000230371
 20
-0.4344238622172441
 30
0.0
 10
12.39571583866831
 20
-0.1910697078072232
 30
0.0
 10
12.23181902224266
 20
-0.068123633123399
 30
0.0
 10
11.90819066634532
 20
0.1763338453790979
 30
0.0
 10
11.74780188519998
 20
0.2980138268945964
 30
0.0
 10
11.42152936908744
 20
0.5397259449625622
 30
0.0
 10
11.25746853927623
 20
0.6592882555237338
 30
0.0
 10
10.9327898990384
 20
0.891987721253436
 30
0.0
 10
10.77299578275097
 20
1.00495947967606
 30
0.0
 10
10.44733758720415
 20
1.224282626605628
 30
0.0
 10
10.28321599605928
 20
1.330195098409668
 30
0.0
 10
9.957686447463999
 20
1.531106081987922
 30
0.0
 10
9.797940328405076
 20
1.625819382425298
 30
0.0
 10
9.473097853357046
 20
1.803960638830816
 30
0.0
 10
9.309018881100059
 20
1.887132065400927
 30
0.0
 10
9.145929219472833
 20
1.963034946823171
 30
0.0
  0
SPLINE
  5
5B1
330
1F
100
AcDbEntity
  8
0
  6
Continuous
 62
     1
370
    25
100
AcDbSpline
210
0.0
220
0.0
230
1.0
 70
     8
 71
     3
 72
    18
 73
    14
 74
     0
 42
0.000000001
 43
0.00000001
 40
0.0
 40
0.0
 40
0.0
 40
0.0
 40
0.0715140888903385
 40
0.1672167645408342
 40
0.262612497609382
 40
0.3581205494377984
 40
0.4539044963410861
 40
0.5493526657856901
 40
0.6393297625727838
 40
0.7296758273899822
 40
0.8196572535448224
 40
0.9096564138005552
 40
0.9999999999999999
 40
0.9999999999999999
 40
0.9999999999999999
 40
0.9999999999999999
 10
9.329645392274898
 20
1.866822689770736
 30
0.0
 10
9.51121828213084
 20
1.95587964980961
 30
0.0
 10
9.935778416240908
 20
2.164115774307803
 30
0.0
 10
10.60310753718517
 20
2.374698927357741
 30
0.0
 10
11.33000479162953
 20
2.502734207731649
 30
0.0
 10
12.05755618506896
 20
2.507354052292413
 30
0.0
 10
12.7864923507486
 20
2.393019107189254
 30
0.0
 10
13.49994493484485
 20
2.167752020344942
 30
0.0
 10
14.1992978929359
 20
1.849522221714714
 30
0.0
 10
14.88666177144844
 20
1.460549904375007
 30
0.0
 10
15.57223165186932
 20
1.007460516061776
 30
0.0
 10
16.25802408167388
 20
0.5115004605361619
 30
0.0
 10
16.71633573943157
 20
0.1671661111287577
 30
0.0
 10
16.94592921947279
 20
-0.0053298754777771
 30
0.0
  0
SPLINE
  5
5B2
330
1F
100
AcDbEntity
  8
0
  6
Continuous
 62
     1
370
    25
100
AcDbSpline
210
0.0
220
0.0
230
1.0
 70
     8
 71
     3
 72
    10
 73
     6
 74
     0
 42
0.000000001
 43
0.00000001
 40
0.0
 40
0.0
 40
0.0
 40
0.0
 40
0.5
 40
0.5
 40
1.0
 40
1.0
 40
1.0
 40
1.0
 10
16.94592921947279
 20
-0.0053298754777842
 30
0.0
 10
16.99512374678508
 20
-0.0424210049063731
 30
0.0
 10
17.04252465480542
 20
-0.080122737370111
 30
0.0
 10
17.11822540642905
 20
-0.143405187066648
 30
0.0
 10
17.14592921947281
 20
-0.1686120528528221
 30
0.0
 10
17.14592921947281
 20
-0.1774897104063271
 30
0.0
1001
PE_URL
1000

  0
LINE
  5
5B3
330
1F
100
AcDbEntity
  8
0
  6
Continuous
 62
     1
370
    25
100
AcDbLine
 10
17.14592921947283
 20
-0.921859054068797
 30
0.0
 11
17.14592921947283
 21
-0.1774897104063271
 31
0.0
1001
PE_URL
1000

  0
SPLINE
  5
5B4
330
1F
100
AcDbEntity
  8
0
  6
Continuous
 62
     1
370
    25
100
AcDbSpline
210
0.0
220
0.0
230
1.0
 70
     8
 71
     3
 72
     8
 73
     4
 74
     0
 42
0.000000001
 43
0.00000001
 40
0.0
 40
0.0
 40
0.0
 40
0.0
 40
1.0
 40
1.0
 40
1.0
 40
1.0
 10
17.14592921947283
 20
-0.921859054068797
 30
0.0
 10
17.05538065021162
 20
-0.9701207637426776
 30
0.0
 10
16.96546103592024
 20
-1.024463564665247
 30
0.0
 10
16.87609800765304
 20
-1.084187753069479
 30
0.0
1001
PE_URL
1000

  0
SPLINE
  5
5B5
330
1F
100
AcDbEntity
  8
0
  6
Continuous
 62
     1
370
    25
100
AcDbSpline
210
0.0
220
0.0
230
1.0
 70
     8
 71
     3
 72
     8
 73
     4
 74
     0
 42
0.000000001
 43
0.00000001
 40
0.0
 40
0.0
 40
0.0
 40
0.0
 40
1.0
 40
1.0
 40
1.0
 40
1.0
 10
17.14592921947283
 20
-1.141693461979408
 30
0.0
 10
17.05670084842995
 20
-1.123817933587787
 30
0.0
 10
16.96661005087387
 20
-1.104623452577009
 30
0.0
 10
16.87609800765321
 20
-1.084187753069067
 30
0.0
1001
PE_URL
1000

  0
LINE
  5
5B6
330
1F
100
AcDbEntity
  8
0
  6
Continuous
 62
     1
370
    25
100
AcDbLine
 10
17.14592921947283
 20
-2.293141383059456
 30
0.0
 11
17.14592921947281
 21
-1.141693461979841
 31
0.0
1001
PE_URL
1000

  0
SPLINE
  5
5B7
330
1F
100
AcDbEntity
  8
0
  6
Continuous
 62
     1
370
    25
100
AcDbSpline
210
0.0
220
0.0
230
1.0
 70
     8
 71
     3
 72
    15
 73
    11
 74
     0
 42
0.000000001
 43
0.00000001
 40
0.0
 40
0.0
 40
0.0
 40
0.0
 40
0.0940197774377509
 40
0.229048865651823
 40
0.3637122575452201
 40
0.4909569506607065
 40
0.6183841510974899
 40
0.7453231685290954
 40
0.8726232487198513
 40
0.9999999999999999
 40
0.9999999999999999
 40
0.9999999999999999
 40
0.9999999999999999
 10
14.54078378562448
 20
-1.865207736049285
 30
0.0
 10
14.37164582526665
 20
-1.949077036417776
 30
0.0
 10
13.95959573310105
 20
-2.153397538294463
 30
0.0
 10
13.3051679738463
 20
-2.364538960729185
 30
0.0
 10
12.59210879417751
 20
-2.496575595919651
 30
0.0
 10
11.89199882621918
 20
-2.510436518113821
 30
0.0
 10
11.20502777348028
 20
-2.418614813095445
 30
0.0
 10
10.51975808306435
 20
-2.221422871225272
 30
0.0
 10
9.833157826022557
 20
-1.935035998976858
 30
0.0
 10
9.375051393013933
 20
-1.677078754484029
 30
0.0
 10
9.145929219472833
 20
-1.548061302904699
 30
0.0
  0
SPLINE
  5
5B8
330
1F
100
AcDbEntity
  8
0
  6
Continuous
 62
     4
370
    25
100
AcDbSpline
210
0.0
220
0.0
230
1.0
 70
    24
 71
     3
 72
    14
 73
    10
 74
     0
 42
0.000000001
 43
0.00000001
 40
0.0
 40
0.0
 40
0.0
 40
0.0
 40
0.25
 40
0.25
 40
0.5
 40
0.5
 40
0.75
 40
0.75
 40
1.0
 40
1.0
 40
1.0
 40
1.0
 10
9.145929219472833
 20
1.754130693720548
 30
0.0
 10
9.145929219472833
 20
1.596313758149968
 30
0.0
 10
9.145929219472833
 20
1.405087120663616
 30
0.0
 10
9.145929219472833
 20
0.9422736613460572
 30
0.0
 10
9.145929219472805
 20
0.6696039059491952
 30
0.0
 10
9.145929219472833
 20
0.0584710618478681
 30
0.0
 10
9.145929219472833
 20
-0.2804642819408514
 30
0.0
 10
9.145929219472833
 20
-0.9503242884389991
 30
0.0
 10
9.145929219472833
 20
-1.278792051228692
 30
0.0
 10
9.145929219472833
 20
-1.548061302904685
 30
0.0
  0
SPLINE
  5
5B9
330
1F
100
AcDbEntity
  8
0
  6
Continuous
 62
     1
370
    25
100
AcDbSpline
210
0.0
220
0.0
230
1.0
 70
     8
 71
     3
 72
    34
 73
    30
 74
     0
 42
0.000000001
 43
0.00000001
 40
0.0
 40
0.0
 40
0.0
 40
0.0
 40
0.0625
 40
0.0625
 40
0.125
 40
0.125
 40
0.1875000000000001
 40
0.1875000000000001
 40
0.2500000000000001
 40
0.2500000000000001
 40
0.3750000000000001
 40
0.3750000000000001
 40
0.5000000000000001
 40
0.5000000000000001
 40
0.5625000000000001
 40
0.5625000000000001
 40
0.6250000000000001
 40
0.6250000000000001
 40
0.6875000000000001
 40
0.6875000000000001
 40
0.7500000000000002
 40
0.7500000000000002
 40
0.8125000000000002
 40
0.8125000000000002
 40
0.8750000000000002
 40
0.8750000000000002
 40
0.9375000000000001
 40
0.9375000000000001
 40
1.0
 40
1.0
 40
1.0
 40
1.0
 10
16.94592921947279
 20
-2.499994318479011
 30
0.0
 10
16.78360936710149
 20
-2.500255235821157
 30
0.0
 10
16.61955320683782
 20
-2.491481632291141
 30
0.0
 10
16.29325993727107
 20
-2.456057869744939
 30
0.0
 10
16.13283532664545
 20
-2.429556127222362
 30
0.0
 10
15.80925399178224
 20
-2.359244892237243
 30
0.0
 10
15.64536604869747
 20
-2.315302943914688
 30
0.0
 10
15.31866941571266
 20
-2.211103101366355
 30
0.0
 10
15.15708249885699
 20
-2.151022858986799
 30
0.0
 10
14.67359372777526
 20
-1.948601198797334
 30
0.0
 10
14.34145208899787
 20
-1.781874524853954
 30
0.0
 10
13.69957468646092
 20
-1.40619054201477
 30
0.0
 10
13.36750017967557
 20
-1.193004366078313
 30
0.0
 10
12.88392889360878
 20
-0.8552664390258329
 30
0.0
 10
12.72240000230371
 20
-0.7391438861693658
 30
0.0
 10
12.39571583866831
 20
-0.5015339636041602
 30
0.0
 10
12.23181902224266
 20
-0.3803468666444161
 30
0.0
 10
11.90819066634532
 20
-0.1371452564824125
 30
0.0
 10
11.74780188519998
 20
-0.0149734915230439
 30
0.0
 10
11.42152936908744
 20
0.2299776994087566
 30
0.0
 10
11.25746853927623
 20
0.3522916413029122
 30
0.0
 10
10.9327898990384
 20
0.5926589591418931
 30
0.0
 10
10.77299578275097
 20
0.7105281983934262
 30
0.0
 10
10.44733758720415
 20
0.9417865881138923
 30
0.0
 10
10.28321599605928
 20
1.054727064827503
 30
0.0
 10
9.957686447463999
 20
1.271587138980138
 30
0.0
 10
9.797940328405076
 20
1.37518325193512
 30
0.0
 10
9.473097853357046
 20
1.572919232884558
 30
0.0
 10
9.309018881100059
 20
1.666791960200797
 30
0.0
 10
9.145929219472833
 20
1.754130693720548
 30
0.0
  0
SPLINE
  5
5BA
330
1F
100
AcDbEntity
  8
0
  6
Continuous
 62
     1
370
    25
100
AcDbSpline
210
0.0
220
0.0
230
1.0
 70
     8
 71
     3
 72
    12
 73
     8
 74
     0
 42
0.000000001
 43
0.00000001
 40
0.0
 40
0.0
 40
0.0
 40
0.0
 40
0.2499999999999974
 40
0.2499999999999974
 40
0.4999999999999949
 40
0.4999999999999949
 40
1.0
 40
1.0
 40
1.0
 40
1.0
 10
17.14592921947283
 20
0.1774897104063413
 30
0.0
 10
17.14592921947283
 20
0.173314789516148
 30
0.0
 10
17.13960415068195
 20
0.1740408717876321
 30
0.0
 10
17.11586911258183
 20
0.1856881235339927
 30
0.0
 10
17.09852403265126
 20
0.1965523537919438
 30
0.0
 10
17.03968827530434
 20
0.2367372952474156
 30
0.0
 10
16.9922241344938
 20
0.2725707714314183
 30
0.0
 10
16.94592921947284
 20
0.3072112179226281
 30
0.0
1001
PE_URL
1000

  0
LINE
  5
5BB
330
1F
100
AcDbEntity
  8
0
  6
Continuous
 62
     1
370
    25
100
AcDbLine
 10
17.14592921947283
 20
-0.1774897104063271
 30
0.0
 11
17.14592921947283
 21
0.1774897104063413
 31
0.0
1001
PE_URL
1000

  0
LINE
  5
5BC
330
1F
100
AcDbEntity
  8
0
  6
Continuous
 62
     4
370
    25
100
AcDbLine
 10
9.145929219472833
 20
1.754130693720548
 30
0.0
 11
9.145929219472833
 21
1.963034946823171
 31
0.0
  0
SPLINE
  5
5BD
330
1F
100
AcDbEntity
  8
0
  6
Continuous
 62
     1
370
    25
100
AcDbSpline
210
0.0
220
0.0
230
1.0
 70
     8
 71
     3
 72
    14
 73
    10
 74
     0
 42
0.000000001
 43
0.00000001
 40
0.0
 40
0.0
 40
0.0
 40
0.0
 40
0.1518757266624725
 40
0.3033372499729359
 40
0.4545988244532895
 40
0.6063298760774036
 40
0.7579925049660122
 40
0.9092443892802331
 40
1.0
 40
1.0
 40
1.0
 40
1.0
 10
16.94592921947279
 20
0.3072112179224575
 30
0.0
 10
16.70255126612116
 20
0.4873250765799639
 30
0.0
 10
16.2164591123842
 20
0.8470615780460875
 30
0.0
 10
15.48877606920107
 20
1.342765064554087
 30
0.0
 10
14.76189996181796
 20
1.775170166469593
 30
0.0
 10
14.03343736120084
 20
2.122435133282401
 30
0.0
 10
13.30516450265159
 20
2.363678271157951
 30
0.0
 10
12.67559837208395
 20
2.490119275856806
 30
0.0
 10
12.28807467014488
 20
2.488298758198326
 30
0.0
 10
12.14274879817995
 20
2.487616043012586
 30
0.0
  0
SPLINE
  5
5BE
330
1F
100
AcDbEntity
  8
0
  6
Continuous
 62
     1
370
    25
100
AcDbSpline
210
0.0
220
0.0
230
1.0
 70
     8
 71
     3
 72
    11
 73
     7
 74
     0
 42
0.000000001
 43
0.00000001
 40
0.0
 40
0.0
 40
0.0
 40
0.0
 40
0.1439609945486677
 40
0.4289063244870507
 40
0.7139078132289325
 40
1.0
 40
1.0
 40
1.0
 40
1.0
 10
14.54078378562448
 20
1.865207736049307
 30
0.0
 10
14.65630822508487
 20
1.924562650362752
 30
0.0
 10
15.00049286254674
 20
2.101400120944533
 30
0.0
 10
15.57223224180871
 20
2.303709714927585
 30
0.0
 10
16.25802393351822
 20
2.470817425105373
 30
0.0
 10
16.71633568998348
 20
2.490256312294221
 30
0.0
 10
16.94592921947279
 20
2.499994318479033
 30
0.0
  0
SPLINE
  5
5BF
330
1F
100
AcDbEntity
  8
0
  6
Continuous
 62
     1
370
    25
100
AcDbSpline
210
0.0
220
0.0
230
1.0
 70
     8
 71
     3
 72
    10
 73
     6
 74
     0
 42
0.000000001
 43
0.00000001
 40
0.0
 40
0.0
 40
0.0
 40
0.0
 40
0.5
 40
0.5
 40
1.0
 40
1.0
 40
1.0
 40
1.0
 10
16.94592921947279
 20
2.499994318479033
 30
0.0
 10
16.99512374678508
 20
2.499915241858851
 30
0.0
 10
17.04252465480542
 20
2.481366017840294
 30
0.0
 10
17.11822540642905
 20
2.409666147763723
 30
0.0
 10
17.14592921947281
 20
2.354408321278086
 30
0.0
 10
17.14592921947281
 20
2.293141383059471
 30
0.0
1001
PE_URL
1000

  0
LINE
  5
5C0
330
1F
100
AcDbEntity
  8
0
  6
Continuous
 62
     1
370
    25
100
AcDbLine
 10
17.14592921947283
 20
1.618759911491743
 30
0.0
 11
17.14592921947283
 21
2.293141383059471
 31
0.0
1001
PE_URL
1000

  0
SPLINE
  5
5C1
330
1F
100
AcDbEntity
  8
0
  6
Continuous
 62
     1
370
    25
100
AcDbSpline
210
0.0
220
0.0
230
1.0
 70
     8
 71
     3
 72
    14
 73
    10
 74
     0
 42
0.000000001
 43
0.00000001
 40
0.0
 40
0.0
 40
0.0
 40
0.0
 40
0.2500000000000001
 40
0.2500000000000001
 40
0.5
 40
0.5
 40
0.75
 40
0.75
 40
1.0
 40
1.0
 40
1.0
 40
1.0
 10
17.14592921947283
 20
1.618759911491743
 30
0.0
 10
17.10698567241545
 20
1.520863672445856
 30
0.0
 10
17.05991542514917
 20
1.429924361526922
 30
0.0
 10
16.94691186375672
 20
1.264193622229193
 30
0.0
 10
16.8805985435886
 20
1.189811880881038
 30
0.0
 10
16.73605568548584
 20
1.067994899634783
 30
0.0
 10
16.65567020903998
 20
1.01864941020289
 30
0.0
 10
16.48866845666376
 20
0.947638970566075
 30
0.0
 10
16.40167787960954
 20
0.9253568377058272
 30
0.0
 10
16.31314766652005
 20
0.9153149298173489
 30
0.0
1001
PE_URL
1000

  0
SPLINE
  5
5C2
330
1F
100
AcDbEntity
  8
0
  6
Continuous
 62
     1
370
    25
100
AcDbSpline
210
0.0
220
0.0
230
1.0
 70
     8
 71
     3
 72
     8
 73
     4
 74
     0
 42
0.000000001
 43
0.00000001
 40
0.0
 40
0.0
 40
0.0
 40
0.0
 40
1.0
 40
1.0
 40
1.0
 40
1.0
 10
17.14592921947283
 20
0.4822510305231731
 30
0.0
 10
16.85949121539957
 20
0.6484995069350674
 30
0.0
 10
16.58186732376004
 20
0.79292850615861
 30
0.0
 10
16.31314766651994
 20
0.9153149298172423
 30
0.0
1001
PE_URL
1000

  0
LINE
  5
5C3
330
1F
100
AcDbEntity
  8
0
  6
Continuous
 62
     1
370
    25
100
AcDbLine
 10
17.14592921947283
 20
0.1774897104063413
 30
0.0
 11
17.14592921947283
 21
0.4822510305231731
 31
0.0
1001
PE_URL
1000

  0
SPLINE
  5
5C4
330
1F
100
AcDbEntity
  8
0
  6
Continuous
 62
     1
370
    25
100
AcDbSpline
210
0.0
220
0.0
230
1.0
 70
     8
 71
     3
 72
    11
 73
     7
 74
     0
 42
0.000000001
 43
0.00000001
 40
0.0
 40
0.0
 40
0.0
 40
0.0
 40
0.282264875234673
 40
0.5647424629633584
 40
0.8463140739308872
 40
1.0
 40
1.0
 40
1.0
 40
1.0
 10
9.145929219472833
 20
-1.781298826516085
 30
0.0
 10
9.38872675715109
 20
-1.901637056153938
 30
0.0
 10
9.874504802739892
 20
-2.142404201332134
 30
0.0
 10
10.60312936847058
 20
-2.371946773665471
 30
0.0
 10
11.2197538665464
 20
-2.49422011715604
 30
0.0
 10
11.59410260702529
 20
-2.487484617141028
 30
0.0
 10
11.72628212824625
 20
-2.485106366406093
 30
0.0
  0
LINE
  5
5C5
330
1F
100
AcDbEntity
  8
0
  6
Continuous
 62
     4
370
    25
100
AcDbLine
 10
9.145929219472833
 20
-1.781298826516071
 30
0.0
 11
9.145929219472833
 21
-1.548061302904685
 31
0.0
  0
LINE
  5
5C6
330
1F
100
AcDbEntity
  8
0
  6
Continuous
 62
     1
370
    25
100
AcDbLine
 10
9.145929219472833
 20
-1.953678571441102
 30
0.0
 11
9.318510942703966
 21
-1.861639361988544
 31
0.0
1001
PE_URL
1000

  0
LINE
  5
5C7
330
1F
100
AcDbEntity
  8
0
  6
Continuous
 62
     4
370
    25
100
AcDbLine
 10
9.145929219472833
 20
-1.836893355415405
 30
0.0
 11
9.145929219472833
 21
-1.953678571441102
 31
0.0
  0
LINE
  5
5C8
330
1F
100
AcDbEntity
  8
0
  6
Continuous
 62
     1
370
    25
100
AcDbLine
 10
17.14592921947283
 20
0.4822510305231731
 30
0.0
 11
17.14592921947283
 21
1.618759911491743
 31
0.0
1001
PE_URL
1000

  0
LINE
  5
5C9
330
1F
100
AcDbEntity
  8
0
  6
Continuous
 62
     1
370
    25
100
AcDbLine
 10
17.14592921947283
 20
-2.29999999999999
 30
0.0
 11
17.14592921947283
 21
-2.293141383059456
 31
0.0
1001
PE_URL
1000

  0
LINE
  5
5CA
330
1F
100
AcDbEntity
  8
0
  6
Continuous
 62
     1
370
    25
100
AcDbLine
 10
17.14592921947283
 20
-0.921859054068797
 30
0.0
 11
17.14592921947283
 21
-1.141693461979848
 31
0.0
1001
PE_URL
1000

  0
LINE
  5
5CB
330
1F
100
AcDbEntity
  8
0
  6
Continuous
 62
     1
370
    25
100
AcDbLine
 10
17.14592921947283
 20
2.293141383059471
 30
0.0
 11
17.14592921947283
 21
2.300000000000011
 31
0.0
1001
PE_URL
1000

  0
DIMENSION
  5
617
330
1F
100
AcDbEntity
  8
치수문자_일반주서
100
AcDbDimension
  2
*D24
 10
16.94592921947279
 20
-2.29999999999999
 30
0.0
 11
27.31284993810389
 21
-15.76237335365846
 31
0.0
 70
   164
 71
     5
 42
0.2000000000000026
  3
SLDDIMSTYLE1
100
AcDbRadialDimension
 15
17.06795453984487
 25
-2.458460787540923
 35
0.0
 40
0.0
1001
ACAD_DSTYLE_DIMRADIAL_EXTENSION
1070
   387
1070
     1
1070
   388
1040
4.722396996690545
1070
   390
1040
0.0
1001
PE_URL
1000

  0
ENDSEC
  0
SECTION
  2
OBJECTS
  0
DICTIONARY
  5
C
330
0
100
AcDbDictionary
281
     1
  3
ACAD_DETAILVIEWSTYLE
350
207
  3
ACAD_GROUP
350
D
  3
ACAD_IMAGE_VARS
350
1FD
  3
ACAD_LAYOUT
350
1A
  3
ACAD_MLINESTYLE
350
17
  3
ACAD_PLOTSETTINGS
350
19
  3
ACAD_PLOTSTYLENAME
350
E
  3
ACAD_SCALELIST
350
47
  3
ACAD_SECTIONVIEWSTYLE
350
208
  3
AcDbVariableDictionary
350
202
  3
APPDATA
350
13F
  3
DWGPROPS
350
646
  0
DICTIONARY
  5
1C4
330
2
100
AcDbDictionary
280
     1
281
     1
  3
ACAD_LAYERSTATES
360
1C5
  0
DICTIONARY
  5
207
102
{ACAD_REACTORS
330
C
102
}
330
C
100
AcDbDictionary
281
     1
  0
DICTIONARY
  5
D
102
{ACAD_REACTORS
330
C
102
}
330
C
100
AcDbDictionary
281
     1
  0
RASTERVARIABLES
  5
1FD
102
{ACAD_REACTORS
330
C
102
}
330
C
100
AcDbRasterVariables
 90
        0
 70
     1
 71
     1
 72
     1
  0
DICTIONARY
  5
1A
102
{ACAD_REACTORS
330
C
102
}
330
C
100
AcDbDictionary
281
     1
  3
Layout1
350
1E
  3
Layout2
350
26
  3
Model
350
22
  0
DICTIONARY
  5
17
102
{ACAD_REACTORS
330
C
102
}
330
C
100
AcDbDictionary
281
     1
  3
Standard
350
18
  0
DICTIONARY
  5
19
102
{ACAD_REACTORS
330
C
102
}
330
C
100
AcDbDictionary
281
     1
  0
ACDBDICTIONARYWDFLT
  5
E
102
{ACAD_REACTORS
330
C
102
}
330
C
100
AcDbDictionary
281
     1
  3
Normal
350
F
100
AcDbDictionaryWithDefault
340
F
  0
DICTIONARY
  5
47
102
{ACAD_REACTORS
330
C
102
}
330
C
100
AcDbDictionary
281
     1
  3
A0
350
48
  3
A1
350
49
  3
A2
350
4A
  3
A3
350
4B
  3
A4
350
4C
  3
A5
350
4D
  3
A6
350
4E
  3
A7
350
4F
  3
A8
350
50
  3
A9
350
51
  3
B0
350
52
  3
B1
350
53
  3
B2
350
54
  3
B3
350
55
  3
B4
350
56
  3
B5
350
57
  3
B6
350
58
  3
B7
350
59
  3
B8
350
5A
  3
B9
350
5B
  3
C0
350
5C
  3
C1
350
5D
  3
C2
350
5E
  3
C3
350
5F
  3
C4
350
60
  3
C5
350
61
  3
C6
350
62
  3
C7
350
63
  3
C8
350
64
  3
C9
350
65
  3
D0
350
66
  3
D1
350
67
  3
D2
350
68
  0
DICTIONARY
  5
208
102
{ACAD_REACTORS
330
C
102
}
330
C
100
AcDbDictionary
281
     1
  0
DICTIONARY
  5
202
102
{ACAD_REACTORS
330
C
102
}
330
C
100
AcDbDictionary
281
     1
  0
DICTIONARY
  5
13F
102
{ACAD_REACTORS
330
C
102
}
330
C
100
AcDbDictionary
281
     1
  0
XRECORD
  5
646
102
{ACAD_REACTORS
330
C
102
}
330
C
100
AcDbXrecord
280
     1
  1
DWGPROPS COOKIE
  2

  3

  4

  6

  7

  8
12015018
  9

300
=
301
=
302
=
303
=
304
=
305
=
306
=
307
=
308
=
309
=
 40
0.0
 41
2458213.091881366
 42
2458263.246225162
  1

 90
        0
  0
DICTIONARY
  5
1C5
102
{ACAD_REACTORS
330
1C4
102
}
330
1C4
100
AcDbDictionary
281
     1
  0
LAYOUT
  5
1E
102
{ACAD_REACTORS
330
1A
102
}
330
1A
100
AcDbPlotSettings
  1

  2
none_device
  4

  6

 40
0.0
 41
0.0
 42
0.0
 43
0.0
 44
0.0
 45
0.0
 46
0.0
 47
0.0
 48
0.0
 49
0.0
140
0.0
141
0.0
142
1.0
143
1.0
 70
   688
 72
     1
 73
     0
 74
     5
  7

 75
    16
147
1.0
148
0.0
149
0.0
100
AcDbLayout
  1
Layout1
 70
     1
 71
     1
 10
0.0
 20
0.0
 11
420.0
 21
297.0
 12
0.0
 22
0.0
 32
0.0
 14
1.000000000000000E+20
 24
1.000000000000000E+20
 34
1.000000000000000E+20
 15
-1.000000000000000E+20
 25
-1.000000000000000E+20
 35
-1.000000000000000E+20
146
0.0
 13
0.0
 23
0.0
 33
0.0
 16
1.0
 26
0.0
 36
0.0
 17
0.0
 27
1.0
 37
0.0
 76
     0
330
1B
  0
LAYOUT
  5
26
102
{ACAD_REACTORS
330
1A
102
}
330
1A
100
AcDbPlotSettings
  1

  2
none_device
  4

  6

 40
0.0
 41
0.0
 42
0.0
 43
0.0
 44
0.0
 45
0.0
 46
0.0
 47
0.0
 48
0.0
 49
0.0
140
0.0
141
0.0
142
1.0
143
1.0
 70
   688
 72
     1
 73
     0
 74
     5
  7

 75
    16
147
1.0
148
0.0
149
0.0
100
AcDbLayout
  1
Layout2
 70
     1
 71
     2
 10
0.0
 20
0.0
 11
0.0
 21
0.0
 12
0.0
 22
0.0
 32
0.0
 14
0.0
 24
0.0
 34
0.0
 15
0.0
 25
0.0
 35
0.0
146
0.0
 13
0.0
 23
0.0
 33
0.0
 16
1.0
 26
0.0
 36
0.0
 17
0.0
 27
1.0
 37
0.0
 76
     0
330
23
  0
LAYOUT
  5
22
102
{ACAD_REACTORS
330
1A
102
}
330
1A
100
AcDbPlotSettings
  1

  2
none_device
  4
ANSI_A_(11.00_x_8.50_Inches)
  6

 40
6.35
 41
19.05
 42
6.35000508
 43
19.05000254
 44
279.4
 45
215.9
 46
146.9802854435656
 47
93.79062655845452
 48
0.0
 49
0.0
140
0.0
141
0.0
142
0.0868510734123721
143
1.0
 70
  1696
 72
     0
 73
     0
 74
     0
  7

 75
     0
147
0.0235690232323232
148
0.0
149
0.0
100
AcDbLayout
  1
Model
 70
     1
 71
     0
 10
0.0
 20
0.0
 11
420.0
 21
297.0
 12
0.0
 22
0.0
 32
0.0
 14
-57.22907078052725
 24
-49.97180738881174
 34
0.0
 15
41.36454284291506
 25
35.37500000000003
 35
0.0
146
0.0
 13
0.0
 23
0.0
 33
0.0
 16
1.0
 26
0.0
 36
0.0
 17
0.0
 27
1.0
 37
0.0
 76
     0
330
1F
331
29
  0
MLINESTYLE
  5
18
102
{ACAD_REACTORS
330
17
102
}
330
17
100
AcDbMlineStyle
  2
Standard
 70
     0
  3

 62
   256
 51
90.0
 52
90.0
 71
     2
 49
0.5
 62
   256
  6
BYLAYER
 49
-0.5
 62
   256
  6
BYLAYER
  0
ACDBPLACEHOLDER
  5
F
102
{ACAD_REACTORS
330
E
102
}
330
E
  0
SCALE
  5
48
102
{ACAD_REACTORS
330
47
102
}
330
47
100
AcDbScale
 70
     0
300
1:1
140
1.0
141
1.0
290
     1
  0
SCALE
  5
49
102
{ACAD_REACTORS
330
47
102
}
330
47
100
AcDbScale
 70
     0
300
1:2
140
1.0
141
2.0
290
     0
  0
SCALE
  5
4A
102
{ACAD_REACTORS
330
47
102
}
330
47
100
AcDbScale
 70
     0
300
1:4
140
1.0
141
4.0
290
     0
  0
SCALE
  5
4B
102
{ACAD_REACTORS
330
47
102
}
330
47
100
AcDbScale
 70
     0
300
1:5
140
1.0
141
5.0
290
     0
  0
SCALE
  5
4C
102
{ACAD_REACTORS
330
47
102
}
330
47
100
AcDbScale
 70
     0
300
1:8
140
1.0
141
8.0
290
     0
  0
SCALE
  5
4D
102
{ACAD_REACTORS
330
47
102
}
330
47
100
AcDbScale
 70
     0
300
1:10
140
1.0
141
10.0
290
     0
  0
SCALE
  5
4E
102
{ACAD_REACTORS
330
47
102
}
330
47
100
AcDbScale
 70
     0
300
1:16
140
1.0
141
16.0
290
     0
  0
SCALE
  5
4F
102
{ACAD_REACTORS
330
47
102
}
330
47
100
AcDbScale
 70
     0
300
1:20
140
1.0
141
20.0
290
     0
  0
SCALE
  5
50
102
{ACAD_REACTORS
330
47
102
}
330
47
100
AcDbScale
 70
     0
300
1:30
140
1.0
141
30.0
290
     0
  0
SCALE
  5
51
102
{ACAD_REACTORS
330
47
102
}
330
47
100
AcDbScale
 70
     0
300
1:40
140
1.0
141
40.0
290
     0
  0
SCALE
  5
52
102
{ACAD_REACTORS
330
47
102
}
330
47
100
AcDbScale
 70
     0
300
1:50
140
1.0
141
50.0
290
     0
  0
SCALE
  5
53
102
{ACAD_REACTORS
330
47
102
}
330
47
100
AcDbScale
 70
     0
300
1:100
140
1.0
141
100.0
290
     0
  0
SCALE
  5
54
102
{ACAD_REACTORS
330
47
102
}
330
47
100
AcDbScale
 70
     0
300
2:1
140
2.0
141
1.0
290
     0
  0
SCALE
  5
55
102
{ACAD_REACTORS
330
47
102
}
330
47
100
AcDbScale
 70
     0
300
4:1
140
4.0
141
1.0
290
     0
  0
SCALE
  5
56
102
{ACAD_REACTORS
330
47
102
}
330
47
100
AcDbScale
 70
     0
300
8:1
140
8.0
141
1.0
290
     0
  0
SCALE
  5
57
102
{ACAD_REACTORS
330
47
102
}
330
47
100
AcDbScale
 70
     0
300
10:1
140
10.0
141
1.0
290
     0
  0
SCALE
  5
58
102
{ACAD_REACTORS
330
47
102
}
330
47
100
AcDbScale
 70
     0
300
100:1
140
100.0
141
1.0
290
     0
  0
SCALE
  5
59
102
{ACAD_REACTORS
330
47
102
}
330
47
100
AcDbScale
 70
     0
300
1/128" = 1'-0"
140
0.0078125
141
12.0
290
     0
  0
SCALE
  5
5A
102
{ACAD_REACTORS
330
47
102
}
330
47
100
AcDbScale
 70
     0
300
1/64" = 1'-0"
140
0.015625
141
12.0
290
     0
  0
SCALE
  5
5B
102
{ACAD_REACTORS
330
47
102
}
330
47
100
AcDbScale
 70
     0
300
1/32" = 1'-0"
140
0.03125
141
12.0
290
     0
  0
SCALE
  5
5C
102
{ACAD_REACTORS
330
47
102
}
330
47
100
AcDbScale
 70
     0
300
1/16" = 1'-0"
140
0.0625
141
12.0
290
     0
  0
SCALE
  5
5D
102
{ACAD_REACTORS
330
47
102
}
330
47
100
AcDbScale
 70
     0
300
3/32" = 1'-0"
140
0.09375
141
12.0
290
     0
  0
SCALE
  5
5E
102
{ACAD_REACTORS
330
47
102
}
330
47
100
AcDbScale
 70
     0
300
1/8" = 1'-0"
140
0.125
141
12.0
290
     0
  0
SCALE
  5
5F
102
{ACAD_REACTORS
330
47
102
}
330
47
100
AcDbScale
 70
     0
300
3/16" = 1'-0"
140
0.1875
141
12.0
290
     0
  0
SCALE
  5
60
102
{ACAD_REACTORS
330
47
102
}
330
47
100
AcDbScale
 70
     0
300
1/4" = 1'-0"
140
0.25
141
12.0
290
     0
  0
SCALE
  5
61
102
{ACAD_REACTORS
330
47
102
}
330
47
100
AcDbScale
 70
     0
300
3/8" = 1'-0"
140
0.375
141
12.0
290
     0
  0
SCALE
  5
62
102
{ACAD_REACTORS
330
47
102
}
330
47
100
AcDbScale
 70
     0
300
1/2" = 1'-0"
140
0.5
141
12.0
290
     0
  0
SCALE
  5
63
102
{ACAD_REACTORS
330
47
102
}
330
47
100
AcDbScale
 70
     0
300
3/4" = 1'-0"
140
0.75
141
12.0
290
     0
  0
SCALE
  5
64
102
{ACAD_REACTORS
330
47
102
}
330
47
100
AcDbScale
 70
     0
300
1" = 1'-0"
140
1.0
141
12.0
290
     0
  0
SCALE
  5
65
102
{ACAD_REACTORS
330
47
102
}
330
47
100
AcDbScale
 70
     0
300
1-1/2" = 1'-0"
140
1.5
141
12.0
290
     0
  0
SCALE
  5
66
102
{ACAD_REACTORS
330
47
102
}
330
47
100
AcDbScale
 70
     0
300
3" = 1'-0"
140
3.0
141
12.0
290
     0
  0
SCALE
  5
67
102
{ACAD_REACTORS
330
47
102
}
330
47
100
AcDbScale
 70
     0
300
6" = 1'-0"
140
6.0
141
12.0
290
     0
  0
SCALE
  5
68
102
{ACAD_REACTORS
330
47
102
}
330
47
100
AcDbScale
 70
     0
300
1'-0" = 1'-0"
140
12.0
141
12.0
290
     0
  0
ENDSEC
  0
EOF
