  0
SECTION
  2
HEADER
  9
$ACADVER
  1
AC1015
  9
$ACADMAINTVER
 70
     6
  9
$DWGCODEPAGE
  3
ANSI_949
  9
$INSBASE
 10
0.0
 20
0.0
 30
0.0
  9
$EXTMIN
 10
-50.36304536910213
 20
-49.97180738881175
 30
0.0
  9
$EXTMAX
 10
45.43328952420009
 20
34.37500000000006
 30
0.0
  9
$LIMMIN
 10
0.0
 20
0.0
  9
$LIMMAX
 10
420.0
 20
297.0
  9
$ORTHOMODE
 70
     0
  9
$REGENMODE
 70
     1
  9
$FILLMODE
 70
     1
  9
$QTEXTMODE
 70
     0
  9
$MIRRTEXT
 70
     1
  9
$LTSCALE
 40
1.0
  9
$ATTMODE
 70
     1
  9
$TEXTSIZE
 40
3.5
  9
$TRACEWID
 40
1.0
  9
$TEXTSTYLE
  7
Standard
  9
$CLAYER
  8
0
  9
$CELTYPE
  6
ByLayer
  9
$CECOLOR
 62
   256
  9
$CELTSCALE
 40
1.0
  9
$DISPSILH
 70
     0
  9
$DIMSCALE
 40
1.0
  9
$DIMASZ
 40
3.302
  9
$DIMEXO
 40
1.0
  9
$DIMDLI
 40
3.75
  9
$DIMRND
 40
0.0
  9
$DIMDLE
 40
0.0
  9
$DIMEXE
 40
1.0
  9
$DIMTP
 40
0.0
  9
$DIMTM
 40
0.0
  9
$DIMTXT
 40
3.5
  9
$DIMCEN
 40
2.5
  9
$DIMTSZ
 40
0.0
  9
$DIMTOL
 70
     0
  9
$DIMLIM
 70
     0
  9
$DIMTIH
 70
     1
  9
$DIMTOH
 70
     1
  9
$DIMSE1
 70
     0
  9
$DIMSE2
 70
     0
  9
$DIMTAD
 70
     1
  9
$DIMZIN
 70
     0
  9
$DIMBLK
  1

  9
$DIMASO
 70
     1
  9
$DIMSHO
 70
     1
  9
$DIMPOST
  1

  9
$DIMAPOST
  1

  9
$DIMALT
 70
     0
  9
$DIMALTD
 70
     3
  9
$DIMALTF
 40
0.0393700787401575
  9
$DIMLFAC
 40
1.0
  9
$DIMTOFL
 70
     1
  9
$DIMTVP
 40
0.0
  9
$DIMTIX
 70
     0
  9
$DIMSOXD
 70
     0
  9
$DIMSAH
 70
     0
  9
$DIMBLK1
  1

  9
$DIMBLK2
  1

  9
$DIMSTYLE
  2
ISO-25
  9
$DIMCLRD
 70
     0
  9
$DIMCLRE
 70
     0
  9
$DIMCLRT
 70
     0
  9
$DIMTFAC
 40
1.0
  9
$DIMGAP
 40
1.524
  9
$DIMJUST
 70
     0
  9
$DIMSD1
 70
     0
  9
$DIMSD2
 70
     0
  9
$DIMTOLJ
 70
     0
  9
$DIMTZIN
 70
     0
  9
$DIMALTZ
 70
     0
  9
$DIMALTTZ
 70
     0
  9
$DIMUPT
 70
     0
  9
$DIMDEC
 70
     2
  9
$DIMTDEC
 70
     2
  9
$DIMALTU
 70
     2
  9
$DIMALTTD
 70
     3
  9
$DIMTXSTY
  7
Standard
  9
$DIMAUNIT
 70
     0
  9
$DIMADEC
 70
     2
  9
$DIMALTRND
 40
0.0
  9
$DIMAZIN
 70
     0
  9
$DIMDSEP
 70
    44
  9
$DIMATFIT
 70
     3
  9
$DIMFRAC
 70
     0
  9
$DIMLDRBLK
  1

  9
$DIMLUNIT
 70
     2
  9
$DIMLWD
 70
    -2
  9
$DIMLWE
 70
    -2
  9
$DIMTMOVE
 70
     0
  9
$LUNITS
 70
     2
  9
$LUPREC
 70
     2
  9
$SKETCHINC
 40
1.0
  9
$FILLETRAD
 40
10.0
  9
$AUNITS
 70
     0
  9
$AUPREC
 70
     2
  9
$MENU
  1
.
  9
$ELEVATION
 40
0.0
  9
$PELEVATION
 40
0.0
  9
$THICKNESS
 40
0.0
  9
$LIMCHECK
 70
     0
  9
$CHAMFERA
 40
0.0
  9
$CHAMFERB
 40
0.0
  9
$CHAMFERC
 40
0.0
  9
$CHAMFERD
 40
0.0
  9
$SKPOLY
 70
     0
  9
$TDCREATE
 40
2458213.466881366
  9
$TDUCREATE
 40
2458213.091881366
  9
$TDUPDATE
 40
2458267.743335938
  9
$TDUUPDATE
 40
2458267.368335938
  9
$TDINDWG
 40
0.0548987269
  9
$TDUSRTIMER
 40
0.0019538542
  9
$USRTIMER
 70
     1
  9
$ANGBASE
 50
0.0
  9
$ANGDIR
 70
     0
  9
$PDMODE
 70
     0
  9
$PDSIZE
 40
-1.0
  9
$PLINEWID
 40
0.0
  9
$SPLFRAME
 70
     0
  9
$SPLINETYPE
 70
     6
  9
$SPLINESEGS
 70
     8
  9
$HANDSEED
  5
1577
  9
$SURFTAB1
 70
     6
  9
$SURFTAB2
 70
     6
  9
$SURFTYPE
 70
     6
  9
$SURFU
 70
     6
  9
$SURFV
 70
     6
  9
$UCSBASE
  2

  9
$UCSNAME
  2

  9
$UCSORG
 10
0.0
 20
0.0
 30
0.0
  9
$UCSXDIR
 10
1.0
 20
0.0
 30
0.0
  9
$UCSYDIR
 10
0.0
 20
1.0
 30
0.0
  9
$UCSORTHOREF
  2

  9
$UCSORTHOVIEW
 70
     0
  9
$UCSORGTOP
 10
0.0
 20
0.0
 30
0.0
  9
$UCSORGBOTTOM
 10
0.0
 20
0.0
 30
0.0
  9
$UCSORGLEFT
 10
0.0
 20
0.0
 30
0.0
  9
$UCSORGRIGHT
 10
0.0
 20
0.0
 30
0.0
  9
$UCSORGFRONT
 10
0.0
 20
0.0
 30
0.0
  9
$UCSORGBACK
 10
0.0
 20
0.0
 30
0.0
  9
$PUCSBASE
  2

  9
$PUCSNAME
  2

  9
$PUCSORG
 10
0.0
 20
0.0
 30
0.0
  9
$PUCSXDIR
 10
1.0
 20
0.0
 30
0.0
  9
$PUCSYDIR
 10
0.0
 20
1.0
 30
0.0
  9
$PUCSORTHOREF
  2

  9
$PUCSORTHOVIEW
 70
     0
  9
$PUCSORGTOP
 10
0.0
 20
0.0
 30
0.0
  9
$PUCSORGBOTTOM
 10
0.0
 20
0.0
 30
0.0
  9
$PUCSORGLEFT
 10
0.0
 20
0.0
 30
0.0
  9
$PUCSORGRIGHT
 10
0.0
 20
0.0
 30
0.0
  9
$PUCSORGFRONT
 10
0.0
 20
0.0
 30
0.0
  9
$PUCSORGBACK
 10
0.0
 20
0.0
 30
0.0
  9
$USERI1
 70
     0
  9
$USERI2
 70
     0
  9
$USERI3
 70
     0
  9
$USERI4
 70
     0
  9
$USERI5
 70
     0
  9
$USERR1
 40
0.0
  9
$USERR2
 40
0.0
  9
$USERR3
 40
0.0
  9
$USERR4
 40
0.0
  9
$USERR5
 40
0.0
  9
$WORLDVIEW
 70
     1
  9
$SHADEDGE
 70
     3
  9
$SHADEDIF
 70
    70
  9
$TILEMODE
 70
     1
  9
$MAXACTVP
 70
    64
  9
$PINSBASE
 10
0.0
 20
0.0
 30
0.0
  9
$PLIMCHECK
 70
     0
  9
$PEXTMIN
 10
1.000000000000000E+20
 20
1.000000000000000E+20
 30
1.000000000000000E+20
  9
$PEXTMAX
 10
-1.000000000000000E+20
 20
-1.000000000000000E+20
 30
-1.000000000000000E+20
  9
$PLIMMIN
 10
0.0
 20
0.0
  9
$PLIMMAX
 10
0.0
 20
0.0
  9
$UNITMODE
 70
     0
  9
$VISRETAIN
 70
     1
  9
$PLINEGEN
 70
     0
  9
$PSLTSCALE
 70
     1
  9
$TREEDEPTH
 70
  3020
  9
$CMLSTYLE
  2
Standard
  9
$CMLJUST
 70
     0
  9
$CMLSCALE
 40
20.0
  9
$PROXYGRAPHICS
 70
     1
  9
$MEASUREMENT
 70
     1
  9
$CELWEIGHT
370
    -1
  9
$ENDCAPS
280
     0
  9
$JOINSTYLE
280
     0
  9
$LWDISPLAY
290
     1
  9
$INSUNITS
 70
     4
  9
$HYPERLINKBASE
  1

  9
$STYLESHEET
  1

  9
$XEDIT
290
     1
  9
$CEPSNTYPE
380
     0
  9
$PSTYLEMODE
290
     1
  9
$FINGERPRINTGUID
  2
{94B346A6-F221-4E84-A8DD-A9CBEE6E5E59}
  9
$VERSIONGUID
  2
{FAEB1C32-E019-11D5-929B-00C0DF256EC4}
  9
$EXTNAMES
290
     1
  9
$PSVPSCALE
 40
0.0
  9
$OLESTARTUP
290
     0
  0
ENDSEC
  0
SECTION
  2
CLASSES
  0
CLASS
  1
ACDBDICTIONARYWDFLT
  2
AcDbDictionaryWithDefault
  3
ObjectDBX Classes
 90
        0
280
     0
281
     0
  0
CLASS
  1
VISUALSTYLE
  2
AcDbVisualStyle
  3
ObjectDBX Classes
 90
     4095
280
     0
281
     0
  0
CLASS
  1
MATERIAL
  2
AcDbMaterial
  3
ObjectDBX Classes
 90
     1153
280
     0
281
     0
  0
CLASS
  1
SCALE
  2
AcDbScale
  3
ObjectDBX Classes
 90
     1153
280
     0
281
     0
  0
CLASS
  1
SUN
  2
AcDbSun
  3
SCENEOE
 90
     1153
280
     0
281
     0
  0
CLASS
  1
ACDBPLACEHOLDER
  2
AcDbPlaceHolder
  3
ObjectDBX Classes
 90
        0
280
     0
281
     0
  0
CLASS
  1
LAYOUT
  2
AcDbLayout
  3
ObjectDBX Classes
 90
        0
280
     0
281
     0
  0
CLASS
  1
TABLESTYLE
  2
AcDbTableStyle
  3
ObjectDBX Classes
 90
     4095
280
     0
281
     0
  0
CLASS
  1
MLEADERSTYLE
  2
AcDbMLeaderStyle
  3
ACDB_MLEADERSTYLE_CLASS
 90
     4095
280
     0
281
     0
  0
CLASS
  1
RASTERVARIABLES
  2
AcDbRasterVariables
  3
ISM
 90
        0
280
     0
281
     0
  0
CLASS
  1
DICTIONARYVAR
  2
AcDbDictionaryVar
  3
ObjectDBX Classes
 90
        0
280
     0
281
     0
  0
CLASS
  1
DIMASSOC
  2
AcDbDimAssoc
  3
"AcDbDimAssoc|Product Desc:     AcDim ARX App For Dimension|Company:          Autodesk, Inc.|WEB Address:      www.autodesk.com"
 90
        0
280
     0
281
     0
  0
ENDSEC
  0
SECTION
  2
TABLES
  0
TABLE
  2
VPORT
  5
8
330
0
100
AcDbSymbolTable
 70
     1
  0
VPORT
  5
29
330
8
100
AcDbSymbolTableRecord
100
AcDbViewportTableRecord
  2
*Active
 70
     0
 10
0.0
 20
0.0
 11
1.0
 21
1.0
 12
-2.464877922451024
 22
-7.798403694405849
 13
0.0
 23
0.0
 14
10.0
 24
10.0
 15
10.0
 25
10.0
 16
0.0
 26
0.0
 36
1.0
 17
0.0
 27
0.0
 37
0.0
 40
86.03374353658805
 41
2.174863387978142
 42
50.0
 43
0.0
 44
0.0
 50
0.0
 51
0.0
 71
    16
 72
  2000
 73
     1
 74
     3
 75
     0
 76
     0
 77
     0
 78
     0
281
     0
 65
     1
110
0.0
120
0.0
130
0.0
111
1.0
121
0.0
131
0.0
112
0.0
122
1.0
132
0.0
 79
     0
146
0.0
  0
ENDTAB
  0
TABLE
  2
LTYPE
  5
5
330
0
100
AcDbSymbolTable
 70
     6
  0
LTYPE
  5
14
330
5
100
AcDbSymbolTableRecord
100
AcDbLinetypeTableRecord
  2
ByBlock
 70
     0
  3

 72
    65
 73
     0
 40
0.0
  0
LTYPE
  5
15
330
5
100
AcDbSymbolTableRecord
100
AcDbLinetypeTableRecord
  2
ByLayer
 70
     0
  3

 72
    65
 73
     0
 40
0.0
  0
LTYPE
  5
16
330
5
100
AcDbSymbolTableRecord
100
AcDbLinetypeTableRecord
  2
Continuous
 70
     0
  3
Solid line
 72
    65
 73
     0
 40
0.0
  0
LTYPE
  5
6A
330
5
100
AcDbSymbolTableRecord
100
AcDbLinetypeTableRecord
  2
HIDDEN
 70
     0
  3
Hidden __ __ __ __ __ __ __ __ __ __ __ __ __ __
 72
    65
 73
     2
 40
1.905
 49
1.27
 74
     0
 49
-0.635
 74
     0
  0
LTYPE
  5
6B
330
5
100
AcDbSymbolTableRecord
100
AcDbLinetypeTableRecord
  2
PHANTOM
 70
     0
  3
Phantom ______  __  __  ______  __  __  ______
 72
    65
 73
     6
 40
12.7
 49
6.35
 74
     0
 49
-1.27
 74
     0
 49
1.27
 74
     0
 49
-1.27
 74
     0
 49
1.27
 74
     0
 49
-1.27
 74
     0
  0
LTYPE
  5
6C
330
5
100
AcDbSymbolTableRecord
100
AcDbLinetypeTableRecord
  2
CENTER
 70
     0
  3
Center ____ _ ____ _ ____ _ ____ _ ____ _ ____
 72
    65
 73
     4
 40
10.16
 49
6.35
 74
     0
 49
-1.27
 74
     0
 49
1.27
 74
     0
 49
-1.27
 74
     0
  0
LTYPE
  5
6D
330
5
100
AcDbSymbolTableRecord
100
AcDbLinetypeTableRecord
  2
CENTERX2
 70
     0
  3
Center (2x) ________  __  ________  __  _____
 72
    65
 73
     4
 40
20.32
 49
12.7
 74
     0
 49
-2.54
 74
     0
 49
2.54
 74
     0
 49
-2.54
 74
     0
  0
LTYPE
  5
6E
330
5
100
AcDbSymbolTableRecord
100
AcDbLinetypeTableRecord
  2
DOT2
 70
     0
  3
Dot (.5x) ........................................
 72
    65
 73
     2
 40
0.635
 49
0.0
 74
     0
 49
-0.635
 74
     0
  0
ENDTAB
  0
TABLE
  2
LAYER
  5
2
102
{ACAD_XDICTIONARY
360
1C4
102
}
330
0
100
AcDbSymbolTable
 70
    18
  0
LAYER
  5
10
330
2
100
AcDbSymbolTableRecord
100
AcDbLayerTableRecord
  2
0
 70
     0
 62
     7
  6
Continuous
370
    -3
390
F
  0
LAYER
  5
6F
330
2
100
AcDbSymbolTableRecord
100
AcDbLayerTableRecord
  2
FORMAT
 70
     0
 62
     2
  6
Continuous
370
    -3
390
F
  0
LAYER
  5
70
330
2
100
AcDbSymbolTableRecord
100
AcDbLayerTableRecord
  2
외형선
 70
     0
 62
   100
  6
Continuous
370
    30
390
F
  0
LAYER
  5
71
330
2
100
AcDbSymbolTableRecord
100
AcDbLayerTableRecord
  2
숨은선
 70
     0
 62
     2
  6
HIDDEN
370
    15
390
F
  0
LAYER
  5
72
330
2
100
AcDbSymbolTableRecord
100
AcDbLayerTableRecord
  2
중심선
 70
     0
 62
     1
  6
CENTERX2
370
    -3
390
F
  0
LAYER
  5
73
330
2
100
AcDbSymbolTableRecord
100
AcDbLayerTableRecord
  2
파단선
 70
     0
 62
     4
  6
Continuous
370
    -3
390
F
  0
LAYER
  5
74
330
2
100
AcDbSymbolTableRecord
100
AcDbLayerTableRecord
  2
해칭선
 70
     0
 62
     4
  6
Continuous
370
    -3
390
F
  0
LAYER
  5
75
330
2
100
AcDbSymbolTableRecord
100
AcDbLayerTableRecord
  2
가는실선
 70
     0
 62
     4
  6
Continuous
370
    -3
390
F
  0
LAYER
  5
76
330
2
100
AcDbSymbolTableRecord
100
AcDbLayerTableRecord
  2
치수_보조선
 70
     0
 62
     4
  6
Continuous
370
    -3
390
F
  0
LAYER
  5
77
330
2
100
AcDbSymbolTableRecord
100
AcDbLayerTableRecord
  2
치수문자_일반주서
 70
     0
 62
     7
  6
Continuous
370
    15
390
F
  0
LAYER
  5
78
330
2
100
AcDbSymbolTableRecord
100
AcDbLayerTableRecord
  2
개별주서
 70
     0
 62
   100
  6
Continuous
370
    30
390
F
  0
LAYER
  5
79
330
2
100
AcDbSymbolTableRecord
100
AcDbLayerTableRecord
  2
중간선
 70
     0
 62
     2
  6
Continuous
370
    15
390
F
  0
LAYER
  5
7A
330
2
100
AcDbSymbolTableRecord
100
AcDbLayerTableRecord
  2
윤곽선
 70
     0
 62
     3
  6
Continuous
370
    40
390
F
  0
LAYER
  5
7B
330
2
100
AcDbSymbolTableRecord
100
AcDbLayerTableRecord
  2
중심마크
 70
     0
 62
   100
  6
Continuous
370
    30
390
F
  0
LAYER
  5
7C
330
2
100
AcDbSymbolTableRecord
100
AcDbLayerTableRecord
  2
가상선
 70
     0
 62
     4
  6
PHANTOM
370
    -3
390
F
  0
LAYER
  5
7D
330
2
100
AcDbSymbolTableRecord
100
AcDbLayerTableRecord
  2
특수지정선
 70
     0
 62
     5
  6
CENTERX2
370
    60
390
F
  0
LAYER
  5
141
330
2
100
AcDbSymbolTableRecord
100
AcDbLayerTableRecord
  2
Defpoints
 70
     0
 62
     7
  6
Continuous
290
     0
370
    -3
390
F
  0
LAYER
  5
194
330
2
100
AcDbSymbolTableRecord
100
AcDbLayerTableRecord
  2
CENTER
 70
     0
 62
     2
  6
CENTER
370
    -3
390
F
1001
AcAecLayerStandard
1000

1000

  0
ENDTAB
  0
TABLE
  2
STYLE
  5
3
330
0
100
AcDbSymbolTable
 70
     2
  0
STYLE
  5
11
330
3
100
AcDbSymbolTableRecord
100
AcDbTextStyleTableRecord
  2
Standard
 70
     0
 40
0.0
 41
1.0
 50
0.0
 71
     0
 42
3.5
  3
txt
  4

  0
STYLE
  5
93
330
3
100
AcDbSymbolTableRecord
100
AcDbTextStyleTableRecord
  2
SLDTEXTSTYLE0
 70
     0
 40
0.0
 41
0.75
 50
0.0
 71
     0
 42
3.5
  3
TXT
  4

  0
ENDTAB
  0
TABLE
  2
VIEW
  5
6
330
0
100
AcDbSymbolTable
 70
     0
  0
ENDTAB
  0
TABLE
  2
UCS
  5
7
330
0
100
AcDbSymbolTable
 70
     0
  0
ENDTAB
  0
TABLE
  2
APPID
  5
9
330
0
100
AcDbSymbolTable
 70
     6
  0
APPID
  5
12
330
9
100
AcDbSymbolTableRecord
100
AcDbRegAppTableRecord
  2
ACAD
 70
     0
  0
APPID
  5
14E
330
9
100
AcDbSymbolTableRecord
100
AcDbRegAppTableRecord
  2
ACAD_DSTYLE_DIMFLIPARROW_SYMBOL
 70
     0
  0
APPID
  5
14F
330
9
100
AcDbSymbolTableRecord
100
AcDbRegAppTableRecord
  2
ACAD_DSTYLE_DIMFLIPARROW_WHICH_SYMBOL
 70
     0
  0
APPID
  5
197
330
9
100
AcDbSymbolTableRecord
100
AcDbRegAppTableRecord
  2
AcAecLayerStandard
 70
     0
  0
APPID
  5
1D9
330
9
100
AcDbSymbolTableRecord
100
AcDbRegAppTableRecord
  2
PE_URL
 70
     0
  0
APPID
  5
211
330
9
100
AcDbSymbolTableRecord
100
AcDbRegAppTableRecord
  2
ACAD_DSTYLE_DIMRADIAL_EXTENSION
 70
     0
  0
ENDTAB
  0
TABLE
  2
DIMSTYLE
  5
A
330
0
100
AcDbSymbolTable
 70
     4
100
AcDbDimStyleTable
  0
DIMSTYLE
105
27
330
A
100
AcDbSymbolTableRecord
100
AcDbDimStyleTableRecord
  2
ISO-25
 70
     0
 41
2.5
 42
0.625
 43
3.75
 44
1.25
 73
     0
 74
     0
 77
     1
 78
     8
140
2.5
141
2.5
143
0.03937007874016
147
0.625
171
     3
172
     1
178
     0
271
     2
272
     2
274
     3
278
    44
283
     0
284
     8
340
11
  0
DIMSTYLE
105
DF
102
{ACAD_REACTORS
330
356
330
359
330
DF5
330
F8B
330
1122
330
12C2
330
1459
102
}
330
A
100
AcDbSymbolTableRecord
100
AcDbDimStyleTableRecord
  2
SLDDIMSTYLE0
 70
     0
 41
3.302
 44
0.0
 45
0.000000001
 73
     0
 74
     0
 77
     1
 78
    12
 79
     3
140
3.5
147
0.875
173
     1
178
     0
271
     2
272
     2
276
     2
284
    12
340
93
  0
DIMSTYLE
105
F4
102
{ACAD_REACTORS
330
E02
330
E25
330
F98
330
FBB
330
112F
330
1152
330
12CF
330
12F2
330
1466
330
1569
102
}
330
A
100
AcDbSymbolTableRecord
100
AcDbDimStyleTableRecord
  2
SLDDIMSTYLE1
 70
     0
 41
3.302
 44
0.0
 45
0.000000001
 73
     0
 74
     0
 77
     1
 78
     8
 79
     2
140
3.5
141
0.0
147
0.875
173
     1
178
     0
271
     1
272
     1
276
     2
284
    12
340
93
  0
DIMSTYLE
105
FD
102
{ACAD_REACTORS
330
355
330
357
330
358
330
E0C
330
E19
330
FA2
330
FAF
330
1139
330
1146
330
12D9
330
12E6
330
1470
330
147D
330
1489
102
}
330
A
100
AcDbSymbolTableRecord
100
AcDbDimStyleTableRecord
  2
SLDDIMSTYLE2
 70
     0
 41
3.302
 44
0.0
 45
0.000000001
 73
     0
 74
     0
 77
     1
 78
    12
 79
     3
140
3.5
147
0.875
172
     1
173
     1
178
     0
271
     2
272
     2
276
     2
284
    12
289
     0
340
93
  0
ENDTAB
  0
TABLE
  2
BLOCK_RECORD
  5
1
330
0
100
AcDbSymbolTable
 70
   137
  0
BLOCK_RECORD
  5
1F
330
1
100
AcDbSymbolTableRecord
100
AcDbBlockTableRecord
  2
*Model_Space
340
22
  0
BLOCK_RECORD
  5
1B
330
1
100
AcDbSymbolTableRecord
100
AcDbBlockTableRecord
  2
*Paper_Space
340
1E
  0
BLOCK_RECORD
  5
23
330
1
100
AcDbSymbolTableRecord
100
AcDbBlockTableRecord
  2
*Paper_Space0
340
26
  0
BLOCK_RECORD
  5
7E
330
1
100
AcDbSymbolTableRecord
100
AcDbBlockTableRecord
  2
블럭10
340
0
102
{BLKREFS
331
34D
331
DD8
331
0
331
F6E
331
0
331
1105
331
0
331
12A5
331
0
331
143C
331
0
102
}
  0
BLOCK_RECORD
  5
E0
330
1
100
AcDbSymbolTableRecord
100
AcDbBlockTableRecord
  2
_D
340
0
  0
BLOCK_RECORD
  5
EA
330
1
100
AcDbSymbolTableRecord
100
AcDbBlockTableRecord
  2
_D_1
340
0
  0
BLOCK_RECORD
  5
F5
330
1
100
AcDbSymbolTableRecord
100
AcDbBlockTableRecord
  2
_D_2
340
0
  0
BLOCK_RECORD
  5
FE
330
1
100
AcDbSymbolTableRecord
100
AcDbBlockTableRecord
  2
_D_3
340
0
  0
BLOCK_RECORD
  5
10B
330
1
100
AcDbSymbolTableRecord
100
AcDbBlockTableRecord
  2
_D_4
340
0
  0
BLOCK_RECORD
  5
117
330
1
100
AcDbSymbolTableRecord
100
AcDbBlockTableRecord
  2
SW_DOWELSYMBOL_0
340
0
102
{BLKREFS
331
0
331
E2F
331
0
331
FC5
331
0
331
115C
331
0
331
12FC
331
0
331
1495
331
1528
102
}
  0
BLOCK_RECORD
  5
215
330
1
100
AcDbSymbolTableRecord
100
AcDbBlockTableRecord
  2
*D8
340
0
  0
BLOCK_RECORD
  5
2B0
330
1
100
AcDbSymbolTableRecord
100
AcDbBlockTableRecord
  2
*D9
340
0
  0
BLOCK_RECORD
  5
2C0
330
1
100
AcDbSymbolTableRecord
100
AcDbBlockTableRecord
  2
*D10
340
0
  0
BLOCK_RECORD
  5
2CD
330
1
100
AcDbSymbolTableRecord
100
AcDbBlockTableRecord
  2
*D11
340
0
  0
BLOCK_RECORD
  5
2DD
330
1
100
AcDbSymbolTableRecord
100
AcDbBlockTableRecord
  2
*D12
340
0
  0
BLOCK_RECORD
  5
2EC
330
1
100
AcDbSymbolTableRecord
100
AcDbBlockTableRecord
  2
*D13
340
0
  0
BLOCK_RECORD
  5
342
330
1
100
AcDbSymbolTableRecord
100
AcDbBlockTableRecord
  2
*D14
340
0
  0
BLOCK_RECORD
  5
39C
330
1
100
AcDbSymbolTableRecord
100
AcDbBlockTableRecord
  2
*D15
340
0
  0
BLOCK_RECORD
  5
3AA
330
1
100
AcDbSymbolTableRecord
100
AcDbBlockTableRecord
  2
*D16
340
0
  0
BLOCK_RECORD
  5
3B6
330
1
100
AcDbSymbolTableRecord
100
AcDbBlockTableRecord
  2
*D17
340
0
  0
BLOCK_RECORD
  5
3C4
330
1
100
AcDbSymbolTableRecord
100
AcDbBlockTableRecord
  2
*D18
340
0
  0
BLOCK_RECORD
  5
3D1
330
1
100
AcDbSymbolTableRecord
100
AcDbBlockTableRecord
  2
*D19
340
0
  0
BLOCK_RECORD
  5
3DF
330
1
100
AcDbSymbolTableRecord
100
AcDbBlockTableRecord
  2
*D20
340
0
  0
BLOCK_RECORD
  5
479
330
1
100
AcDbSymbolTableRecord
100
AcDbBlockTableRecord
  2
*D21
340
0
  0
BLOCK_RECORD
  5
486
330
1
100
AcDbSymbolTableRecord
100
AcDbBlockTableRecord
  2
*D22
340
0
  0
BLOCK_RECORD
  5
493
330
1
100
AcDbSymbolTableRecord
100
AcDbBlockTableRecord
  2
*D23
340
0
  0
BLOCK_RECORD
  5
4A0
330
1
100
AcDbSymbolTableRecord
100
AcDbBlockTableRecord
  2
*D24
340
0
  0
BLOCK_RECORD
  5
4AD
330
1
100
AcDbSymbolTableRecord
100
AcDbBlockTableRecord
  2
*D25
340
0
  0
BLOCK_RECORD
  5
512
330
1
100
AcDbSymbolTableRecord
100
AcDbBlockTableRecord
  2
*D26
340
0
  0
BLOCK_RECORD
  5
51F
330
1
100
AcDbSymbolTableRecord
100
AcDbBlockTableRecord
  2
*D27
340
0
  0
BLOCK_RECORD
  5
52B
330
1
100
AcDbSymbolTableRecord
100
AcDbBlockTableRecord
  2
*D28
340
0
  0
BLOCK_RECORD
  5
537
330
1
100
AcDbSymbolTableRecord
100
AcDbBlockTableRecord
  2
*D29
340
0
  0
BLOCK_RECORD
  5
543
330
1
100
AcDbSymbolTableRecord
100
AcDbBlockTableRecord
  2
*D30
340
0
  0
BLOCK_RECORD
  5
61E
330
1
100
AcDbSymbolTableRecord
100
AcDbBlockTableRecord
  2
*D31
340
0
  0
BLOCK_RECORD
  5
62B
330
1
100
AcDbSymbolTableRecord
100
AcDbBlockTableRecord
  2
*D32
340
0
  0
BLOCK_RECORD
  5
637
330
1
100
AcDbSymbolTableRecord
100
AcDbBlockTableRecord
  2
*D33
340
0
  0
BLOCK_RECORD
  5
643
330
1
100
AcDbSymbolTableRecord
100
AcDbBlockTableRecord
  2
*D34
340
0
  0
BLOCK_RECORD
  5
64F
330
1
100
AcDbSymbolTableRecord
100
AcDbBlockTableRecord
  2
*D35
340
0
  0
BLOCK_RECORD
  5
6AA
330
1
100
AcDbSymbolTableRecord
100
AcDbBlockTableRecord
  2
*D36
340
0
  0
BLOCK_RECORD
  5
6B7
330
1
100
AcDbSymbolTableRecord
100
AcDbBlockTableRecord
  2
*D37
340
0
  0
BLOCK_RECORD
  5
6C3
330
1
100
AcDbSymbolTableRecord
100
AcDbBlockTableRecord
  2
*D38
340
0
  0
BLOCK_RECORD
  5
6CF
330
1
100
AcDbSymbolTableRecord
100
AcDbBlockTableRecord
  2
*D39
340
0
  0
BLOCK_RECORD
  5
6DB
330
1
100
AcDbSymbolTableRecord
100
AcDbBlockTableRecord
  2
*D40
340
0
  0
BLOCK_RECORD
  5
7BB
330
1
100
AcDbSymbolTableRecord
100
AcDbBlockTableRecord
  2
*D41
340
0
  0
BLOCK_RECORD
  5
7C8
330
1
100
AcDbSymbolTableRecord
100
AcDbBlockTableRecord
  2
*D42
340
0
  0
BLOCK_RECORD
  5
7D4
330
1
100
AcDbSymbolTableRecord
100
AcDbBlockTableRecord
  2
*D43
340
0
  0
BLOCK_RECORD
  5
7E0
330
1
100
AcDbSymbolTableRecord
100
AcDbBlockTableRecord
  2
*D44
340
0
  0
BLOCK_RECORD
  5
7EC
330
1
100
AcDbSymbolTableRecord
100
AcDbBlockTableRecord
  2
*D45
340
0
  0
BLOCK_RECORD
  5
847
330
1
100
AcDbSymbolTableRecord
100
AcDbBlockTableRecord
  2
*D46
340
0
  0
BLOCK_RECORD
  5
854
330
1
100
AcDbSymbolTableRecord
100
AcDbBlockTableRecord
  2
*D47
340
0
  0
BLOCK_RECORD
  5
860
330
1
100
AcDbSymbolTableRecord
100
AcDbBlockTableRecord
  2
*D48
340
0
  0
BLOCK_RECORD
  5
86C
330
1
100
AcDbSymbolTableRecord
100
AcDbBlockTableRecord
  2
*D49
340
0
  0
BLOCK_RECORD
  5
878
330
1
100
AcDbSymbolTableRecord
100
AcDbBlockTableRecord
  2
*D50
340
0
  0
BLOCK_RECORD
  5
952
330
1
100
AcDbSymbolTableRecord
100
AcDbBlockTableRecord
  2
*D51
340
0
  0
BLOCK_RECORD
  5
95F
330
1
100
AcDbSymbolTableRecord
100
AcDbBlockTableRecord
  2
*D52
340
0
  0
BLOCK_RECORD
  5
96B
330
1
100
AcDbSymbolTableRecord
100
AcDbBlockTableRecord
  2
*D53
340
0
  0
BLOCK_RECORD
  5
977
330
1
100
AcDbSymbolTableRecord
100
AcDbBlockTableRecord
  2
*D54
340
0
  0
BLOCK_RECORD
  5
983
330
1
100
AcDbSymbolTableRecord
100
AcDbBlockTableRecord
  2
*D55
340
0
  0
BLOCK_RECORD
  5
9DE
330
1
100
AcDbSymbolTableRecord
100
AcDbBlockTableRecord
  2
*D56
340
0
  0
BLOCK_RECORD
  5
9EB
330
1
100
AcDbSymbolTableRecord
100
AcDbBlockTableRecord
  2
*D57
340
0
  0
BLOCK_RECORD
  5
9F7
330
1
100
AcDbSymbolTableRecord
100
AcDbBlockTableRecord
  2
*D58
340
0
  0
BLOCK_RECORD
  5
A03
330
1
100
AcDbSymbolTableRecord
100
AcDbBlockTableRecord
  2
*D59
340
0
  0
BLOCK_RECORD
  5
A0F
330
1
100
AcDbSymbolTableRecord
100
AcDbBlockTableRecord
  2
*D60
340
0
  0
BLOCK_RECORD
  5
AE8
330
1
100
AcDbSymbolTableRecord
100
AcDbBlockTableRecord
  2
*D61
340
0
  0
BLOCK_RECORD
  5
AF5
330
1
100
AcDbSymbolTableRecord
100
AcDbBlockTableRecord
  2
*D62
340
0
  0
BLOCK_RECORD
  5
B01
330
1
100
AcDbSymbolTableRecord
100
AcDbBlockTableRecord
  2
*D63
340
0
  0
BLOCK_RECORD
  5
B0D
330
1
100
AcDbSymbolTableRecord
100
AcDbBlockTableRecord
  2
*D64
340
0
  0
BLOCK_RECORD
  5
B19
330
1
100
AcDbSymbolTableRecord
100
AcDbBlockTableRecord
  2
*D65
340
0
  0
BLOCK_RECORD
  5
B74
330
1
100
AcDbSymbolTableRecord
100
AcDbBlockTableRecord
  2
*D66
340
0
  0
BLOCK_RECORD
  5
B81
330
1
100
AcDbSymbolTableRecord
100
AcDbBlockTableRecord
  2
*D67
340
0
  0
BLOCK_RECORD
  5
B8D
330
1
100
AcDbSymbolTableRecord
100
AcDbBlockTableRecord
  2
*D68
340
0
  0
BLOCK_RECORD
  5
B99
330
1
100
AcDbSymbolTableRecord
100
AcDbBlockTableRecord
  2
*D69
340
0
  0
BLOCK_RECORD
  5
BA5
330
1
100
AcDbSymbolTableRecord
100
AcDbBlockTableRecord
  2
*D70
340
0
  0
BLOCK_RECORD
  5
C7F
330
1
100
AcDbSymbolTableRecord
100
AcDbBlockTableRecord
  2
*D71
340
0
  0
BLOCK_RECORD
  5
C8C
330
1
100
AcDbSymbolTableRecord
100
AcDbBlockTableRecord
  2
*D72
340
0
  0
BLOCK_RECORD
  5
C98
330
1
100
AcDbSymbolTableRecord
100
AcDbBlockTableRecord
  2
*D73
340
0
  0
BLOCK_RECORD
  5
CA4
330
1
100
AcDbSymbolTableRecord
100
AcDbBlockTableRecord
  2
*D74
340
0
  0
BLOCK_RECORD
  5
CB0
330
1
100
AcDbSymbolTableRecord
100
AcDbBlockTableRecord
  2
*D75
340
0
  0
BLOCK_RECORD
  5
D0B
330
1
100
AcDbSymbolTableRecord
100
AcDbBlockTableRecord
  2
*D76
340
0
  0
BLOCK_RECORD
  5
D18
330
1
100
AcDbSymbolTableRecord
100
AcDbBlockTableRecord
  2
*D77
340
0
  0
BLOCK_RECORD
  5
D24
330
1
100
AcDbSymbolTableRecord
100
AcDbBlockTableRecord
  2
*D78
340
0
  0
BLOCK_RECORD
  5
D30
330
1
100
AcDbSymbolTableRecord
100
AcDbBlockTableRecord
  2
*D79
340
0
  0
BLOCK_RECORD
  5
D3C
330
1
100
AcDbSymbolTableRecord
100
AcDbBlockTableRecord
  2
*D80
340
0
  0
BLOCK_RECORD
  5
E38
330
1
100
AcDbSymbolTableRecord
100
AcDbBlockTableRecord
  2
*D82
340
0
  0
BLOCK_RECORD
  5
E45
330
1
100
AcDbSymbolTableRecord
100
AcDbBlockTableRecord
  2
*D83
340
0
  0
BLOCK_RECORD
  5
E51
330
1
100
AcDbSymbolTableRecord
100
AcDbBlockTableRecord
  2
*D84
340
0
  0
BLOCK_RECORD
  5
E5D
330
1
100
AcDbSymbolTableRecord
100
AcDbBlockTableRecord
  2
*D85
340
0
  0
BLOCK_RECORD
  5
E69
330
1
100
AcDbSymbolTableRecord
100
AcDbBlockTableRecord
  2
*D86
340
0
  0
BLOCK_RECORD
  5
EC4
330
1
100
AcDbSymbolTableRecord
100
AcDbBlockTableRecord
  2
*D87
340
0
  0
BLOCK_RECORD
  5
ED1
330
1
100
AcDbSymbolTableRecord
100
AcDbBlockTableRecord
  2
*D88
340
0
  0
BLOCK_RECORD
  5
EDD
330
1
100
AcDbSymbolTableRecord
100
AcDbBlockTableRecord
  2
*D89
340
0
  0
BLOCK_RECORD
  5
EE9
330
1
100
AcDbSymbolTableRecord
100
AcDbBlockTableRecord
  2
*D90
340
0
  0
BLOCK_RECORD
  5
EF5
330
1
100
AcDbSymbolTableRecord
100
AcDbBlockTableRecord
  2
*D91
340
0
  0
BLOCK_RECORD
  5
FCE
330
1
100
AcDbSymbolTableRecord
100
AcDbBlockTableRecord
  2
*D93
340
0
  0
BLOCK_RECORD
  5
FDB
330
1
100
AcDbSymbolTableRecord
100
AcDbBlockTableRecord
  2
*D94
340
0
  0
BLOCK_RECORD
  5
FE7
330
1
100
AcDbSymbolTableRecord
100
AcDbBlockTableRecord
  2
*D95
340
0
  0
BLOCK_RECORD
  5
FF3
330
1
100
AcDbSymbolTableRecord
100
AcDbBlockTableRecord
  2
*D96
340
0
  0
BLOCK_RECORD
  5
FFF
330
1
100
AcDbSymbolTableRecord
100
AcDbBlockTableRecord
  2
*D97
340
0
  0
BLOCK_RECORD
  5
105A
330
1
100
AcDbSymbolTableRecord
100
AcDbBlockTableRecord
  2
*D98
340
0
  0
BLOCK_RECORD
  5
1067
330
1
100
AcDbSymbolTableRecord
100
AcDbBlockTableRecord
  2
*D99
340
0
  0
BLOCK_RECORD
  5
1073
330
1
100
AcDbSymbolTableRecord
100
AcDbBlockTableRecord
  2
*D100
340
0
  0
BLOCK_RECORD
  5
107F
330
1
100
AcDbSymbolTableRecord
100
AcDbBlockTableRecord
  2
*D101
340
0
  0
BLOCK_RECORD
  5
108B
330
1
100
AcDbSymbolTableRecord
100
AcDbBlockTableRecord
  2
*D102
340
0
  0
BLOCK_RECORD
  5
1165
330
1
100
AcDbSymbolTableRecord
100
AcDbBlockTableRecord
  2
*D104
340
0
  0
BLOCK_RECORD
  5
1172
330
1
100
AcDbSymbolTableRecord
100
AcDbBlockTableRecord
  2
*D105
340
0
  0
BLOCK_RECORD
  5
117E
330
1
100
AcDbSymbolTableRecord
100
AcDbBlockTableRecord
  2
*D106
340
0
  0
BLOCK_RECORD
  5
118A
330
1
100
AcDbSymbolTableRecord
100
AcDbBlockTableRecord
  2
*D107
340
0
  0
BLOCK_RECORD
  5
1196
330
1
100
AcDbSymbolTableRecord
100
AcDbBlockTableRecord
  2
*D108
340
0
  0
BLOCK_RECORD
  5
11F1
330
1
100
AcDbSymbolTableRecord
100
AcDbBlockTableRecord
  2
*D109
340
0
  0
BLOCK_RECORD
  5
11FE
330
1
100
AcDbSymbolTableRecord
100
AcDbBlockTableRecord
  2
*D110
340
0
  0
BLOCK_RECORD
  5
120A
330
1
100
AcDbSymbolTableRecord
100
AcDbBlockTableRecord
  2
*D111
340
0
  0
BLOCK_RECORD
  5
1216
330
1
100
AcDbSymbolTableRecord
100
AcDbBlockTableRecord
  2
*D112
340
0
  0
BLOCK_RECORD
  5
1222
330
1
100
AcDbSymbolTableRecord
100
AcDbBlockTableRecord
  2
*D113
340
0
  0
BLOCK_RECORD
  5
1305
330
1
100
AcDbSymbolTableRecord
100
AcDbBlockTableRecord
  2
*D115
340
0
  0
BLOCK_RECORD
  5
1312
330
1
100
AcDbSymbolTableRecord
100
AcDbBlockTableRecord
  2
*D116
340
0
  0
BLOCK_RECORD
  5
131E
330
1
100
AcDbSymbolTableRecord
100
AcDbBlockTableRecord
  2
*D117
340
0
  0
BLOCK_RECORD
  5
132A
330
1
100
AcDbSymbolTableRecord
100
AcDbBlockTableRecord
  2
*D118
340
0
  0
BLOCK_RECORD
  5
1336
330
1
100
AcDbSymbolTableRecord
100
AcDbBlockTableRecord
  2
*D119
340
0
  0
BLOCK_RECORD
  5
1392
330
1
100
AcDbSymbolTableRecord
100
AcDbBlockTableRecord
  2
*D120
340
0
  0
BLOCK_RECORD
  5
139F
330
1
100
AcDbSymbolTableRecord
100
AcDbBlockTableRecord
  2
*D121
340
0
  0
BLOCK_RECORD
  5
13AB
330
1
100
AcDbSymbolTableRecord
100
AcDbBlockTableRecord
  2
*D122
340
0
  0
BLOCK_RECORD
  5
13B7
330
1
100
AcDbSymbolTableRecord
100
AcDbBlockTableRecord
  2
*D123
340
0
  0
BLOCK_RECORD
  5
13C3
330
1
100
AcDbSymbolTableRecord
100
AcDbBlockTableRecord
  2
*D124
340
0
  0
BLOCK_RECORD
  5
149E
330
1
100
AcDbSymbolTableRecord
100
AcDbBlockTableRecord
  2
*D126
340
0
  0
BLOCK_RECORD
  5
14AB
330
1
100
AcDbSymbolTableRecord
100
AcDbBlockTableRecord
  2
*D127
340
0
  0
BLOCK_RECORD
  5
14B7
330
1
100
AcDbSymbolTableRecord
100
AcDbBlockTableRecord
  2
*D128
340
0
  0
BLOCK_RECORD
  5
14C3
330
1
100
AcDbSymbolTableRecord
100
AcDbBlockTableRecord
  2
*D129
340
0
  0
BLOCK_RECORD
  5
14CF
330
1
100
AcDbSymbolTableRecord
100
AcDbBlockTableRecord
  2
*D130
340
0
  0
BLOCK_RECORD
  5
1529
330
1
100
AcDbSymbolTableRecord
100
AcDbBlockTableRecord
  2
*D131
340
0
  0
BLOCK_RECORD
  5
1536
330
1
100
AcDbSymbolTableRecord
100
AcDbBlockTableRecord
  2
*D132
340
0
  0
BLOCK_RECORD
  5
1542
330
1
100
AcDbSymbolTableRecord
100
AcDbBlockTableRecord
  2
*D133
340
0
  0
BLOCK_RECORD
  5
154E
330
1
100
AcDbSymbolTableRecord
100
AcDbBlockTableRecord
  2
*D134
340
0
  0
BLOCK_RECORD
  5
155A
330
1
100
AcDbSymbolTableRecord
100
AcDbBlockTableRecord
  2
*D135
340
0
  0
BLOCK_RECORD
  5
156C
330
1
100
AcDbSymbolTableRecord
100
AcDbBlockTableRecord
  2
*D136
340
0
  0
ENDTAB
  0
ENDSEC
  0
SECTION
  2
BLOCKS
  0
BLOCK
  5
20
330
1F
100
AcDbEntity
  8
0
100
AcDbBlockBegin
  2
*Model_Space
 70
     0
 10
0.0
 20
0.0
 30
0.0
  3
*Model_Space
  1
*Model_Space
  0
ENDBLK
  5
21
330
1F
100
AcDbEntity
  8
0
100
AcDbBlockEnd
  0
BLOCK
  5
1C
330
1B
100
AcDbEntity
 67
     1
  8
0
100
AcDbBlockBegin
  2
*Paper_Space
 70
     0
 10
0.0
 20
0.0
 30
0.0
  3
*Paper_Space
  1
*Paper_Space
  0
ENDBLK
  5
1D
330
1B
100
AcDbEntity
 67
     1
  8
0
100
AcDbBlockEnd
  0
BLOCK
  5
24
330
23
100
AcDbEntity
  8
0
100
AcDbBlockBegin
  2
*Paper_Space0
 70
     0
 10
0.0
 20
0.0
 30
0.0
  3
*Paper_Space0
  1
*Paper_Space0
  0
ENDBLK
  5
25
330
23
100
AcDbEntity
  8
0
100
AcDbBlockEnd
  0
BLOCK
  5
7F
330
7E
100
AcDbEntity
  8
0
100
AcDbBlockBegin
  2
블럭10
 70
     2
 10
0.0
 20
0.0
 30
0.0
  3
블럭10
  1
블럭10
  0
ELLIPSE
  5
81
330
7E
100
AcDbEntity
  8
중심선
100
AcDbEllipse
 10
20.54032771741204
 20
12.0471743016438
 30
0.0
 11
6.600054785286829
 21
-1.261213355974178E-13
 31
0.0
210
0.0
220
0.0
230
1.0
 40
0.636358354079598
 41
0.9219305317359503
 42
6.513795318482858
  0
ELLIPSE
  5
82
330
7E
100
AcDbEntity
  8
중심선
100
AcDbEllipse
 10
20.54032771746488
 20
12.04717430159265
 30
0.0
 11
3.960054785062283
 21
1.540847449632565E-10
 31
0.0
210
0.0
220
0.0
230
1.0
 40
0.3939339440162632
 41
1.131841032648279
 42
5.62031148352944
  0
LINE
  5
83
330
7E
100
AcDbEntity
  8
중심선
100
AcDbLine
 10
2.268634060543552
 20
16.24717430164393
 30
0.0
 11
5.714909304380834
 21
16.24717430164393
 31
0.0
  0
LINE
  5
84
330
7E
100
AcDbEntity
  8
중심선
100
AcDbLine
 10
5.245725140726316
 20
7.84717430164391
 30
0.0
 11
8.692000384563599
 21
7.84717430164391
 31
0.0
  0
LINE
  5
85
330
7E
100
AcDbEntity
  8
중심선
100
AcDbLine
 10
15.74043728645272
 20
16.24717430164393
 30
0.0
 11
8.692000384563599
 21
7.84717430164391
 31
0.0
  0
LINE
  5
86
330
7E
100
AcDbEntity
  8
중심선
100
AcDbLine
 10
0.1404042013395286
 20
13.71084872107135
 30
0.0
 11
3.58671253028996
 21
13.71088815037384
 31
0.0
  0
LINE
  5
87
330
7E
100
AcDbEntity
  8
중심선
100
AcDbLine
 10
2.750260043222114
 20
10.84717430164391
 30
0.0
 11
6.196535287059397
 21
10.84717430164391
 31
0.0
  0
LINE
  5
88
330
7E
100
AcDbEntity
  8
중심선
100
AcDbLine
 10
12.29416204261559
 20
16.24717430164393
 30
0.0
 11
5.245725140726316
 21
7.84717430164391
 31
0.0
  0
LINE
  5
89
330
7E
100
AcDbEntity
  8
중심선
100
AcDbLine
 10
10.72767329541681
 20
16.24717430164393
 30
0.0
 11
6.196535287059397
 21
10.84717430164391
 31
0.0
  0
LINE
  5
8A
330
7E
100
AcDbEntity
  8
중심선
100
AcDbLine
 10
7.28139805157953
 20
16.24717430164393
 30
0.0
 11
2.750260043222114
 21
10.84717430164391
 31
0.0
  0
LINE
  5
8B
330
7E
100
AcDbEntity
  8
중심선
100
AcDbLine
 10
5.714909304380834
 20
16.24717430164393
 30
0.0
 11
3.58671253028996
 21
13.71088815037384
 31
0.0
  0
LINE
  5
8C
330
7E
100
AcDbEntity
  8
중심선
100
AcDbLine
 10
2.268634060543552
 20
16.24717430164393
 30
0.0
 11
0.1404042013395286
 21
13.71084872107135
 31
0.0
  0
LINE
  5
8D
330
7E
100
AcDbEntity
  8
중심선
100
AcDbLine
 10
7.28139805157953
 20
16.24717430164393
 30
0.0
 11
10.72767329541681
 21
16.24717430164393
 31
0.0
  0
LINE
  5
8E
330
7E
100
AcDbEntity
  8
중심선
100
AcDbLine
 10
12.29416204261559
 20
16.24717430164393
 30
0.0
 11
15.74043728645272
 21
16.24717430164393
 31
0.0
  0
LINE
  5
8F
330
7E
100
AcDbEntity
  8
중심선
100
AcDbLine
 10
19.22036997980202
 20
11.08717430171403
 30
0.0
 11
23.66174974927406
 21
11.08717430171406
 31
0.0
  0
LINE
  5
90
330
7E
100
AcDbEntity
  8
중심선
100
AcDbLine
 10
19.22039502424796
 20
13.00717430171391
 30
0.0
 11
19.22036997980202
 21
11.08717430171403
 31
0.0
  0
LINE
  5
91
330
7E
100
AcDbEntity
  8
중심선
100
AcDbLine
 10
19.22039502424796
 20
13.00717430171391
 30
0.0
 11
26.96566020931264
 21
13.00717430171391
 31
0.0
  0
LINE
  5
92
330
7E
100
AcDbEntity
  8
중심선
100
AcDbLine
 10
22.22332737316547
 20
13.45928029700563
 30
0.0
 11
24.52862924686651
 21
15.39360700705356
 31
0.0
  0
ATTDEF
  5
94
330
7E
100
AcDbEntity
  8
FORMAT
 62
     2
100
AcDbText
 10
-10.82367519849508
 20
2.075366912832191
 30
0.0
 40
4.233333333333333
  1
GMF58140 [ 4 FLUTE ]
 41
0.75
  7
SLDTEXTSTYLE0
 11
-10.82367519849508
 21
-0.0412997538344756
 31
0.0
100
AcDbAttributeDefinition
  3

  2
AUTOATTR0
 70
     0
 74
     1
  0
ENDBLK
  5
80
330
7E
100
AcDbEntity
  8
0
100
AcDbBlockEnd
  0
BLOCK
  5
E1
330
E0
100
AcDbEntity
  8
0
100
AcDbBlockBegin
  2
_D
 70
     0
 10
0.0
 20
0.0
 30
0.0
  3
_D
  1
_D
  0
LINE
  5
E3
330
E0
100
AcDbEntity
  8
치수문자_일반주서
 62
     0
370
    -2
100
AcDbLine
 10
-45.0000427306089
 20
6.562499999999996
 30
0.0
 11
-45.0000427306089
 21
41.66248416807875
 31
0.0
  0
LINE
  5
E4
330
E0
100
AcDbEntity
  8
치수문자_일반주서
 62
     0
370
    -2
100
AcDbLine
 10
37.99995726939112
 20
7.125000000000004
 30
0.0
 11
37.99995726939112
 21
41.66248416807875
 31
0.0
  0
LINE
  5
E5
330
E0
100
AcDbEntity
  8
치수문자_일반주서
 62
     0
370
    -2
100
AcDbLine
 10
-41.6980427306089
 20
41.66248416807875
 30
0.0
 11
34.69795726939113
 21
41.66248416807875
 31
0.0
  0
SOLID
  5
E6
330
E0
100
AcDbEntity
  8
치수문자_일반주서
 62
     0
100
AcDbTrace
 10
-41.6980427306089
 20
42.21281750141208
 30
0.0
 11
-41.6980427306089
 21
41.11215083474541
 31
0.0
 12
-45.0000427306089
 22
41.66248416807875
 32
0.0
 13
-45.0000427306089
 23
41.66248416807875
 33
0.0
  0
SOLID
  5
E7
330
E0
100
AcDbEntity
  8
치수문자_일반주서
 62
     0
100
AcDbTrace
 10
34.69795726939113
 20
41.11215083474541
 30
0.0
 11
34.69795726939113
 21
42.21281750141208
 31
0.0
 12
37.99995726939112
 22
41.66248416807875
 32
0.0
 13
37.99995726939112
 23
41.66248416807875
 33
0.0
  0
MTEXT
  5
E8
330
E0
100
AcDbEntity
  8
치수문자_일반주서
 62
     0
100
AcDbMText
 10
-3.500042730608889
 20
46.03748416807875
 30
0.0
 40
3.5
 41
0.0
 71
     2
 72
     1
  1
\A1;83
  7
SLDTEXTSTYLE0
 73
     1
 44
1.0
  0
POINT
  5
149
330
E0
100
AcDbEntity
  8
Defpoints
 62
     0
100
AcDbPoint
 10
-45.0000427306089
 20
6.499999999999996
 30
0.0
  0
POINT
  5
14A
330
E0
100
AcDbEntity
  8
Defpoints
 62
     0
100
AcDbPoint
 10
37.99995726939112
 20
7.062500000000004
 30
0.0
  0
POINT
  5
14B
330
E0
100
AcDbEntity
  8
Defpoints
 62
     0
100
AcDbPoint
 10
37.99995726939112
 20
41.66248416807875
 30
0.0
  0
ENDBLK
  5
E2
330
E0
100
AcDbEntity
  8
0
100
AcDbBlockEnd
  0
BLOCK
  5
EB
330
EA
100
AcDbEntity
  8
0
100
AcDbBlockBegin
  2
_D_1
 70
     0
 10
0.0
 20
0.0
 30
0.0
  3
_D_1
  1
_D_1
  0
LINE
  5
ED
330
EA
100
AcDbEntity
  8
치수문자_일반주서
 62
     0
370
    -2
100
AcDbLine
 10
11.99999913361988
 20
-0.6010474837848685
 30
0.0
 11
11.99999913361988
 21
32.67947958926196
 31
0.0
  0
LINE
  5
EE
330
EA
100
AcDbEntity
  8
치수문자_일반주서
 62
     0
370
    -2
100
AcDbLine
 10
37.99995726939112
 20
7.062500000000004
 30
0.0
 11
37.99995726939112
 21
32.67947958926196
 31
0.0
  0
LINE
  5
EF
330
EA
100
AcDbEntity
  8
치수문자_일반주서
 62
     0
370
    -2
100
AcDbLine
 10
15.30199913361988
 20
32.67947958926196
 30
0.0
 11
34.69795726939113
 21
32.67947958926196
 31
0.0
  0
SOLID
  5
F0
330
EA
100
AcDbEntity
  8
치수문자_일반주서
 62
     0
100
AcDbTrace
 10
15.30199913361988
 20
33.22981292259529
 30
0.0
 11
15.30199913361988
 21
32.12914625592862
 31
0.0
 12
11.99999913361988
 22
32.67947958926196
 32
0.0
 13
11.99999913361988
 23
32.67947958926196
 33
0.0
  0
SOLID
  5
F1
330
EA
100
AcDbEntity
  8
치수문자_일반주서
 62
     0
100
AcDbTrace
 10
34.69795726939113
 20
32.12914625592862
 30
0.0
 11
34.69795726939113
 21
33.22981292259529
 31
0.0
 12
37.99995726939112
 22
32.67947958926196
 32
0.0
 13
37.99995726939112
 23
32.67947958926196
 33
0.0
  0
MTEXT
  5
F2
330
EA
100
AcDbEntity
  8
치수문자_일반주서
 62
     0
100
AcDbMText
 10
25.04655299632314
 20
37.05447958926196
 30
0.0
 40
3.5
 41
0.0
 71
     2
 72
     1
  1
\A1;26
  7
SLDTEXTSTYLE0
 73
     1
 44
1.0
  0
POINT
  5
146
330
EA
100
AcDbEntity
  8
Defpoints
 62
     0
100
AcDbPoint
 10
11.99999913361988
 20
-0.6635474837848685
 30
0.0
  0
POINT
  5
147
330
EA
100
AcDbEntity
  8
Defpoints
 62
     0
100
AcDbPoint
 10
37.99995726939112
 20
7.000000000000004
 30
0.0
  0
POINT
  5
148
330
EA
100
AcDbEntity
  8
Defpoints
 62
     0
100
AcDbPoint
 10
37.99995726939112
 20
32.67947958926196
 30
0.0
  0
ENDBLK
  5
EC
330
EA
100
AcDbEntity
  8
0
100
AcDbBlockEnd
  0
BLOCK
  5
F6
330
F5
100
AcDbEntity
  8
0
100
AcDbBlockBegin
  2
_D_2
 70
     0
 10
0.0
 20
0.0
 30
0.0
  3
_D_2
  1
_D_2
  0
LINE
  5
F8
330
F5
100
AcDbEntity
  8
치수문자_일반주서
 62
     0
370
    -2
100
AcDbLine
 10
73.85642292674117
 20
9.242246977090005
 30
0.0
 11
86.14290759565546
 21
21.52873164600436
 31
0.0
  0
MTEXT
  5
F9
330
F5
100
AcDbEntity
  8
치수문자_일반주서
 62
     0
100
AcDbMText
 10
77.17149030935114
 20
18.7444986950823
 30
0.0
 40
3.5
 41
0.0
 71
     1
 72
     1
  1
\A1;R0.5
  7
SLDTEXTSTYLE0
 11
0.7071067811865457
 21
0.7071067811865492
 31
0.0
 73
     1
 44
1.0
  0
SOLID
  5
FA
330
F5
100
AcDbEntity
  8
치수문자_일반주서
 62
     0
100
AcDbTrace
 10
73.46727849482818
 20
9.631391409003001
 30
0.0
 11
74.24556735865417
 21
8.85310254517701
 31
0.0
 12
71.5215563352632
 22
6.90738038561202
 32
0.0
 13
71.5215563352632
 23
6.90738038561202
 33
0.0
  0
POINT
  5
FB
330
F5
100
AcDbEntity
  8
Defpoints
 62
     0
100
AcDbPoint
 10
71.5215563352632
 20
6.90738038561202
 30
0.0
  0
POINT
  5
14C
330
F5
100
AcDbEntity
  8
Defpoints
 62
     0
100
AcDbPoint
 10
71.16800294466992
 20
6.553826995018742
 30
0.0
  0
ENDBLK
  5
F7
330
F5
100
AcDbEntity
  8
0
100
AcDbBlockEnd
  0
BLOCK
  5
FF
330
FE
100
AcDbEntity
  8
0
100
AcDbBlockBegin
  2
_D_3
 70
     0
 10
0.0
 20
0.0
 30
0.0
  3
_D_3
  1
_D_3
  0
LINE
  5
101
330
FE
100
AcDbEntity
  8
치수문자_일반주서
 62
     0
370
    -2
100
AcDbLine
 10
-44.56254273060889
 20
7.000000000000005
 30
0.0
 11
-60.00004273060895
 21
6.999999999999948
 31
0.0
  0
LINE
  5
102
330
FE
100
AcDbEntity
  8
치수문자_일반주서
 62
     0
370
    -2
100
AcDbLine
 10
-44.56254273060889
 20
-6.999999999999996
 30
0.0
 11
-60.0000427306089
 21
-7.000000000000054
 31
0.0
  0
LINE
  5
103
330
FE
100
AcDbEntity
  8
치수문자_일반주서
 62
     0
370
    -2
100
AcDbLine
 10
-60.00004273060895
 20
6.999999999999948
 30
0.0
 11
-60.0000427306089
 21
-7.000000000000054
 31
0.0
  0
LINE
  5
104
330
FE
100
AcDbEntity
  8
치수문자_일반주서
 62
     0
370
    -2
100
AcDbLine
 10
-60.00004273060896
 20
10.30199999999995
 30
0.0
 11
-60.00004273060897
 21
13.60399999999995
 31
0.0
  0
LINE
  5
105
330
FE
100
AcDbEntity
  8
치수문자_일반주서
 62
     0
370
    -2
100
AcDbLine
 10
-60.00004273060888
 20
-10.30200000000005
 30
0.0
 11
-60.00004273060887
 21
-13.60400000000005
 31
0.0
  0
SOLID
  5
106
330
FE
100
AcDbEntity
  8
치수문자_일반주서
 62
     0
100
AcDbTrace
 10
-60.55037606394229
 20
10.30199999999995
 30
0.0
 11
-59.44970939727563
 21
10.30199999999995
 31
0.0
 12
-60.00004273060895
 22
6.999999999999948
 32
0.0
 13
-60.00004273060895
 23
6.999999999999948
 33
0.0
  0
SOLID
  5
107
330
FE
100
AcDbEntity
  8
치수문자_일반주서
 62
     0
100
AcDbTrace
 10
-59.44970939727555
 20
-10.30200000000005
 30
0.0
 11
-60.55037606394222
 21
-10.30200000000006
 31
0.0
 12
-60.0000427306089
 22
-7.000000000000054
 32
0.0
 13
-60.0000427306089
 23
-7.000000000000054
 33
0.0
  0
MTEXT
  5
108
330
FE
100
AcDbEntity
  8
치수문자_일반주서
 62
     0
100
AcDbMText
 10
-64.37504273060893
 20
-0.0000000000000101
 30
0.0
 40
3.5
 41
0.0
 71
     2
 72
     1
  1
\A1;%%c14
  7
SLDTEXTSTYLE0
 11
-3.552713678800501E-15
 21
1.0
 31
0.0
 73
     1
 44
1.0
  0
POINT
  5
109
330
FE
100
AcDbEntity
  8
Defpoints
 62
     0
100
AcDbPoint
 10
-44.50004273060889
 20
7.000000000000005
 30
0.0
  0
POINT
  5
144
330
FE
100
AcDbEntity
  8
Defpoints
 62
     0
100
AcDbPoint
 10
-44.50004273060889
 20
-6.999999999999996
 30
0.0
  0
POINT
  5
145
330
FE
100
AcDbEntity
  8
Defpoints
 62
     0
100
AcDbPoint
 10
-60.0000427306089
 20
-7.000000000000054
 30
0.0
  0
ENDBLK
  5
100
330
FE
100
AcDbEntity
  8
0
100
AcDbBlockEnd
  0
BLOCK
  5
10C
330
10B
100
AcDbEntity
  8
0
100
AcDbBlockBegin
  2
_D_4
 70
     0
 10
0.0
 20
0.0
 30
0.0
  3
_D_4
  1
_D_4
  0
LINE
  5
10E
330
10B
100
AcDbEntity
  8
치수문자_일반주서
 62
     0
370
    -2
100
AcDbLine
 10
38.06245726939113
 20
7.000000000000004
 30
0.0
 11
52.99995726939112
 21
7.000000000000061
 31
0.0
  0
LINE
  5
10F
330
10B
100
AcDbEntity
  8
치수문자_일반주서
 62
     0
370
    -2
100
AcDbLine
 10
38.06245726939112
 20
-6.999999999999996
 30
0.0
 11
52.99995726939117
 21
-6.99999999999994
 31
0.0
  0
LINE
  5
110
330
10B
100
AcDbEntity
  8
치수문자_일반주서
 62
     0
370
    -2
100
AcDbLine
 10
52.99995726939112
 20
7.000000000000061
 30
0.0
 11
52.99995726939117
 21
-6.99999999999994
 31
0.0
  0
LINE
  5
111
330
10B
100
AcDbEntity
  8
치수문자_일반주서
 62
     0
370
    -2
100
AcDbLine
 10
52.99995726939111
 20
10.30200000000006
 30
0.0
 11
52.9999572693911
 21
13.60400000000006
 31
0.0
  0
LINE
  5
112
330
10B
100
AcDbEntity
  8
치수문자_일반주서
 62
     0
370
    -2
100
AcDbLine
 10
52.99995726939119
 20
-10.30199999999994
 30
0.0
 11
52.9999572693912
 21
-13.60399999999994
 31
0.0
  0
SOLID
  5
113
330
10B
100
AcDbEntity
  8
치수문자_일반주서
 62
     0
100
AcDbTrace
 10
52.44962393605778
 20
10.30200000000006
 30
0.0
 11
53.55029060272444
 21
10.30200000000006
 31
0.0
 12
52.99995726939112
 22
7.000000000000061
 32
0.0
 13
52.99995726939112
 23
7.000000000000061
 33
0.0
  0
SOLID
  5
114
330
10B
100
AcDbEntity
  8
치수문자_일반주서
 62
     0
100
AcDbTrace
 10
53.55029060272452
 20
-10.30199999999994
 30
0.0
 11
52.44962393605785
 21
-10.30199999999994
 31
0.0
 12
52.99995726939117
 22
-6.99999999999994
 32
0.0
 13
52.99995726939117
 23
-6.99999999999994
 33
0.0
  0
MTEXT
  5
115
330
10B
100
AcDbEntity
  8
치수문자_일반주서
 62
     0
100
AcDbMText
 10
48.62495726939115
 20
0.0657043817130371
 30
0.0
 40
3.5
 41
0.0
 71
     2
 72
     1
  1
\A1;%%c14
  7
SLDTEXTSTYLE0
 11
-3.552713678800501E-15
 21
1.0
 31
0.0
 73
     1
 44
1.0
  0
POINT
  5
116
330
10B
100
AcDbEntity
  8
Defpoints
 62
     0
100
AcDbPoint
 10
37.99995726939113
 20
7.000000000000004
 30
0.0
  0
POINT
  5
142
330
10B
100
AcDbEntity
  8
Defpoints
 62
     0
100
AcDbPoint
 10
37.99995726939112
 20
-6.999999999999996
 30
0.0
  0
POINT
  5
143
330
10B
100
AcDbEntity
  8
Defpoints
 62
     0
100
AcDbPoint
 10
52.99995726939117
 20
-6.99999999999994
 30
0.0
  0
ENDBLK
  5
10D
330
10B
100
AcDbEntity
  8
0
100
AcDbBlockEnd
  0
BLOCK
  5
118
330
117
100
AcDbEntity
  8
0
100
AcDbBlockBegin
  2
SW_DOWELSYMBOL_0
 70
     0
 10
0.0
 20
0.0
 30
0.0
  3
SW_DOWELSYMBOL_0
  1
SW_DOWELSYMBOL_0
  0
CIRCLE
  5
11A
330
117
100
AcDbEntity
  8
외형선
 62
     0
100
AcDbCircle
 10
0.0
 20
0.0
 30
0.0
 40
3.000000000000002
  0
HATCH
  5
11B
330
117
100
AcDbEntity
  8
0
  6
Continuous
 62
     0
370
    30
100
AcDbHatch
 10
0.0
 20
0.0
 30
0.0
210
0.0
220
0.0
230
1.0
  2
SOLID
 70
     1
 71
     0
 91
        1
 92
        0
 93
        3
 72
     2
 10
0.0
 20
0.0
 40
3.000000000000002
 50
0.0
 51
90.0
 73
     1
 72
     1
 10
0.0
 20
3.000000000000002
 11
0.0
 21
0.0
 72
     1
 10
0.0
 20
0.0
 11
3.000000000000002
 21
0.0
 97
        0
 75
     0
 76
     1
 98
        1
 10
0.0
 20
0.0
  0
HATCH
  5
11C
330
117
100
AcDbEntity
  8
0
  6
Continuous
 62
     0
370
    30
100
AcDbHatch
 10
0.0
 20
0.0
 30
0.0
210
0.0
220
0.0
230
1.0
  2
SOLID
 70
     1
 71
     0
 91
        1
 92
        0
 93
        3
 72
     2
 10
0.0
 20
0.0
 40
3.000000000000002
 50
180.0
 51
270.0000000000007
 73
     1
 72
     1
 10
0.0
 20
-3.000000000000002
 11
0.0
 21
0.0
 72
     1
 10
0.0
 20
0.0
 11
-3.000000000000002
 21
0.0
 97
        0
 75
     0
 76
     1
 98
        1
 10
0.0
 20
0.0
  0
ENDBLK
  5
119
330
117
100
AcDbEntity
  8
0
100
AcDbBlockEnd
  0
BLOCK
  5
216
330
215
100
AcDbEntity
  8
0
100
AcDbBlockBegin
  2
*D8
 70
     1
 10
0.0
 20
0.0
 30
0.0
  3
*D8
  1
*D8
  0
LINE
  5
218
330
215
100
AcDbEntity
  8
치수문자_일반주서
 62
     0
370
    -2
100
AcDbLine
 10
39.49073245106057
 20
-9.739138492878775
 30
0.0
 11
51.46455541489748
 21
-29.22143424691512
 31
0.0
  0
MTEXT
  5
219
330
215
100
AcDbEntity
  8
치수문자_일반주서
 62
     0
100
AcDbMText
 10
51.29559567081875
 20
-23.93327609237956
 30
0.0
 40
3.5
 41
0.0
 71
     5
 72
     1
  1
\A1;R0.5
  7
SLDTEXTSTYLE0
 11
0.5236126201129565
 21
-0.8519564684057777
 31
0.0
 73
     1
 44
1.0
  0
SOLID
  5
21A
330
215
100
AcDbEntity
  8
치수문자_일반주서
 62
     0
100
AcDbTrace
 10
39.95959249417322
 20
-9.450977014276612
 30
0.0
 11
39.02187240794792
 21
-10.02729997148094
 31
0.0
 12
37.76176357944758
 22
-6.925978234202897
 32
0.0
 13
37.76176357944758
 23
-6.925978234202897
 33
0.0
  0
POINT
  5
21B
330
215
100
AcDbEntity
  8
Defpoints
 62
     0
100
AcDbPoint
 10
37.76176357944758
 20
-6.925978234202897
 30
0.0
  0
POINT
  5
21C
330
215
100
AcDbEntity
  8
Defpoints
 62
     0
100
AcDbPoint
 10
37.4999572693911
 20
-6.499999999999996
 30
0.0
  0
ENDBLK
  5
217
330
215
100
AcDbEntity
  8
0
100
AcDbBlockEnd
  0
BLOCK
  5
2B1
330
2B0
100
AcDbEntity
  8
0
100
AcDbBlockBegin
  2
*D9
 70
     1
 10
0.0
 20
0.0
 30
0.0
  3
*D9
  1

  0
LINE
  5
2B2
330
2B0
100
AcDbEntity
  8
치수문자_일반주서
 62
     0
370
    -2
100
AcDbLine
 10
61.43750000000005
 20
47.97199522607711
 30
0.0
 11
69.3750000000001
 21
47.97199522607713
 31
0.0
  0
LINE
  5
2B3
330
2B0
100
AcDbEntity
  8
치수문자_일반주서
 62
     0
370
    -2
100
AcDbLine
 10
61.43750000000005
 20
51.97180738881175
 30
0.0
 11
69.37500000000009
 21
51.97180738881178
 31
0.0
  0
LINE
  5
2B4
330
2B0
100
AcDbEntity
  8
치수문자_일반주서
 62
     0
370
    -2
100
AcDbLine
 10
69.3750000000001
 20
47.97199522607713
 30
0.0
 11
69.37500000000003
 21
65.90930738881178
 31
0.0
  0
LINE
  5
2B5
330
2B0
100
AcDbEntity
  8
치수문자_일반주서
 62
     0
370
    -2
100
AcDbLine
 10
69.37500000000011
 20
45.47199522607713
 30
0.0
 11
69.37500000000013
 21
42.97199522607713
 31
0.0
  0
LINE
  5
2B6
330
2B0
100
AcDbEntity
  8
치수문자_일반주서
 62
     0
370
    -2
100
AcDbLine
 10
69.37500000000007
 20
54.47180738881178
 30
0.0
 11
69.37500000000006
 21
56.97180738881178
 31
0.0
  0
SOLID
  5
2B7
330
2B0
100
AcDbEntity
  8
치수문자_일반주서
 62
     0
100
AcDbTrace
 10
69.79166666666679
 20
45.47199522607713
 30
0.0
 11
68.95833333333344
 21
45.47199522607713
 31
0.0
 12
69.3750000000001
 22
47.97199522607713
 32
0.0
 13
69.3750000000001
 23
47.97199522607713
 33
0.0
  0
SOLID
  5
2B8
330
2B0
100
AcDbEntity
  8
치수문자_일반주서
 62
     0
100
AcDbTrace
 10
68.9583333333334
 20
54.47180738881178
 30
0.0
 11
69.79166666666674
 21
54.47180738881178
 31
0.0
 12
69.37500000000009
 22
51.97180738881178
 32
0.0
 13
69.37500000000009
 23
51.97180738881178
 33
0.0
  0
MTEXT
  5
2B9
330
2B0
100
AcDbEntity
  8
치수문자_일반주서
 62
     0
100
AcDbMText
 10
66.00000000000004
 20
63.47180738881177
 30
0.0
 40
2.5
 41
0.0
 71
     2
 72
     1
  1
\A1;%%c4
  7
SLDTEXTSTYLE0
 11
-3.552880519640732E-15
 21
1.0
 31
0.0
 73
     1
 44
1.0
  0
POINT
  5
2BA
330
2B0
100
AcDbEntity
  8
Defpoints
 62
     0
100
AcDbPoint
 10
61.37500000000005
 20
47.97199522607711
 30
0.0
  0
POINT
  5
2BB
330
2B0
100
AcDbEntity
  8
Defpoints
 62
     0
100
AcDbPoint
 10
61.37500000000005
 20
51.97180738881175
 30
0.0
  0
POINT
  5
2BC
330
2B0
100
AcDbEntity
  8
Defpoints
 62
     0
100
AcDbPoint
 10
69.37500000000009
 20
51.97180738881178
 30
0.0
  0
ENDBLK
  5
2BE
330
2B0
100
AcDbEntity
  8
0
100
AcDbBlockEnd
  0
BLOCK
  5
2C1
330
2C0
100
AcDbEntity
  8
0
100
AcDbBlockBegin
  2
*D10
 70
     1
 10
0.0
 20
0.0
 30
0.0
  3
*D10
  1

  0
LINE
  5
2C2
330
2C0
100
AcDbEntity
  8
치수문자_일반주서
 62
     0
370
    -2
100
AcDbLine
 10
11.37500000000007
 20
52.53430738881175
 30
0.0
 11
11.37500000000007
 21
79.97180738881181
 31
0.0
  0
LINE
  5
2C3
330
2C0
100
AcDbEntity
  8
치수문자_일반주서
 62
     0
370
    -2
100
AcDbLine
 10
61.37500000000005
 20
51.53430738881178
 30
0.0
 11
61.37500000000005
 21
79.97180738881181
 31
0.0
  0
LINE
  5
2C4
330
2C0
100
AcDbEntity
  8
치수문자_일반주서
 62
     0
370
    -2
100
AcDbLine
 10
13.87500000000007
 20
79.97180738881181
 30
0.0
 11
58.87500000000005
 21
79.97180738881181
 31
0.0
  0
SOLID
  5
2C5
330
2C0
100
AcDbEntity
  8
치수문자_일반주서
 62
     0
100
AcDbTrace
 10
13.87500000000007
 20
80.38847405547848
 30
0.0
 11
13.87500000000007
 21
79.55514072214514
 31
0.0
 12
11.37500000000007
 22
79.97180738881181
 32
0.0
 13
11.37500000000007
 23
79.97180738881181
 33
0.0
  0
SOLID
  5
2C6
330
2C0
100
AcDbEntity
  8
치수문자_일반주서
 62
     0
100
AcDbTrace
 10
58.87500000000005
 20
79.55514072214514
 30
0.0
 11
58.87500000000005
 21
80.38847405547848
 31
0.0
 12
61.37500000000005
 22
79.97180738881181
 32
0.0
 13
61.37500000000005
 23
79.97180738881181
 33
0.0
  0
MTEXT
  5
2C7
330
2C0
100
AcDbEntity
  8
치수문자_일반주서
 62
     0
100
AcDbMText
 10
36.37500000000006
 20
83.34680738881181
 30
0.0
 40
2.5
 41
0.0
 71
     2
 72
     1
  1
\A1;50
  7
SLDTEXTSTYLE0
 73
     1
 44
1.0
  0
POINT
  5
2C8
330
2C0
100
AcDbEntity
  8
Defpoints
 62
     0
100
AcDbPoint
 10
11.37500000000007
 20
52.47180738881175
 30
0.0
  0
POINT
  5
2C9
330
2C0
100
AcDbEntity
  8
Defpoints
 62
     0
100
AcDbPoint
 10
61.37500000000005
 20
51.47180738881178
 30
0.0
  0
POINT
  5
2CA
330
2C0
100
AcDbEntity
  8
Defpoints
 62
     0
100
AcDbPoint
 10
61.37500000000005
 20
79.97180738881181
 30
0.0
  0
ENDBLK
  5
2CB
330
2C0
100
AcDbEntity
  8
0
100
AcDbBlockEnd
  0
BLOCK
  5
2CE
330
2CD
100
AcDbEntity
  8
0
100
AcDbBlockBegin
  2
*D11
 70
     1
 10
0.0
 20
0.0
 30
0.0
  3
*D11
  1

  0
LINE
  5
2CF
330
2CD
100
AcDbEntity
  8
치수문자_일반주서
 62
     0
370
    -2
100
AcDbLine
 10
11.81250000000007
 20
52.97180738881175
 30
0.0
 11
3.375000000000033
 21
52.97180738881173
 31
0.0
  0
LINE
  5
2D0
330
2CD
100
AcDbEntity
  8
치수문자_일반주서
 62
     0
370
    -2
100
AcDbLine
 10
11.81250000000007
 20
46.97180738881175
 30
0.0
 11
3.375000000000054
 21
46.97180738881173
 31
0.0
  0
LINE
  5
2D1
330
2CD
100
AcDbEntity
  8
치수문자_일반주서
 62
     0
370
    -2
100
AcDbLine
 10
3.375000000000033
 20
52.97180738881173
 30
0.0
 11
3.374999999999999
 21
62.84680738881173
 31
0.0
  0
LINE
  5
2D2
330
2CD
100
AcDbEntity
  8
치수문자_일반주서
 62
     0
370
    -2
100
AcDbLine
 10
3.375000000000024
 20
55.47180738881173
 30
0.0
 11
3.375000000000015
 21
57.97180738881173
 31
0.0
  0
LINE
  5
2D3
330
2CD
100
AcDbEntity
  8
치수문자_일반주서
 62
     0
370
    -2
100
AcDbLine
 10
3.375000000000063
 20
44.47180738881173
 30
0.0
 11
3.375000000000071
 21
41.97180738881173
 31
0.0
  0
SOLID
  5
2D4
330
2CD
100
AcDbEntity
  8
치수문자_일반주서
 62
     0
100
AcDbTrace
 10
2.958333333333357
 20
55.47180738881173
 30
0.0
 11
3.79166666666669
 21
55.47180738881173
 31
0.0
 12
3.375000000000033
 22
52.97180738881173
 32
0.0
 13
3.375000000000033
 23
52.97180738881173
 33
0.0
  0
SOLID
  5
2D5
330
2CD
100
AcDbEntity
  8
치수문자_일반주서
 62
     0
100
AcDbTrace
 10
3.791666666666729
 20
44.47180738881173
 30
0.0
 11
2.958333333333396
 21
44.47180738881173
 31
0.0
 12
3.375000000000054
 22
46.97180738881173
 32
0.0
 13
3.375000000000054
 23
46.97180738881173
 33
0.0
  0
MTEXT
  5
2D6
330
2CD
100
AcDbEntity
  8
치수문자_일반주서
 62
     0
100
AcDbMText
 10
0.0000000000000071
 20
60.40930738881171
 30
0.0
 40
2.5
 41
0.0
 71
     2
 72
     1
  1
\A1;%%c6
  7
SLDTEXTSTYLE0
 11
-3.478698810492157E-15
 21
1.0
 31
0.0
 73
     1
 44
1.0
  0
POINT
  5
2D7
330
2CD
100
AcDbEntity
  8
Defpoints
 62
     0
100
AcDbPoint
 10
11.87500000000007
 20
52.97180738881175
 30
0.0
  0
POINT
  5
2D8
330
2CD
100
AcDbEntity
  8
Defpoints
 62
     0
100
AcDbPoint
 10
11.87500000000007
 20
46.97180738881175
 30
0.0
  0
POINT
  5
2D9
330
2CD
100
AcDbEntity
  8
Defpoints
 62
     0
100
AcDbPoint
 10
3.375000000000057
 20
46.97180738881173
 30
0.0
  0
ENDBLK
  5
2DB
330
2CD
100
AcDbEntity
  8
0
100
AcDbBlockEnd
  0
BLOCK
  5
2DE
330
2DD
100
AcDbEntity
  8
0
100
AcDbBlockBegin
  2
*D12
 70
     1
 10
0.0
 20
0.0
 30
0.0
  3
*D12
  1

  0
LINE
  5
2DF
330
2DD
100
AcDbEntity
  8
치수문자_일반주서
 62
     0
370
    -2
100
AcDbLine
 10
55.3749999999991
 20
51.65360396219522
 30
0.0
 11
55.3749999999991
 21
65.2796901475564
 31
0.0
  0
LINE
  5
2E0
330
2DD
100
AcDbEntity
  8
치수문자_일반주서
 62
     0
370
    -2
100
AcDbLine
 10
61.37500000000005
 20
51.53430738881178
 30
0.0
 11
61.37500000000005
 21
65.2796901475564
 31
0.0
  0
LINE
  5
2E1
330
2DD
100
AcDbEntity
  8
치수문자_일반주서
 62
     0
370
    -2
100
AcDbLine
 10
55.3749999999991
 20
65.2796901475564
 30
0.0
 11
52.8749999999991
 21
65.2796901475564
 31
0.0
  0
LINE
  5
2E2
330
2DD
100
AcDbEntity
  8
치수문자_일반주서
 62
     0
370
    -2
100
AcDbLine
 10
61.37500000000005
 20
65.2796901475564
 30
0.0
 11
63.87500000000005
 21
65.2796901475564
 31
0.0
  0
SOLID
  5
2E3
330
2DD
100
AcDbEntity
  8
치수문자_일반주서
 62
     0
100
AcDbTrace
 10
57.8749999999991
 20
65.69635681422307
 30
0.0
 11
57.8749999999991
 21
64.86302348088972
 31
0.0
 12
55.3749999999991
 22
65.2796901475564
 32
0.0
 13
55.3749999999991
 23
65.2796901475564
 33
0.0
  0
SOLID
  5
2E4
330
2DD
100
AcDbEntity
  8
치수문자_일반주서
 62
     0
100
AcDbTrace
 10
58.87500000000005
 20
64.86302348088972
 30
0.0
 11
58.87500000000005
 21
65.69635681422307
 31
0.0
 12
61.37500000000005
 22
65.2796901475564
 32
0.0
 13
61.37500000000005
 23
65.2796901475564
 33
0.0
  0
MTEXT
  5
2E5
330
2DD
100
AcDbEntity
  8
치수문자_일반주서
 62
     0
100
AcDbMText
 10
58.37499999999957
 20
68.6546901475564
 30
0.0
 40
2.5
 41
0.0
 71
     2
 72
     1
  1
\A1;6
  7
SLDTEXTSTYLE0
 73
     1
 44
1.0
  0
POINT
  5
2E6
330
2DD
100
AcDbEntity
  8
Defpoints
 62
     0
100
AcDbPoint
 10
55.3749999999991
 20
51.59110396219522
 30
0.0
  0
POINT
  5
2E7
330
2DD
100
AcDbEntity
  8
Defpoints
 62
     0
100
AcDbPoint
 10
61.37500000000005
 20
51.47180738881178
 30
0.0
  0
POINT
  5
2E8
330
2DD
100
AcDbEntity
  8
Defpoints
 62
     0
100
AcDbPoint
 10
61.37500000000005
 20
65.2796901475564
 30
0.0
  0
ENDBLK
  5
2EA
330
2DD
100
AcDbEntity
  8
0
100
AcDbBlockEnd
  0
BLOCK
  5
2ED
330
2EC
100
AcDbEntity
  8
0
100
AcDbBlockBegin
  2
*D13
 70
     1
 10
0.0
 20
0.0
 30
0.0
  3
*D13
  1

  0
LINE
  5
2EE
330
2EC
100
AcDbEntity
  8
치수문자_일반주서
 62
     0
370
    -2
100
AcDbLine
 10
61.37500000000005
 20
51.53430738881178
 30
0.0
 11
61.37500000000005
 21
73.9206908511893
 31
0.0
  0
LINE
  5
2EF
330
2EC
100
AcDbEntity
  8
치수문자_일반주서
 62
     0
370
    -2
100
AcDbLine
 10
51.37499999728969
 20
51.95930738881175
 30
0.0
 11
51.37499999728969
 21
73.9206908511893
 31
0.0
  0
LINE
  5
2F0
330
2EC
100
AcDbEntity
  8
치수문자_일반주서
 62
     0
370
    -2
100
AcDbLine
 10
61.37500000000005
 20
73.9206908511893
 30
0.0
 11
51.37499999728969
 21
73.9206908511893
 31
0.0
  0
LINE
  5
2F1
330
2EC
100
AcDbEntity
  8
치수문자_일반주서
 62
     0
370
    -2
100
AcDbLine
 10
63.87500000000005
 20
73.9206908511893
 30
0.0
 11
66.37500000000006
 21
73.9206908511893
 31
0.0
  0
LINE
  5
2F2
330
2EC
100
AcDbEntity
  8
치수문자_일반주서
 62
     0
370
    -2
100
AcDbLine
 10
48.87499999728969
 20
73.9206908511893
 30
0.0
 11
46.37499999728969
 21
73.9206908511893
 31
0.0
  0
SOLID
  5
2F3
330
2EC
100
AcDbEntity
  8
치수문자_일반주서
 62
     0
100
AcDbTrace
 10
63.87500000000005
 20
74.33735751785598
 30
0.0
 11
63.87500000000005
 21
73.50402418452263
 31
0.0
 12
61.37500000000005
 22
73.9206908511893
 32
0.0
 13
61.37500000000005
 23
73.9206908511893
 33
0.0
  0
SOLID
  5
2F4
330
2EC
100
AcDbEntity
  8
치수문자_일반주서
 62
     0
100
AcDbTrace
 10
48.87499999728969
 20
73.50402418452263
 30
0.0
 11
48.87499999728969
 21
74.33735751785598
 31
0.0
 12
51.37499999728969
 22
73.9206908511893
 32
0.0
 13
51.37499999728969
 23
73.9206908511893
 33
0.0
  0
MTEXT
  5
2F5
330
2EC
100
AcDbEntity
  8
치수문자_일반주서
 62
     0
100
AcDbMText
 10
56.37499999728969
 20
77.2956908511893
 30
0.0
 40
2.5
 41
0.0
 71
     2
 72
     1
  1
\A1;10
  7
SLDTEXTSTYLE0
 73
     1
 44
1.0
  0
POINT
  5
2F6
330
2EC
100
AcDbEntity
  8
Defpoints
 62
     0
100
AcDbPoint
 10
61.37500000000005
 20
51.47180738881178
 30
0.0
  0
POINT
  5
2F7
330
2EC
100
AcDbEntity
  8
Defpoints
 62
     0
100
AcDbPoint
 10
51.37499999728969
 20
51.89680738881175
 30
0.0
  0
POINT
  5
2F8
330
2EC
100
AcDbEntity
  8
Defpoints
 62
     0
100
AcDbPoint
 10
51.37499999728969
 20
73.9206908511893
 30
0.0
  0
ENDBLK
  5
2F9
330
2EC
100
AcDbEntity
  8
0
100
AcDbBlockEnd
  0
BLOCK
  5
343
330
342
100
AcDbEntity
  8
0
100
AcDbBlockBegin
  2
*D14
 70
     1
 10
0.0
 20
0.0
 30
0.0
  3
*D14
  1

  0
LINE
  5
344
330
342
100
AcDbEntity
  8
치수문자_일반주서
 62
     0
370
    -2
100
AcDbLine
 10
62.95961356280716
 20
46.09138391288383
 30
0.0
 11
71.84635547264723
 21
35.64417353103598
 31
0.0
  0
MTEXT
  5
345
330
342
100
AcDbEntity
  8
치수문자_일반주서
 62
     0
100
AcDbMText
 10
71.37945161920936
 20
39.472747332616
 30
0.0
 40
2.5
 41
0.0
 71
     5
 72
     1
  1
\A1;R0.1
  7
SLDTEXTSTYLE0
 11
0.6479282933873385
 21
-0.7617013368953548
 31
0.0
 73
     1
 44
1.0
  0
SOLID
  5
346
330
342
100
AcDbEntity
  8
치수문자_일반주서
 62
     0
100
AcDbTrace
 10
63.27698911984689
 20
46.36135403512856
 30
0.0
 11
62.64223800576742
 21
45.82141379063911
 31
0.0
 12
61.33979282933881
 22
47.99563725512222
 32
0.0
 13
61.33979282933881
 23
47.99563725512222
 33
0.0
  0
POINT
  5
347
330
342
100
AcDbEntity
  8
Defpoints
 62
     0
100
AcDbPoint
 10
61.33979282933881
 20
47.99563725512222
 30
0.0
  0
POINT
  5
348
330
342
100
AcDbEntity
  8
Defpoints
 62
     0
100
AcDbPoint
 10
61.27500000000008
 20
48.07180738881176
 30
0.0
  0
ENDBLK
  5
349
330
342
100
AcDbEntity
  8
0
100
AcDbBlockEnd
  0
BLOCK
  5
39D
330
39C
100
AcDbEntity
  8
0
100
AcDbBlockBegin
  2
*D15
 70
     1
 10
0.0
 20
0.0
 30
0.0
  3
*D15
  1

  0
LINE
  5
39F
330
39C
100
AcDbEntity
  8
치수문자_일반주서
 62
     0
370
    -2
100
AcDbLine
 10
14.07445463089788
 20
-1.99981216273465
 30
0.0
 11
24.01195463089788
 21
-1.999812162734614
 31
0.0
  0
LINE
  5
3A0
330
39C
100
AcDbEntity
  8
치수문자_일반주서
 62
     0
370
    -2
100
AcDbLine
 10
14.07445463089788
 20
1.999999999999999
 30
0.0
 11
24.01195463089787
 21
2.000000000000036
 31
0.0
  0
LINE
  5
3A1
330
39C
100
AcDbEntity
  8
치수문자_일반주서
 62
     0
370
    -2
100
AcDbLine
 10
24.01195463089788
 20
-1.999812162734614
 30
0.0
 11
24.01195463089782
 21
14.72900000000003
 31
0.0
  0
LINE
  5
3A2
330
39C
100
AcDbEntity
  8
치수문자_일반주서
 62
     0
370
    -2
100
AcDbLine
 10
24.01195463089788
 20
-1.999812162734614
 30
0.0
 11
24.01195463089787
 21
2.000000000000036
 31
0.0
  0
LINE
  5
3A3
330
39C
100
AcDbEntity
  8
치수문자_일반주서
 62
     0
370
    -2
100
AcDbLine
 10
24.01195463089789
 20
-5.301812162734613
 30
0.0
 11
24.0119546308979
 21
-8.603812162734613
 31
0.0
  0
LINE
  5
3A4
330
39C
100
AcDbEntity
  8
치수문자_일반주서
 62
     0
370
    -2
100
AcDbLine
 10
24.01195463089786
 20
5.302000000000035
 30
0.0
 11
24.01195463089785
 21
8.604000000000035
 31
0.0
  0
SOLID
  5
3A5
330
39C
100
AcDbEntity
  8
치수문자_일반주서
 62
     0
100
AcDbTrace
 10
24.56228796423123
 20
-5.301812162734612
 30
0.0
 11
23.46162129756456
 21
-5.301812162734615
 31
0.0
 12
24.01195463089788
 22
-1.999812162734614
 32
0.0
 13
24.01195463089788
 23
-1.999812162734614
 33
0.0
  0
SOLID
  5
3A6
330
39C
100
AcDbEntity
  8
치수문자_일반주서
 62
     0
100
AcDbTrace
 10
23.46162129756452
 20
5.302000000000033
 30
0.0
 11
24.56228796423119
 21
5.302000000000037
 31
0.0
 12
24.01195463089787
 22
2.000000000000036
 32
0.0
 13
24.01195463089787
 23
2.000000000000036
 33
0.0
  0
MTEXT
  5
3A7
330
39C
100
AcDbEntity
  8
치수문자_일반주서
 62
     0
100
AcDbMText
 10
19.63695463089783
 20
11.66650000000002
 30
0.0
 40
3.5
 41
0.0
 71
     2
 72
     1
  1
\A1;%%c4
  7
SLDTEXTSTYLE0
 11
-3.552880519640732E-15
 21
1.0
 31
0.0
 73
     1
 44
1.0
  0
POINT
  5
3A8
330
39C
100
AcDbEntity
  8
Defpoints
 62
     0
100
AcDbPoint
 10
14.01195463089788
 20
-1.99981216273465
 30
0.0
  0
POINT
  5
3A9
330
39C
100
AcDbEntity
  8
Defpoints
 62
     0
100
AcDbPoint
 10
14.01195463089788
 20
1.999999999999999
 30
0.0
  0
POINT
  5
3E7
330
39C
100
AcDbEntity
  8
Defpoints
 62
     0
100
AcDbPoint
 10
24.01195463089786
 20
2.000000000000036
 30
0.0
  0
ENDBLK
  5
39E
330
39C
100
AcDbEntity
  8
0
100
AcDbBlockEnd
  0
BLOCK
  5
3AB
330
3AA
100
AcDbEntity
  8
0
100
AcDbBlockBegin
  2
*D16
 70
     1
 10
0.0
 20
0.0
 30
0.0
  3
*D16
  1

  0
LINE
  5
3AD
330
3AA
100
AcDbEntity
  8
치수문자_일반주서
 62
     0
370
    -2
100
AcDbLine
 10
-35.98804536910211
 20
2.562500000000004
 30
0.0
 11
-35.98804536910211
 21
30.00000000000006
 31
0.0
  0
LINE
  5
3AE
330
3AA
100
AcDbEntity
  8
치수문자_일반주서
 62
     0
370
    -2
100
AcDbLine
 10
14.01195463089788
 20
2.062499999999999
 30
0.0
 11
14.01195463089788
 21
30.00000000000006
 31
0.0
  0
LINE
  5
3AF
330
3AA
100
AcDbEntity
  8
치수문자_일반주서
 62
     0
370
    -2
100
AcDbLine
 10
-32.68604536910211
 20
30.00000000000006
 30
0.0
 11
10.70995463089788
 21
30.00000000000006
 31
0.0
  0
SOLID
  5
3B0
330
3AA
100
AcDbEntity
  8
치수문자_일반주서
 62
     0
100
AcDbTrace
 10
-32.68604536910211
 20
30.55033333333339
 30
0.0
 11
-32.68604536910211
 21
29.44966666666673
 31
0.0
 12
-35.98804536910211
 22
30.00000000000006
 32
0.0
 13
-35.98804536910211
 23
30.00000000000006
 33
0.0
  0
SOLID
  5
3B1
330
3AA
100
AcDbEntity
  8
치수문자_일반주서
 62
     0
100
AcDbTrace
 10
10.70995463089788
 20
29.44966666666673
 30
0.0
 11
10.70995463089788
 21
30.55033333333339
 31
0.0
 12
14.01195463089788
 22
30.00000000000006
 32
0.0
 13
14.01195463089788
 23
30.00000000000006
 33
0.0
  0
MTEXT
  5
3B2
330
3AA
100
AcDbEntity
  8
치수문자_일반주서
 62
     0
100
AcDbMText
 10
-10.98804536910212
 20
34.37500000000006
 30
0.0
 40
3.5
 41
0.0
 71
     2
 72
     1
  1
\A1;50
  7
SLDTEXTSTYLE0
 73
     1
 44
1.0
  0
POINT
  5
3B3
330
3AA
100
AcDbEntity
  8
Defpoints
 62
     0
100
AcDbPoint
 10
-35.98804536910211
 20
2.500000000000004
 30
0.0
  0
POINT
  5
3B4
330
3AA
100
AcDbEntity
  8
Defpoints
 62
     0
100
AcDbPoint
 10
14.01195463089788
 20
1.999999999999999
 30
0.0
  0
POINT
  5
3B5
330
3AA
100
AcDbEntity
  8
Defpoints
 62
     0
100
AcDbPoint
 10
14.01195463089788
 20
30.00000000000006
 30
0.0
  0
ENDBLK
  5
3AC
330
3AA
100
AcDbEntity
  8
0
100
AcDbBlockEnd
  0
BLOCK
  5
3B7
330
3B6
100
AcDbEntity
  8
0
100
AcDbBlockBegin
  2
*D17
 70
     1
 10
0.0
 20
0.0
 30
0.0
  3
*D17
  1

  0
LINE
  5
3B9
330
3B6
100
AcDbEntity
  8
치수문자_일반주서
 62
     0
370
    -2
100
AcDbLine
 10
-35.55054536910211
 20
3.000000000000003
 30
0.0
 11
-45.98804536910213
 21
2.999999999999964
 31
0.0
  0
LINE
  5
3BA
330
3B6
100
AcDbEntity
  8
치수문자_일반주서
 62
     0
370
    -2
100
AcDbLine
 10
-35.55054536910211
 20
-2.999999999999997
 30
0.0
 11
-45.98804536910211
 21
-3.000000000000036
 31
0.0
  0
LINE
  5
3BB
330
3B6
100
AcDbEntity
  8
치수문자_일반주서
 62
     0
370
    -2
100
AcDbLine
 10
-45.98804536910213
 20
2.999999999999964
 30
0.0
 11
-45.98804536910211
 21
-3.000000000000036
 31
0.0
  0
LINE
  5
3BC
330
3B6
100
AcDbEntity
  8
치수문자_일반주서
 62
     0
370
    -2
100
AcDbLine
 10
-45.98804536910215
 20
6.301999999999964
 30
0.0
 11
-45.98804536910216
 21
9.603999999999964
 31
0.0
  0
LINE
  5
3BD
330
3B6
100
AcDbEntity
  8
치수문자_일반주서
 62
     0
370
    -2
100
AcDbLine
 10
-45.9880453691021
 20
-6.302000000000035
 30
0.0
 11
-45.98804536910208
 21
-9.604000000000035
 31
0.0
  0
SOLID
  5
3BE
330
3B6
100
AcDbEntity
  8
치수문자_일반주서
 62
     0
100
AcDbTrace
 10
-46.53837870243548
 20
6.301999999999962
 30
0.0
 11
-45.43771203576881
 21
6.301999999999966
 31
0.0
 12
-45.98804536910213
 22
2.999999999999964
 32
0.0
 13
-45.98804536910213
 23
2.999999999999964
 33
0.0
  0
SOLID
  5
3BF
330
3B6
100
AcDbEntity
  8
치수문자_일반주서
 62
     0
100
AcDbTrace
 10
-45.43771203576876
 20
-6.302000000000033
 30
0.0
 11
-46.53837870243543
 21
-6.302000000000037
 31
0.0
 12
-45.98804536910211
 22
-3.000000000000036
 32
0.0
 13
-45.98804536910211
 23
-3.000000000000036
 33
0.0
  0
MTEXT
  5
3C0
330
3B6
100
AcDbEntity
  8
치수문자_일반주서
 62
     0
100
AcDbMText
 10
-50.36304536910212
 20
0.1876564709990901
 30
0.0
 40
3.5
 41
0.0
 71
     2
 72
     1
  1
\A1;%%c6
  7
SLDTEXTSTYLE0
 11
-3.552713678800501E-15
 21
1.0
 31
0.0
 73
     1
 44
1.0
  0
POINT
  5
3C1
330
3B6
100
AcDbEntity
  8
Defpoints
 62
     0
100
AcDbPoint
 10
-35.48804536910211
 20
3.000000000000004
 30
0.0
  0
POINT
  5
3E8
330
3B6
100
AcDbEntity
  8
Defpoints
 62
     0
100
AcDbPoint
 10
-35.48804536910211
 20
-2.999999999999996
 30
0.0
  0
POINT
  5
3E9
330
3B6
100
AcDbEntity
  8
Defpoints
 62
     0
100
AcDbPoint
 10
-45.98804536910211
 20
-3.000000000000036
 30
0.0
  0
ENDBLK
  5
3B8
330
3B6
100
AcDbEntity
  8
0
100
AcDbBlockEnd
  0
BLOCK
  5
3C5
330
3C4
100
AcDbEntity
  8
0
100
AcDbBlockBegin
  2
*D18
 70
     1
 10
0.0
 20
0.0
 30
0.0
  3
*D18
  1

  0
LINE
  5
3C7
330
3C4
100
AcDbEntity
  8
치수문자_일반주서
 62
     0
370
    -2
100
AcDbLine
 10
8.011954630896938
 20
1.681796573383464
 30
0.0
 11
8.011954630896938
 21
15.30788275874464
 31
0.0
  0
LINE
  5
3C8
330
3C4
100
AcDbEntity
  8
치수문자_일반주서
 62
     0
370
    -2
100
AcDbLine
 10
14.01195463089788
 20
2.062499999999999
 30
0.0
 11
14.01195463089788
 21
15.30788275874464
 31
0.0
  0
LINE
  5
3C9
330
3C4
100
AcDbEntity
  8
치수문자_일반주서
 62
     0
370
    -2
100
AcDbLine
 10
8.011954630896938
 20
15.30788275874464
 30
0.0
 11
14.01195463089788
 21
15.30788275874464
 31
0.0
  0
LINE
  5
3CA
330
3C4
100
AcDbEntity
  8
치수문자_일반주서
 62
     0
370
    -2
100
AcDbLine
 10
4.709954630896938
 20
15.30788275874464
 30
0.0
 11
1.407954630896938
 21
15.30788275874464
 31
0.0
  0
LINE
  5
3CB
330
3C4
100
AcDbEntity
  8
치수문자_일반주서
 62
     0
370
    -2
100
AcDbLine
 10
17.31395463089788
 20
15.30788275874464
 30
0.0
 11
20.61595463089787
 21
15.30788275874464
 31
0.0
  0
SOLID
  5
3CC
330
3C4
100
AcDbEntity
  8
치수문자_일반주서
 62
     0
100
AcDbTrace
 10
4.709954630896938
 20
14.75754942541131
 30
0.0
 11
4.709954630896938
 21
15.85821609207797
 31
0.0
 12
8.011954630896938
 22
15.30788275874464
 32
0.0
 13
8.011954630896938
 23
15.30788275874464
 33
0.0
  0
SOLID
  5
3CD
330
3C4
100
AcDbEntity
  8
치수문자_일반주서
 62
     0
100
AcDbTrace
 10
17.31395463089788
 20
15.85821609207797
 30
0.0
 11
17.31395463089788
 21
14.75754942541131
 31
0.0
 12
14.01195463089788
 22
15.30788275874464
 32
0.0
 13
14.01195463089788
 23
15.30788275874464
 33
0.0
  0
MTEXT
  5
3CE
330
3C4
100
AcDbEntity
  8
치수문자_일반주서
 62
     0
100
AcDbMText
 10
11.01195463089739
 20
19.68288275874464
 30
0.0
 40
3.5
 41
0.0
 71
     2
 72
     1
  1
\A1;6
  7
SLDTEXTSTYLE0
 73
     1
 44
1.0
  0
POINT
  5
3CF
330
3C4
100
AcDbEntity
  8
Defpoints
 62
     0
100
AcDbPoint
 10
8.011954630896938
 20
1.619296573383464
 30
0.0
  0
POINT
  5
3EA
330
3C4
100
AcDbEntity
  8
Defpoints
 62
     0
100
AcDbPoint
 10
14.01195463089788
 20
1.999999999999999
 30
0.0
  0
POINT
  5
3EB
330
3C4
100
AcDbEntity
  8
Defpoints
 62
     0
100
AcDbPoint
 10
14.01195463089788
 20
15.30788275874464
 30
0.0
  0
ENDBLK
  5
3C6
330
3C4
100
AcDbEntity
  8
0
100
AcDbBlockEnd
  0
BLOCK
  5
3D2
330
3D1
100
AcDbEntity
  8
0
100
AcDbBlockBegin
  2
*D19
 70
     1
 10
0.0
 20
0.0
 30
0.0
  3
*D19
  1

  0
LINE
  5
3D4
330
3D1
100
AcDbEntity
  8
치수문자_일반주서
 62
     0
370
    -2
100
AcDbLine
 10
14.01195463089788
 20
2.062499999999999
 30
0.0
 11
14.01195463089788
 21
23.94888346237755
 31
0.0
  0
LINE
  5
3D5
330
3D1
100
AcDbEntity
  8
치수문자_일반주서
 62
     0
370
    -2
100
AcDbLine
 10
4.011954618136571
 20
1.987500000000001
 30
0.0
 11
4.011954618136571
 21
23.94888346237755
 31
0.0
  0
LINE
  5
3D6
330
3D1
100
AcDbEntity
  8
치수문자_일반주서
 62
     0
370
    -2
100
AcDbLine
 10
14.01195463089788
 20
23.94888346237755
 30
0.0
 11
4.011954618136571
 21
23.94888346237755
 31
0.0
  0
LINE
  5
3D7
330
3D1
100
AcDbEntity
  8
치수문자_일반주서
 62
     0
370
    -2
100
AcDbLine
 10
17.31395463089788
 20
23.94888346237755
 30
0.0
 11
20.61595463089787
 21
23.94888346237755
 31
0.0
  0
LINE
  5
3D8
330
3D1
100
AcDbEntity
  8
치수문자_일반주서
 62
     0
370
    -2
100
AcDbLine
 10
0.7099546181365706
 20
23.94888346237755
 30
0.0
 11
-2.592045381863429
 21
23.94888346237755
 31
0.0
  0
SOLID
  5
3D9
330
3D1
100
AcDbEntity
  8
치수문자_일반주서
 62
     0
100
AcDbTrace
 10
17.31395463089788
 20
24.49921679571089
 30
0.0
 11
17.31395463089788
 21
23.39855012904422
 31
0.0
 12
14.01195463089788
 22
23.94888346237755
 32
0.0
 13
14.01195463089788
 23
23.94888346237755
 33
0.0
  0
SOLID
  5
3DA
330
3D1
100
AcDbEntity
  8
치수문자_일반주서
 62
     0
100
AcDbTrace
 10
0.7099546181365706
 20
23.39855012904422
 30
0.0
 11
0.7099546181365706
 21
24.49921679571089
 31
0.0
 12
4.011954618136571
 22
23.94888346237755
 32
0.0
 13
4.011954618136571
 23
23.94888346237755
 33
0.0
  0
MTEXT
  5
3DB
330
3D1
100
AcDbEntity
  8
치수문자_일반주서
 62
     0
100
AcDbMText
 10
9.011954624517223
 20
28.32388346237755
 30
0.0
 40
3.5
 41
0.0
 71
     2
 72
     1
  1
\A1;10
  7
SLDTEXTSTYLE0
 73
     1
 44
1.0
  0
POINT
  5
3DC
330
3D1
100
AcDbEntity
  8
Defpoints
 62
     0
100
AcDbPoint
 10
14.01195463089788
 20
1.999999999999999
 30
0.0
  0
POINT
  5
3DD
330
3D1
100
AcDbEntity
  8
Defpoints
 62
     0
100
AcDbPoint
 10
4.011954618136571
 20
1.925000000000001
 30
0.0
  0
POINT
  5
3DE
330
3D1
100
AcDbEntity
  8
Defpoints
 62
     0
100
AcDbPoint
 10
4.011954618136571
 20
23.94888346237755
 30
0.0
  0
ENDBLK
  5
3D3
330
3D1
100
AcDbEntity
  8
0
100
AcDbBlockEnd
  0
BLOCK
  5
3E0
330
3DF
100
AcDbEntity
  8
0
100
AcDbBlockBegin
  2
*D20
 70
     1
 10
0.0
 20
0.0
 30
0.0
  3
*D20
  1

  0
LINE
  5
3E2
330
3DF
100
AcDbEntity
  8
치수문자_일반주서
 62
     0
370
    -2
100
AcDbLine
 10
56.11620667616303
 20
-4.491307948117655
 30
0.0
 11
66.8207372815392
 21
-17.07550184143054
 31
0.0
  0
MTEXT
  5
3E3
330
3DF
100
AcDbEntity
  8
치수문자_일반주서
 62
     0
100
AcDbMText
 10
66.12725132149758
 20
-12.20886888981757
 30
0.0
 40
3.5
 41
0.0
 71
     5
 72
     1
  1
\A1;R0.1
  7
SLDTEXTSTYLE0
 11
0.6479282933874623
 21
-0.7617013368952497
 31
0.0
 73
     1
 44
1.0
  0
SOLID
  5
3E4
330
3DF
100
AcDbEntity
  8
치수문자_일반주서
 62
     0
100
AcDbTrace
 10
56.53539631190105
 20
-4.134731410656755
 30
0.0
 11
55.69701704042501
 21
-4.847884485578556
 31
0.0
 12
53.97674745139763
 22
-1.976170133689541
 32
0.0
 13
53.97674745139763
 23
-1.976170133689541
 33
0.0
  0
POINT
  5
3E5
330
3DF
100
AcDbEntity
  8
Defpoints
 62
     0
100
AcDbPoint
 10
53.97674745139763
 20
-1.976170133689541
 30
0.0
  0
POINT
  5
3E6
330
3DF
100
AcDbEntity
  8
Defpoints
 62
     0
100
AcDbPoint
 10
53.91195462205887
 20
-1.900000000000004
 30
0.0
  0
ENDBLK
  5
3E1
330
3DF
100
AcDbEntity
  8
0
100
AcDbBlockEnd
  0
BLOCK
  5
47A
330
479
100
AcDbEntity
  8
0
100
AcDbBlockBegin
  2
*D21
 70
     1
 10
0.0
 20
0.0
 30
0.0
  3
*D21
  1

  0
LINE
  5
47B
330
479
100
AcDbEntity
  8
치수문자_일반주서
 62
     0
370
    -2
100
AcDbLine
 10
61.39845165779624
 20
49.37180738881174
 30
0.0
 11
87.45396820311913
 21
49.37180738881184
 31
0.0
  0
LINE
  5
47C
330
479
100
AcDbEntity
  8
치수문자_일반주서
 62
     0
370
    -2
100
AcDbLine
 10
61.39845165779624
 20
50.57180738881175
 30
0.0
 11
87.45396820311913
 21
50.57180738881185
 31
0.0
  0
LINE
  5
47D
330
479
100
AcDbEntity
  8
치수문자_일반주서
 62
     0
370
    -2
100
AcDbLine
 10
87.45396820311913
 20
46.06980738881184
 30
0.0
 11
87.45396820311913
 21
42.76780738881184
 31
0.0
  0
LINE
  5
47E
330
479
100
AcDbEntity
  8
치수문자_일반주서
 62
     0
370
    -2
100
AcDbLine
 10
87.45396820311913
 20
53.87380738881185
 30
0.0
 11
87.45396820311913
 21
57.17580738881185
 31
0.0
  0
SOLID
  5
47F
330
479
100
AcDbEntity
  8
치수문자_일반주서
 62
     0
100
AcDbTrace
 10
88.00430153645246
 20
46.06980738881184
 30
0.0
 11
86.9036348697858
 21
46.06980738881184
 31
0.0
 12
87.45396820311913
 22
49.37180738881184
 32
0.0
 13
87.45396820311913
 23
49.37180738881184
 33
0.0
  0
SOLID
  5
480
330
479
100
AcDbEntity
  8
치수문자_일반주서
 62
     0
100
AcDbTrace
 10
86.9036348697858
 20
53.87380738881185
 30
0.0
 11
88.00430153645246
 21
53.87380738881185
 31
0.0
 12
87.45396820311913
 22
50.57180738881185
 32
0.0
 13
87.45396820311913
 23
50.57180738881185
 33
0.0
  0
MTEXT
  5
481
330
479
100
AcDbEntity
  8
치수문자_일반주서
 62
     0
100
AcDbMText
 10
83.07896820311913
 20
49.97180738881172
 30
0.0
 40
3.5
 41
0.0
 71
     2
 72
     1
  1
\A1;%%c1.2
  7
SLDTEXTSTYLE0
 11
0.0
 21
1.0
 31
0.0
 73
     1
 44
1.0
  0
POINT
  5
482
330
479
100
AcDbEntity
  8
Defpoints
 62
     0
100
AcDbPoint
 10
61.33595165779624
 20
49.37180738881174
 30
0.0
  0
POINT
  5
483
330
479
100
AcDbEntity
  8
Defpoints
 62
     0
100
AcDbPoint
 10
61.33595165779624
 20
50.57180738881175
 30
0.0
  0
POINT
  5
4C2
330
479
100
AcDbEntity
  8
Defpoints
 62
     0
100
AcDbPoint
 10
87.45396820311913
 20
50.57180738881185
 30
0.0
  0
ENDBLK
  5
484
330
479
100
AcDbEntity
  8
0
100
AcDbBlockEnd
  0
BLOCK
  5
487
330
486
100
AcDbEntity
  8
0
100
AcDbBlockBegin
  2
*D22
 70
     1
 10
0.0
 20
0.0
 30
0.0
  3
*D22
  1

  0
LINE
  5
488
330
486
100
AcDbEntity
  8
치수문자_일반주서
 62
     0
370
    -2
100
AcDbLine
 10
16.37145802161209
 20
52.53430738881175
 30
0.0
 11
16.37145802161209
 21
80.97180738881177
 31
0.0
  0
LINE
  5
489
330
486
100
AcDbEntity
  8
치수문자_일반주서
 62
     0
370
    -2
100
AcDbLine
 10
66.37145802161209
 20
51.32931531800514
 30
0.0
 11
66.37145802161209
 21
80.97180738881177
 31
0.0
  0
LINE
  5
48A
330
486
100
AcDbEntity
  8
치수문자_일반주서
 62
     0
370
    -2
100
AcDbLine
 10
19.67345802161208
 20
80.97180738881177
 30
0.0
 11
63.06945802161209
 21
80.97180738881177
 31
0.0
  0
SOLID
  5
48B
330
486
100
AcDbEntity
  8
치수문자_일반주서
 62
     0
100
AcDbTrace
 10
19.67345802161208
 20
81.5221407221451
 30
0.0
 11
19.67345802161208
 21
80.42147405547844
 31
0.0
 12
16.37145802161209
 22
80.97180738881177
 32
0.0
 13
16.37145802161209
 23
80.97180738881177
 33
0.0
  0
SOLID
  5
48C
330
486
100
AcDbEntity
  8
치수문자_일반주서
 62
     0
100
AcDbTrace
 10
63.06945802161209
 20
80.42147405547844
 30
0.0
 11
63.06945802161209
 21
81.5221407221451
 31
0.0
 12
66.37145802161209
 22
80.97180738881177
 32
0.0
 13
66.37145802161209
 23
80.97180738881177
 33
0.0
  0
MTEXT
  5
48D
330
486
100
AcDbEntity
  8
치수문자_일반주서
 62
     0
100
AcDbMText
 10
41.37145802161209
 20
85.34680738881177
 30
0.0
 40
3.5
 41
0.0
 71
     2
 72
     1
  1
\A1;50
  7
SLDTEXTSTYLE0
 73
     1
 44
1.0
  0
POINT
  5
48E
330
486
100
AcDbEntity
  8
Defpoints
 62
     0
100
AcDbPoint
 10
16.37145802161209
 20
52.47180738881175
 30
0.0
  0
POINT
  5
48F
330
486
100
AcDbEntity
  8
Defpoints
 62
     0
100
AcDbPoint
 10
66.37145802161209
 20
51.26681531800514
 30
0.0
  0
POINT
  5
490
330
486
100
AcDbEntity
  8
Defpoints
 62
     0
100
AcDbPoint
 10
66.37145802161209
 20
80.97180738881177
 30
0.0
  0
ENDBLK
  5
491
330
486
100
AcDbEntity
  8
0
100
AcDbBlockEnd
  0
BLOCK
  5
494
330
493
100
AcDbEntity
  8
0
100
AcDbBlockBegin
  2
*D23
 70
     1
 10
0.0
 20
0.0
 30
0.0
  3
*D23
  1

  0
LINE
  5
495
330
493
100
AcDbEntity
  8
치수문자_일반주서
 62
     0
370
    -2
100
AcDbLine
 10
16.80895802161209
 20
52.97180738881175
 30
0.0
 11
4.374999999999989
 21
52.9718073888117
 31
0.0
  0
LINE
  5
496
330
493
100
AcDbEntity
  8
치수문자_일반주서
 62
     0
370
    -2
100
AcDbLine
 10
16.80895802161209
 20
46.97180738881175
 30
0.0
 11
4.375000000000011
 21
46.9718073888117
 31
0.0
  0
LINE
  5
497
330
493
100
AcDbEntity
  8
치수문자_일반주서
 62
     0
370
    -2
100
AcDbLine
 10
4.375000000000001
 20
49.6698073888117
 30
0.0
 11
4.374999999999999
 21
50.2738073888117
 31
0.0
  0
SOLID
  5
498
330
493
100
AcDbEntity
  8
치수문자_일반주서
 62
     0
100
AcDbTrace
 10
4.925333333333334
 20
49.6698073888117
 30
0.0
 11
3.824666666666667
 21
49.6698073888117
 31
0.0
 12
4.374999999999989
 22
52.9718073888117
 32
0.0
 13
4.374999999999989
 23
52.9718073888117
 33
0.0
  0
SOLID
  5
499
330
493
100
AcDbEntity
  8
치수문자_일반주서
 62
     0
100
AcDbTrace
 10
3.824666666666666
 20
50.2738073888117
 30
0.0
 11
4.925333333333333
 21
50.2738073888117
 31
0.0
 12
4.375000000000011
 22
46.9718073888117
 32
0.0
 13
4.375000000000011
 23
46.9718073888117
 33
0.0
  0
MTEXT
  5
49A
330
493
100
AcDbEntity
  8
치수문자_일반주서
 62
     0
100
AcDbMText
 10
0.0
 20
49.97180738881173
 30
0.0
 40
3.5
 41
0.0
 71
     2
 72
     1
  1
\A1;%%c6
  7
SLDTEXTSTYLE0
 11
-3.552713678800501E-15
 21
1.0
 31
0.0
 73
     1
 44
1.0
  0
POINT
  5
49B
330
493
100
AcDbEntity
  8
Defpoints
 62
     0
100
AcDbPoint
 10
16.87145802161209
 20
52.97180738881175
 30
0.0
  0
POINT
  5
49C
330
493
100
AcDbEntity
  8
Defpoints
 62
     0
100
AcDbPoint
 10
16.87145802161209
 20
46.97180738881175
 30
0.0
  0
POINT
  5
49D
330
493
100
AcDbEntity
  8
Defpoints
 62
     0
100
AcDbPoint
 10
4.375000000000014
 20
46.9718073888117
 30
0.0
  0
ENDBLK
  5
49E
330
493
100
AcDbEntity
  8
0
100
AcDbBlockEnd
  0
BLOCK
  5
4A1
330
4A0
100
AcDbEntity
  8
0
100
AcDbBlockBegin
  2
*D24
 70
     1
 10
0.0
 20
0.0
 30
0.0
  3
*D24
  1

  0
LINE
  5
4A2
330
4A0
100
AcDbEntity
  8
치수문자_일반주서
 62
     0
370
    -2
100
AcDbLine
 10
60.37145802161209
 20
51.65360396220746
 30
0.0
 11
60.37145802161209
 21
66.41351656047921
 31
0.0
  0
LINE
  5
4A3
330
4A0
100
AcDbEntity
  8
치수문자_일반주서
 62
     0
370
    -2
100
AcDbLine
 10
66.37145802161209
 20
51.32931531800514
 30
0.0
 11
66.37145802161209
 21
66.41351656047921
 31
0.0
  0
LINE
  5
4A4
330
4A0
100
AcDbEntity
  8
치수문자_일반주서
 62
     0
370
    -2
100
AcDbLine
 10
63.67345802161208
 20
66.41351656047921
 30
0.0
 11
63.06945802161209
 21
66.41351656047921
 31
0.0
  0
SOLID
  5
4A5
330
4A0
100
AcDbEntity
  8
치수문자_일반주서
 62
     0
100
AcDbTrace
 10
63.67345802161208
 20
66.96384989381254
 30
0.0
 11
63.67345802161208
 21
65.86318322714588
 31
0.0
 12
60.37145802161209
 22
66.41351656047921
 32
0.0
 13
60.37145802161209
 23
66.41351656047921
 33
0.0
  0
SOLID
  5
4A6
330
4A0
100
AcDbEntity
  8
치수문자_일반주서
 62
     0
100
AcDbTrace
 10
63.06945802161209
 20
65.86318322714588
 30
0.0
 11
63.06945802161209
 21
66.96384989381254
 31
0.0
 12
66.37145802161209
 22
66.41351656047921
 32
0.0
 13
66.37145802161209
 23
66.41351656047921
 33
0.0
  0
MTEXT
  5
4A7
330
4A0
100
AcDbEntity
  8
치수문자_일반주서
 62
     0
100
AcDbMText
 10
63.37145802161209
 20
70.78851656047921
 30
0.0
 40
3.5
 41
0.0
 71
     2
 72
     1
  1
\A1;6
  7
SLDTEXTSTYLE0
 73
     1
 44
1.0
  0
POINT
  5
4A8
330
4A0
100
AcDbEntity
  8
Defpoints
 62
     0
100
AcDbPoint
 10
60.37145802161209
 20
51.59110396220746
 30
0.0
  0
POINT
  5
4A9
330
4A0
100
AcDbEntity
  8
Defpoints
 62
     0
100
AcDbPoint
 10
66.37145802161209
 20
51.26681531800514
 30
0.0
  0
POINT
  5
4AA
330
4A0
100
AcDbEntity
  8
Defpoints
 62
     0
100
AcDbPoint
 10
66.37145802161209
 20
66.41351656047921
 30
0.0
  0
ENDBLK
  5
4AB
330
4A0
100
AcDbEntity
  8
0
100
AcDbBlockEnd
  0
BLOCK
  5
4AE
330
4AD
100
AcDbEntity
  8
0
100
AcDbBlockBegin
  2
*D25
 70
     1
 10
0.0
 20
0.0
 30
0.0
  3
*D25
  1

  0
LINE
  5
4AF
330
4AD
100
AcDbEntity
  8
치수문자_일반주서
 62
     0
370
    -2
100
AcDbLine
 10
66.37145802161209
 20
51.92956652060439
 30
0.0
 11
66.37145802161209
 21
75.31874179029826
 31
0.0
  0
LINE
  5
4B0
330
4AD
100
AcDbEntity
  8
치수문자_일반주서
 62
     0
370
    -2
100
AcDbLine
 10
54.37145801713064
 20
51.95930738881175
 30
0.0
 11
54.37145801713064
 21
75.31874179029826
 31
0.0
  0
LINE
  5
4B1
330
4AD
100
AcDbEntity
  8
치수문자_일반주서
 62
     0
370
    -2
100
AcDbLine
 10
63.06945802161209
 20
75.31874179029826
 30
0.0
 11
57.67345801713063
 21
75.31874179029826
 31
0.0
  0
SOLID
  5
4B2
330
4AD
100
AcDbEntity
  8
치수문자_일반주서
 62
     0
100
AcDbTrace
 10
63.06945802161209
 20
74.76840845696493
 30
0.0
 11
63.06945802161209
 21
75.86907512363159
 31
0.0
 12
66.37145802161209
 22
75.31874179029826
 32
0.0
 13
66.37145802161209
 23
75.31874179029826
 33
0.0
  0
SOLID
  5
4B3
330
4AD
100
AcDbEntity
  8
치수문자_일반주서
 62
     0
100
AcDbTrace
 10
57.67345801713063
 20
75.86907512363159
 30
0.0
 11
57.67345801713063
 21
74.76840845696493
 31
0.0
 12
54.37145801713064
 22
75.31874179029826
 32
0.0
 13
54.37145801713064
 23
75.31874179029826
 33
0.0
  0
MTEXT
  5
4B4
330
4AD
100
AcDbEntity
  8
치수문자_일반주서
 62
     0
100
AcDbMText
 10
60.37145801937136
 20
79.69374179029826
 30
0.0
 40
3.5
 41
0.0
 71
     2
 72
     1
  1
\A1;12
  7
SLDTEXTSTYLE0
 73
     1
 44
1.0
  0
POINT
  5
4B5
330
4AD
100
AcDbEntity
  8
Defpoints
 62
     0
100
AcDbPoint
 10
66.37145802161209
 20
51.86706652060439
 30
0.0
  0
POINT
  5
4B6
330
4AD
100
AcDbEntity
  8
Defpoints
 62
     0
100
AcDbPoint
 10
54.37145801713064
 20
51.89680738881175
 30
0.0
  0
POINT
  5
4B7
330
4AD
100
AcDbEntity
  8
Defpoints
 62
     0
100
AcDbPoint
 10
54.37145801713064
 20
75.31874179029826
 30
0.0
  0
ENDBLK
  5
4B8
330
4AD
100
AcDbEntity
  8
0
100
AcDbBlockEnd
  0
BLOCK
  5
513
330
512
100
AcDbEntity
  8
0
100
AcDbBlockBegin
  2
*D26
 70
     1
 10
0.0
 20
0.0
 30
0.0
  3
*D26
  1

  0
LINE
  5
515
330
512
100
AcDbEntity
  8
치수문자_일반주서
 62
     0
370
    -2
100
AcDbLine
 10
123.4595849699925
 20
0.7896482200943356
 30
0.0
 11
149.5151015153154
 21
0.7896482200944328
 31
0.0
  0
LINE
  5
516
330
512
100
AcDbEntity
  8
치수문자_일반주서
 62
     0
370
    -2
100
AcDbLine
 10
123.4595849699925
 20
1.989648220094345
 30
0.0
 11
149.5151015153154
 21
1.989648220094443
 31
0.0
  0
LINE
  5
517
330
512
100
AcDbEntity
  8
치수문자_일반주서
 62
     0
370
    -2
100
AcDbLine
 10
149.5151015153154
 20
-2.512351779905567
 30
0.0
 11
149.5151015153154
 21
-5.814351779905568
 31
0.0
  0
LINE
  5
518
330
512
100
AcDbEntity
  8
치수문자_일반주서
 62
     0
370
    -2
100
AcDbLine
 10
149.5151015153154
 20
5.291648220094443
 30
0.0
 11
149.5151015153154
 21
8.593648220094442
 31
0.0
  0
SOLID
  5
519
330
512
100
AcDbEntity
  8
치수문자_일반주서
 62
     0
100
AcDbTrace
 10
150.0654348486487
 20
-2.512351779905567
 30
0.0
 11
148.9647681819821
 21
-2.512351779905567
 31
0.0
 12
149.5151015153154
 22
0.7896482200944328
 32
0.0
 13
149.5151015153154
 23
0.7896482200944328
 33
0.0
  0
SOLID
  5
51A
330
512
100
AcDbEntity
  8
치수문자_일반주서
 62
     0
100
AcDbTrace
 10
148.9647681819821
 20
5.291648220094443
 30
0.0
 11
150.0654348486487
 21
5.291648220094443
 31
0.0
 12
149.5151015153154
 22
1.989648220094443
 32
0.0
 13
149.5151015153154
 23
1.989648220094443
 33
0.0
  0
MTEXT
  5
51B
330
512
100
AcDbEntity
  8
치수문자_일반주서
 62
     0
100
AcDbMText
 10
145.1401015153154
 20
1.389648220094315
 30
0.0
 40
3.5
 41
0.0
 71
     2
 72
     1
  1
\A1;%%c1.2
  7
SLDTEXTSTYLE0
 11
0.0
 21
1.0
 31
0.0
 73
     1
 44
1.0
  0
POINT
  5
51C
330
512
100
AcDbEntity
  8
Defpoints
 62
     0
100
AcDbPoint
 10
123.3970849699925
 20
0.7896482200943353
 30
0.0
  0
POINT
  5
51D
330
512
100
AcDbEntity
  8
Defpoints
 62
     0
100
AcDbPoint
 10
123.3970849699925
 20
1.989648220094345
 30
0.0
  0
POINT
  5
51E
330
512
100
AcDbEntity
  8
Defpoints
 62
     0
100
AcDbPoint
 10
149.5151015153154
 20
1.989648220094443
 30
0.0
  0
ENDBLK
  5
514
330
512
100
AcDbEntity
  8
0
100
AcDbBlockEnd
  0
BLOCK
  5
520
330
51F
100
AcDbEntity
  8
0
100
AcDbBlockBegin
  2
*D27
 70
     1
 10
0.0
 20
0.0
 30
0.0
  3
*D27
  1

  0
LINE
  5
522
330
51F
100
AcDbEntity
  8
치수문자_일반주서
 62
     0
370
    -2
100
AcDbLine
 10
78.43259133380836
 20
3.952148220094344
 30
0.0
 11
78.43259133380836
 21
32.38964822009437
 31
0.0
  0
LINE
  5
523
330
51F
100
AcDbEntity
  8
치수문자_일반주서
 62
     0
370
    -2
100
AcDbLine
 10
128.4325913338084
 20
2.747156149287733
 30
0.0
 11
128.4325913338084
 21
32.38964822009437
 31
0.0
  0
LINE
  5
524
330
51F
100
AcDbEntity
  8
치수문자_일반주서
 62
     0
370
    -2
100
AcDbLine
 10
81.73459133380837
 20
32.38964822009437
 30
0.0
 11
125.1305913338084
 21
32.38964822009437
 31
0.0
  0
SOLID
  5
525
330
51F
100
AcDbEntity
  8
치수문자_일반주서
 62
     0
100
AcDbTrace
 10
81.73459133380837
 20
32.9399815534277
 30
0.0
 11
81.73459133380837
 21
31.83931488676103
 31
0.0
 12
78.43259133380836
 22
32.38964822009437
 32
0.0
 13
78.43259133380836
 23
32.38964822009437
 33
0.0
  0
SOLID
  5
526
330
51F
100
AcDbEntity
  8
치수문자_일반주서
 62
     0
100
AcDbTrace
 10
125.1305913338084
 20
31.83931488676103
 30
0.0
 11
125.1305913338084
 21
32.9399815534277
 31
0.0
 12
128.4325913338084
 22
32.38964822009437
 32
0.0
 13
128.4325913338084
 23
32.38964822009437
 33
0.0
  0
MTEXT
  5
527
330
51F
100
AcDbEntity
  8
치수문자_일반주서
 62
     0
100
AcDbMText
 10
103.4325913338084
 20
36.76464822009437
 30
0.0
 40
3.5
 41
0.0
 71
     2
 72
     1
  1
\A1;50
  7
SLDTEXTSTYLE0
 73
     1
 44
1.0
  0
POINT
  5
528
330
51F
100
AcDbEntity
  8
Defpoints
 62
     0
100
AcDbPoint
 10
78.43259133380836
 20
3.889648220094344
 30
0.0
  0
POINT
  5
529
330
51F
100
AcDbEntity
  8
Defpoints
 62
     0
100
AcDbPoint
 10
128.4325913338084
 20
2.684656149287733
 30
0.0
  0
POINT
  5
52A
330
51F
100
AcDbEntity
  8
Defpoints
 62
     0
100
AcDbPoint
 10
128.4325913338084
 20
32.38964822009437
 30
0.0
  0
ENDBLK
  5
521
330
51F
100
AcDbEntity
  8
0
100
AcDbBlockEnd
  0
BLOCK
  5
52C
330
52B
100
AcDbEntity
  8
0
100
AcDbBlockBegin
  2
*D28
 70
     1
 10
0.0
 20
0.0
 30
0.0
  3
*D28
  1

  0
LINE
  5
52E
330
52B
100
AcDbEntity
  8
치수문자_일반주서
 62
     0
370
    -2
100
AcDbLine
 10
78.87009133380836
 20
4.389648220094344
 30
0.0
 11
66.43613331219628
 21
4.389648220094296
 31
0.0
  0
LINE
  5
52F
330
52B
100
AcDbEntity
  8
치수문자_일반주서
 62
     0
370
    -2
100
AcDbLine
 10
78.87009133380836
 20
-1.610351779905656
 30
0.0
 11
66.43613331219629
 21
-1.610351779905704
 31
0.0
  0
LINE
  5
530
330
52B
100
AcDbEntity
  8
치수문자_일반주서
 62
     0
370
    -2
100
AcDbLine
 10
66.43613331219629
 20
1.087648220094296
 30
0.0
 11
66.43613331219628
 21
1.691648220094296
 31
0.0
  0
SOLID
  5
531
330
52B
100
AcDbEntity
  8
치수문자_일반주서
 62
     0
100
AcDbTrace
 10
66.98646664552962
 20
1.087648220094297
 30
0.0
 11
65.88579997886296
 21
1.087648220094295
 31
0.0
 12
66.43613331219628
 22
4.389648220094296
 32
0.0
 13
66.43613331219628
 23
4.389648220094296
 33
0.0
  0
SOLID
  5
532
330
52B
100
AcDbEntity
  8
치수문자_일반주서
 62
     0
100
AcDbTrace
 10
65.88579997886295
 20
1.691648220094295
 30
0.0
 11
66.9864666455296
 21
1.691648220094297
 31
0.0
 12
66.43613331219629
 22
-1.610351779905704
 32
0.0
 13
66.43613331219629
 23
-1.610351779905704
 33
0.0
  0
MTEXT
  5
533
330
52B
100
AcDbEntity
  8
치수문자_일반주서
 62
     0
100
AcDbMText
 10
62.06113331219628
 20
1.389648220094333
 30
0.0
 40
3.5
 41
0.0
 71
     2
 72
     1
  1
\A1;%%c6
  7
SLDTEXTSTYLE0
 11
-2.368475785867001E-15
 21
1.0
 31
0.0
 73
     1
 44
1.0
  0
POINT
  5
534
330
52B
100
AcDbEntity
  8
Defpoints
 62
     0
100
AcDbPoint
 10
78.93259133380836
 20
4.389648220094344
 30
0.0
  0
POINT
  5
535
330
52B
100
AcDbEntity
  8
Defpoints
 62
     0
100
AcDbPoint
 10
78.93259133380836
 20
-1.610351779905656
 30
0.0
  0
POINT
  5
536
330
52B
100
AcDbEntity
  8
Defpoints
 62
     0
100
AcDbPoint
 10
66.43613331219629
 20
-1.610351779905703
 30
0.0
  0
ENDBLK
  5
52D
330
52B
100
AcDbEntity
  8
0
100
AcDbBlockEnd
  0
BLOCK
  5
538
330
537
100
AcDbEntity
  8
0
100
AcDbBlockBegin
  2
*D29
 70
     1
 10
0.0
 20
0.0
 30
0.0
  3
*D29
  1

  0
LINE
  5
53A
330
537
100
AcDbEntity
  8
치수문자_일반주서
 62
     0
370
    -2
100
AcDbLine
 10
122.4325913338084
 20
3.071444793490059
 30
0.0
 11
122.4325913338084
 21
17.83135739176181
 31
0.0
  0
LINE
  5
53B
330
537
100
AcDbEntity
  8
치수문자_일반주서
 62
     0
370
    -2
100
AcDbLine
 10
128.4325913338084
 20
2.747156149287733
 30
0.0
 11
128.4325913338084
 21
17.83135739176181
 31
0.0
  0
LINE
  5
53C
330
537
100
AcDbEntity
  8
치수문자_일반주서
 62
     0
370
    -2
100
AcDbLine
 10
125.7345913338084
 20
17.83135739176181
 30
0.0
 11
125.1305913338084
 21
17.83135739176181
 31
0.0
  0
SOLID
  5
53D
330
537
100
AcDbEntity
  8
치수문자_일반주서
 62
     0
100
AcDbTrace
 10
125.7345913338084
 20
18.38169072509514
 30
0.0
 11
125.7345913338084
 21
17.28102405842847
 31
0.0
 12
122.4325913338084
 22
17.83135739176181
 32
0.0
 13
122.4325913338084
 23
17.83135739176181
 33
0.0
  0
SOLID
  5
53E
330
537
100
AcDbEntity
  8
치수문자_일반주서
 62
     0
100
AcDbTrace
 10
125.1305913338084
 20
17.28102405842847
 30
0.0
 11
125.1305913338084
 21
18.38169072509514
 31
0.0
 12
128.4325913338084
 22
17.83135739176181
 32
0.0
 13
128.4325913338084
 23
17.83135739176181
 33
0.0
  0
MTEXT
  5
53F
330
537
100
AcDbEntity
  8
치수문자_일반주서
 62
     0
100
AcDbMText
 10
125.4325913338084
 20
22.20635739176181
 30
0.0
 40
3.5
 41
0.0
 71
     2
 72
     1
  1
\A1;6
  7
SLDTEXTSTYLE0
 73
     1
 44
1.0
  0
POINT
  5
540
330
537
100
AcDbEntity
  8
Defpoints
 62
     0
100
AcDbPoint
 10
122.4325913338084
 20
3.008944793490059
 30
0.0
  0
POINT
  5
541
330
537
100
AcDbEntity
  8
Defpoints
 62
     0
100
AcDbPoint
 10
128.4325913338084
 20
2.684656149287733
 30
0.0
  0
POINT
  5
542
330
537
100
AcDbEntity
  8
Defpoints
 62
     0
100
AcDbPoint
 10
128.4325913338084
 20
17.83135739176181
 30
0.0
  0
ENDBLK
  5
539
330
537
100
AcDbEntity
  8
0
100
AcDbBlockEnd
  0
BLOCK
  5
544
330
543
100
AcDbEntity
  8
0
100
AcDbBlockBegin
  2
*D30
 70
     1
 10
0.0
 20
0.0
 30
0.0
  3
*D30
  1

  0
LINE
  5
546
330
543
100
AcDbEntity
  8
치수문자_일반주서
 62
     0
370
    -2
100
AcDbLine
 10
128.4325913338084
 20
3.347407351886986
 30
0.0
 11
128.4325913338084
 21
26.73658262158086
 31
0.0
  0
LINE
  5
547
330
543
100
AcDbEntity
  8
치수문자_일반주서
 62
     0
370
    -2
100
AcDbLine
 10
116.4325913293269
 20
3.377148220094348
 30
0.0
 11
116.4325913293269
 21
26.73658262158086
 31
0.0
  0
LINE
  5
548
330
543
100
AcDbEntity
  8
치수문자_일반주서
 62
     0
370
    -2
100
AcDbLine
 10
125.1305913338084
 20
26.73658262158086
 30
0.0
 11
119.7345913293269
 21
26.73658262158086
 31
0.0
  0
SOLID
  5
549
330
543
100
AcDbEntity
  8
치수문자_일반주서
 62
     0
100
AcDbTrace
 10
125.1305913338084
 20
26.18624928824752
 30
0.0
 11
125.1305913338084
 21
27.28691595491419
 31
0.0
 12
128.4325913338084
 22
26.73658262158086
 32
0.0
 13
128.4325913338084
 23
26.73658262158086
 33
0.0
  0
SOLID
  5
54A
330
543
100
AcDbEntity
  8
치수문자_일반주서
 62
     0
100
AcDbTrace
 10
119.7345913293269
 20
27.28691595491419
 30
0.0
 11
119.7345913293269
 21
26.18624928824752
 31
0.0
 12
116.4325913293269
 22
26.73658262158086
 32
0.0
 13
116.4325913293269
 23
26.73658262158086
 33
0.0
  0
MTEXT
  5
54B
330
543
100
AcDbEntity
  8
치수문자_일반주서
 62
     0
100
AcDbMText
 10
122.4325913315676
 20
31.11158262158086
 30
0.0
 40
3.5
 41
0.0
 71
     2
 72
     1
  1
\A1;12
  7
SLDTEXTSTYLE0
 73
     1
 44
1.0
  0
POINT
  5
54C
330
543
100
AcDbEntity
  8
Defpoints
 62
     0
100
AcDbPoint
 10
128.4325913338084
 20
3.284907351886986
 30
0.0
  0
POINT
  5
54D
330
543
100
AcDbEntity
  8
Defpoints
 62
     0
100
AcDbPoint
 10
116.4325913293269
 20
3.314648220094348
 30
0.0
  0
POINT
  5
54E
330
543
100
AcDbEntity
  8
Defpoints
 62
     0
100
AcDbPoint
 10
116.4325913293269
 20
26.73658262158086
 30
0.0
  0
ENDBLK
  5
545
330
543
100
AcDbEntity
  8
0
100
AcDbBlockEnd
  0
BLOCK
  5
61F
330
61E
100
AcDbEntity
  8
0
100
AcDbBlockBegin
  2
*D31
 70
     1
 10
0.0
 20
0.0
 30
0.0
  3
*D31
  1

  0
LINE
  5
621
330
61E
100
AcDbEntity
  8
치수문자_일반주서
 62
     0
370
    -2
100
AcDbLine
 10
71.58866092365797
 20
49.37180738881174
 30
0.0
 11
97.64417746898087
 21
49.37180738881184
 31
0.0
  0
LINE
  5
622
330
61E
100
AcDbEntity
  8
치수문자_일반주서
 62
     0
370
    -2
100
AcDbLine
 10
71.58866092365797
 20
50.57180738881175
 30
0.0
 11
97.64417746898087
 21
50.57180738881185
 31
0.0
  0
LINE
  5
623
330
61E
100
AcDbEntity
  8
치수문자_일반주서
 62
     0
370
    -2
100
AcDbLine
 10
97.64417746898087
 20
46.06980738881184
 30
0.0
 11
97.64417746898087
 21
42.76780738881184
 31
0.0
  0
LINE
  5
624
330
61E
100
AcDbEntity
  8
치수문자_일반주서
 62
     0
370
    -2
100
AcDbLine
 10
97.64417746898087
 20
53.87380738881185
 30
0.0
 11
97.64417746898087
 21
57.17580738881185
 31
0.0
  0
SOLID
  5
625
330
61E
100
AcDbEntity
  8
치수문자_일반주서
 62
     0
100
AcDbTrace
 10
98.1945108023142
 20
46.06980738881184
 30
0.0
 11
97.09384413564754
 21
46.06980738881184
 31
0.0
 12
97.64417746898087
 22
49.37180738881184
 32
0.0
 13
97.64417746898087
 23
49.37180738881184
 33
0.0
  0
SOLID
  5
626
330
61E
100
AcDbEntity
  8
치수문자_일반주서
 62
     0
100
AcDbTrace
 10
97.09384413564754
 20
53.87380738881185
 30
0.0
 11
98.1945108023142
 21
53.87380738881185
 31
0.0
 12
97.64417746898087
 22
50.57180738881185
 32
0.0
 13
97.64417746898087
 23
50.57180738881185
 33
0.0
  0
MTEXT
  5
627
330
61E
100
AcDbEntity
  8
치수문자_일반주서
 62
     0
100
AcDbMText
 10
93.26917746898087
 20
49.97180738881172
 30
0.0
 40
3.5
 41
0.0
 71
     2
 72
     1
  1
\A1;%%c1.2
  7
SLDTEXTSTYLE0
 11
0.0
 21
1.0
 31
0.0
 73
     1
 44
1.0
  0
POINT
  5
628
330
61E
100
AcDbEntity
  8
Defpoints
 62
     0
100
AcDbPoint
 10
71.52616092365797
 20
49.37180738881174
 30
0.0
  0
POINT
  5
629
330
61E
100
AcDbEntity
  8
Defpoints
 62
     0
100
AcDbPoint
 10
71.52616092365797
 20
50.57180738881175
 30
0.0
  0
POINT
  5
62A
330
61E
100
AcDbEntity
  8
Defpoints
 62
     0
100
AcDbPoint
 10
97.64417746898087
 20
50.57180738881185
 30
0.0
  0
ENDBLK
  5
620
330
61E
100
AcDbEntity
  8
0
100
AcDbBlockEnd
  0
BLOCK
  5
62C
330
62B
100
AcDbEntity
  8
0
100
AcDbBlockBegin
  2
*D32
 70
     1
 10
0.0
 20
0.0
 30
0.0
  3
*D32
  1

  0
LINE
  5
62E
330
62B
100
AcDbEntity
  8
치수문자_일반주서
 62
     0
370
    -2
100
AcDbLine
 10
16.56166728747381
 20
52.53430738881175
 30
0.0
 11
16.56166728747381
 21
80.97180738881175
 31
0.0
  0
LINE
  5
62F
330
62B
100
AcDbEntity
  8
치수문자_일반주서
 62
     0
370
    -2
100
AcDbLine
 10
76.56166728747381
 20
51.32931531800514
 30
0.0
 11
76.56166728747381
 21
80.97180738881175
 31
0.0
  0
LINE
  5
630
330
62B
100
AcDbEntity
  8
치수문자_일반주서
 62
     0
370
    -2
100
AcDbLine
 10
19.86366728747381
 20
80.97180738881175
 30
0.0
 11
73.2596672874738
 21
80.97180738881175
 31
0.0
  0
SOLID
  5
631
330
62B
100
AcDbEntity
  8
치수문자_일반주서
 62
     0
100
AcDbTrace
 10
19.86366728747381
 20
81.52214072214508
 30
0.0
 11
19.86366728747381
 21
80.42147405547843
 31
0.0
 12
16.56166728747381
 22
80.97180738881175
 32
0.0
 13
16.56166728747381
 23
80.97180738881175
 33
0.0
  0
SOLID
  5
632
330
62B
100
AcDbEntity
  8
치수문자_일반주서
 62
     0
100
AcDbTrace
 10
73.2596672874738
 20
80.42147405547843
 30
0.0
 11
73.2596672874738
 21
81.52214072214508
 31
0.0
 12
76.56166728747381
 22
80.97180738881175
 32
0.0
 13
76.56166728747381
 23
80.97180738881175
 33
0.0
  0
MTEXT
  5
633
330
62B
100
AcDbEntity
  8
치수문자_일반주서
 62
     0
100
AcDbMText
 10
46.56166728747381
 20
85.34680738881175
 30
0.0
 40
3.5
 41
0.0
 71
     2
 72
     1
  1
\A1;60
  7
SLDTEXTSTYLE0
 73
     1
 44
1.0
  0
POINT
  5
634
330
62B
100
AcDbEntity
  8
Defpoints
 62
     0
100
AcDbPoint
 10
16.56166728747381
 20
52.47180738881175
 30
0.0
  0
POINT
  5
635
330
62B
100
AcDbEntity
  8
Defpoints
 62
     0
100
AcDbPoint
 10
76.56166728747381
 20
51.26681531800514
 30
0.0
  0
POINT
  5
636
330
62B
100
AcDbEntity
  8
Defpoints
 62
     0
100
AcDbPoint
 10
76.56166728747381
 20
80.97180738881175
 30
0.0
  0
ENDBLK
  5
62D
330
62B
100
AcDbEntity
  8
0
100
AcDbBlockEnd
  0
BLOCK
  5
638
330
637
100
AcDbEntity
  8
0
100
AcDbBlockBegin
  2
*D33
 70
     1
 10
0.0
 20
0.0
 30
0.0
  3
*D33
  1

  0
LINE
  5
63A
330
637
100
AcDbEntity
  8
치수문자_일반주서
 62
     0
370
    -2
100
AcDbLine
 10
16.99916728747382
 20
52.97180738881175
 30
0.0
 11
4.565209265861728
 21
52.9718073888117
 31
0.0
  0
LINE
  5
63B
330
637
100
AcDbEntity
  8
치수문자_일반주서
 62
     0
370
    -2
100
AcDbLine
 10
16.99916728747382
 20
46.97180738881175
 30
0.0
 11
4.56520926586175
 21
46.9718073888117
 31
0.0
  0
LINE
  5
63C
330
637
100
AcDbEntity
  8
치수문자_일반주서
 62
     0
370
    -2
100
AcDbLine
 10
4.56520926586174
 20
49.6698073888117
 30
0.0
 11
4.565209265861738
 21
50.2738073888117
 31
0.0
  0
SOLID
  5
63D
330
637
100
AcDbEntity
  8
치수문자_일반주서
 62
     0
100
AcDbTrace
 10
5.115542599195074
 20
49.6698073888117
 30
0.0
 11
4.014875932528406
 21
49.6698073888117
 31
0.0
 12
4.565209265861728
 22
52.9718073888117
 32
0.0
 13
4.565209265861728
 23
52.9718073888117
 33
0.0
  0
SOLID
  5
63E
330
637
100
AcDbEntity
  8
치수문자_일반주서
 62
     0
100
AcDbTrace
 10
4.014875932528405
 20
50.2738073888117
 30
0.0
 11
5.115542599195072
 21
50.2738073888117
 31
0.0
 12
4.56520926586175
 22
46.9718073888117
 32
0.0
 13
4.56520926586175
 23
46.9718073888117
 33
0.0
  0
MTEXT
  5
63F
330
637
100
AcDbEntity
  8
치수문자_일반주서
 62
     0
100
AcDbMText
 10
0.1902092658617391
 20
49.97180738881173
 30
0.0
 40
3.5
 41
0.0
 71
     2
 72
     1
  1
\A1;%%c6
  7
SLDTEXTSTYLE0
 11
-3.552713678800505E-15
 21
1.0
 31
0.0
 73
     1
 44
1.0
  0
POINT
  5
640
330
637
100
AcDbEntity
  8
Defpoints
 62
     0
100
AcDbPoint
 10
17.06166728747382
 20
52.97180738881175
 30
0.0
  0
POINT
  5
641
330
637
100
AcDbEntity
  8
Defpoints
 62
     0
100
AcDbPoint
 10
17.06166728747382
 20
46.97180738881175
 30
0.0
  0
POINT
  5
642
330
637
100
AcDbEntity
  8
Defpoints
 62
     0
100
AcDbPoint
 10
4.565209265861739
 20
46.9718073888117
 30
0.0
  0
ENDBLK
  5
639
330
637
100
AcDbEntity
  8
0
100
AcDbBlockEnd
  0
BLOCK
  5
644
330
643
100
AcDbEntity
  8
0
100
AcDbBlockBegin
  2
*D34
 70
     1
 10
0.0
 20
0.0
 30
0.0
  3
*D34
  1

  0
LINE
  5
646
330
643
100
AcDbEntity
  8
치수문자_일반주서
 62
     0
370
    -2
100
AcDbLine
 10
70.56166728747381
 20
51.65360396220746
 30
0.0
 11
70.56166728747381
 21
66.41351656047921
 31
0.0
  0
LINE
  5
647
330
643
100
AcDbEntity
  8
치수문자_일반주서
 62
     0
370
    -2
100
AcDbLine
 10
76.56166728747381
 20
51.32931531800514
 30
0.0
 11
76.56166728747381
 21
66.41351656047921
 31
0.0
  0
LINE
  5
648
330
643
100
AcDbEntity
  8
치수문자_일반주서
 62
     0
370
    -2
100
AcDbLine
 10
73.86366728747382
 20
66.41351656047921
 30
0.0
 11
73.2596672874738
 21
66.41351656047921
 31
0.0
  0
SOLID
  5
649
330
643
100
AcDbEntity
  8
치수문자_일반주서
 62
     0
100
AcDbTrace
 10
73.86366728747382
 20
66.96384989381254
 30
0.0
 11
73.86366728747382
 21
65.86318322714588
 31
0.0
 12
70.56166728747381
 22
66.41351656047921
 32
0.0
 13
70.56166728747381
 23
66.41351656047921
 33
0.0
  0
SOLID
  5
64A
330
643
100
AcDbEntity
  8
치수문자_일반주서
 62
     0
100
AcDbTrace
 10
73.2596672874738
 20
65.86318322714588
 30
0.0
 11
73.2596672874738
 21
66.96384989381254
 31
0.0
 12
76.56166728747381
 22
66.41351656047921
 32
0.0
 13
76.56166728747381
 23
66.41351656047921
 33
0.0
  0
MTEXT
  5
64B
330
643
100
AcDbEntity
  8
치수문자_일반주서
 62
     0
100
AcDbMText
 10
73.56166728747381
 20
70.78851656047921
 30
0.0
 40
3.5
 41
0.0
 71
     2
 72
     1
  1
\A1;6
  7
SLDTEXTSTYLE0
 73
     1
 44
1.0
  0
POINT
  5
64C
330
643
100
AcDbEntity
  8
Defpoints
 62
     0
100
AcDbPoint
 10
70.56166728747381
 20
51.59110396220746
 30
0.0
  0
POINT
  5
64D
330
643
100
AcDbEntity
  8
Defpoints
 62
     0
100
AcDbPoint
 10
76.56166728747381
 20
51.26681531800514
 30
0.0
  0
POINT
  5
64E
330
643
100
AcDbEntity
  8
Defpoints
 62
     0
100
AcDbPoint
 10
76.56166728747381
 20
66.41351656047921
 30
0.0
  0
ENDBLK
  5
645
330
643
100
AcDbEntity
  8
0
100
AcDbBlockEnd
  0
BLOCK
  5
650
330
64F
100
AcDbEntity
  8
0
100
AcDbBlockBegin
  2
*D35
 70
     1
 10
0.0
 20
0.0
 30
0.0
  3
*D35
  1

  0
LINE
  5
652
330
64F
100
AcDbEntity
  8
치수문자_일반주서
 62
     0
370
    -2
100
AcDbLine
 10
76.56166728747381
 20
51.92956652060439
 30
0.0
 11
76.56166728747381
 21
75.31874179029826
 31
0.0
  0
LINE
  5
653
330
64F
100
AcDbEntity
  8
치수문자_일반주서
 62
     0
370
    -2
100
AcDbLine
 10
62.56166728457519
 20
51.95930738881174
 30
0.0
 11
62.56166728457519
 21
75.31874179029826
 31
0.0
  0
LINE
  5
654
330
64F
100
AcDbEntity
  8
치수문자_일반주서
 62
     0
370
    -2
100
AcDbLine
 10
73.2596672874738
 20
75.31874179029826
 30
0.0
 11
65.86366728457519
 21
75.31874179029826
 31
0.0
  0
SOLID
  5
655
330
64F
100
AcDbEntity
  8
치수문자_일반주서
 62
     0
100
AcDbTrace
 10
73.2596672874738
 20
74.76840845696493
 30
0.0
 11
73.2596672874738
 21
75.86907512363159
 31
0.0
 12
76.56166728747381
 22
75.31874179029826
 32
0.0
 13
76.56166728747381
 23
75.31874179029826
 33
0.0
  0
SOLID
  5
656
330
64F
100
AcDbEntity
  8
치수문자_일반주서
 62
     0
100
AcDbTrace
 10
65.86366728457519
 20
75.86907512363159
 30
0.0
 11
65.86366728457519
 21
74.76840845696493
 31
0.0
 12
62.56166728457519
 22
75.31874179029826
 32
0.0
 13
62.56166728457519
 23
75.31874179029826
 33
0.0
  0
MTEXT
  5
657
330
64F
100
AcDbEntity
  8
치수문자_일반주서
 62
     0
100
AcDbMText
 10
69.5616672860245
 20
79.69374179029826
 30
0.0
 40
3.5
 41
0.0
 71
     2
 72
     1
  1
\A1;14
  7
SLDTEXTSTYLE0
 73
     1
 44
1.0
  0
POINT
  5
658
330
64F
100
AcDbEntity
  8
Defpoints
 62
     0
100
AcDbPoint
 10
76.56166728747381
 20
51.86706652060439
 30
0.0
  0
POINT
  5
659
330
64F
100
AcDbEntity
  8
Defpoints
 62
     0
100
AcDbPoint
 10
62.56166728457519
 20
51.89680738881174
 30
0.0
  0
POINT
  5
65A
330
64F
100
AcDbEntity
  8
Defpoints
 62
     0
100
AcDbPoint
 10
62.56166728457519
 20
75.31874179029826
 30
0.0
  0
ENDBLK
  5
651
330
64F
100
AcDbEntity
  8
0
100
AcDbBlockEnd
  0
BLOCK
  5
6AB
330
6AA
100
AcDbEntity
  8
0
100
AcDbBlockBegin
  2
*D36
 70
     1
 10
0.0
 20
0.0
 30
0.0
  3
*D36
  1

  0
LINE
  5
6AD
330
6AA
100
AcDbEntity
  8
치수문자_일반주서
 62
     0
370
    -2
100
AcDbLine
 10
132.798793712616
 20
-0.1506112721088042
 30
0.0
 11
158.8543102579389
 21
-0.150611272108707
 31
0.0
  0
LINE
  5
6AE
330
6AA
100
AcDbEntity
  8
치수문자_일반주서
 62
     0
370
    -2
100
AcDbLine
 10
132.798793712616
 20
1.049388727891206
 30
0.0
 11
158.8543102579389
 21
1.049388727891303
 31
0.0
  0
LINE
  5
6AF
330
6AA
100
AcDbEntity
  8
치수문자_일반주서
 62
     0
370
    -2
100
AcDbLine
 10
158.8543102579389
 20
-3.452611272108707
 30
0.0
 11
158.8543102579389
 21
-6.754611272108708
 31
0.0
  0
LINE
  5
6B0
330
6AA
100
AcDbEntity
  8
치수문자_일반주서
 62
     0
370
    -2
100
AcDbLine
 10
158.8543102579389
 20
4.351388727891303
 30
0.0
 11
158.8543102579389
 21
7.653388727891302
 31
0.0
  0
SOLID
  5
6B1
330
6AA
100
AcDbEntity
  8
치수문자_일반주서
 62
     0
100
AcDbTrace
 10
159.4046435912722
 20
-3.452611272108707
 30
0.0
 11
158.3039769246056
 21
-3.452611272108707
 31
0.0
 12
158.8543102579389
 22
-0.150611272108707
 32
0.0
 13
158.8543102579389
 23
-0.150611272108707
 33
0.0
  0
SOLID
  5
6B2
330
6AA
100
AcDbEntity
  8
치수문자_일반주서
 62
     0
100
AcDbTrace
 10
158.3039769246056
 20
4.351388727891303
 30
0.0
 11
159.4046435912722
 21
4.351388727891303
 31
0.0
 12
158.8543102579389
 22
1.049388727891303
 32
0.0
 13
158.8543102579389
 23
1.049388727891303
 33
0.0
  0
MTEXT
  5
6B3
330
6AA
100
AcDbEntity
  8
치수문자_일반주서
 62
     0
100
AcDbMText
 10
154.4793102579389
 20
0.4493887278911758
 30
0.0
 40
3.5
 41
0.0
 71
     2
 72
     1
  1
\A1;%%c1.2
  7
SLDTEXTSTYLE0
 11
0.0
 21
1.0
 31
0.0
 73
     1
 44
1.0
  0
POINT
  5
6B4
330
6AA
100
AcDbEntity
  8
Defpoints
 62
     0
100
AcDbPoint
 10
132.736293712616
 20
-0.1506112721088044
 30
0.0
  0
POINT
  5
6B5
330
6AA
100
AcDbEntity
  8
Defpoints
 62
     0
100
AcDbPoint
 10
132.736293712616
 20
1.049388727891206
 30
0.0
  0
POINT
  5
6B6
330
6AA
100
AcDbEntity
  8
Defpoints
 62
     0
100
AcDbPoint
 10
158.8543102579389
 20
1.049388727891303
 30
0.0
  0
ENDBLK
  5
6AC
330
6AA
100
AcDbEntity
  8
0
100
AcDbBlockEnd
  0
BLOCK
  5
6B8
330
6B7
100
AcDbEntity
  8
0
100
AcDbBlockBegin
  2
*D37
 70
     1
 10
0.0
 20
0.0
 30
0.0
  3
*D37
  1

  0
LINE
  5
6BA
330
6B7
100
AcDbEntity
  8
치수문자_일반주서
 62
     0
370
    -2
100
AcDbLine
 10
77.77180007643186
 20
3.011888727891204
 30
0.0
 11
77.77180007643186
 21
31.44938872789121
 31
0.0
  0
LINE
  5
6BB
330
6B7
100
AcDbEntity
  8
치수문자_일반주서
 62
     0
370
    -2
100
AcDbLine
 10
137.7718000764319
 20
1.806896657084593
 30
0.0
 11
137.7718000764319
 21
31.44938872789121
 31
0.0
  0
LINE
  5
6BC
330
6B7
100
AcDbEntity
  8
치수문자_일반주서
 62
     0
370
    -2
100
AcDbLine
 10
81.07380007643187
 20
31.44938872789121
 30
0.0
 11
134.4698000764319
 21
31.44938872789121
 31
0.0
  0
SOLID
  5
6BD
330
6B7
100
AcDbEntity
  8
치수문자_일반주서
 62
     0
100
AcDbTrace
 10
81.07380007643187
 20
31.99972206122455
 30
0.0
 11
81.07380007643187
 21
30.89905539455788
 31
0.0
 12
77.77180007643186
 22
31.44938872789121
 32
0.0
 13
77.77180007643186
 23
31.44938872789121
 33
0.0
  0
SOLID
  5
6BE
330
6B7
100
AcDbEntity
  8
치수문자_일반주서
 62
     0
100
AcDbTrace
 10
134.4698000764319
 20
30.89905539455788
 30
0.0
 11
134.4698000764319
 21
31.99972206122455
 31
0.0
 12
137.7718000764319
 22
31.44938872789121
 32
0.0
 13
137.7718000764319
 23
31.44938872789121
 33
0.0
  0
MTEXT
  5
6BF
330
6B7
100
AcDbEntity
  8
치수문자_일반주서
 62
     0
100
AcDbMText
 10
107.7718000764319
 20
35.82438872789121
 30
0.0
 40
3.5
 41
0.0
 71
     2
 72
     1
  1
\A1;60
  7
SLDTEXTSTYLE0
 73
     1
 44
1.0
  0
POINT
  5
6C0
330
6B7
100
AcDbEntity
  8
Defpoints
 62
     0
100
AcDbPoint
 10
77.77180007643186
 20
2.949388727891204
 30
0.0
  0
POINT
  5
6C1
330
6B7
100
AcDbEntity
  8
Defpoints
 62
     0
100
AcDbPoint
 10
137.7718000764319
 20
1.744396657084593
 30
0.0
  0
POINT
  5
6C2
330
6B7
100
AcDbEntity
  8
Defpoints
 62
     0
100
AcDbPoint
 10
137.7718000764319
 20
31.44938872789121
 30
0.0
  0
ENDBLK
  5
6B9
330
6B7
100
AcDbEntity
  8
0
100
AcDbBlockEnd
  0
BLOCK
  5
6C4
330
6C3
100
AcDbEntity
  8
0
100
AcDbBlockBegin
  2
*D38
 70
     1
 10
0.0
 20
0.0
 30
0.0
  3
*D38
  1

  0
LINE
  5
6C6
330
6C3
100
AcDbEntity
  8
치수문자_일반주서
 62
     0
370
    -2
100
AcDbLine
 10
78.20930007643187
 20
3.449388727891204
 30
0.0
 11
65.77534205481979
 21
3.449388727891157
 31
0.0
  0
LINE
  5
6C7
330
6C3
100
AcDbEntity
  8
치수문자_일반주서
 62
     0
370
    -2
100
AcDbLine
 10
78.20930007643187
 20
-2.550611272108789
 30
0.0
 11
65.7753420548198
 21
-2.550611272108836
 31
0.0
  0
LINE
  5
6C8
330
6C3
100
AcDbEntity
  8
치수문자_일반주서
 62
     0
370
    -2
100
AcDbLine
 10
65.7753420548198
 20
0.1473887278911565
 30
0.0
 11
65.77534205481979
 21
0.7513887278911637
 31
0.0
  0
SOLID
  5
6C9
330
6C3
100
AcDbEntity
  8
치수문자_일반주서
 62
     0
100
AcDbTrace
 10
66.32567538815313
 20
0.1473887278911578
 30
0.0
 11
65.22500872148647
 21
0.1473887278911552
 31
0.0
 12
65.77534205481979
 22
3.449388727891157
 32
0.0
 13
65.77534205481979
 23
3.449388727891157
 33
0.0
  0
SOLID
  5
6CA
330
6C3
100
AcDbEntity
  8
치수문자_일반주서
 62
     0
100
AcDbTrace
 10
65.22500872148646
 20
0.7513887278911624
 30
0.0
 11
66.32567538815312
 21
0.7513887278911651
 31
0.0
 12
65.7753420548198
 22
-2.550611272108836
 32
0.0
 13
65.7753420548198
 23
-2.550611272108836
 33
0.0
  0
MTEXT
  5
6CB
330
6C3
100
AcDbEntity
  8
치수문자_일반주서
 62
     0
100
AcDbMText
 10
61.40034205481979
 20
0.4493887278911937
 30
0.0
 40
3.5
 41
0.0
 71
     2
 72
     1
  1
\A1;%%c6
  7
SLDTEXTSTYLE0
 11
-2.368475785867004E-15
 21
1.0
 31
0.0
 73
     1
 44
1.0
  0
POINT
  5
6CC
330
6C3
100
AcDbEntity
  8
Defpoints
 62
     0
100
AcDbPoint
 10
78.27180007643187
 20
3.449388727891204
 30
0.0
  0
POINT
  5
6CD
330
6C3
100
AcDbEntity
  8
Defpoints
 62
     0
100
AcDbPoint
 10
78.27180007643187
 20
-2.550611272108789
 30
0.0
  0
POINT
  5
6CE
330
6C3
100
AcDbEntity
  8
Defpoints
 62
     0
100
AcDbPoint
 10
65.7753420548198
 20
-2.550611272108835
 30
0.0
  0
ENDBLK
  5
6C5
330
6C3
100
AcDbEntity
  8
0
100
AcDbBlockEnd
  0
BLOCK
  5
6D0
330
6CF
100
AcDbEntity
  8
0
100
AcDbBlockBegin
  2
*D39
 70
     1
 10
0.0
 20
0.0
 30
0.0
  3
*D39
  1

  0
LINE
  5
6D2
330
6CF
100
AcDbEntity
  8
치수문자_일반주서
 62
     0
370
    -2
100
AcDbLine
 10
131.7718000764319
 20
2.131185301286919
 30
0.0
 11
131.7718000764319
 21
16.89109789955867
 31
0.0
  0
LINE
  5
6D3
330
6CF
100
AcDbEntity
  8
치수문자_일반주서
 62
     0
370
    -2
100
AcDbLine
 10
137.7718000764319
 20
1.806896657084593
 30
0.0
 11
137.7718000764319
 21
16.89109789955867
 31
0.0
  0
LINE
  5
6D4
330
6CF
100
AcDbEntity
  8
치수문자_일반주서
 62
     0
370
    -2
100
AcDbLine
 10
135.0738000764319
 20
16.89109789955867
 30
0.0
 11
134.4698000764319
 21
16.89109789955867
 31
0.0
  0
SOLID
  5
6D5
330
6CF
100
AcDbEntity
  8
치수문자_일반주서
 62
     0
100
AcDbTrace
 10
135.0738000764319
 20
17.441431232892
 30
0.0
 11
135.0738000764319
 21
16.34076456622533
 31
0.0
 12
131.7718000764319
 22
16.89109789955867
 32
0.0
 13
131.7718000764319
 23
16.89109789955867
 33
0.0
  0
SOLID
  5
6D6
330
6CF
100
AcDbEntity
  8
치수문자_일반주서
 62
     0
100
AcDbTrace
 10
134.4698000764319
 20
16.34076456622533
 30
0.0
 11
134.4698000764319
 21
17.441431232892
 31
0.0
 12
137.7718000764319
 22
16.89109789955867
 32
0.0
 13
137.7718000764319
 23
16.89109789955867
 33
0.0
  0
MTEXT
  5
6D7
330
6CF
100
AcDbEntity
  8
치수문자_일반주서
 62
     0
100
AcDbMText
 10
134.7718000764319
 20
21.26609789955867
 30
0.0
 40
3.5
 41
0.0
 71
     2
 72
     1
  1
\A1;6
  7
SLDTEXTSTYLE0
 73
     1
 44
1.0
  0
POINT
  5
6D8
330
6CF
100
AcDbEntity
  8
Defpoints
 62
     0
100
AcDbPoint
 10
131.7718000764319
 20
2.068685301286919
 30
0.0
  0
POINT
  5
6D9
330
6CF
100
AcDbEntity
  8
Defpoints
 62
     0
100
AcDbPoint
 10
137.7718000764319
 20
1.744396657084593
 30
0.0
  0
POINT
  5
6DA
330
6CF
100
AcDbEntity
  8
Defpoints
 62
     0
100
AcDbPoint
 10
137.7718000764319
 20
16.89109789955867
 30
0.0
  0
ENDBLK
  5
6D1
330
6CF
100
AcDbEntity
  8
0
100
AcDbBlockEnd
  0
BLOCK
  5
6DC
330
6DB
100
AcDbEntity
  8
0
100
AcDbBlockBegin
  2
*D40
 70
     1
 10
0.0
 20
0.0
 30
0.0
  3
*D40
  1

  0
LINE
  5
6DE
330
6DB
100
AcDbEntity
  8
치수문자_일반주서
 62
     0
370
    -2
100
AcDbLine
 10
137.7718000764319
 20
2.407147859683846
 30
0.0
 11
137.7718000764319
 21
25.79632312937772
 31
0.0
  0
LINE
  5
6DF
330
6DB
100
AcDbEntity
  8
치수문자_일반주서
 62
     0
370
    -2
100
AcDbLine
 10
123.7718000735332
 20
2.436888727891201
 30
0.0
 11
123.7718000735332
 21
25.79632312937772
 31
0.0
  0
LINE
  5
6E0
330
6DB
100
AcDbEntity
  8
치수문자_일반주서
 62
     0
370
    -2
100
AcDbLine
 10
134.4698000764319
 20
25.79632312937772
 30
0.0
 11
127.0738000735332
 21
25.79632312937772
 31
0.0
  0
SOLID
  5
6E1
330
6DB
100
AcDbEntity
  8
치수문자_일반주서
 62
     0
100
AcDbTrace
 10
134.4698000764319
 20
25.24598979604438
 30
0.0
 11
134.4698000764319
 21
26.34665646271105
 31
0.0
 12
137.7718000764319
 22
25.79632312937772
 32
0.0
 13
137.7718000764319
 23
25.79632312937772
 33
0.0
  0
SOLID
  5
6E2
330
6DB
100
AcDbEntity
  8
치수문자_일반주서
 62
     0
100
AcDbTrace
 10
127.0738000735332
 20
26.34665646271105
 30
0.0
 11
127.0738000735332
 21
25.24598979604438
 31
0.0
 12
123.7718000735332
 22
25.79632312937772
 32
0.0
 13
123.7718000735332
 23
25.79632312937772
 33
0.0
  0
MTEXT
  5
6E3
330
6DB
100
AcDbEntity
  8
치수문자_일반주서
 62
     0
100
AcDbMText
 10
130.7718000749825
 20
30.17132312937772
 30
0.0
 40
3.5
 41
0.0
 71
     2
 72
     1
  1
\A1;14
  7
SLDTEXTSTYLE0
 73
     1
 44
1.0
  0
POINT
  5
6E4
330
6DB
100
AcDbEntity
  8
Defpoints
 62
     0
100
AcDbPoint
 10
137.7718000764319
 20
2.344647859683846
 30
0.0
  0
POINT
  5
6E5
330
6DB
100
AcDbEntity
  8
Defpoints
 62
     0
100
AcDbPoint
 10
123.7718000735332
 20
2.374388727891201
 30
0.0
  0
POINT
  5
6E6
330
6DB
100
AcDbEntity
  8
Defpoints
 62
     0
100
AcDbPoint
 10
123.7718000735332
 20
25.79632312937772
 30
0.0
  0
ENDBLK
  5
6DD
330
6DB
100
AcDbEntity
  8
0
100
AcDbBlockEnd
  0
BLOCK
  5
7BC
330
7BB
100
AcDbEntity
  8
0
100
AcDbBlockBegin
  2
*D41
 70
     1
 10
0.0
 20
0.0
 30
0.0
  3
*D41
  1

  0
LINE
  5
7BE
330
7BB
100
AcDbEntity
  8
치수문자_일반주서
 62
     0
370
    -2
100
AcDbLine
 10
71.58866092365798
 20
49.37180738881174
 30
0.0
 11
97.64417746898087
 21
49.37180738881184
 31
0.0
  0
LINE
  5
7BF
330
7BB
100
AcDbEntity
  8
치수문자_일반주서
 62
     0
370
    -2
100
AcDbLine
 10
71.58866092365798
 20
50.57180738881175
 30
0.0
 11
97.64417746898087
 21
50.57180738881185
 31
0.0
  0
LINE
  5
7C0
330
7BB
100
AcDbEntity
  8
치수문자_일반주서
 62
     0
370
    -2
100
AcDbLine
 10
97.64417746898087
 20
46.06980738881184
 30
0.0
 11
97.64417746898087
 21
42.76780738881184
 31
0.0
  0
LINE
  5
7C1
330
7BB
100
AcDbEntity
  8
치수문자_일반주서
 62
     0
370
    -2
100
AcDbLine
 10
97.64417746898087
 20
53.87380738881185
 30
0.0
 11
97.64417746898087
 21
57.17580738881185
 31
0.0
  0
SOLID
  5
7C2
330
7BB
100
AcDbEntity
  8
치수문자_일반주서
 62
     0
100
AcDbTrace
 10
98.1945108023142
 20
46.06980738881184
 30
0.0
 11
97.09384413564754
 21
46.06980738881184
 31
0.0
 12
97.64417746898087
 22
49.37180738881184
 32
0.0
 13
97.64417746898087
 23
49.37180738881184
 33
0.0
  0
SOLID
  5
7C3
330
7BB
100
AcDbEntity
  8
치수문자_일반주서
 62
     0
100
AcDbTrace
 10
97.09384413564754
 20
53.87380738881185
 30
0.0
 11
98.1945108023142
 21
53.87380738881185
 31
0.0
 12
97.64417746898087
 22
50.57180738881185
 32
0.0
 13
97.64417746898087
 23
50.57180738881185
 33
0.0
  0
MTEXT
  5
7C4
330
7BB
100
AcDbEntity
  8
치수문자_일반주서
 62
     0
100
AcDbMText
 10
93.26917746898087
 20
49.97180738881172
 30
0.0
 40
3.5
 41
0.0
 71
     2
 72
     1
  1
\A1;%%c1.2
  7
SLDTEXTSTYLE0
 11
0.0
 21
1.0
 31
0.0
 73
     1
 44
1.0
  0
POINT
  5
7C5
330
7BB
100
AcDbEntity
  8
Defpoints
 62
     0
100
AcDbPoint
 10
71.52616092365798
 20
49.37180738881174
 30
0.0
  0
POINT
  5
7C6
330
7BB
100
AcDbEntity
  8
Defpoints
 62
     0
100
AcDbPoint
 10
71.52616092365798
 20
50.57180738881175
 30
0.0
  0
POINT
  5
7C7
330
7BB
100
AcDbEntity
  8
Defpoints
 62
     0
100
AcDbPoint
 10
97.64417746898087
 20
50.57180738881185
 30
0.0
  0
ENDBLK
  5
7BD
330
7BB
100
AcDbEntity
  8
0
100
AcDbBlockEnd
  0
BLOCK
  5
7C9
330
7C8
100
AcDbEntity
  8
0
100
AcDbBlockBegin
  2
*D42
 70
     1
 10
0.0
 20
0.0
 30
0.0
  3
*D42
  1

  0
LINE
  5
7CB
330
7C8
100
AcDbEntity
  8
치수문자_일반주서
 62
     0
370
    -2
100
AcDbLine
 10
16.56166728747382
 20
52.53430738881175
 30
0.0
 11
16.56166728747382
 21
80.97180738881175
 31
0.0
  0
LINE
  5
7CC
330
7C8
100
AcDbEntity
  8
치수문자_일반주서
 62
     0
370
    -2
100
AcDbLine
 10
76.56166728747381
 20
51.32931531800514
 30
0.0
 11
76.56166728747381
 21
80.97180738881175
 31
0.0
  0
LINE
  5
7CD
330
7C8
100
AcDbEntity
  8
치수문자_일반주서
 62
     0
370
    -2
100
AcDbLine
 10
19.86366728747382
 20
80.97180738881175
 30
0.0
 11
73.2596672874738
 21
80.97180738881175
 31
0.0
  0
SOLID
  5
7CE
330
7C8
100
AcDbEntity
  8
치수문자_일반주서
 62
     0
100
AcDbTrace
 10
19.86366728747382
 20
81.52214072214508
 30
0.0
 11
19.86366728747382
 21
80.42147405547843
 31
0.0
 12
16.56166728747382
 22
80.97180738881175
 32
0.0
 13
16.56166728747382
 23
80.97180738881175
 33
0.0
  0
SOLID
  5
7CF
330
7C8
100
AcDbEntity
  8
치수문자_일반주서
 62
     0
100
AcDbTrace
 10
73.2596672874738
 20
80.42147405547843
 30
0.0
 11
73.2596672874738
 21
81.52214072214508
 31
0.0
 12
76.56166728747381
 22
80.97180738881175
 32
0.0
 13
76.56166728747381
 23
80.97180738881175
 33
0.0
  0
MTEXT
  5
7D0
330
7C8
100
AcDbEntity
  8
치수문자_일반주서
 62
     0
100
AcDbMText
 10
46.56166728747382
 20
85.34680738881175
 30
0.0
 40
3.5
 41
0.0
 71
     2
 72
     1
  1
\A1;60
  7
SLDTEXTSTYLE0
 73
     1
 44
1.0
  0
POINT
  5
7D1
330
7C8
100
AcDbEntity
  8
Defpoints
 62
     0
100
AcDbPoint
 10
16.56166728747382
 20
52.47180738881175
 30
0.0
  0
POINT
  5
7D2
330
7C8
100
AcDbEntity
  8
Defpoints
 62
     0
100
AcDbPoint
 10
76.56166728747381
 20
51.26681531800514
 30
0.0
  0
POINT
  5
7D3
330
7C8
100
AcDbEntity
  8
Defpoints
 62
     0
100
AcDbPoint
 10
76.56166728747381
 20
80.97180738881175
 30
0.0
  0
ENDBLK
  5
7CA
330
7C8
100
AcDbEntity
  8
0
100
AcDbBlockEnd
  0
BLOCK
  5
7D5
330
7D4
100
AcDbEntity
  8
0
100
AcDbBlockBegin
  2
*D43
 70
     1
 10
0.0
 20
0.0
 30
0.0
  3
*D43
  1

  0
LINE
  5
7D7
330
7D4
100
AcDbEntity
  8
치수문자_일반주서
 62
     0
370
    -2
100
AcDbLine
 10
16.99916728747381
 20
52.97180738881175
 30
0.0
 11
4.565209265861728
 21
52.9718073888117
 31
0.0
  0
LINE
  5
7D8
330
7D4
100
AcDbEntity
  8
치수문자_일반주서
 62
     0
370
    -2
100
AcDbLine
 10
16.99916728747381
 20
46.97180738881175
 30
0.0
 11
4.56520926586175
 21
46.9718073888117
 31
0.0
  0
LINE
  5
7D9
330
7D4
100
AcDbEntity
  8
치수문자_일반주서
 62
     0
370
    -2
100
AcDbLine
 10
4.56520926586174
 20
49.6698073888117
 30
0.0
 11
4.565209265861738
 21
50.2738073888117
 31
0.0
  0
SOLID
  5
7DA
330
7D4
100
AcDbEntity
  8
치수문자_일반주서
 62
     0
100
AcDbTrace
 10
5.115542599195074
 20
49.6698073888117
 30
0.0
 11
4.014875932528406
 21
49.6698073888117
 31
0.0
 12
4.565209265861728
 22
52.9718073888117
 32
0.0
 13
4.565209265861728
 23
52.9718073888117
 33
0.0
  0
SOLID
  5
7DB
330
7D4
100
AcDbEntity
  8
치수문자_일반주서
 62
     0
100
AcDbTrace
 10
4.014875932528405
 20
50.2738073888117
 30
0.0
 11
5.115542599195072
 21
50.2738073888117
 31
0.0
 12
4.56520926586175
 22
46.9718073888117
 32
0.0
 13
4.56520926586175
 23
46.9718073888117
 33
0.0
  0
MTEXT
  5
7DC
330
7D4
100
AcDbEntity
  8
치수문자_일반주서
 62
     0
100
AcDbMText
 10
0.1902092658617391
 20
49.97180738881173
 30
0.0
 40
3.5
 41
0.0
 71
     2
 72
     1
  1
\A1;%%c6
  7
SLDTEXTSTYLE0
 11
-3.552713678800505E-15
 21
1.0
 31
0.0
 73
     1
 44
1.0
  0
POINT
  5
7DD
330
7D4
100
AcDbEntity
  8
Defpoints
 62
     0
100
AcDbPoint
 10
17.06166728747381
 20
52.97180738881175
 30
0.0
  0
POINT
  5
7DE
330
7D4
100
AcDbEntity
  8
Defpoints
 62
     0
100
AcDbPoint
 10
17.06166728747381
 20
46.97180738881175
 30
0.0
  0
POINT
  5
7DF
330
7D4
100
AcDbEntity
  8
Defpoints
 62
     0
100
AcDbPoint
 10
4.565209265861739
 20
46.9718073888117
 30
0.0
  0
ENDBLK
  5
7D6
330
7D4
100
AcDbEntity
  8
0
100
AcDbBlockEnd
  0
BLOCK
  5
7E1
330
7E0
100
AcDbEntity
  8
0
100
AcDbBlockBegin
  2
*D44
 70
     1
 10
0.0
 20
0.0
 30
0.0
  3
*D44
  1

  0
LINE
  5
7E3
330
7E0
100
AcDbEntity
  8
치수문자_일반주서
 62
     0
370
    -2
100
AcDbLine
 10
70.56166728747382
 20
51.65360396220746
 30
0.0
 11
70.56166728747382
 21
66.41351656047921
 31
0.0
  0
LINE
  5
7E4
330
7E0
100
AcDbEntity
  8
치수문자_일반주서
 62
     0
370
    -2
100
AcDbLine
 10
76.56166728747381
 20
51.32931531800514
 30
0.0
 11
76.56166728747381
 21
66.41351656047921
 31
0.0
  0
LINE
  5
7E5
330
7E0
100
AcDbEntity
  8
치수문자_일반주서
 62
     0
370
    -2
100
AcDbLine
 10
73.86366728747383
 20
66.41351656047921
 30
0.0
 11
73.2596672874738
 21
66.41351656047921
 31
0.0
  0
SOLID
  5
7E6
330
7E0
100
AcDbEntity
  8
치수문자_일반주서
 62
     0
100
AcDbTrace
 10
73.86366728747383
 20
66.96384989381254
 30
0.0
 11
73.86366728747383
 21
65.86318322714588
 31
0.0
 12
70.56166728747382
 22
66.41351656047921
 32
0.0
 13
70.56166728747382
 23
66.41351656047921
 33
0.0
  0
SOLID
  5
7E7
330
7E0
100
AcDbEntity
  8
치수문자_일반주서
 62
     0
100
AcDbTrace
 10
73.2596672874738
 20
65.86318322714588
 30
0.0
 11
73.2596672874738
 21
66.96384989381254
 31
0.0
 12
76.56166728747381
 22
66.41351656047921
 32
0.0
 13
76.56166728747381
 23
66.41351656047921
 33
0.0
  0
MTEXT
  5
7E8
330
7E0
100
AcDbEntity
  8
치수문자_일반주서
 62
     0
100
AcDbMText
 10
73.56166728747382
 20
70.78851656047921
 30
0.0
 40
3.5
 41
0.0
 71
     2
 72
     1
  1
\A1;6
  7
SLDTEXTSTYLE0
 73
     1
 44
1.0
  0
POINT
  5
7E9
330
7E0
100
AcDbEntity
  8
Defpoints
 62
     0
100
AcDbPoint
 10
70.56166728747382
 20
51.59110396220746
 30
0.0
  0
POINT
  5
7EA
330
7E0
100
AcDbEntity
  8
Defpoints
 62
     0
100
AcDbPoint
 10
76.56166728747381
 20
51.26681531800514
 30
0.0
  0
POINT
  5
7EB
330
7E0
100
AcDbEntity
  8
Defpoints
 62
     0
100
AcDbPoint
 10
76.56166728747381
 20
66.41351656047921
 30
0.0
  0
ENDBLK
  5
7E2
330
7E0
100
AcDbEntity
  8
0
100
AcDbBlockEnd
  0
BLOCK
  5
7ED
330
7EC
100
AcDbEntity
  8
0
100
AcDbBlockBegin
  2
*D45
 70
     1
 10
0.0
 20
0.0
 30
0.0
  3
*D45
  1

  0
LINE
  5
7EF
330
7EC
100
AcDbEntity
  8
치수문자_일반주서
 62
     0
370
    -2
100
AcDbLine
 10
76.56166728747381
 20
51.92956652060439
 30
0.0
 11
76.56166728747381
 21
75.31874179029826
 31
0.0
  0
LINE
  5
7F0
330
7EC
100
AcDbEntity
  8
치수문자_일반주서
 62
     0
370
    -2
100
AcDbLine
 10
60.56166728364208
 20
51.95930738881174
 30
0.0
 11
60.56166728364208
 21
75.31874179029826
 31
0.0
  0
LINE
  5
7F1
330
7EC
100
AcDbEntity
  8
치수문자_일반주서
 62
     0
370
    -2
100
AcDbLine
 10
73.2596672874738
 20
75.31874179029826
 30
0.0
 11
63.86366728364208
 21
75.31874179029826
 31
0.0
  0
SOLID
  5
7F2
330
7EC
100
AcDbEntity
  8
치수문자_일반주서
 62
     0
100
AcDbTrace
 10
73.2596672874738
 20
74.76840845696493
 30
0.0
 11
73.2596672874738
 21
75.86907512363159
 31
0.0
 12
76.56166728747381
 22
75.31874179029826
 32
0.0
 13
76.56166728747381
 23
75.31874179029826
 33
0.0
  0
SOLID
  5
7F3
330
7EC
100
AcDbEntity
  8
치수문자_일반주서
 62
     0
100
AcDbTrace
 10
63.86366728364208
 20
75.86907512363159
 30
0.0
 11
63.86366728364208
 21
74.76840845696493
 31
0.0
 12
60.56166728364208
 22
75.31874179029826
 32
0.0
 13
60.56166728364208
 23
75.31874179029826
 33
0.0
  0
MTEXT
  5
7F4
330
7EC
100
AcDbEntity
  8
치수문자_일반주서
 62
     0
100
AcDbMText
 10
68.56166728555795
 20
79.69374179029826
 30
0.0
 40
3.5
 41
0.0
 71
     2
 72
     1
  1
\A1;16
  7
SLDTEXTSTYLE0
 73
     1
 44
1.0
  0
POINT
  5
7F5
330
7EC
100
AcDbEntity
  8
Defpoints
 62
     0
100
AcDbPoint
 10
76.56166728747381
 20
51.86706652060439
 30
0.0
  0
POINT
  5
7F6
330
7EC
100
AcDbEntity
  8
Defpoints
 62
     0
100
AcDbPoint
 10
60.56166728364208
 20
51.89680738881174
 30
0.0
  0
POINT
  5
7F7
330
7EC
100
AcDbEntity
  8
Defpoints
 62
     0
100
AcDbPoint
 10
60.56166728364208
 20
75.31874179029826
 30
0.0
  0
ENDBLK
  5
7EE
330
7EC
100
AcDbEntity
  8
0
100
AcDbBlockEnd
  0
BLOCK
  5
848
330
847
100
AcDbEntity
  8
0
100
AcDbBlockBegin
  2
*D46
 70
     1
 10
0.0
 20
0.0
 30
0.0
  3
*D46
  1

  0
LINE
  5
84A
330
847
100
AcDbEntity
  8
치수문자_일반주서
 62
     0
370
    -2
100
AcDbLine
 10
138.5539859434323
 20
1.377310402721307
 30
0.0
 11
164.6095024887552
 21
1.377310402721404
 31
0.0
  0
LINE
  5
84B
330
847
100
AcDbEntity
  8
치수문자_일반주서
 62
     0
370
    -2
100
AcDbLine
 10
138.5539859434323
 20
2.577310402721317
 30
0.0
 11
164.6095024887552
 21
2.577310402721414
 31
0.0
  0
LINE
  5
84C
330
847
100
AcDbEntity
  8
치수문자_일반주서
 62
     0
370
    -2
100
AcDbLine
 10
164.6095024887552
 20
-1.924689597278596
 30
0.0
 11
164.6095024887552
 21
-5.226689597278596
 31
0.0
  0
LINE
  5
84D
330
847
100
AcDbEntity
  8
치수문자_일반주서
 62
     0
370
    -2
100
AcDbLine
 10
164.6095024887552
 20
5.879310402721414
 30
0.0
 11
164.6095024887552
 21
9.181310402721413
 31
0.0
  0
SOLID
  5
84E
330
847
100
AcDbEntity
  8
치수문자_일반주서
 62
     0
100
AcDbTrace
 10
165.1598358220885
 20
-1.924689597278596
 30
0.0
 11
164.0591691554218
 21
-1.924689597278596
 31
0.0
 12
164.6095024887552
 22
1.377310402721404
 32
0.0
 13
164.6095024887552
 23
1.377310402721404
 33
0.0
  0
SOLID
  5
84F
330
847
100
AcDbEntity
  8
치수문자_일반주서
 62
     0
100
AcDbTrace
 10
164.0591691554218
 20
5.879310402721414
 30
0.0
 11
165.1598358220885
 21
5.879310402721414
 31
0.0
 12
164.6095024887552
 22
2.577310402721414
 32
0.0
 13
164.6095024887552
 23
2.577310402721414
 33
0.0
  0
MTEXT
  5
850
330
847
100
AcDbEntity
  8
치수문자_일반주서
 62
     0
100
AcDbMText
 10
160.2345024887552
 20
1.977310402721287
 30
0.0
 40
3.5
 41
0.0
 71
     2
 72
     1
  1
\A1;%%c1.2
  7
SLDTEXTSTYLE0
 11
0.0
 21
1.0
 31
0.0
 73
     1
 44
1.0
  0
POINT
  5
851
330
847
100
AcDbEntity
  8
Defpoints
 62
     0
100
AcDbPoint
 10
138.4914859434323
 20
1.377310402721307
 30
0.0
  0
POINT
  5
852
330
847
100
AcDbEntity
  8
Defpoints
 62
     0
100
AcDbPoint
 10
138.4914859434323
 20
2.577310402721317
 30
0.0
  0
POINT
  5
853
330
847
100
AcDbEntity
  8
Defpoints
 62
     0
100
AcDbPoint
 10
164.6095024887552
 20
2.577310402721414
 30
0.0
  0
ENDBLK
  5
849
330
847
100
AcDbEntity
  8
0
100
AcDbBlockEnd
  0
BLOCK
  5
855
330
854
100
AcDbEntity
  8
0
100
AcDbBlockBegin
  2
*D47
 70
     1
 10
0.0
 20
0.0
 30
0.0
  3
*D47
  1

  0
LINE
  5
857
330
854
100
AcDbEntity
  8
치수문자_일반주서
 62
     0
370
    -2
100
AcDbLine
 10
83.52699230724812
 20
4.539810402721315
 30
0.0
 11
83.52699230724812
 21
32.97731040272132
 31
0.0
  0
LINE
  5
858
330
854
100
AcDbEntity
  8
치수문자_일반주서
 62
     0
370
    -2
100
AcDbLine
 10
143.5269923072481
 20
3.334818331914704
 30
0.0
 11
143.5269923072481
 21
32.97731040272132
 31
0.0
  0
LINE
  5
859
330
854
100
AcDbEntity
  8
치수문자_일반주서
 62
     0
370
    -2
100
AcDbLine
 10
86.82899230724813
 20
32.97731040272132
 30
0.0
 11
140.2249923072481
 21
32.97731040272132
 31
0.0
  0
SOLID
  5
85A
330
854
100
AcDbEntity
  8
치수문자_일반주서
 62
     0
100
AcDbTrace
 10
86.82899230724813
 20
33.52764373605466
 30
0.0
 11
86.82899230724813
 21
32.42697706938799
 31
0.0
 12
83.52699230724812
 22
32.97731040272132
 32
0.0
 13
83.52699230724812
 23
32.97731040272132
 33
0.0
  0
SOLID
  5
85B
330
854
100
AcDbEntity
  8
치수문자_일반주서
 62
     0
100
AcDbTrace
 10
140.2249923072481
 20
32.42697706938799
 30
0.0
 11
140.2249923072481
 21
33.52764373605466
 31
0.0
 12
143.5269923072481
 22
32.97731040272132
 32
0.0
 13
143.5269923072481
 23
32.97731040272132
 33
0.0
  0
MTEXT
  5
85C
330
854
100
AcDbEntity
  8
치수문자_일반주서
 62
     0
100
AcDbMText
 10
113.5269923072481
 20
37.35231040272132
 30
0.0
 40
3.5
 41
0.0
 71
     2
 72
     1
  1
\A1;60
  7
SLDTEXTSTYLE0
 73
     1
 44
1.0
  0
POINT
  5
85D
330
854
100
AcDbEntity
  8
Defpoints
 62
     0
100
AcDbPoint
 10
83.52699230724812
 20
4.477310402721315
 30
0.0
  0
POINT
  5
85E
330
854
100
AcDbEntity
  8
Defpoints
 62
     0
100
AcDbPoint
 10
143.5269923072481
 20
3.272318331914704
 30
0.0
  0
POINT
  5
85F
330
854
100
AcDbEntity
  8
Defpoints
 62
     0
100
AcDbPoint
 10
143.5269923072481
 20
32.97731040272132
 30
0.0
  0
ENDBLK
  5
856
330
854
100
AcDbEntity
  8
0
100
AcDbBlockEnd
  0
BLOCK
  5
861
330
860
100
AcDbEntity
  8
0
100
AcDbBlockBegin
  2
*D48
 70
     1
 10
0.0
 20
0.0
 30
0.0
  3
*D48
  1

  0
LINE
  5
863
330
860
100
AcDbEntity
  8
치수문자_일반주서
 62
     0
370
    -2
100
AcDbLine
 10
83.96449230724811
 20
4.977310402721315
 30
0.0
 11
71.53053428563604
 21
4.977310402721267
 31
0.0
  0
LINE
  5
864
330
860
100
AcDbEntity
  8
치수문자_일반주서
 62
     0
370
    -2
100
AcDbLine
 10
83.96449230724811
 20
-1.022689597278678
 30
0.0
 11
71.53053428563605
 21
-1.022689597278726
 31
0.0
  0
LINE
  5
865
330
860
100
AcDbEntity
  8
치수문자_일반주서
 62
     0
370
    -2
100
AcDbLine
 10
71.53053428563605
 20
1.675310402721267
 30
0.0
 11
71.53053428563604
 21
2.279310402721274
 31
0.0
  0
SOLID
  5
866
330
860
100
AcDbEntity
  8
치수문자_일반주서
 62
     0
100
AcDbTrace
 10
72.08086761896938
 20
1.675310402721268
 30
0.0
 11
70.98020095230272
 21
1.675310402721266
 31
0.0
 12
71.53053428563604
 22
4.977310402721267
 32
0.0
 13
71.53053428563604
 23
4.977310402721267
 33
0.0
  0
SOLID
  5
867
330
860
100
AcDbEntity
  8
치수문자_일반주서
 62
     0
100
AcDbTrace
 10
70.98020095230271
 20
2.279310402721273
 30
0.0
 11
72.08086761896936
 21
2.279310402721276
 31
0.0
 12
71.53053428563605
 22
-1.022689597278726
 32
0.0
 13
71.53053428563605
 23
-1.022689597278726
 33
0.0
  0
MTEXT
  5
868
330
860
100
AcDbEntity
  8
치수문자_일반주서
 62
     0
100
AcDbMText
 10
67.15553428563604
 20
1.977310402721305
 30
0.0
 40
3.5
 41
0.0
 71
     2
 72
     1
  1
\A1;%%c6
  7
SLDTEXTSTYLE0
 11
-2.368475785867004E-15
 21
1.0
 31
0.0
 73
     1
 44
1.0
  0
POINT
  5
869
330
860
100
AcDbEntity
  8
Defpoints
 62
     0
100
AcDbPoint
 10
84.02699230724811
 20
4.977310402721315
 30
0.0
  0
POINT
  5
86A
330
860
100
AcDbEntity
  8
Defpoints
 62
     0
100
AcDbPoint
 10
84.02699230724811
 20
-1.022689597278678
 30
0.0
  0
POINT
  5
86B
330
860
100
AcDbEntity
  8
Defpoints
 62
     0
100
AcDbPoint
 10
71.53053428563605
 20
-1.022689597278724
 30
0.0
  0
ENDBLK
  5
862
330
860
100
AcDbEntity
  8
0
100
AcDbBlockEnd
  0
BLOCK
  5
86D
330
86C
100
AcDbEntity
  8
0
100
AcDbBlockBegin
  2
*D49
 70
     1
 10
0.0
 20
0.0
 30
0.0
  3
*D49
  1

  0
LINE
  5
86F
330
86C
100
AcDbEntity
  8
치수문자_일반주서
 62
     0
370
    -2
100
AcDbLine
 10
137.5269923072481
 20
3.65910697611703
 30
0.0
 11
137.5269923072481
 21
18.41901957438878
 31
0.0
  0
LINE
  5
870
330
86C
100
AcDbEntity
  8
치수문자_일반주서
 62
     0
370
    -2
100
AcDbLine
 10
143.5269923072481
 20
3.334818331914704
 30
0.0
 11
143.5269923072481
 21
18.41901957438878
 31
0.0
  0
LINE
  5
871
330
86C
100
AcDbEntity
  8
치수문자_일반주서
 62
     0
370
    -2
100
AcDbLine
 10
140.8289923072481
 20
18.41901957438878
 30
0.0
 11
140.2249923072481
 21
18.41901957438878
 31
0.0
  0
SOLID
  5
872
330
86C
100
AcDbEntity
  8
치수문자_일반주서
 62
     0
100
AcDbTrace
 10
140.8289923072481
 20
18.96935290772211
 30
0.0
 11
140.8289923072481
 21
17.86868624105544
 31
0.0
 12
137.5269923072481
 22
18.41901957438878
 32
0.0
 13
137.5269923072481
 23
18.41901957438878
 33
0.0
  0
SOLID
  5
873
330
86C
100
AcDbEntity
  8
치수문자_일반주서
 62
     0
100
AcDbTrace
 10
140.2249923072481
 20
17.86868624105544
 30
0.0
 11
140.2249923072481
 21
18.96935290772211
 31
0.0
 12
143.5269923072481
 22
18.41901957438878
 32
0.0
 13
143.5269923072481
 23
18.41901957438878
 33
0.0
  0
MTEXT
  5
874
330
86C
100
AcDbEntity
  8
치수문자_일반주서
 62
     0
100
AcDbMText
 10
140.5269923072481
 20
22.79401957438878
 30
0.0
 40
3.5
 41
0.0
 71
     2
 72
     1
  1
\A1;6
  7
SLDTEXTSTYLE0
 73
     1
 44
1.0
  0
POINT
  5
875
330
86C
100
AcDbEntity
  8
Defpoints
 62
     0
100
AcDbPoint
 10
137.5269923072481
 20
3.59660697611703
 30
0.0
  0
POINT
  5
876
330
86C
100
AcDbEntity
  8
Defpoints
 62
     0
100
AcDbPoint
 10
143.5269923072481
 20
3.272318331914704
 30
0.0
  0
POINT
  5
877
330
86C
100
AcDbEntity
  8
Defpoints
 62
     0
100
AcDbPoint
 10
143.5269923072481
 20
18.41901957438878
 30
0.0
  0
ENDBLK
  5
86E
330
86C
100
AcDbEntity
  8
0
100
AcDbBlockEnd
  0
BLOCK
  5
879
330
878
100
AcDbEntity
  8
0
100
AcDbBlockBegin
  2
*D50
 70
     1
 10
0.0
 20
0.0
 30
0.0
  3
*D50
  1

  0
LINE
  5
87B
330
878
100
AcDbEntity
  8
치수문자_일반주서
 62
     0
370
    -2
100
AcDbLine
 10
143.5269923072481
 20
3.935069534513957
 30
0.0
 11
143.5269923072481
 21
27.32424480420783
 31
0.0
  0
LINE
  5
87C
330
878
100
AcDbEntity
  8
치수문자_일반주서
 62
     0
370
    -2
100
AcDbLine
 10
127.5269923034164
 20
3.964810402721312
 30
0.0
 11
127.5269923034164
 21
27.32424480420783
 31
0.0
  0
LINE
  5
87D
330
878
100
AcDbEntity
  8
치수문자_일반주서
 62
     0
370
    -2
100
AcDbLine
 10
140.2249923072481
 20
27.32424480420783
 30
0.0
 11
130.8289923034164
 21
27.32424480420783
 31
0.0
  0
SOLID
  5
87E
330
878
100
AcDbEntity
  8
치수문자_일반주서
 62
     0
100
AcDbTrace
 10
140.2249923072481
 20
26.77391147087449
 30
0.0
 11
140.2249923072481
 21
27.87457813754116
 31
0.0
 12
143.5269923072481
 22
27.32424480420783
 32
0.0
 13
143.5269923072481
 23
27.32424480420783
 33
0.0
  0
SOLID
  5
87F
330
878
100
AcDbEntity
  8
치수문자_일반주서
 62
     0
100
AcDbTrace
 10
130.8289923034164
 20
27.87457813754116
 30
0.0
 11
130.8289923034164
 21
26.77391147087449
 31
0.0
 12
127.5269923034164
 22
27.32424480420783
 32
0.0
 13
127.5269923034164
 23
27.32424480420783
 33
0.0
  0
MTEXT
  5
880
330
878
100
AcDbEntity
  8
치수문자_일반주서
 62
     0
100
AcDbMText
 10
135.5269923053322
 20
31.69924480420783
 30
0.0
 40
3.5
 41
0.0
 71
     2
 72
     1
  1
\A1;16
  7
SLDTEXTSTYLE0
 73
     1
 44
1.0
  0
POINT
  5
881
330
878
100
AcDbEntity
  8
Defpoints
 62
     0
100
AcDbPoint
 10
143.5269923072481
 20
3.872569534513957
 30
0.0
  0
POINT
  5
882
330
878
100
AcDbEntity
  8
Defpoints
 62
     0
100
AcDbPoint
 10
127.5269923034164
 20
3.902310402721312
 30
0.0
  0
POINT
  5
883
330
878
100
AcDbEntity
  8
Defpoints
 62
     0
100
AcDbPoint
 10
127.5269923034164
 20
27.32424480420783
 30
0.0
  0
ENDBLK
  5
87A
330
878
100
AcDbEntity
  8
0
100
AcDbBlockEnd
  0
BLOCK
  5
953
330
952
100
AcDbEntity
  8
0
100
AcDbBlockBegin
  2
*D51
 70
     1
 10
0.0
 20
0.0
 30
0.0
  3
*D51
  1

  0
LINE
  5
955
330
952
100
AcDbEntity
  8
치수문자_일반주서
 62
     0
370
    -2
100
AcDbLine
 10
71.58866092365798
 20
49.37180738881174
 30
0.0
 11
97.64417746898087
 21
49.37180738881184
 31
0.0
  0
LINE
  5
956
330
952
100
AcDbEntity
  8
치수문자_일반주서
 62
     0
370
    -2
100
AcDbLine
 10
71.58866092365798
 20
50.57180738881175
 30
0.0
 11
97.64417746898087
 21
50.57180738881185
 31
0.0
  0
LINE
  5
957
330
952
100
AcDbEntity
  8
치수문자_일반주서
 62
     0
370
    -2
100
AcDbLine
 10
97.64417746898087
 20
46.06980738881184
 30
0.0
 11
97.64417746898087
 21
42.76780738881184
 31
0.0
  0
LINE
  5
958
330
952
100
AcDbEntity
  8
치수문자_일반주서
 62
     0
370
    -2
100
AcDbLine
 10
97.64417746898087
 20
53.87380738881185
 30
0.0
 11
97.64417746898087
 21
57.17580738881185
 31
0.0
  0
SOLID
  5
959
330
952
100
AcDbEntity
  8
치수문자_일반주서
 62
     0
100
AcDbTrace
 10
98.1945108023142
 20
46.06980738881184
 30
0.0
 11
97.09384413564754
 21
46.06980738881184
 31
0.0
 12
97.64417746898087
 22
49.37180738881184
 32
0.0
 13
97.64417746898087
 23
49.37180738881184
 33
0.0
  0
SOLID
  5
95A
330
952
100
AcDbEntity
  8
치수문자_일반주서
 62
     0
100
AcDbTrace
 10
97.09384413564754
 20
53.87380738881185
 30
0.0
 11
98.1945108023142
 21
53.87380738881185
 31
0.0
 12
97.64417746898087
 22
50.57180738881185
 32
0.0
 13
97.64417746898087
 23
50.57180738881185
 33
0.0
  0
MTEXT
  5
95B
330
952
100
AcDbEntity
  8
치수문자_일반주서
 62
     0
100
AcDbMText
 10
93.26917746898087
 20
49.97180738881172
 30
0.0
 40
3.5
 41
0.0
 71
     2
 72
     1
  1
\A1;%%c1.2
  7
SLDTEXTSTYLE0
 11
0.0
 21
1.0
 31
0.0
 73
     1
 44
1.0
  0
POINT
  5
95C
330
952
100
AcDbEntity
  8
Defpoints
 62
     0
100
AcDbPoint
 10
71.52616092365798
 20
49.37180738881174
 30
0.0
  0
POINT
  5
95D
330
952
100
AcDbEntity
  8
Defpoints
 62
     0
100
AcDbPoint
 10
71.52616092365798
 20
50.57180738881175
 30
0.0
  0
POINT
  5
95E
330
952
100
AcDbEntity
  8
Defpoints
 62
     0
100
AcDbPoint
 10
97.64417746898087
 20
50.57180738881185
 30
0.0
  0
ENDBLK
  5
954
330
952
100
AcDbEntity
  8
0
100
AcDbBlockEnd
  0
BLOCK
  5
960
330
95F
100
AcDbEntity
  8
0
100
AcDbBlockBegin
  2
*D52
 70
     1
 10
0.0
 20
0.0
 30
0.0
  3
*D52
  1

  0
LINE
  5
962
330
95F
100
AcDbEntity
  8
치수문자_일반주서
 62
     0
370
    -2
100
AcDbLine
 10
16.56166728747382
 20
52.53430738881175
 30
0.0
 11
16.56166728747382
 21
80.97180738881175
 31
0.0
  0
LINE
  5
963
330
95F
100
AcDbEntity
  8
치수문자_일반주서
 62
     0
370
    -2
100
AcDbLine
 10
76.56166728747381
 20
51.32931531800514
 30
0.0
 11
76.56166728747381
 21
80.97180738881175
 31
0.0
  0
LINE
  5
964
330
95F
100
AcDbEntity
  8
치수문자_일반주서
 62
     0
370
    -2
100
AcDbLine
 10
19.86366728747382
 20
80.97180738881175
 30
0.0
 11
73.2596672874738
 21
80.97180738881175
 31
0.0
  0
SOLID
  5
965
330
95F
100
AcDbEntity
  8
치수문자_일반주서
 62
     0
100
AcDbTrace
 10
19.86366728747382
 20
81.52214072214508
 30
0.0
 11
19.86366728747382
 21
80.42147405547843
 31
0.0
 12
16.56166728747382
 22
80.97180738881175
 32
0.0
 13
16.56166728747382
 23
80.97180738881175
 33
0.0
  0
SOLID
  5
966
330
95F
100
AcDbEntity
  8
치수문자_일반주서
 62
     0
100
AcDbTrace
 10
73.2596672874738
 20
80.42147405547843
 30
0.0
 11
73.2596672874738
 21
81.52214072214508
 31
0.0
 12
76.56166728747381
 22
80.97180738881175
 32
0.0
 13
76.56166728747381
 23
80.97180738881175
 33
0.0
  0
MTEXT
  5
967
330
95F
100
AcDbEntity
  8
치수문자_일반주서
 62
     0
100
AcDbMText
 10
46.56166728747382
 20
85.34680738881175
 30
0.0
 40
3.5
 41
0.0
 71
     2
 72
     1
  1
\A1;60
  7
SLDTEXTSTYLE0
 73
     1
 44
1.0
  0
POINT
  5
968
330
95F
100
AcDbEntity
  8
Defpoints
 62
     0
100
AcDbPoint
 10
16.56166728747382
 20
52.47180738881175
 30
0.0
  0
POINT
  5
969
330
95F
100
AcDbEntity
  8
Defpoints
 62
     0
100
AcDbPoint
 10
76.56166728747381
 20
51.26681531800514
 30
0.0
  0
POINT
  5
96A
330
95F
100
AcDbEntity
  8
Defpoints
 62
     0
100
AcDbPoint
 10
76.56166728747381
 20
80.97180738881175
 30
0.0
  0
ENDBLK
  5
961
330
95F
100
AcDbEntity
  8
0
100
AcDbBlockEnd
  0
BLOCK
  5
96C
330
96B
100
AcDbEntity
  8
0
100
AcDbBlockBegin
  2
*D53
 70
     1
 10
0.0
 20
0.0
 30
0.0
  3
*D53
  1

  0
LINE
  5
96E
330
96B
100
AcDbEntity
  8
치수문자_일반주서
 62
     0
370
    -2
100
AcDbLine
 10
16.99916728747381
 20
52.97180738881175
 30
0.0
 11
4.565209265861728
 21
52.9718073888117
 31
0.0
  0
LINE
  5
96F
330
96B
100
AcDbEntity
  8
치수문자_일반주서
 62
     0
370
    -2
100
AcDbLine
 10
16.99916728747381
 20
46.97180738881175
 30
0.0
 11
4.56520926586175
 21
46.9718073888117
 31
0.0
  0
LINE
  5
970
330
96B
100
AcDbEntity
  8
치수문자_일반주서
 62
     0
370
    -2
100
AcDbLine
 10
4.56520926586174
 20
49.6698073888117
 30
0.0
 11
4.565209265861738
 21
50.2738073888117
 31
0.0
  0
SOLID
  5
971
330
96B
100
AcDbEntity
  8
치수문자_일반주서
 62
     0
100
AcDbTrace
 10
5.115542599195074
 20
49.6698073888117
 30
0.0
 11
4.014875932528406
 21
49.6698073888117
 31
0.0
 12
4.565209265861728
 22
52.9718073888117
 32
0.0
 13
4.565209265861728
 23
52.9718073888117
 33
0.0
  0
SOLID
  5
972
330
96B
100
AcDbEntity
  8
치수문자_일반주서
 62
     0
100
AcDbTrace
 10
4.014875932528405
 20
50.2738073888117
 30
0.0
 11
5.115542599195072
 21
50.2738073888117
 31
0.0
 12
4.56520926586175
 22
46.9718073888117
 32
0.0
 13
4.56520926586175
 23
46.9718073888117
 33
0.0
  0
MTEXT
  5
973
330
96B
100
AcDbEntity
  8
치수문자_일반주서
 62
     0
100
AcDbMText
 10
0.1902092658617391
 20
49.97180738881173
 30
0.0
 40
3.5
 41
0.0
 71
     2
 72
     1
  1
\A1;%%c6
  7
SLDTEXTSTYLE0
 11
-3.552713678800505E-15
 21
1.0
 31
0.0
 73
     1
 44
1.0
  0
POINT
  5
974
330
96B
100
AcDbEntity
  8
Defpoints
 62
     0
100
AcDbPoint
 10
17.06166728747381
 20
52.97180738881175
 30
0.0
  0
POINT
  5
975
330
96B
100
AcDbEntity
  8
Defpoints
 62
     0
100
AcDbPoint
 10
17.06166728747381
 20
46.97180738881175
 30
0.0
  0
POINT
  5
976
330
96B
100
AcDbEntity
  8
Defpoints
 62
     0
100
AcDbPoint
 10
4.565209265861739
 20
46.9718073888117
 30
0.0
  0
ENDBLK
  5
96D
330
96B
100
AcDbEntity
  8
0
100
AcDbBlockEnd
  0
BLOCK
  5
978
330
977
100
AcDbEntity
  8
0
100
AcDbBlockBegin
  2
*D54
 70
     1
 10
0.0
 20
0.0
 30
0.0
  3
*D54
  1

  0
LINE
  5
97A
330
977
100
AcDbEntity
  8
치수문자_일반주서
 62
     0
370
    -2
100
AcDbLine
 10
70.56166728747382
 20
51.65360396220746
 30
0.0
 11
70.56166728747382
 21
66.41351656047921
 31
0.0
  0
LINE
  5
97B
330
977
100
AcDbEntity
  8
치수문자_일반주서
 62
     0
370
    -2
100
AcDbLine
 10
76.56166728747381
 20
51.32931531800514
 30
0.0
 11
76.56166728747381
 21
66.41351656047921
 31
0.0
  0
LINE
  5
97C
330
977
100
AcDbEntity
  8
치수문자_일반주서
 62
     0
370
    -2
100
AcDbLine
 10
73.86366728747383
 20
66.41351656047921
 30
0.0
 11
73.2596672874738
 21
66.41351656047921
 31
0.0
  0
SOLID
  5
97D
330
977
100
AcDbEntity
  8
치수문자_일반주서
 62
     0
100
AcDbTrace
 10
73.86366728747383
 20
66.96384989381254
 30
0.0
 11
73.86366728747383
 21
65.86318322714588
 31
0.0
 12
70.56166728747382
 22
66.41351656047921
 32
0.0
 13
70.56166728747382
 23
66.41351656047921
 33
0.0
  0
SOLID
  5
97E
330
977
100
AcDbEntity
  8
치수문자_일반주서
 62
     0
100
AcDbTrace
 10
73.2596672874738
 20
65.86318322714588
 30
0.0
 11
73.2596672874738
 21
66.96384989381254
 31
0.0
 12
76.56166728747381
 22
66.41351656047921
 32
0.0
 13
76.56166728747381
 23
66.41351656047921
 33
0.0
  0
MTEXT
  5
97F
330
977
100
AcDbEntity
  8
치수문자_일반주서
 62
     0
100
AcDbMText
 10
73.56166728747382
 20
70.78851656047921
 30
0.0
 40
3.5
 41
0.0
 71
     2
 72
     1
  1
\A1;6
  7
SLDTEXTSTYLE0
 73
     1
 44
1.0
  0
POINT
  5
980
330
977
100
AcDbEntity
  8
Defpoints
 62
     0
100
AcDbPoint
 10
70.56166728747382
 20
51.59110396220746
 30
0.0
  0
POINT
  5
981
330
977
100
AcDbEntity
  8
Defpoints
 62
     0
100
AcDbPoint
 10
76.56166728747381
 20
51.26681531800514
 30
0.0
  0
POINT
  5
982
330
977
100
AcDbEntity
  8
Defpoints
 62
     0
100
AcDbPoint
 10
76.56166728747381
 20
66.41351656047921
 30
0.0
  0
ENDBLK
  5
979
330
977
100
AcDbEntity
  8
0
100
AcDbBlockEnd
  0
BLOCK
  5
984
330
983
100
AcDbEntity
  8
0
100
AcDbBlockBegin
  2
*D55
 70
     1
 10
0.0
 20
0.0
 30
0.0
  3
*D55
  1

  0
LINE
  5
986
330
983
100
AcDbEntity
  8
치수문자_일반주서
 62
     0
370
    -2
100
AcDbLine
 10
76.56166728747381
 20
51.92956652060439
 30
0.0
 11
76.56166728747381
 21
75.31874179029826
 31
0.0
  0
LINE
  5
987
330
983
100
AcDbEntity
  8
치수문자_일반주서
 62
     0
370
    -2
100
AcDbLine
 10
56.56166728251302
 20
51.95930738881174
 30
0.0
 11
56.56166728251302
 21
75.31874179029826
 31
0.0
  0
LINE
  5
988
330
983
100
AcDbEntity
  8
치수문자_일반주서
 62
     0
370
    -2
100
AcDbLine
 10
73.2596672874738
 20
75.31874179029826
 30
0.0
 11
59.86366728251302
 21
75.31874179029826
 31
0.0
  0
SOLID
  5
989
330
983
100
AcDbEntity
  8
치수문자_일반주서
 62
     0
100
AcDbTrace
 10
73.2596672874738
 20
74.76840845696493
 30
0.0
 11
73.2596672874738
 21
75.86907512363159
 31
0.0
 12
76.56166728747381
 22
75.31874179029826
 32
0.0
 13
76.56166728747381
 23
75.31874179029826
 33
0.0
  0
SOLID
  5
98A
330
983
100
AcDbEntity
  8
치수문자_일반주서
 62
     0
100
AcDbTrace
 10
59.86366728251302
 20
75.86907512363159
 30
0.0
 11
59.86366728251302
 21
74.76840845696493
 31
0.0
 12
56.56166728251302
 22
75.31874179029826
 32
0.0
 13
56.56166728251302
 23
75.31874179029826
 33
0.0
  0
MTEXT
  5
98B
330
983
100
AcDbEntity
  8
치수문자_일반주서
 62
     0
100
AcDbMText
 10
66.56166728499342
 20
79.69374179029826
 30
0.0
 40
3.5
 41
0.0
 71
     2
 72
     1
  1
\A1;20
  7
SLDTEXTSTYLE0
 73
     1
 44
1.0
  0
POINT
  5
98C
330
983
100
AcDbEntity
  8
Defpoints
 62
     0
100
AcDbPoint
 10
76.56166728747381
 20
51.86706652060439
 30
0.0
  0
POINT
  5
98D
330
983
100
AcDbEntity
  8
Defpoints
 62
     0
100
AcDbPoint
 10
56.56166728251302
 20
51.89680738881174
 30
0.0
  0
POINT
  5
98E
330
983
100
AcDbEntity
  8
Defpoints
 62
     0
100
AcDbPoint
 10
56.56166728251302
 20
75.31874179029826
 30
0.0
  0
ENDBLK
  5
985
330
983
100
AcDbEntity
  8
0
100
AcDbBlockEnd
  0
BLOCK
  5
9DF
330
9DE
100
AcDbEntity
  8
0
100
AcDbBlockBegin
  2
*D56
 70
     1
 10
0.0
 20
0.0
 30
0.0
  3
*D56
  1

  0
LINE
  5
9E1
330
9DE
100
AcDbEntity
  8
치수문자_일반주서
 62
     0
370
    -2
100
AcDbLine
 10
135.6754155385609
 20
-0.2681437086341985
 30
0.0
 11
161.7309320838838
 21
-0.2681437086341013
 31
0.0
  0
LINE
  5
9E2
330
9DE
100
AcDbEntity
  8
치수문자_일반주서
 62
     0
370
    -2
100
AcDbLine
 10
135.6754155385609
 20
0.9318562913658115
 30
0.0
 11
161.7309320838838
 21
0.9318562913659086
 31
0.0
  0
LINE
  5
9E3
330
9DE
100
AcDbEntity
  8
치수문자_일반주서
 62
     0
370
    -2
100
AcDbLine
 10
161.7309320838838
 20
-3.570143708634101
 30
0.0
 11
161.7309320838838
 21
-6.872143708634102
 31
0.0
  0
LINE
  5
9E4
330
9DE
100
AcDbEntity
  8
치수문자_일반주서
 62
     0
370
    -2
100
AcDbLine
 10
161.7309320838838
 20
4.233856291365909
 30
0.0
 11
161.7309320838838
 21
7.535856291365908
 31
0.0
  0
SOLID
  5
9E5
330
9DE
100
AcDbEntity
  8
치수문자_일반주서
 62
     0
100
AcDbTrace
 10
162.2812654172171
 20
-3.570143708634101
 30
0.0
 11
161.1805987505504
 21
-3.570143708634101
 31
0.0
 12
161.7309320838838
 22
-0.2681437086341013
 32
0.0
 13
161.7309320838838
 23
-0.2681437086341013
 33
0.0
  0
SOLID
  5
9E6
330
9DE
100
AcDbEntity
  8
치수문자_일반주서
 62
     0
100
AcDbTrace
 10
161.1805987505504
 20
4.233856291365909
 30
0.0
 11
162.2812654172171
 21
4.233856291365909
 31
0.0
 12
161.7309320838838
 22
0.9318562913659086
 32
0.0
 13
161.7309320838838
 23
0.9318562913659086
 33
0.0
  0
MTEXT
  5
9E7
330
9DE
100
AcDbEntity
  8
치수문자_일반주서
 62
     0
100
AcDbMText
 10
157.3559320838838
 20
0.3318562913657815
 30
0.0
 40
3.5
 41
0.0
 71
     2
 72
     1
  1
\A1;%%c1.2
  7
SLDTEXTSTYLE0
 11
0.0
 21
1.0
 31
0.0
 73
     1
 44
1.0
  0
POINT
  5
9E8
330
9DE
100
AcDbEntity
  8
Defpoints
 62
     0
100
AcDbPoint
 10
135.6129155385609
 20
-0.2681437086341987
 30
0.0
  0
POINT
  5
9E9
330
9DE
100
AcDbEntity
  8
Defpoints
 62
     0
100
AcDbPoint
 10
135.6129155385609
 20
0.9318562913658113
 30
0.0
  0
POINT
  5
9EA
330
9DE
100
AcDbEntity
  8
Defpoints
 62
     0
100
AcDbPoint
 10
161.7309320838838
 20
0.9318562913659089
 30
0.0
  0
ENDBLK
  5
9E0
330
9DE
100
AcDbEntity
  8
0
100
AcDbBlockEnd
  0
BLOCK
  5
9EC
330
9EB
100
AcDbEntity
  8
0
100
AcDbBlockBegin
  2
*D57
 70
     1
 10
0.0
 20
0.0
 30
0.0
  3
*D57
  1

  0
LINE
  5
9EE
330
9EB
100
AcDbEntity
  8
치수문자_일반주서
 62
     0
370
    -2
100
AcDbLine
 10
80.64842190237673
 20
2.89435629136581
 30
0.0
 11
80.64842190237673
 21
31.33185629136582
 31
0.0
  0
LINE
  5
9EF
330
9EB
100
AcDbEntity
  8
치수문자_일반주서
 62
     0
370
    -2
100
AcDbLine
 10
140.6484219023767
 20
1.689364220559199
 30
0.0
 11
140.6484219023767
 21
31.33185629136582
 31
0.0
  0
LINE
  5
9F0
330
9EB
100
AcDbEntity
  8
치수문자_일반주서
 62
     0
370
    -2
100
AcDbLine
 10
83.95042190237673
 20
31.33185629136582
 30
0.0
 11
137.3464219023767
 21
31.33185629136582
 31
0.0
  0
SOLID
  5
9F1
330
9EB
100
AcDbEntity
  8
치수문자_일반주서
 62
     0
100
AcDbTrace
 10
83.95042190237673
 20
31.88218962469915
 30
0.0
 11
83.95042190237673
 21
30.78152295803248
 31
0.0
 12
80.64842190237673
 22
31.33185629136582
 32
0.0
 13
80.64842190237673
 23
31.33185629136582
 33
0.0
  0
SOLID
  5
9F2
330
9EB
100
AcDbEntity
  8
치수문자_일반주서
 62
     0
100
AcDbTrace
 10
137.3464219023767
 20
30.78152295803248
 30
0.0
 11
137.3464219023767
 21
31.88218962469915
 31
0.0
 12
140.6484219023767
 22
31.33185629136582
 32
0.0
 13
140.6484219023767
 23
31.33185629136582
 33
0.0
  0
MTEXT
  5
9F3
330
9EB
100
AcDbEntity
  8
치수문자_일반주서
 62
     0
100
AcDbMText
 10
110.6484219023767
 20
35.70685629136582
 30
0.0
 40
3.5
 41
0.0
 71
     2
 72
     1
  1
\A1;60
  7
SLDTEXTSTYLE0
 73
     1
 44
1.0
  0
POINT
  5
9F4
330
9EB
100
AcDbEntity
  8
Defpoints
 62
     0
100
AcDbPoint
 10
80.64842190237673
 20
2.83185629136581
 30
0.0
  0
POINT
  5
9F5
330
9EB
100
AcDbEntity
  8
Defpoints
 62
     0
100
AcDbPoint
 10
140.6484219023767
 20
1.626864220559199
 30
0.0
  0
POINT
  5
9F6
330
9EB
100
AcDbEntity
  8
Defpoints
 62
     0
100
AcDbPoint
 10
140.6484219023767
 20
31.33185629136582
 30
0.0
  0
ENDBLK
  5
9ED
330
9EB
100
AcDbEntity
  8
0
100
AcDbBlockEnd
  0
BLOCK
  5
9F8
330
9F7
100
AcDbEntity
  8
0
100
AcDbBlockBegin
  2
*D58
 70
     1
 10
0.0
 20
0.0
 30
0.0
  3
*D58
  1

  0
LINE
  5
9FA
330
9F7
100
AcDbEntity
  8
치수문자_일반주서
 62
     0
370
    -2
100
AcDbLine
 10
81.08592190237671
 20
3.331856291365809
 30
0.0
 11
68.65196388076464
 21
3.331856291365762
 31
0.0
  0
LINE
  5
9FB
330
9F7
100
AcDbEntity
  8
치수문자_일반주서
 62
     0
370
    -2
100
AcDbLine
 10
81.08592190237671
 20
-2.668143708634183
 30
0.0
 11
68.65196388076465
 21
-2.668143708634231
 31
0.0
  0
LINE
  5
9FC
330
9F7
100
AcDbEntity
  8
치수문자_일반주서
 62
     0
370
    -2
100
AcDbLine
 10
68.65196388076465
 20
0.0298562913657623
 30
0.0
 11
68.65196388076464
 21
0.6338562913657695
 31
0.0
  0
SOLID
  5
9FD
330
9F7
100
AcDbEntity
  8
치수문자_일반주서
 62
     0
100
AcDbTrace
 10
69.20229721409798
 20
0.0298562913657636
 30
0.0
 11
68.10163054743133
 21
0.029856291365761
 31
0.0
 12
68.65196388076464
 22
3.331856291365762
 32
0.0
 13
68.65196388076464
 23
3.331856291365762
 33
0.0
  0
SOLID
  5
9FE
330
9F7
100
AcDbEntity
  8
치수문자_일반주서
 62
     0
100
AcDbTrace
 10
68.10163054743131
 20
0.6338562913657682
 30
0.0
 11
69.20229721409797
 21
0.6338562913657708
 31
0.0
 12
68.65196388076465
 22
-2.668143708634231
 32
0.0
 13
68.65196388076465
 23
-2.668143708634231
 33
0.0
  0
MTEXT
  5
9FF
330
9F7
100
AcDbEntity
  8
치수문자_일반주서
 62
     0
100
AcDbMText
 10
64.27696388076464
 20
0.3318562913657995
 30
0.0
 40
3.5
 41
0.0
 71
     2
 72
     1
  1
\A1;%%c6
  7
SLDTEXTSTYLE0
 11
-2.368475785867004E-15
 21
1.0
 31
0.0
 73
     1
 44
1.0
  0
POINT
  5
A00
330
9F7
100
AcDbEntity
  8
Defpoints
 62
     0
100
AcDbPoint
 10
81.14842190237671
 20
3.33185629136581
 30
0.0
  0
POINT
  5
A01
330
9F7
100
AcDbEntity
  8
Defpoints
 62
     0
100
AcDbPoint
 10
81.14842190237671
 20
-2.668143708634183
 30
0.0
  0
POINT
  5
A02
330
9F7
100
AcDbEntity
  8
Defpoints
 62
     0
100
AcDbPoint
 10
68.65196388076465
 20
-2.66814370863423
 30
0.0
  0
ENDBLK
  5
9F9
330
9F7
100
AcDbEntity
  8
0
100
AcDbBlockEnd
  0
BLOCK
  5
A04
330
A03
100
AcDbEntity
  8
0
100
AcDbBlockBegin
  2
*D59
 70
     1
 10
0.0
 20
0.0
 30
0.0
  3
*D59
  1

  0
LINE
  5
A06
330
A03
100
AcDbEntity
  8
치수문자_일반주서
 62
     0
370
    -2
100
AcDbLine
 10
134.6484219023767
 20
2.013652864761525
 30
0.0
 11
134.6484219023767
 21
16.77356546303327
 31
0.0
  0
LINE
  5
A07
330
A03
100
AcDbEntity
  8
치수문자_일반주서
 62
     0
370
    -2
100
AcDbLine
 10
140.6484219023767
 20
1.689364220559199
 30
0.0
 11
140.6484219023767
 21
16.77356546303327
 31
0.0
  0
LINE
  5
A08
330
A03
100
AcDbEntity
  8
치수문자_일반주서
 62
     0
370
    -2
100
AcDbLine
 10
137.9504219023767
 20
16.77356546303327
 30
0.0
 11
137.3464219023767
 21
16.77356546303327
 31
0.0
  0
SOLID
  5
A09
330
A03
100
AcDbEntity
  8
치수문자_일반주서
 62
     0
100
AcDbTrace
 10
137.9504219023767
 20
17.32389879636661
 30
0.0
 11
137.9504219023767
 21
16.22323212969994
 31
0.0
 12
134.6484219023767
 22
16.77356546303327
 32
0.0
 13
134.6484219023767
 23
16.77356546303327
 33
0.0
  0
SOLID
  5
A0A
330
A03
100
AcDbEntity
  8
치수문자_일반주서
 62
     0
100
AcDbTrace
 10
137.3464219023767
 20
16.22323212969994
 30
0.0
 11
137.3464219023767
 21
17.32389879636661
 31
0.0
 12
140.6484219023767
 22
16.77356546303327
 32
0.0
 13
140.6484219023767
 23
16.77356546303327
 33
0.0
  0
MTEXT
  5
A0B
330
A03
100
AcDbEntity
  8
치수문자_일반주서
 62
     0
100
AcDbMText
 10
137.6484219023767
 20
21.14856546303327
 30
0.0
 40
3.5
 41
0.0
 71
     2
 72
     1
  1
\A1;6
  7
SLDTEXTSTYLE0
 73
     1
 44
1.0
  0
POINT
  5
A0C
330
A03
100
AcDbEntity
  8
Defpoints
 62
     0
100
AcDbPoint
 10
134.6484219023767
 20
1.951152864761525
 30
0.0
  0
POINT
  5
A0D
330
A03
100
AcDbEntity
  8
Defpoints
 62
     0
100
AcDbPoint
 10
140.6484219023767
 20
1.626864220559199
 30
0.0
  0
POINT
  5
A0E
330
A03
100
AcDbEntity
  8
Defpoints
 62
     0
100
AcDbPoint
 10
140.6484219023767
 20
16.77356546303327
 30
0.0
  0
ENDBLK
  5
A05
330
A03
100
AcDbEntity
  8
0
100
AcDbBlockEnd
  0
BLOCK
  5
A10
330
A0F
100
AcDbEntity
  8
0
100
AcDbBlockBegin
  2
*D60
 70
     1
 10
0.0
 20
0.0
 30
0.0
  3
*D60
  1

  0
LINE
  5
A12
330
A0F
100
AcDbEntity
  8
치수문자_일반주서
 62
     0
370
    -2
100
AcDbLine
 10
140.6484219023767
 20
2.289615423158452
 30
0.0
 11
140.6484219023767
 21
25.67879069285232
 31
0.0
  0
LINE
  5
A13
330
A0F
100
AcDbEntity
  8
치수문자_일반주서
 62
     0
370
    -2
100
AcDbLine
 10
120.6484218974159
 20
2.319356291365807
 30
0.0
 11
120.6484218974159
 21
25.67879069285232
 31
0.0
  0
LINE
  5
A14
330
A0F
100
AcDbEntity
  8
치수문자_일반주서
 62
     0
370
    -2
100
AcDbLine
 10
137.3464219023767
 20
25.67879069285232
 30
0.0
 11
123.9504218974159
 21
25.67879069285232
 31
0.0
  0
SOLID
  5
A15
330
A0F
100
AcDbEntity
  8
치수문자_일반주서
 62
     0
100
AcDbTrace
 10
137.3464219023767
 20
25.12845735951899
 30
0.0
 11
137.3464219023767
 21
26.22912402618566
 31
0.0
 12
140.6484219023767
 22
25.67879069285232
 32
0.0
 13
140.6484219023767
 23
25.67879069285232
 33
0.0
  0
SOLID
  5
A16
330
A0F
100
AcDbEntity
  8
치수문자_일반주서
 62
     0
100
AcDbTrace
 10
123.9504218974159
 20
26.22912402618566
 30
0.0
 11
123.9504218974159
 21
25.12845735951899
 31
0.0
 12
120.6484218974159
 22
25.67879069285232
 32
0.0
 13
120.6484218974159
 23
25.67879069285232
 33
0.0
  0
MTEXT
  5
A17
330
A0F
100
AcDbEntity
  8
치수문자_일반주서
 62
     0
100
AcDbMText
 10
130.6484218998963
 20
30.05379069285232
 30
0.0
 40
3.5
 41
0.0
 71
     2
 72
     1
  1
\A1;20
  7
SLDTEXTSTYLE0
 73
     1
 44
1.0
  0
POINT
  5
A18
330
A0F
100
AcDbEntity
  8
Defpoints
 62
     0
100
AcDbPoint
 10
140.6484219023767
 20
2.227115423158452
 30
0.0
  0
POINT
  5
A19
330
A0F
100
AcDbEntity
  8
Defpoints
 62
     0
100
AcDbPoint
 10
120.6484218974159
 20
2.256856291365807
 30
0.0
  0
POINT
  5
A1A
330
A0F
100
AcDbEntity
  8
Defpoints
 62
     0
100
AcDbPoint
 10
120.6484218974159
 20
25.67879069285232
 30
0.0
  0
ENDBLK
  5
A11
330
A0F
100
AcDbEntity
  8
0
100
AcDbBlockEnd
  0
BLOCK
  5
AE9
330
AE8
100
AcDbEntity
  8
0
100
AcDbBlockBegin
  2
*D61
 70
     1
 10
0.0
 20
0.0
 30
0.0
  3
*D61
  1

  0
LINE
  5
AEB
330
AE8
100
AcDbEntity
  8
치수문자_일반주서
 62
     0
370
    -2
100
AcDbLine
 10
76.58866092365798
 20
49.37180738881174
 30
0.0
 11
102.6441774689809
 21
49.37180738881184
 31
0.0
  0
LINE
  5
AEC
330
AE8
100
AcDbEntity
  8
치수문자_일반주서
 62
     0
370
    -2
100
AcDbLine
 10
76.58866092365798
 20
50.57180738881175
 30
0.0
 11
102.6441774689809
 21
50.57180738881185
 31
0.0
  0
LINE
  5
AED
330
AE8
100
AcDbEntity
  8
치수문자_일반주서
 62
     0
370
    -2
100
AcDbLine
 10
102.6441774689809
 20
46.06980738881184
 30
0.0
 11
102.6441774689809
 21
42.76780738881184
 31
0.0
  0
LINE
  5
AEE
330
AE8
100
AcDbEntity
  8
치수문자_일반주서
 62
     0
370
    -2
100
AcDbLine
 10
102.6441774689809
 20
53.87380738881185
 30
0.0
 11
102.6441774689809
 21
57.17580738881185
 31
0.0
  0
SOLID
  5
AEF
330
AE8
100
AcDbEntity
  8
치수문자_일반주서
 62
     0
100
AcDbTrace
 10
103.1945108023142
 20
46.06980738881184
 30
0.0
 11
102.0938441356475
 21
46.06980738881184
 31
0.0
 12
102.6441774689809
 22
49.37180738881184
 32
0.0
 13
102.6441774689809
 23
49.37180738881184
 33
0.0
  0
SOLID
  5
AF0
330
AE8
100
AcDbEntity
  8
치수문자_일반주서
 62
     0
100
AcDbTrace
 10
102.0938441356475
 20
53.87380738881185
 30
0.0
 11
103.1945108023142
 21
53.87380738881185
 31
0.0
 12
102.6441774689809
 22
50.57180738881185
 32
0.0
 13
102.6441774689809
 23
50.57180738881185
 33
0.0
  0
MTEXT
  5
AF1
330
AE8
100
AcDbEntity
  8
치수문자_일반주서
 62
     0
100
AcDbMText
 10
98.26917746898087
 20
49.97180738881172
 30
0.0
 40
3.5
 41
0.0
 71
     2
 72
     1
  1
\A1;%%c1.2
  7
SLDTEXTSTYLE0
 11
0.0
 21
1.0
 31
0.0
 73
     1
 44
1.0
  0
POINT
  5
AF2
330
AE8
100
AcDbEntity
  8
Defpoints
 62
     0
100
AcDbPoint
 10
76.52616092365798
 20
49.37180738881174
 30
0.0
  0
POINT
  5
AF3
330
AE8
100
AcDbEntity
  8
Defpoints
 62
     0
100
AcDbPoint
 10
76.52616092365798
 20
50.57180738881175
 30
0.0
  0
POINT
  5
AF4
330
AE8
100
AcDbEntity
  8
Defpoints
 62
     0
100
AcDbPoint
 10
102.6441774689809
 20
50.57180738881185
 30
0.0
  0
ENDBLK
  5
AEA
330
AE8
100
AcDbEntity
  8
0
100
AcDbBlockEnd
  0
BLOCK
  5
AF6
330
AF5
100
AcDbEntity
  8
0
100
AcDbBlockBegin
  2
*D62
 70
     1
 10
0.0
 20
0.0
 30
0.0
  3
*D62
  1

  0
LINE
  5
AF8
330
AF5
100
AcDbEntity
  8
치수문자_일반주서
 62
     0
370
    -2
100
AcDbLine
 10
16.56166728747382
 20
52.53430738881175
 30
0.0
 11
16.56166728747381
 21
80.97180738881175
 31
0.0
  0
LINE
  5
AF9
330
AF5
100
AcDbEntity
  8
치수문자_일반주서
 62
     0
370
    -2
100
AcDbLine
 10
81.56166728747381
 20
51.32931531800514
 30
0.0
 11
81.5616672874738
 21
80.97180738881175
 31
0.0
  0
LINE
  5
AFA
330
AF5
100
AcDbEntity
  8
치수문자_일반주서
 62
     0
370
    -2
100
AcDbLine
 10
19.86366728747381
 20
80.97180738881175
 30
0.0
 11
78.25966728747379
 21
80.97180738881175
 31
0.0
  0
SOLID
  5
AFB
330
AF5
100
AcDbEntity
  8
치수문자_일반주서
 62
     0
100
AcDbTrace
 10
19.86366728747381
 20
81.52214072214508
 30
0.0
 11
19.86366728747381
 21
80.42147405547843
 31
0.0
 12
16.56166728747381
 22
80.97180738881175
 32
0.0
 13
16.56166728747381
 23
80.97180738881175
 33
0.0
  0
SOLID
  5
AFC
330
AF5
100
AcDbEntity
  8
치수문자_일반주서
 62
     0
100
AcDbTrace
 10
78.25966728747379
 20
80.42147405547843
 30
0.0
 11
78.25966728747379
 21
81.52214072214508
 31
0.0
 12
81.5616672874738
 22
80.97180738881175
 32
0.0
 13
81.5616672874738
 23
80.97180738881175
 33
0.0
  0
MTEXT
  5
AFD
330
AF5
100
AcDbEntity
  8
치수문자_일반주서
 62
     0
100
AcDbMText
 10
49.06166728747382
 20
85.34680738881175
 30
0.0
 40
3.5
 41
0.0
 71
     2
 72
     1
  1
\A1;65
  7
SLDTEXTSTYLE0
 73
     1
 44
1.0
  0
POINT
  5
AFE
330
AF5
100
AcDbEntity
  8
Defpoints
 62
     0
100
AcDbPoint
 10
16.56166728747382
 20
52.47180738881175
 30
0.0
  0
POINT
  5
AFF
330
AF5
100
AcDbEntity
  8
Defpoints
 62
     0
100
AcDbPoint
 10
81.56166728747381
 20
51.26681531800514
 30
0.0
  0
POINT
  5
B00
330
AF5
100
AcDbEntity
  8
Defpoints
 62
     0
100
AcDbPoint
 10
81.56166728747381
 20
80.97180738881175
 30
0.0
  0
ENDBLK
  5
AF7
330
AF5
100
AcDbEntity
  8
0
100
AcDbBlockEnd
  0
BLOCK
  5
B02
330
B01
100
AcDbEntity
  8
0
100
AcDbBlockBegin
  2
*D63
 70
     1
 10
0.0
 20
0.0
 30
0.0
  3
*D63
  1

  0
LINE
  5
B04
330
B01
100
AcDbEntity
  8
치수문자_일반주서
 62
     0
370
    -2
100
AcDbLine
 10
16.99916728747382
 20
52.97180738881175
 30
0.0
 11
4.565209265861736
 21
52.9718073888117
 31
0.0
  0
LINE
  5
B05
330
B01
100
AcDbEntity
  8
치수문자_일반주서
 62
     0
370
    -2
100
AcDbLine
 10
16.99916728747382
 20
46.97180738881175
 30
0.0
 11
4.565209265861757
 21
46.9718073888117
 31
0.0
  0
LINE
  5
B06
330
B01
100
AcDbEntity
  8
치수문자_일반주서
 62
     0
370
    -2
100
AcDbLine
 10
4.565209265861747
 20
49.6698073888117
 30
0.0
 11
4.565209265861745
 21
50.2738073888117
 31
0.0
  0
SOLID
  5
B07
330
B01
100
AcDbEntity
  8
치수문자_일반주서
 62
     0
100
AcDbTrace
 10
5.115542599195081
 20
49.6698073888117
 30
0.0
 11
4.014875932528414
 21
49.6698073888117
 31
0.0
 12
4.565209265861736
 22
52.9718073888117
 32
0.0
 13
4.565209265861736
 23
52.9718073888117
 33
0.0
  0
SOLID
  5
B08
330
B01
100
AcDbEntity
  8
치수문자_일반주서
 62
     0
100
AcDbTrace
 10
4.014875932528412
 20
50.2738073888117
 30
0.0
 11
5.115542599195079
 21
50.2738073888117
 31
0.0
 12
4.565209265861757
 22
46.9718073888117
 32
0.0
 13
4.565209265861757
 23
46.9718073888117
 33
0.0
  0
MTEXT
  5
B09
330
B01
100
AcDbEntity
  8
치수문자_일반주서
 62
     0
100
AcDbMText
 10
0.1902092658617462
 20
49.97180738881173
 30
0.0
 40
3.5
 41
0.0
 71
     2
 72
     1
  1
\A1;%%c6
  7
SLDTEXTSTYLE0
 11
-3.552713678800501E-15
 21
1.0
 31
0.0
 73
     1
 44
1.0
  0
POINT
  5
B0A
330
B01
100
AcDbEntity
  8
Defpoints
 62
     0
100
AcDbPoint
 10
17.06166728747382
 20
52.97180738881175
 30
0.0
  0
POINT
  5
B0B
330
B01
100
AcDbEntity
  8
Defpoints
 62
     0
100
AcDbPoint
 10
17.06166728747382
 20
46.97180738881175
 30
0.0
  0
POINT
  5
B0C
330
B01
100
AcDbEntity
  8
Defpoints
 62
     0
100
AcDbPoint
 10
4.565209265861746
 20
46.9718073888117
 30
0.0
  0
ENDBLK
  5
B03
330
B01
100
AcDbEntity
  8
0
100
AcDbBlockEnd
  0
BLOCK
  5
B0E
330
B0D
100
AcDbEntity
  8
0
100
AcDbBlockBegin
  2
*D64
 70
     1
 10
0.0
 20
0.0
 30
0.0
  3
*D64
  1

  0
LINE
  5
B10
330
B0D
100
AcDbEntity
  8
치수문자_일반주서
 62
     0
370
    -2
100
AcDbLine
 10
75.56166728747382
 20
51.65360396220746
 30
0.0
 11
75.56166728747382
 21
66.41351656047921
 31
0.0
  0
LINE
  5
B11
330
B0D
100
AcDbEntity
  8
치수문자_일반주서
 62
     0
370
    -2
100
AcDbLine
 10
81.56166728747381
 20
51.32931531800514
 30
0.0
 11
81.56166728747381
 21
66.41351656047921
 31
0.0
  0
LINE
  5
B12
330
B0D
100
AcDbEntity
  8
치수문자_일반주서
 62
     0
370
    -2
100
AcDbLine
 10
78.86366728747383
 20
66.41351656047921
 30
0.0
 11
78.2596672874738
 21
66.41351656047921
 31
0.0
  0
SOLID
  5
B13
330
B0D
100
AcDbEntity
  8
치수문자_일반주서
 62
     0
100
AcDbTrace
 10
78.86366728747383
 20
66.96384989381254
 30
0.0
 11
78.86366728747383
 21
65.86318322714588
 31
0.0
 12
75.56166728747382
 22
66.41351656047921
 32
0.0
 13
75.56166728747382
 23
66.41351656047921
 33
0.0
  0
SOLID
  5
B14
330
B0D
100
AcDbEntity
  8
치수문자_일반주서
 62
     0
100
AcDbTrace
 10
78.2596672874738
 20
65.86318322714588
 30
0.0
 11
78.2596672874738
 21
66.96384989381254
 31
0.0
 12
81.56166728747381
 22
66.41351656047921
 32
0.0
 13
81.56166728747381
 23
66.41351656047921
 33
0.0
  0
MTEXT
  5
B15
330
B0D
100
AcDbEntity
  8
치수문자_일반주서
 62
     0
100
AcDbMText
 10
78.56166728747382
 20
70.78851656047921
 30
0.0
 40
3.5
 41
0.0
 71
     2
 72
     1
  1
\A1;6
  7
SLDTEXTSTYLE0
 73
     1
 44
1.0
  0
POINT
  5
B16
330
B0D
100
AcDbEntity
  8
Defpoints
 62
     0
100
AcDbPoint
 10
75.56166728747382
 20
51.59110396220746
 30
0.0
  0
POINT
  5
B17
330
B0D
100
AcDbEntity
  8
Defpoints
 62
     0
100
AcDbPoint
 10
81.56166728747381
 20
51.26681531800514
 30
0.0
  0
POINT
  5
B18
330
B0D
100
AcDbEntity
  8
Defpoints
 62
     0
100
AcDbPoint
 10
81.56166728747381
 20
66.41351656047921
 30
0.0
  0
ENDBLK
  5
B0F
330
B0D
100
AcDbEntity
  8
0
100
AcDbBlockEnd
  0
BLOCK
  5
B1A
330
B19
100
AcDbEntity
  8
0
100
AcDbBlockBegin
  2
*D65
 70
     1
 10
0.0
 20
0.0
 30
0.0
  3
*D65
  1

  0
LINE
  5
B1C
330
B19
100
AcDbEntity
  8
치수문자_일반주서
 62
     0
370
    -2
100
AcDbLine
 10
81.56166728747381
 20
51.92956652060439
 30
0.0
 11
81.56166728747381
 21
75.31874179029826
 31
0.0
  0
LINE
  5
B1D
330
B19
100
AcDbEntity
  8
치수문자_일반주서
 62
     0
370
    -2
100
AcDbLine
 10
55.56166728420499
 20
51.95930738881174
 30
0.0
 11
55.56166728420499
 21
75.31874179029826
 31
0.0
  0
LINE
  5
B1E
330
B19
100
AcDbEntity
  8
치수문자_일반주서
 62
     0
370
    -2
100
AcDbLine
 10
78.2596672874738
 20
75.31874179029826
 30
0.0
 11
58.86366728420499
 21
75.31874179029826
 31
0.0
  0
SOLID
  5
B1F
330
B19
100
AcDbEntity
  8
치수문자_일반주서
 62
     0
100
AcDbTrace
 10
78.2596672874738
 20
74.76840845696493
 30
0.0
 11
78.2596672874738
 21
75.86907512363159
 31
0.0
 12
81.56166728747381
 22
75.31874179029826
 32
0.0
 13
81.56166728747381
 23
75.31874179029826
 33
0.0
  0
SOLID
  5
B20
330
B19
100
AcDbEntity
  8
치수문자_일반주서
 62
     0
100
AcDbTrace
 10
58.86366728420499
 20
75.86907512363159
 30
0.0
 11
58.86366728420499
 21
74.76840845696493
 31
0.0
 12
55.56166728420499
 22
75.31874179029826
 32
0.0
 13
55.56166728420499
 23
75.31874179029826
 33
0.0
  0
MTEXT
  5
B21
330
B19
100
AcDbEntity
  8
치수문자_일반주서
 62
     0
100
AcDbMText
 10
68.5616672858394
 20
79.69374179029826
 30
0.0
 40
3.5
 41
0.0
 71
     2
 72
     1
  1
\A1;26
  7
SLDTEXTSTYLE0
 73
     1
 44
1.0
  0
POINT
  5
B22
330
B19
100
AcDbEntity
  8
Defpoints
 62
     0
100
AcDbPoint
 10
81.56166728747381
 20
51.86706652060439
 30
0.0
  0
POINT
  5
B23
330
B19
100
AcDbEntity
  8
Defpoints
 62
     0
100
AcDbPoint
 10
55.56166728420499
 20
51.89680738881174
 30
0.0
  0
POINT
  5
B24
330
B19
100
AcDbEntity
  8
Defpoints
 62
     0
100
AcDbPoint
 10
55.56166728420499
 20
75.31874179029826
 30
0.0
  0
ENDBLK
  5
B1B
330
B19
100
AcDbEntity
  8
0
100
AcDbBlockEnd
  0
BLOCK
  5
B75
330
B74
100
AcDbEntity
  8
0
100
AcDbBlockBegin
  2
*D66
 70
     1
 10
0.0
 20
0.0
 30
0.0
  3
*D66
  1

  0
LINE
  5
B77
330
B74
100
AcDbEntity
  8
치수문자_일반주서
 62
     0
370
    -2
100
AcDbLine
 10
147.5237638969491
 20
0.3195184739927586
 30
0.0
 11
173.579280442272
 21
0.3195184739928558
 31
0.0
  0
LINE
  5
B78
330
B74
100
AcDbEntity
  8
치수문자_일반주서
 62
     0
370
    -2
100
AcDbLine
 10
147.5237638969491
 20
1.519518473992769
 30
0.0
 11
173.579280442272
 21
1.519518473992866
 31
0.0
  0
LINE
  5
B79
330
B74
100
AcDbEntity
  8
치수문자_일반주서
 62
     0
370
    -2
100
AcDbLine
 10
173.579280442272
 20
-2.982481526007144
 30
0.0
 11
173.579280442272
 21
-6.284481526007145
 31
0.0
  0
LINE
  5
B7A
330
B74
100
AcDbEntity
  8
치수문자_일반주서
 62
     0
370
    -2
100
AcDbLine
 10
173.579280442272
 20
4.821518473992866
 30
0.0
 11
173.579280442272
 21
8.123518473992865
 31
0.0
  0
SOLID
  5
B7B
330
B74
100
AcDbEntity
  8
치수문자_일반주서
 62
     0
100
AcDbTrace
 10
174.1296137756053
 20
-2.982481526007144
 30
0.0
 11
173.0289471089386
 21
-2.982481526007144
 31
0.0
 12
173.579280442272
 22
0.3195184739928558
 32
0.0
 13
173.579280442272
 23
0.3195184739928558
 33
0.0
  0
SOLID
  5
B7C
330
B74
100
AcDbEntity
  8
치수문자_일반주서
 62
     0
100
AcDbTrace
 10
173.0289471089386
 20
4.821518473992866
 30
0.0
 11
174.1296137756053
 21
4.821518473992866
 31
0.0
 12
173.579280442272
 22
1.519518473992866
 32
0.0
 13
173.579280442272
 23
1.519518473992866
 33
0.0
  0
MTEXT
  5
B7D
330
B74
100
AcDbEntity
  8
치수문자_일반주서
 62
     0
100
AcDbMText
 10
169.204280442272
 20
0.9195184739927386
 30
0.0
 40
3.5
 41
0.0
 71
     2
 72
     1
  1
\A1;%%c1.2
  7
SLDTEXTSTYLE0
 11
0.0
 21
1.0
 31
0.0
 73
     1
 44
1.0
  0
POINT
  5
B7E
330
B74
100
AcDbEntity
  8
Defpoints
 62
     0
100
AcDbPoint
 10
147.4612638969491
 20
0.3195184739927583
 30
0.0
  0
POINT
  5
B7F
330
B74
100
AcDbEntity
  8
Defpoints
 62
     0
100
AcDbPoint
 10
147.4612638969491
 20
1.519518473992768
 30
0.0
  0
POINT
  5
B80
330
B74
100
AcDbEntity
  8
Defpoints
 62
     0
100
AcDbPoint
 10
173.579280442272
 20
1.519518473992866
 30
0.0
  0
ENDBLK
  5
B76
330
B74
100
AcDbEntity
  8
0
100
AcDbBlockEnd
  0
BLOCK
  5
B82
330
B81
100
AcDbEntity
  8
0
100
AcDbBlockBegin
  2
*D67
 70
     1
 10
0.0
 20
0.0
 30
0.0
  3
*D67
  1

  0
LINE
  5
B84
330
B81
100
AcDbEntity
  8
치수문자_일반주서
 62
     0
370
    -2
100
AcDbLine
 10
87.49677026076492
 20
3.482018473992767
 30
0.0
 11
87.49677026076492
 21
31.91951847399277
 31
0.0
  0
LINE
  5
B85
330
B81
100
AcDbEntity
  8
치수문자_일반주서
 62
     0
370
    -2
100
AcDbLine
 10
152.4967702607649
 20
2.277026403186156
 30
0.0
 11
152.4967702607649
 21
31.91951847399277
 31
0.0
  0
LINE
  5
B86
330
B81
100
AcDbEntity
  8
치수문자_일반주서
 62
     0
370
    -2
100
AcDbLine
 10
90.79877026076493
 20
31.91951847399277
 30
0.0
 11
149.1947702607649
 21
31.91951847399277
 31
0.0
  0
SOLID
  5
B87
330
B81
100
AcDbEntity
  8
치수문자_일반주서
 62
     0
100
AcDbTrace
 10
90.79877026076493
 20
32.46985180732611
 30
0.0
 11
90.79877026076493
 21
31.36918514065944
 31
0.0
 12
87.49677026076492
 22
31.91951847399277
 32
0.0
 13
87.49677026076492
 23
31.91951847399277
 33
0.0
  0
SOLID
  5
B88
330
B81
100
AcDbEntity
  8
치수문자_일반주서
 62
     0
100
AcDbTrace
 10
149.1947702607649
 20
31.36918514065944
 30
0.0
 11
149.1947702607649
 21
32.46985180732611
 31
0.0
 12
152.4967702607649
 22
31.91951847399277
 32
0.0
 13
152.4967702607649
 23
31.91951847399277
 33
0.0
  0
MTEXT
  5
B89
330
B81
100
AcDbEntity
  8
치수문자_일반주서
 62
     0
100
AcDbMText
 10
119.9967702607649
 20
36.29451847399277
 30
0.0
 40
3.5
 41
0.0
 71
     2
 72
     1
  1
\A1;65
  7
SLDTEXTSTYLE0
 73
     1
 44
1.0
  0
POINT
  5
B8A
330
B81
100
AcDbEntity
  8
Defpoints
 62
     0
100
AcDbPoint
 10
87.49677026076492
 20
3.419518473992767
 30
0.0
  0
POINT
  5
B8B
330
B81
100
AcDbEntity
  8
Defpoints
 62
     0
100
AcDbPoint
 10
152.4967702607649
 20
2.214526403186156
 30
0.0
  0
POINT
  5
B8C
330
B81
100
AcDbEntity
  8
Defpoints
 62
     0
100
AcDbPoint
 10
152.4967702607649
 20
31.91951847399277
 30
0.0
  0
ENDBLK
  5
B83
330
B81
100
AcDbEntity
  8
0
100
AcDbBlockEnd
  0
BLOCK
  5
B8E
330
B8D
100
AcDbEntity
  8
0
100
AcDbBlockBegin
  2
*D68
 70
     1
 10
0.0
 20
0.0
 30
0.0
  3
*D68
  1

  0
LINE
  5
B90
330
B8D
100
AcDbEntity
  8
치수문자_일반주서
 62
     0
370
    -2
100
AcDbLine
 10
87.93427026076492
 20
3.919518473992766
 30
0.0
 11
75.50031223915283
 21
3.919518473992719
 31
0.0
  0
LINE
  5
B91
330
B8D
100
AcDbEntity
  8
치수문자_일반주서
 62
     0
370
    -2
100
AcDbLine
 10
87.93427026076492
 20
-2.080481526007234
 30
0.0
 11
75.50031223915285
 21
-2.080481526007281
 31
0.0
  0
LINE
  5
B92
330
B8D
100
AcDbEntity
  8
치수문자_일반주서
 62
     0
370
    -2
100
AcDbLine
 10
75.50031223915285
 20
0.6175184739927193
 30
0.0
 11
75.50031223915283
 21
1.221518473992719
 31
0.0
  0
SOLID
  5
B93
330
B8D
100
AcDbEntity
  8
치수문자_일반주서
 62
     0
100
AcDbTrace
 10
76.05064557248618
 20
0.6175184739927206
 30
0.0
 11
74.94997890581952
 21
0.617518473992718
 31
0.0
 12
75.50031223915283
 22
3.919518473992719
 32
0.0
 13
75.50031223915283
 23
3.919518473992719
 33
0.0
  0
SOLID
  5
B94
330
B8D
100
AcDbEntity
  8
치수문자_일반주서
 62
     0
100
AcDbTrace
 10
74.9499789058195
 20
1.221518473992718
 30
0.0
 11
76.05064557248616
 21
1.221518473992721
 31
0.0
 12
75.50031223915285
 22
-2.080481526007281
 32
0.0
 13
75.50031223915285
 23
-2.080481526007281
 33
0.0
  0
MTEXT
  5
B95
330
B8D
100
AcDbEntity
  8
치수문자_일반주서
 62
     0
100
AcDbMText
 10
71.12531223915283
 20
0.9195184739927564
 30
0.0
 40
3.5
 41
0.0
 71
     2
 72
     1
  1
\A1;%%c6
  7
SLDTEXTSTYLE0
 11
-2.368475785867001E-15
 21
1.0
 31
0.0
 73
     1
 44
1.0
  0
POINT
  5
B96
330
B8D
100
AcDbEntity
  8
Defpoints
 62
     0
100
AcDbPoint
 10
87.99677026076492
 20
3.919518473992767
 30
0.0
  0
POINT
  5
B97
330
B8D
100
AcDbEntity
  8
Defpoints
 62
     0
100
AcDbPoint
 10
87.99677026076492
 20
-2.080481526007233
 30
0.0
  0
POINT
  5
B98
330
B8D
100
AcDbEntity
  8
Defpoints
 62
     0
100
AcDbPoint
 10
75.50031223915285
 20
-2.08048152600728
 30
0.0
  0
ENDBLK
  5
B8F
330
B8D
100
AcDbEntity
  8
0
100
AcDbBlockEnd
  0
BLOCK
  5
B9A
330
B99
100
AcDbEntity
  8
0
100
AcDbBlockBegin
  2
*D69
 70
     1
 10
0.0
 20
0.0
 30
0.0
  3
*D69
  1

  0
LINE
  5
B9C
330
B99
100
AcDbEntity
  8
치수문자_일반주서
 62
     0
370
    -2
100
AcDbLine
 10
146.4967702607649
 20
2.601315047388482
 30
0.0
 11
146.4967702607649
 21
17.36122764566023
 31
0.0
  0
LINE
  5
B9D
330
B99
100
AcDbEntity
  8
치수문자_일반주서
 62
     0
370
    -2
100
AcDbLine
 10
152.4967702607649
 20
2.277026403186156
 30
0.0
 11
152.4967702607649
 21
17.36122764566023
 31
0.0
  0
LINE
  5
B9E
330
B99
100
AcDbEntity
  8
치수문자_일반주서
 62
     0
370
    -2
100
AcDbLine
 10
149.7987702607649
 20
17.36122764566023
 30
0.0
 11
149.1947702607649
 21
17.36122764566023
 31
0.0
  0
SOLID
  5
B9F
330
B99
100
AcDbEntity
  8
치수문자_일반주서
 62
     0
100
AcDbTrace
 10
149.7987702607649
 20
17.91156097899356
 30
0.0
 11
149.7987702607649
 21
16.81089431232689
 31
0.0
 12
146.4967702607649
 22
17.36122764566023
 32
0.0
 13
146.4967702607649
 23
17.36122764566023
 33
0.0
  0
SOLID
  5
BA0
330
B99
100
AcDbEntity
  8
치수문자_일반주서
 62
     0
100
AcDbTrace
 10
149.1947702607649
 20
16.81089431232689
 30
0.0
 11
149.1947702607649
 21
17.91156097899356
 31
0.0
 12
152.4967702607649
 22
17.36122764566023
 32
0.0
 13
152.4967702607649
 23
17.36122764566023
 33
0.0
  0
MTEXT
  5
BA1
330
B99
100
AcDbEntity
  8
치수문자_일반주서
 62
     0
100
AcDbMText
 10
149.4967702607649
 20
21.73622764566023
 30
0.0
 40
3.5
 41
0.0
 71
     2
 72
     1
  1
\A1;6
  7
SLDTEXTSTYLE0
 73
     1
 44
1.0
  0
POINT
  5
BA2
330
B99
100
AcDbEntity
  8
Defpoints
 62
     0
100
AcDbPoint
 10
146.4967702607649
 20
2.538815047388482
 30
0.0
  0
POINT
  5
BA3
330
B99
100
AcDbEntity
  8
Defpoints
 62
     0
100
AcDbPoint
 10
152.4967702607649
 20
2.214526403186156
 30
0.0
  0
POINT
  5
BA4
330
B99
100
AcDbEntity
  8
Defpoints
 62
     0
100
AcDbPoint
 10
152.4967702607649
 20
17.36122764566023
 30
0.0
  0
ENDBLK
  5
B9B
330
B99
100
AcDbEntity
  8
0
100
AcDbBlockEnd
  0
BLOCK
  5
BA6
330
BA5
100
AcDbEntity
  8
0
100
AcDbBlockBegin
  2
*D70
 70
     1
 10
0.0
 20
0.0
 30
0.0
  3
*D70
  1

  0
LINE
  5
BA8
330
BA5
100
AcDbEntity
  8
치수문자_일반주서
 62
     0
370
    -2
100
AcDbLine
 10
152.4967702607649
 20
2.877277605785409
 30
0.0
 11
152.4967702607649
 21
26.26645287547928
 31
0.0
  0
LINE
  5
BA9
330
BA5
100
AcDbEntity
  8
치수문자_일반주서
 62
     0
370
    -2
100
AcDbLine
 10
126.4967702574961
 20
2.907018473992764
 30
0.0
 11
126.4967702574961
 21
26.26645287547928
 31
0.0
  0
LINE
  5
BAA
330
BA5
100
AcDbEntity
  8
치수문자_일반주서
 62
     0
370
    -2
100
AcDbLine
 10
149.1947702607649
 20
26.26645287547928
 30
0.0
 11
129.7987702574961
 21
26.26645287547928
 31
0.0
  0
SOLID
  5
BAB
330
BA5
100
AcDbEntity
  8
치수문자_일반주서
 62
     0
100
AcDbTrace
 10
149.1947702607649
 20
25.71611954214595
 30
0.0
 11
149.1947702607649
 21
26.81678620881262
 31
0.0
 12
152.4967702607649
 22
26.26645287547928
 32
0.0
 13
152.4967702607649
 23
26.26645287547928
 33
0.0
  0
SOLID
  5
BAC
330
BA5
100
AcDbEntity
  8
치수문자_일반주서
 62
     0
100
AcDbTrace
 10
129.7987702574961
 20
26.81678620881262
 30
0.0
 11
129.7987702574961
 21
25.71611954214595
 31
0.0
 12
126.4967702574961
 22
26.26645287547928
 32
0.0
 13
126.4967702574961
 23
26.26645287547928
 33
0.0
  0
MTEXT
  5
BAD
330
BA5
100
AcDbEntity
  8
치수문자_일반주서
 62
     0
100
AcDbMText
 10
139.4967702591305
 20
30.64145287547928
 30
0.0
 40
3.5
 41
0.0
 71
     2
 72
     1
  1
\A1;26
  7
SLDTEXTSTYLE0
 73
     1
 44
1.0
  0
POINT
  5
BAE
330
BA5
100
AcDbEntity
  8
Defpoints
 62
     0
100
AcDbPoint
 10
152.4967702607649
 20
2.814777605785409
 30
0.0
  0
POINT
  5
BAF
330
BA5
100
AcDbEntity
  8
Defpoints
 62
     0
100
AcDbPoint
 10
126.4967702574961
 20
2.844518473992764
 30
0.0
  0
POINT
  5
BB0
330
BA5
100
AcDbEntity
  8
Defpoints
 62
     0
100
AcDbPoint
 10
126.4967702574961
 20
26.26645287547928
 30
0.0
  0
ENDBLK
  5
BA7
330
BA5
100
AcDbEntity
  8
0
100
AcDbBlockEnd
  0
BLOCK
  5
C80
330
C7F
100
AcDbEntity
  8
0
100
AcDbBlockBegin
  2
*D71
 70
     1
 10
0.0
 20
0.0
 30
0.0
  3
*D71
  1

  0
LINE
  5
C82
330
C7F
100
AcDbEntity
  8
치수문자_일반주서
 62
     0
370
    -2
100
AcDbLine
 10
81.58866092365798
 20
49.37180738881174
 30
0.0
 11
107.6441774689809
 21
49.37180738881184
 31
0.0
  0
LINE
  5
C83
330
C7F
100
AcDbEntity
  8
치수문자_일반주서
 62
     0
370
    -2
100
AcDbLine
 10
81.58866092365798
 20
50.57180738881175
 30
0.0
 11
107.6441774689809
 21
50.57180738881185
 31
0.0
  0
LINE
  5
C84
330
C7F
100
AcDbEntity
  8
치수문자_일반주서
 62
     0
370
    -2
100
AcDbLine
 10
107.6441774689809
 20
46.06980738881184
 30
0.0
 11
107.6441774689809
 21
42.76780738881184
 31
0.0
  0
LINE
  5
C85
330
C7F
100
AcDbEntity
  8
치수문자_일반주서
 62
     0
370
    -2
100
AcDbLine
 10
107.6441774689809
 20
53.87380738881185
 30
0.0
 11
107.6441774689809
 21
57.17580738881185
 31
0.0
  0
SOLID
  5
C86
330
C7F
100
AcDbEntity
  8
치수문자_일반주서
 62
     0
100
AcDbTrace
 10
108.1945108023142
 20
46.06980738881184
 30
0.0
 11
107.0938441356475
 21
46.06980738881184
 31
0.0
 12
107.6441774689809
 22
49.37180738881184
 32
0.0
 13
107.6441774689809
 23
49.37180738881184
 33
0.0
  0
SOLID
  5
C87
330
C7F
100
AcDbEntity
  8
치수문자_일반주서
 62
     0
100
AcDbTrace
 10
107.0938441356475
 20
53.87380738881185
 30
0.0
 11
108.1945108023142
 21
53.87380738881185
 31
0.0
 12
107.6441774689809
 22
50.57180738881185
 32
0.0
 13
107.6441774689809
 23
50.57180738881185
 33
0.0
  0
MTEXT
  5
C88
330
C7F
100
AcDbEntity
  8
치수문자_일반주서
 62
     0
100
AcDbMText
 10
103.2691774689809
 20
49.97180738881172
 30
0.0
 40
3.5
 41
0.0
 71
     2
 72
     1
  1
\A1;%%c1.2
  7
SLDTEXTSTYLE0
 11
0.0
 21
1.0
 31
0.0
 73
     1
 44
1.0
  0
POINT
  5
C89
330
C7F
100
AcDbEntity
  8
Defpoints
 62
     0
100
AcDbPoint
 10
81.52616092365798
 20
49.37180738881174
 30
0.0
  0
POINT
  5
C8A
330
C7F
100
AcDbEntity
  8
Defpoints
 62
     0
100
AcDbPoint
 10
81.52616092365798
 20
50.57180738881175
 30
0.0
  0
POINT
  5
C8B
330
C7F
100
AcDbEntity
  8
Defpoints
 62
     0
100
AcDbPoint
 10
107.6441774689809
 20
50.57180738881185
 30
0.0
  0
ENDBLK
  5
C81
330
C7F
100
AcDbEntity
  8
0
100
AcDbBlockEnd
  0
BLOCK
  5
C8D
330
C8C
100
AcDbEntity
  8
0
100
AcDbBlockBegin
  2
*D72
 70
     1
 10
0.0
 20
0.0
 30
0.0
  3
*D72
  1

  0
LINE
  5
C8F
330
C8C
100
AcDbEntity
  8
치수문자_일반주서
 62
     0
370
    -2
100
AcDbLine
 10
16.56166728747382
 20
52.53430738881175
 30
0.0
 11
16.56166728747381
 21
80.97180738881175
 31
0.0
  0
LINE
  5
C90
330
C8C
100
AcDbEntity
  8
치수문자_일반주서
 62
     0
370
    -2
100
AcDbLine
 10
86.56166728747381
 20
51.32931531800514
 30
0.0
 11
86.5616672874738
 21
80.97180738881175
 31
0.0
  0
LINE
  5
C91
330
C8C
100
AcDbEntity
  8
치수문자_일반주서
 62
     0
370
    -2
100
AcDbLine
 10
19.86366728747381
 20
80.97180738881175
 30
0.0
 11
83.25966728747379
 21
80.97180738881175
 31
0.0
  0
SOLID
  5
C92
330
C8C
100
AcDbEntity
  8
치수문자_일반주서
 62
     0
100
AcDbTrace
 10
19.86366728747381
 20
81.52214072214508
 30
0.0
 11
19.86366728747381
 21
80.42147405547843
 31
0.0
 12
16.56166728747381
 22
80.97180738881175
 32
0.0
 13
16.56166728747381
 23
80.97180738881175
 33
0.0
  0
SOLID
  5
C93
330
C8C
100
AcDbEntity
  8
치수문자_일반주서
 62
     0
100
AcDbTrace
 10
83.25966728747379
 20
80.42147405547843
 30
0.0
 11
83.25966728747379
 21
81.52214072214508
 31
0.0
 12
86.5616672874738
 22
80.97180738881175
 32
0.0
 13
86.5616672874738
 23
80.97180738881175
 33
0.0
  0
MTEXT
  5
C94
330
C8C
100
AcDbEntity
  8
치수문자_일반주서
 62
     0
100
AcDbMText
 10
51.56166728747382
 20
85.34680738881175
 30
0.0
 40
3.5
 41
0.0
 71
     2
 72
     1
  1
\A1;70
  7
SLDTEXTSTYLE0
 73
     1
 44
1.0
  0
POINT
  5
C95
330
C8C
100
AcDbEntity
  8
Defpoints
 62
     0
100
AcDbPoint
 10
16.56166728747382
 20
52.47180738881175
 30
0.0
  0
POINT
  5
C96
330
C8C
100
AcDbEntity
  8
Defpoints
 62
     0
100
AcDbPoint
 10
86.56166728747381
 20
51.26681531800514
 30
0.0
  0
POINT
  5
C97
330
C8C
100
AcDbEntity
  8
Defpoints
 62
     0
100
AcDbPoint
 10
86.56166728747381
 20
80.97180738881175
 30
0.0
  0
ENDBLK
  5
C8E
330
C8C
100
AcDbEntity
  8
0
100
AcDbBlockEnd
  0
BLOCK
  5
C99
330
C98
100
AcDbEntity
  8
0
100
AcDbBlockBegin
  2
*D73
 70
     1
 10
0.0
 20
0.0
 30
0.0
  3
*D73
  1

  0
LINE
  5
C9B
330
C98
100
AcDbEntity
  8
치수문자_일반주서
 62
     0
370
    -2
100
AcDbLine
 10
16.99916728747382
 20
52.97180738881175
 30
0.0
 11
4.565209265861728
 21
52.9718073888117
 31
0.0
  0
LINE
  5
C9C
330
C98
100
AcDbEntity
  8
치수문자_일반주서
 62
     0
370
    -2
100
AcDbLine
 10
16.99916728747382
 20
46.97180738881175
 30
0.0
 11
4.56520926586175
 21
46.9718073888117
 31
0.0
  0
LINE
  5
C9D
330
C98
100
AcDbEntity
  8
치수문자_일반주서
 62
     0
370
    -2
100
AcDbLine
 10
4.56520926586174
 20
49.6698073888117
 30
0.0
 11
4.565209265861738
 21
50.2738073888117
 31
0.0
  0
SOLID
  5
C9E
330
C98
100
AcDbEntity
  8
치수문자_일반주서
 62
     0
100
AcDbTrace
 10
5.115542599195074
 20
49.6698073888117
 30
0.0
 11
4.014875932528406
 21
49.6698073888117
 31
0.0
 12
4.565209265861728
 22
52.9718073888117
 32
0.0
 13
4.565209265861728
 23
52.9718073888117
 33
0.0
  0
SOLID
  5
C9F
330
C98
100
AcDbEntity
  8
치수문자_일반주서
 62
     0
100
AcDbTrace
 10
4.014875932528405
 20
50.2738073888117
 30
0.0
 11
5.115542599195072
 21
50.2738073888117
 31
0.0
 12
4.56520926586175
 22
46.9718073888117
 32
0.0
 13
4.56520926586175
 23
46.9718073888117
 33
0.0
  0
MTEXT
  5
CA0
330
C98
100
AcDbEntity
  8
치수문자_일반주서
 62
     0
100
AcDbMText
 10
0.1902092658617391
 20
49.97180738881173
 30
0.0
 40
3.5
 41
0.0
 71
     2
 72
     1
  1
\A1;%%c6
  7
SLDTEXTSTYLE0
 11
-3.552713678800505E-15
 21
1.0
 31
0.0
 73
     1
 44
1.0
  0
POINT
  5
CA1
330
C98
100
AcDbEntity
  8
Defpoints
 62
     0
100
AcDbPoint
 10
17.06166728747382
 20
52.97180738881175
 30
0.0
  0
POINT
  5
CA2
330
C98
100
AcDbEntity
  8
Defpoints
 62
     0
100
AcDbPoint
 10
17.06166728747382
 20
46.97180738881175
 30
0.0
  0
POINT
  5
CA3
330
C98
100
AcDbEntity
  8
Defpoints
 62
     0
100
AcDbPoint
 10
4.565209265861739
 20
46.9718073888117
 30
0.0
  0
ENDBLK
  5
C9A
330
C98
100
AcDbEntity
  8
0
100
AcDbBlockEnd
  0
BLOCK
  5
CA5
330
CA4
100
AcDbEntity
  8
0
100
AcDbBlockBegin
  2
*D74
 70
     1
 10
0.0
 20
0.0
 30
0.0
  3
*D74
  1

  0
LINE
  5
CA7
330
CA4
100
AcDbEntity
  8
치수문자_일반주서
 62
     0
370
    -2
100
AcDbLine
 10
80.56166728747382
 20
51.65360396220746
 30
0.0
 11
80.56166728747382
 21
66.41351656047921
 31
0.0
  0
LINE
  5
CA8
330
CA4
100
AcDbEntity
  8
치수문자_일반주서
 62
     0
370
    -2
100
AcDbLine
 10
86.56166728747381
 20
51.32931531800514
 30
0.0
 11
86.56166728747381
 21
66.41351656047921
 31
0.0
  0
LINE
  5
CA9
330
CA4
100
AcDbEntity
  8
치수문자_일반주서
 62
     0
370
    -2
100
AcDbLine
 10
83.86366728747383
 20
66.41351656047921
 30
0.0
 11
83.2596672874738
 21
66.41351656047921
 31
0.0
  0
SOLID
  5
CAA
330
CA4
100
AcDbEntity
  8
치수문자_일반주서
 62
     0
100
AcDbTrace
 10
83.86366728747383
 20
66.96384989381254
 30
0.0
 11
83.86366728747383
 21
65.86318322714588
 31
0.0
 12
80.56166728747382
 22
66.41351656047921
 32
0.0
 13
80.56166728747382
 23
66.41351656047921
 33
0.0
  0
SOLID
  5
CAB
330
CA4
100
AcDbEntity
  8
치수문자_일반주서
 62
     0
100
AcDbTrace
 10
83.2596672874738
 20
65.86318322714588
 30
0.0
 11
83.2596672874738
 21
66.96384989381254
 31
0.0
 12
86.56166728747381
 22
66.41351656047921
 32
0.0
 13
86.56166728747381
 23
66.41351656047921
 33
0.0
  0
MTEXT
  5
CAC
330
CA4
100
AcDbEntity
  8
치수문자_일반주서
 62
     0
100
AcDbMText
 10
83.56166728747382
 20
70.78851656047921
 30
0.0
 40
3.5
 41
0.0
 71
     2
 72
     1
  1
\A1;6
  7
SLDTEXTSTYLE0
 73
     1
 44
1.0
  0
POINT
  5
CAD
330
CA4
100
AcDbEntity
  8
Defpoints
 62
     0
100
AcDbPoint
 10
80.56166728747382
 20
51.59110396220746
 30
0.0
  0
POINT
  5
CAE
330
CA4
100
AcDbEntity
  8
Defpoints
 62
     0
100
AcDbPoint
 10
86.56166728747381
 20
51.26681531800514
 30
0.0
  0
POINT
  5
CAF
330
CA4
100
AcDbEntity
  8
Defpoints
 62
     0
100
AcDbPoint
 10
86.56166728747381
 20
66.41351656047921
 30
0.0
  0
ENDBLK
  5
CA6
330
CA4
100
AcDbEntity
  8
0
100
AcDbBlockEnd
  0
BLOCK
  5
CB1
330
CB0
100
AcDbEntity
  8
0
100
AcDbBlockBegin
  2
*D75
 70
     1
 10
0.0
 20
0.0
 30
0.0
  3
*D75
  1

  0
LINE
  5
CB3
330
CB0
100
AcDbEntity
  8
치수문자_일반주서
 62
     0
370
    -2
100
AcDbLine
 10
86.56166728747381
 20
51.92956652060439
 30
0.0
 11
86.56166728747381
 21
75.31874179029826
 31
0.0
  0
LINE
  5
CB4
330
CB0
100
AcDbEntity
  8
치수문자_일반주서
 62
     0
370
    -2
100
AcDbLine
 10
56.56166728404148
 20
51.95930738881175
 30
0.0
 11
56.56166728404148
 21
75.31874179029826
 31
0.0
  0
LINE
  5
CB5
330
CB0
100
AcDbEntity
  8
치수문자_일반주서
 62
     0
370
    -2
100
AcDbLine
 10
83.2596672874738
 20
75.31874179029826
 30
0.0
 11
59.86366728404148
 21
75.31874179029826
 31
0.0
  0
SOLID
  5
CB6
330
CB0
100
AcDbEntity
  8
치수문자_일반주서
 62
     0
100
AcDbTrace
 10
83.2596672874738
 20
74.76840845696493
 30
0.0
 11
83.2596672874738
 21
75.86907512363159
 31
0.0
 12
86.56166728747381
 22
75.31874179029826
 32
0.0
 13
86.56166728747381
 23
75.31874179029826
 33
0.0
  0
SOLID
  5
CB7
330
CB0
100
AcDbEntity
  8
치수문자_일반주서
 62
     0
100
AcDbTrace
 10
59.86366728404148
 20
75.86907512363159
 30
0.0
 11
59.86366728404148
 21
74.76840845696493
 31
0.0
 12
56.56166728404148
 22
75.31874179029826
 32
0.0
 13
56.56166728404148
 23
75.31874179029826
 33
0.0
  0
MTEXT
  5
CB8
330
CB0
100
AcDbEntity
  8
치수문자_일반주서
 62
     0
100
AcDbMText
 10
71.56166728575765
 20
79.69374179029826
 30
0.0
 40
3.5
 41
0.0
 71
     2
 72
     1
  1
\A1;30
  7
SLDTEXTSTYLE0
 73
     1
 44
1.0
  0
POINT
  5
CB9
330
CB0
100
AcDbEntity
  8
Defpoints
 62
     0
100
AcDbPoint
 10
86.56166728747381
 20
51.86706652060439
 30
0.0
  0
POINT
  5
CBA
330
CB0
100
AcDbEntity
  8
Defpoints
 62
     0
100
AcDbPoint
 10
56.56166728404148
 20
51.89680738881175
 30
0.0
  0
POINT
  5
CBB
330
CB0
100
AcDbEntity
  8
Defpoints
 62
     0
100
AcDbPoint
 10
56.56166728404148
 20
75.31874179029826
 30
0.0
  0
ENDBLK
  5
CB2
330
CB0
100
AcDbEntity
  8
0
100
AcDbBlockEnd
  0
BLOCK
  5
D0C
330
D0B
100
AcDbEntity
  8
0
100
AcDbBlockBegin
  2
*D76
 70
     1
 10
0.0
 20
0.0
 30
0.0
  3
*D76
  1

  0
LINE
  5
D0E
330
D0B
100
AcDbEntity
  8
치수문자_일반주서
 62
     0
370
    -2
100
AcDbLine
 10
151.1727633719793
 20
1.964972585348264
 30
0.0
 11
177.2282799173022
 21
1.964972585348361
 31
0.0
  0
LINE
  5
D0F
330
D0B
100
AcDbEntity
  8
치수문자_일반주서
 62
     0
370
    -2
100
AcDbLine
 10
151.1727633719793
 20
3.164972585348274
 30
0.0
 11
177.2282799173022
 21
3.164972585348371
 31
0.0
  0
LINE
  5
D10
330
D0B
100
AcDbEntity
  8
치수문자_일반주서
 62
     0
370
    -2
100
AcDbLine
 10
177.2282799173022
 20
-1.337027414651639
 30
0.0
 11
177.2282799173022
 21
-4.639027414651639
 31
0.0
  0
LINE
  5
D11
330
D0B
100
AcDbEntity
  8
치수문자_일반주서
 62
     0
370
    -2
100
AcDbLine
 10
177.2282799173022
 20
6.466972585348371
 30
0.0
 11
177.2282799173022
 21
9.76897258534837
 31
0.0
  0
SOLID
  5
D12
330
D0B
100
AcDbEntity
  8
치수문자_일반주서
 62
     0
100
AcDbTrace
 10
177.7786132506355
 20
-1.337027414651639
 30
0.0
 11
176.6779465839689
 21
-1.337027414651639
 31
0.0
 12
177.2282799173022
 22
1.964972585348361
 32
0.0
 13
177.2282799173022
 23
1.964972585348361
 33
0.0
  0
SOLID
  5
D13
330
D0B
100
AcDbEntity
  8
치수문자_일반주서
 62
     0
100
AcDbTrace
 10
176.6779465839689
 20
6.466972585348371
 30
0.0
 11
177.7786132506355
 21
6.466972585348371
 31
0.0
 12
177.2282799173022
 22
3.164972585348371
 32
0.0
 13
177.2282799173022
 23
3.164972585348371
 33
0.0
  0
MTEXT
  5
D14
330
D0B
100
AcDbEntity
  8
치수문자_일반주서
 62
     0
100
AcDbMText
 10
172.8532799173022
 20
2.564972585348244
 30
0.0
 40
3.5
 41
0.0
 71
     2
 72
     1
  1
\A1;%%c1.2
  7
SLDTEXTSTYLE0
 11
0.0
 21
1.0
 31
0.0
 73
     1
 44
1.0
  0
POINT
  5
D15
330
D0B
100
AcDbEntity
  8
Defpoints
 62
     0
100
AcDbPoint
 10
151.1102633719793
 20
1.964972585348264
 30
0.0
  0
POINT
  5
D16
330
D0B
100
AcDbEntity
  8
Defpoints
 62
     0
100
AcDbPoint
 10
151.1102633719793
 20
3.164972585348274
 30
0.0
  0
POINT
  5
D17
330
D0B
100
AcDbEntity
  8
Defpoints
 62
     0
100
AcDbPoint
 10
177.2282799173022
 20
3.164972585348371
 30
0.0
  0
ENDBLK
  5
D0D
330
D0B
100
AcDbEntity
  8
0
100
AcDbBlockEnd
  0
BLOCK
  5
D19
330
D18
100
AcDbEntity
  8
0
100
AcDbBlockBegin
  2
*D77
 70
     1
 10
0.0
 20
0.0
 30
0.0
  3
*D77
  1

  0
LINE
  5
D1B
330
D18
100
AcDbEntity
  8
치수문자_일반주서
 62
     0
370
    -2
100
AcDbLine
 10
86.14576973579514
 20
5.127472585348272
 30
0.0
 11
86.14576973579514
 21
33.56497258534828
 31
0.0
  0
LINE
  5
D1C
330
D18
100
AcDbEntity
  8
치수문자_일반주서
 62
     0
370
    -2
100
AcDbLine
 10
156.1457697357951
 20
3.922480514541661
 30
0.0
 11
156.1457697357951
 21
33.56497258534828
 31
0.0
  0
LINE
  5
D1D
330
D18
100
AcDbEntity
  8
치수문자_일반주서
 62
     0
370
    -2
100
AcDbLine
 10
89.44776973579515
 20
33.56497258534828
 30
0.0
 11
152.8437697357951
 21
33.56497258534828
 31
0.0
  0
SOLID
  5
D1E
330
D18
100
AcDbEntity
  8
치수문자_일반주서
 62
     0
100
AcDbTrace
 10
89.44776973579515
 20
34.11530591868161
 30
0.0
 11
89.44776973579515
 21
33.01463925201494
 31
0.0
 12
86.14576973579514
 22
33.56497258534828
 32
0.0
 13
86.14576973579514
 23
33.56497258534828
 33
0.0
  0
SOLID
  5
D1F
330
D18
100
AcDbEntity
  8
치수문자_일반주서
 62
     0
100
AcDbTrace
 10
152.8437697357951
 20
33.01463925201494
 30
0.0
 11
152.8437697357951
 21
34.11530591868161
 31
0.0
 12
156.1457697357951
 22
33.56497258534828
 32
0.0
 13
156.1457697357951
 23
33.56497258534828
 33
0.0
  0
MTEXT
  5
D20
330
D18
100
AcDbEntity
  8
치수문자_일반주서
 62
     0
100
AcDbMText
 10
121.1457697357951
 20
37.93997258534828
 30
0.0
 40
3.5
 41
0.0
 71
     2
 72
     1
  1
\A1;70
  7
SLDTEXTSTYLE0
 73
     1
 44
1.0
  0
POINT
  5
D21
330
D18
100
AcDbEntity
  8
Defpoints
 62
     0
100
AcDbPoint
 10
86.14576973579514
 20
5.064972585348272
 30
0.0
  0
POINT
  5
D22
330
D18
100
AcDbEntity
  8
Defpoints
 62
     0
100
AcDbPoint
 10
156.1457697357951
 20
3.859980514541661
 30
0.0
  0
POINT
  5
D23
330
D18
100
AcDbEntity
  8
Defpoints
 62
     0
100
AcDbPoint
 10
156.1457697357951
 20
33.56497258534828
 30
0.0
  0
ENDBLK
  5
D1A
330
D18
100
AcDbEntity
  8
0
100
AcDbBlockEnd
  0
BLOCK
  5
D25
330
D24
100
AcDbEntity
  8
0
100
AcDbBlockBegin
  2
*D78
 70
     1
 10
0.0
 20
0.0
 30
0.0
  3
*D78
  1

  0
LINE
  5
D27
330
D24
100
AcDbEntity
  8
치수문자_일반주서
 62
     0
370
    -2
100
AcDbLine
 10
86.58326973579514
 20
5.564972585348272
 30
0.0
 11
74.14931171418306
 21
5.564972585348225
 31
0.0
  0
LINE
  5
D28
330
D24
100
AcDbEntity
  8
치수문자_일반주서
 62
     0
370
    -2
100
AcDbLine
 10
86.58326973579514
 20
-0.435027414651721
 30
0.0
 11
74.14931171418307
 21
-0.4350274146517679
 31
0.0
  0
LINE
  5
D29
330
D24
100
AcDbEntity
  8
치수문자_일반주서
 62
     0
370
    -2
100
AcDbLine
 10
74.14931171418307
 20
2.262972585348225
 30
0.0
 11
74.14931171418306
 21
2.866972585348232
 31
0.0
  0
SOLID
  5
D2A
330
D24
100
AcDbEntity
  8
치수문자_일반주서
 62
     0
100
AcDbTrace
 10
74.6996450475164
 20
2.262972585348226
 30
0.0
 11
73.59897838084974
 21
2.262972585348224
 31
0.0
 12
74.14931171418306
 22
5.564972585348225
 32
0.0
 13
74.14931171418306
 23
5.564972585348225
 33
0.0
  0
SOLID
  5
D2B
330
D24
100
AcDbEntity
  8
치수문자_일반주서
 62
     0
100
AcDbTrace
 10
73.59897838084973
 20
2.866972585348231
 30
0.0
 11
74.69964504751638
 21
2.866972585348234
 31
0.0
 12
74.14931171418307
 22
-0.4350274146517679
 32
0.0
 13
74.14931171418307
 23
-0.4350274146517679
 33
0.0
  0
MTEXT
  5
D2C
330
D24
100
AcDbEntity
  8
치수문자_일반주서
 62
     0
100
AcDbMText
 10
69.77431171418306
 20
2.564972585348262
 30
0.0
 40
3.5
 41
0.0
 71
     2
 72
     1
  1
\A1;%%c6
  7
SLDTEXTSTYLE0
 11
-2.368475785867003E-15
 21
1.0
 31
0.0
 73
     1
 44
1.0
  0
POINT
  5
D2D
330
D24
100
AcDbEntity
  8
Defpoints
 62
     0
100
AcDbPoint
 10
86.64576973579514
 20
5.564972585348272
 30
0.0
  0
POINT
  5
D2E
330
D24
100
AcDbEntity
  8
Defpoints
 62
     0
100
AcDbPoint
 10
86.64576973579514
 20
-0.4350274146517208
 30
0.0
  0
POINT
  5
D2F
330
D24
100
AcDbEntity
  8
Defpoints
 62
     0
100
AcDbPoint
 10
74.14931171418307
 20
-0.4350274146517675
 30
0.0
  0
ENDBLK
  5
D26
330
D24
100
AcDbEntity
  8
0
100
AcDbBlockEnd
  0
BLOCK
  5
D31
330
D30
100
AcDbEntity
  8
0
100
AcDbBlockBegin
  2
*D79
 70
     1
 10
0.0
 20
0.0
 30
0.0
  3
*D79
  1

  0
LINE
  5
D33
330
D30
100
AcDbEntity
  8
치수문자_일반주서
 62
     0
370
    -2
100
AcDbLine
 10
150.1457697357951
 20
4.246769158743987
 30
0.0
 11
150.1457697357951
 21
19.00668175701573
 31
0.0
  0
LINE
  5
D34
330
D30
100
AcDbEntity
  8
치수문자_일반주서
 62
     0
370
    -2
100
AcDbLine
 10
156.1457697357951
 20
3.922480514541661
 30
0.0
 11
156.1457697357951
 21
19.00668175701573
 31
0.0
  0
LINE
  5
D35
330
D30
100
AcDbEntity
  8
치수문자_일반주서
 62
     0
370
    -2
100
AcDbLine
 10
153.4477697357951
 20
19.00668175701573
 30
0.0
 11
152.8437697357951
 21
19.00668175701573
 31
0.0
  0
SOLID
  5
D36
330
D30
100
AcDbEntity
  8
치수문자_일반주서
 62
     0
100
AcDbTrace
 10
153.4477697357951
 20
19.55701509034907
 30
0.0
 11
153.4477697357951
 21
18.4563484236824
 31
0.0
 12
150.1457697357951
 22
19.00668175701573
 32
0.0
 13
150.1457697357951
 23
19.00668175701573
 33
0.0
  0
SOLID
  5
D37
330
D30
100
AcDbEntity
  8
치수문자_일반주서
 62
     0
100
AcDbTrace
 10
152.8437697357951
 20
18.4563484236824
 30
0.0
 11
152.8437697357951
 21
19.55701509034907
 31
0.0
 12
156.1457697357951
 22
19.00668175701573
 32
0.0
 13
156.1457697357951
 23
19.00668175701573
 33
0.0
  0
MTEXT
  5
D38
330
D30
100
AcDbEntity
  8
치수문자_일반주서
 62
     0
100
AcDbMText
 10
153.1457697357951
 20
23.38168175701573
 30
0.0
 40
3.5
 41
0.0
 71
     2
 72
     1
  1
\A1;6
  7
SLDTEXTSTYLE0
 73
     1
 44
1.0
  0
POINT
  5
D39
330
D30
100
AcDbEntity
  8
Defpoints
 62
     0
100
AcDbPoint
 10
150.1457697357951
 20
4.184269158743987
 30
0.0
  0
POINT
  5
D3A
330
D30
100
AcDbEntity
  8
Defpoints
 62
     0
100
AcDbPoint
 10
156.1457697357951
 20
3.859980514541661
 30
0.0
  0
POINT
  5
D3B
330
D30
100
AcDbEntity
  8
Defpoints
 62
     0
100
AcDbPoint
 10
156.1457697357951
 20
19.00668175701573
 30
0.0
  0
ENDBLK
  5
D32
330
D30
100
AcDbEntity
  8
0
100
AcDbBlockEnd
  0
BLOCK
  5
D3D
330
D3C
100
AcDbEntity
  8
0
100
AcDbBlockBegin
  2
*D80
 70
     1
 10
0.0
 20
0.0
 30
0.0
  3
*D80
  1

  0
LINE
  5
D3F
330
D3C
100
AcDbEntity
  8
치수문자_일반주서
 62
     0
370
    -2
100
AcDbLine
 10
156.1457697357951
 20
4.522731717140914
 30
0.0
 11
156.1457697357951
 21
27.91190698683479
 31
0.0
  0
LINE
  5
D40
330
D3C
100
AcDbEntity
  8
치수문자_일반주서
 62
     0
370
    -2
100
AcDbLine
 10
126.1457697323628
 20
4.552472585348276
 30
0.0
 11
126.1457697323628
 21
27.91190698683479
 31
0.0
  0
LINE
  5
D41
330
D3C
100
AcDbEntity
  8
치수문자_일반주서
 62
     0
370
    -2
100
AcDbLine
 10
152.8437697357951
 20
27.91190698683479
 30
0.0
 11
129.4477697323628
 21
27.91190698683479
 31
0.0
  0
SOLID
  5
D42
330
D3C
100
AcDbEntity
  8
치수문자_일반주서
 62
     0
100
AcDbTrace
 10
152.8437697357951
 20
27.36157365350145
 30
0.0
 11
152.8437697357951
 21
28.46224032016812
 31
0.0
 12
156.1457697357951
 22
27.91190698683479
 32
0.0
 13
156.1457697357951
 23
27.91190698683479
 33
0.0
  0
SOLID
  5
D43
330
D3C
100
AcDbEntity
  8
치수문자_일반주서
 62
     0
100
AcDbTrace
 10
129.4477697323628
 20
28.46224032016812
 30
0.0
 11
129.4477697323628
 21
27.36157365350145
 31
0.0
 12
126.1457697323628
 22
27.91190698683479
 32
0.0
 13
126.1457697323628
 23
27.91190698683479
 33
0.0
  0
MTEXT
  5
D44
330
D3C
100
AcDbEntity
  8
치수문자_일반주서
 62
     0
100
AcDbMText
 10
141.145769734079
 20
32.28690698683479
 30
0.0
 40
3.5
 41
0.0
 71
     2
 72
     1
  1
\A1;30
  7
SLDTEXTSTYLE0
 73
     1
 44
1.0
  0
POINT
  5
D45
330
D3C
100
AcDbEntity
  8
Defpoints
 62
     0
100
AcDbPoint
 10
156.1457697357951
 20
4.460231717140914
 30
0.0
  0
POINT
  5
D46
330
D3C
100
AcDbEntity
  8
Defpoints
 62
     0
100
AcDbPoint
 10
126.1457697323628
 20
4.489972585348276
 30
0.0
  0
POINT
  5
D47
330
D3C
100
AcDbEntity
  8
Defpoints
 62
     0
100
AcDbPoint
 10
126.1457697323628
 20
27.91190698683479
 30
0.0
  0
ENDBLK
  5
D3E
330
D3C
100
AcDbEntity
  8
0
100
AcDbBlockEnd
  0
BLOCK
  5
E39
330
E38
100
AcDbEntity
  8
0
100
AcDbBlockBegin
  2
*D82
 70
     1
 10
0.0
 20
0.0
 30
0.0
  3
*D82
  1

  0
LINE
  5
E3B
330
E38
100
AcDbEntity
  8
치수문자_일반주서
 62
     0
370
    -2
100
AcDbLine
 10
81.58866092365798
 20
49.37180738881174
 30
0.0
 11
107.6441774689809
 21
49.37180738881184
 31
0.0
  0
LINE
  5
E3C
330
E38
100
AcDbEntity
  8
치수문자_일반주서
 62
     0
370
    -2
100
AcDbLine
 10
81.58866092365798
 20
50.57180738881175
 30
0.0
 11
107.6441774689809
 21
50.57180738881185
 31
0.0
  0
LINE
  5
E3D
330
E38
100
AcDbEntity
  8
치수문자_일반주서
 62
     0
370
    -2
100
AcDbLine
 10
107.6441774689809
 20
46.06980738881184
 30
0.0
 11
107.6441774689809
 21
42.76780738881184
 31
0.0
  0
LINE
  5
E3E
330
E38
100
AcDbEntity
  8
치수문자_일반주서
 62
     0
370
    -2
100
AcDbLine
 10
107.6441774689809
 20
53.87380738881185
 30
0.0
 11
107.6441774689809
 21
57.17580738881185
 31
0.0
  0
SOLID
  5
E3F
330
E38
100
AcDbEntity
  8
치수문자_일반주서
 62
     0
100
AcDbTrace
 10
108.1945108023142
 20
46.06980738881184
 30
0.0
 11
107.0938441356475
 21
46.06980738881184
 31
0.0
 12
107.6441774689809
 22
49.37180738881184
 32
0.0
 13
107.6441774689809
 23
49.37180738881184
 33
0.0
  0
SOLID
  5
E40
330
E38
100
AcDbEntity
  8
치수문자_일반주서
 62
     0
100
AcDbTrace
 10
107.0938441356475
 20
53.87380738881185
 30
0.0
 11
108.1945108023142
 21
53.87380738881185
 31
0.0
 12
107.6441774689809
 22
50.57180738881185
 32
0.0
 13
107.6441774689809
 23
50.57180738881185
 33
0.0
  0
MTEXT
  5
E41
330
E38
100
AcDbEntity
  8
치수문자_일반주서
 62
     0
100
AcDbMText
 10
103.2691774689809
 20
49.97180738881172
 30
0.0
 40
3.5
 41
0.0
 71
     2
 72
     1
  1
\A1;%%c1.2
  7
SLDTEXTSTYLE0
 11
0.0
 21
1.0
 31
0.0
 73
     1
 44
1.0
  0
POINT
  5
E42
330
E38
100
AcDbEntity
  8
Defpoints
 62
     0
100
AcDbPoint
 10
81.52616092365798
 20
49.37180738881174
 30
0.0
  0
POINT
  5
E43
330
E38
100
AcDbEntity
  8
Defpoints
 62
     0
100
AcDbPoint
 10
81.52616092365798
 20
50.57180738881175
 30
0.0
  0
POINT
  5
E44
330
E38
100
AcDbEntity
  8
Defpoints
 62
     0
100
AcDbPoint
 10
107.6441774689809
 20
50.57180738881185
 30
0.0
  0
ENDBLK
  5
E3A
330
E38
100
AcDbEntity
  8
0
100
AcDbBlockEnd
  0
BLOCK
  5
E46
330
E45
100
AcDbEntity
  8
0
100
AcDbBlockBegin
  2
*D83
 70
     1
 10
0.0
 20
0.0
 30
0.0
  3
*D83
  1

  0
LINE
  5
E48
330
E45
100
AcDbEntity
  8
치수문자_일반주서
 62
     0
370
    -2
100
AcDbLine
 10
16.56166728747382
 20
52.53430738881175
 30
0.0
 11
16.56166728747381
 21
80.97180738881177
 31
0.0
  0
LINE
  5
E49
330
E45
100
AcDbEntity
  8
치수문자_일반주서
 62
     0
370
    -2
100
AcDbLine
 10
86.56166728747381
 20
51.32931531800514
 30
0.0
 11
86.5616672874738
 21
80.97180738881177
 31
0.0
  0
LINE
  5
E4A
330
E45
100
AcDbEntity
  8
치수문자_일반주서
 62
     0
370
    -2
100
AcDbLine
 10
19.86366728747381
 20
80.97180738881177
 30
0.0
 11
83.25966728747379
 21
80.97180738881177
 31
0.0
  0
SOLID
  5
E4B
330
E45
100
AcDbEntity
  8
치수문자_일반주서
 62
     0
100
AcDbTrace
 10
19.86366728747381
 20
81.5221407221451
 30
0.0
 11
19.86366728747381
 21
80.42147405547844
 31
0.0
 12
16.56166728747381
 22
80.97180738881177
 32
0.0
 13
16.56166728747381
 23
80.97180738881177
 33
0.0
  0
SOLID
  5
E4C
330
E45
100
AcDbEntity
  8
치수문자_일반주서
 62
     0
100
AcDbTrace
 10
83.25966728747379
 20
80.42147405547844
 30
0.0
 11
83.25966728747379
 21
81.5221407221451
 31
0.0
 12
86.5616672874738
 22
80.97180738881177
 32
0.0
 13
86.5616672874738
 23
80.97180738881177
 33
0.0
  0
MTEXT
  5
E4D
330
E45
100
AcDbEntity
  8
치수문자_일반주서
 62
     0
100
AcDbMText
 10
51.56166728747382
 20
85.34680738881177
 30
0.0
 40
3.5
 41
0.0
 71
     2
 72
     1
  1
\A1;70
  7
SLDTEXTSTYLE0
 73
     1
 44
1.0
  0
POINT
  5
E4E
330
E45
100
AcDbEntity
  8
Defpoints
 62
     0
100
AcDbPoint
 10
16.56166728747382
 20
52.47180738881175
 30
0.0
  0
POINT
  5
E4F
330
E45
100
AcDbEntity
  8
Defpoints
 62
     0
100
AcDbPoint
 10
86.56166728747381
 20
51.26681531800514
 30
0.0
  0
POINT
  5
E50
330
E45
100
AcDbEntity
  8
Defpoints
 62
     0
100
AcDbPoint
 10
86.56166728747381
 20
80.97180738881175
 30
0.0
  0
ENDBLK
  5
E47
330
E45
100
AcDbEntity
  8
0
100
AcDbBlockEnd
  0
BLOCK
  5
E52
330
E51
100
AcDbEntity
  8
0
100
AcDbBlockBegin
  2
*D84
 70
     1
 10
0.0
 20
0.0
 30
0.0
  3
*D84
  1

  0
LINE
  5
E54
330
E51
100
AcDbEntity
  8
치수문자_일반주서
 62
     0
370
    -2
100
AcDbLine
 10
16.99916728747382
 20
52.97180738881175
 30
0.0
 11
4.565209265861728
 21
52.9718073888117
 31
0.0
  0
LINE
  5
E55
330
E51
100
AcDbEntity
  8
치수문자_일반주서
 62
     0
370
    -2
100
AcDbLine
 10
16.99916728747382
 20
46.97180738881175
 30
0.0
 11
4.56520926586175
 21
46.9718073888117
 31
0.0
  0
LINE
  5
E56
330
E51
100
AcDbEntity
  8
치수문자_일반주서
 62
     0
370
    -2
100
AcDbLine
 10
4.56520926586174
 20
49.6698073888117
 30
0.0
 11
4.565209265861738
 21
50.2738073888117
 31
0.0
  0
SOLID
  5
E57
330
E51
100
AcDbEntity
  8
치수문자_일반주서
 62
     0
100
AcDbTrace
 10
5.115542599195074
 20
49.6698073888117
 30
0.0
 11
4.014875932528406
 21
49.6698073888117
 31
0.0
 12
4.565209265861728
 22
52.9718073888117
 32
0.0
 13
4.565209265861728
 23
52.9718073888117
 33
0.0
  0
SOLID
  5
E58
330
E51
100
AcDbEntity
  8
치수문자_일반주서
 62
     0
100
AcDbTrace
 10
4.014875932528405
 20
50.2738073888117
 30
0.0
 11
5.115542599195072
 21
50.2738073888117
 31
0.0
 12
4.56520926586175
 22
46.9718073888117
 32
0.0
 13
4.56520926586175
 23
46.9718073888117
 33
0.0
  0
MTEXT
  5
E59
330
E51
100
AcDbEntity
  8
치수문자_일반주서
 62
     0
100
AcDbMText
 10
0.1902092658617391
 20
49.97180738881173
 30
0.0
 40
3.5
 41
0.0
 71
     2
 72
     1
  1
\A1;%%c6
  7
SLDTEXTSTYLE0
 11
-3.552713678800501E-15
 21
1.0
 31
0.0
 73
     1
 44
1.0
  0
POINT
  5
E5A
330
E51
100
AcDbEntity
  8
Defpoints
 62
     0
100
AcDbPoint
 10
17.06166728747382
 20
52.97180738881175
 30
0.0
  0
POINT
  5
E5B
330
E51
100
AcDbEntity
  8
Defpoints
 62
     0
100
AcDbPoint
 10
17.06166728747382
 20
46.97180738881175
 30
0.0
  0
POINT
  5
E5C
330
E51
100
AcDbEntity
  8
Defpoints
 62
     0
100
AcDbPoint
 10
4.565209265861739
 20
46.9718073888117
 30
0.0
  0
ENDBLK
  5
E53
330
E51
100
AcDbEntity
  8
0
100
AcDbBlockEnd
  0
BLOCK
  5
E5E
330
E5D
100
AcDbEntity
  8
0
100
AcDbBlockBegin
  2
*D85
 70
     1
 10
0.0
 20
0.0
 30
0.0
  3
*D85
  1

  0
LINE
  5
E60
330
E5D
100
AcDbEntity
  8
치수문자_일반주서
 62
     0
370
    -2
100
AcDbLine
 10
80.56166728747382
 20
51.65360396220746
 30
0.0
 11
80.56166728747382
 21
66.41351656047921
 31
0.0
  0
LINE
  5
E61
330
E5D
100
AcDbEntity
  8
치수문자_일반주서
 62
     0
370
    -2
100
AcDbLine
 10
86.56166728747381
 20
51.32931531800514
 30
0.0
 11
86.56166728747381
 21
66.41351656047921
 31
0.0
  0
LINE
  5
E62
330
E5D
100
AcDbEntity
  8
치수문자_일반주서
 62
     0
370
    -2
100
AcDbLine
 10
83.86366728747383
 20
66.41351656047921
 30
0.0
 11
83.2596672874738
 21
66.41351656047921
 31
0.0
  0
SOLID
  5
E63
330
E5D
100
AcDbEntity
  8
치수문자_일반주서
 62
     0
100
AcDbTrace
 10
83.86366728747383
 20
66.96384989381254
 30
0.0
 11
83.86366728747383
 21
65.86318322714588
 31
0.0
 12
80.56166728747382
 22
66.41351656047921
 32
0.0
 13
80.56166728747382
 23
66.41351656047921
 33
0.0
  0
SOLID
  5
E64
330
E5D
100
AcDbEntity
  8
치수문자_일반주서
 62
     0
100
AcDbTrace
 10
83.2596672874738
 20
65.86318322714588
 30
0.0
 11
83.2596672874738
 21
66.96384989381254
 31
0.0
 12
86.56166728747381
 22
66.41351656047921
 32
0.0
 13
86.56166728747381
 23
66.41351656047921
 33
0.0
  0
MTEXT
  5
E65
330
E5D
100
AcDbEntity
  8
치수문자_일반주서
 62
     0
100
AcDbMText
 10
83.56166728747382
 20
70.78851656047921
 30
0.0
 40
3.5
 41
0.0
 71
     2
 72
     1
  1
\A1;6
  7
SLDTEXTSTYLE0
 73
     1
 44
1.0
  0
POINT
  5
E66
330
E5D
100
AcDbEntity
  8
Defpoints
 62
     0
100
AcDbPoint
 10
80.56166728747382
 20
51.59110396220746
 30
0.0
  0
POINT
  5
E67
330
E5D
100
AcDbEntity
  8
Defpoints
 62
     0
100
AcDbPoint
 10
86.56166728747381
 20
51.26681531800514
 30
0.0
  0
POINT
  5
E68
330
E5D
100
AcDbEntity
  8
Defpoints
 62
     0
100
AcDbPoint
 10
86.56166728747381
 20
66.41351656047921
 30
0.0
  0
ENDBLK
  5
E5F
330
E5D
100
AcDbEntity
  8
0
100
AcDbBlockEnd
  0
BLOCK
  5
E6A
330
E69
100
AcDbEntity
  8
0
100
AcDbBlockBegin
  2
*D86
 70
     1
 10
0.0
 20
0.0
 30
0.0
  3
*D86
  1

  0
LINE
  5
E6C
330
E69
100
AcDbEntity
  8
치수문자_일반주서
 62
     0
370
    -2
100
AcDbLine
 10
86.56166728747381
 20
51.92956652060439
 30
0.0
 11
86.56166728747381
 21
75.31874179029826
 31
0.0
  0
LINE
  5
E6D
330
E69
100
AcDbEntity
  8
치수문자_일반주서
 62
     0
370
    -2
100
AcDbLine
 10
51.56166728022494
 20
51.95930738881174
 30
0.0
 11
51.56166728022494
 21
75.31874179029826
 31
0.0
  0
LINE
  5
E6E
330
E69
100
AcDbEntity
  8
치수문자_일반주서
 62
     0
370
    -2
100
AcDbLine
 10
83.2596672874738
 20
75.31874179029826
 30
0.0
 11
54.86366728022494
 21
75.31874179029826
 31
0.0
  0
SOLID
  5
E6F
330
E69
100
AcDbEntity
  8
치수문자_일반주서
 62
     0
100
AcDbTrace
 10
83.2596672874738
 20
74.76840845696493
 30
0.0
 11
83.2596672874738
 21
75.86907512363159
 31
0.0
 12
86.56166728747381
 22
75.31874179029826
 32
0.0
 13
86.56166728747381
 23
75.31874179029826
 33
0.0
  0
SOLID
  5
E70
330
E69
100
AcDbEntity
  8
치수문자_일반주서
 62
     0
100
AcDbTrace
 10
54.86366728022494
 20
75.86907512363159
 30
0.0
 11
54.86366728022494
 21
74.76840845696493
 31
0.0
 12
51.56166728022494
 22
75.31874179029826
 32
0.0
 13
51.56166728022494
 23
75.31874179029826
 33
0.0
  0
MTEXT
  5
E71
330
E69
100
AcDbEntity
  8
치수문자_일반주서
 62
     0
100
AcDbMText
 10
69.06166728384937
 20
79.69374179029826
 30
0.0
 40
3.5
 41
0.0
 71
     2
 72
     1
  1
\A1;35
  7
SLDTEXTSTYLE0
 73
     1
 44
1.0
  0
POINT
  5
E72
330
E69
100
AcDbEntity
  8
Defpoints
 62
     0
100
AcDbPoint
 10
86.56166728747381
 20
51.86706652060439
 30
0.0
  0
POINT
  5
E73
330
E69
100
AcDbEntity
  8
Defpoints
 62
     0
100
AcDbPoint
 10
51.56166728022494
 20
51.89680738881174
 30
0.0
  0
POINT
  5
E74
330
E69
100
AcDbEntity
  8
Defpoints
 62
     0
100
AcDbPoint
 10
51.56166728022494
 20
75.31874179029826
 30
0.0
  0
ENDBLK
  5
E6B
330
E69
100
AcDbEntity
  8
0
100
AcDbBlockEnd
  0
BLOCK
  5
EC5
330
EC4
100
AcDbEntity
  8
0
100
AcDbBlockBegin
  2
*D87
 70
     1
 10
0.0
 20
0.0
 30
0.0
  3
*D87
  1

  0
LINE
  5
EC7
330
EC4
100
AcDbEntity
  8
치수문자_일반주서
 62
     0
370
    -2
100
AcDbLine
 10
156.480759805117
 20
2.435102331449855
 30
0.0
 11
182.5362763504399
 21
2.435102331449952
 31
0.0
  0
LINE
  5
EC8
330
EC4
100
AcDbEntity
  8
치수문자_일반주서
 62
     0
370
    -2
100
AcDbLine
 10
156.480759805117
 20
3.635102331449865
 30
0.0
 11
182.5362763504399
 21
3.635102331449962
 31
0.0
  0
LINE
  5
EC9
330
EC4
100
AcDbEntity
  8
치수문자_일반주서
 62
     0
370
    -2
100
AcDbLine
 10
182.5362763504399
 20
-0.8668976685500476
 30
0.0
 11
182.5362763504399
 21
-4.168897668550048
 31
0.0
  0
LINE
  5
ECA
330
EC4
100
AcDbEntity
  8
치수문자_일반주서
 62
     0
370
    -2
100
AcDbLine
 10
182.5362763504399
 20
6.937102331449962
 30
0.0
 11
182.5362763504399
 21
10.23910233144996
 31
0.0
  0
SOLID
  5
ECB
330
EC4
100
AcDbEntity
  8
치수문자_일반주서
 62
     0
100
AcDbTrace
 10
183.0866096837732
 20
-0.8668976685500476
 30
0.0
 11
181.9859430171066
 21
-0.8668976685500476
 31
0.0
 12
182.5362763504399
 22
2.435102331449952
 32
0.0
 13
182.5362763504399
 23
2.435102331449952
 33
0.0
  0
SOLID
  5
ECC
330
EC4
100
AcDbEntity
  8
치수문자_일반주서
 62
     0
100
AcDbTrace
 10
181.9859430171066
 20
6.937102331449962
 30
0.0
 11
183.0866096837732
 21
6.937102331449962
 31
0.0
 12
182.5362763504399
 22
3.635102331449962
 32
0.0
 13
182.5362763504399
 23
3.635102331449962
 33
0.0
  0
MTEXT
  5
ECD
330
EC4
100
AcDbEntity
  8
치수문자_일반주서
 62
     0
100
AcDbMText
 10
178.1612763504399
 20
3.035102331449835
 30
0.0
 40
3.5
 41
0.0
 71
     2
 72
     1
  1
\A1;%%c1.2
  7
SLDTEXTSTYLE0
 11
0.0
 21
1.0
 31
0.0
 73
     1
 44
1.0
  0
POINT
  5
ECE
330
EC4
100
AcDbEntity
  8
Defpoints
 62
     0
100
AcDbPoint
 10
156.418259805117
 20
2.435102331449855
 30
0.0
  0
POINT
  5
ECF
330
EC4
100
AcDbEntity
  8
Defpoints
 62
     0
100
AcDbPoint
 10
156.418259805117
 20
3.635102331449865
 30
0.0
  0
POINT
  5
ED0
330
EC4
100
AcDbEntity
  8
Defpoints
 62
     0
100
AcDbPoint
 10
182.5362763504399
 20
3.635102331449962
 30
0.0
  0
ENDBLK
  5
EC6
330
EC4
100
AcDbEntity
  8
0
100
AcDbBlockEnd
  0
BLOCK
  5
ED2
330
ED1
100
AcDbEntity
  8
0
100
AcDbBlockBegin
  2
*D88
 70
     1
 10
0.0
 20
0.0
 30
0.0
  3
*D88
  1

  0
LINE
  5
ED4
330
ED1
100
AcDbEntity
  8
치수문자_일반주서
 62
     0
370
    -2
100
AcDbLine
 10
91.45376616893284
 20
5.597602331449863
 30
0.0
 11
91.45376616893284
 21
34.03510233144988
 31
0.0
  0
LINE
  5
ED5
330
ED1
100
AcDbEntity
  8
치수문자_일반주서
 62
     0
370
    -2
100
AcDbLine
 10
161.4537661689328
 20
4.392610260643252
 30
0.0
 11
161.4537661689328
 21
34.03510233144988
 31
0.0
  0
LINE
  5
ED6
330
ED1
100
AcDbEntity
  8
치수문자_일반주서
 62
     0
370
    -2
100
AcDbLine
 10
94.75576616893285
 20
34.03510233144988
 30
0.0
 11
158.1517661689329
 21
34.03510233144988
 31
0.0
  0
SOLID
  5
ED7
330
ED1
100
AcDbEntity
  8
치수문자_일반주서
 62
     0
100
AcDbTrace
 10
94.75576616893285
 20
34.58543566478322
 30
0.0
 11
94.75576616893285
 21
33.48476899811655
 31
0.0
 12
91.45376616893284
 22
34.03510233144988
 32
0.0
 13
91.45376616893284
 23
34.03510233144988
 33
0.0
  0
SOLID
  5
ED8
330
ED1
100
AcDbEntity
  8
치수문자_일반주서
 62
     0
100
AcDbTrace
 10
158.1517661689329
 20
33.48476899811655
 30
0.0
 11
158.1517661689329
 21
34.58543566478322
 31
0.0
 12
161.4537661689328
 22
34.03510233144988
 32
0.0
 13
161.4537661689328
 23
34.03510233144988
 33
0.0
  0
MTEXT
  5
ED9
330
ED1
100
AcDbEntity
  8
치수문자_일반주서
 62
     0
100
AcDbMText
 10
126.4537661689329
 20
38.41010233144988
 30
0.0
 40
3.5
 41
0.0
 71
     2
 72
     1
  1
\A1;70
  7
SLDTEXTSTYLE0
 73
     1
 44
1.0
  0
POINT
  5
EDA
330
ED1
100
AcDbEntity
  8
Defpoints
 62
     0
100
AcDbPoint
 10
91.45376616893284
 20
5.535102331449863
 30
0.0
  0
POINT
  5
EDB
330
ED1
100
AcDbEntity
  8
Defpoints
 62
     0
100
AcDbPoint
 10
161.4537661689328
 20
4.330110260643252
 30
0.0
  0
POINT
  5
EDC
330
ED1
100
AcDbEntity
  8
Defpoints
 62
     0
100
AcDbPoint
 10
161.4537661689328
 20
34.03510233144988
 30
0.0
  0
ENDBLK
  5
ED3
330
ED1
100
AcDbEntity
  8
0
100
AcDbBlockEnd
  0
BLOCK
  5
EDE
330
EDD
100
AcDbEntity
  8
0
100
AcDbBlockBegin
  2
*D89
 70
     1
 10
0.0
 20
0.0
 30
0.0
  3
*D89
  1

  0
LINE
  5
EE0
330
EDD
100
AcDbEntity
  8
치수문자_일반주서
 62
     0
370
    -2
100
AcDbLine
 10
91.89126616893284
 20
6.035102331449863
 30
0.0
 11
79.45730814732077
 21
6.035102331449816
 31
0.0
  0
LINE
  5
EE1
330
EDD
100
AcDbEntity
  8
치수문자_일반주서
 62
     0
370
    -2
100
AcDbLine
 10
91.89126616893284
 20
0.0351023314498631
 30
0.0
 11
79.45730814732079
 21
0.0351023314498162
 31
0.0
  0
LINE
  5
EE2
330
EDD
100
AcDbEntity
  8
치수문자_일반주서
 62
     0
370
    -2
100
AcDbLine
 10
79.45730814732079
 20
2.733102331449816
 30
0.0
 11
79.45730814732077
 21
3.337102331449816
 31
0.0
  0
SOLID
  5
EE3
330
EDD
100
AcDbEntity
  8
치수문자_일반주서
 62
     0
100
AcDbTrace
 10
80.00764148065412
 20
2.733102331449818
 30
0.0
 11
78.90697481398746
 21
2.733102331449815
 31
0.0
 12
79.45730814732077
 22
6.035102331449816
 32
0.0
 13
79.45730814732077
 23
6.035102331449816
 33
0.0
  0
SOLID
  5
EE4
330
EDD
100
AcDbEntity
  8
치수문자_일반주서
 62
     0
100
AcDbTrace
 10
78.90697481398745
 20
3.337102331449815
 30
0.0
 11
80.0076414806541
 21
3.337102331449818
 31
0.0
 12
79.45730814732079
 22
0.0351023314498162
 32
0.0
 13
79.45730814732079
 23
0.0351023314498162
 33
0.0
  0
MTEXT
  5
EE5
330
EDD
100
AcDbEntity
  8
치수문자_일반주서
 62
     0
100
AcDbMText
 10
75.08230814732077
 20
3.035102331449853
 30
0.0
 40
3.5
 41
0.0
 71
     2
 72
     1
  1
\A1;%%c6
  7
SLDTEXTSTYLE0
 11
-2.368475785867000E-15
 21
1.0
 31
0.0
 73
     1
 44
1.0
  0
POINT
  5
EE6
330
EDD
100
AcDbEntity
  8
Defpoints
 62
     0
100
AcDbPoint
 10
91.95376616893284
 20
6.035102331449863
 30
0.0
  0
POINT
  5
EE7
330
EDD
100
AcDbEntity
  8
Defpoints
 62
     0
100
AcDbPoint
 10
91.95376616893284
 20
0.0351023314498633
 30
0.0
  0
POINT
  5
EE8
330
EDD
100
AcDbEntity
  8
Defpoints
 62
     0
100
AcDbPoint
 10
79.45730814732079
 20
0.0351023314498166
 30
0.0
  0
ENDBLK
  5
EDF
330
EDD
100
AcDbEntity
  8
0
100
AcDbBlockEnd
  0
BLOCK
  5
EEA
330
EE9
100
AcDbEntity
  8
0
100
AcDbBlockBegin
  2
*D90
 70
     1
 10
0.0
 20
0.0
 30
0.0
  3
*D90
  1

  0
LINE
  5
EEC
330
EE9
100
AcDbEntity
  8
치수문자_일반주서
 62
     0
370
    -2
100
AcDbLine
 10
155.4537661689329
 20
4.716898904845578
 30
0.0
 11
155.4537661689329
 21
19.47681150311733
 31
0.0
  0
LINE
  5
EED
330
EE9
100
AcDbEntity
  8
치수문자_일반주서
 62
     0
370
    -2
100
AcDbLine
 10
161.4537661689328
 20
4.392610260643252
 30
0.0
 11
161.4537661689328
 21
19.47681150311733
 31
0.0
  0
LINE
  5
EEE
330
EE9
100
AcDbEntity
  8
치수문자_일반주서
 62
     0
370
    -2
100
AcDbLine
 10
158.7557661689329
 20
19.47681150311733
 30
0.0
 11
158.1517661689329
 21
19.47681150311733
 31
0.0
  0
SOLID
  5
EEF
330
EE9
100
AcDbEntity
  8
치수문자_일반주서
 62
     0
100
AcDbTrace
 10
158.7557661689329
 20
20.02714483645066
 30
0.0
 11
158.7557661689329
 21
18.92647816978399
 31
0.0
 12
155.4537661689329
 22
19.47681150311733
 32
0.0
 13
155.4537661689329
 23
19.47681150311733
 33
0.0
  0
SOLID
  5
EF0
330
EE9
100
AcDbEntity
  8
치수문자_일반주서
 62
     0
100
AcDbTrace
 10
158.1517661689329
 20
18.92647816978399
 30
0.0
 11
158.1517661689329
 21
20.02714483645066
 31
0.0
 12
161.4537661689328
 22
19.47681150311733
 32
0.0
 13
161.4537661689328
 23
19.47681150311733
 33
0.0
  0
MTEXT
  5
EF1
330
EE9
100
AcDbEntity
  8
치수문자_일반주서
 62
     0
100
AcDbMText
 10
158.4537661689329
 20
23.85181150311733
 30
0.0
 40
3.5
 41
0.0
 71
     2
 72
     1
  1
\A1;6
  7
SLDTEXTSTYLE0
 73
     1
 44
1.0
  0
POINT
  5
EF2
330
EE9
100
AcDbEntity
  8
Defpoints
 62
     0
100
AcDbPoint
 10
155.4537661689329
 20
4.654398904845578
 30
0.0
  0
POINT
  5
EF3
330
EE9
100
AcDbEntity
  8
Defpoints
 62
     0
100
AcDbPoint
 10
161.4537661689328
 20
4.330110260643252
 30
0.0
  0
POINT
  5
EF4
330
EE9
100
AcDbEntity
  8
Defpoints
 62
     0
100
AcDbPoint
 10
161.4537661689328
 20
19.47681150311733
 30
0.0
  0
ENDBLK
  5
EEB
330
EE9
100
AcDbEntity
  8
0
100
AcDbBlockEnd
  0
BLOCK
  5
EF6
330
EF5
100
AcDbEntity
  8
0
100
AcDbBlockBegin
  2
*D91
 70
     1
 10
0.0
 20
0.0
 30
0.0
  3
*D91
  1

  0
LINE
  5
EF8
330
EF5
100
AcDbEntity
  8
치수문자_일반주서
 62
     0
370
    -2
100
AcDbLine
 10
161.4537661689328
 20
4.992861463242505
 30
0.0
 11
161.4537661689328
 21
28.38203673293638
 31
0.0
  0
LINE
  5
EF9
330
EF5
100
AcDbEntity
  8
치수문자_일반주서
 62
     0
370
    -2
100
AcDbLine
 10
126.453766161684
 20
5.02260233144986
 30
0.0
 11
126.453766161684
 21
28.38203673293638
 31
0.0
  0
LINE
  5
EFA
330
EF5
100
AcDbEntity
  8
치수문자_일반주서
 62
     0
370
    -2
100
AcDbLine
 10
158.1517661689329
 20
28.38203673293638
 30
0.0
 11
129.755766161684
 21
28.38203673293638
 31
0.0
  0
SOLID
  5
EFB
330
EF5
100
AcDbEntity
  8
치수문자_일반주서
 62
     0
100
AcDbTrace
 10
158.1517661689329
 20
27.83170339960304
 30
0.0
 11
158.1517661689329
 21
28.93237006626971
 31
0.0
 12
161.4537661689328
 22
28.38203673293638
 32
0.0
 13
161.4537661689328
 23
28.38203673293638
 33
0.0
  0
SOLID
  5
EFC
330
EF5
100
AcDbEntity
  8
치수문자_일반주서
 62
     0
100
AcDbTrace
 10
129.755766161684
 20
28.93237006626971
 30
0.0
 11
129.755766161684
 21
27.83170339960304
 31
0.0
 12
126.453766161684
 22
28.38203673293638
 32
0.0
 13
126.453766161684
 23
28.38203673293638
 33
0.0
  0
MTEXT
  5
EFD
330
EF5
100
AcDbEntity
  8
치수문자_일반주서
 62
     0
100
AcDbMText
 10
143.9537661653084
 20
32.75703673293638
 30
0.0
 40
3.5
 41
0.0
 71
     2
 72
     1
  1
\A1;35
  7
SLDTEXTSTYLE0
 73
     1
 44
1.0
  0
POINT
  5
EFE
330
EF5
100
AcDbEntity
  8
Defpoints
 62
     0
100
AcDbPoint
 10
161.4537661689328
 20
4.930361463242505
 30
0.0
  0
POINT
  5
EFF
330
EF5
100
AcDbEntity
  8
Defpoints
 62
     0
100
AcDbPoint
 10
126.453766161684
 20
4.96010233144986
 30
0.0
  0
POINT
  5
F00
330
EF5
100
AcDbEntity
  8
Defpoints
 62
     0
100
AcDbPoint
 10
126.453766161684
 20
28.38203673293638
 30
0.0
  0
ENDBLK
  5
EF7
330
EF5
100
AcDbEntity
  8
0
100
AcDbBlockEnd
  0
BLOCK
  5
FCF
330
FCE
100
AcDbEntity
  8
0
100
AcDbBlockBegin
  2
*D93
 70
     1
 10
0.0
 20
0.0
 30
0.0
  3
*D93
  1

  0
LINE
  5
FD1
330
FCE
100
AcDbEntity
  8
치수문자_일반주서
 62
     0
370
    -2
100
AcDbLine
 10
91.58866092365804
 20
49.37180738881174
 30
0.0
 11
117.6441774689809
 21
49.37180738881184
 31
0.0
  0
LINE
  5
FD2
330
FCE
100
AcDbEntity
  8
치수문자_일반주서
 62
     0
370
    -2
100
AcDbLine
 10
91.58866092365804
 20
50.57180738881175
 30
0.0
 11
117.6441774689809
 21
50.57180738881185
 31
0.0
  0
LINE
  5
FD3
330
FCE
100
AcDbEntity
  8
치수문자_일반주서
 62
     0
370
    -2
100
AcDbLine
 10
117.6441774689809
 20
46.06980738881184
 30
0.0
 11
117.6441774689809
 21
42.76780738881184
 31
0.0
  0
LINE
  5
FD4
330
FCE
100
AcDbEntity
  8
치수문자_일반주서
 62
     0
370
    -2
100
AcDbLine
 10
117.6441774689809
 20
53.87380738881185
 30
0.0
 11
117.6441774689809
 21
57.17580738881185
 31
0.0
  0
SOLID
  5
FD5
330
FCE
100
AcDbEntity
  8
치수문자_일반주서
 62
     0
100
AcDbTrace
 10
118.1945108023143
 20
46.06980738881184
 30
0.0
 11
117.0938441356476
 21
46.06980738881184
 31
0.0
 12
117.6441774689809
 22
49.37180738881184
 32
0.0
 13
117.6441774689809
 23
49.37180738881184
 33
0.0
  0
SOLID
  5
FD6
330
FCE
100
AcDbEntity
  8
치수문자_일반주서
 62
     0
100
AcDbTrace
 10
117.0938441356476
 20
53.87380738881185
 30
0.0
 11
118.1945108023143
 21
53.87380738881185
 31
0.0
 12
117.6441774689809
 22
50.57180738881185
 32
0.0
 13
117.6441774689809
 23
50.57180738881185
 33
0.0
  0
MTEXT
  5
FD7
330
FCE
100
AcDbEntity
  8
치수문자_일반주서
 62
     0
100
AcDbMText
 10
113.2691774689809
 20
49.97180738881172
 30
0.0
 40
3.5
 41
0.0
 71
     2
 72
     1
  1
\A1;%%c1.2
  7
SLDTEXTSTYLE0
 11
0.0
 21
1.0
 31
0.0
 73
     1
 44
1.0
  0
POINT
  5
FD8
330
FCE
100
AcDbEntity
  8
Defpoints
 62
     0
100
AcDbPoint
 10
91.52616092365804
 20
49.37180738881174
 30
0.0
  0
POINT
  5
FD9
330
FCE
100
AcDbEntity
  8
Defpoints
 62
     0
100
AcDbPoint
 10
91.52616092365804
 20
50.57180738881175
 30
0.0
  0
POINT
  5
FDA
330
FCE
100
AcDbEntity
  8
Defpoints
 62
     0
100
AcDbPoint
 10
117.6441774689809
 20
50.57180738881185
 30
0.0
  0
ENDBLK
  5
FD0
330
FCE
100
AcDbEntity
  8
0
100
AcDbBlockEnd
  0
BLOCK
  5
FDC
330
FDB
100
AcDbEntity
  8
0
100
AcDbBlockBegin
  2
*D94
 70
     1
 10
0.0
 20
0.0
 30
0.0
  3
*D94
  1

  0
LINE
  5
FDE
330
FDB
100
AcDbEntity
  8
치수문자_일반주서
 62
     0
370
    -2
100
AcDbLine
 10
16.56166728747387
 20
52.53430738881175
 30
0.0
 11
16.56166728747387
 21
80.97180738881175
 31
0.0
  0
LINE
  5
FDF
330
FDB
100
AcDbEntity
  8
치수문자_일반주서
 62
     0
370
    -2
100
AcDbLine
 10
96.56166728747387
 20
51.32931531800514
 30
0.0
 11
96.56166728747385
 21
80.97180738881175
 31
0.0
  0
LINE
  5
FE0
330
FDB
100
AcDbEntity
  8
치수문자_일반주서
 62
     0
370
    -2
100
AcDbLine
 10
19.86366728747387
 20
80.97180738881175
 30
0.0
 11
93.25966728747385
 21
80.97180738881175
 31
0.0
  0
SOLID
  5
FE1
330
FDB
100
AcDbEntity
  8
치수문자_일반주서
 62
     0
100
AcDbTrace
 10
19.86366728747387
 20
81.52214072214508
 30
0.0
 11
19.86366728747387
 21
80.42147405547843
 31
0.0
 12
16.56166728747387
 22
80.97180738881175
 32
0.0
 13
16.56166728747387
 23
80.97180738881175
 33
0.0
  0
SOLID
  5
FE2
330
FDB
100
AcDbEntity
  8
치수문자_일반주서
 62
     0
100
AcDbTrace
 10
93.25966728747385
 20
80.42147405547843
 30
0.0
 11
93.25966728747385
 21
81.52214072214508
 31
0.0
 12
96.56166728747385
 22
80.97180738881175
 32
0.0
 13
96.56166728747385
 23
80.97180738881175
 33
0.0
  0
MTEXT
  5
FE3
330
FDB
100
AcDbEntity
  8
치수문자_일반주서
 62
     0
100
AcDbMText
 10
56.56166728747388
 20
85.34680738881175
 30
0.0
 40
3.5
 41
0.0
 71
     2
 72
     1
  1
\A1;80
  7
SLDTEXTSTYLE0
 73
     1
 44
1.0
  0
POINT
  5
FE4
330
FDB
100
AcDbEntity
  8
Defpoints
 62
     0
100
AcDbPoint
 10
16.56166728747387
 20
52.47180738881175
 30
0.0
  0
POINT
  5
FE5
330
FDB
100
AcDbEntity
  8
Defpoints
 62
     0
100
AcDbPoint
 10
96.56166728747387
 20
51.26681531800514
 30
0.0
  0
POINT
  5
FE6
330
FDB
100
AcDbEntity
  8
Defpoints
 62
     0
100
AcDbPoint
 10
96.56166728747387
 20
80.97180738881175
 30
0.0
  0
ENDBLK
  5
FDD
330
FDB
100
AcDbEntity
  8
0
100
AcDbBlockEnd
  0
BLOCK
  5
FE8
330
FE7
100
AcDbEntity
  8
0
100
AcDbBlockBegin
  2
*D95
 70
     1
 10
0.0
 20
0.0
 30
0.0
  3
*D95
  1

  0
LINE
  5
FEA
330
FE7
100
AcDbEntity
  8
치수문자_일반주서
 62
     0
370
    -2
100
AcDbLine
 10
16.99916728747388
 20
52.97180738881175
 30
0.0
 11
4.565209265861785
 21
52.9718073888117
 31
0.0
  0
LINE
  5
FEB
330
FE7
100
AcDbEntity
  8
치수문자_일반주서
 62
     0
370
    -2
100
AcDbLine
 10
16.99916728747388
 20
46.97180738881175
 30
0.0
 11
4.565209265861807
 21
46.9718073888117
 31
0.0
  0
LINE
  5
FEC
330
FE7
100
AcDbEntity
  8
치수문자_일반주서
 62
     0
370
    -2
100
AcDbLine
 10
4.565209265861797
 20
49.6698073888117
 30
0.0
 11
4.565209265861795
 21
50.2738073888117
 31
0.0
  0
SOLID
  5
FED
330
FE7
100
AcDbEntity
  8
치수문자_일반주서
 62
     0
100
AcDbTrace
 10
5.11554259919513
 20
49.6698073888117
 30
0.0
 11
4.014875932528463
 21
49.6698073888117
 31
0.0
 12
4.565209265861785
 22
52.9718073888117
 32
0.0
 13
4.565209265861785
 23
52.9718073888117
 33
0.0
  0
SOLID
  5
FEE
330
FE7
100
AcDbEntity
  8
치수문자_일반주서
 62
     0
100
AcDbTrace
 10
4.014875932528462
 20
50.2738073888117
 30
0.0
 11
5.115542599195129
 21
50.2738073888117
 31
0.0
 12
4.565209265861807
 22
46.9718073888117
 32
0.0
 13
4.565209265861807
 23
46.9718073888117
 33
0.0
  0
MTEXT
  5
FEF
330
FE7
100
AcDbEntity
  8
치수문자_일반주서
 62
     0
100
AcDbMText
 10
0.190209265861796
 20
49.97180738881173
 30
0.0
 40
3.5
 41
0.0
 71
     2
 72
     1
  1
\A1;%%c6
  7
SLDTEXTSTYLE0
 11
-3.552713678800505E-15
 21
1.0
 31
0.0
 73
     1
 44
1.0
  0
POINT
  5
FF0
330
FE7
100
AcDbEntity
  8
Defpoints
 62
     0
100
AcDbPoint
 10
17.06166728747388
 20
52.97180738881175
 30
0.0
  0
POINT
  5
FF1
330
FE7
100
AcDbEntity
  8
Defpoints
 62
     0
100
AcDbPoint
 10
17.06166728747388
 20
46.97180738881175
 30
0.0
  0
POINT
  5
FF2
330
FE7
100
AcDbEntity
  8
Defpoints
 62
     0
100
AcDbPoint
 10
4.565209265861796
 20
46.9718073888117
 30
0.0
  0
ENDBLK
  5
FE9
330
FE7
100
AcDbEntity
  8
0
100
AcDbBlockEnd
  0
BLOCK
  5
FF4
330
FF3
100
AcDbEntity
  8
0
100
AcDbBlockBegin
  2
*D96
 70
     1
 10
0.0
 20
0.0
 30
0.0
  3
*D96
  1

  0
LINE
  5
FF6
330
FF3
100
AcDbEntity
  8
치수문자_일반주서
 62
     0
370
    -2
100
AcDbLine
 10
90.56166728747388
 20
51.65360396220746
 30
0.0
 11
90.56166728747388
 21
66.41351656047921
 31
0.0
  0
LINE
  5
FF7
330
FF3
100
AcDbEntity
  8
치수문자_일반주서
 62
     0
370
    -2
100
AcDbLine
 10
96.56166728747387
 20
51.32931531800514
 30
0.0
 11
96.56166728747387
 21
66.41351656047921
 31
0.0
  0
LINE
  5
FF8
330
FF3
100
AcDbEntity
  8
치수문자_일반주서
 62
     0
370
    -2
100
AcDbLine
 10
93.86366728747389
 20
66.41351656047921
 30
0.0
 11
93.25966728747386
 21
66.41351656047921
 31
0.0
  0
SOLID
  5
FF9
330
FF3
100
AcDbEntity
  8
치수문자_일반주서
 62
     0
100
AcDbTrace
 10
93.86366728747389
 20
66.96384989381254
 30
0.0
 11
93.86366728747389
 21
65.86318322714588
 31
0.0
 12
90.56166728747388
 22
66.41351656047921
 32
0.0
 13
90.56166728747388
 23
66.41351656047921
 33
0.0
  0
SOLID
  5
FFA
330
FF3
100
AcDbEntity
  8
치수문자_일반주서
 62
     0
100
AcDbTrace
 10
93.25966728747386
 20
65.86318322714588
 30
0.0
 11
93.25966728747386
 21
66.96384989381254
 31
0.0
 12
96.56166728747387
 22
66.41351656047921
 32
0.0
 13
96.56166728747387
 23
66.41351656047921
 33
0.0
  0
MTEXT
  5
FFB
330
FF3
100
AcDbEntity
  8
치수문자_일반주서
 62
     0
100
AcDbMText
 10
93.56166728747388
 20
70.78851656047921
 30
0.0
 40
3.5
 41
0.0
 71
     2
 72
     1
  1
\A1;6
  7
SLDTEXTSTYLE0
 73
     1
 44
1.0
  0
POINT
  5
FFC
330
FF3
100
AcDbEntity
  8
Defpoints
 62
     0
100
AcDbPoint
 10
90.56166728747388
 20
51.59110396220746
 30
0.0
  0
POINT
  5
FFD
330
FF3
100
AcDbEntity
  8
Defpoints
 62
     0
100
AcDbPoint
 10
96.56166728747387
 20
51.26681531800514
 30
0.0
  0
POINT
  5
FFE
330
FF3
100
AcDbEntity
  8
Defpoints
 62
     0
100
AcDbPoint
 10
96.56166728747387
 20
66.41351656047921
 30
0.0
  0
ENDBLK
  5
FF5
330
FF3
100
AcDbEntity
  8
0
100
AcDbBlockEnd
  0
BLOCK
  5
1000
330
FFF
100
AcDbEntity
  8
0
100
AcDbBlockBegin
  2
*D97
 70
     1
 10
0.0
 20
0.0
 30
0.0
  3
*D97
  1

  0
LINE
  5
1002
330
FFF
100
AcDbEntity
  8
치수문자_일반주서
 62
     0
370
    -2
100
AcDbLine
 10
96.56166728747387
 20
51.92956652060439
 30
0.0
 11
96.56166728747387
 21
75.31874179029826
 31
0.0
  0
LINE
  5
1003
330
FFF
100
AcDbEntity
  8
치수문자_일반주서
 62
     0
370
    -2
100
AcDbLine
 10
56.56166728398703
 20
51.95930738881174
 30
0.0
 11
56.56166728398703
 21
75.31874179029826
 31
0.0
  0
LINE
  5
1004
330
FFF
100
AcDbEntity
  8
치수문자_일반주서
 62
     0
370
    -2
100
AcDbLine
 10
93.25966728747386
 20
75.31874179029826
 30
0.0
 11
59.86366728398703
 21
75.31874179029826
 31
0.0
  0
SOLID
  5
1005
330
FFF
100
AcDbEntity
  8
치수문자_일반주서
 62
     0
100
AcDbTrace
 10
93.25966728747386
 20
74.76840845696493
 30
0.0
 11
93.25966728747386
 21
75.86907512363159
 31
0.0
 12
96.56166728747387
 22
75.31874179029826
 32
0.0
 13
96.56166728747387
 23
75.31874179029826
 33
0.0
  0
SOLID
  5
1006
330
FFF
100
AcDbEntity
  8
치수문자_일반주서
 62
     0
100
AcDbTrace
 10
59.86366728398703
 20
75.86907512363159
 30
0.0
 11
59.86366728398703
 21
74.76840845696493
 31
0.0
 12
56.56166728398703
 22
75.31874179029826
 32
0.0
 13
56.56166728398703
 23
75.31874179029826
 33
0.0
  0
MTEXT
  5
1007
330
FFF
100
AcDbEntity
  8
치수문자_일반주서
 62
     0
100
AcDbMText
 10
76.56166728573045
 20
79.69374179029826
 30
0.0
 40
3.5
 41
0.0
 71
     2
 72
     1
  1
\A1;40
  7
SLDTEXTSTYLE0
 73
     1
 44
1.0
  0
POINT
  5
1008
330
FFF
100
AcDbEntity
  8
Defpoints
 62
     0
100
AcDbPoint
 10
96.56166728747387
 20
51.86706652060439
 30
0.0
  0
POINT
  5
1009
330
FFF
100
AcDbEntity
  8
Defpoints
 62
     0
100
AcDbPoint
 10
56.56166728398703
 20
51.89680738881174
 30
0.0
  0
POINT
  5
100A
330
FFF
100
AcDbEntity
  8
Defpoints
 62
     0
100
AcDbPoint
 10
56.56166728398703
 20
75.31874179029826
 30
0.0
  0
ENDBLK
  5
1001
330
FFF
100
AcDbEntity
  8
0
100
AcDbBlockEnd
  0
BLOCK
  5
105B
330
105A
100
AcDbEntity
  8
0
100
AcDbBlockBegin
  2
*D98
 70
     1
 10
0.0
 20
0.0
 30
0.0
  3
*D98
  1

  0
LINE
  5
105D
330
105A
100
AcDbEntity
  8
치수문자_일반주서
 62
     0
370
    -2
100
AcDbLine
 10
176.2995897064748
 20
1.612375275772095
 30
0.0
 11
202.3551062517976
 21
1.612375275772193
 31
0.0
  0
LINE
  5
105E
330
105A
100
AcDbEntity
  8
치수문자_일반주서
 62
     0
370
    -2
100
AcDbLine
 10
176.2995897064748
 20
2.812375275772105
 30
0.0
 11
202.3551062517976
 21
2.812375275772203
 31
0.0
  0
LINE
  5
105F
330
105A
100
AcDbEntity
  8
치수문자_일반주서
 62
     0
370
    -2
100
AcDbLine
 10
202.3551062517976
 20
-1.689624724227808
 30
0.0
 11
202.3551062517976
 21
-4.991624724227807
 31
0.0
  0
LINE
  5
1060
330
105A
100
AcDbEntity
  8
치수문자_일반주서
 62
     0
370
    -2
100
AcDbLine
 10
202.3551062517976
 20
6.114375275772202
 30
0.0
 11
202.3551062517976
 21
9.416375275772202
 31
0.0
  0
SOLID
  5
1061
330
105A
100
AcDbEntity
  8
치수문자_일반주서
 62
     0
100
AcDbTrace
 10
202.9054395851309
 20
-1.689624724227808
 30
0.0
 11
201.8047729184643
 21
-1.689624724227808
 31
0.0
 12
202.3551062517976
 22
1.612375275772193
 32
0.0
 13
202.3551062517976
 23
1.612375275772193
 33
0.0
  0
SOLID
  5
1062
330
105A
100
AcDbEntity
  8
치수문자_일반주서
 62
     0
100
AcDbTrace
 10
201.8047729184643
 20
6.114375275772202
 30
0.0
 11
202.9054395851309
 21
6.114375275772202
 31
0.0
 12
202.3551062517976
 22
2.812375275772203
 32
0.0
 13
202.3551062517976
 23
2.812375275772203
 33
0.0
  0
MTEXT
  5
1063
330
105A
100
AcDbEntity
  8
치수문자_일반주서
 62
     0
100
AcDbMText
 10
197.9801062517976
 20
2.212375275772075
 30
0.0
 40
3.5
 41
0.0
 71
     2
 72
     1
  1
\A1;%%c1.2
  7
SLDTEXTSTYLE0
 11
0.0
 21
1.0
 31
0.0
 73
     1
 44
1.0
  0
POINT
  5
1064
330
105A
100
AcDbEntity
  8
Defpoints
 62
     0
100
AcDbPoint
 10
176.2370897064748
 20
1.612375275772095
 30
0.0
  0
POINT
  5
1065
330
105A
100
AcDbEntity
  8
Defpoints
 62
     0
100
AcDbPoint
 10
176.2370897064748
 20
2.812375275772105
 30
0.0
  0
POINT
  5
1066
330
105A
100
AcDbEntity
  8
Defpoints
 62
     0
100
AcDbPoint
 10
202.3551062517976
 20
2.812375275772203
 30
0.0
  0
ENDBLK
  5
105C
330
105A
100
AcDbEntity
  8
0
100
AcDbBlockEnd
  0
BLOCK
  5
1068
330
1067
100
AcDbEntity
  8
0
100
AcDbBlockBegin
  2
*D99
 70
     1
 10
0.0
 20
0.0
 30
0.0
  3
*D99
  1

  0
LINE
  5
106A
330
1067
100
AcDbEntity
  8
치수문자_일반주서
 62
     0
370
    -2
100
AcDbLine
 10
101.2725960702906
 20
4.774875275772104
 30
0.0
 11
101.2725960702906
 21
33.21237527577211
 31
0.0
  0
LINE
  5
106B
330
1067
100
AcDbEntity
  8
치수문자_일반주서
 62
     0
370
    -2
100
AcDbLine
 10
181.2725960702906
 20
3.569883204965492
 30
0.0
 11
181.2725960702906
 21
33.21237527577211
 31
0.0
  0
LINE
  5
106C
330
1067
100
AcDbEntity
  8
치수문자_일반주서
 62
     0
370
    -2
100
AcDbLine
 10
104.5745960702906
 20
33.21237527577211
 30
0.0
 11
177.9705960702906
 21
33.21237527577211
 31
0.0
  0
SOLID
  5
106D
330
1067
100
AcDbEntity
  8
치수문자_일반주서
 62
     0
100
AcDbTrace
 10
104.5745960702906
 20
33.76270860910545
 30
0.0
 11
104.5745960702906
 21
32.66204194243878
 31
0.0
 12
101.2725960702906
 22
33.21237527577211
 32
0.0
 13
101.2725960702906
 23
33.21237527577211
 33
0.0
  0
SOLID
  5
106E
330
1067
100
AcDbEntity
  8
치수문자_일반주서
 62
     0
100
AcDbTrace
 10
177.9705960702906
 20
32.66204194243878
 30
0.0
 11
177.9705960702906
 21
33.76270860910545
 31
0.0
 12
181.2725960702906
 22
33.21237527577211
 32
0.0
 13
181.2725960702906
 23
33.21237527577211
 33
0.0
  0
MTEXT
  5
106F
330
1067
100
AcDbEntity
  8
치수문자_일반주서
 62
     0
100
AcDbMText
 10
141.2725960702906
 20
37.58737527577211
 30
0.0
 40
3.5
 41
0.0
 71
     2
 72
     1
  1
\A1;80
  7
SLDTEXTSTYLE0
 73
     1
 44
1.0
  0
POINT
  5
1070
330
1067
100
AcDbEntity
  8
Defpoints
 62
     0
100
AcDbPoint
 10
101.2725960702906
 20
4.712375275772104
 30
0.0
  0
POINT
  5
1071
330
1067
100
AcDbEntity
  8
Defpoints
 62
     0
100
AcDbPoint
 10
181.2725960702906
 20
3.507383204965492
 30
0.0
  0
POINT
  5
1072
330
1067
100
AcDbEntity
  8
Defpoints
 62
     0
100
AcDbPoint
 10
181.2725960702906
 20
33.21237527577211
 30
0.0
  0
ENDBLK
  5
1069
330
1067
100
AcDbEntity
  8
0
100
AcDbBlockEnd
  0
BLOCK
  5
1074
330
1073
100
AcDbEntity
  8
0
100
AcDbBlockBegin
  2
*D100
 70
     1
 10
0.0
 20
0.0
 30
0.0
  3
*D100
  1

  0
LINE
  5
1076
330
1073
100
AcDbEntity
  8
치수문자_일반주서
 62
     0
370
    -2
100
AcDbLine
 10
101.7100960702906
 20
5.212375275772104
 30
0.0
 11
89.2761380486785
 21
5.212375275772057
 31
0.0
  0
LINE
  5
1077
330
1073
100
AcDbEntity
  8
치수문자_일반주서
 62
     0
370
    -2
100
AcDbLine
 10
101.7100960702906
 20
-0.7876247242278895
 30
0.0
 11
89.27613804867852
 21
-0.7876247242279364
 31
0.0
  0
LINE
  5
1078
330
1073
100
AcDbEntity
  8
치수문자_일반주서
 62
     0
370
    -2
100
AcDbLine
 10
89.27613804867852
 20
1.910375275772056
 30
0.0
 11
89.2761380486785
 21
2.514375275772064
 31
0.0
  0
SOLID
  5
1079
330
1073
100
AcDbEntity
  8
치수문자_일반주서
 62
     0
100
AcDbTrace
 10
89.82647138201185
 20
1.910375275772058
 30
0.0
 11
88.72580471534519
 21
1.910375275772055
 31
0.0
 12
89.2761380486785
 22
5.212375275772057
 32
0.0
 13
89.2761380486785
 23
5.212375275772057
 33
0.0
  0
SOLID
  5
107A
330
1073
100
AcDbEntity
  8
치수문자_일반주서
 62
     0
100
AcDbTrace
 10
88.72580471534518
 20
2.514375275772062
 30
0.0
 11
89.82647138201183
 21
2.514375275772065
 31
0.0
 12
89.27613804867852
 22
-0.7876247242279364
 32
0.0
 13
89.27613804867852
 23
-0.7876247242279364
 33
0.0
  0
MTEXT
  5
107B
330
1073
100
AcDbEntity
  8
치수문자_일반주서
 62
     0
100
AcDbMText
 10
84.9011380486785
 20
2.212375275772093
 30
0.0
 40
3.5
 41
0.0
 71
     2
 72
     1
  1
\A1;%%c6
  7
SLDTEXTSTYLE0
 11
-2.368475785867003E-15
 21
1.0
 31
0.0
 73
     1
 44
1.0
  0
POINT
  5
107C
330
1073
100
AcDbEntity
  8
Defpoints
 62
     0
100
AcDbPoint
 10
101.7725960702906
 20
5.212375275772104
 30
0.0
  0
POINT
  5
107D
330
1073
100
AcDbEntity
  8
Defpoints
 62
     0
100
AcDbPoint
 10
101.7725960702906
 20
-0.7876247242278893
 30
0.0
  0
POINT
  5
107E
330
1073
100
AcDbEntity
  8
Defpoints
 62
     0
100
AcDbPoint
 10
89.27613804867852
 20
-0.7876247242279361
 30
0.0
  0
ENDBLK
  5
1075
330
1073
100
AcDbEntity
  8
0
100
AcDbBlockEnd
  0
BLOCK
  5
1080
330
107F
100
AcDbEntity
  8
0
100
AcDbBlockBegin
  2
*D101
 70
     1
 10
0.0
 20
0.0
 30
0.0
  3
*D101
  1

  0
LINE
  5
1082
330
107F
100
AcDbEntity
  8
치수문자_일반주서
 62
     0
370
    -2
100
AcDbLine
 10
175.2725960702906
 20
3.894171849167819
 30
0.0
 11
175.2725960702906
 21
18.65408444743957
 31
0.0
  0
LINE
  5
1083
330
107F
100
AcDbEntity
  8
치수문자_일반주서
 62
     0
370
    -2
100
AcDbLine
 10
181.2725960702906
 20
3.569883204965492
 30
0.0
 11
181.2725960702906
 21
18.65408444743957
 31
0.0
  0
LINE
  5
1084
330
107F
100
AcDbEntity
  8
치수문자_일반주서
 62
     0
370
    -2
100
AcDbLine
 10
178.5745960702906
 20
18.65408444743957
 30
0.0
 11
177.9705960702906
 21
18.65408444743957
 31
0.0
  0
SOLID
  5
1085
330
107F
100
AcDbEntity
  8
치수문자_일반주서
 62
     0
100
AcDbTrace
 10
178.5745960702906
 20
19.2044177807729
 30
0.0
 11
178.5745960702906
 21
18.10375111410623
 31
0.0
 12
175.2725960702906
 22
18.65408444743957
 32
0.0
 13
175.2725960702906
 23
18.65408444743957
 33
0.0
  0
SOLID
  5
1086
330
107F
100
AcDbEntity
  8
치수문자_일반주서
 62
     0
100
AcDbTrace
 10
177.9705960702906
 20
18.10375111410623
 30
0.0
 11
177.9705960702906
 21
19.2044177807729
 31
0.0
 12
181.2725960702906
 22
18.65408444743957
 32
0.0
 13
181.2725960702906
 23
18.65408444743957
 33
0.0
  0
MTEXT
  5
1087
330
107F
100
AcDbEntity
  8
치수문자_일반주서
 62
     0
100
AcDbMText
 10
178.2725960702906
 20
23.02908444743957
 30
0.0
 40
3.5
 41
0.0
 71
     2
 72
     1
  1
\A1;6
  7
SLDTEXTSTYLE0
 73
     1
 44
1.0
  0
POINT
  5
1088
330
107F
100
AcDbEntity
  8
Defpoints
 62
     0
100
AcDbPoint
 10
175.2725960702906
 20
3.831671849167819
 30
0.0
  0
POINT
  5
1089
330
107F
100
AcDbEntity
  8
Defpoints
 62
     0
100
AcDbPoint
 10
181.2725960702906
 20
3.507383204965492
 30
0.0
  0
POINT
  5
108A
330
107F
100
AcDbEntity
  8
Defpoints
 62
     0
100
AcDbPoint
 10
181.2725960702906
 20
18.65408444743957
 30
0.0
  0
ENDBLK
  5
1081
330
107F
100
AcDbEntity
  8
0
100
AcDbBlockEnd
  0
BLOCK
  5
108C
330
108B
100
AcDbEntity
  8
0
100
AcDbBlockBegin
  2
*D102
 70
     1
 10
0.0
 20
0.0
 30
0.0
  3
*D102
  1

  0
LINE
  5
108E
330
108B
100
AcDbEntity
  8
치수문자_일반주서
 62
     0
370
    -2
100
AcDbLine
 10
181.2725960702906
 20
4.170134407564746
 30
0.0
 11
181.2725960702906
 21
27.55930967725862
 31
0.0
  0
LINE
  5
108F
330
108B
100
AcDbEntity
  8
치수문자_일반주서
 62
     0
370
    -2
100
AcDbLine
 10
141.2725960668037
 20
4.199875275772101
 30
0.0
 11
141.2725960668037
 21
27.55930967725862
 31
0.0
  0
LINE
  5
1090
330
108B
100
AcDbEntity
  8
치수문자_일반주서
 62
     0
370
    -2
100
AcDbLine
 10
177.9705960702906
 20
27.55930967725862
 30
0.0
 11
144.5745960668037
 21
27.55930967725862
 31
0.0
  0
SOLID
  5
1091
330
108B
100
AcDbEntity
  8
치수문자_일반주서
 62
     0
100
AcDbTrace
 10
177.9705960702906
 20
27.00897634392528
 30
0.0
 11
177.9705960702906
 21
28.10964301059195
 31
0.0
 12
181.2725960702906
 22
27.55930967725862
 32
0.0
 13
181.2725960702906
 23
27.55930967725862
 33
0.0
  0
SOLID
  5
1092
330
108B
100
AcDbEntity
  8
치수문자_일반주서
 62
     0
100
AcDbTrace
 10
144.5745960668037
 20
28.10964301059195
 30
0.0
 11
144.5745960668037
 21
27.00897634392528
 31
0.0
 12
141.2725960668037
 22
27.55930967725862
 32
0.0
 13
141.2725960668037
 23
27.55930967725862
 33
0.0
  0
MTEXT
  5
1093
330
108B
100
AcDbEntity
  8
치수문자_일반주서
 62
     0
100
AcDbMText
 10
161.2725960685472
 20
31.93430967725862
 30
0.0
 40
3.5
 41
0.0
 71
     2
 72
     1
  1
\A1;40
  7
SLDTEXTSTYLE0
 73
     1
 44
1.0
  0
POINT
  5
1094
330
108B
100
AcDbEntity
  8
Defpoints
 62
     0
100
AcDbPoint
 10
181.2725960702906
 20
4.107634407564746
 30
0.0
  0
POINT
  5
1095
330
108B
100
AcDbEntity
  8
Defpoints
 62
     0
100
AcDbPoint
 10
141.2725960668037
 20
4.137375275772101
 30
0.0
  0
POINT
  5
1096
330
108B
100
AcDbEntity
  8
Defpoints
 62
     0
100
AcDbPoint
 10
141.2725960668037
 20
27.55930967725862
 30
0.0
  0
ENDBLK
  5
108D
330
108B
100
AcDbEntity
  8
0
100
AcDbBlockEnd
  0
BLOCK
  5
1166
330
1165
100
AcDbEntity
  8
0
100
AcDbBlockBegin
  2
*D104
 70
     1
 10
0.0
 20
0.0
 30
0.0
  3
*D104
  1

  0
LINE
  5
1168
330
1165
100
AcDbEntity
  8
치수문자_일반주서
 62
     0
370
    -2
100
AcDbLine
 10
101.588660923658
 20
49.37180738881174
 30
0.0
 11
127.6441774689809
 21
49.37180738881184
 31
0.0
  0
LINE
  5
1169
330
1165
100
AcDbEntity
  8
치수문자_일반주서
 62
     0
370
    -2
100
AcDbLine
 10
101.588660923658
 20
50.57180738881175
 30
0.0
 11
127.6441774689809
 21
50.57180738881185
 31
0.0
  0
LINE
  5
116A
330
1165
100
AcDbEntity
  8
치수문자_일반주서
 62
     0
370
    -2
100
AcDbLine
 10
127.6441774689809
 20
46.06980738881184
 30
0.0
 11
127.6441774689809
 21
42.76780738881184
 31
0.0
  0
LINE
  5
116B
330
1165
100
AcDbEntity
  8
치수문자_일반주서
 62
     0
370
    -2
100
AcDbLine
 10
127.6441774689809
 20
53.87380738881185
 30
0.0
 11
127.6441774689809
 21
57.17580738881185
 31
0.0
  0
SOLID
  5
116C
330
1165
100
AcDbEntity
  8
치수문자_일반주서
 62
     0
100
AcDbTrace
 10
128.1945108023142
 20
46.06980738881184
 30
0.0
 11
127.0938441356475
 21
46.06980738881184
 31
0.0
 12
127.6441774689809
 22
49.37180738881184
 32
0.0
 13
127.6441774689809
 23
49.37180738881184
 33
0.0
  0
SOLID
  5
116D
330
1165
100
AcDbEntity
  8
치수문자_일반주서
 62
     0
100
AcDbTrace
 10
127.0938441356475
 20
53.87380738881185
 30
0.0
 11
128.1945108023142
 21
53.87380738881185
 31
0.0
 12
127.6441774689809
 22
50.57180738881185
 32
0.0
 13
127.6441774689809
 23
50.57180738881185
 33
0.0
  0
MTEXT
  5
116E
330
1165
100
AcDbEntity
  8
치수문자_일반주서
 62
     0
100
AcDbMText
 10
123.2691774689809
 20
49.97180738881172
 30
0.0
 40
3.5
 41
0.0
 71
     2
 72
     1
  1
\A1;%%c1.2
  7
SLDTEXTSTYLE0
 11
0.0
 21
1.0
 31
0.0
 73
     1
 44
1.0
  0
POINT
  5
116F
330
1165
100
AcDbEntity
  8
Defpoints
 62
     0
100
AcDbPoint
 10
101.526160923658
 20
49.37180738881174
 30
0.0
  0
POINT
  5
1170
330
1165
100
AcDbEntity
  8
Defpoints
 62
     0
100
AcDbPoint
 10
101.526160923658
 20
50.57180738881175
 30
0.0
  0
POINT
  5
1171
330
1165
100
AcDbEntity
  8
Defpoints
 62
     0
100
AcDbPoint
 10
127.6441774689809
 20
50.57180738881185
 30
0.0
  0
ENDBLK
  5
1167
330
1165
100
AcDbEntity
  8
0
100
AcDbBlockEnd
  0
BLOCK
  5
1173
330
1172
100
AcDbEntity
  8
0
100
AcDbBlockBegin
  2
*D105
 70
     1
 10
0.0
 20
0.0
 30
0.0
  3
*D105
  1

  0
LINE
  5
1175
330
1172
100
AcDbEntity
  8
치수문자_일반주서
 62
     0
370
    -2
100
AcDbLine
 10
16.56166728747382
 20
52.53430738881175
 30
0.0
 11
16.56166728747382
 21
80.97180738881177
 31
0.0
  0
LINE
  5
1176
330
1172
100
AcDbEntity
  8
치수문자_일반주서
 62
     0
370
    -2
100
AcDbLine
 10
106.5616672874738
 20
51.32931531800514
 30
0.0
 11
106.5616672874738
 21
80.97180738881177
 31
0.0
  0
LINE
  5
1177
330
1172
100
AcDbEntity
  8
치수문자_일반주서
 62
     0
370
    -2
100
AcDbLine
 10
19.86366728747382
 20
80.97180738881177
 30
0.0
 11
103.2596672874738
 21
80.97180738881177
 31
0.0
  0
SOLID
  5
1178
330
1172
100
AcDbEntity
  8
치수문자_일반주서
 62
     0
100
AcDbTrace
 10
19.86366728747382
 20
81.5221407221451
 30
0.0
 11
19.86366728747382
 21
80.42147405547844
 31
0.0
 12
16.56166728747382
 22
80.97180738881177
 32
0.0
 13
16.56166728747382
 23
80.97180738881177
 33
0.0
  0
SOLID
  5
1179
330
1172
100
AcDbEntity
  8
치수문자_일반주서
 62
     0
100
AcDbTrace
 10
103.2596672874738
 20
80.42147405547844
 30
0.0
 11
103.2596672874738
 21
81.5221407221451
 31
0.0
 12
106.5616672874738
 22
80.97180738881177
 32
0.0
 13
106.5616672874738
 23
80.97180738881177
 33
0.0
  0
MTEXT
  5
117A
330
1172
100
AcDbEntity
  8
치수문자_일반주서
 62
     0
100
AcDbMText
 10
61.56166728747382
 20
85.34680738881177
 30
0.0
 40
3.5
 41
0.0
 71
     2
 72
     1
  1
\A1;90
  7
SLDTEXTSTYLE0
 73
     1
 44
1.0
  0
POINT
  5
117B
330
1172
100
AcDbEntity
  8
Defpoints
 62
     0
100
AcDbPoint
 10
16.56166728747382
 20
52.47180738881175
 30
0.0
  0
POINT
  5
117C
330
1172
100
AcDbEntity
  8
Defpoints
 62
     0
100
AcDbPoint
 10
106.5616672874738
 20
51.26681531800514
 30
0.0
  0
POINT
  5
117D
330
1172
100
AcDbEntity
  8
Defpoints
 62
     0
100
AcDbPoint
 10
106.5616672874738
 20
80.97180738881175
 30
0.0
  0
ENDBLK
  5
1174
330
1172
100
AcDbEntity
  8
0
100
AcDbBlockEnd
  0
BLOCK
  5
117F
330
117E
100
AcDbEntity
  8
0
100
AcDbBlockBegin
  2
*D106
 70
     1
 10
0.0
 20
0.0
 30
0.0
  3
*D106
  1

  0
LINE
  5
1181
330
117E
100
AcDbEntity
  8
치수문자_일반주서
 62
     0
370
    -2
100
AcDbLine
 10
16.99916728747382
 20
52.97180738881175
 30
0.0
 11
4.565209265861743
 21
52.9718073888117
 31
0.0
  0
LINE
  5
1182
330
117E
100
AcDbEntity
  8
치수문자_일반주서
 62
     0
370
    -2
100
AcDbLine
 10
16.99916728747382
 20
46.97180738881175
 30
0.0
 11
4.565209265861764
 21
46.9718073888117
 31
0.0
  0
LINE
  5
1183
330
117E
100
AcDbEntity
  8
치수문자_일반주서
 62
     0
370
    -2
100
AcDbLine
 10
4.565209265861754
 20
49.6698073888117
 30
0.0
 11
4.565209265861752
 21
50.2738073888117
 31
0.0
  0
SOLID
  5
1184
330
117E
100
AcDbEntity
  8
치수문자_일반주서
 62
     0
100
AcDbTrace
 10
5.115542599195088
 20
49.6698073888117
 30
0.0
 11
4.014875932528421
 21
49.6698073888117
 31
0.0
 12
4.565209265861743
 22
52.9718073888117
 32
0.0
 13
4.565209265861743
 23
52.9718073888117
 33
0.0
  0
SOLID
  5
1185
330
117E
100
AcDbEntity
  8
치수문자_일반주서
 62
     0
100
AcDbTrace
 10
4.014875932528419
 20
50.2738073888117
 30
0.0
 11
5.115542599195086
 21
50.2738073888117
 31
0.0
 12
4.565209265861764
 22
46.9718073888117
 32
0.0
 13
4.565209265861764
 23
46.9718073888117
 33
0.0
  0
MTEXT
  5
1186
330
117E
100
AcDbEntity
  8
치수문자_일반주서
 62
     0
100
AcDbMText
 10
0.1902092658617534
 20
49.97180738881173
 30
0.0
 40
3.5
 41
0.0
 71
     2
 72
     1
  1
\A1;%%c6
  7
SLDTEXTSTYLE0
 11
-3.552713678800505E-15
 21
1.0
 31
0.0
 73
     1
 44
1.0
  0
POINT
  5
1187
330
117E
100
AcDbEntity
  8
Defpoints
 62
     0
100
AcDbPoint
 10
17.06166728747382
 20
52.97180738881175
 30
0.0
  0
POINT
  5
1188
330
117E
100
AcDbEntity
  8
Defpoints
 62
     0
100
AcDbPoint
 10
17.06166728747382
 20
46.97180738881175
 30
0.0
  0
POINT
  5
1189
330
117E
100
AcDbEntity
  8
Defpoints
 62
     0
100
AcDbPoint
 10
4.565209265861753
 20
46.9718073888117
 30
0.0
  0
ENDBLK
  5
1180
330
117E
100
AcDbEntity
  8
0
100
AcDbBlockEnd
  0
BLOCK
  5
118B
330
118A
100
AcDbEntity
  8
0
100
AcDbBlockBegin
  2
*D107
 70
     1
 10
0.0
 20
0.0
 30
0.0
  3
*D107
  1

  0
LINE
  5
118D
330
118A
100
AcDbEntity
  8
치수문자_일반주서
 62
     0
370
    -2
100
AcDbLine
 10
100.5616672874738
 20
51.65360396220746
 30
0.0
 11
100.5616672874738
 21
66.41351656047921
 31
0.0
  0
LINE
  5
118E
330
118A
100
AcDbEntity
  8
치수문자_일반주서
 62
     0
370
    -2
100
AcDbLine
 10
106.5616672874738
 20
51.32931531800514
 30
0.0
 11
106.5616672874738
 21
66.41351656047921
 31
0.0
  0
LINE
  5
118F
330
118A
100
AcDbEntity
  8
치수문자_일반주서
 62
     0
370
    -2
100
AcDbLine
 10
103.8636672874738
 20
66.41351656047921
 30
0.0
 11
103.2596672874738
 21
66.41351656047921
 31
0.0
  0
SOLID
  5
1190
330
118A
100
AcDbEntity
  8
치수문자_일반주서
 62
     0
100
AcDbTrace
 10
103.8636672874738
 20
66.96384989381254
 30
0.0
 11
103.8636672874738
 21
65.86318322714588
 31
0.0
 12
100.5616672874738
 22
66.41351656047921
 32
0.0
 13
100.5616672874738
 23
66.41351656047921
 33
0.0
  0
SOLID
  5
1191
330
118A
100
AcDbEntity
  8
치수문자_일반주서
 62
     0
100
AcDbTrace
 10
103.2596672874738
 20
65.86318322714588
 30
0.0
 11
103.2596672874738
 21
66.96384989381254
 31
0.0
 12
106.5616672874738
 22
66.41351656047921
 32
0.0
 13
106.5616672874738
 23
66.41351656047921
 33
0.0
  0
MTEXT
  5
1192
330
118A
100
AcDbEntity
  8
치수문자_일반주서
 62
     0
100
AcDbMText
 10
103.5616672874738
 20
70.78851656047921
 30
0.0
 40
3.5
 41
0.0
 71
     2
 72
     1
  1
\A1;6
  7
SLDTEXTSTYLE0
 73
     1
 44
1.0
  0
POINT
  5
1193
330
118A
100
AcDbEntity
  8
Defpoints
 62
     0
100
AcDbPoint
 10
100.5616672874738
 20
51.59110396220746
 30
0.0
  0
POINT
  5
1194
330
118A
100
AcDbEntity
  8
Defpoints
 62
     0
100
AcDbPoint
 10
106.5616672874738
 20
51.26681531800514
 30
0.0
  0
POINT
  5
1195
330
118A
100
AcDbEntity
  8
Defpoints
 62
     0
100
AcDbPoint
 10
106.5616672874738
 20
66.41351656047921
 30
0.0
  0
ENDBLK
  5
118C
330
118A
100
AcDbEntity
  8
0
100
AcDbBlockEnd
  0
BLOCK
  5
1197
330
1196
100
AcDbEntity
  8
0
100
AcDbBlockBegin
  2
*D108
 70
     1
 10
0.0
 20
0.0
 30
0.0
  3
*D108
  1

  0
LINE
  5
1199
330
1196
100
AcDbEntity
  8
치수문자_일반주서
 62
     0
370
    -2
100
AcDbLine
 10
106.5616672874738
 20
51.92956652060439
 30
0.0
 11
106.5616672874738
 21
75.31874179029826
 31
0.0
  0
LINE
  5
119A
330
1196
100
AcDbEntity
  8
치수문자_일반주서
 62
     0
370
    -2
100
AcDbLine
 10
61.56166728377123
 20
51.95930738881174
 30
0.0
 11
61.56166728377123
 21
75.31874179029826
 31
0.0
  0
LINE
  5
119B
330
1196
100
AcDbEntity
  8
치수문자_일반주서
 62
     0
370
    -2
100
AcDbLine
 10
103.2596672874738
 20
75.31874179029826
 30
0.0
 11
64.86366728377124
 21
75.31874179029826
 31
0.0
  0
SOLID
  5
119C
330
1196
100
AcDbEntity
  8
치수문자_일반주서
 62
     0
100
AcDbTrace
 10
103.2596672874738
 20
74.76840845696493
 30
0.0
 11
103.2596672874738
 21
75.86907512363159
 31
0.0
 12
106.5616672874738
 22
75.31874179029826
 32
0.0
 13
106.5616672874738
 23
75.31874179029826
 33
0.0
  0
SOLID
  5
119D
330
1196
100
AcDbEntity
  8
치수문자_일반주서
 62
     0
100
AcDbTrace
 10
64.86366728377124
 20
75.86907512363159
 30
0.0
 11
64.86366728377124
 21
74.76840845696493
 31
0.0
 12
61.56166728377123
 22
75.31874179029826
 32
0.0
 13
61.56166728377123
 23
75.31874179029826
 33
0.0
  0
MTEXT
  5
119E
330
1196
100
AcDbEntity
  8
치수문자_일반주서
 62
     0
100
AcDbMText
 10
84.06166728562252
 20
79.69374179029826
 30
0.0
 40
3.5
 41
0.0
 71
     2
 72
     1
  1
\A1;45
  7
SLDTEXTSTYLE0
 73
     1
 44
1.0
  0
POINT
  5
119F
330
1196
100
AcDbEntity
  8
Defpoints
 62
     0
100
AcDbPoint
 10
106.5616672874738
 20
51.86706652060439
 30
0.0
  0
POINT
  5
11A0
330
1196
100
AcDbEntity
  8
Defpoints
 62
     0
100
AcDbPoint
 10
61.56166728377123
 20
51.89680738881174
 30
0.0
  0
POINT
  5
11A1
330
1196
100
AcDbEntity
  8
Defpoints
 62
     0
100
AcDbPoint
 10
61.56166728377123
 20
75.31874179029826
 30
0.0
  0
ENDBLK
  5
1198
330
1196
100
AcDbEntity
  8
0
100
AcDbBlockEnd
  0
BLOCK
  5
11F2
330
11F1
100
AcDbEntity
  8
0
100
AcDbBlockBegin
  2
*D109
 70
     1
 10
0.0
 20
0.0
 30
0.0
  3
*D109
  1

  0
LINE
  5
11F4
330
11F1
100
AcDbEntity
  8
치수문자_일반주서
 62
     0
370
    -2
100
AcDbLine
 10
179.0125786381383
 20
-0.7382734547357754
 30
0.0
 11
205.0680951834612
 21
-0.7382734547356783
 31
0.0
  0
LINE
  5
11F5
330
11F1
100
AcDbEntity
  8
치수문자_일반주서
 62
     0
370
    -2
100
AcDbLine
 10
179.0125786381383
 20
0.4617265452642345
 30
0.0
 11
205.0680951834612
 21
0.4617265452643317
 31
0.0
  0
LINE
  5
11F6
330
11F1
100
AcDbEntity
  8
치수문자_일반주서
 62
     0
370
    -2
100
AcDbLine
 10
205.0680951834612
 20
-4.040273454735678
 30
0.0
 11
205.0680951834612
 21
-7.342273454735679
 31
0.0
  0
LINE
  5
11F7
330
11F1
100
AcDbEntity
  8
치수문자_일반주서
 62
     0
370
    -2
100
AcDbLine
 10
205.0680951834612
 20
3.763726545264332
 30
0.0
 11
205.0680951834612
 21
7.065726545264331
 31
0.0
  0
SOLID
  5
11F8
330
11F1
100
AcDbEntity
  8
치수문자_일반주서
 62
     0
100
AcDbTrace
 10
205.6184285167945
 20
-4.040273454735678
 30
0.0
 11
204.5177618501279
 21
-4.040273454735678
 31
0.0
 12
205.0680951834612
 22
-0.7382734547356783
 32
0.0
 13
205.0680951834612
 23
-0.7382734547356783
 33
0.0
  0
SOLID
  5
11F9
330
11F1
100
AcDbEntity
  8
치수문자_일반주서
 62
     0
100
AcDbTrace
 10
204.5177618501279
 20
3.763726545264332
 30
0.0
 11
205.6184285167945
 21
3.763726545264332
 31
0.0
 12
205.0680951834612
 22
0.4617265452643317
 32
0.0
 13
205.0680951834612
 23
0.4617265452643317
 33
0.0
  0
MTEXT
  5
11FA
330
11F1
100
AcDbEntity
  8
치수문자_일반주서
 62
     0
100
AcDbMText
 10
200.6930951834612
 20
-0.1382734547357954
 30
0.0
 40
3.5
 41
0.0
 71
     2
 72
     1
  1
\A1;%%c1.2
  7
SLDTEXTSTYLE0
 11
0.0
 21
1.0
 31
0.0
 73
     1
 44
1.0
  0
POINT
  5
11FB
330
11F1
100
AcDbEntity
  8
Defpoints
 62
     0
100
AcDbPoint
 10
178.9500786381383
 20
-0.7382734547357757
 30
0.0
  0
POINT
  5
11FC
330
11F1
100
AcDbEntity
  8
Defpoints
 62
     0
100
AcDbPoint
 10
178.9500786381383
 20
0.4617265452642343
 30
0.0
  0
POINT
  5
11FD
330
11F1
100
AcDbEntity
  8
Defpoints
 62
     0
100
AcDbPoint
 10
205.0680951834612
 20
0.4617265452643319
 30
0.0
  0
ENDBLK
  5
11F3
330
11F1
100
AcDbEntity
  8
0
100
AcDbBlockEnd
  0
BLOCK
  5
11FF
330
11FE
100
AcDbEntity
  8
0
100
AcDbBlockBegin
  2
*D110
 70
     1
 10
0.0
 20
0.0
 30
0.0
  3
*D110
  1

  0
LINE
  5
1201
330
11FE
100
AcDbEntity
  8
치수문자_일반주서
 62
     0
370
    -2
100
AcDbLine
 10
93.98558500195414
 20
2.424226545264233
 30
0.0
 11
93.98558500195414
 21
30.86172654526425
 31
0.0
  0
LINE
  5
1202
330
11FE
100
AcDbEntity
  8
치수문자_일반주서
 62
     0
370
    -2
100
AcDbLine
 10
183.9855850019541
 20
1.219234474457622
 30
0.0
 11
183.9855850019541
 21
30.86172654526425
 31
0.0
  0
LINE
  5
1203
330
11FE
100
AcDbEntity
  8
치수문자_일반주서
 62
     0
370
    -2
100
AcDbLine
 10
97.28758500195414
 20
30.86172654526425
 30
0.0
 11
180.6835850019541
 21
30.86172654526425
 31
0.0
  0
SOLID
  5
1204
330
11FE
100
AcDbEntity
  8
치수문자_일반주서
 62
     0
100
AcDbTrace
 10
97.28758500195414
 20
31.41205987859759
 30
0.0
 11
97.28758500195414
 21
30.31139321193092
 31
0.0
 12
93.98558500195414
 22
30.86172654526425
 32
0.0
 13
93.98558500195414
 23
30.86172654526425
 33
0.0
  0
SOLID
  5
1205
330
11FE
100
AcDbEntity
  8
치수문자_일반주서
 62
     0
100
AcDbTrace
 10
180.6835850019541
 20
30.31139321193092
 30
0.0
 11
180.6835850019541
 21
31.41205987859759
 31
0.0
 12
183.9855850019541
 22
30.86172654526425
 32
0.0
 13
183.9855850019541
 23
30.86172654526425
 33
0.0
  0
MTEXT
  5
1206
330
11FE
100
AcDbEntity
  8
치수문자_일반주서
 62
     0
100
AcDbMText
 10
138.9855850019541
 20
35.23672654526425
 30
0.0
 40
3.5
 41
0.0
 71
     2
 72
     1
  1
\A1;90
  7
SLDTEXTSTYLE0
 73
     1
 44
1.0
  0
POINT
  5
1207
330
11FE
100
AcDbEntity
  8
Defpoints
 62
     0
100
AcDbPoint
 10
93.98558500195414
 20
2.361726545264233
 30
0.0
  0
POINT
  5
1208
330
11FE
100
AcDbEntity
  8
Defpoints
 62
     0
100
AcDbPoint
 10
183.9855850019541
 20
1.156734474457622
 30
0.0
  0
POINT
  5
1209
330
11FE
100
AcDbEntity
  8
Defpoints
 62
     0
100
AcDbPoint
 10
183.9855850019541
 20
30.86172654526425
 30
0.0
  0
ENDBLK
  5
1200
330
11FE
100
AcDbEntity
  8
0
100
AcDbBlockEnd
  0
BLOCK
  5
120B
330
120A
100
AcDbEntity
  8
0
100
AcDbBlockBegin
  2
*D111
 70
     1
 10
0.0
 20
0.0
 30
0.0
  3
*D111
  1

  0
LINE
  5
120D
330
120A
100
AcDbEntity
  8
치수문자_일반주서
 62
     0
370
    -2
100
AcDbLine
 10
94.42308500195414
 20
2.861726545264232
 30
0.0
 11
81.98912698034206
 21
2.861726545264185
 31
0.0
  0
LINE
  5
120E
330
120A
100
AcDbEntity
  8
치수문자_일반주서
 62
     0
370
    -2
100
AcDbLine
 10
94.42308500195414
 20
-3.13827345473576
 30
0.0
 11
81.98912698034208
 21
-3.138273454735808
 31
0.0
  0
LINE
  5
120F
330
120A
100
AcDbEntity
  8
치수문자_일반주서
 62
     0
370
    -2
100
AcDbLine
 10
81.98912698034208
 20
-0.4402734547358147
 30
0.0
 11
81.98912698034206
 21
0.1637265452641925
 31
0.0
  0
SOLID
  5
1210
330
120A
100
AcDbEntity
  8
치수문자_일반주서
 62
     0
100
AcDbTrace
 10
82.5394603136754
 20
-0.4402734547358134
 30
0.0
 11
81.43879364700875
 21
-0.440273454735816
 31
0.0
 12
81.98912698034206
 22
2.861726545264185
 32
0.0
 13
81.98912698034206
 23
2.861726545264185
 33
0.0
  0
SOLID
  5
1211
330
120A
100
AcDbEntity
  8
치수문자_일반주서
 62
     0
100
AcDbTrace
 10
81.43879364700874
 20
0.1637265452641912
 30
0.0
 11
82.53946031367539
 21
0.1637265452641938
 31
0.0
 12
81.98912698034208
 22
-3.138273454735808
 32
0.0
 13
81.98912698034208
 23
-3.138273454735808
 33
0.0
  0
MTEXT
  5
1212
330
120A
100
AcDbEntity
  8
치수문자_일반주서
 62
     0
100
AcDbMText
 10
77.61412698034206
 20
-0.1382734547357775
 30
0.0
 40
3.5
 41
0.0
 71
     2
 72
     1
  1
\A1;%%c6
  7
SLDTEXTSTYLE0
 11
-2.368475785867004E-15
 21
1.0
 31
0.0
 73
     1
 44
1.0
  0
POINT
  5
1213
330
120A
100
AcDbEntity
  8
Defpoints
 62
     0
100
AcDbPoint
 10
94.48558500195414
 20
2.861726545264233
 30
0.0
  0
POINT
  5
1214
330
120A
100
AcDbEntity
  8
Defpoints
 62
     0
100
AcDbPoint
 10
94.48558500195414
 20
-3.13827345473576
 30
0.0
  0
POINT
  5
1215
330
120A
100
AcDbEntity
  8
Defpoints
 62
     0
100
AcDbPoint
 10
81.98912698034208
 20
-3.138273454735807
 30
0.0
  0
ENDBLK
  5
120C
330
120A
100
AcDbEntity
  8
0
100
AcDbBlockEnd
  0
BLOCK
  5
1217
330
1216
100
AcDbEntity
  8
0
100
AcDbBlockBegin
  2
*D112
 70
     1
 10
0.0
 20
0.0
 30
0.0
  3
*D112
  1

  0
LINE
  5
1219
330
1216
100
AcDbEntity
  8
치수문자_일반주서
 62
     0
370
    -2
100
AcDbLine
 10
177.9855850019541
 20
1.543523118659948
 30
0.0
 11
177.9855850019541
 21
16.30343571693169
 31
0.0
  0
LINE
  5
121A
330
1216
100
AcDbEntity
  8
치수문자_일반주서
 62
     0
370
    -2
100
AcDbLine
 10
183.9855850019541
 20
1.219234474457622
 30
0.0
 11
183.9855850019541
 21
16.30343571693169
 31
0.0
  0
LINE
  5
121B
330
1216
100
AcDbEntity
  8
치수문자_일반주서
 62
     0
370
    -2
100
AcDbLine
 10
181.2875850019541
 20
16.30343571693169
 30
0.0
 11
180.6835850019541
 21
16.30343571693169
 31
0.0
  0
SOLID
  5
121C
330
1216
100
AcDbEntity
  8
치수문자_일반주서
 62
     0
100
AcDbTrace
 10
181.2875850019541
 20
16.85376905026503
 30
0.0
 11
181.2875850019541
 21
15.75310238359836
 31
0.0
 12
177.9855850019541
 22
16.30343571693169
 32
0.0
 13
177.9855850019541
 23
16.30343571693169
 33
0.0
  0
SOLID
  5
121D
330
1216
100
AcDbEntity
  8
치수문자_일반주서
 62
     0
100
AcDbTrace
 10
180.6835850019541
 20
15.75310238359836
 30
0.0
 11
180.6835850019541
 21
16.85376905026503
 31
0.0
 12
183.9855850019541
 22
16.30343571693169
 32
0.0
 13
183.9855850019541
 23
16.30343571693169
 33
0.0
  0
MTEXT
  5
121E
330
1216
100
AcDbEntity
  8
치수문자_일반주서
 62
     0
100
AcDbMText
 10
180.9855850019541
 20
20.67843571693169
 30
0.0
 40
3.5
 41
0.0
 71
     2
 72
     1
  1
\A1;6
  7
SLDTEXTSTYLE0
 73
     1
 44
1.0
  0
POINT
  5
121F
330
1216
100
AcDbEntity
  8
Defpoints
 62
     0
100
AcDbPoint
 10
177.9855850019541
 20
1.481023118659948
 30
0.0
  0
POINT
  5
1220
330
1216
100
AcDbEntity
  8
Defpoints
 62
     0
100
AcDbPoint
 10
183.9855850019541
 20
1.156734474457622
 30
0.0
  0
POINT
  5
1221
330
1216
100
AcDbEntity
  8
Defpoints
 62
     0
100
AcDbPoint
 10
183.9855850019541
 20
16.30343571693169
 30
0.0
  0
ENDBLK
  5
1218
330
1216
100
AcDbEntity
  8
0
100
AcDbBlockEnd
  0
BLOCK
  5
1223
330
1222
100
AcDbEntity
  8
0
100
AcDbBlockBegin
  2
*D113
 70
     1
 10
0.0
 20
0.0
 30
0.0
  3
*D113
  1

  0
LINE
  5
1225
330
1222
100
AcDbEntity
  8
치수문자_일반주서
 62
     0
370
    -2
100
AcDbLine
 10
183.9855850019541
 20
1.819485677056875
 30
0.0
 11
183.9855850019541
 21
25.20866094675075
 31
0.0
  0
LINE
  5
1226
330
1222
100
AcDbEntity
  8
치수문자_일반주서
 62
     0
370
    -2
100
AcDbLine
 10
138.9855849982515
 20
1.84922654526423
 30
0.0
 11
138.9855849982515
 21
25.20866094675075
 31
0.0
  0
LINE
  5
1227
330
1222
100
AcDbEntity
  8
치수문자_일반주서
 62
     0
370
    -2
100
AcDbLine
 10
180.6835850019541
 20
25.20866094675075
 30
0.0
 11
142.2875849982515
 21
25.20866094675075
 31
0.0
  0
SOLID
  5
1228
330
1222
100
AcDbEntity
  8
치수문자_일반주서
 62
     0
100
AcDbTrace
 10
180.6835850019541
 20
24.65832761341741
 30
0.0
 11
180.6835850019541
 21
25.75899428008408
 31
0.0
 12
183.9855850019541
 22
25.20866094675075
 32
0.0
 13
183.9855850019541
 23
25.20866094675075
 33
0.0
  0
SOLID
  5
1229
330
1222
100
AcDbEntity
  8
치수문자_일반주서
 62
     0
100
AcDbTrace
 10
142.2875849982515
 20
25.75899428008408
 30
0.0
 11
142.2875849982515
 21
24.65832761341741
 31
0.0
 12
138.9855849982515
 22
25.20866094675075
 32
0.0
 13
138.9855849982515
 23
25.20866094675075
 33
0.0
  0
MTEXT
  5
122A
330
1222
100
AcDbEntity
  8
치수문자_일반주서
 62
     0
100
AcDbMText
 10
161.4855850001028
 20
29.58366094675075
 30
0.0
 40
3.5
 41
0.0
 71
     2
 72
     1
  1
\A1;45
  7
SLDTEXTSTYLE0
 73
     1
 44
1.0
  0
POINT
  5
122B
330
1222
100
AcDbEntity
  8
Defpoints
 62
     0
100
AcDbPoint
 10
183.9855850019541
 20
1.756985677056875
 30
0.0
  0
POINT
  5
122C
330
1222
100
AcDbEntity
  8
Defpoints
 62
     0
100
AcDbPoint
 10
138.9855849982515
 20
1.78672654526423
 30
0.0
  0
POINT
  5
122D
330
1222
100
AcDbEntity
  8
Defpoints
 62
     0
100
AcDbPoint
 10
138.9855849982515
 20
25.20866094675075
 30
0.0
  0
ENDBLK
  5
1224
330
1222
100
AcDbEntity
  8
0
100
AcDbBlockEnd
  0
BLOCK
  5
1306
330
1305
100
AcDbEntity
  8
0
100
AcDbBlockBegin
  2
*D115
 70
     1
 10
0.0
 20
0.0
 30
0.0
  3
*D115
  1

  0
LINE
  5
1308
330
1305
100
AcDbEntity
  8
치수문자_일반주서
 62
     0
370
    -2
100
AcDbLine
 10
111.588660923658
 20
49.37180738881174
 30
0.0
 11
137.6441774689809
 21
49.37180738881184
 31
0.0
  0
LINE
  5
1309
330
1305
100
AcDbEntity
  8
치수문자_일반주서
 62
     0
370
    -2
100
AcDbLine
 10
111.588660923658
 20
50.57180738881175
 30
0.0
 11
137.6441774689809
 21
50.57180738881185
 31
0.0
  0
LINE
  5
130A
330
1305
100
AcDbEntity
  8
치수문자_일반주서
 62
     0
370
    -2
100
AcDbLine
 10
137.6441774689809
 20
46.06980738881184
 30
0.0
 11
137.6441774689809
 21
42.76780738881184
 31
0.0
  0
LINE
  5
130B
330
1305
100
AcDbEntity
  8
치수문자_일반주서
 62
     0
370
    -2
100
AcDbLine
 10
137.6441774689809
 20
53.87380738881185
 30
0.0
 11
137.6441774689809
 21
57.17580738881185
 31
0.0
  0
SOLID
  5
130C
330
1305
100
AcDbEntity
  8
치수문자_일반주서
 62
     0
100
AcDbTrace
 10
138.1945108023142
 20
46.06980738881184
 30
0.0
 11
137.0938441356476
 21
46.06980738881184
 31
0.0
 12
137.6441774689809
 22
49.37180738881184
 32
0.0
 13
137.6441774689809
 23
49.37180738881184
 33
0.0
  0
SOLID
  5
130D
330
1305
100
AcDbEntity
  8
치수문자_일반주서
 62
     0
100
AcDbTrace
 10
137.0938441356476
 20
53.87380738881185
 30
0.0
 11
138.1945108023142
 21
53.87380738881185
 31
0.0
 12
137.6441774689809
 22
50.57180738881185
 32
0.0
 13
137.6441774689809
 23
50.57180738881185
 33
0.0
  0
MTEXT
  5
130E
330
1305
100
AcDbEntity
  8
치수문자_일반주서
 62
     0
100
AcDbMText
 10
133.2691774689809
 20
49.97180738881172
 30
0.0
 40
3.5
 41
0.0
 71
     2
 72
     1
  1
\A1;%%c1.2
  7
SLDTEXTSTYLE0
 11
0.0
 21
1.0
 31
0.0
 73
     1
 44
1.0
  0
POINT
  5
130F
330
1305
100
AcDbEntity
  8
Defpoints
 62
     0
100
AcDbPoint
 10
111.526160923658
 20
49.37180738881174
 30
0.0
  0
POINT
  5
1310
330
1305
100
AcDbEntity
  8
Defpoints
 62
     0
100
AcDbPoint
 10
111.526160923658
 20
50.57180738881175
 30
0.0
  0
POINT
  5
1311
330
1305
100
AcDbEntity
  8
Defpoints
 62
     0
100
AcDbPoint
 10
137.6441774689809
 20
50.57180738881185
 30
0.0
  0
ENDBLK
  5
1307
330
1305
100
AcDbEntity
  8
0
100
AcDbBlockEnd
  0
BLOCK
  5
1313
330
1312
100
AcDbEntity
  8
0
100
AcDbBlockBegin
  2
*D116
 70
     1
 10
0.0
 20
0.0
 30
0.0
  3
*D116
  1

  0
LINE
  5
1315
330
1312
100
AcDbEntity
  8
치수문자_일반주서
 62
     0
370
    -2
100
AcDbLine
 10
16.56166728747382
 20
52.53430738881175
 30
0.0
 11
16.56166728747382
 21
80.97180738881175
 31
0.0
  0
LINE
  5
1316
330
1312
100
AcDbEntity
  8
치수문자_일반주서
 62
     0
370
    -2
100
AcDbLine
 10
116.5616672874738
 20
51.32931531800514
 30
0.0
 11
116.5616672874738
 21
80.97180738881175
 31
0.0
  0
LINE
  5
1317
330
1312
100
AcDbEntity
  8
치수문자_일반주서
 62
     0
370
    -2
100
AcDbLine
 10
19.86366728747382
 20
80.97180738881175
 30
0.0
 11
113.2596672874738
 21
80.97180738881175
 31
0.0
  0
SOLID
  5
1318
330
1312
100
AcDbEntity
  8
치수문자_일반주서
 62
     0
100
AcDbTrace
 10
19.86366728747382
 20
81.52214072214508
 30
0.0
 11
19.86366728747382
 21
80.42147405547843
 31
0.0
 12
16.56166728747382
 22
80.97180738881175
 32
0.0
 13
16.56166728747382
 23
80.97180738881175
 33
0.0
  0
SOLID
  5
1319
330
1312
100
AcDbEntity
  8
치수문자_일반주서
 62
     0
100
AcDbTrace
 10
113.2596672874738
 20
80.42147405547843
 30
0.0
 11
113.2596672874738
 21
81.52214072214508
 31
0.0
 12
116.5616672874738
 22
80.97180738881175
 32
0.0
 13
116.5616672874738
 23
80.97180738881175
 33
0.0
  0
MTEXT
  5
131A
330
1312
100
AcDbEntity
  8
치수문자_일반주서
 62
     0
100
AcDbMText
 10
66.56166728747384
 20
85.34680738881175
 30
0.0
 40
3.5
 41
0.0
 71
     2
 72
     1
  1
\A1;100
  7
SLDTEXTSTYLE0
 73
     1
 44
1.0
  0
POINT
  5
131B
330
1312
100
AcDbEntity
  8
Defpoints
 62
     0
100
AcDbPoint
 10
16.56166728747382
 20
52.47180738881175
 30
0.0
  0
POINT
  5
131C
330
1312
100
AcDbEntity
  8
Defpoints
 62
     0
100
AcDbPoint
 10
116.5616672874738
 20
51.26681531800514
 30
0.0
  0
POINT
  5
131D
330
1312
100
AcDbEntity
  8
Defpoints
 62
     0
100
AcDbPoint
 10
116.5616672874738
 20
80.97180738881175
 30
0.0
  0
ENDBLK
  5
1314
330
1312
100
AcDbEntity
  8
0
100
AcDbBlockEnd
  0
BLOCK
  5
131F
330
131E
100
AcDbEntity
  8
0
100
AcDbBlockBegin
  2
*D117
 70
     1
 10
0.0
 20
0.0
 30
0.0
  3
*D117
  1

  0
LINE
  5
1321
330
131E
100
AcDbEntity
  8
치수문자_일반주서
 62
     0
370
    -2
100
AcDbLine
 10
16.99916728747382
 20
52.97180738881175
 30
0.0
 11
4.565209265861757
 21
52.9718073888117
 31
0.0
  0
LINE
  5
1322
330
131E
100
AcDbEntity
  8
치수문자_일반주서
 62
     0
370
    -2
100
AcDbLine
 10
16.99916728747382
 20
46.97180738881175
 30
0.0
 11
4.565209265861778
 21
46.9718073888117
 31
0.0
  0
LINE
  5
1323
330
131E
100
AcDbEntity
  8
치수문자_일반주서
 62
     0
370
    -2
100
AcDbLine
 10
4.565209265861768
 20
49.6698073888117
 30
0.0
 11
4.565209265861767
 21
50.2738073888117
 31
0.0
  0
SOLID
  5
1324
330
131E
100
AcDbEntity
  8
치수문자_일반주서
 62
     0
100
AcDbTrace
 10
5.115542599195102
 20
49.6698073888117
 30
0.0
 11
4.014875932528435
 21
49.6698073888117
 31
0.0
 12
4.565209265861757
 22
52.9718073888117
 32
0.0
 13
4.565209265861757
 23
52.9718073888117
 33
0.0
  0
SOLID
  5
1325
330
131E
100
AcDbEntity
  8
치수문자_일반주서
 62
     0
100
AcDbTrace
 10
4.014875932528433
 20
50.2738073888117
 30
0.0
 11
5.1155425991951
 21
50.2738073888117
 31
0.0
 12
4.565209265861778
 22
46.9718073888117
 32
0.0
 13
4.565209265861778
 23
46.9718073888117
 33
0.0
  0
MTEXT
  5
1326
330
131E
100
AcDbEntity
  8
치수문자_일반주서
 62
     0
100
AcDbMText
 10
0.1902092658617676
 20
49.97180738881173
 30
0.0
 40
3.5
 41
0.0
 71
     2
 72
     1
  1
\A1;%%c6
  7
SLDTEXTSTYLE0
 11
-3.552713678800505E-15
 21
1.0
 31
0.0
 73
     1
 44
1.0
  0
POINT
  5
1327
330
131E
100
AcDbEntity
  8
Defpoints
 62
     0
100
AcDbPoint
 10
17.06166728747382
 20
52.97180738881175
 30
0.0
  0
POINT
  5
1328
330
131E
100
AcDbEntity
  8
Defpoints
 62
     0
100
AcDbPoint
 10
17.06166728747382
 20
46.97180738881175
 30
0.0
  0
POINT
  5
1329
330
131E
100
AcDbEntity
  8
Defpoints
 62
     0
100
AcDbPoint
 10
4.565209265861768
 20
46.9718073888117
 30
0.0
  0
ENDBLK
  5
1320
330
131E
100
AcDbEntity
  8
0
100
AcDbBlockEnd
  0
BLOCK
  5
132B
330
132A
100
AcDbEntity
  8
0
100
AcDbBlockBegin
  2
*D118
 70
     1
 10
0.0
 20
0.0
 30
0.0
  3
*D118
  1

  0
LINE
  5
132D
330
132A
100
AcDbEntity
  8
치수문자_일반주서
 62
     0
370
    -2
100
AcDbLine
 10
110.5616672874738
 20
51.65360396220746
 30
0.0
 11
110.5616672874738
 21
66.41351656047921
 31
0.0
  0
LINE
  5
132E
330
132A
100
AcDbEntity
  8
치수문자_일반주서
 62
     0
370
    -2
100
AcDbLine
 10
116.5616672874738
 20
51.32931531800514
 30
0.0
 11
116.5616672874738
 21
66.41351656047921
 31
0.0
  0
LINE
  5
132F
330
132A
100
AcDbEntity
  8
치수문자_일반주서
 62
     0
370
    -2
100
AcDbLine
 10
113.8636672874738
 20
66.41351656047921
 30
0.0
 11
113.2596672874738
 21
66.41351656047921
 31
0.0
  0
SOLID
  5
1330
330
132A
100
AcDbEntity
  8
치수문자_일반주서
 62
     0
100
AcDbTrace
 10
113.8636672874738
 20
66.96384989381254
 30
0.0
 11
113.8636672874738
 21
65.86318322714588
 31
0.0
 12
110.5616672874738
 22
66.41351656047921
 32
0.0
 13
110.5616672874738
 23
66.41351656047921
 33
0.0
  0
SOLID
  5
1331
330
132A
100
AcDbEntity
  8
치수문자_일반주서
 62
     0
100
AcDbTrace
 10
113.2596672874738
 20
65.86318322714588
 30
0.0
 11
113.2596672874738
 21
66.96384989381254
 31
0.0
 12
116.5616672874738
 22
66.41351656047921
 32
0.0
 13
116.5616672874738
 23
66.41351656047921
 33
0.0
  0
MTEXT
  5
1332
330
132A
100
AcDbEntity
  8
치수문자_일반주서
 62
     0
100
AcDbMText
 10
113.5616672874738
 20
70.78851656047921
 30
0.0
 40
3.5
 41
0.0
 71
     2
 72
     1
  1
\A1;6
  7
SLDTEXTSTYLE0
 73
     1
 44
1.0
  0
POINT
  5
1333
330
132A
100
AcDbEntity
  8
Defpoints
 62
     0
100
AcDbPoint
 10
110.5616672874738
 20
51.59110396220746
 30
0.0
  0
POINT
  5
1334
330
132A
100
AcDbEntity
  8
Defpoints
 62
     0
100
AcDbPoint
 10
116.5616672874738
 20
51.26681531800514
 30
0.0
  0
POINT
  5
1335
330
132A
100
AcDbEntity
  8
Defpoints
 62
     0
100
AcDbPoint
 10
116.5616672874738
 20
66.41351656047921
 30
0.0
  0
ENDBLK
  5
132C
330
132A
100
AcDbEntity
  8
0
100
AcDbBlockEnd
  0
BLOCK
  5
1337
330
1336
100
AcDbEntity
  8
0
100
AcDbBlockBegin
  2
*D119
 70
     1
 10
0.0
 20
0.0
 30
0.0
  3
*D119
  1

  0
LINE
  5
1339
330
1336
100
AcDbEntity
  8
치수문자_일반주서
 62
     0
370
    -2
100
AcDbLine
 10
116.5616672874738
 20
51.92956652060439
 30
0.0
 11
116.5616672874738
 21
75.31874179029826
 31
0.0
  0
LINE
  5
133A
330
1336
100
AcDbEntity
  8
치수문자_일반주서
 62
     0
370
    -2
100
AcDbLine
 10
66.56166728355147
 20
51.95930738881175
 30
0.0
 11
66.56166728355147
 21
75.31874179029826
 31
0.0
  0
LINE
  5
133B
330
1336
100
AcDbEntity
  8
치수문자_일반주서
 62
     0
370
    -2
100
AcDbLine
 10
113.2596672874738
 20
75.31874179029826
 30
0.0
 11
69.86366728355148
 21
75.31874179029826
 31
0.0
  0
SOLID
  5
133C
330
1336
100
AcDbEntity
  8
치수문자_일반주서
 62
     0
100
AcDbTrace
 10
113.2596672874738
 20
74.76840845696493
 30
0.0
 11
113.2596672874738
 21
75.86907512363159
 31
0.0
 12
116.5616672874738
 22
75.31874179029826
 32
0.0
 13
116.5616672874738
 23
75.31874179029826
 33
0.0
  0
SOLID
  5
133D
330
1336
100
AcDbEntity
  8
치수문자_일반주서
 62
     0
100
AcDbTrace
 10
69.86366728355148
 20
75.86907512363159
 30
0.0
 11
69.86366728355148
 21
74.76840845696493
 31
0.0
 12
66.56166728355147
 22
75.31874179029826
 32
0.0
 13
66.56166728355147
 23
75.31874179029826
 33
0.0
  0
MTEXT
  5
133E
330
1336
100
AcDbEntity
  8
치수문자_일반주서
 62
     0
100
AcDbMText
 10
91.56166728551266
 20
79.69374179029826
 30
0.0
 40
3.5
 41
0.0
 71
     2
 72
     1
  1
\A1;50
  7
SLDTEXTSTYLE0
 73
     1
 44
1.0
  0
POINT
  5
133F
330
1336
100
AcDbEntity
  8
Defpoints
 62
     0
100
AcDbPoint
 10
116.5616672874738
 20
51.86706652060439
 30
0.0
  0
POINT
  5
1340
330
1336
100
AcDbEntity
  8
Defpoints
 62
     0
100
AcDbPoint
 10
66.56166728355147
 20
51.89680738881175
 30
0.0
  0
POINT
  5
1341
330
1336
100
AcDbEntity
  8
Defpoints
 62
     0
100
AcDbPoint
 10
66.56166728355147
 20
75.31874179029826
 30
0.0
  0
ENDBLK
  5
1338
330
1336
100
AcDbEntity
  8
0
100
AcDbBlockEnd
  0
BLOCK
  5
1393
330
1392
100
AcDbEntity
  8
0
100
AcDbBlockBegin
  2
*D120
 70
     1
 10
0.0
 20
0.0
 30
0.0
  3
*D120
  1

  0
LINE
  5
1395
330
1392
100
AcDbEntity
  8
치수문자_일반주서
 62
     0
370
    -2
100
AcDbLine
 10
189.1879030036081
 20
0.2019860374673714
 30
0.0
 11
215.243419548931
 21
0.2019860374674687
 31
0.0
  0
LINE
  5
1396
330
1392
100
AcDbEntity
  8
치수문자_일반주서
 62
     0
370
    -2
100
AcDbLine
 10
189.1879030036081
 20
1.401986037467381
 30
0.0
 11
215.243419548931
 21
1.401986037467479
 31
0.0
  0
LINE
  5
1397
330
1392
100
AcDbEntity
  8
치수문자_일반주서
 62
     0
370
    -2
100
AcDbLine
 10
215.243419548931
 20
-3.100013962532532
 30
0.0
 11
215.243419548931
 21
-6.402013962532532
 31
0.0
  0
LINE
  5
1398
330
1392
100
AcDbEntity
  8
치수문자_일반주서
 62
     0
370
    -2
100
AcDbLine
 10
215.243419548931
 20
4.703986037467478
 30
0.0
 11
215.243419548931
 21
8.005986037467478
 31
0.0
  0
SOLID
  5
1399
330
1392
100
AcDbEntity
  8
치수문자_일반주서
 62
     0
100
AcDbTrace
 10
215.7937528822643
 20
-3.100013962532532
 30
0.0
 11
214.6930862155976
 21
-3.100013962532532
 31
0.0
 12
215.243419548931
 22
0.2019860374674687
 32
0.0
 13
215.243419548931
 23
0.2019860374674687
 33
0.0
  0
SOLID
  5
139A
330
1392
100
AcDbEntity
  8
치수문자_일반주서
 62
     0
100
AcDbTrace
 10
214.6930862155976
 20
4.703986037467478
 30
0.0
 11
215.7937528822643
 21
4.703986037467478
 31
0.0
 12
215.243419548931
 22
1.401986037467479
 32
0.0
 13
215.243419548931
 23
1.401986037467479
 33
0.0
  0
MTEXT
  5
139B
330
1392
100
AcDbEntity
  8
치수문자_일반주서
 62
     0
100
AcDbMText
 10
210.868419548931
 20
0.8019860374673514
 30
0.0
 40
3.5
 41
0.0
 71
     2
 72
     1
  1
\A1;%%c1.2
  7
SLDTEXTSTYLE0
 11
0.0
 21
1.0
 31
0.0
 73
     1
 44
1.0
  0
POINT
  5
139C
330
1392
100
AcDbEntity
  8
Defpoints
 62
     0
100
AcDbPoint
 10
189.1254030036081
 20
0.2019860374673712
 30
0.0
  0
POINT
  5
139D
330
1392
100
AcDbEntity
  8
Defpoints
 62
     0
100
AcDbPoint
 10
189.1254030036081
 20
1.401986037467381
 30
0.0
  0
POINT
  5
139E
330
1392
100
AcDbEntity
  8
Defpoints
 62
     0
100
AcDbPoint
 10
215.243419548931
 20
1.401986037467479
 30
0.0
  0
ENDBLK
  5
1394
330
1392
100
AcDbEntity
  8
0
100
AcDbBlockEnd
  0
BLOCK
  5
13A0
330
139F
100
AcDbEntity
  8
0
100
AcDbBlockBegin
  2
*D121
 70
     1
 10
0.0
 20
0.0
 30
0.0
  3
*D121
  1

  0
LINE
  5
13A2
330
139F
100
AcDbEntity
  8
치수문자_일반주서
 62
     0
370
    -2
100
AcDbLine
 10
94.1609093674239
 20
3.36448603746738
 30
0.0
 11
94.1609093674239
 21
31.80198603746739
 31
0.0
  0
LINE
  5
13A3
330
139F
100
AcDbEntity
  8
치수문자_일반주서
 62
     0
370
    -2
100
AcDbLine
 10
194.1609093674239
 20
2.159493966660769
 30
0.0
 11
194.1609093674239
 21
31.80198603746739
 31
0.0
  0
LINE
  5
13A4
330
139F
100
AcDbEntity
  8
치수문자_일반주서
 62
     0
370
    -2
100
AcDbLine
 10
97.4629093674239
 20
31.80198603746739
 30
0.0
 11
190.8589093674239
 21
31.80198603746739
 31
0.0
  0
SOLID
  5
13A5
330
139F
100
AcDbEntity
  8
치수문자_일반주서
 62
     0
100
AcDbTrace
 10
97.4629093674239
 20
32.35231937080072
 30
0.0
 11
97.4629093674239
 21
31.25165270413405
 31
0.0
 12
94.1609093674239
 22
31.80198603746739
 32
0.0
 13
94.1609093674239
 23
31.80198603746739
 33
0.0
  0
SOLID
  5
13A6
330
139F
100
AcDbEntity
  8
치수문자_일반주서
 62
     0
100
AcDbTrace
 10
190.8589093674239
 20
31.25165270413405
 30
0.0
 11
190.8589093674239
 21
32.35231937080072
 31
0.0
 12
194.1609093674239
 22
31.80198603746739
 32
0.0
 13
194.1609093674239
 23
31.80198603746739
 33
0.0
  0
MTEXT
  5
13A7
330
139F
100
AcDbEntity
  8
치수문자_일반주서
 62
     0
100
AcDbMText
 10
144.1609093674239
 20
36.17698603746739
 30
0.0
 40
3.5
 41
0.0
 71
     2
 72
     1
  1
\A1;100
  7
SLDTEXTSTYLE0
 73
     1
 44
1.0
  0
POINT
  5
13A8
330
139F
100
AcDbEntity
  8
Defpoints
 62
     0
100
AcDbPoint
 10
94.1609093674239
 20
3.30198603746738
 30
0.0
  0
POINT
  5
13A9
330
139F
100
AcDbEntity
  8
Defpoints
 62
     0
100
AcDbPoint
 10
194.1609093674239
 20
2.096993966660769
 30
0.0
  0
POINT
  5
13AA
330
139F
100
AcDbEntity
  8
Defpoints
 62
     0
100
AcDbPoint
 10
194.1609093674239
 20
31.80198603746739
 30
0.0
  0
ENDBLK
  5
13A1
330
139F
100
AcDbEntity
  8
0
100
AcDbBlockEnd
  0
BLOCK
  5
13AC
330
13AB
100
AcDbEntity
  8
0
100
AcDbBlockBegin
  2
*D122
 70
     1
 10
0.0
 20
0.0
 30
0.0
  3
*D122
  1

  0
LINE
  5
13AE
330
13AB
100
AcDbEntity
  8
치수문자_일반주서
 62
     0
370
    -2
100
AcDbLine
 10
94.5984093674239
 20
3.801986037467379
 30
0.0
 11
82.16445134581184
 21
3.801986037467332
 31
0.0
  0
LINE
  5
13AF
330
13AB
100
AcDbEntity
  8
치수문자_일반주서
 62
     0
370
    -2
100
AcDbLine
 10
94.5984093674239
 20
-2.198013962532614
 30
0.0
 11
82.16445134581186
 21
-2.198013962532661
 31
0.0
  0
LINE
  5
13B0
330
13AB
100
AcDbEntity
  8
치수문자_일반주서
 62
     0
370
    -2
100
AcDbLine
 10
82.16445134581186
 20
0.4999860374673322
 30
0.0
 11
82.16445134581184
 21
1.103986037467339
 31
0.0
  0
SOLID
  5
13B1
330
13AB
100
AcDbEntity
  8
치수문자_일반주서
 62
     0
100
AcDbTrace
 10
82.71478467914518
 20
0.4999860374673334
 30
0.0
 11
81.61411801247853
 21
0.4999860374673309
 31
0.0
 12
82.16445134581184
 22
3.801986037467332
 32
0.0
 13
82.16445134581184
 23
3.801986037467332
 33
0.0
  0
SOLID
  5
13B2
330
13AB
100
AcDbEntity
  8
치수문자_일반주서
 62
     0
100
AcDbTrace
 10
81.61411801247851
 20
1.103986037467338
 30
0.0
 11
82.71478467914517
 21
1.103986037467341
 31
0.0
 12
82.16445134581186
 22
-2.198013962532661
 32
0.0
 13
82.16445134581186
 23
-2.198013962532661
 33
0.0
  0
MTEXT
  5
13B3
330
13AB
100
AcDbEntity
  8
치수문자_일반주서
 62
     0
100
AcDbMText
 10
77.78945134581184
 20
0.8019860374673693
 30
0.0
 40
3.5
 41
0.0
 71
     2
 72
     1
  1
\A1;%%c6
  7
SLDTEXTSTYLE0
 11
-2.368475785867004E-15
 21
1.0
 31
0.0
 73
     1
 44
1.0
  0
POINT
  5
13B4
330
13AB
100
AcDbEntity
  8
Defpoints
 62
     0
100
AcDbPoint
 10
94.6609093674239
 20
3.80198603746738
 30
0.0
  0
POINT
  5
13B5
330
13AB
100
AcDbEntity
  8
Defpoints
 62
     0
100
AcDbPoint
 10
94.6609093674239
 20
-2.198013962532613
 30
0.0
  0
POINT
  5
13B6
330
13AB
100
AcDbEntity
  8
Defpoints
 62
     0
100
AcDbPoint
 10
82.16445134581186
 20
-2.19801396253266
 30
0.0
  0
ENDBLK
  5
13AD
330
13AB
100
AcDbEntity
  8
0
100
AcDbBlockEnd
  0
BLOCK
  5
13B8
330
13B7
100
AcDbEntity
  8
0
100
AcDbBlockBegin
  2
*D123
 70
     1
 10
0.0
 20
0.0
 30
0.0
  3
*D123
  1

  0
LINE
  5
13BA
330
13B7
100
AcDbEntity
  8
치수문자_일반주서
 62
     0
370
    -2
100
AcDbLine
 10
188.1609093674239
 20
2.483782610863095
 30
0.0
 11
188.1609093674239
 21
17.24369520913484
 31
0.0
  0
LINE
  5
13BB
330
13B7
100
AcDbEntity
  8
치수문자_일반주서
 62
     0
370
    -2
100
AcDbLine
 10
194.1609093674239
 20
2.159493966660769
 30
0.0
 11
194.1609093674239
 21
17.24369520913484
 31
0.0
  0
LINE
  5
13BC
330
13B7
100
AcDbEntity
  8
치수문자_일반주서
 62
     0
370
    -2
100
AcDbLine
 10
191.4629093674239
 20
17.24369520913484
 30
0.0
 11
190.8589093674239
 21
17.24369520913484
 31
0.0
  0
SOLID
  5
13BD
330
13B7
100
AcDbEntity
  8
치수문자_일반주서
 62
     0
100
AcDbTrace
 10
191.4629093674239
 20
17.79402854246818
 30
0.0
 11
191.4629093674239
 21
16.69336187580151
 31
0.0
 12
188.1609093674239
 22
17.24369520913484
 32
0.0
 13
188.1609093674239
 23
17.24369520913484
 33
0.0
  0
SOLID
  5
13BE
330
13B7
100
AcDbEntity
  8
치수문자_일반주서
 62
     0
100
AcDbTrace
 10
190.8589093674239
 20
16.69336187580151
 30
0.0
 11
190.8589093674239
 21
17.79402854246818
 31
0.0
 12
194.1609093674239
 22
17.24369520913484
 32
0.0
 13
194.1609093674239
 23
17.24369520913484
 33
0.0
  0
MTEXT
  5
13BF
330
13B7
100
AcDbEntity
  8
치수문자_일반주서
 62
     0
100
AcDbMText
 10
191.1609093674239
 20
21.61869520913484
 30
0.0
 40
3.5
 41
0.0
 71
     2
 72
     1
  1
\A1;6
  7
SLDTEXTSTYLE0
 73
     1
 44
1.0
  0
POINT
  5
13C0
330
13B7
100
AcDbEntity
  8
Defpoints
 62
     0
100
AcDbPoint
 10
188.1609093674239
 20
2.421282610863095
 30
0.0
  0
POINT
  5
13C1
330
13B7
100
AcDbEntity
  8
Defpoints
 62
     0
100
AcDbPoint
 10
194.1609093674239
 20
2.096993966660769
 30
0.0
  0
POINT
  5
13C2
330
13B7
100
AcDbEntity
  8
Defpoints
 62
     0
100
AcDbPoint
 10
194.1609093674239
 20
17.24369520913484
 30
0.0
  0
ENDBLK
  5
13B9
330
13B7
100
AcDbEntity
  8
0
100
AcDbBlockEnd
  0
BLOCK
  5
13C4
330
13C3
100
AcDbEntity
  8
0
100
AcDbBlockBegin
  2
*D124
 70
     1
 10
0.0
 20
0.0
 30
0.0
  3
*D124
  1

  0
LINE
  5
13C6
330
13C3
100
AcDbEntity
  8
치수문자_일반주서
 62
     0
370
    -2
100
AcDbLine
 10
194.1609093674239
 20
2.759745169260022
 30
0.0
 11
194.1609093674239
 21
26.14892043895389
 31
0.0
  0
LINE
  5
13C7
330
13C3
100
AcDbEntity
  8
치수문자_일반주서
 62
     0
370
    -2
100
AcDbLine
 10
144.1609093635016
 20
2.789486037467384
 30
0.0
 11
144.1609093635016
 21
26.14892043895389
 31
0.0
  0
LINE
  5
13C8
330
13C3
100
AcDbEntity
  8
치수문자_일반주서
 62
     0
370
    -2
100
AcDbLine
 10
190.8589093674239
 20
26.14892043895389
 30
0.0
 11
147.4629093635016
 21
26.14892043895389
 31
0.0
  0
SOLID
  5
13C9
330
13C3
100
AcDbEntity
  8
치수문자_일반주서
 62
     0
100
AcDbTrace
 10
190.8589093674239
 20
25.59858710562056
 30
0.0
 11
190.8589093674239
 21
26.69925377228723
 31
0.0
 12
194.1609093674239
 22
26.14892043895389
 32
0.0
 13
194.1609093674239
 23
26.14892043895389
 33
0.0
  0
SOLID
  5
13CA
330
13C3
100
AcDbEntity
  8
치수문자_일반주서
 62
     0
100
AcDbTrace
 10
147.4629093635016
 20
26.69925377228723
 30
0.0
 11
147.4629093635016
 21
25.59858710562056
 31
0.0
 12
144.1609093635016
 22
26.14892043895389
 32
0.0
 13
144.1609093635016
 23
26.14892043895389
 33
0.0
  0
MTEXT
  5
13CB
330
13C3
100
AcDbEntity
  8
치수문자_일반주서
 62
     0
100
AcDbMText
 10
169.1609093654627
 20
30.52392043895389
 30
0.0
 40
3.5
 41
0.0
 71
     2
 72
     1
  1
\A1;50
  7
SLDTEXTSTYLE0
 73
     1
 44
1.0
  0
POINT
  5
13CC
330
13C3
100
AcDbEntity
  8
Defpoints
 62
     0
100
AcDbPoint
 10
194.1609093674239
 20
2.697245169260022
 30
0.0
  0
POINT
  5
13CD
330
13C3
100
AcDbEntity
  8
Defpoints
 62
     0
100
AcDbPoint
 10
144.1609093635016
 20
2.726986037467384
 30
0.0
  0
POINT
  5
13CE
330
13C3
100
AcDbEntity
  8
Defpoints
 62
     0
100
AcDbPoint
 10
144.1609093635016
 20
26.14892043895389
 30
0.0
  0
ENDBLK
  5
13C5
330
13C3
100
AcDbEntity
  8
0
100
AcDbBlockEnd
  0
BLOCK
  5
149F
330
149E
100
AcDbEntity
  8
0
100
AcDbBlockBegin
  2
*D126
 70
     1
 10
0.0
 20
0.0
 30
0.0
  3
*D126
  1

  0
LINE
  5
14A1
330
149E
100
AcDbEntity
  8
치수문자_일반주서
 62
     0
370
    -2
100
AcDbLine
 10
61.58866092365801
 20
49.37180738881174
 30
0.0
 11
87.6441774689809
 21
49.37180738881184
 31
0.0
  0
LINE
  5
14A2
330
149E
100
AcDbEntity
  8
치수문자_일반주서
 62
     0
370
    -2
100
AcDbLine
 10
61.58866092365801
 20
50.57180738881175
 30
0.0
 11
87.6441774689809
 21
50.57180738881185
 31
0.0
  0
LINE
  5
14A3
330
149E
100
AcDbEntity
  8
치수문자_일반주서
 62
     0
370
    -2
100
AcDbLine
 10
87.6441774689809
 20
46.06980738881184
 30
0.0
 11
87.6441774689809
 21
42.76780738881184
 31
0.0
  0
LINE
  5
14A4
330
149E
100
AcDbEntity
  8
치수문자_일반주서
 62
     0
370
    -2
100
AcDbLine
 10
87.6441774689809
 20
53.87380738881185
 30
0.0
 11
87.6441774689809
 21
57.17580738881185
 31
0.0
  0
SOLID
  5
14A5
330
149E
100
AcDbEntity
  8
치수문자_일반주서
 62
     0
100
AcDbTrace
 10
88.19451080231423
 20
46.06980738881184
 30
0.0
 11
87.09384413564757
 21
46.06980738881184
 31
0.0
 12
87.6441774689809
 22
49.37180738881184
 32
0.0
 13
87.6441774689809
 23
49.37180738881184
 33
0.0
  0
SOLID
  5
14A6
330
149E
100
AcDbEntity
  8
치수문자_일반주서
 62
     0
100
AcDbTrace
 10
87.09384413564757
 20
53.87380738881185
 30
0.0
 11
88.19451080231423
 21
53.87380738881185
 31
0.0
 12
87.6441774689809
 22
50.57180738881185
 32
0.0
 13
87.6441774689809
 23
50.57180738881185
 33
0.0
  0
MTEXT
  5
14A7
330
149E
100
AcDbEntity
  8
치수문자_일반주서
 62
     0
100
AcDbMText
 10
83.2691774689809
 20
49.97180738881172
 30
0.0
 40
3.5
 41
0.0
 71
     2
 72
     1
  1
\A1;%%c1.2
  7
SLDTEXTSTYLE0
 11
0.0
 21
1.0
 31
0.0
 73
     1
 44
1.0
  0
POINT
  5
14A8
330
149E
100
AcDbEntity
  8
Defpoints
 62
     0
100
AcDbPoint
 10
61.52616092365801
 20
49.37180738881174
 30
0.0
  0
POINT
  5
14A9
330
149E
100
AcDbEntity
  8
Defpoints
 62
     0
100
AcDbPoint
 10
61.52616092365801
 20
50.57180738881175
 30
0.0
  0
POINT
  5
14AA
330
149E
100
AcDbEntity
  8
Defpoints
 62
     0
100
AcDbPoint
 10
87.6441774689809
 20
50.57180738881185
 30
0.0
  0
ENDBLK
  5
14A0
330
149E
100
AcDbEntity
  8
0
100
AcDbBlockEnd
  0
BLOCK
  5
14AC
330
14AB
100
AcDbEntity
  8
0
100
AcDbBlockBegin
  2
*D127
 70
     1
 10
0.0
 20
0.0
 30
0.0
  3
*D127
  1

  0
LINE
  5
14AE
330
14AB
100
AcDbEntity
  8
치수문자_일반주서
 62
     0
370
    -2
100
AcDbLine
 10
16.56166728747384
 20
52.53430738881175
 30
0.0
 11
16.56166728747384
 21
80.97180738881175
 31
0.0
  0
LINE
  5
14AF
330
14AB
100
AcDbEntity
  8
치수문자_일반주서
 62
     0
370
    -2
100
AcDbLine
 10
66.56166728747384
 20
51.32931531800513
 30
0.0
 11
66.56166728747384
 21
80.97180738881175
 31
0.0
  0
LINE
  5
14B0
330
14AB
100
AcDbEntity
  8
치수문자_일반주서
 62
     0
370
    -2
100
AcDbLine
 10
19.86366728747384
 20
80.97180738881175
 30
0.0
 11
63.25966728747384
 21
80.97180738881175
 31
0.0
  0
SOLID
  5
14B1
330
14AB
100
AcDbEntity
  8
치수문자_일반주서
 62
     0
100
AcDbTrace
 10
19.86366728747384
 20
81.52214072214508
 30
0.0
 11
19.86366728747384
 21
80.42147405547843
 31
0.0
 12
16.56166728747384
 22
80.97180738881175
 32
0.0
 13
16.56166728747384
 23
80.97180738881175
 33
0.0
  0
SOLID
  5
14B2
330
14AB
100
AcDbEntity
  8
치수문자_일반주서
 62
     0
100
AcDbTrace
 10
63.25966728747384
 20
80.42147405547843
 30
0.0
 11
63.25966728747384
 21
81.52214072214508
 31
0.0
 12
66.56166728747384
 22
80.97180738881175
 32
0.0
 13
66.56166728747384
 23
80.97180738881175
 33
0.0
  0
MTEXT
  5
14B3
330
14AB
100
AcDbEntity
  8
치수문자_일반주서
 62
     0
100
AcDbMText
 10
41.56166728747385
 20
85.34680738881175
 30
0.0
 40
3.5
 41
0.0
 71
     2
 72
     1
  1
\A1;50
  7
SLDTEXTSTYLE0
 73
     1
 44
1.0
  0
POINT
  5
14B4
330
14AB
100
AcDbEntity
  8
Defpoints
 62
     0
100
AcDbPoint
 10
16.56166728747384
 20
52.47180738881175
 30
0.0
  0
POINT
  5
14B5
330
14AB
100
AcDbEntity
  8
Defpoints
 62
     0
100
AcDbPoint
 10
66.56166728747384
 20
51.26681531800513
 30
0.0
  0
POINT
  5
14B6
330
14AB
100
AcDbEntity
  8
Defpoints
 62
     0
100
AcDbPoint
 10
66.56166728747384
 20
80.97180738881175
 30
0.0
  0
ENDBLK
  5
14AD
330
14AB
100
AcDbEntity
  8
0
100
AcDbBlockEnd
  0
BLOCK
  5
14B8
330
14B7
100
AcDbEntity
  8
0
100
AcDbBlockBegin
  2
*D128
 70
     1
 10
0.0
 20
0.0
 30
0.0
  3
*D128
  1

  0
LINE
  5
14BA
330
14B7
100
AcDbEntity
  8
치수문자_일반주서
 62
     0
370
    -2
100
AcDbLine
 10
16.99916728747383
 20
52.97180738881175
 30
0.0
 11
4.56520926586175
 21
52.9718073888117
 31
0.0
  0
LINE
  5
14BB
330
14B7
100
AcDbEntity
  8
치수문자_일반주서
 62
     0
370
    -2
100
AcDbLine
 10
16.99916728747383
 20
46.97180738881175
 30
0.0
 11
4.565209265861771
 21
46.9718073888117
 31
0.0
  0
LINE
  5
14BC
330
14B7
100
AcDbEntity
  8
치수문자_일반주서
 62
     0
370
    -2
100
AcDbLine
 10
4.565209265861761
 20
49.6698073888117
 30
0.0
 11
4.56520926586176
 21
50.2738073888117
 31
0.0
  0
SOLID
  5
14BD
330
14B7
100
AcDbEntity
  8
치수문자_일반주서
 62
     0
100
AcDbTrace
 10
5.115542599195095
 20
49.6698073888117
 30
0.0
 11
4.014875932528428
 21
49.6698073888117
 31
0.0
 12
4.56520926586175
 22
52.9718073888117
 32
0.0
 13
4.56520926586175
 23
52.9718073888117
 33
0.0
  0
SOLID
  5
14BE
330
14B7
100
AcDbEntity
  8
치수문자_일반주서
 62
     0
100
AcDbTrace
 10
4.014875932528426
 20
50.2738073888117
 30
0.0
 11
5.115542599195093
 21
50.2738073888117
 31
0.0
 12
4.565209265861771
 22
46.9718073888117
 32
0.0
 13
4.565209265861771
 23
46.9718073888117
 33
0.0
  0
MTEXT
  5
14BF
330
14B7
100
AcDbEntity
  8
치수문자_일반주서
 62
     0
100
AcDbMText
 10
0.1902092658617605
 20
49.97180738881173
 30
0.0
 40
3.5
 41
0.0
 71
     2
 72
     1
  1
\A1;%%c6
  7
SLDTEXTSTYLE0
 11
-3.552713678800501E-15
 21
1.0
 31
0.0
 73
     1
 44
1.0
  0
POINT
  5
14C0
330
14B7
100
AcDbEntity
  8
Defpoints
 62
     0
100
AcDbPoint
 10
17.06166728747383
 20
52.97180738881175
 30
0.0
  0
POINT
  5
14C1
330
14B7
100
AcDbEntity
  8
Defpoints
 62
     0
100
AcDbPoint
 10
17.06166728747383
 20
46.97180738881175
 30
0.0
  0
POINT
  5
14C2
330
14B7
100
AcDbEntity
  8
Defpoints
 62
     0
100
AcDbPoint
 10
4.56520926586176
 20
46.9718073888117
 30
0.0
  0
ENDBLK
  5
14B9
330
14B7
100
AcDbEntity
  8
0
100
AcDbBlockEnd
  0
BLOCK
  5
14C4
330
14C3
100
AcDbEntity
  8
0
100
AcDbBlockBegin
  2
*D129
 70
     1
 10
0.0
 20
0.0
 30
0.0
  3
*D129
  1

  0
LINE
  5
14C6
330
14C3
100
AcDbEntity
  8
치수문자_일반주서
 62
     0
370
    -2
100
AcDbLine
 10
60.56166728747385
 20
51.65360396220748
 30
0.0
 11
60.56166728747385
 21
66.41351656047922
 31
0.0
  0
LINE
  5
14C7
330
14C3
100
AcDbEntity
  8
치수문자_일반주서
 62
     0
370
    -2
100
AcDbLine
 10
66.56166728747384
 20
51.32931531800513
 30
0.0
 11
66.56166728747384
 21
66.41351656047922
 31
0.0
  0
LINE
  5
14C8
330
14C3
100
AcDbEntity
  8
치수문자_일반주서
 62
     0
370
    -2
100
AcDbLine
 10
63.86366728747385
 20
66.41351656047922
 30
0.0
 11
63.25966728747384
 21
66.41351656047922
 31
0.0
  0
SOLID
  5
14C9
330
14C3
100
AcDbEntity
  8
치수문자_일반주서
 62
     0
100
AcDbTrace
 10
63.86366728747385
 20
66.96384989381255
 30
0.0
 11
63.86366728747385
 21
65.8631832271459
 31
0.0
 12
60.56166728747385
 22
66.41351656047922
 32
0.0
 13
60.56166728747385
 23
66.41351656047922
 33
0.0
  0
SOLID
  5
14CA
330
14C3
100
AcDbEntity
  8
치수문자_일반주서
 62
     0
100
AcDbTrace
 10
63.25966728747384
 20
65.8631832271459
 30
0.0
 11
63.25966728747384
 21
66.96384989381255
 31
0.0
 12
66.56166728747384
 22
66.41351656047922
 32
0.0
 13
66.56166728747384
 23
66.41351656047922
 33
0.0
  0
MTEXT
  5
14CB
330
14C3
100
AcDbEntity
  8
치수문자_일반주서
 62
     0
100
AcDbMText
 10
63.56166728747385
 20
70.78851656047922
 30
0.0
 40
3.5
 41
0.0
 71
     2
 72
     1
  1
\A1;6
  7
SLDTEXTSTYLE0
 73
     1
 44
1.0
  0
POINT
  5
14CC
330
14C3
100
AcDbEntity
  8
Defpoints
 62
     0
100
AcDbPoint
 10
60.56166728747385
 20
51.59110396220748
 30
0.0
  0
POINT
  5
14CD
330
14C3
100
AcDbEntity
  8
Defpoints
 62
     0
100
AcDbPoint
 10
66.56166728747384
 20
51.26681531800513
 30
0.0
  0
POINT
  5
14CE
330
14C3
100
AcDbEntity
  8
Defpoints
 62
     0
100
AcDbPoint
 10
66.56166728747384
 20
66.41351656047922
 30
0.0
  0
ENDBLK
  5
14C5
330
14C3
100
AcDbEntity
  8
0
100
AcDbBlockEnd
  0
BLOCK
  5
14D0
330
14CF
100
AcDbEntity
  8
0
100
AcDbBlockBegin
  2
*D130
 70
     1
 10
0.0
 20
0.0
 30
0.0
  3
*D130
  1

  0
LINE
  5
14D2
330
14CF
100
AcDbEntity
  8
치수문자_일반주서
 62
     0
370
    -2
100
AcDbLine
 10
66.56166728747384
 20
51.82818729473682
 30
0.0
 11
66.56166728747384
 21
75.21736256443069
 31
0.0
  0
LINE
  5
14D3
330
14CF
100
AcDbEntity
  8
치수문자_일반주서
 62
     0
370
    -2
100
AcDbLine
 10
56.56166727471251
 20
51.95930738881174
 30
0.0
 11
56.56166727471251
 21
75.21736256443069
 31
0.0
  0
LINE
  5
14D4
330
14CF
100
AcDbEntity
  8
치수문자_일반주서
 62
     0
370
    -2
100
AcDbLine
 10
63.25966728747384
 20
75.21736256443069
 30
0.0
 11
59.86366727471251
 21
75.21736256443069
 31
0.0
  0
SOLID
  5
14D5
330
14CF
100
AcDbEntity
  8
치수문자_일반주서
 62
     0
100
AcDbTrace
 10
63.25966728747384
 20
74.66702923109736
 30
0.0
 11
63.25966728747384
 21
75.76769589776401
 31
0.0
 12
66.56166728747384
 22
75.21736256443069
 32
0.0
 13
66.56166728747384
 23
75.21736256443069
 33
0.0
  0
SOLID
  5
14D6
330
14CF
100
AcDbEntity
  8
치수문자_일반주서
 62
     0
100
AcDbTrace
 10
59.86366727471251
 20
75.76769589776401
 30
0.0
 11
59.86366727471251
 21
74.66702923109736
 31
0.0
 12
56.56166727471251
 22
75.21736256443069
 32
0.0
 13
56.56166727471251
 23
75.21736256443069
 33
0.0
  0
MTEXT
  5
14D7
330
14CF
100
AcDbEntity
  8
치수문자_일반주서
 62
     0
100
AcDbMText
 10
61.56166728109318
 20
79.59236256443069
 30
0.0
 40
3.5
 41
0.0
 71
     2
 72
     1
  1
\A1;10
  7
SLDTEXTSTYLE0
 73
     1
 44
1.0
  0
POINT
  5
14D8
330
14CF
100
AcDbEntity
  8
Defpoints
 62
     0
100
AcDbPoint
 10
66.56166728747384
 20
51.76568729473682
 30
0.0
  0
POINT
  5
14D9
330
14CF
100
AcDbEntity
  8
Defpoints
 62
     0
100
AcDbPoint
 10
56.56166727471251
 20
51.89680738881174
 30
0.0
  0
POINT
  5
14DA
330
14CF
100
AcDbEntity
  8
Defpoints
 62
     0
100
AcDbPoint
 10
56.56166727471251
 20
75.21736256443069
 30
0.0
  0
ENDBLK
  5
14D1
330
14CF
100
AcDbEntity
  8
0
100
AcDbBlockEnd
  0
BLOCK
  5
152A
330
1529
100
AcDbEntity
  8
0
100
AcDbBlockBegin
  2
*D131
 70
     1
 10
0.0
 20
0.0
 30
0.0
  3
*D131
  1

  0
LINE
  5
152C
330
1529
100
AcDbEntity
  8
치수문자_일반주서
 62
     0
370
    -2
100
AcDbLine
 10
144.2417977744197
 20
-0.9733383277865639
 30
0.0
 11
170.2973143197426
 21
-0.9733383277864668
 31
0.0
  0
LINE
  5
152D
330
1529
100
AcDbEntity
  8
치수문자_일반주서
 62
     0
370
    -2
100
AcDbLine
 10
144.2417977744197
 20
0.226661672213446
 30
0.0
 11
170.2973143197426
 21
0.2266616722135432
 31
0.0
  0
LINE
  5
152E
330
1529
100
AcDbEntity
  8
치수문자_일반주서
 62
     0
370
    -2
100
AcDbLine
 10
170.2973143197426
 20
-4.275338327786467
 30
0.0
 11
170.2973143197426
 21
-7.577338327786467
 31
0.0
  0
LINE
  5
152F
330
1529
100
AcDbEntity
  8
치수문자_일반주서
 62
     0
370
    -2
100
AcDbLine
 10
170.2973143197426
 20
3.528661672213543
 30
0.0
 11
170.2973143197426
 21
6.830661672213543
 31
0.0
  0
SOLID
  5
1530
330
1529
100
AcDbEntity
  8
치수문자_일반주서
 62
     0
100
AcDbTrace
 10
170.8476476530759
 20
-4.275338327786467
 30
0.0
 11
169.7469809864092
 21
-4.275338327786467
 31
0.0
 12
170.2973143197426
 22
-0.9733383277864668
 32
0.0
 13
170.2973143197426
 23
-0.9733383277864668
 33
0.0
  0
SOLID
  5
1531
330
1529
100
AcDbEntity
  8
치수문자_일반주서
 62
     0
100
AcDbTrace
 10
169.7469809864092
 20
3.528661672213543
 30
0.0
 11
170.8476476530759
 21
3.528661672213543
 31
0.0
 12
170.2973143197426
 22
0.2266616722135432
 32
0.0
 13
170.2973143197426
 23
0.2266616722135432
 33
0.0
  0
MTEXT
  5
1532
330
1529
100
AcDbEntity
  8
치수문자_일반주서
 62
     0
100
AcDbMText
 10
165.9223143197426
 20
-0.3733383277865839
 30
0.0
 40
3.5
 41
0.0
 71
     2
 72
     1
  1
\A1;%%c1.2
  7
SLDTEXTSTYLE0
 11
0.0
 21
1.0
 31
0.0
 73
     1
 44
1.0
  0
POINT
  5
1533
330
1529
100
AcDbEntity
  8
Defpoints
 62
     0
100
AcDbPoint
 10
144.1792977744197
 20
-0.9733383277865642
 30
0.0
  0
POINT
  5
1534
330
1529
100
AcDbEntity
  8
Defpoints
 62
     0
100
AcDbPoint
 10
144.1792977744197
 20
0.2266616722134458
 30
0.0
  0
POINT
  5
1535
330
1529
100
AcDbEntity
  8
Defpoints
 62
     0
100
AcDbPoint
 10
170.2973143197426
 20
0.2266616722135434
 30
0.0
  0
ENDBLK
  5
152B
330
1529
100
AcDbEntity
  8
0
100
AcDbBlockEnd
  0
BLOCK
  5
1537
330
1536
100
AcDbEntity
  8
0
100
AcDbBlockBegin
  2
*D132
 70
     1
 10
0.0
 20
0.0
 30
0.0
  3
*D132
  1

  0
LINE
  5
1539
330
1536
100
AcDbEntity
  8
치수문자_일반주서
 62
     0
370
    -2
100
AcDbLine
 10
99.21480413823551
 20
2.189161672213444
 30
0.0
 11
99.21480413823551
 21
30.62666167221345
 31
0.0
  0
LINE
  5
153A
330
1536
100
AcDbEntity
  8
치수문자_일반주서
 62
     0
370
    -2
100
AcDbLine
 10
149.2148041382355
 20
0.9841696014068262
 30
0.0
 11
149.2148041382355
 21
30.62666167221345
 31
0.0
  0
LINE
  5
153B
330
1536
100
AcDbEntity
  8
치수문자_일반주서
 62
     0
370
    -2
100
AcDbLine
 10
102.5168041382355
 20
30.62666167221345
 30
0.0
 11
145.9128041382355
 21
30.62666167221345
 31
0.0
  0
SOLID
  5
153C
330
1536
100
AcDbEntity
  8
치수문자_일반주서
 62
     0
100
AcDbTrace
 10
102.5168041382355
 20
31.17699500554679
 30
0.0
 11
102.5168041382355
 21
30.07632833888012
 31
0.0
 12
99.21480413823551
 22
30.62666167221345
 32
0.0
 13
99.21480413823551
 23
30.62666167221345
 33
0.0
  0
SOLID
  5
153D
330
1536
100
AcDbEntity
  8
치수문자_일반주서
 62
     0
100
AcDbTrace
 10
145.9128041382355
 20
30.07632833888012
 30
0.0
 11
145.9128041382355
 21
31.17699500554679
 31
0.0
 12
149.2148041382355
 22
30.62666167221345
 32
0.0
 13
149.2148041382355
 23
30.62666167221345
 33
0.0
  0
MTEXT
  5
153E
330
1536
100
AcDbEntity
  8
치수문자_일반주서
 62
     0
100
AcDbMText
 10
124.2148041382355
 20
35.00166167221345
 30
0.0
 40
3.5
 41
0.0
 71
     2
 72
     1
  1
\A1;50
  7
SLDTEXTSTYLE0
 73
     1
 44
1.0
  0
POINT
  5
153F
330
1536
100
AcDbEntity
  8
Defpoints
 62
     0
100
AcDbPoint
 10
99.21480413823551
 20
2.126661672213444
 30
0.0
  0
POINT
  5
1540
330
1536
100
AcDbEntity
  8
Defpoints
 62
     0
100
AcDbPoint
 10
149.2148041382355
 20
0.9216696014068262
 30
0.0
  0
POINT
  5
1541
330
1536
100
AcDbEntity
  8
Defpoints
 62
     0
100
AcDbPoint
 10
149.2148041382355
 20
30.62666167221345
 30
0.0
  0
ENDBLK
  5
1538
330
1536
100
AcDbEntity
  8
0
100
AcDbBlockEnd
  0
BLOCK
  5
1543
330
1542
100
AcDbEntity
  8
0
100
AcDbBlockBegin
  2
*D133
 70
     1
 10
0.0
 20
0.0
 30
0.0
  3
*D133
  1

  0
LINE
  5
1545
330
1542
100
AcDbEntity
  8
치수문자_일반주서
 62
     0
370
    -2
100
AcDbLine
 10
99.65230413823551
 20
2.626661672213444
 30
0.0
 11
87.21834611662342
 21
2.626661672213397
 31
0.0
  0
LINE
  5
1546
330
1542
100
AcDbEntity
  8
치수문자_일반주서
 62
     0
370
    -2
100
AcDbLine
 10
99.65230413823551
 20
-3.373338327786556
 30
0.0
 11
87.21834611662344
 21
-3.373338327786603
 31
0.0
  0
LINE
  5
1547
330
1542
100
AcDbEntity
  8
치수문자_일반주서
 62
     0
370
    -2
100
AcDbLine
 10
87.21834611662344
 20
-0.6753383277866032
 30
0.0
 11
87.21834611662342
 21
-0.0713383277866031
 31
0.0
  0
SOLID
  5
1548
330
1542
100
AcDbEntity
  8
치수문자_일반주서
 62
     0
100
AcDbTrace
 10
87.76867944995676
 20
-0.6753383277866019
 30
0.0
 11
86.66801278329011
 21
-0.6753383277866045
 31
0.0
 12
87.21834611662342
 22
2.626661672213397
 32
0.0
 13
87.21834611662342
 23
2.626661672213397
 33
0.0
  0
SOLID
  5
1549
330
1542
100
AcDbEntity
  8
치수문자_일반주서
 62
     0
100
AcDbTrace
 10
86.6680127832901
 20
-0.0713383277866044
 30
0.0
 11
87.76867944995675
 21
-0.0713383277866018
 31
0.0
 12
87.21834611662344
 22
-3.373338327786603
 32
0.0
 13
87.21834611662344
 23
-3.373338327786603
 33
0.0
  0
MTEXT
  5
154A
330
1542
100
AcDbEntity
  8
치수문자_일반주서
 62
     0
100
AcDbMText
 10
82.84334611662342
 20
-0.373338327786566
 30
0.0
 40
3.5
 41
0.0
 71
     2
 72
     1
  1
\A1;%%c6
  7
SLDTEXTSTYLE0
 11
-2.368475785867001E-15
 21
1.0
 31
0.0
 73
     1
 44
1.0
  0
POINT
  5
154B
330
1542
100
AcDbEntity
  8
Defpoints
 62
     0
100
AcDbPoint
 10
99.71480413823551
 20
2.626661672213444
 30
0.0
  0
POINT
  5
154C
330
1542
100
AcDbEntity
  8
Defpoints
 62
     0
100
AcDbPoint
 10
99.71480413823551
 20
-3.373338327786556
 30
0.0
  0
POINT
  5
154D
330
1542
100
AcDbEntity
  8
Defpoints
 62
     0
100
AcDbPoint
 10
87.21834611662344
 20
-3.373338327786602
 30
0.0
  0
ENDBLK
  5
1544
330
1542
100
AcDbEntity
  8
0
100
AcDbBlockEnd
  0
BLOCK
  5
154F
330
154E
100
AcDbEntity
  8
0
100
AcDbBlockBegin
  2
*D134
 70
     1
 10
0.0
 20
0.0
 30
0.0
  3
*D134
  1

  0
LINE
  5
1551
330
154E
100
AcDbEntity
  8
치수문자_일반주서
 62
     0
370
    -2
100
AcDbLine
 10
143.2148041382355
 20
1.308458245609174
 30
0.0
 11
143.2148041382355
 21
16.06837084388092
 31
0.0
  0
LINE
  5
1552
330
154E
100
AcDbEntity
  8
치수문자_일반주서
 62
     0
370
    -2
100
AcDbLine
 10
149.2148041382355
 20
0.9841696014068262
 30
0.0
 11
149.2148041382355
 21
16.06837084388092
 31
0.0
  0
LINE
  5
1553
330
154E
100
AcDbEntity
  8
치수문자_일반주서
 62
     0
370
    -2
100
AcDbLine
 10
146.5168041382355
 20
16.06837084388092
 30
0.0
 11
145.9128041382355
 21
16.06837084388092
 31
0.0
  0
SOLID
  5
1554
330
154E
100
AcDbEntity
  8
치수문자_일반주서
 62
     0
100
AcDbTrace
 10
146.5168041382355
 20
16.61870417721425
 30
0.0
 11
146.5168041382355
 21
15.51803751054759
 31
0.0
 12
143.2148041382355
 22
16.06837084388092
 32
0.0
 13
143.2148041382355
 23
16.06837084388092
 33
0.0
  0
SOLID
  5
1555
330
154E
100
AcDbEntity
  8
치수문자_일반주서
 62
     0
100
AcDbTrace
 10
145.9128041382355
 20
15.51803751054759
 30
0.0
 11
145.9128041382355
 21
16.61870417721425
 31
0.0
 12
149.2148041382355
 22
16.06837084388092
 32
0.0
 13
149.2148041382355
 23
16.06837084388092
 33
0.0
  0
MTEXT
  5
1556
330
154E
100
AcDbEntity
  8
치수문자_일반주서
 62
     0
100
AcDbMText
 10
146.2148041382355
 20
20.44337084388092
 30
0.0
 40
3.5
 41
0.0
 71
     2
 72
     1
  1
\A1;6
  7
SLDTEXTSTYLE0
 73
     1
 44
1.0
  0
POINT
  5
1557
330
154E
100
AcDbEntity
  8
Defpoints
 62
     0
100
AcDbPoint
 10
143.2148041382355
 20
1.245958245609174
 30
0.0
  0
POINT
  5
1558
330
154E
100
AcDbEntity
  8
Defpoints
 62
     0
100
AcDbPoint
 10
149.2148041382355
 20
0.9216696014068262
 30
0.0
  0
POINT
  5
1559
330
154E
100
AcDbEntity
  8
Defpoints
 62
     0
100
AcDbPoint
 10
149.2148041382355
 20
16.06837084388092
 30
0.0
  0
ENDBLK
  5
1550
330
154E
100
AcDbEntity
  8
0
100
AcDbBlockEnd
  0
BLOCK
  5
155B
330
155A
100
AcDbEntity
  8
0
100
AcDbBlockBegin
  2
*D135
 70
     1
 10
0.0
 20
0.0
 30
0.0
  3
*D135
  1

  0
LINE
  5
155D
330
155A
100
AcDbEntity
  8
치수문자_일반주서
 62
     0
370
    -2
100
AcDbLine
 10
149.2148041382355
 20
1.483041578138518
 30
0.0
 11
149.2148041382355
 21
24.87221684783238
 31
0.0
  0
LINE
  5
155E
330
155A
100
AcDbEntity
  8
치수문자_일반주서
 62
     0
370
    -2
100
AcDbLine
 10
139.2148041254742
 20
1.614161672213442
 30
0.0
 11
139.2148041254742
 21
24.87221684783238
 31
0.0
  0
LINE
  5
155F
330
155A
100
AcDbEntity
  8
치수문자_일반주서
 62
     0
370
    -2
100
AcDbLine
 10
145.9128041382355
 20
24.87221684783238
 30
0.0
 11
142.5168041254742
 21
24.87221684783238
 31
0.0
  0
SOLID
  5
1560
330
155A
100
AcDbEntity
  8
치수문자_일반주서
 62
     0
100
AcDbTrace
 10
145.9128041382355
 20
24.32188351449905
 30
0.0
 11
145.9128041382355
 21
25.42255018116572
 31
0.0
 12
149.2148041382355
 22
24.87221684783238
 32
0.0
 13
149.2148041382355
 23
24.87221684783238
 33
0.0
  0
SOLID
  5
1561
330
155A
100
AcDbEntity
  8
치수문자_일반주서
 62
     0
100
AcDbTrace
 10
142.5168041254742
 20
25.42255018116572
 30
0.0
 11
142.5168041254742
 21
24.32188351449905
 31
0.0
 12
139.2148041254742
 22
24.87221684783238
 32
0.0
 13
139.2148041254742
 23
24.87221684783238
 33
0.0
  0
MTEXT
  5
1562
330
155A
100
AcDbEntity
  8
치수문자_일반주서
 62
     0
100
AcDbMText
 10
144.2148041318549
 20
29.24721684783238
 30
0.0
 40
3.5
 41
0.0
 71
     2
 72
     1
  1
\A1;10
  7
SLDTEXTSTYLE0
 73
     1
 44
1.0
  0
POINT
  5
1563
330
155A
100
AcDbEntity
  8
Defpoints
 62
     0
100
AcDbPoint
 10
149.2148041382355
 20
1.420541578138518
 30
0.0
  0
POINT
  5
1564
330
155A
100
AcDbEntity
  8
Defpoints
 62
     0
100
AcDbPoint
 10
139.2148041254742
 20
1.551661672213442
 30
0.0
  0
POINT
  5
1565
330
155A
100
AcDbEntity
  8
Defpoints
 62
     0
100
AcDbPoint
 10
139.2148041254742
 20
24.87221684783238
 30
0.0
  0
ENDBLK
  5
155C
330
155A
100
AcDbEntity
  8
0
100
AcDbBlockEnd
  0
BLOCK
  5
156D
330
156C
100
AcDbEntity
  8
0
100
AcDbBlockBegin
  2
*D136
 70
     1
 10
0.0
 20
0.0
 30
0.0
  3
*D136
  1

  0
LINE
  5
156F
330
156C
100
AcDbEntity
  8
치수문자_일반주서
 62
     0
370
    -2
100
AcDbLine
 10
15.80274616733611
 20
-4.681102750414495
 30
0.0
 11
26.19313882563869
 21
-19.71823160986371
 31
0.0
  0
MTEXT
  5
1570
330
156C
100
AcDbEntity
  8
치수문자_일반주서
 62
     0
100
AcDbMText
 10
25.74131018466926
 20
-14.44670289973609
 30
0.0
 40
3.5
 41
0.0
 71
     5
 72
     1
  1
\A1;R0.2
  7
SLDTEXTSTYLE0
 11
0.5684727402736174
 21
-0.8227020989190464
 31
0.0
 73
     1
 44
1.0
  0
SOLID
  5
1571
330
156C
100
AcDbEntity
  8
치수문자_일반주서
 62
     0
100
AcDbTrace
 10
16.25550655577456
 20
-4.368253252350581
 30
0.0
 11
15.34998577889766
 21
-4.99395224847841
 31
0.0
 12
13.92564917895263
 22
-1.964540419783804
 32
0.0
 13
13.92564917895263
 23
-1.964540419783804
 33
0.0
  0
POINT
  5
1572
330
156C
100
AcDbEntity
  8
Defpoints
 62
     0
100
AcDbPoint
 10
13.92564917895263
 20
-1.964540419783804
 30
0.0
  0
POINT
  5
1573
330
156C
100
AcDbEntity
  8
Defpoints
 62
     0
100
AcDbPoint
 10
13.8119546308979
 20
-1.799999999999994
 30
0.0
  0
ENDBLK
  5
156E
330
156C
100
AcDbEntity
  8
0
100
AcDbBlockEnd
  0
ENDSEC
  0
SECTION
  2
ENTITIES
  0
INSERT
  5
34D
330
1F
100
AcDbEntity
  8
0
  6
Continuous
 62
     7
100
AcDbBlockReference
 66
     1
  2
블럭10
 10
-14.64744943636434
 20
-52.04717430164394
 30
0.0
  0
ATTRIB
  5
34E
330
34D
100
AcDbEntity
  8
FORMAT
 62
     2
100
AcDbText
 10
-30.76671047579988
 20
-49.97180738881175
 30
0.0
 40
4.233333333333333
  1
SEME640400210E [ 4 FLUTE ]
 41
0.75
  7
SLDTEXTSTYLE0
 11
-30.76671047579988
 21
-52.08847405547842
 31
0.0
100
AcDbAttribute
  2
AUTOATTR0
 70
     0
 74
     1
  0
SEQEND
  5
34F
330
34D
100
AcDbEntity
  8
0
  6
Continuous
 62
     7
  0
HATCH
  5
350
330
1F
100
AcDbEntity
  8
중심선
100
AcDbHatch
 10
0.0
 20
0.0
 30
0.0
210
0.0
220
0.0
230
1.0
  2
SOLID
 70
     1
 71
     0
 91
        1
 92
        0
 93
        4
 72
     1
 10
-8.932540131983501
 20
-35.80000000000001
 11
-12.37881537582079
 21
-35.80000000000001
 72
     1
 10
-12.37881537582078
 20
-35.80000000000001
 11
-14.5070452350248
 21
-38.33632558057261
 72
     1
 10
-14.5070452350248
 20
-38.33632558057261
 11
-11.06073690607437
 21
-38.33628615127012
 72
     1
 10
-11.06073690607437
 20
-38.33628615127012
 11
-8.932540131983487
 21
-35.80000000000001
 97
        0
 75
     0
 76
     1
 98
        1
 10
11.79264981257745
 20
-0.0000000000000142
  0
HATCH
  5
351
330
1F
100
AcDbEntity
  8
중심선
100
AcDbHatch
 10
0.0
 20
0.0
 30
0.0
210
0.0
220
0.0
230
1.0
  2
SOLID
 70
     1
 71
     0
 91
        1
 92
        0
 93
        4
 72
     1
 10
-3.919776140947519
 20
-35.80000000000001
 11
-7.366051384784797
 21
-35.80000000000001
 72
     1
 10
-7.366051384784811
 20
-35.80000000000001
 11
-11.89718939314222
 21
-41.20000000000003
 72
     1
 10
-11.89718939314221
 20
-41.20000000000003
 11
-8.450914149304928
 21
-41.20000000000003
 72
     1
 10
-8.450914149304936
 20
-41.20000000000003
 11
-3.919776140947526
 21
-35.80000000000001
 97
        0
 75
     0
 76
     1
 98
        1
 10
11.79264981257745
 20
-0.0000000000000142
  0
HATCH
  5
352
330
1F
100
AcDbEntity
  8
중심선
100
AcDbHatch
 10
0.0
 20
0.0
 30
0.0
210
0.0
220
0.0
230
1.0
  2
SOLID
 70
     1
 71
     0
 91
        1
 92
        0
 93
        4
 72
     1
 10
1.092987850088349
 20
-35.80000000000001
 11
-2.353287393748744
 21
-35.79999999999998
 72
     1
 10
-2.353287393748744
 20
-35.79999999999998
 11
-9.401724295638012
 21
-44.20000000000003
 72
     1
 10
-9.401724295638019
 20
-44.20000000000003
 11
-5.955449051800741
 21
-44.20000000000003
 72
     1
 10
-5.955449051800741
 20
-44.20000000000003
 11
1.092987850088342
 21
-35.80000000000001
 97
        0
 75
     0
 76
     1
 98
        1
 10
11.79264981257745
 20
-0.0000000000000142
  0
HATCH
  5
353
330
1F
100
AcDbEntity
  8
중심선
100
AcDbHatch
 10
0.0
 20
0.0
 30
0.0
210
0.0
220
0.0
230
1.0
  2
SOLID
 70
     1
 71
     0
 91
        1
 92
        0
 93
        6
 72
     3
 10
5.892878281100536
 20
-40.00000000005129
 11
3.960054785062312
 21
1.540882976769353E-10
 40
0.39393394401626
 50
17.09539180608444
 51
320.0019657685085
 73
     0
 72
     1
 10
7.575877936801135
 20
-38.58789400463834
 11
9.881179810502175
 21
-36.6535672945904
 72
     3
 10
5.8928782810477
 20
-40.00000000000016
 11
6.600054785286829
 21
-1.278976924368180E-13
 40
0.636358354079598
 50
39.99873849337434
 51
368.4976242363723
 73
     1
 72
     1
 10
12.31821077294831
 20
-39.03999999993003
 11
4.572945587883616
 21
-39.03999999993003
 72
     1
 10
4.572945587883623
 20
-39.03999999993003
 11
4.572920543437689
 21
-40.95999999992993
 72
     1
 10
4.572920543437704
 20
-40.95999999992993
 11
9.01430031290974
 21
-40.95999999992989
 97
        0
 75
     0
 76
     1
 98
        1
 10
11.79264981257745
 20
-0.0000000000000142
  0
LINE
  5
354
330
1F
100
AcDbEntity
  8
중심선
 48
0.5
100
AcDbLine
 10
-38.98804536910214
 20
0.0000000000000269
 30
0.0
 11
17.01195463089788
 21
0.0000000000000344
 31
0.0
1001
PE_URL
1000

  0
DIMENSION
  5
355
330
1F
100
AcDbEntity
  8
치수문자_일반주서
100
AcDbDimension
  2
*D15
 10
24.01195463089787
 20
2.000000000000036
 30
0.0
 11
24.01195463089783
 21
11.66650000000003
 31
0.0
 70
   160
  1
%%c<>
 71
     2
 42
3.999812162734649
 52
-270.0
  3
SLDDIMSTYLE2
100
AcDbAlignedDimension
 13
14.01195463089788
 23
-1.99981216273465
 33
0.0
 14
14.01195463089788
 24
1.999999999999999
 34
0.0
 50
90.0000000000002
100
AcDbRotatedDimension
1001
PE_URL
1000

  0
DIMENSION
  5
356
330
1F
100
AcDbEntity
  8
치수문자_일반주서
100
AcDbDimension
  2
*D16
 10
14.01195463089788
 20
30.00000000000006
 30
0.0
 11
-10.98804536910212
 21
30.00000000000006
 31
0.0
 70
   160
  1
<>
 71
     2
 42
49.99999999999999
  3
SLDDIMSTYLE0
100
AcDbAlignedDimension
 13
-35.98804536910211
 23
2.500000000000004
 33
0.0
 14
14.01195463089788
 24
1.999999999999999
 34
0.0
100
AcDbRotatedDimension
1001
PE_URL
1000

  0
DIMENSION
  5
357
330
1F
100
AcDbEntity
  8
치수문자_일반주서
100
AcDbDimension
  2
*D17
 10
-45.98804536910211
 20
-3.000000000000036
 30
0.0
 11
-45.98804536910212
 21
0.1876564709991055
 31
0.0
 70
   160
  1
%%c<>
 71
     2
 42
6.0
 52
-270.0
  3
SLDDIMSTYLE2
100
AcDbAlignedDimension
 13
-35.48804536910211
 23
3.000000000000004
 33
0.0
 14
-35.48804536910211
 24
-2.999999999999996
 34
0.0
 50
90.0000000000002
100
AcDbRotatedDimension
1001
PE_URL
1000

1001
ACAD_DSTYLE_DIMFLIPARROW_SYMBOL
1070
   385
1070
     0
1001
ACAD_DSTYLE_DIMFLIPARROW_WHICH_SYMBOL
1070
   386
1070
     3
  0
DIMENSION
  5
358
330
1F
100
AcDbEntity
  8
치수문자_일반주서
100
AcDbDimension
  2
*D18
 10
14.01195463089788
 20
15.30788275874464
 30
0.0
 11
11.01195463089739
 21
15.30788275874464
 31
0.0
 70
   160
  1
<>
 71
     2
 42
6.000000000000938
  3
SLDDIMSTYLE2
100
AcDbAlignedDimension
 13
8.011954630896938
 23
1.619296573383464
 33
0.0
 14
14.01195463089788
 24
1.999999999999999
 34
0.0
100
AcDbRotatedDimension
1001
PE_URL
1000

1001
ACAD_DSTYLE_DIMFLIPARROW_SYMBOL
1070
   385
1070
     0
1001
ACAD_DSTYLE_DIMFLIPARROW_WHICH_SYMBOL
1070
   386
1070
     3
  0
DIMENSION
  5
359
330
1F
100
AcDbEntity
  8
치수문자_일반주서
100
AcDbDimension
  2
*D19
 10
4.011954618136571
 20
23.94888346237755
 30
0.0
 11
9.011954624517223
 21
23.94888346237755
 31
0.0
 70
   160
  1
<>
 71
     2
 42
10.0000000127613
  3
SLDDIMSTYLE0
100
AcDbAlignedDimension
 13
14.01195463089788
 23
1.999999999999999
 33
0.0
 14
4.011954618136571
 24
1.925000000000001
 34
0.0
100
AcDbRotatedDimension
1001
PE_URL
1000

1001
ACAD_DSTYLE_DIMFLIPARROW_SYMBOL
1070
   385
1070
     0
1001
ACAD_DSTYLE_DIMFLIPARROW_WHICH_SYMBOL
1070
   386
1070
     3
  0
LINE
  5
1347
330
1F
100
AcDbEntity
  8
0
  6
Continuous
 62
     4
370
    25
100
AcDbLine
 10
-35.48804536910211
 20
3.000000000000004
 30
0.0
 11
-35.98804536910211
 21
2.500000000000004
 31
0.0
  0
LINE
  5
1348
330
1F
100
AcDbEntity
  8
0
  6
Continuous
 62
     4
370
    25
100
AcDbLine
 10
-35.98804536910211
 20
-2.499999999999989
 30
0.0
 11
-35.48804536910211
 21
-2.999999999999989
 31
0.0
  0
LINE
  5
1353
330
1F
100
AcDbEntity
  8
0
  6
Continuous
 62
     4
370
    25
100
AcDbLine
 10
-35.48804536910211
 20
3.000000000000004
 30
0.0
 11
-35.48804536910211
 21
-2.999999999999989
 31
0.0
  0
LINE
  5
1354
330
1F
100
AcDbEntity
  8
0
  6
Continuous
 62
     4
370
    25
100
AcDbLine
 10
-35.98804536910211
 20
2.500000000000004
 30
0.0
 11
-35.98804536910211
 21
-2.499999999999989
 31
0.0
  0
LINE
  5
14DC
330
1F
100
AcDbEntity
  8
0
  6
Continuous
 62
     4
370
    25
100
AcDbLine
 10
0.0
 20
-3.000000000000004
 30
0.0
 11
4.011954618136571
 21
-1.924999999999994
 31
0.0
  0
LINE
  5
14DD
330
1F
100
AcDbEntity
  8
0
  6
Continuous
 62
     4
370
    25
100
AcDbLine
 10
4.011954618136571
 20
1.925000000000001
 30
0.0
 11
0.0
 21
3.000000000000004
 31
0.0
  0
LINE
  5
14DE
330
1F
100
AcDbEntity
  8
0
  6
Continuous
 62
     4
370
    25
100
AcDbLine
 10
0.0
 20
3.000000000000004
 30
0.0
 11
-35.48804536910211
 21
3.000000000000004
 31
0.0
  0
LINE
  5
14DF
330
1F
100
AcDbEntity
  8
0
  6
Continuous
 62
     4
370
    25
100
AcDbLine
 10
-35.48804536910211
 20
-2.999999999999996
 30
0.0
 11
0.0
 21
-2.999999999999996
 31
0.0
  0
LINE
  5
14E2
330
1F
100
AcDbEntity
  8
0
  6
Continuous
 62
     4
370
    25
100
AcDbLine
 10
7.122068307403424
 20
1.925000000000001
 30
0.0
 11
4.011954618136571
 21
1.925000000000001
 31
0.0
  0
LINE
  5
14E3
330
1F
100
AcDbEntity
  8
0
  6
Continuous
 62
     4
370
    25
100
AcDbLine
 10
4.011954618136571
 20
-1.924999999999994
 30
0.0
 11
7.122068307403424
 21
-1.924999999999994
 31
0.0
  0
LINE
  5
14E4
330
1F
100
AcDbEntity
  8
0
  6
Continuous
 62
     1
370
    25
100
AcDbLine
 10
10.00922241641939
 20
2.000000000000004
 30
0.0
 11
9.677261660146627
 21
2.000000000000004
 31
0.0
1001
PE_URL
1000

  0
LINE
  5
14E5
330
1F
100
AcDbEntity
  8
0
  6
Continuous
 62
     1
370
    25
100
AcDbLine
 10
9.677261660146627
 20
-1.999999999999996
 30
0.0
 11
10.00922241641939
 21
-1.999999999999996
 31
0.0
1001
PE_URL
1000

  0
ARC
  5
14E6
102
{ACAD_REACTORS
102
}
330
1F
100
AcDbEntity
  8
0
  6
Continuous
 62
     1
370
    25
100
AcDbCircle
 10
13.8119546308979
 20
-1.799999999999994
 30
0.0
 40
0.199999999999999
100
AcDbArc
 50
279.9160487495813
 51
0.0
1001
PE_URL
1000

  0
LWPOLYLINE
  5
14E7
330
1F
100
AcDbEntity
  8
0
  6
Continuous
 62
     1
370
    25
100
AcDbPolyline
 90
        3
 70
   128
 43
0.0
 10
13.88843875733991
 20
1.984797668822974
 10
13.87992195448808
 20
1.988096897699005
 10
13.84616131205698
 20
1.997053046066487
1001
PE_URL
1000

  0
LINE
  5
14E8
330
1F
100
AcDbEntity
  8
0
  6
Continuous
 62
     4
370
    25
100
AcDbLine
 10
4.011954618136571
 20
1.925000000000001
 30
0.0
 11
4.011954618136571
 21
-1.924999999999994
 31
0.0
  0
LINE
  5
14E9
330
1F
100
AcDbEntity
  8
0
  6
Continuous
 62
     4
370
    25
100
AcDbLine
 10
0.0
 20
3.000000000000004
 30
0.0
 11
0.0
 21
-3.000000000000004
 31
0.0
  0
SPLINE
  5
14EC
330
1F
100
AcDbEntity
  8
0
  6
Continuous
 62
     4
370
    25
100
AcDbSpline
210
0.0
220
0.0
230
1.0
 70
     8
 71
     3
 72
    11
 73
     7
 74
     0
 42
0.000000001
 43
0.00000001
 40
0.0
 40
0.0
 40
0.0
 40
0.0
 40
0.0573915910198236
 40
0.486121154957362
 40
0.9176951464205512
 40
1.0
 40
1.0
 40
1.0
 40
1.0
 10
7.562003361768944
 20
1.538478519337378
 30
0.0
 10
7.570153775651676
 20
1.53637733602115
 30
0.0
 10
7.639189823261432
 20
1.518579786897458
 30
0.0
 10
7.788061517604632
 20
1.520441701809109
 30
0.0
 10
7.930446355916104
 20
1.542497884798667
 30
0.0
 10
8.000702181940625
 20
1.564317154546341
 30
0.0
 10
8.01195463089789
 20
1.567811814463003
 30
0.0
  0
LINE
  5
14ED
330
1F
100
AcDbEntity
  8
0
  6
Continuous
 62
     4
370
    25
100
AcDbLine
 10
7.122068307403424
 20
1.925000000000008
 30
0.0
 11
7.122068307403424
 21
1.839240074940609
 31
0.0
  0
SPLINE
  5
14EE
330
1F
100
AcDbEntity
  8
0
  6
Continuous
 62
     4
370
    25
100
AcDbSpline
210
0.0
220
0.0
230
1.0
 70
     8
 71
     3
 72
    10
 73
     6
 74
     0
 42
0.000000001
 43
0.00000001
 40
0.0
 40
0.0
 40
0.0
 40
0.0
 40
0.5
 40
0.5
 40
1.0
 40
1.0
 40
1.0
 40
1.0
 10
7.372715117388537
 20
1.619179313769724
 30
0.0
 10
7.290643632937304
 20
1.651426885493233
 30
0.0
 10
7.225677134084862
 20
1.692336991135132
 30
0.0
 10
7.141234060971328
 20
1.771512203061061
 30
0.0
 10
7.122068307399019
 20
1.809363707591
 30
0.0
 10
7.122068307398791
 20
1.839240074940204
 30
0.0
  0
SPLINE
  5
14EF
330
1F
100
AcDbEntity
  8
0
  6
Continuous
 62
     4
370
    25
100
AcDbSpline
210
0.0
220
0.0
230
1.0
 70
     8
 71
     3
 72
    10
 73
     6
 74
     0
 42
0.000000001
 43
0.00000001
 40
0.0
 40
0.0
 40
0.0
 40
0.0
 40
0.5
 40
0.5
 40
1.0
 40
1.0
 40
1.0
 40
1.0
 10
8.01195463089789
 20
1.323708555973926
 30
0.0
 10
7.904412395599223
 20
1.380055310886423
 30
0.0
 10
7.796792305512753
 20
1.43317583811444
 30
0.0
 10
7.583735988783218
 20
1.531870921288874
 30
0.0
 10
7.479178264331352
 20
1.577347756927477
 30
0.0
 10
7.372715117388537
 20
1.619179313769724
 30
0.0
  0
LINE
  5
14F0
330
1F
100
AcDbEntity
  8
0
  6
Continuous
 62
     4
370
    25
100
AcDbLine
 10
8.01195463089789
 20
1.173830740547029
 30
0.0
 11
8.01195463089789
 21
1.116956182860488
 31
0.0
  0
SPLINE
  5
14F1
330
1F
100
AcDbEntity
  8
0
  6
Continuous
 62
     4
370
    25
100
AcDbSpline
210
0.0
220
0.0
230
1.0
 70
     8
 71
     3
 72
    14
 73
    10
 74
     0
 42
0.000000001
 43
0.00000001
 40
0.0
 40
0.0
 40
0.0
 40
0.0
 40
0.25
 40
0.25
 40
0.5
 40
0.5
 40
0.75
 40
0.75
 40
1.0
 40
1.0
 40
1.0
 40
1.0
 10
7.122068307403424
 20
0.619005446721868
 30
0.0
 10
7.122068307403424
 20
0.7206928808578432
 30
0.0
 10
7.143808554261483
 20
0.8188555260138521
 30
0.0
 10
7.238638431327473
 20
0.9859123356792274
 30
0.0
 10
7.311670462716961
 20
1.05500957484119
 30
0.0
 10
7.493041157053739
 20
1.149804698979718
 30
0.0
 10
7.598340919007313
 20
1.174704606983159
 30
0.0
 10
7.810644777002722
 20
1.179653255918797
 30
0.0
 10
7.91793354751448
 20
1.159669631239328
 30
0.0
 10
8.01195463089789
 20
1.116956182860481
 30
0.0
  0
LINE
  5
14F2
330
1F
100
AcDbEntity
  8
0
  6
Continuous
 62
     4
370
    25
100
AcDbLine
 10
7.122068307403424
 20
0.619005446721868
 30
0.0
 11
7.122068307403424
 21
-0.5681733421522459
 31
0.0
  0
SPLINE
  5
14F3
330
1F
100
AcDbEntity
  8
0
  6
Continuous
 62
     4
370
    25
100
AcDbSpline
210
0.0
220
0.0
230
1.0
 70
     8
 71
     3
 72
    10
 73
     6
 74
     0
 42
0.000000001
 43
0.00000001
 40
0.0
 40
0.0
 40
0.0
 40
0.0
 40
0.5
 40
0.5
 40
1.0
 40
1.0
 40
1.0
 40
1.0
 10
7.372715117388537
 20
-1.041097185595621
 30
0.0
 10
7.290643632937304
 20
-0.9909437496086291
 30
0.0
 10
7.225677134084862
 20
-0.9218706682355808
 30
0.0
 10
7.141234060971328
 20
-0.7586794678408033
 30
0.0
 10
7.122068307399019
 20
-0.6648864542366049
 30
0.0
 10
7.122068307398791
 20
-0.5681733421535604
 30
0.0
  0
SPLINE
  5
14F4
330
1F
100
AcDbEntity
  8
0
  6
Continuous
 62
     4
370
    25
100
AcDbSpline
210
0.0
220
0.0
230
1.0
 70
     8
 71
     3
 72
    10
 73
     6
 74
     0
 42
0.000000001
 43
0.00000001
 40
0.0
 40
0.0
 40
0.0
 40
0.0
 40
0.5
 40
0.5
 40
1.0
 40
1.0
 40
1.0
 40
1.0
 10
8.01195463089789
 20
-1.397648260055565
 30
0.0
 10
7.904412395599223
 20
-1.344282414219595
 30
0.0
 10
7.796792305512753
 20
-1.287484759440655
 30
0.0
 10
7.583735988783218
 20
-1.168324214101791
 30
0.0
 10
7.479178264331352
 20
-1.106156233337646
 30
0.0
 10
7.372715117388537
 20
-1.041097185595621
 30
0.0
  0
LINE
  5
14F5
330
1F
100
AcDbEntity
  8
0
  6
Continuous
 62
     4
370
    25
100
AcDbLine
 10
8.01195463089789
 20
-1.397648260056673
 30
0.0
 11
8.01195463089789
 21
-1.463189364604201
 31
0.0
  0
SPLINE
  5
14F6
330
1F
100
AcDbEntity
  8
0
  6
Continuous
 62
     4
370
    25
100
AcDbSpline
210
0.0
220
0.0
230
1.0
 70
     8
 71
     3
 72
    14
 73
    10
 74
     0
 42
0.000000001
 43
0.00000001
 40
0.0
 40
0.0
 40
0.0
 40
0.0
 40
0.2500000000000002
 40
0.2500000000000002
 40
0.5000000000000001
 40
0.5000000000000001
 40
0.75
 40
0.75
 40
1.0
 40
1.0
 40
1.0
 40
1.0
 10
7.122068307403424
 20
-1.822760888577729
 30
0.0
 10
7.122068307403424
 20
-1.788228067521619
 30
0.0
 10
7.143808554261483
 20
-1.74471848210263
 30
0.0
 10
7.238638431327473
 20
-1.65606274658585
 30
0.0
 10
7.311670462716961
 20
-1.611186722045094
 30
0.0
 10
7.49304115705371
 20
-1.544965051548143
 30
0.0
 10
7.598340919007313
 20
-1.52502585738338
 30
0.0
 10
7.810644777002722
 20
-1.521201161962335
 30
0.0
 10
7.91793354751448
 20
-1.537381472110727
 30
0.0
 10
8.01195463089789
 20
-1.567811814463003
 30
0.0
  0
LINE
  5
14F7
330
1F
100
AcDbEntity
  8
0
  6
Continuous
 62
     4
370
    25
100
AcDbLine
 10
7.122068307403424
 20
-1.822760888577729
 30
0.0
 11
7.122068307403424
 21
-1.924999999999994
 31
0.0
  0
SPLINE
  5
14F8
330
1F
100
AcDbEntity
  8
0
  6
Continuous
 62
     4
370
    25
100
AcDbSpline
210
0.0
220
0.0
230
1.0
 70
     8
 71
     3
 72
    10
 73
     6
 74
     0
 42
0.000000001
 43
0.00000001
 40
0.0
 40
0.0
 40
0.0
 40
0.0
 40
0.5
 40
0.5
 40
1.0
 40
1.0
 40
1.0
 40
1.0
 10
7.372715117388537
 20
-1.61917931376971
 30
0.0
 10
7.290643632937304
 20
-1.651426885493219
 30
0.0
 10
7.225677134084862
 20
-1.692336991135118
 30
0.0
 10
7.141234060971328
 20
-1.771512203061047
 30
0.0
 10
7.122068307399019
 20
-1.809363707590986
 30
0.0
 10
7.122068307398791
 20
-1.839240074940196
 30
0.0
  0
LINE
  5
14F9
330
1F
100
AcDbEntity
  8
0
  6
Continuous
 62
     4
370
    25
100
AcDbLine
 10
7.562003361768859
 20
-1.538478519337399
 30
0.0
 11
7.372715117388537
 21
-1.61917931376971
 31
0.0
  0
SPLINE
  5
14FA
330
1F
100
AcDbEntity
  8
0
  6
Continuous
 62
     4
370
    25
100
AcDbSpline
210
0.0
220
0.0
230
1.0
 70
    24
 71
     3
 72
     8
 73
     4
 74
     0
 42
0.000000001
 43
0.00000001
 40
0.0
 40
0.0
 40
0.0
 40
0.0
 40
1.0
 40
1.0
 40
1.0
 40
1.0
 10
8.01195463089789
 20
1.116956182860488
 30
0.0
 10
8.01195463089789
 20
1.037523636948304
 30
0.0
 10
8.01195463089789
 20
0.9510827495595784
 30
0.0
 10
8.01195463089789
 20
0.8569847316856105
 30
0.0
  0
SPLINE
  5
14FB
330
1F
100
AcDbEntity
  8
0
  6
Continuous
 62
     4
370
    25
100
AcDbSpline
210
0.0
220
0.0
230
1.0
 70
    24
 71
     3
 72
    14
 73
    10
 74
     0
 42
0.000000001
 43
0.00000001
 40
0.0
 40
0.0
 40
0.0
 40
0.0
 40
0.2499999999999998
 40
0.2499999999999998
 40
0.4999999999999999
 40
0.4999999999999999
 40
0.75
 40
0.75
 40
1.0
 40
1.0
 40
1.0
 40
1.0
 10
8.01195463089789
 20
0.8569847316855395
 30
0.0
 10
8.01195463089789
 20
0.7340033981545595
 30
0.0
 10
8.01195463089789
 20
0.5905393207334875
 30
0.0
 10
8.01195463089789
 20
0.260724656385559
 30
0.0
 10
8.01195463089789
 20
0.0740869209824631
 30
0.0
 10
8.01195463089789
 20
-0.3305406863627915
 30
0.0
 10
8.01195463089789
 20
-0.5485357824354828
 30
0.0
 10
8.01195463089789
 20
-0.984480782417851
 30
0.0
 10
8.01195463089789
 20
-1.201816973619739
 30
0.0
 10
8.01195463089789
 20
-1.397648260056673
 30
0.0
  0
SPLINE
  5
14FC
330
1F
100
AcDbEntity
  8
0
  6
Continuous
 62
     4
370
    25
100
AcDbSpline
210
0.0
220
0.0
230
1.0
 70
    24
 71
     3
 72
     8
 73
     4
 74
     0
 42
0.000000001
 43
0.00000001
 40
0.0
 40
0.0
 40
0.0
 40
0.0
 40
1.0
 40
1.0
 40
1.0
 40
1.0
 10
8.01195463089789
 20
1.567811814463003
 30
0.0
 10
8.01195463089789
 20
1.485154067231559
 30
0.0
 10
8.01195463089789
 20
1.410678747527438
 30
0.0
 10
8.01195463089789
 20
1.345143334001062
 30
0.0
  0
SPLINE
  5
14FD
330
1F
100
AcDbEntity
  8
0
  6
Continuous
 62
     1
370
    25
100
AcDbSpline
210
0.0
220
0.0
230
1.0
 70
     8
 71
     3
 72
    14
 73
    10
 74
     0
 42
0.000000001
 43
0.00000001
 40
0.0
 40
0.0
 40
0.0
 40
0.0
 40
0.0161216861453259
 40
0.1822026202024404
 40
0.3484233695567002
 40
0.5110235513775524
 40
0.6739090193959971
 40
0.8373326284137091
 40
0.9999999999999999
 40
0.9999999999999999
 40
0.9999999999999999
 40
0.9999999999999999
 10
11.92636387896877
 20
-1.497141268273477
 30
0.0
 10
11.90534463970883
 20
-1.508835703868346
 30
0.0
 10
11.66779129489706
 20
-1.641002822615523
 30
0.0
 10
11.21286379564876
 20
-1.810432652586702
 30
0.0
 10
10.56647845718825
 20
-1.976489503544745
 30
0.0
 10
9.92572869965963
 20
-2.018263018840759
 30
0.0
 10
9.288051617727774
 20
-1.944044540758451
 30
0.0
 10
8.648993468607557
 20
-1.764296738032048
 30
0.0
 10
8.223972354716295
 20
-1.561186681497094
 30
0.0
 10
8.01195463089789
 20
-1.459867169445321
 30
0.0
  0
SPLINE
  5
14FE
330
1F
100
AcDbEntity
  8
0
  6
Continuous
 62
     4
370
    25
100
AcDbSpline
210
0.0
220
0.0
230
1.0
 70
    24
 71
     3
 72
    14
 73
    10
 74
     0
 42
0.000000001
 43
0.00000001
 40
0.0
 40
0.0
 40
0.0
 40
0.0
 40
0.2499999999999999
 40
0.2499999999999999
 40
0.4999999999999999
 40
0.4999999999999999
 40
0.7499999999999999
 40
0.7499999999999999
 40
1.0
 40
1.0
 40
1.0
 40
1.0
 10
8.01195463089789
 20
1.173830740547029
 30
0.0
 10
8.01195463089789
 20
1.063928745650269
 30
0.0
 10
8.01195463089789
 20
0.9271298977903761
 30
0.0
 10
8.01195463089789
 20
0.5843600770870516
 30
0.0
 10
8.01195463089789
 20
0.3774877107165189
 30
0.0
 10
8.01195463089789
 20
-0.101254108999651
 30
0.0
 10
8.01195463089789
 20
-0.3737328000958335
 30
0.0
 10
8.01195463089789
 20
-0.9315131163975643
 30
0.0
 10
8.01195463089789
 20
-1.215086916929774
 30
0.0
 10
8.01195463089789
 20
-1.459867169445314
 30
0.0
  0
SPLINE
  5
14FF
330
1F
100
AcDbEntity
  8
0
  6
Continuous
 62
     1
370
    25
100
AcDbSpline
210
0.0
220
0.0
230
1.0
 70
     8
 71
     3
 72
    30
 73
    26
 74
     0
 42
0.000000001
 43
0.00000001
 40
0.0
 40
0.0
 40
0.0
 40
0.0
 40
0.1250000000000001
 40
0.1250000000000001
 40
0.2500000000000003
 40
0.2500000000000003
 40
0.3125000000000005
 40
0.3125000000000005
 40
0.3750000000000008
 40
0.3750000000000008
 40
0.5000000000000008
 40
0.5000000000000008
 40
0.5625000000000007
 40
0.5625000000000007
 40
0.6250000000000004
 40
0.6250000000000004
 40
0.7500000000000002
 40
0.7500000000000002
 40
0.8125000000000002
 40
0.8125000000000002
 40
0.8750000000000002
 40
0.8750000000000002
 40
0.9375000000000001
 40
0.9375000000000001
 40
1.0
 40
1.0
 40
1.0
 40
1.0
 10
13.8119546308979
 20
-1.999830132642426
 30
0.0
 10
13.57026769398269
 20
-1.997456951699466
 30
0.0
 10
13.32369161195717
 20
-1.969743703352837
 30
0.0
 10
12.84778787406552
 20
-1.86742447750834
 30
0.0
 10
12.60122576300228
 20
-1.791607671178266
 30
0.0
 10
12.23868558793723
 20
-1.64661629017316
 30
0.0
 10
12.12033713581582
 20
-1.593387233711066
 30
0.0
 10
11.87924426751377
 20
-1.476762592148926
 30
0.0
 10
11.75727864973069
 20
-1.41343600557018
 30
0.0
 10
11.3922188340409
 20
-1.210937976731014
 30
0.0
 10
11.15511721929101
 20
-1.060372029557488
 30
0.0
 10
10.79070284532159
 20
-0.815852142945193
 30
0.0
 10
10.66856352443514
 20
-0.7313855551942403
 30
0.0
 10
10.42636154385133
 20
-0.5589074842917761
 30
0.0
 10
10.30772690782371
 20
-0.4712585485157454
 30
0.0
 10
9.947104466098722
 20
-0.2036239318605233
 30
0.0
 10
9.700262866516908
 20
-0.0188372712265554
 30
0.0
 10
9.34070049057729
 20
0.2526547989938841
 30
0.0
 10
9.221543176607582
 20
0.3424803542020634
 30
0.0
 10
8.978943832576675
 20
0.5205048217826906
 30
0.0
 10
8.856784086909698
 20
0.6083750499183544
 30
0.0
 10
8.614158717752986
 20
0.7793752149331006
 30
0.0
 10
8.494953728200613
 20
0.8622229093084179
 30
0.0
 10
8.255299719671456
 20
1.022384968374379
 30
0.0
 10
8.13368160946294
 20
1.099937416855315
 30
0.0
 10
8.011954630896923
 20
1.173830740536541
 30
0.0
  0
LINE
  5
1500
330
1F
100
AcDbEntity
  8
0
  6
Continuous
 62
     1
370
    25
100
AcDbLine
 10
13.8119546308979
 20
-1.999830132642426
 30
0.0
 11
13.84548788424237
 21
-1.992860498365115
 31
0.0
1001
PE_URL
1000

  0
SPLINE
  5
1501
330
1F
100
AcDbEntity
  8
0
  6
Continuous
 62
     1
370
    25
100
AcDbSpline
210
0.0
220
0.0
230
1.0
 70
     8
 71
     3
 72
    12
 73
     8
 74
     0
 42
0.000000001
 43
0.00000001
 40
0.0
 40
0.0
 40
0.0
 40
0.0
 40
0.2500000000000013
 40
0.2500000000000013
 40
0.5000000000000026
 40
0.5000000000000026
 40
1.0
 40
1.0
 40
1.0
 40
1.0
 10
14.01195463089789
 20
-1.793879905925653
 30
0.0
 10
14.0119546308978
 20
-1.822572798979518
 30
0.0
 10
14.00570512817794
 20
-1.851659206540251
 30
0.0
 10
13.981988526956
 20
-1.902835475513069
 30
0.0
 10
13.96459148445999
 20
-1.924841127492801
 30
0.0
 10
13.90569569230425
 20
-1.973827703228675
 30
0.0
 10
13.85822664052995
 20
-1.985694840032078
 30
0.0
 10
13.81195463089807
 20
-1.980886688149983
 30
0.0
1001
PE_URL
1000

  0
SPLINE
  5
1502
330
1F
100
AcDbEntity
  8
0
  6
Continuous
 62
     1
370
    25
100
AcDbSpline
210
0.0
220
0.0
230
1.0
 70
     8
 71
     3
 72
    30
 73
    26
 74
     0
 42
0.000000001
 43
0.00000001
 40
0.0
 40
0.0
 40
0.0
 40
0.0
 40
0.1250000000000003
 40
0.1250000000000003
 40
0.2500000000000007
 40
0.2500000000000007
 40
0.3125000000000008
 40
0.3125000000000008
 40
0.375000000000001
 40
0.375000000000001
 40
0.500000000000001
 40
0.500000000000001
 40
0.5625000000000009
 40
0.5625000000000009
 40
0.6250000000000009
 40
0.6250000000000009
 40
0.7500000000000007
 40
0.7500000000000007
 40
0.8125000000000004
 40
0.8125000000000004
 40
0.8750000000000003
 40
0.8750000000000003
 40
0.9375000000000001
 40
0.9375000000000001
 40
1.0
 40
1.0
 40
1.0
 40
1.0
 10
13.8119546308979
 20
-1.980886688137456
 30
0.0
 10
13.57026769398274
 20
-1.955772855609684
 30
0.0
 10
13.32369161195726
 20
-1.9054124590517
 30
0.0
 10
12.84778787406569
 20
-1.760451842623535
 30
0.0
 10
12.60122576300247
 20
-1.664135836337397
 30
0.0
 10
12.23868558793751
 20
-1.491347136448606
 30
0.0
 10
12.1203371358161
 20
-1.42936674857626
 30
0.0
 10
11.87924426751408
 20
-1.296201050308792
 30
0.0
 10
11.75727864973103
 20
-1.225108776292455
 30
0.0
 10
11.3922188340413
 20
-1.001169376925954
 30
0.0
 10
11.15511721929144
 20
-0.8388621811873485
 30
0.0
 10
10.79070284532207
 20
-0.5809149446506048
 30
0.0
 10
10.66856352443565
 20
-0.4926866633333979
 30
0.0
 10
10.4263615438519
 20
-0.3142140240909477
 30
0.0
 10
10.30772690782428
 20
-0.2243361302020084
 30
0.0
 10
9.947104466099375
 20
0.0477098087408514
 30
0.0
 10
9.70026286651759
 20
0.2323278112493448
 30
0.0
 10
9.340700490578001
 20
0.4989298815130248
 30
0.0
 10
9.221543176608321
 20
0.586364960061811
 30
0.0
 10
8.9789438325775
 20
0.7580763273386459
 30
0.0
 10
8.856784086910523
 20
0.8420289187315468
 30
0.0
 10
8.614158717753867
 20
1.003780975446663
 30
0.0
 10
8.494953728201466
 20
1.081320239286622
 30
0.0
 10
8.255299719672365
 20
1.229532197714594
 30
0.0
 10
8.133681609463906
 20
1.300418069131222
 30
0.0
 10
8.01195463089789
 20
1.367036154450826
 30
0.0
  0
SPLINE
  5
1503
330
1F
100
AcDbEntity
  8
0
  6
Continuous
 62
     4
370
    25
100
AcDbSpline
210
0.0
220
0.0
230
1.0
 70
    24
 71
     3
 72
     9
 73
     5
 74
     0
 42
0.000000001
 43
0.00000001
 40
0.0
 40
0.0
 40
0.0
 40
0.0
 40
0.5212027546287299
 40
1.0
 40
1.0
 40
1.0
 40
1.0
 10
8.01195463089789
 20
1.619296573395733
 30
0.0
 10
8.01195463089789
 20
1.577390904637934
 30
0.0
 10
8.01195463089789
 20
1.496989048765844
 30
0.0
 10
8.01195463089789
 20
1.432526284811534
 30
0.0
 10
8.01195463089789
 20
1.401661691001191
 30
0.0
  0
SPLINE
  5
1504
330
1F
100
AcDbEntity
  8
0
  6
Continuous
 62
     1
370
    25
100
AcDbSpline
210
0.0
220
0.0
230
1.0
 70
     8
 71
     3
 72
    30
 73
    26
 74
     0
 42
0.000000001
 43
0.00000001
 40
0.0
 40
0.0
 40
0.0
 40
0.0
 40
0.1250000000000001
 40
0.1250000000000001
 40
0.2500000000000001
 40
0.2500000000000001
 40
0.3125000000000003
 40
0.3125000000000003
 40
0.3750000000000005
 40
0.3750000000000005
 40
0.5000000000000006
 40
0.5000000000000006
 40
0.5625000000000004
 40
0.5625000000000004
 40
0.6250000000000004
 40
0.6250000000000004
 40
0.7500000000000002
 40
0.7500000000000002
 40
0.8125000000000001
 40
0.8125000000000001
 40
0.875
 40
0.875
 40
0.9375
 40
0.9375
 40
1.0
 40
1.0
 40
1.0
 40
1.0
 10
13.8119546308979
 20
0.0260660809358662
 30
0.0
 10
13.57026769398269
 20
0.208140201384456
 30
0.0
 10
13.32369161195717
 20
0.3910562844075294
 30
0.0
 10
12.84778787406552
 20
0.7386075380575754
 30
0.0
 10
12.60122576300228
 20
0.9073583441013149
 30
0.0
 10
12.23868558793723
 20
1.138834534050115
 30
0.0
 10
12.12033713581582
 20
1.212185099265032
 30
0.0
 10
11.87924426751377
 20
1.35183129045868
 30
0.0
 10
11.75727864973069
 20
1.417930284191659
 30
0.0
 10
11.3922188340409
 20
1.602167203256482
 30
0.0
 10
11.15511721929101
 20
1.705544612757567
 30
0.0
 10
10.79070284532159
 20
1.828306073294431
 30
0.0
 10
10.66856352443514
 20
1.863699567982575
 30
0.0
 10
10.42636154385133
 20
1.922478435262118
 30
0.0
 10
10.30772690782371
 20
1.94580972614526
 30
0.0
 10
9.947104466098722
 20
1.997893323983117
 30
0.0
 10
9.700262866516908
 20
2.008138695132555
 30
0.0
 10
9.34070049057729
 20
1.986053755054069
 30
0.0
 10
9.221543176607582
 20
1.972566142067063
 30
0.0
 10
8.978943832576675
 20
1.93323167477276
 30
0.0
 10
8.856784086909698
 20
1.907404092035545
 30
0.0
 10
8.614158717752986
 20
1.844148813416393
 30
0.0
 10
8.494953728200613
 20
1.806879736099443
 30
0.0
 10
8.255299719671456
 20
1.721328470253479
 30
0.0
 10
8.13368160946294
 20
1.672861964852327
 30
0.0
 10
8.011954630896923
 20
1.619296573383476
 30
0.0
  0
SPLINE
  5
1505
330
1F
100
AcDbEntity
  8
0
  6
Continuous
 62
     1
370
    25
100
AcDbSpline
210
0.0
220
0.0
230
1.0
 70
     8
 71
     3
 72
    10
 73
     6
 74
     0
 42
0.000000001
 43
0.00000001
 40
0.0
 40
0.0
 40
0.0
 40
0.0
 40
0.5
 40
0.5
 40
1.0
 40
1.0
 40
1.0
 40
1.0
 10
13.8119546308979
 20
0.0260660809358662
 30
0.0
 10
13.86130870955949
 20
-0.0111146644430882
 30
0.0
 10
13.90883839040683
 20
-0.0491279012860595
 30
0.0
 10
13.98462706809707
 20
-0.1129897860447535
 30
0.0
 10
14.01195463089792
 20
-0.1381386890262313
 30
0.0
 10
14.01195463089789
 20
-0.1483067197339771
 30
0.0
1001
PE_URL
1000

  0
LINE
  5
1506
330
1F
100
AcDbEntity
  8
0
  6
Continuous
 62
     1
370
    25
100
AcDbLine
 10
14.01195463089789
 20
-0.7374872432550426
 30
0.0
 11
14.01195463089789
 21
-0.1483067197339771
 31
0.0
1001
PE_URL
1000

  0
SPLINE
  5
1507
330
1F
100
AcDbEntity
  8
0
  6
Continuous
 62
     1
370
    25
100
AcDbSpline
210
0.0
220
0.0
230
1.0
 70
     8
 71
     3
 72
     8
 73
     4
 74
     0
 42
0.000000001
 43
0.00000001
 40
0.0
 40
0.0
 40
0.0
 40
0.0
 40
1.0
 40
1.0
 40
1.0
 40
1.0
 10
14.01195463089789
 20
-0.7374872432550426
 30
0.0
 10
13.93954473554086
 20
-0.7760829422290634
 30
0.0
 10
13.86763932259677
 20
-0.8195472815524134
 30
0.0
 10
13.79617937125582
 20
-0.8673106653611633
 30
0.0
1001
PE_URL
1000

  0
SPLINE
  5
1508
330
1F
100
AcDbEntity
  8
0
  6
Continuous
 62
     1
370
    25
100
AcDbSpline
210
0.0
220
0.0
230
1.0
 70
     8
 71
     3
 72
     8
 73
     4
 74
     0
 42
0.000000001
 43
0.00000001
 40
0.0
 40
0.0
 40
0.0
 40
0.0
 40
1.0
 40
1.0
 40
1.0
 40
1.0
 10
14.01195463089789
 20
-0.9133547695838722
 30
0.0
 10
13.94067937358957
 20
-0.8990479373791125
 30
0.0
 10
13.86863715752531
 20
-0.883679856134048
 30
0.0
 10
13.79617937125582
 20
-0.8673106653611633
 30
0.0
1001
PE_URL
1000

  0
LINE
  5
1509
330
1F
100
AcDbEntity
  8
0
  6
Continuous
 62
     1
370
    25
100
AcDbLine
 10
14.01195463089789
 20
-1.793879905925071
 30
0.0
 11
14.01195463089792
 21
-0.9133547695838651
 31
0.0
1001
PE_URL
1000

  0
LINE
  5
150A
330
1F
100
AcDbEntity
  8
0
  6
Continuous
 62
     4
370
    25
100
AcDbLine
 10
8.01195463089789
 20
1.173830740547029
 30
0.0
 11
8.01195463089789
 21
1.367036154450826
 31
0.0
  0
SPLINE
  5
150B
330
1F
100
AcDbEntity
  8
0
  6
Continuous
 62
     1
370
    25
100
AcDbSpline
210
0.0
220
0.0
230
1.0
 70
     8
 71
     3
 72
    12
 73
     8
 74
     0
 42
0.000000001
 43
0.00000001
 40
0.0
 40
0.0
 40
0.0
 40
0.0
 40
0.2499999999999987
 40
0.2499999999999987
 40
0.4999999999999973
 40
0.4999999999999973
 40
1.0
 40
1.0
 40
1.0
 40
1.0
 10
14.01195463089789
 20
0.1483067197333447
 30
0.0
 10
14.0119546308978
 20
0.1435448603396914
 30
0.0
 10
14.00570512817794
 20
0.1436522621215879
 30
0.0
 10
13.98198852695597
 20
0.1545149806036754
 30
0.0
 10
13.96459148445999
 20
0.1652143766577474
 30
0.0
 10
13.90569569230425
 20
0.2052221675100476
 30
0.0
 10
13.85822664052995
 20
0.2413117281369459
 30
0.0
 10
13.81195463089807
 20
0.2758404045100171
 30
0.0
1001
PE_URL
1000

  0
LINE
  5
150C
330
1F
100
AcDbEntity
  8
0
  6
Continuous
 62
     1
370
    25
100
AcDbLine
 10
14.01195463089789
 20
-0.1483067197339771
 30
0.0
 11
14.01195463089789
 21
0.1483067197339842
 31
0.0
1001
PE_URL
1000

  0
SPLINE
  5
150D
330
1F
100
AcDbEntity
  8
0
  6
Continuous
 62
     1
370
    25
100
AcDbSpline
210
0.0
220
0.0
230
1.0
 70
     8
 71
     3
 72
    13
 73
     9
 74
     0
 42
0.000000001
 43
0.00000001
 40
0.0
 40
0.0
 40
0.0
 40
0.0
 40
0.1712473943504657
 40
0.3420293261181122
 40
0.5124484842004708
 40
0.6834123928079124
 40
0.8545202274464713
 40
1.0
 40
1.0
 40
1.0
 40
1.0
 10
13.81195463089779
 20
0.2758404045092853
 30
0.0
 10
13.59468127538381
 20
0.4359655761385746
 30
0.0
 10
13.16072512877074
 20
0.7557806878057853
 30
0.0
 10
12.51119446376291
 20
1.186160662084337
 30
0.0
 10
11.86279562009057
 20
1.548324499852182
 30
0.0
 10
11.21288898242852
 20
1.813997212130619
 30
0.0
 10
10.5942694825936
 20
1.97504518849976
 30
0.0
 10
10.19342177316037
 20
1.987665398177729
 30
0.0
 10
10.00922241641939
 20
1.993464694144532
 30
0.0
1001
PE_URL
1000

  0
SPLINE
  5
150E
330
1F
100
AcDbEntity
  8
0
  6
Continuous
 62
     1
370
    25
100
AcDbSpline
210
0.0
220
0.0
230
1.0
 70
     8
 71
     3
 72
    10
 73
     6
 74
     0
 42
0.000000001
 43
0.00000001
 40
0.0
 40
0.0
 40
0.0
 40
0.0
 40
0.3226044852430929
 40
0.6607651350769784
 40
1.0
 40
1.0
 40
1.0
 40
1.0
 10
11.92636387896877
 20
1.497141268273484
 30
0.0
 10
12.12896174293695
 20
1.591176296713311
 30
0.0
 10
12.54392685059923
 20
1.783780774057103
 30
0.0
 10
13.17227827305433
 20
1.95898170002862
 30
0.0
 10
13.59850387516119
 20
1.986199601038191
 30
0.0
 10
13.81195463089779
 20
1.999830132642433
 30
0.0
1001
PE_URL
1000

  0
SPLINE
  5
150F
330
1F
100
AcDbEntity
  8
0
  6
Continuous
 62
     1
370
    25
100
AcDbSpline
210
0.0
220
0.0
230
1.0
 70
     8
 71
     3
 72
    12
 73
     8
 74
     0
 42
0.000000001
 43
0.00000001
 40
0.0
 40
0.0
 40
0.0
 40
0.0
 40
0.1812686814880968
 40
0.4911779453349931
 40
0.7306519475766954
 40
0.9713160384583259
 40
1.0
 40
1.0
 40
1.0
 40
1.0
 10
13.8454451812776
 20
1.992869373854898
 30
0.0
 10
13.8608863054059
 20
1.990754283587886
 30
0.0
 10
13.90272662531513
 20
1.985023091177698
 30
0.0
 10
13.95653388513676
 20
1.942396532371905
 30
0.0
 10
13.99883823018297
 20
1.878230810978568
 30
0.0
 10
14.01150912901616
 20
1.825449050525332
 30
0.0
 10
14.01191175376309
 20
1.796918264514712
 30
0.0
 10
14.01195463089789
 20
1.793879905925078
 30
0.0
1001
PE_URL
1000

  0
LINE
  5
1510
330
1F
100
AcDbEntity
  8
0
  6
Continuous
 62
     1
370
    25
100
AcDbLine
 10
14.01195463089789
 20
1.295007929193385
 30
0.0
 11
14.01195463089789
 21
1.793879905925078
 31
0.0
1001
PE_URL
1000

  0
SPLINE
  5
1511
330
1F
100
AcDbEntity
  8
0
  6
Continuous
 62
     1
370
    25
100
AcDbSpline
210
0.0
220
0.0
230
1.0
 70
     8
 71
     3
 72
    12
 73
     8
 74
     0
 42
0.000000001
 43
0.00000001
 40
0.0
 40
0.0
 40
0.0
 40
0.0
 40
0.25
 40
0.25
 40
0.5
 40
0.5
 40
1.0
 40
1.0
 40
1.0
 40
1.0
 10
14.01195463089789
 20
1.295007929193392
 30
0.0
 10
13.98081925053972
 20
1.216680741431258
 30
0.0
 10
13.94317727757206
 20
1.143919867204534
 30
0.0
 10
13.85278270228693
 20
1.011325084635846
 30
0.0
 10
13.79973124740039
 20
0.9518270312653776
 30
0.0
 10
13.62626326793202
 20
0.8056759245752367
 30
0.0
 10
13.48738020084528
 20
0.7483685802744979
 30
0.0
 10
13.34575438664749
 20
0.7322244682873951
 30
0.0
1001
PE_URL
1000

  0
SPLINE
  5
1512
330
1F
100
AcDbEntity
  8
0
  6
Continuous
 62
     1
370
    25
100
AcDbSpline
210
0.0
220
0.0
230
1.0
 70
     8
 71
     3
 72
     8
 73
     4
 74
     0
 42
0.000000001
 43
0.00000001
 40
0.0
 40
0.0
 40
0.0
 40
0.0
 40
1.0
 40
1.0
 40
1.0
 40
1.0
 10
14.01195463089789
 20
0.3858008244185349
 30
0.0
 10
13.78279148232144
 20
0.5188762838085417
 30
0.0
 10
13.56071972706056
 20
0.6343632508617496
 30
0.0
 10
13.34575438664737
 20
0.7322244682873027
 30
0.0
1001
PE_URL
1000

  0
LINE
  5
1513
330
1F
100
AcDbEntity
  8
0
  6
Continuous
 62
     1
370
    25
100
AcDbLine
 10
14.01195463089789
 20
0.1483067197339842
 30
0.0
 11
14.01195463089789
 21
0.3858008244185349
 31
0.0
1001
PE_URL
1000

  0
SPLINE
  5
1514
330
1F
100
AcDbEntity
  8
0
  6
Continuous
 62
     1
370
    25
100
AcDbSpline
210
0.0
220
0.0
230
1.0
 70
     8
 71
     3
 72
    10
 73
     6
 74
     0
 42
0.000000001
 43
0.00000001
 40
0.0
 40
0.0
 40
0.0
 40
0.0
 40
0.3893415382482849
 40
0.7803725610710166
 40
1.0
 40
1.0
 40
1.0
 40
1.0
 10
8.011954630896923
 20
-1.619296573383476
 30
0.0
 10
8.227839710670054
 20
-1.704571631669328
 30
0.0
 10
8.660546668570163
 20
-1.875491785551215
 30
0.0
 10
9.216513739684956
 20
-1.992454563629213
 30
0.0
 10
9.555384502314723
 20
-1.987183256835319
 30
0.0
 10
9.677261660146627
 20
-1.985287395755083
 30
0.0
  0
LINE
  5
1515
330
1F
100
AcDbEntity
  8
0
  6
Continuous
 62
     4
370
    25
100
AcDbLine
 10
8.01195463089789
 20
-1.619296573395733
 30
0.0
 11
8.01195463089789
 21
-1.459867169445314
 31
0.0
  0
LINE
  5
1516
330
1F
100
AcDbEntity
  8
0
  6
Continuous
 62
     1
370
    25
100
AcDbLine
 10
14.01195463089789
 20
0.3858008244185349
 30
0.0
 11
14.01195463089789
 21
1.295007929193385
 31
0.0
1001
PE_URL
1000

  0
LINE
  5
1517
330
1F
100
AcDbEntity
  8
0
  6
Continuous
 62
     1
370
    25
100
AcDbLine
 10
14.01195463089789
 20
-1.799999999999994
 30
0.0
 11
14.01195463089789
 21
-1.793879905925071
 31
0.0
1001
PE_URL
1000

  0
LINE
  5
1518
330
1F
100
AcDbEntity
  8
0
  6
Continuous
 62
     1
370
    25
100
AcDbLine
 10
14.01195463089789
 20
-0.7374872432550426
 30
0.0
 11
14.01195463089789
 21
-0.9133547695838651
 31
0.0
1001
PE_URL
1000

  0
LINE
  5
1519
330
1F
100
AcDbEntity
  8
0
  6
Continuous
 62
     1
370
    25
100
AcDbLine
 10
14.01195463089789
 20
1.793879905925078
 30
0.0
 11
14.01195463089789
 21
1.800000000000008
 31
0.0
1001
PE_URL
1000

  0
CIRCLE
  5
151B
330
1F
100
AcDbEntity
  8
외형선
100
AcDbCircle
 10
0.0
 20
0.0
 30
0.0
 40
3.000000000000005
  0
INSERT
  5
1528
330
1F
100
AcDbEntity
  8
외형선
100
AcDbBlockReference
  2
SW_DOWELSYMBOL_0
 10
0.0
 20
0.0
 30
0.0
  0
DIMENSION
  5
1569
102
{ACAD_REACTORS
102
}
102
{ACAD_XDICTIONARY
360
156A
102
}
330
1F
100
AcDbEntity
  8
치수문자_일반주서
100
AcDbDimension
  2
*D136
 10
13.8119546308979
 20
-1.799999999999994
 30
0.0
 11
23.58171717500677
 21
-15.93894384295434
 31
0.0
 70
   164
 71
     5
 42
0.200000000000001
  3
SLDDIMSTYLE1
100
AcDbRadialDimension
 15
13.92564917895263
 25
-1.964540419783804
 35
0.0
 40
0.0
1001
ACAD_DSTYLE_DIMRADIAL_EXTENSION
1070
   387
1070
     1
1070
   388
1040
4.88545667985315
1070
   390
1040
0.0
1001
PE_URL
1000

  0
ENDSEC
  0
SECTION
  2
OBJECTS
  0
DICTIONARY
  5
C
330
0
100
AcDbDictionary
281
     1
  3
ACAD_DETAILVIEWSTYLE
350
207
  3
ACAD_GROUP
350
D
  3
ACAD_IMAGE_VARS
350
1FD
  3
ACAD_LAYOUT
350
1A
  3
ACAD_MLINESTYLE
350
17
  3
ACAD_PLOTSETTINGS
350
19
  3
ACAD_PLOTSTYLENAME
350
E
  3
ACAD_SCALELIST
350
47
  3
ACAD_SECTIONVIEWSTYLE
350
208
  3
AcDbVariableDictionary
350
202
  3
APPDATA
350
13F
  3
DWGPROPS
350
1576
  0
DICTIONARY
  5
1C4
330
2
100
AcDbDictionary
280
     1
281
     1
  3
ACAD_LAYERSTATES
360
1C5
  0
DICTIONARY
  5
156A
330
1569
100
AcDbDictionary
280
     1
281
     1
  0
DICTIONARY
  5
207
102
{ACAD_REACTORS
330
C
102
}
330
C
100
AcDbDictionary
281
     1
  0
DICTIONARY
  5
D
102
{ACAD_REACTORS
330
C
102
}
330
C
100
AcDbDictionary
281
     1
  0
RASTERVARIABLES
  5
1FD
102
{ACAD_REACTORS
330
C
102
}
330
C
100
AcDbRasterVariables
 90
        0
 70
     1
 71
     1
 72
     1
  0
DICTIONARY
  5
1A
102
{ACAD_REACTORS
330
C
102
}
330
C
100
AcDbDictionary
281
     1
  3
Layout1
350
1E
  3
Layout2
350
26
  3
Model
350
22
  0
DICTIONARY
  5
17
102
{ACAD_REACTORS
330
C
102
}
330
C
100
AcDbDictionary
281
     1
  3
Standard
350
18
  0
DICTIONARY
  5
19
102
{ACAD_REACTORS
330
C
102
}
330
C
100
AcDbDictionary
281
     1
  0
ACDBDICTIONARYWDFLT
  5
E
102
{ACAD_REACTORS
330
C
102
}
330
C
100
AcDbDictionary
281
     1
  3
Normal
350
F
100
AcDbDictionaryWithDefault
340
F
  0
DICTIONARY
  5
47
102
{ACAD_REACTORS
330
C
102
}
330
C
100
AcDbDictionary
281
     1
  3
A0
350
48
  3
A1
350
49
  3
A2
350
4A
  3
A3
350
4B
  3
A4
350
4C
  3
A5
350
4D
  3
A6
350
4E
  3
A7
350
4F
  3
A8
350
50
  3
A9
350
51
  3
B0
350
52
  3
B1
350
53
  3
B2
350
54
  3
B3
350
55
  3
B4
350
56
  3
B5
350
57
  3
B6
350
58
  3
B7
350
59
  3
B8
350
5A
  3
B9
350
5B
  3
C0
350
5C
  3
C1
350
5D
  3
C2
350
5E
  3
C3
350
5F
  3
C4
350
60
  3
C5
350
61
  3
C6
350
62
  3
C7
350
63
  3
C8
350
64
  3
C9
350
65
  3
D0
350
66
  3
D1
350
67
  3
D2
350
68
  0
DICTIONARY
  5
208
102
{ACAD_REACTORS
330
C
102
}
330
C
100
AcDbDictionary
281
     1
  0
DICTIONARY
  5
202
102
{ACAD_REACTORS
330
C
102
}
330
C
100
AcDbDictionary
281
     1
  0
DICTIONARY
  5
13F
102
{ACAD_REACTORS
330
C
102
}
330
C
100
AcDbDictionary
281
     1
  0
XRECORD
  5
1576
102
{ACAD_REACTORS
330
C
102
}
330
C
100
AcDbXrecord
280
     1
  1
DWGPROPS COOKIE
  2

  3

  4

  6

  7

  8
12015018
  9

300
=
301
=
302
=
303
=
304
=
305
=
306
=
307
=
308
=
309
=
 40
0.0
 41
2458213.091881366
 42
2458267.368335938
  1

 90
        0
  0
DICTIONARY
  5
1C5
102
{ACAD_REACTORS
330
1C4
102
}
330
1C4
100
AcDbDictionary
281
     1
  0
LAYOUT
  5
1E
102
{ACAD_REACTORS
330
1A
102
}
330
1A
100
AcDbPlotSettings
  1

  2
none_device
  4

  6

 40
0.0
 41
0.0
 42
0.0
 43
0.0
 44
0.0
 45
0.0
 46
0.0
 47
0.0
 48
0.0
 49
0.0
140
0.0
141
0.0
142
1.0
143
1.0
 70
   688
 72
     1
 73
     0
 74
     5
  7

 75
    16
147
1.0
148
0.0
149
0.0
100
AcDbLayout
  1
Layout1
 70
     1
 71
     1
 10
0.0
 20
0.0
 11
420.0
 21
297.0
 12
0.0
 22
0.0
 32
0.0
 14
1.000000000000000E+20
 24
1.000000000000000E+20
 34
1.000000000000000E+20
 15
-1.000000000000000E+20
 25
-1.000000000000000E+20
 35
-1.000000000000000E+20
146
0.0
 13
0.0
 23
0.0
 33
0.0
 16
1.0
 26
0.0
 36
0.0
 17
0.0
 27
1.0
 37
0.0
 76
     0
330
1B
  0
LAYOUT
  5
26
102
{ACAD_REACTORS
330
1A
102
}
330
1A
100
AcDbPlotSettings
  1

  2
none_device
  4

  6

 40
0.0
 41
0.0
 42
0.0
 43
0.0
 44
0.0
 45
0.0
 46
0.0
 47
0.0
 48
0.0
 49
0.0
140
0.0
141
0.0
142
1.0
143
1.0
 70
   688
 72
     1
 73
     0
 74
     5
  7

 75
    16
147
1.0
148
0.0
149
0.0
100
AcDbLayout
  1
Layout2
 70
     1
 71
     2
 10
0.0
 20
0.0
 11
0.0
 21
0.0
 12
0.0
 22
0.0
 32
0.0
 14
0.0
 24
0.0
 34
0.0
 15
0.0
 25
0.0
 35
0.0
146
0.0
 13
0.0
 23
0.0
 33
0.0
 16
1.0
 26
0.0
 36
0.0
 17
0.0
 27
1.0
 37
0.0
 76
     0
330
23
  0
LAYOUT
  5
22
102
{ACAD_REACTORS
330
1A
102
}
330
1A
100
AcDbPlotSettings
  1

  2
none_device
  4
ANSI_A_(11.00_x_8.50_Inches)
  6

 40
6.35
 41
19.05
 42
6.35000508
 43
19.05000254
 44
279.4
 45
215.9
 46
146.9802854435656
 47
93.79062655845452
 48
0.0
 49
0.0
140
0.0
141
0.0
142
0.0868510734123721
143
1.0
 70
  1696
 72
     0
 73
     0
 74
     0
  7

 75
     0
147
0.0235690232323232
148
0.0
149
0.0
100
AcDbLayout
  1
Model
 70
     1
 71
     0
 10
0.0
 20
0.0
 11
420.0
 21
297.0
 12
0.0
 22
0.0
 32
0.0
 14
-50.36304536910213
 24
-49.97180738881175
 34
0.0
 15
45.43328952420009
 25
34.37500000000006
 35
0.0
146
0.0
 13
0.0
 23
0.0
 33
0.0
 16
1.0
 26
0.0
 36
0.0
 17
0.0
 27
1.0
 37
0.0
 76
     0
330
1F
331
29
  0
MLINESTYLE
  5
18
102
{ACAD_REACTORS
330
17
102
}
330
17
100
AcDbMlineStyle
  2
Standard
 70
     0
  3

 62
   256
 51
90.0
 52
90.0
 71
     2
 49
0.5
 62
   256
  6
BYLAYER
 49
-0.5
 62
   256
  6
BYLAYER
  0
ACDBPLACEHOLDER
  5
F
102
{ACAD_REACTORS
330
E
102
}
330
E
  0
SCALE
  5
48
102
{ACAD_REACTORS
330
47
102
}
330
47
100
AcDbScale
 70
     0
300
1:1
140
1.0
141
1.0
290
     1
  0
SCALE
  5
49
102
{ACAD_REACTORS
330
47
102
}
330
47
100
AcDbScale
 70
     0
300
1:2
140
1.0
141
2.0
290
     0
  0
SCALE
  5
4A
102
{ACAD_REACTORS
330
47
102
}
330
47
100
AcDbScale
 70
     0
300
1:4
140
1.0
141
4.0
290
     0
  0
SCALE
  5
4B
102
{ACAD_REACTORS
330
47
102
}
330
47
100
AcDbScale
 70
     0
300
1:5
140
1.0
141
5.0
290
     0
  0
SCALE
  5
4C
102
{ACAD_REACTORS
330
47
102
}
330
47
100
AcDbScale
 70
     0
300
1:8
140
1.0
141
8.0
290
     0
  0
SCALE
  5
4D
102
{ACAD_REACTORS
330
47
102
}
330
47
100
AcDbScale
 70
     0
300
1:10
140
1.0
141
10.0
290
     0
  0
SCALE
  5
4E
102
{ACAD_REACTORS
330
47
102
}
330
47
100
AcDbScale
 70
     0
300
1:16
140
1.0
141
16.0
290
     0
  0
SCALE
  5
4F
102
{ACAD_REACTORS
330
47
102
}
330
47
100
AcDbScale
 70
     0
300
1:20
140
1.0
141
20.0
290
     0
  0
SCALE
  5
50
102
{ACAD_REACTORS
330
47
102
}
330
47
100
AcDbScale
 70
     0
300
1:30
140
1.0
141
30.0
290
     0
  0
SCALE
  5
51
102
{ACAD_REACTORS
330
47
102
}
330
47
100
AcDbScale
 70
     0
300
1:40
140
1.0
141
40.0
290
     0
  0
SCALE
  5
52
102
{ACAD_REACTORS
330
47
102
}
330
47
100
AcDbScale
 70
     0
300
1:50
140
1.0
141
50.0
290
     0
  0
SCALE
  5
53
102
{ACAD_REACTORS
330
47
102
}
330
47
100
AcDbScale
 70
     0
300
1:100
140
1.0
141
100.0
290
     0
  0
SCALE
  5
54
102
{ACAD_REACTORS
330
47
102
}
330
47
100
AcDbScale
 70
     0
300
2:1
140
2.0
141
1.0
290
     0
  0
SCALE
  5
55
102
{ACAD_REACTORS
330
47
102
}
330
47
100
AcDbScale
 70
     0
300
4:1
140
4.0
141
1.0
290
     0
  0
SCALE
  5
56
102
{ACAD_REACTORS
330
47
102
}
330
47
100
AcDbScale
 70
     0
300
8:1
140
8.0
141
1.0
290
     0
  0
SCALE
  5
57
102
{ACAD_REACTORS
330
47
102
}
330
47
100
AcDbScale
 70
     0
300
10:1
140
10.0
141
1.0
290
     0
  0
SCALE
  5
58
102
{ACAD_REACTORS
330
47
102
}
330
47
100
AcDbScale
 70
     0
300
100:1
140
100.0
141
1.0
290
     0
  0
SCALE
  5
59
102
{ACAD_REACTORS
330
47
102
}
330
47
100
AcDbScale
 70
     0
300
1/128" = 1'-0"
140
0.0078125
141
12.0
290
     0
  0
SCALE
  5
5A
102
{ACAD_REACTORS
330
47
102
}
330
47
100
AcDbScale
 70
     0
300
1/64" = 1'-0"
140
0.015625
141
12.0
290
     0
  0
SCALE
  5
5B
102
{ACAD_REACTORS
330
47
102
}
330
47
100
AcDbScale
 70
     0
300
1/32" = 1'-0"
140
0.03125
141
12.0
290
     0
  0
SCALE
  5
5C
102
{ACAD_REACTORS
330
47
102
}
330
47
100
AcDbScale
 70
     0
300
1/16" = 1'-0"
140
0.0625
141
12.0
290
     0
  0
SCALE
  5
5D
102
{ACAD_REACTORS
330
47
102
}
330
47
100
AcDbScale
 70
     0
300
3/32" = 1'-0"
140
0.09375
141
12.0
290
     0
  0
SCALE
  5
5E
102
{ACAD_REACTORS
330
47
102
}
330
47
100
AcDbScale
 70
     0
300
1/8" = 1'-0"
140
0.125
141
12.0
290
     0
  0
SCALE
  5
5F
102
{ACAD_REACTORS
330
47
102
}
330
47
100
AcDbScale
 70
     0
300
3/16" = 1'-0"
140
0.1875
141
12.0
290
     0
  0
SCALE
  5
60
102
{ACAD_REACTORS
330
47
102
}
330
47
100
AcDbScale
 70
     0
300
1/4" = 1'-0"
140
0.25
141
12.0
290
     0
  0
SCALE
  5
61
102
{ACAD_REACTORS
330
47
102
}
330
47
100
AcDbScale
 70
     0
300
3/8" = 1'-0"
140
0.375
141
12.0
290
     0
  0
SCALE
  5
62
102
{ACAD_REACTORS
330
47
102
}
330
47
100
AcDbScale
 70
     0
300
1/2" = 1'-0"
140
0.5
141
12.0
290
     0
  0
SCALE
  5
63
102
{ACAD_REACTORS
330
47
102
}
330
47
100
AcDbScale
 70
     0
300
3/4" = 1'-0"
140
0.75
141
12.0
290
     0
  0
SCALE
  5
64
102
{ACAD_REACTORS
330
47
102
}
330
47
100
AcDbScale
 70
     0
300
1" = 1'-0"
140
1.0
141
12.0
290
     0
  0
SCALE
  5
65
102
{ACAD_REACTORS
330
47
102
}
330
47
100
AcDbScale
 70
     0
300
1-1/2" = 1'-0"
140
1.5
141
12.0
290
     0
  0
SCALE
  5
66
102
{ACAD_REACTORS
330
47
102
}
330
47
100
AcDbScale
 70
     0
300
3" = 1'-0"
140
3.0
141
12.0
290
     0
  0
SCALE
  5
67
102
{ACAD_REACTORS
330
47
102
}
330
47
100
AcDbScale
 70
     0
300
6" = 1'-0"
140
6.0
141
12.0
290
     0
  0
SCALE
  5
68
102
{ACAD_REACTORS
330
47
102
}
330
47
100
AcDbScale
 70
     0
300
1'-0" = 1'-0"
140
12.0
141
12.0
290
     0
  0
ENDSEC
  0
EOF
