  0
SECTION
  2
HEADER
  9
$ACADVER
  1
AC1015
  9
$ACADMAINTVER
 70
     6
  9
$DWGCODEPAGE
  3
ANSI_949
  9
$INSBASE
 10
0.0
 20
0.0
 30
0.0
  9
$EXTMIN
 10
-54.3630453780318
 20
-49.97180738881175
 30
0.0
  9
$EXTMAX
 10
44.90412285753342
 20
34.37500000000006
 30
0.0
  9
$LIMMIN
 10
0.0
 20
0.0
  9
$LIMMAX
 10
420.0
 20
297.0
  9
$ORTHOMODE
 70
     0
  9
$REGENMODE
 70
     1
  9
$FILLMODE
 70
     1
  9
$QTEXTMODE
 70
     0
  9
$MIRRTEXT
 70
     1
  9
$LTSCALE
 40
1.0
  9
$ATTMODE
 70
     1
  9
$TEXTSIZE
 40
3.5
  9
$TRACEWID
 40
1.0
  9
$TEXTSTYLE
  7
Standard
  9
$CLAYER
  8
0
  9
$CELTYPE
  6
ByLayer
  9
$CECOLOR
 62
   256
  9
$CELTSCALE
 40
1.0
  9
$DISPSILH
 70
     0
  9
$DIMSCALE
 40
1.0
  9
$DIMASZ
 40
3.302
  9
$DIMEXO
 40
1.0
  9
$DIMDLI
 40
3.75
  9
$DIMRND
 40
0.0
  9
$DIMDLE
 40
0.0
  9
$DIMEXE
 40
1.0
  9
$DIMTP
 40
0.0
  9
$DIMTM
 40
0.0
  9
$DIMTXT
 40
3.5
  9
$DIMCEN
 40
2.5
  9
$DIMTSZ
 40
0.0
  9
$DIMTOL
 70
     0
  9
$DIMLIM
 70
     0
  9
$DIMTIH
 70
     1
  9
$DIMTOH
 70
     1
  9
$DIMSE1
 70
     0
  9
$DIMSE2
 70
     0
  9
$DIMTAD
 70
     1
  9
$DIMZIN
 70
     0
  9
$DIMBLK
  1

  9
$DIMASO
 70
     1
  9
$DIMSHO
 70
     1
  9
$DIMPOST
  1

  9
$DIMAPOST
  1

  9
$DIMALT
 70
     0
  9
$DIMALTD
 70
     3
  9
$DIMALTF
 40
0.0393700787401575
  9
$DIMLFAC
 40
1.0
  9
$DIMTOFL
 70
     1
  9
$DIMTVP
 40
0.0
  9
$DIMTIX
 70
     0
  9
$DIMSOXD
 70
     0
  9
$DIMSAH
 70
     0
  9
$DIMBLK1
  1

  9
$DIMBLK2
  1

  9
$DIMSTYLE
  2
ISO-25
  9
$DIMCLRD
 70
     0
  9
$DIMCLRE
 70
     0
  9
$DIMCLRT
 70
     0
  9
$DIMTFAC
 40
1.0
  9
$DIMGAP
 40
1.524
  9
$DIMJUST
 70
     0
  9
$DIMSD1
 70
     0
  9
$DIMSD2
 70
     0
  9
$DIMTOLJ
 70
     0
  9
$DIMTZIN
 70
     0
  9
$DIMALTZ
 70
     0
  9
$DIMALTTZ
 70
     0
  9
$DIMUPT
 70
     0
  9
$DIMDEC
 70
     2
  9
$DIMTDEC
 70
     2
  9
$DIMALTU
 70
     2
  9
$DIMALTTD
 70
     3
  9
$DIMTXSTY
  7
Standard
  9
$DIMAUNIT
 70
     0
  9
$DIMADEC
 70
     2
  9
$DIMALTRND
 40
0.0
  9
$DIMAZIN
 70
     0
  9
$DIMDSEP
 70
    44
  9
$DIMATFIT
 70
     3
  9
$DIMFRAC
 70
     0
  9
$DIMLDRBLK
  1

  9
$DIMLUNIT
 70
     2
  9
$DIMLWD
 70
    -2
  9
$DIMLWE
 70
    -2
  9
$DIMTMOVE
 70
     0
  9
$LUNITS
 70
     2
  9
$LUPREC
 70
     2
  9
$SKETCHINC
 40
1.0
  9
$FILLETRAD
 40
10.0
  9
$AUNITS
 70
     0
  9
$AUPREC
 70
     2
  9
$MENU
  1
.
  9
$ELEVATION
 40
0.0
  9
$PELEVATION
 40
0.0
  9
$THICKNESS
 40
0.0
  9
$LIMCHECK
 70
     0
  9
$CHAMFERA
 40
0.0
  9
$CHAMFERB
 40
0.0
  9
$CHAMFERC
 40
0.0
  9
$CHAMFERD
 40
0.0
  9
$SKPOLY
 70
     0
  9
$TDCREATE
 40
2458213.466881366
  9
$TDUCREATE
 40
2458213.091881366
  9
$TDUPDATE
 40
2458267.736174838
  9
$TDUUPDATE
 40
2458267.361174838
  9
$TDINDWG
 40
0.044609537
  9
$TDUSRTIMER
 40
0.0016143981
  9
$USRTIMER
 70
     1
  9
$ANGBASE
 50
0.0
  9
$ANGDIR
 70
     0
  9
$PDMODE
 70
     0
  9
$PDSIZE
 40
-1.0
  9
$PLINEWID
 40
0.0
  9
$SPLFRAME
 70
     0
  9
$SPLINETYPE
 70
     6
  9
$SPLINESEGS
 70
     8
  9
$HANDSEED
  5
8AB
  9
$SURFTAB1
 70
     6
  9
$SURFTAB2
 70
     6
  9
$SURFTYPE
 70
     6
  9
$SURFU
 70
     6
  9
$SURFV
 70
     6
  9
$UCSBASE
  2

  9
$UCSNAME
  2

  9
$UCSORG
 10
0.0
 20
0.0
 30
0.0
  9
$UCSXDIR
 10
1.0
 20
0.0
 30
0.0
  9
$UCSYDIR
 10
0.0
 20
1.0
 30
0.0
  9
$UCSORTHOREF
  2

  9
$UCSORTHOVIEW
 70
     0
  9
$UCSORGTOP
 10
0.0
 20
0.0
 30
0.0
  9
$UCSORGBOTTOM
 10
0.0
 20
0.0
 30
0.0
  9
$UCSORGLEFT
 10
0.0
 20
0.0
 30
0.0
  9
$UCSORGRIGHT
 10
0.0
 20
0.0
 30
0.0
  9
$UCSORGFRONT
 10
0.0
 20
0.0
 30
0.0
  9
$UCSORGBACK
 10
0.0
 20
0.0
 30
0.0
  9
$PUCSBASE
  2

  9
$PUCSNAME
  2

  9
$PUCSORG
 10
0.0
 20
0.0
 30
0.0
  9
$PUCSXDIR
 10
1.0
 20
0.0
 30
0.0
  9
$PUCSYDIR
 10
0.0
 20
1.0
 30
0.0
  9
$PUCSORTHOREF
  2

  9
$PUCSORTHOVIEW
 70
     0
  9
$PUCSORGTOP
 10
0.0
 20
0.0
 30
0.0
  9
$PUCSORGBOTTOM
 10
0.0
 20
0.0
 30
0.0
  9
$PUCSORGLEFT
 10
0.0
 20
0.0
 30
0.0
  9
$PUCSORGRIGHT
 10
0.0
 20
0.0
 30
0.0
  9
$PUCSORGFRONT
 10
0.0
 20
0.0
 30
0.0
  9
$PUCSORGBACK
 10
0.0
 20
0.0
 30
0.0
  9
$USERI1
 70
     0
  9
$USERI2
 70
     0
  9
$USERI3
 70
     0
  9
$USERI4
 70
     0
  9
$USERI5
 70
     0
  9
$USERR1
 40
0.0
  9
$USERR2
 40
0.0
  9
$USERR3
 40
0.0
  9
$USERR4
 40
0.0
  9
$USERR5
 40
0.0
  9
$WORLDVIEW
 70
     1
  9
$SHADEDGE
 70
     3
  9
$SHADEDIF
 70
    70
  9
$TILEMODE
 70
     1
  9
$MAXACTVP
 70
    64
  9
$PINSBASE
 10
0.0
 20
0.0
 30
0.0
  9
$PLIMCHECK
 70
     0
  9
$PEXTMIN
 10
1.000000000000000E+20
 20
1.000000000000000E+20
 30
1.000000000000000E+20
  9
$PEXTMAX
 10
-1.000000000000000E+20
 20
-1.000000000000000E+20
 30
-1.000000000000000E+20
  9
$PLIMMIN
 10
0.0
 20
0.0
  9
$PLIMMAX
 10
0.0
 20
0.0
  9
$UNITMODE
 70
     0
  9
$VISRETAIN
 70
     1
  9
$PLINEGEN
 70
     0
  9
$PSLTSCALE
 70
     1
  9
$TREEDEPTH
 70
  3020
  9
$CMLSTYLE
  2
Standard
  9
$CMLJUST
 70
     0
  9
$CMLSCALE
 40
20.0
  9
$PROXYGRAPHICS
 70
     1
  9
$MEASUREMENT
 70
     1
  9
$CELWEIGHT
370
    -1
  9
$ENDCAPS
280
     0
  9
$JOINSTYLE
280
     0
  9
$LWDISPLAY
290
     1
  9
$INSUNITS
 70
     4
  9
$HYPERLINKBASE
  1

  9
$STYLESHEET
  1

  9
$XEDIT
290
     1
  9
$CEPSNTYPE
380
     0
  9
$PSTYLEMODE
290
     1
  9
$FINGERPRINTGUID
  2
{94B346A6-F221-4E84-A8DD-A9CBEE6E5E59}
  9
$VERSIONGUID
  2
{FAEB1C32-E019-11D5-929B-00C0DF256EC4}
  9
$EXTNAMES
290
     1
  9
$PSVPSCALE
 40
0.0
  9
$OLESTARTUP
290
     0
  0
ENDSEC
  0
SECTION
  2
CLASSES
  0
CLASS
  1
ACDBDICTIONARYWDFLT
  2
AcDbDictionaryWithDefault
  3
ObjectDBX Classes
 90
        0
280
     0
281
     0
  0
CLASS
  1
VISUALSTYLE
  2
AcDbVisualStyle
  3
ObjectDBX Classes
 90
     4095
280
     0
281
     0
  0
CLASS
  1
MATERIAL
  2
AcDbMaterial
  3
ObjectDBX Classes
 90
     1153
280
     0
281
     0
  0
CLASS
  1
SCALE
  2
AcDbScale
  3
ObjectDBX Classes
 90
     1153
280
     0
281
     0
  0
CLASS
  1
SUN
  2
AcDbSun
  3
SCENEOE
 90
     1153
280
     0
281
     0
  0
CLASS
  1
ACDBPLACEHOLDER
  2
AcDbPlaceHolder
  3
ObjectDBX Classes
 90
        0
280
     0
281
     0
  0
CLASS
  1
LAYOUT
  2
AcDbLayout
  3
ObjectDBX Classes
 90
        0
280
     0
281
     0
  0
CLASS
  1
TABLESTYLE
  2
AcDbTableStyle
  3
ObjectDBX Classes
 90
     4095
280
     0
281
     0
  0
CLASS
  1
MLEADERSTYLE
  2
AcDbMLeaderStyle
  3
ACDB_MLEADERSTYLE_CLASS
 90
     4095
280
     0
281
     0
  0
CLASS
  1
RASTERVARIABLES
  2
AcDbRasterVariables
  3
ISM
 90
        0
280
     0
281
     0
  0
CLASS
  1
DICTIONARYVAR
  2
AcDbDictionaryVar
  3
ObjectDBX Classes
 90
        0
280
     0
281
     0
  0
CLASS
  1
DIMASSOC
  2
AcDbDimAssoc
  3
"AcDbDimAssoc|Product Desc:     AcDim ARX App For Dimension|Company:          Autodesk, Inc.|WEB Address:      www.autodesk.com"
 90
        0
280
     0
281
     0
  0
ENDSEC
  0
SECTION
  2
TABLES
  0
TABLE
  2
VPORT
  5
8
330
0
100
AcDbSymbolTable
 70
     1
  0
VPORT
  5
29
330
8
100
AcDbSymbolTableRecord
100
AcDbViewportTableRecord
  2
*Active
 70
     0
 10
0.0
 20
0.0
 11
1.0
 21
1.0
 12
-4.729461260249188
 22
-7.798403694405849
 13
0.0
 23
0.0
 14
10.0
 24
10.0
 15
10.0
 25
10.0
 16
0.0
 26
0.0
 36
1.0
 17
0.0
 27
0.0
 37
0.0
 40
86.03374353658805
 41
2.174863387978142
 42
50.0
 43
0.0
 44
0.0
 50
0.0
 51
0.0
 71
    16
 72
  2000
 73
     1
 74
     3
 75
     0
 76
     0
 77
     0
 78
     0
281
     0
 65
     1
110
0.0
120
0.0
130
0.0
111
1.0
121
0.0
131
0.0
112
0.0
122
1.0
132
0.0
 79
     0
146
0.0
  0
ENDTAB
  0
TABLE
  2
LTYPE
  5
5
330
0
100
AcDbSymbolTable
 70
     6
  0
LTYPE
  5
14
330
5
100
AcDbSymbolTableRecord
100
AcDbLinetypeTableRecord
  2
ByBlock
 70
     0
  3

 72
    65
 73
     0
 40
0.0
  0
LTYPE
  5
15
330
5
100
AcDbSymbolTableRecord
100
AcDbLinetypeTableRecord
  2
ByLayer
 70
     0
  3

 72
    65
 73
     0
 40
0.0
  0
LTYPE
  5
16
330
5
100
AcDbSymbolTableRecord
100
AcDbLinetypeTableRecord
  2
Continuous
 70
     0
  3
Solid line
 72
    65
 73
     0
 40
0.0
  0
LTYPE
  5
6A
330
5
100
AcDbSymbolTableRecord
100
AcDbLinetypeTableRecord
  2
HIDDEN
 70
     0
  3
Hidden __ __ __ __ __ __ __ __ __ __ __ __ __ __
 72
    65
 73
     2
 40
1.905
 49
1.27
 74
     0
 49
-0.635
 74
     0
  0
LTYPE
  5
6B
330
5
100
AcDbSymbolTableRecord
100
AcDbLinetypeTableRecord
  2
PHANTOM
 70
     0
  3
Phantom ______  __  __  ______  __  __  ______
 72
    65
 73
     6
 40
12.7
 49
6.35
 74
     0
 49
-1.27
 74
     0
 49
1.27
 74
     0
 49
-1.27
 74
     0
 49
1.27
 74
     0
 49
-1.27
 74
     0
  0
LTYPE
  5
6C
330
5
100
AcDbSymbolTableRecord
100
AcDbLinetypeTableRecord
  2
CENTER
 70
     0
  3
Center ____ _ ____ _ ____ _ ____ _ ____ _ ____
 72
    65
 73
     4
 40
10.16
 49
6.35
 74
     0
 49
-1.27
 74
     0
 49
1.27
 74
     0
 49
-1.27
 74
     0
  0
LTYPE
  5
6D
330
5
100
AcDbSymbolTableRecord
100
AcDbLinetypeTableRecord
  2
CENTERX2
 70
     0
  3
Center (2x) ________  __  ________  __  _____
 72
    65
 73
     4
 40
20.32
 49
12.7
 74
     0
 49
-2.54
 74
     0
 49
2.54
 74
     0
 49
-2.54
 74
     0
  0
LTYPE
  5
6E
330
5
100
AcDbSymbolTableRecord
100
AcDbLinetypeTableRecord
  2
DOT2
 70
     0
  3
Dot (.5x) ........................................
 72
    65
 73
     2
 40
0.635
 49
0.0
 74
     0
 49
-0.635
 74
     0
  0
ENDTAB
  0
TABLE
  2
LAYER
  5
2
102
{ACAD_XDICTIONARY
360
1C4
102
}
330
0
100
AcDbSymbolTable
 70
    18
  0
LAYER
  5
10
330
2
100
AcDbSymbolTableRecord
100
AcDbLayerTableRecord
  2
0
 70
     0
 62
     7
  6
Continuous
370
    -3
390
F
  0
LAYER
  5
6F
330
2
100
AcDbSymbolTableRecord
100
AcDbLayerTableRecord
  2
FORMAT
 70
     0
 62
     2
  6
Continuous
370
    -3
390
F
  0
LAYER
  5
70
330
2
100
AcDbSymbolTableRecord
100
AcDbLayerTableRecord
  2
외형선
 70
     0
 62
   100
  6
Continuous
370
    30
390
F
  0
LAYER
  5
71
330
2
100
AcDbSymbolTableRecord
100
AcDbLayerTableRecord
  2
숨은선
 70
     0
 62
     2
  6
HIDDEN
370
    15
390
F
  0
LAYER
  5
72
330
2
100
AcDbSymbolTableRecord
100
AcDbLayerTableRecord
  2
중심선
 70
     0
 62
     1
  6
CENTERX2
370
    -3
390
F
  0
LAYER
  5
73
330
2
100
AcDbSymbolTableRecord
100
AcDbLayerTableRecord
  2
파단선
 70
     0
 62
     4
  6
Continuous
370
    -3
390
F
  0
LAYER
  5
74
330
2
100
AcDbSymbolTableRecord
100
AcDbLayerTableRecord
  2
해칭선
 70
     0
 62
     4
  6
Continuous
370
    -3
390
F
  0
LAYER
  5
75
330
2
100
AcDbSymbolTableRecord
100
AcDbLayerTableRecord
  2
가는실선
 70
     0
 62
     4
  6
Continuous
370
    -3
390
F
  0
LAYER
  5
76
330
2
100
AcDbSymbolTableRecord
100
AcDbLayerTableRecord
  2
치수_보조선
 70
     0
 62
     4
  6
Continuous
370
    -3
390
F
  0
LAYER
  5
77
330
2
100
AcDbSymbolTableRecord
100
AcDbLayerTableRecord
  2
치수문자_일반주서
 70
     0
 62
     7
  6
Continuous
370
    15
390
F
  0
LAYER
  5
78
330
2
100
AcDbSymbolTableRecord
100
AcDbLayerTableRecord
  2
개별주서
 70
     0
 62
   100
  6
Continuous
370
    30
390
F
  0
LAYER
  5
79
330
2
100
AcDbSymbolTableRecord
100
AcDbLayerTableRecord
  2
중간선
 70
     0
 62
     2
  6
Continuous
370
    15
390
F
  0
LAYER
  5
7A
330
2
100
AcDbSymbolTableRecord
100
AcDbLayerTableRecord
  2
윤곽선
 70
     0
 62
     3
  6
Continuous
370
    40
390
F
  0
LAYER
  5
7B
330
2
100
AcDbSymbolTableRecord
100
AcDbLayerTableRecord
  2
중심마크
 70
     0
 62
   100
  6
Continuous
370
    30
390
F
  0
LAYER
  5
7C
330
2
100
AcDbSymbolTableRecord
100
AcDbLayerTableRecord
  2
가상선
 70
     0
 62
     4
  6
PHANTOM
370
    -3
390
F
  0
LAYER
  5
7D
330
2
100
AcDbSymbolTableRecord
100
AcDbLayerTableRecord
  2
특수지정선
 70
     0
 62
     5
  6
CENTERX2
370
    60
390
F
  0
LAYER
  5
141
330
2
100
AcDbSymbolTableRecord
100
AcDbLayerTableRecord
  2
Defpoints
 70
     0
 62
     7
  6
Continuous
290
     0
370
    -3
390
F
  0
LAYER
  5
194
330
2
100
AcDbSymbolTableRecord
100
AcDbLayerTableRecord
  2
CENTER
 70
     0
 62
     2
  6
CENTER
370
    -3
390
F
1001
AcAecLayerStandard
1000

1000

  0
ENDTAB
  0
TABLE
  2
STYLE
  5
3
330
0
100
AcDbSymbolTable
 70
     2
  0
STYLE
  5
11
330
3
100
AcDbSymbolTableRecord
100
AcDbTextStyleTableRecord
  2
Standard
 70
     0
 40
0.0
 41
1.0
 50
0.0
 71
     0
 42
3.5
  3
txt
  4

  0
STYLE
  5
93
330
3
100
AcDbSymbolTableRecord
100
AcDbTextStyleTableRecord
  2
SLDTEXTSTYLE0
 70
     0
 40
0.0
 41
0.75
 50
0.0
 71
     0
 42
3.5
  3
TXT
  4

  0
ENDTAB
  0
TABLE
  2
VIEW
  5
6
330
0
100
AcDbSymbolTable
 70
     0
  0
ENDTAB
  0
TABLE
  2
UCS
  5
7
330
0
100
AcDbSymbolTable
 70
     0
  0
ENDTAB
  0
TABLE
  2
APPID
  5
9
330
0
100
AcDbSymbolTable
 70
     6
  0
APPID
  5
12
330
9
100
AcDbSymbolTableRecord
100
AcDbRegAppTableRecord
  2
ACAD
 70
     0
  0
APPID
  5
14E
330
9
100
AcDbSymbolTableRecord
100
AcDbRegAppTableRecord
  2
ACAD_DSTYLE_DIMFLIPARROW_SYMBOL
 70
     0
  0
APPID
  5
14F
330
9
100
AcDbSymbolTableRecord
100
AcDbRegAppTableRecord
  2
ACAD_DSTYLE_DIMFLIPARROW_WHICH_SYMBOL
 70
     0
  0
APPID
  5
197
330
9
100
AcDbSymbolTableRecord
100
AcDbRegAppTableRecord
  2
AcAecLayerStandard
 70
     0
  0
APPID
  5
1D9
330
9
100
AcDbSymbolTableRecord
100
AcDbRegAppTableRecord
  2
PE_URL
 70
     0
  0
APPID
  5
211
330
9
100
AcDbSymbolTableRecord
100
AcDbRegAppTableRecord
  2
ACAD_DSTYLE_DIMRADIAL_EXTENSION
 70
     0
  0
ENDTAB
  0
TABLE
  2
DIMSTYLE
  5
A
330
0
100
AcDbSymbolTable
 70
     4
100
AcDbDimStyleTable
  0
DIMSTYLE
105
27
330
A
100
AcDbSymbolTableRecord
100
AcDbDimStyleTableRecord
  2
ISO-25
 70
     0
 41
2.5
 42
0.625
 43
3.75
 44
1.25
 73
     0
 74
     0
 77
     1
 78
     8
140
2.5
141
2.5
143
0.03937007874016
147
0.625
171
     3
172
     1
178
     0
271
     2
272
     2
274
     3
278
    44
283
     0
284
     8
340
11
  0
DIMSTYLE
105
DF
102
{ACAD_REACTORS
330
356
330
359
102
}
330
A
100
AcDbSymbolTableRecord
100
AcDbDimStyleTableRecord
  2
SLDDIMSTYLE0
 70
     0
 41
3.302
 44
0.0
 45
0.000000001
 73
     0
 74
     0
 77
     1
 78
    12
 79
     3
140
3.5
147
0.875
173
     1
178
     0
271
     2
272
     2
276
     2
284
    12
340
93
  0
DIMSTYLE
105
F4
102
{ACAD_REACTORS
330
39B
102
}
330
A
100
AcDbSymbolTableRecord
100
AcDbDimStyleTableRecord
  2
SLDDIMSTYLE1
 70
     0
 41
3.302
 44
0.0
 45
0.000000001
 73
     0
 74
     0
 77
     1
 78
     8
 79
     2
140
3.5
141
0.0
147
0.875
173
     1
178
     0
271
     1
272
     1
276
     2
284
    12
340
93
  0
DIMSTYLE
105
FD
102
{ACAD_REACTORS
330
355
330
357
330
358
102
}
330
A
100
AcDbSymbolTableRecord
100
AcDbDimStyleTableRecord
  2
SLDDIMSTYLE2
 70
     0
 41
3.302
 44
0.0
 45
0.000000001
 73
     0
 74
     0
 77
     1
 78
    12
 79
     3
140
3.5
147
0.875
172
     1
173
     1
178
     0
271
     2
272
     2
276
     2
284
    12
289
     0
340
93
  0
ENDTAB
  0
TABLE
  2
BLOCK_RECORD
  5
1
330
0
100
AcDbSymbolTable
 70
    51
  0
BLOCK_RECORD
  5
1F
330
1
100
AcDbSymbolTableRecord
100
AcDbBlockTableRecord
  2
*Model_Space
340
22
  0
BLOCK_RECORD
  5
1B
330
1
100
AcDbSymbolTableRecord
100
AcDbBlockTableRecord
  2
*Paper_Space
340
1E
  0
BLOCK_RECORD
  5
23
330
1
100
AcDbSymbolTableRecord
100
AcDbBlockTableRecord
  2
*Paper_Space0
340
26
  0
BLOCK_RECORD
  5
7E
330
1
100
AcDbSymbolTableRecord
100
AcDbBlockTableRecord
  2
블럭10
340
0
102
{BLKREFS
331
34D
102
}
  0
BLOCK_RECORD
  5
E0
330
1
100
AcDbSymbolTableRecord
100
AcDbBlockTableRecord
  2
_D
340
0
  0
BLOCK_RECORD
  5
EA
330
1
100
AcDbSymbolTableRecord
100
AcDbBlockTableRecord
  2
_D_1
340
0
  0
BLOCK_RECORD
  5
F5
330
1
100
AcDbSymbolTableRecord
100
AcDbBlockTableRecord
  2
_D_2
340
0
  0
BLOCK_RECORD
  5
FE
330
1
100
AcDbSymbolTableRecord
100
AcDbBlockTableRecord
  2
_D_3
340
0
  0
BLOCK_RECORD
  5
10B
330
1
100
AcDbSymbolTableRecord
100
AcDbBlockTableRecord
  2
_D_4
340
0
  0
BLOCK_RECORD
  5
117
330
1
100
AcDbSymbolTableRecord
100
AcDbBlockTableRecord
  2
SW_DOWELSYMBOL_0
340
0
102
{BLKREFS
331
846
102
}
  0
BLOCK_RECORD
  5
215
330
1
100
AcDbSymbolTableRecord
100
AcDbBlockTableRecord
  2
*D8
340
0
  0
BLOCK_RECORD
  5
2B0
330
1
100
AcDbSymbolTableRecord
100
AcDbBlockTableRecord
  2
*D9
340
0
  0
BLOCK_RECORD
  5
2C0
330
1
100
AcDbSymbolTableRecord
100
AcDbBlockTableRecord
  2
*D10
340
0
  0
BLOCK_RECORD
  5
2CD
330
1
100
AcDbSymbolTableRecord
100
AcDbBlockTableRecord
  2
*D11
340
0
  0
BLOCK_RECORD
  5
2DD
330
1
100
AcDbSymbolTableRecord
100
AcDbBlockTableRecord
  2
*D12
340
0
  0
BLOCK_RECORD
  5
2EC
330
1
100
AcDbSymbolTableRecord
100
AcDbBlockTableRecord
  2
*D13
340
0
  0
BLOCK_RECORD
  5
342
330
1
100
AcDbSymbolTableRecord
100
AcDbBlockTableRecord
  2
*D14
340
0
  0
BLOCK_RECORD
  5
39C
330
1
100
AcDbSymbolTableRecord
100
AcDbBlockTableRecord
  2
*D15
340
0
  0
BLOCK_RECORD
  5
3AA
330
1
100
AcDbSymbolTableRecord
100
AcDbBlockTableRecord
  2
*D16
340
0
  0
BLOCK_RECORD
  5
3B6
330
1
100
AcDbSymbolTableRecord
100
AcDbBlockTableRecord
  2
*D17
340
0
  0
BLOCK_RECORD
  5
3C4
330
1
100
AcDbSymbolTableRecord
100
AcDbBlockTableRecord
  2
*D18
340
0
  0
BLOCK_RECORD
  5
3D1
330
1
100
AcDbSymbolTableRecord
100
AcDbBlockTableRecord
  2
*D19
340
0
  0
BLOCK_RECORD
  5
3DF
330
1
100
AcDbSymbolTableRecord
100
AcDbBlockTableRecord
  2
*D20
340
0
  0
BLOCK_RECORD
  5
479
330
1
100
AcDbSymbolTableRecord
100
AcDbBlockTableRecord
  2
*D21
340
0
  0
BLOCK_RECORD
  5
486
330
1
100
AcDbSymbolTableRecord
100
AcDbBlockTableRecord
  2
*D22
340
0
  0
BLOCK_RECORD
  5
493
330
1
100
AcDbSymbolTableRecord
100
AcDbBlockTableRecord
  2
*D23
340
0
  0
BLOCK_RECORD
  5
4A0
330
1
100
AcDbSymbolTableRecord
100
AcDbBlockTableRecord
  2
*D24
340
0
  0
BLOCK_RECORD
  5
4AD
330
1
100
AcDbSymbolTableRecord
100
AcDbBlockTableRecord
  2
*D25
340
0
  0
BLOCK_RECORD
  5
512
330
1
100
AcDbSymbolTableRecord
100
AcDbBlockTableRecord
  2
*D26
340
0
  0
BLOCK_RECORD
  5
51F
330
1
100
AcDbSymbolTableRecord
100
AcDbBlockTableRecord
  2
*D27
340
0
  0
BLOCK_RECORD
  5
52B
330
1
100
AcDbSymbolTableRecord
100
AcDbBlockTableRecord
  2
*D28
340
0
  0
BLOCK_RECORD
  5
537
330
1
100
AcDbSymbolTableRecord
100
AcDbBlockTableRecord
  2
*D29
340
0
  0
BLOCK_RECORD
  5
543
330
1
100
AcDbSymbolTableRecord
100
AcDbBlockTableRecord
  2
*D30
340
0
  0
BLOCK_RECORD
  5
61E
330
1
100
AcDbSymbolTableRecord
100
AcDbBlockTableRecord
  2
*D31
340
0
  0
BLOCK_RECORD
  5
62B
330
1
100
AcDbSymbolTableRecord
100
AcDbBlockTableRecord
  2
*D32
340
0
  0
BLOCK_RECORD
  5
637
330
1
100
AcDbSymbolTableRecord
100
AcDbBlockTableRecord
  2
*D33
340
0
  0
BLOCK_RECORD
  5
643
330
1
100
AcDbSymbolTableRecord
100
AcDbBlockTableRecord
  2
*D34
340
0
  0
BLOCK_RECORD
  5
64F
330
1
100
AcDbSymbolTableRecord
100
AcDbBlockTableRecord
  2
*D35
340
0
  0
BLOCK_RECORD
  5
6AA
330
1
100
AcDbSymbolTableRecord
100
AcDbBlockTableRecord
  2
*D36
340
0
  0
BLOCK_RECORD
  5
6B7
330
1
100
AcDbSymbolTableRecord
100
AcDbBlockTableRecord
  2
*D37
340
0
  0
BLOCK_RECORD
  5
6C3
330
1
100
AcDbSymbolTableRecord
100
AcDbBlockTableRecord
  2
*D38
340
0
  0
BLOCK_RECORD
  5
6CF
330
1
100
AcDbSymbolTableRecord
100
AcDbBlockTableRecord
  2
*D39
340
0
  0
BLOCK_RECORD
  5
6DB
330
1
100
AcDbSymbolTableRecord
100
AcDbBlockTableRecord
  2
*D40
340
0
  0
BLOCK_RECORD
  5
7BB
330
1
100
AcDbSymbolTableRecord
100
AcDbBlockTableRecord
  2
*D41
340
0
  0
BLOCK_RECORD
  5
7C8
330
1
100
AcDbSymbolTableRecord
100
AcDbBlockTableRecord
  2
*D42
340
0
  0
BLOCK_RECORD
  5
7D4
330
1
100
AcDbSymbolTableRecord
100
AcDbBlockTableRecord
  2
*D43
340
0
  0
BLOCK_RECORD
  5
7E0
330
1
100
AcDbSymbolTableRecord
100
AcDbBlockTableRecord
  2
*D44
340
0
  0
BLOCK_RECORD
  5
7EC
330
1
100
AcDbSymbolTableRecord
100
AcDbBlockTableRecord
  2
*D45
340
0
  0
BLOCK_RECORD
  5
847
330
1
100
AcDbSymbolTableRecord
100
AcDbBlockTableRecord
  2
*D46
340
0
  0
BLOCK_RECORD
  5
854
330
1
100
AcDbSymbolTableRecord
100
AcDbBlockTableRecord
  2
*D47
340
0
  0
BLOCK_RECORD
  5
860
330
1
100
AcDbSymbolTableRecord
100
AcDbBlockTableRecord
  2
*D48
340
0
  0
BLOCK_RECORD
  5
86C
330
1
100
AcDbSymbolTableRecord
100
AcDbBlockTableRecord
  2
*D49
340
0
  0
BLOCK_RECORD
  5
878
330
1
100
AcDbSymbolTableRecord
100
AcDbBlockTableRecord
  2
*D50
340
0
  0
ENDTAB
  0
ENDSEC
  0
SECTION
  2
BLOCKS
  0
BLOCK
  5
20
330
1F
100
AcDbEntity
  8
0
100
AcDbBlockBegin
  2
*Model_Space
 70
     0
 10
0.0
 20
0.0
 30
0.0
  3
*Model_Space
  1
*Model_Space
  0
ENDBLK
  5
21
330
1F
100
AcDbEntity
  8
0
100
AcDbBlockEnd
  0
BLOCK
  5
1C
330
1B
100
AcDbEntity
 67
     1
  8
0
100
AcDbBlockBegin
  2
*Paper_Space
 70
     0
 10
0.0
 20
0.0
 30
0.0
  3
*Paper_Space
  1
*Paper_Space
  0
ENDBLK
  5
1D
330
1B
100
AcDbEntity
 67
     1
  8
0
100
AcDbBlockEnd
  0
BLOCK
  5
24
330
23
100
AcDbEntity
  8
0
100
AcDbBlockBegin
  2
*Paper_Space0
 70
     0
 10
0.0
 20
0.0
 30
0.0
  3
*Paper_Space0
  1
*Paper_Space0
  0
ENDBLK
  5
25
330
23
100
AcDbEntity
  8
0
100
AcDbBlockEnd
  0
BLOCK
  5
7F
330
7E
100
AcDbEntity
  8
0
100
AcDbBlockBegin
  2
블럭10
 70
     2
 10
0.0
 20
0.0
 30
0.0
  3
블럭10
  1
블럭10
  0
ELLIPSE
  5
81
330
7E
100
AcDbEntity
  8
중심선
100
AcDbEllipse
 10
20.54032771741204
 20
12.0471743016438
 30
0.0
 11
6.600054785286829
 21
-1.261213355974178E-13
 31
0.0
210
0.0
220
0.0
230
1.0
 40
0.636358354079598
 41
0.9219305317359503
 42
6.513795318482858
  0
ELLIPSE
  5
82
330
7E
100
AcDbEntity
  8
중심선
100
AcDbEllipse
 10
20.54032771746488
 20
12.04717430159265
 30
0.0
 11
3.960054785062283
 21
1.540847449632565E-10
 31
0.0
210
0.0
220
0.0
230
1.0
 40
0.3939339440162632
 41
1.131841032648279
 42
5.62031148352944
  0
LINE
  5
83
330
7E
100
AcDbEntity
  8
중심선
100
AcDbLine
 10
2.268634060543552
 20
16.24717430164393
 30
0.0
 11
5.714909304380834
 21
16.24717430164393
 31
0.0
  0
LINE
  5
84
330
7E
100
AcDbEntity
  8
중심선
100
AcDbLine
 10
5.245725140726316
 20
7.84717430164391
 30
0.0
 11
8.692000384563599
 21
7.84717430164391
 31
0.0
  0
LINE
  5
85
330
7E
100
AcDbEntity
  8
중심선
100
AcDbLine
 10
15.74043728645272
 20
16.24717430164393
 30
0.0
 11
8.692000384563599
 21
7.84717430164391
 31
0.0
  0
LINE
  5
86
330
7E
100
AcDbEntity
  8
중심선
100
AcDbLine
 10
0.1404042013395286
 20
13.71084872107135
 30
0.0
 11
3.58671253028996
 21
13.71088815037384
 31
0.0
  0
LINE
  5
87
330
7E
100
AcDbEntity
  8
중심선
100
AcDbLine
 10
2.750260043222114
 20
10.84717430164391
 30
0.0
 11
6.196535287059397
 21
10.84717430164391
 31
0.0
  0
LINE
  5
88
330
7E
100
AcDbEntity
  8
중심선
100
AcDbLine
 10
12.29416204261559
 20
16.24717430164393
 30
0.0
 11
5.245725140726316
 21
7.84717430164391
 31
0.0
  0
LINE
  5
89
330
7E
100
AcDbEntity
  8
중심선
100
AcDbLine
 10
10.72767329541681
 20
16.24717430164393
 30
0.0
 11
6.196535287059397
 21
10.84717430164391
 31
0.0
  0
LINE
  5
8A
330
7E
100
AcDbEntity
  8
중심선
100
AcDbLine
 10
7.28139805157953
 20
16.24717430164393
 30
0.0
 11
2.750260043222114
 21
10.84717430164391
 31
0.0
  0
LINE
  5
8B
330
7E
100
AcDbEntity
  8
중심선
100
AcDbLine
 10
5.714909304380834
 20
16.24717430164393
 30
0.0
 11
3.58671253028996
 21
13.71088815037384
 31
0.0
  0
LINE
  5
8C
330
7E
100
AcDbEntity
  8
중심선
100
AcDbLine
 10
2.268634060543552
 20
16.24717430164393
 30
0.0
 11
0.1404042013395286
 21
13.71084872107135
 31
0.0
  0
LINE
  5
8D
330
7E
100
AcDbEntity
  8
중심선
100
AcDbLine
 10
7.28139805157953
 20
16.24717430164393
 30
0.0
 11
10.72767329541681
 21
16.24717430164393
 31
0.0
  0
LINE
  5
8E
330
7E
100
AcDbEntity
  8
중심선
100
AcDbLine
 10
12.29416204261559
 20
16.24717430164393
 30
0.0
 11
15.74043728645272
 21
16.24717430164393
 31
0.0
  0
LINE
  5
8F
330
7E
100
AcDbEntity
  8
중심선
100
AcDbLine
 10
19.22036997980202
 20
11.08717430171403
 30
0.0
 11
23.66174974927406
 21
11.08717430171406
 31
0.0
  0
LINE
  5
90
330
7E
100
AcDbEntity
  8
중심선
100
AcDbLine
 10
19.22039502424796
 20
13.00717430171391
 30
0.0
 11
19.22036997980202
 21
11.08717430171403
 31
0.0
  0
LINE
  5
91
330
7E
100
AcDbEntity
  8
중심선
100
AcDbLine
 10
19.22039502424796
 20
13.00717430171391
 30
0.0
 11
26.96566020931264
 21
13.00717430171391
 31
0.0
  0
LINE
  5
92
330
7E
100
AcDbEntity
  8
중심선
100
AcDbLine
 10
22.22332737316547
 20
13.45928029700563
 30
0.0
 11
24.52862924686651
 21
15.39360700705356
 31
0.0
  0
ATTDEF
  5
94
330
7E
100
AcDbEntity
  8
FORMAT
 62
     2
100
AcDbText
 10
-10.82367519849508
 20
2.075366912832191
 30
0.0
 40
4.233333333333333
  1
GMF58140 [ 4 FLUTE ]
 41
0.75
  7
SLDTEXTSTYLE0
 11
-10.82367519849508
 21
-0.0412997538344756
 31
0.0
100
AcDbAttributeDefinition
  3

  2
AUTOATTR0
 70
     0
 74
     1
  0
ENDBLK
  5
80
330
7E
100
AcDbEntity
  8
0
100
AcDbBlockEnd
  0
BLOCK
  5
E1
330
E0
100
AcDbEntity
  8
0
100
AcDbBlockBegin
  2
_D
 70
     0
 10
0.0
 20
0.0
 30
0.0
  3
_D
  1
_D
  0
LINE
  5
E3
330
E0
100
AcDbEntity
  8
치수문자_일반주서
 62
     0
370
    -2
100
AcDbLine
 10
-45.0000427306089
 20
6.562499999999996
 30
0.0
 11
-45.0000427306089
 21
41.66248416807875
 31
0.0
  0
LINE
  5
E4
330
E0
100
AcDbEntity
  8
치수문자_일반주서
 62
     0
370
    -2
100
AcDbLine
 10
37.99995726939112
 20
7.125000000000004
 30
0.0
 11
37.99995726939112
 21
41.66248416807875
 31
0.0
  0
LINE
  5
E5
330
E0
100
AcDbEntity
  8
치수문자_일반주서
 62
     0
370
    -2
100
AcDbLine
 10
-41.6980427306089
 20
41.66248416807875
 30
0.0
 11
34.69795726939113
 21
41.66248416807875
 31
0.0
  0
SOLID
  5
E6
330
E0
100
AcDbEntity
  8
치수문자_일반주서
 62
     0
100
AcDbTrace
 10
-41.6980427306089
 20
42.21281750141208
 30
0.0
 11
-41.6980427306089
 21
41.11215083474541
 31
0.0
 12
-45.0000427306089
 22
41.66248416807875
 32
0.0
 13
-45.0000427306089
 23
41.66248416807875
 33
0.0
  0
SOLID
  5
E7
330
E0
100
AcDbEntity
  8
치수문자_일반주서
 62
     0
100
AcDbTrace
 10
34.69795726939113
 20
41.11215083474541
 30
0.0
 11
34.69795726939113
 21
42.21281750141208
 31
0.0
 12
37.99995726939112
 22
41.66248416807875
 32
0.0
 13
37.99995726939112
 23
41.66248416807875
 33
0.0
  0
MTEXT
  5
E8
330
E0
100
AcDbEntity
  8
치수문자_일반주서
 62
     0
100
AcDbMText
 10
-3.500042730608889
 20
46.03748416807875
 30
0.0
 40
3.5
 41
0.0
 71
     2
 72
     1
  1
\A1;83
  7
SLDTEXTSTYLE0
 73
     1
 44
1.0
  0
POINT
  5
149
330
E0
100
AcDbEntity
  8
Defpoints
 62
     0
100
AcDbPoint
 10
-45.0000427306089
 20
6.499999999999996
 30
0.0
  0
POINT
  5
14A
330
E0
100
AcDbEntity
  8
Defpoints
 62
     0
100
AcDbPoint
 10
37.99995726939112
 20
7.062500000000004
 30
0.0
  0
POINT
  5
14B
330
E0
100
AcDbEntity
  8
Defpoints
 62
     0
100
AcDbPoint
 10
37.99995726939112
 20
41.66248416807875
 30
0.0
  0
ENDBLK
  5
E2
330
E0
100
AcDbEntity
  8
0
100
AcDbBlockEnd
  0
BLOCK
  5
EB
330
EA
100
AcDbEntity
  8
0
100
AcDbBlockBegin
  2
_D_1
 70
     0
 10
0.0
 20
0.0
 30
0.0
  3
_D_1
  1
_D_1
  0
LINE
  5
ED
330
EA
100
AcDbEntity
  8
치수문자_일반주서
 62
     0
370
    -2
100
AcDbLine
 10
11.99999913361988
 20
-0.6010474837848685
 30
0.0
 11
11.99999913361988
 21
32.67947958926196
 31
0.0
  0
LINE
  5
EE
330
EA
100
AcDbEntity
  8
치수문자_일반주서
 62
     0
370
    -2
100
AcDbLine
 10
37.99995726939112
 20
7.062500000000004
 30
0.0
 11
37.99995726939112
 21
32.67947958926196
 31
0.0
  0
LINE
  5
EF
330
EA
100
AcDbEntity
  8
치수문자_일반주서
 62
     0
370
    -2
100
AcDbLine
 10
15.30199913361988
 20
32.67947958926196
 30
0.0
 11
34.69795726939113
 21
32.67947958926196
 31
0.0
  0
SOLID
  5
F0
330
EA
100
AcDbEntity
  8
치수문자_일반주서
 62
     0
100
AcDbTrace
 10
15.30199913361988
 20
33.22981292259529
 30
0.0
 11
15.30199913361988
 21
32.12914625592862
 31
0.0
 12
11.99999913361988
 22
32.67947958926196
 32
0.0
 13
11.99999913361988
 23
32.67947958926196
 33
0.0
  0
SOLID
  5
F1
330
EA
100
AcDbEntity
  8
치수문자_일반주서
 62
     0
100
AcDbTrace
 10
34.69795726939113
 20
32.12914625592862
 30
0.0
 11
34.69795726939113
 21
33.22981292259529
 31
0.0
 12
37.99995726939112
 22
32.67947958926196
 32
0.0
 13
37.99995726939112
 23
32.67947958926196
 33
0.0
  0
MTEXT
  5
F2
330
EA
100
AcDbEntity
  8
치수문자_일반주서
 62
     0
100
AcDbMText
 10
25.04655299632314
 20
37.05447958926196
 30
0.0
 40
3.5
 41
0.0
 71
     2
 72
     1
  1
\A1;26
  7
SLDTEXTSTYLE0
 73
     1
 44
1.0
  0
POINT
  5
146
330
EA
100
AcDbEntity
  8
Defpoints
 62
     0
100
AcDbPoint
 10
11.99999913361988
 20
-0.6635474837848685
 30
0.0
  0
POINT
  5
147
330
EA
100
AcDbEntity
  8
Defpoints
 62
     0
100
AcDbPoint
 10
37.99995726939112
 20
7.000000000000004
 30
0.0
  0
POINT
  5
148
330
EA
100
AcDbEntity
  8
Defpoints
 62
     0
100
AcDbPoint
 10
37.99995726939112
 20
32.67947958926196
 30
0.0
  0
ENDBLK
  5
EC
330
EA
100
AcDbEntity
  8
0
100
AcDbBlockEnd
  0
BLOCK
  5
F6
330
F5
100
AcDbEntity
  8
0
100
AcDbBlockBegin
  2
_D_2
 70
     0
 10
0.0
 20
0.0
 30
0.0
  3
_D_2
  1
_D_2
  0
LINE
  5
F8
330
F5
100
AcDbEntity
  8
치수문자_일반주서
 62
     0
370
    -2
100
AcDbLine
 10
73.85642292674117
 20
9.242246977090005
 30
0.0
 11
86.14290759565546
 21
21.52873164600436
 31
0.0
  0
MTEXT
  5
F9
330
F5
100
AcDbEntity
  8
치수문자_일반주서
 62
     0
100
AcDbMText
 10
77.17149030935114
 20
18.7444986950823
 30
0.0
 40
3.5
 41
0.0
 71
     1
 72
     1
  1
\A1;R0.5
  7
SLDTEXTSTYLE0
 11
0.7071067811865457
 21
0.7071067811865492
 31
0.0
 73
     1
 44
1.0
  0
SOLID
  5
FA
330
F5
100
AcDbEntity
  8
치수문자_일반주서
 62
     0
100
AcDbTrace
 10
73.46727849482818
 20
9.631391409003001
 30
0.0
 11
74.24556735865417
 21
8.85310254517701
 31
0.0
 12
71.5215563352632
 22
6.90738038561202
 32
0.0
 13
71.5215563352632
 23
6.90738038561202
 33
0.0
  0
POINT
  5
FB
330
F5
100
AcDbEntity
  8
Defpoints
 62
     0
100
AcDbPoint
 10
71.5215563352632
 20
6.90738038561202
 30
0.0
  0
POINT
  5
14C
330
F5
100
AcDbEntity
  8
Defpoints
 62
     0
100
AcDbPoint
 10
71.16800294466992
 20
6.553826995018742
 30
0.0
  0
ENDBLK
  5
F7
330
F5
100
AcDbEntity
  8
0
100
AcDbBlockEnd
  0
BLOCK
  5
FF
330
FE
100
AcDbEntity
  8
0
100
AcDbBlockBegin
  2
_D_3
 70
     0
 10
0.0
 20
0.0
 30
0.0
  3
_D_3
  1
_D_3
  0
LINE
  5
101
330
FE
100
AcDbEntity
  8
치수문자_일반주서
 62
     0
370
    -2
100
AcDbLine
 10
-44.56254273060889
 20
7.000000000000005
 30
0.0
 11
-60.00004273060895
 21
6.999999999999948
 31
0.0
  0
LINE
  5
102
330
FE
100
AcDbEntity
  8
치수문자_일반주서
 62
     0
370
    -2
100
AcDbLine
 10
-44.56254273060889
 20
-6.999999999999996
 30
0.0
 11
-60.0000427306089
 21
-7.000000000000054
 31
0.0
  0
LINE
  5
103
330
FE
100
AcDbEntity
  8
치수문자_일반주서
 62
     0
370
    -2
100
AcDbLine
 10
-60.00004273060895
 20
6.999999999999948
 30
0.0
 11
-60.0000427306089
 21
-7.000000000000054
 31
0.0
  0
LINE
  5
104
330
FE
100
AcDbEntity
  8
치수문자_일반주서
 62
     0
370
    -2
100
AcDbLine
 10
-60.00004273060896
 20
10.30199999999995
 30
0.0
 11
-60.00004273060897
 21
13.60399999999995
 31
0.0
  0
LINE
  5
105
330
FE
100
AcDbEntity
  8
치수문자_일반주서
 62
     0
370
    -2
100
AcDbLine
 10
-60.00004273060888
 20
-10.30200000000005
 30
0.0
 11
-60.00004273060887
 21
-13.60400000000005
 31
0.0
  0
SOLID
  5
106
330
FE
100
AcDbEntity
  8
치수문자_일반주서
 62
     0
100
AcDbTrace
 10
-60.55037606394229
 20
10.30199999999995
 30
0.0
 11
-59.44970939727563
 21
10.30199999999995
 31
0.0
 12
-60.00004273060895
 22
6.999999999999948
 32
0.0
 13
-60.00004273060895
 23
6.999999999999948
 33
0.0
  0
SOLID
  5
107
330
FE
100
AcDbEntity
  8
치수문자_일반주서
 62
     0
100
AcDbTrace
 10
-59.44970939727555
 20
-10.30200000000005
 30
0.0
 11
-60.55037606394222
 21
-10.30200000000006
 31
0.0
 12
-60.0000427306089
 22
-7.000000000000054
 32
0.0
 13
-60.0000427306089
 23
-7.000000000000054
 33
0.0
  0
MTEXT
  5
108
330
FE
100
AcDbEntity
  8
치수문자_일반주서
 62
     0
100
AcDbMText
 10
-64.37504273060893
 20
-0.0000000000000101
 30
0.0
 40
3.5
 41
0.0
 71
     2
 72
     1
  1
\A1;%%c14
  7
SLDTEXTSTYLE0
 11
-3.552713678800501E-15
 21
1.0
 31
0.0
 73
     1
 44
1.0
  0
POINT
  5
109
330
FE
100
AcDbEntity
  8
Defpoints
 62
     0
100
AcDbPoint
 10
-44.50004273060889
 20
7.000000000000005
 30
0.0
  0
POINT
  5
144
330
FE
100
AcDbEntity
  8
Defpoints
 62
     0
100
AcDbPoint
 10
-44.50004273060889
 20
-6.999999999999996
 30
0.0
  0
POINT
  5
145
330
FE
100
AcDbEntity
  8
Defpoints
 62
     0
100
AcDbPoint
 10
-60.0000427306089
 20
-7.000000000000054
 30
0.0
  0
ENDBLK
  5
100
330
FE
100
AcDbEntity
  8
0
100
AcDbBlockEnd
  0
BLOCK
  5
10C
330
10B
100
AcDbEntity
  8
0
100
AcDbBlockBegin
  2
_D_4
 70
     0
 10
0.0
 20
0.0
 30
0.0
  3
_D_4
  1
_D_4
  0
LINE
  5
10E
330
10B
100
AcDbEntity
  8
치수문자_일반주서
 62
     0
370
    -2
100
AcDbLine
 10
38.06245726939113
 20
7.000000000000004
 30
0.0
 11
52.99995726939112
 21
7.000000000000061
 31
0.0
  0
LINE
  5
10F
330
10B
100
AcDbEntity
  8
치수문자_일반주서
 62
     0
370
    -2
100
AcDbLine
 10
38.06245726939112
 20
-6.999999999999996
 30
0.0
 11
52.99995726939117
 21
-6.99999999999994
 31
0.0
  0
LINE
  5
110
330
10B
100
AcDbEntity
  8
치수문자_일반주서
 62
     0
370
    -2
100
AcDbLine
 10
52.99995726939112
 20
7.000000000000061
 30
0.0
 11
52.99995726939117
 21
-6.99999999999994
 31
0.0
  0
LINE
  5
111
330
10B
100
AcDbEntity
  8
치수문자_일반주서
 62
     0
370
    -2
100
AcDbLine
 10
52.99995726939111
 20
10.30200000000006
 30
0.0
 11
52.9999572693911
 21
13.60400000000006
 31
0.0
  0
LINE
  5
112
330
10B
100
AcDbEntity
  8
치수문자_일반주서
 62
     0
370
    -2
100
AcDbLine
 10
52.99995726939119
 20
-10.30199999999994
 30
0.0
 11
52.9999572693912
 21
-13.60399999999994
 31
0.0
  0
SOLID
  5
113
330
10B
100
AcDbEntity
  8
치수문자_일반주서
 62
     0
100
AcDbTrace
 10
52.44962393605778
 20
10.30200000000006
 30
0.0
 11
53.55029060272444
 21
10.30200000000006
 31
0.0
 12
52.99995726939112
 22
7.000000000000061
 32
0.0
 13
52.99995726939112
 23
7.000000000000061
 33
0.0
  0
SOLID
  5
114
330
10B
100
AcDbEntity
  8
치수문자_일반주서
 62
     0
100
AcDbTrace
 10
53.55029060272452
 20
-10.30199999999994
 30
0.0
 11
52.44962393605785
 21
-10.30199999999994
 31
0.0
 12
52.99995726939117
 22
-6.99999999999994
 32
0.0
 13
52.99995726939117
 23
-6.99999999999994
 33
0.0
  0
MTEXT
  5
115
330
10B
100
AcDbEntity
  8
치수문자_일반주서
 62
     0
100
AcDbMText
 10
48.62495726939115
 20
0.0657043817130371
 30
0.0
 40
3.5
 41
0.0
 71
     2
 72
     1
  1
\A1;%%c14
  7
SLDTEXTSTYLE0
 11
-3.552713678800501E-15
 21
1.0
 31
0.0
 73
     1
 44
1.0
  0
POINT
  5
116
330
10B
100
AcDbEntity
  8
Defpoints
 62
     0
100
AcDbPoint
 10
37.99995726939113
 20
7.000000000000004
 30
0.0
  0
POINT
  5
142
330
10B
100
AcDbEntity
  8
Defpoints
 62
     0
100
AcDbPoint
 10
37.99995726939112
 20
-6.999999999999996
 30
0.0
  0
POINT
  5
143
330
10B
100
AcDbEntity
  8
Defpoints
 62
     0
100
AcDbPoint
 10
52.99995726939117
 20
-6.99999999999994
 30
0.0
  0
ENDBLK
  5
10D
330
10B
100
AcDbEntity
  8
0
100
AcDbBlockEnd
  0
BLOCK
  5
118
330
117
100
AcDbEntity
  8
0
100
AcDbBlockBegin
  2
SW_DOWELSYMBOL_0
 70
     0
 10
0.0
 20
0.0
 30
0.0
  3
SW_DOWELSYMBOL_0
  1
SW_DOWELSYMBOL_0
  0
CIRCLE
  5
11A
330
117
100
AcDbEntity
  8
외형선
 62
     0
100
AcDbCircle
 10
0.0
 20
0.0
 30
0.0
 40
3.000000000000002
  0
HATCH
  5
11B
330
117
100
AcDbEntity
  8
0
  6
Continuous
 62
     0
370
    30
100
AcDbHatch
 10
0.0
 20
0.0
 30
0.0
210
0.0
220
0.0
230
1.0
  2
SOLID
 70
     1
 71
     0
 91
        1
 92
        0
 93
        3
 72
     2
 10
0.0
 20
0.0
 40
3.000000000000002
 50
0.0
 51
90.0
 73
     1
 72
     1
 10
0.0
 20
3.000000000000002
 11
0.0
 21
0.0
 72
     1
 10
0.0
 20
0.0
 11
3.000000000000002
 21
0.0
 97
        0
 75
     0
 76
     1
 98
        1
 10
0.0
 20
0.0
  0
HATCH
  5
11C
330
117
100
AcDbEntity
  8
0
  6
Continuous
 62
     0
370
    30
100
AcDbHatch
 10
0.0
 20
0.0
 30
0.0
210
0.0
220
0.0
230
1.0
  2
SOLID
 70
     1
 71
     0
 91
        1
 92
        0
 93
        3
 72
     2
 10
0.0
 20
0.0
 40
3.000000000000002
 50
180.0
 51
270.0000000000007
 73
     1
 72
     1
 10
0.0
 20
-3.000000000000002
 11
0.0
 21
0.0
 72
     1
 10
0.0
 20
0.0
 11
-3.000000000000002
 21
0.0
 97
        0
 75
     0
 76
     1
 98
        1
 10
0.0
 20
0.0
  0
ENDBLK
  5
119
330
117
100
AcDbEntity
  8
0
100
AcDbBlockEnd
  0
BLOCK
  5
216
330
215
100
AcDbEntity
  8
0
100
AcDbBlockBegin
  2
*D8
 70
     1
 10
0.0
 20
0.0
 30
0.0
  3
*D8
  1
*D8
  0
LINE
  5
218
330
215
100
AcDbEntity
  8
치수문자_일반주서
 62
     0
370
    -2
100
AcDbLine
 10
39.49073245106057
 20
-9.739138492878775
 30
0.0
 11
51.46455541489748
 21
-29.22143424691512
 31
0.0
  0
MTEXT
  5
219
330
215
100
AcDbEntity
  8
치수문자_일반주서
 62
     0
100
AcDbMText
 10
51.29559567081875
 20
-23.93327609237956
 30
0.0
 40
3.5
 41
0.0
 71
     5
 72
     1
  1
\A1;R0.5
  7
SLDTEXTSTYLE0
 11
0.5236126201129565
 21
-0.8519564684057777
 31
0.0
 73
     1
 44
1.0
  0
SOLID
  5
21A
330
215
100
AcDbEntity
  8
치수문자_일반주서
 62
     0
100
AcDbTrace
 10
39.95959249417322
 20
-9.450977014276612
 30
0.0
 11
39.02187240794792
 21
-10.02729997148094
 31
0.0
 12
37.76176357944758
 22
-6.925978234202897
 32
0.0
 13
37.76176357944758
 23
-6.925978234202897
 33
0.0
  0
POINT
  5
21B
330
215
100
AcDbEntity
  8
Defpoints
 62
     0
100
AcDbPoint
 10
37.76176357944758
 20
-6.925978234202897
 30
0.0
  0
POINT
  5
21C
330
215
100
AcDbEntity
  8
Defpoints
 62
     0
100
AcDbPoint
 10
37.4999572693911
 20
-6.499999999999996
 30
0.0
  0
ENDBLK
  5
217
330
215
100
AcDbEntity
  8
0
100
AcDbBlockEnd
  0
BLOCK
  5
2B1
330
2B0
100
AcDbEntity
  8
0
100
AcDbBlockBegin
  2
*D9
 70
     1
 10
0.0
 20
0.0
 30
0.0
  3
*D9
  1

  0
LINE
  5
2B2
330
2B0
100
AcDbEntity
  8
치수문자_일반주서
 62
     0
370
    -2
100
AcDbLine
 10
61.43750000000005
 20
47.97199522607711
 30
0.0
 11
69.3750000000001
 21
47.97199522607713
 31
0.0
  0
LINE
  5
2B3
330
2B0
100
AcDbEntity
  8
치수문자_일반주서
 62
     0
370
    -2
100
AcDbLine
 10
61.43750000000005
 20
51.97180738881175
 30
0.0
 11
69.37500000000009
 21
51.97180738881178
 31
0.0
  0
LINE
  5
2B4
330
2B0
100
AcDbEntity
  8
치수문자_일반주서
 62
     0
370
    -2
100
AcDbLine
 10
69.3750000000001
 20
47.97199522607713
 30
0.0
 11
69.37500000000003
 21
65.90930738881178
 31
0.0
  0
LINE
  5
2B5
330
2B0
100
AcDbEntity
  8
치수문자_일반주서
 62
     0
370
    -2
100
AcDbLine
 10
69.37500000000011
 20
45.47199522607713
 30
0.0
 11
69.37500000000013
 21
42.97199522607713
 31
0.0
  0
LINE
  5
2B6
330
2B0
100
AcDbEntity
  8
치수문자_일반주서
 62
     0
370
    -2
100
AcDbLine
 10
69.37500000000007
 20
54.47180738881178
 30
0.0
 11
69.37500000000006
 21
56.97180738881178
 31
0.0
  0
SOLID
  5
2B7
330
2B0
100
AcDbEntity
  8
치수문자_일반주서
 62
     0
100
AcDbTrace
 10
69.79166666666679
 20
45.47199522607713
 30
0.0
 11
68.95833333333344
 21
45.47199522607713
 31
0.0
 12
69.3750000000001
 22
47.97199522607713
 32
0.0
 13
69.3750000000001
 23
47.97199522607713
 33
0.0
  0
SOLID
  5
2B8
330
2B0
100
AcDbEntity
  8
치수문자_일반주서
 62
     0
100
AcDbTrace
 10
68.9583333333334
 20
54.47180738881178
 30
0.0
 11
69.79166666666674
 21
54.47180738881178
 31
0.0
 12
69.37500000000009
 22
51.97180738881178
 32
0.0
 13
69.37500000000009
 23
51.97180738881178
 33
0.0
  0
MTEXT
  5
2B9
330
2B0
100
AcDbEntity
  8
치수문자_일반주서
 62
     0
100
AcDbMText
 10
66.00000000000004
 20
63.47180738881177
 30
0.0
 40
2.5
 41
0.0
 71
     2
 72
     1
  1
\A1;%%c4
  7
SLDTEXTSTYLE0
 11
-3.552880519640732E-15
 21
1.0
 31
0.0
 73
     1
 44
1.0
  0
POINT
  5
2BA
330
2B0
100
AcDbEntity
  8
Defpoints
 62
     0
100
AcDbPoint
 10
61.37500000000005
 20
47.97199522607711
 30
0.0
  0
POINT
  5
2BB
330
2B0
100
AcDbEntity
  8
Defpoints
 62
     0
100
AcDbPoint
 10
61.37500000000005
 20
51.97180738881175
 30
0.0
  0
POINT
  5
2BC
330
2B0
100
AcDbEntity
  8
Defpoints
 62
     0
100
AcDbPoint
 10
69.37500000000009
 20
51.97180738881178
 30
0.0
  0
ENDBLK
  5
2BE
330
2B0
100
AcDbEntity
  8
0
100
AcDbBlockEnd
  0
BLOCK
  5
2C1
330
2C0
100
AcDbEntity
  8
0
100
AcDbBlockBegin
  2
*D10
 70
     1
 10
0.0
 20
0.0
 30
0.0
  3
*D10
  1

  0
LINE
  5
2C2
330
2C0
100
AcDbEntity
  8
치수문자_일반주서
 62
     0
370
    -2
100
AcDbLine
 10
11.37500000000007
 20
52.53430738881175
 30
0.0
 11
11.37500000000007
 21
79.97180738881181
 31
0.0
  0
LINE
  5
2C3
330
2C0
100
AcDbEntity
  8
치수문자_일반주서
 62
     0
370
    -2
100
AcDbLine
 10
61.37500000000005
 20
51.53430738881178
 30
0.0
 11
61.37500000000005
 21
79.97180738881181
 31
0.0
  0
LINE
  5
2C4
330
2C0
100
AcDbEntity
  8
치수문자_일반주서
 62
     0
370
    -2
100
AcDbLine
 10
13.87500000000007
 20
79.97180738881181
 30
0.0
 11
58.87500000000005
 21
79.97180738881181
 31
0.0
  0
SOLID
  5
2C5
330
2C0
100
AcDbEntity
  8
치수문자_일반주서
 62
     0
100
AcDbTrace
 10
13.87500000000007
 20
80.38847405547848
 30
0.0
 11
13.87500000000007
 21
79.55514072214514
 31
0.0
 12
11.37500000000007
 22
79.97180738881181
 32
0.0
 13
11.37500000000007
 23
79.97180738881181
 33
0.0
  0
SOLID
  5
2C6
330
2C0
100
AcDbEntity
  8
치수문자_일반주서
 62
     0
100
AcDbTrace
 10
58.87500000000005
 20
79.55514072214514
 30
0.0
 11
58.87500000000005
 21
80.38847405547848
 31
0.0
 12
61.37500000000005
 22
79.97180738881181
 32
0.0
 13
61.37500000000005
 23
79.97180738881181
 33
0.0
  0
MTEXT
  5
2C7
330
2C0
100
AcDbEntity
  8
치수문자_일반주서
 62
     0
100
AcDbMText
 10
36.37500000000006
 20
83.34680738881181
 30
0.0
 40
2.5
 41
0.0
 71
     2
 72
     1
  1
\A1;50
  7
SLDTEXTSTYLE0
 73
     1
 44
1.0
  0
POINT
  5
2C8
330
2C0
100
AcDbEntity
  8
Defpoints
 62
     0
100
AcDbPoint
 10
11.37500000000007
 20
52.47180738881175
 30
0.0
  0
POINT
  5
2C9
330
2C0
100
AcDbEntity
  8
Defpoints
 62
     0
100
AcDbPoint
 10
61.37500000000005
 20
51.47180738881178
 30
0.0
  0
POINT
  5
2CA
330
2C0
100
AcDbEntity
  8
Defpoints
 62
     0
100
AcDbPoint
 10
61.37500000000005
 20
79.97180738881181
 30
0.0
  0
ENDBLK
  5
2CB
330
2C0
100
AcDbEntity
  8
0
100
AcDbBlockEnd
  0
BLOCK
  5
2CE
330
2CD
100
AcDbEntity
  8
0
100
AcDbBlockBegin
  2
*D11
 70
     1
 10
0.0
 20
0.0
 30
0.0
  3
*D11
  1

  0
LINE
  5
2CF
330
2CD
100
AcDbEntity
  8
치수문자_일반주서
 62
     0
370
    -2
100
AcDbLine
 10
11.81250000000007
 20
52.97180738881175
 30
0.0
 11
3.375000000000033
 21
52.97180738881173
 31
0.0
  0
LINE
  5
2D0
330
2CD
100
AcDbEntity
  8
치수문자_일반주서
 62
     0
370
    -2
100
AcDbLine
 10
11.81250000000007
 20
46.97180738881175
 30
0.0
 11
3.375000000000054
 21
46.97180738881173
 31
0.0
  0
LINE
  5
2D1
330
2CD
100
AcDbEntity
  8
치수문자_일반주서
 62
     0
370
    -2
100
AcDbLine
 10
3.375000000000033
 20
52.97180738881173
 30
0.0
 11
3.374999999999999
 21
62.84680738881173
 31
0.0
  0
LINE
  5
2D2
330
2CD
100
AcDbEntity
  8
치수문자_일반주서
 62
     0
370
    -2
100
AcDbLine
 10
3.375000000000024
 20
55.47180738881173
 30
0.0
 11
3.375000000000015
 21
57.97180738881173
 31
0.0
  0
LINE
  5
2D3
330
2CD
100
AcDbEntity
  8
치수문자_일반주서
 62
     0
370
    -2
100
AcDbLine
 10
3.375000000000063
 20
44.47180738881173
 30
0.0
 11
3.375000000000071
 21
41.97180738881173
 31
0.0
  0
SOLID
  5
2D4
330
2CD
100
AcDbEntity
  8
치수문자_일반주서
 62
     0
100
AcDbTrace
 10
2.958333333333357
 20
55.47180738881173
 30
0.0
 11
3.79166666666669
 21
55.47180738881173
 31
0.0
 12
3.375000000000033
 22
52.97180738881173
 32
0.0
 13
3.375000000000033
 23
52.97180738881173
 33
0.0
  0
SOLID
  5
2D5
330
2CD
100
AcDbEntity
  8
치수문자_일반주서
 62
     0
100
AcDbTrace
 10
3.791666666666729
 20
44.47180738881173
 30
0.0
 11
2.958333333333396
 21
44.47180738881173
 31
0.0
 12
3.375000000000054
 22
46.97180738881173
 32
0.0
 13
3.375000000000054
 23
46.97180738881173
 33
0.0
  0
MTEXT
  5
2D6
330
2CD
100
AcDbEntity
  8
치수문자_일반주서
 62
     0
100
AcDbMText
 10
0.0000000000000071
 20
60.40930738881171
 30
0.0
 40
2.5
 41
0.0
 71
     2
 72
     1
  1
\A1;%%c6
  7
SLDTEXTSTYLE0
 11
-3.478698810492157E-15
 21
1.0
 31
0.0
 73
     1
 44
1.0
  0
POINT
  5
2D7
330
2CD
100
AcDbEntity
  8
Defpoints
 62
     0
100
AcDbPoint
 10
11.87500000000007
 20
52.97180738881175
 30
0.0
  0
POINT
  5
2D8
330
2CD
100
AcDbEntity
  8
Defpoints
 62
     0
100
AcDbPoint
 10
11.87500000000007
 20
46.97180738881175
 30
0.0
  0
POINT
  5
2D9
330
2CD
100
AcDbEntity
  8
Defpoints
 62
     0
100
AcDbPoint
 10
3.375000000000057
 20
46.97180738881173
 30
0.0
  0
ENDBLK
  5
2DB
330
2CD
100
AcDbEntity
  8
0
100
AcDbBlockEnd
  0
BLOCK
  5
2DE
330
2DD
100
AcDbEntity
  8
0
100
AcDbBlockBegin
  2
*D12
 70
     1
 10
0.0
 20
0.0
 30
0.0
  3
*D12
  1

  0
LINE
  5
2DF
330
2DD
100
AcDbEntity
  8
치수문자_일반주서
 62
     0
370
    -2
100
AcDbLine
 10
55.3749999999991
 20
51.65360396219522
 30
0.0
 11
55.3749999999991
 21
65.2796901475564
 31
0.0
  0
LINE
  5
2E0
330
2DD
100
AcDbEntity
  8
치수문자_일반주서
 62
     0
370
    -2
100
AcDbLine
 10
61.37500000000005
 20
51.53430738881178
 30
0.0
 11
61.37500000000005
 21
65.2796901475564
 31
0.0
  0
LINE
  5
2E1
330
2DD
100
AcDbEntity
  8
치수문자_일반주서
 62
     0
370
    -2
100
AcDbLine
 10
55.3749999999991
 20
65.2796901475564
 30
0.0
 11
52.8749999999991
 21
65.2796901475564
 31
0.0
  0
LINE
  5
2E2
330
2DD
100
AcDbEntity
  8
치수문자_일반주서
 62
     0
370
    -2
100
AcDbLine
 10
61.37500000000005
 20
65.2796901475564
 30
0.0
 11
63.87500000000005
 21
65.2796901475564
 31
0.0
  0
SOLID
  5
2E3
330
2DD
100
AcDbEntity
  8
치수문자_일반주서
 62
     0
100
AcDbTrace
 10
57.8749999999991
 20
65.69635681422307
 30
0.0
 11
57.8749999999991
 21
64.86302348088972
 31
0.0
 12
55.3749999999991
 22
65.2796901475564
 32
0.0
 13
55.3749999999991
 23
65.2796901475564
 33
0.0
  0
SOLID
  5
2E4
330
2DD
100
AcDbEntity
  8
치수문자_일반주서
 62
     0
100
AcDbTrace
 10
58.87500000000005
 20
64.86302348088972
 30
0.0
 11
58.87500000000005
 21
65.69635681422307
 31
0.0
 12
61.37500000000005
 22
65.2796901475564
 32
0.0
 13
61.37500000000005
 23
65.2796901475564
 33
0.0
  0
MTEXT
  5
2E5
330
2DD
100
AcDbEntity
  8
치수문자_일반주서
 62
     0
100
AcDbMText
 10
58.37499999999957
 20
68.6546901475564
 30
0.0
 40
2.5
 41
0.0
 71
     2
 72
     1
  1
\A1;6
  7
SLDTEXTSTYLE0
 73
     1
 44
1.0
  0
POINT
  5
2E6
330
2DD
100
AcDbEntity
  8
Defpoints
 62
     0
100
AcDbPoint
 10
55.3749999999991
 20
51.59110396219522
 30
0.0
  0
POINT
  5
2E7
330
2DD
100
AcDbEntity
  8
Defpoints
 62
     0
100
AcDbPoint
 10
61.37500000000005
 20
51.47180738881178
 30
0.0
  0
POINT
  5
2E8
330
2DD
100
AcDbEntity
  8
Defpoints
 62
     0
100
AcDbPoint
 10
61.37500000000005
 20
65.2796901475564
 30
0.0
  0
ENDBLK
  5
2EA
330
2DD
100
AcDbEntity
  8
0
100
AcDbBlockEnd
  0
BLOCK
  5
2ED
330
2EC
100
AcDbEntity
  8
0
100
AcDbBlockBegin
  2
*D13
 70
     1
 10
0.0
 20
0.0
 30
0.0
  3
*D13
  1

  0
LINE
  5
2EE
330
2EC
100
AcDbEntity
  8
치수문자_일반주서
 62
     0
370
    -2
100
AcDbLine
 10
61.37500000000005
 20
51.53430738881178
 30
0.0
 11
61.37500000000005
 21
73.9206908511893
 31
0.0
  0
LINE
  5
2EF
330
2EC
100
AcDbEntity
  8
치수문자_일반주서
 62
     0
370
    -2
100
AcDbLine
 10
51.37499999728969
 20
51.95930738881175
 30
0.0
 11
51.37499999728969
 21
73.9206908511893
 31
0.0
  0
LINE
  5
2F0
330
2EC
100
AcDbEntity
  8
치수문자_일반주서
 62
     0
370
    -2
100
AcDbLine
 10
61.37500000000005
 20
73.9206908511893
 30
0.0
 11
51.37499999728969
 21
73.9206908511893
 31
0.0
  0
LINE
  5
2F1
330
2EC
100
AcDbEntity
  8
치수문자_일반주서
 62
     0
370
    -2
100
AcDbLine
 10
63.87500000000005
 20
73.9206908511893
 30
0.0
 11
66.37500000000006
 21
73.9206908511893
 31
0.0
  0
LINE
  5
2F2
330
2EC
100
AcDbEntity
  8
치수문자_일반주서
 62
     0
370
    -2
100
AcDbLine
 10
48.87499999728969
 20
73.9206908511893
 30
0.0
 11
46.37499999728969
 21
73.9206908511893
 31
0.0
  0
SOLID
  5
2F3
330
2EC
100
AcDbEntity
  8
치수문자_일반주서
 62
     0
100
AcDbTrace
 10
63.87500000000005
 20
74.33735751785598
 30
0.0
 11
63.87500000000005
 21
73.50402418452263
 31
0.0
 12
61.37500000000005
 22
73.9206908511893
 32
0.0
 13
61.37500000000005
 23
73.9206908511893
 33
0.0
  0
SOLID
  5
2F4
330
2EC
100
AcDbEntity
  8
치수문자_일반주서
 62
     0
100
AcDbTrace
 10
48.87499999728969
 20
73.50402418452263
 30
0.0
 11
48.87499999728969
 21
74.33735751785598
 31
0.0
 12
51.37499999728969
 22
73.9206908511893
 32
0.0
 13
51.37499999728969
 23
73.9206908511893
 33
0.0
  0
MTEXT
  5
2F5
330
2EC
100
AcDbEntity
  8
치수문자_일반주서
 62
     0
100
AcDbMText
 10
56.37499999728969
 20
77.2956908511893
 30
0.0
 40
2.5
 41
0.0
 71
     2
 72
     1
  1
\A1;10
  7
SLDTEXTSTYLE0
 73
     1
 44
1.0
  0
POINT
  5
2F6
330
2EC
100
AcDbEntity
  8
Defpoints
 62
     0
100
AcDbPoint
 10
61.37500000000005
 20
51.47180738881178
 30
0.0
  0
POINT
  5
2F7
330
2EC
100
AcDbEntity
  8
Defpoints
 62
     0
100
AcDbPoint
 10
51.37499999728969
 20
51.89680738881175
 30
0.0
  0
POINT
  5
2F8
330
2EC
100
AcDbEntity
  8
Defpoints
 62
     0
100
AcDbPoint
 10
51.37499999728969
 20
73.9206908511893
 30
0.0
  0
ENDBLK
  5
2F9
330
2EC
100
AcDbEntity
  8
0
100
AcDbBlockEnd
  0
BLOCK
  5
343
330
342
100
AcDbEntity
  8
0
100
AcDbBlockBegin
  2
*D14
 70
     1
 10
0.0
 20
0.0
 30
0.0
  3
*D14
  1

  0
LINE
  5
344
330
342
100
AcDbEntity
  8
치수문자_일반주서
 62
     0
370
    -2
100
AcDbLine
 10
62.95961356280716
 20
46.09138391288383
 30
0.0
 11
71.84635547264723
 21
35.64417353103598
 31
0.0
  0
MTEXT
  5
345
330
342
100
AcDbEntity
  8
치수문자_일반주서
 62
     0
100
AcDbMText
 10
71.37945161920936
 20
39.472747332616
 30
0.0
 40
2.5
 41
0.0
 71
     5
 72
     1
  1
\A1;R0.1
  7
SLDTEXTSTYLE0
 11
0.6479282933873385
 21
-0.7617013368953548
 31
0.0
 73
     1
 44
1.0
  0
SOLID
  5
346
330
342
100
AcDbEntity
  8
치수문자_일반주서
 62
     0
100
AcDbTrace
 10
63.27698911984689
 20
46.36135403512856
 30
0.0
 11
62.64223800576742
 21
45.82141379063911
 31
0.0
 12
61.33979282933881
 22
47.99563725512222
 32
0.0
 13
61.33979282933881
 23
47.99563725512222
 33
0.0
  0
POINT
  5
347
330
342
100
AcDbEntity
  8
Defpoints
 62
     0
100
AcDbPoint
 10
61.33979282933881
 20
47.99563725512222
 30
0.0
  0
POINT
  5
348
330
342
100
AcDbEntity
  8
Defpoints
 62
     0
100
AcDbPoint
 10
61.27500000000008
 20
48.07180738881176
 30
0.0
  0
ENDBLK
  5
349
330
342
100
AcDbEntity
  8
0
100
AcDbBlockEnd
  0
BLOCK
  5
39D
330
39C
100
AcDbEntity
  8
0
100
AcDbBlockBegin
  2
*D15
 70
     1
 10
0.0
 20
0.0
 30
0.0
  3
*D15
  1

  0
LINE
  5
39F
330
39C
100
AcDbEntity
  8
치수문자_일반주서
 62
     0
370
    -2
100
AcDbLine
 10
20.07445462196829
 20
-1.999812162734646
 30
0.0
 11
30.01195462196831
 21
-1.999812162734612
 31
0.0
  0
LINE
  5
3A0
330
39C
100
AcDbEntity
  8
치수문자_일반주서
 62
     0
370
    -2
100
AcDbLine
 10
20.07445462196829
 20
2.0
 30
0.0
 11
30.0119546219683
 21
2.000000000000037
 31
0.0
  0
LINE
  5
3A1
330
39C
100
AcDbEntity
  8
치수문자_일반주서
 62
     0
370
    -2
100
AcDbLine
 10
30.01195462196831
 20
-1.999812162734612
 30
0.0
 11
30.01195462196824
 21
17.13525000000004
 31
0.0
  0
LINE
  5
3A2
330
39C
100
AcDbEntity
  8
치수문자_일반주서
 62
     0
370
    -2
100
AcDbLine
 10
30.01195462196831
 20
-1.999812162734612
 30
0.0
 11
30.0119546219683
 21
2.000000000000037
 31
0.0
  0
LINE
  5
3A3
330
39C
100
AcDbEntity
  8
치수문자_일반주서
 62
     0
370
    -2
100
AcDbLine
 10
30.01195462196832
 20
-5.301812162734612
 30
0.0
 11
30.01195462196833
 21
-8.603812162734611
 31
0.0
  0
LINE
  5
3A4
330
39C
100
AcDbEntity
  8
치수문자_일반주서
 62
     0
370
    -2
100
AcDbLine
 10
30.01195462196829
 20
5.302000000000037
 30
0.0
 11
30.01195462196828
 21
8.604000000000037
 31
0.0
  0
SOLID
  5
3A5
330
39C
100
AcDbEntity
  8
치수문자_일반주서
 62
     0
100
AcDbTrace
 10
30.56228795530166
 20
-5.30181216273461
 30
0.0
 11
29.46162128863499
 21
-5.301812162734613
 31
0.0
 12
30.01195462196831
 22
-1.999812162734612
 32
0.0
 13
30.01195462196831
 23
-1.999812162734612
 33
0.0
  0
SOLID
  5
3A6
330
39C
100
AcDbEntity
  8
치수문자_일반주서
 62
     0
100
AcDbTrace
 10
29.46162128863495
 20
5.302000000000035
 30
0.0
 11
30.56228795530162
 21
5.302000000000039
 31
0.0
 12
30.0119546219683
 22
2.000000000000037
 32
0.0
 13
30.0119546219683
 23
2.000000000000037
 33
0.0
  0
MTEXT
  5
3A7
330
39C
100
AcDbEntity
  8
치수문자_일반주서
 62
     0
100
AcDbMText
 10
25.63695462196825
 20
14.07275000000003
 30
0.0
 40
3.5
 41
0.0
 71
     2
 72
     1
  1
\A1;%%c4
  7
SLDTEXTSTYLE0
 11
-3.552880519640735E-15
 21
1.0
 31
0.0
 73
     1
 44
1.0
  0
POINT
  5
3A8
330
39C
100
AcDbEntity
  8
Defpoints
 62
     0
100
AcDbPoint
 10
20.01195462196829
 20
-1.999812162734646
 30
0.0
  0
POINT
  5
3A9
330
39C
100
AcDbEntity
  8
Defpoints
 62
     0
100
AcDbPoint
 10
20.01195462196829
 20
2.0
 30
0.0
  0
POINT
  5
3E7
330
39C
100
AcDbEntity
  8
Defpoints
 62
     0
100
AcDbPoint
 10
30.0119546219683
 20
2.000000000000037
 30
0.0
  0
ENDBLK
  5
39E
330
39C
100
AcDbEntity
  8
0
100
AcDbBlockEnd
  0
BLOCK
  5
3AB
330
3AA
100
AcDbEntity
  8
0
100
AcDbBlockBegin
  2
*D16
 70
     1
 10
0.0
 20
0.0
 30
0.0
  3
*D16
  1

  0
LINE
  5
3AD
330
3AA
100
AcDbEntity
  8
치수문자_일반주서
 62
     0
370
    -2
100
AcDbLine
 10
-39.9880453780317
 20
2.5625
 30
0.0
 11
-39.9880453780317
 21
30.00000000000006
 31
0.0
  0
LINE
  5
3AE
330
3AA
100
AcDbEntity
  8
치수문자_일반주서
 62
     0
370
    -2
100
AcDbLine
 10
20.01195462196829
 20
2.0625
 30
0.0
 11
20.01195462196829
 21
30.00000000000006
 31
0.0
  0
LINE
  5
3AF
330
3AA
100
AcDbEntity
  8
치수문자_일반주서
 62
     0
370
    -2
100
AcDbLine
 10
-36.6860453780317
 20
30.00000000000006
 30
0.0
 11
16.70995462196829
 21
30.00000000000006
 31
0.0
  0
SOLID
  5
3B0
330
3AA
100
AcDbEntity
  8
치수문자_일반주서
 62
     0
100
AcDbTrace
 10
-36.6860453780317
 20
30.55033333333339
 30
0.0
 11
-36.6860453780317
 21
29.44966666666672
 31
0.0
 12
-39.9880453780317
 22
30.00000000000006
 32
0.0
 13
-39.9880453780317
 23
30.00000000000006
 33
0.0
  0
SOLID
  5
3B1
330
3AA
100
AcDbEntity
  8
치수문자_일반주서
 62
     0
100
AcDbTrace
 10
16.70995462196829
 20
29.44966666666672
 30
0.0
 11
16.70995462196829
 21
30.55033333333339
 31
0.0
 12
20.01195462196829
 22
30.00000000000006
 32
0.0
 13
20.01195462196829
 23
30.00000000000006
 33
0.0
  0
MTEXT
  5
3B2
330
3AA
100
AcDbEntity
  8
치수문자_일반주서
 62
     0
100
AcDbMText
 10
-9.988045378031707
 20
34.37500000000006
 30
0.0
 40
3.5
 41
0.0
 71
     2
 72
     1
  1
\A1;60
  7
SLDTEXTSTYLE0
 73
     1
 44
1.0
  0
POINT
  5
3B3
330
3AA
100
AcDbEntity
  8
Defpoints
 62
     0
100
AcDbPoint
 10
-39.9880453780317
 20
2.5
 30
0.0
  0
POINT
  5
3B4
330
3AA
100
AcDbEntity
  8
Defpoints
 62
     0
100
AcDbPoint
 10
20.01195462196829
 20
2.0
 30
0.0
  0
POINT
  5
3B5
330
3AA
100
AcDbEntity
  8
Defpoints
 62
     0
100
AcDbPoint
 10
20.01195462196829
 20
30.00000000000006
 30
0.0
  0
ENDBLK
  5
3AC
330
3AA
100
AcDbEntity
  8
0
100
AcDbBlockEnd
  0
BLOCK
  5
3B7
330
3B6
100
AcDbEntity
  8
0
100
AcDbBlockBegin
  2
*D17
 70
     1
 10
0.0
 20
0.0
 30
0.0
  3
*D17
  1

  0
LINE
  5
3B9
330
3B6
100
AcDbEntity
  8
치수문자_일반주서
 62
     0
370
    -2
100
AcDbLine
 10
-39.55054537803171
 20
3.0
 30
0.0
 11
-49.9880453780318
 21
2.999999999999961
 31
0.0
  0
LINE
  5
3BA
330
3B6
100
AcDbEntity
  8
치수문자_일반주서
 62
     0
370
    -2
100
AcDbLine
 10
-39.55054537803171
 20
-3.0
 30
0.0
 11
-49.98804537803178
 21
-3.000000000000039
 31
0.0
  0
LINE
  5
3BB
330
3B6
100
AcDbEntity
  8
치수문자_일반주서
 62
     0
370
    -2
100
AcDbLine
 10
-49.9880453780318
 20
2.999999999999961
 30
0.0
 11
-49.98804537803178
 21
-3.000000000000039
 31
0.0
  0
LINE
  5
3BC
330
3B6
100
AcDbEntity
  8
치수문자_일반주서
 62
     0
370
    -2
100
AcDbLine
 10
-49.98804537803181
 20
6.301999999999961
 30
0.0
 11
-49.98804537803183
 21
9.60399999999996
 31
0.0
  0
LINE
  5
3BD
330
3B6
100
AcDbEntity
  8
치수문자_일반주서
 62
     0
370
    -2
100
AcDbLine
 10
-49.98804537803176
 20
-6.302000000000039
 30
0.0
 11
-49.98804537803175
 21
-9.604000000000038
 31
0.0
  0
SOLID
  5
3BE
330
3B6
100
AcDbEntity
  8
치수문자_일반주서
 62
     0
100
AcDbTrace
 10
-50.53837871136515
 20
6.301999999999959
 30
0.0
 11
-49.43771204469848
 21
6.301999999999962
 31
0.0
 12
-49.9880453780318
 22
2.999999999999961
 32
0.0
 13
-49.9880453780318
 23
2.999999999999961
 33
0.0
  0
SOLID
  5
3BF
330
3B6
100
AcDbEntity
  8
치수문자_일반주서
 62
     0
100
AcDbTrace
 10
-49.43771204469843
 20
-6.302000000000037
 30
0.0
 11
-50.5383787113651
 21
-6.30200000000004
 31
0.0
 12
-49.98804537803178
 22
-3.000000000000039
 32
0.0
 13
-49.98804537803178
 23
-3.000000000000039
 33
0.0
  0
MTEXT
  5
3C0
330
3B6
100
AcDbEntity
  8
치수문자_일반주서
 62
     0
100
AcDbMText
 10
-54.36304537803179
 20
0.1876564709990866
 30
0.0
 40
3.5
 41
0.0
 71
     2
 72
     1
  1
\A1;%%c6
  7
SLDTEXTSTYLE0
 11
-3.552713678800501E-15
 21
1.0
 31
0.0
 73
     1
 44
1.0
  0
POINT
  5
3C1
330
3B6
100
AcDbEntity
  8
Defpoints
 62
     0
100
AcDbPoint
 10
-39.48804537803171
 20
3.0
 30
0.0
  0
POINT
  5
3E8
330
3B6
100
AcDbEntity
  8
Defpoints
 62
     0
100
AcDbPoint
 10
-39.48804537803171
 20
-3.0
 30
0.0
  0
POINT
  5
3E9
330
3B6
100
AcDbEntity
  8
Defpoints
 62
     0
100
AcDbPoint
 10
-49.98804537803178
 20
-3.000000000000039
 30
0.0
  0
ENDBLK
  5
3B8
330
3B6
100
AcDbEntity
  8
0
100
AcDbBlockEnd
  0
BLOCK
  5
3C5
330
3C4
100
AcDbEntity
  8
0
100
AcDbBlockBegin
  2
*D18
 70
     1
 10
0.0
 20
0.0
 30
0.0
  3
*D18
  1

  0
LINE
  5
3C7
330
3C4
100
AcDbEntity
  8
치수문자_일반주서
 62
     0
370
    -2
100
AcDbLine
 10
14.01195462196735
 20
1.681796573383466
 30
0.0
 11
14.01195462196735
 21
15.30788275874464
 31
0.0
  0
LINE
  5
3C8
330
3C4
100
AcDbEntity
  8
치수문자_일반주서
 62
     0
370
    -2
100
AcDbLine
 10
20.01195462196829
 20
2.0625
 30
0.0
 11
20.01195462196829
 21
15.30788275874464
 31
0.0
  0
LINE
  5
3C9
330
3C4
100
AcDbEntity
  8
치수문자_일반주서
 62
     0
370
    -2
100
AcDbLine
 10
14.01195462196735
 20
15.30788275874464
 30
0.0
 11
20.01195462196829
 21
15.30788275874464
 31
0.0
  0
LINE
  5
3CA
330
3C4
100
AcDbEntity
  8
치수문자_일반주서
 62
     0
370
    -2
100
AcDbLine
 10
10.70995462196735
 20
15.30788275874464
 30
0.0
 11
7.407954621967349
 21
15.30788275874464
 31
0.0
  0
LINE
  5
3CB
330
3C4
100
AcDbEntity
  8
치수문자_일반주서
 62
     0
370
    -2
100
AcDbLine
 10
23.31395462196829
 20
15.30788275874464
 30
0.0
 11
26.61595462196829
 21
15.30788275874464
 31
0.0
  0
SOLID
  5
3CC
330
3C4
100
AcDbEntity
  8
치수문자_일반주서
 62
     0
100
AcDbTrace
 10
10.70995462196735
 20
14.75754942541131
 30
0.0
 11
10.70995462196735
 21
15.85821609207797
 31
0.0
 12
14.01195462196735
 22
15.30788275874464
 32
0.0
 13
14.01195462196735
 23
15.30788275874464
 33
0.0
  0
SOLID
  5
3CD
330
3C4
100
AcDbEntity
  8
치수문자_일반주서
 62
     0
100
AcDbTrace
 10
23.31395462196829
 20
15.85821609207797
 30
0.0
 11
23.31395462196829
 21
14.75754942541131
 31
0.0
 12
20.01195462196829
 22
15.30788275874464
 32
0.0
 13
20.01195462196829
 23
15.30788275874464
 33
0.0
  0
MTEXT
  5
3CE
330
3C4
100
AcDbEntity
  8
치수문자_일반주서
 62
     0
100
AcDbMText
 10
17.0119546219678
 20
19.68288275874464
 30
0.0
 40
3.5
 41
0.0
 71
     2
 72
     1
  1
\A1;6
  7
SLDTEXTSTYLE0
 73
     1
 44
1.0
  0
POINT
  5
3CF
330
3C4
100
AcDbEntity
  8
Defpoints
 62
     0
100
AcDbPoint
 10
14.01195462196735
 20
1.619296573383466
 30
0.0
  0
POINT
  5
3EA
330
3C4
100
AcDbEntity
  8
Defpoints
 62
     0
100
AcDbPoint
 10
20.01195462196829
 20
2.0
 30
0.0
  0
POINT
  5
3EB
330
3C4
100
AcDbEntity
  8
Defpoints
 62
     0
100
AcDbPoint
 10
20.01195462196829
 20
15.30788275874464
 30
0.0
  0
ENDBLK
  5
3C6
330
3C4
100
AcDbEntity
  8
0
100
AcDbBlockEnd
  0
BLOCK
  5
3D2
330
3D1
100
AcDbEntity
  8
0
100
AcDbBlockBegin
  2
*D19
 70
     1
 10
0.0
 20
0.0
 30
0.0
  3
*D19
  1

  0
LINE
  5
3D4
330
3D1
100
AcDbEntity
  8
치수문자_일반주서
 62
     0
370
    -2
100
AcDbLine
 10
20.01195462196829
 20
2.0625
 30
0.0
 11
20.01195462196829
 21
23.94888346237755
 31
0.0
  0
LINE
  5
3D5
330
3D1
100
AcDbEntity
  8
치수문자_일반주서
 62
     0
370
    -2
100
AcDbLine
 10
4.011954618136556
 20
1.987499999999997
 30
0.0
 11
4.011954618136556
 21
23.94888346237755
 31
0.0
  0
LINE
  5
3D6
330
3D1
100
AcDbEntity
  8
치수문자_일반주서
 62
     0
370
    -2
100
AcDbLine
 10
20.01195462196829
 20
23.94888346237755
 30
0.0
 11
4.011954618136556
 21
23.94888346237755
 31
0.0
  0
LINE
  5
3D7
330
3D1
100
AcDbEntity
  8
치수문자_일반주서
 62
     0
370
    -2
100
AcDbLine
 10
23.31395462196829
 20
23.94888346237755
 30
0.0
 11
26.61595462196829
 21
23.94888346237755
 31
0.0
  0
LINE
  5
3D8
330
3D1
100
AcDbEntity
  8
치수문자_일반주서
 62
     0
370
    -2
100
AcDbLine
 10
0.7099546181365564
 20
23.94888346237755
 30
0.0
 11
-2.592045381863444
 21
23.94888346237755
 31
0.0
  0
SOLID
  5
3D9
330
3D1
100
AcDbEntity
  8
치수문자_일반주서
 62
     0
100
AcDbTrace
 10
23.31395462196829
 20
24.49921679571089
 30
0.0
 11
23.31395462196829
 21
23.39855012904422
 31
0.0
 12
20.01195462196829
 22
23.94888346237755
 32
0.0
 13
20.01195462196829
 23
23.94888346237755
 33
0.0
  0
SOLID
  5
3DA
330
3D1
100
AcDbEntity
  8
치수문자_일반주서
 62
     0
100
AcDbTrace
 10
0.7099546181365564
 20
23.39855012904422
 30
0.0
 11
0.7099546181365564
 21
24.49921679571089
 31
0.0
 12
4.011954618136556
 22
23.94888346237755
 32
0.0
 13
4.011954618136556
 23
23.94888346237755
 33
0.0
  0
MTEXT
  5
3DB
330
3D1
100
AcDbEntity
  8
치수문자_일반주서
 62
     0
100
AcDbMText
 10
12.01195462005242
 20
28.32388346237755
 30
0.0
 40
3.5
 41
0.0
 71
     2
 72
     1
  1
\A1;16
  7
SLDTEXTSTYLE0
 73
     1
 44
1.0
  0
POINT
  5
3DC
330
3D1
100
AcDbEntity
  8
Defpoints
 62
     0
100
AcDbPoint
 10
20.01195462196829
 20
2.0
 30
0.0
  0
POINT
  5
3DD
330
3D1
100
AcDbEntity
  8
Defpoints
 62
     0
100
AcDbPoint
 10
4.011954618136556
 20
1.924999999999997
 30
0.0
  0
POINT
  5
3DE
330
3D1
100
AcDbEntity
  8
Defpoints
 62
     0
100
AcDbPoint
 10
4.011954618136556
 20
23.94888346237755
 30
0.0
  0
ENDBLK
  5
3D3
330
3D1
100
AcDbEntity
  8
0
100
AcDbBlockEnd
  0
BLOCK
  5
3E0
330
3DF
100
AcDbEntity
  8
0
100
AcDbBlockBegin
  2
*D20
 70
     1
 10
0.0
 20
0.0
 30
0.0
  3
*D20
  1

  0
LINE
  5
3E2
330
3DF
100
AcDbEntity
  8
치수문자_일반주서
 62
     0
370
    -2
100
AcDbLine
 10
22.11620667607244
 20
-4.491307948117653
 30
0.0
 11
32.82073728144859
 21
-17.07550184143055
 31
0.0
  0
MTEXT
  5
3E3
330
3DF
100
AcDbEntity
  8
치수문자_일반주서
 62
     0
100
AcDbMText
 10
32.12725132140699
 20
-12.20886888981758
 30
0.0
 40
3.5
 41
0.0
 71
     5
 72
     1
  1
\A1;R0.1
  7
SLDTEXTSTYLE0
 11
0.6479282933874613
 21
-0.7617013368952507
 31
0.0
 73
     1
 44
1.0
  0
SOLID
  5
3E4
330
3DF
100
AcDbEntity
  8
치수문자_일반주서
 62
     0
100
AcDbTrace
 10
22.53539631181046
 20
-4.134731410656753
 30
0.0
 11
21.69701704033443
 21
-4.847884485578552
 31
0.0
 12
19.97674745130705
 22
-1.976170133689535
 32
0.0
 13
19.97674745130705
 23
-1.976170133689535
 33
0.0
  0
POINT
  5
3E5
330
3DF
100
AcDbEntity
  8
Defpoints
 62
     0
100
AcDbPoint
 10
19.97674745130705
 20
-1.976170133689535
 30
0.0
  0
POINT
  5
3E6
330
3DF
100
AcDbEntity
  8
Defpoints
 62
     0
100
AcDbPoint
 10
19.91195462196829
 20
-1.899999999999998
 30
0.0
  0
ENDBLK
  5
3E1
330
3DF
100
AcDbEntity
  8
0
100
AcDbBlockEnd
  0
BLOCK
  5
47A
330
479
100
AcDbEntity
  8
0
100
AcDbBlockBegin
  2
*D21
 70
     1
 10
0.0
 20
0.0
 30
0.0
  3
*D21
  1

  0
LINE
  5
47B
330
479
100
AcDbEntity
  8
치수문자_일반주서
 62
     0
370
    -2
100
AcDbLine
 10
61.39845165779624
 20
49.37180738881174
 30
0.0
 11
87.45396820311913
 21
49.37180738881184
 31
0.0
  0
LINE
  5
47C
330
479
100
AcDbEntity
  8
치수문자_일반주서
 62
     0
370
    -2
100
AcDbLine
 10
61.39845165779624
 20
50.57180738881175
 30
0.0
 11
87.45396820311913
 21
50.57180738881185
 31
0.0
  0
LINE
  5
47D
330
479
100
AcDbEntity
  8
치수문자_일반주서
 62
     0
370
    -2
100
AcDbLine
 10
87.45396820311913
 20
46.06980738881184
 30
0.0
 11
87.45396820311913
 21
42.76780738881184
 31
0.0
  0
LINE
  5
47E
330
479
100
AcDbEntity
  8
치수문자_일반주서
 62
     0
370
    -2
100
AcDbLine
 10
87.45396820311913
 20
53.87380738881185
 30
0.0
 11
87.45396820311913
 21
57.17580738881185
 31
0.0
  0
SOLID
  5
47F
330
479
100
AcDbEntity
  8
치수문자_일반주서
 62
     0
100
AcDbTrace
 10
88.00430153645246
 20
46.06980738881184
 30
0.0
 11
86.9036348697858
 21
46.06980738881184
 31
0.0
 12
87.45396820311913
 22
49.37180738881184
 32
0.0
 13
87.45396820311913
 23
49.37180738881184
 33
0.0
  0
SOLID
  5
480
330
479
100
AcDbEntity
  8
치수문자_일반주서
 62
     0
100
AcDbTrace
 10
86.9036348697858
 20
53.87380738881185
 30
0.0
 11
88.00430153645246
 21
53.87380738881185
 31
0.0
 12
87.45396820311913
 22
50.57180738881185
 32
0.0
 13
87.45396820311913
 23
50.57180738881185
 33
0.0
  0
MTEXT
  5
481
330
479
100
AcDbEntity
  8
치수문자_일반주서
 62
     0
100
AcDbMText
 10
83.07896820311913
 20
49.97180738881172
 30
0.0
 40
3.5
 41
0.0
 71
     2
 72
     1
  1
\A1;%%c1.2
  7
SLDTEXTSTYLE0
 11
0.0
 21
1.0
 31
0.0
 73
     1
 44
1.0
  0
POINT
  5
482
330
479
100
AcDbEntity
  8
Defpoints
 62
     0
100
AcDbPoint
 10
61.33595165779624
 20
49.37180738881174
 30
0.0
  0
POINT
  5
483
330
479
100
AcDbEntity
  8
Defpoints
 62
     0
100
AcDbPoint
 10
61.33595165779624
 20
50.57180738881175
 30
0.0
  0
POINT
  5
4C2
330
479
100
AcDbEntity
  8
Defpoints
 62
     0
100
AcDbPoint
 10
87.45396820311913
 20
50.57180738881185
 30
0.0
  0
ENDBLK
  5
484
330
479
100
AcDbEntity
  8
0
100
AcDbBlockEnd
  0
BLOCK
  5
487
330
486
100
AcDbEntity
  8
0
100
AcDbBlockBegin
  2
*D22
 70
     1
 10
0.0
 20
0.0
 30
0.0
  3
*D22
  1

  0
LINE
  5
488
330
486
100
AcDbEntity
  8
치수문자_일반주서
 62
     0
370
    -2
100
AcDbLine
 10
16.37145802161209
 20
52.53430738881175
 30
0.0
 11
16.37145802161209
 21
80.97180738881177
 31
0.0
  0
LINE
  5
489
330
486
100
AcDbEntity
  8
치수문자_일반주서
 62
     0
370
    -2
100
AcDbLine
 10
66.37145802161209
 20
51.32931531800514
 30
0.0
 11
66.37145802161209
 21
80.97180738881177
 31
0.0
  0
LINE
  5
48A
330
486
100
AcDbEntity
  8
치수문자_일반주서
 62
     0
370
    -2
100
AcDbLine
 10
19.67345802161208
 20
80.97180738881177
 30
0.0
 11
63.06945802161209
 21
80.97180738881177
 31
0.0
  0
SOLID
  5
48B
330
486
100
AcDbEntity
  8
치수문자_일반주서
 62
     0
100
AcDbTrace
 10
19.67345802161208
 20
81.5221407221451
 30
0.0
 11
19.67345802161208
 21
80.42147405547844
 31
0.0
 12
16.37145802161209
 22
80.97180738881177
 32
0.0
 13
16.37145802161209
 23
80.97180738881177
 33
0.0
  0
SOLID
  5
48C
330
486
100
AcDbEntity
  8
치수문자_일반주서
 62
     0
100
AcDbTrace
 10
63.06945802161209
 20
80.42147405547844
 30
0.0
 11
63.06945802161209
 21
81.5221407221451
 31
0.0
 12
66.37145802161209
 22
80.97180738881177
 32
0.0
 13
66.37145802161209
 23
80.97180738881177
 33
0.0
  0
MTEXT
  5
48D
330
486
100
AcDbEntity
  8
치수문자_일반주서
 62
     0
100
AcDbMText
 10
41.37145802161209
 20
85.34680738881177
 30
0.0
 40
3.5
 41
0.0
 71
     2
 72
     1
  1
\A1;50
  7
SLDTEXTSTYLE0
 73
     1
 44
1.0
  0
POINT
  5
48E
330
486
100
AcDbEntity
  8
Defpoints
 62
     0
100
AcDbPoint
 10
16.37145802161209
 20
52.47180738881175
 30
0.0
  0
POINT
  5
48F
330
486
100
AcDbEntity
  8
Defpoints
 62
     0
100
AcDbPoint
 10
66.37145802161209
 20
51.26681531800514
 30
0.0
  0
POINT
  5
490
330
486
100
AcDbEntity
  8
Defpoints
 62
     0
100
AcDbPoint
 10
66.37145802161209
 20
80.97180738881177
 30
0.0
  0
ENDBLK
  5
491
330
486
100
AcDbEntity
  8
0
100
AcDbBlockEnd
  0
BLOCK
  5
494
330
493
100
AcDbEntity
  8
0
100
AcDbBlockBegin
  2
*D23
 70
     1
 10
0.0
 20
0.0
 30
0.0
  3
*D23
  1

  0
LINE
  5
495
330
493
100
AcDbEntity
  8
치수문자_일반주서
 62
     0
370
    -2
100
AcDbLine
 10
16.80895802161209
 20
52.97180738881175
 30
0.0
 11
4.374999999999989
 21
52.9718073888117
 31
0.0
  0
LINE
  5
496
330
493
100
AcDbEntity
  8
치수문자_일반주서
 62
     0
370
    -2
100
AcDbLine
 10
16.80895802161209
 20
46.97180738881175
 30
0.0
 11
4.375000000000011
 21
46.9718073888117
 31
0.0
  0
LINE
  5
497
330
493
100
AcDbEntity
  8
치수문자_일반주서
 62
     0
370
    -2
100
AcDbLine
 10
4.375000000000001
 20
49.6698073888117
 30
0.0
 11
4.374999999999999
 21
50.2738073888117
 31
0.0
  0
SOLID
  5
498
330
493
100
AcDbEntity
  8
치수문자_일반주서
 62
     0
100
AcDbTrace
 10
4.925333333333334
 20
49.6698073888117
 30
0.0
 11
3.824666666666667
 21
49.6698073888117
 31
0.0
 12
4.374999999999989
 22
52.9718073888117
 32
0.0
 13
4.374999999999989
 23
52.9718073888117
 33
0.0
  0
SOLID
  5
499
330
493
100
AcDbEntity
  8
치수문자_일반주서
 62
     0
100
AcDbTrace
 10
3.824666666666666
 20
50.2738073888117
 30
0.0
 11
4.925333333333333
 21
50.2738073888117
 31
0.0
 12
4.375000000000011
 22
46.9718073888117
 32
0.0
 13
4.375000000000011
 23
46.9718073888117
 33
0.0
  0
MTEXT
  5
49A
330
493
100
AcDbEntity
  8
치수문자_일반주서
 62
     0
100
AcDbMText
 10
0.0
 20
49.97180738881173
 30
0.0
 40
3.5
 41
0.0
 71
     2
 72
     1
  1
\A1;%%c6
  7
SLDTEXTSTYLE0
 11
-3.552713678800501E-15
 21
1.0
 31
0.0
 73
     1
 44
1.0
  0
POINT
  5
49B
330
493
100
AcDbEntity
  8
Defpoints
 62
     0
100
AcDbPoint
 10
16.87145802161209
 20
52.97180738881175
 30
0.0
  0
POINT
  5
49C
330
493
100
AcDbEntity
  8
Defpoints
 62
     0
100
AcDbPoint
 10
16.87145802161209
 20
46.97180738881175
 30
0.0
  0
POINT
  5
49D
330
493
100
AcDbEntity
  8
Defpoints
 62
     0
100
AcDbPoint
 10
4.375000000000014
 20
46.9718073888117
 30
0.0
  0
ENDBLK
  5
49E
330
493
100
AcDbEntity
  8
0
100
AcDbBlockEnd
  0
BLOCK
  5
4A1
330
4A0
100
AcDbEntity
  8
0
100
AcDbBlockBegin
  2
*D24
 70
     1
 10
0.0
 20
0.0
 30
0.0
  3
*D24
  1

  0
LINE
  5
4A2
330
4A0
100
AcDbEntity
  8
치수문자_일반주서
 62
     0
370
    -2
100
AcDbLine
 10
60.37145802161209
 20
51.65360396220746
 30
0.0
 11
60.37145802161209
 21
66.41351656047921
 31
0.0
  0
LINE
  5
4A3
330
4A0
100
AcDbEntity
  8
치수문자_일반주서
 62
     0
370
    -2
100
AcDbLine
 10
66.37145802161209
 20
51.32931531800514
 30
0.0
 11
66.37145802161209
 21
66.41351656047921
 31
0.0
  0
LINE
  5
4A4
330
4A0
100
AcDbEntity
  8
치수문자_일반주서
 62
     0
370
    -2
100
AcDbLine
 10
63.67345802161208
 20
66.41351656047921
 30
0.0
 11
63.06945802161209
 21
66.41351656047921
 31
0.0
  0
SOLID
  5
4A5
330
4A0
100
AcDbEntity
  8
치수문자_일반주서
 62
     0
100
AcDbTrace
 10
63.67345802161208
 20
66.96384989381254
 30
0.0
 11
63.67345802161208
 21
65.86318322714588
 31
0.0
 12
60.37145802161209
 22
66.41351656047921
 32
0.0
 13
60.37145802161209
 23
66.41351656047921
 33
0.0
  0
SOLID
  5
4A6
330
4A0
100
AcDbEntity
  8
치수문자_일반주서
 62
     0
100
AcDbTrace
 10
63.06945802161209
 20
65.86318322714588
 30
0.0
 11
63.06945802161209
 21
66.96384989381254
 31
0.0
 12
66.37145802161209
 22
66.41351656047921
 32
0.0
 13
66.37145802161209
 23
66.41351656047921
 33
0.0
  0
MTEXT
  5
4A7
330
4A0
100
AcDbEntity
  8
치수문자_일반주서
 62
     0
100
AcDbMText
 10
63.37145802161209
 20
70.78851656047921
 30
0.0
 40
3.5
 41
0.0
 71
     2
 72
     1
  1
\A1;6
  7
SLDTEXTSTYLE0
 73
     1
 44
1.0
  0
POINT
  5
4A8
330
4A0
100
AcDbEntity
  8
Defpoints
 62
     0
100
AcDbPoint
 10
60.37145802161209
 20
51.59110396220746
 30
0.0
  0
POINT
  5
4A9
330
4A0
100
AcDbEntity
  8
Defpoints
 62
     0
100
AcDbPoint
 10
66.37145802161209
 20
51.26681531800514
 30
0.0
  0
POINT
  5
4AA
330
4A0
100
AcDbEntity
  8
Defpoints
 62
     0
100
AcDbPoint
 10
66.37145802161209
 20
66.41351656047921
 30
0.0
  0
ENDBLK
  5
4AB
330
4A0
100
AcDbEntity
  8
0
100
AcDbBlockEnd
  0
BLOCK
  5
4AE
330
4AD
100
AcDbEntity
  8
0
100
AcDbBlockBegin
  2
*D25
 70
     1
 10
0.0
 20
0.0
 30
0.0
  3
*D25
  1

  0
LINE
  5
4AF
330
4AD
100
AcDbEntity
  8
치수문자_일반주서
 62
     0
370
    -2
100
AcDbLine
 10
66.37145802161209
 20
51.92956652060439
 30
0.0
 11
66.37145802161209
 21
75.31874179029826
 31
0.0
  0
LINE
  5
4B0
330
4AD
100
AcDbEntity
  8
치수문자_일반주서
 62
     0
370
    -2
100
AcDbLine
 10
54.37145801713064
 20
51.95930738881175
 30
0.0
 11
54.37145801713064
 21
75.31874179029826
 31
0.0
  0
LINE
  5
4B1
330
4AD
100
AcDbEntity
  8
치수문자_일반주서
 62
     0
370
    -2
100
AcDbLine
 10
63.06945802161209
 20
75.31874179029826
 30
0.0
 11
57.67345801713063
 21
75.31874179029826
 31
0.0
  0
SOLID
  5
4B2
330
4AD
100
AcDbEntity
  8
치수문자_일반주서
 62
     0
100
AcDbTrace
 10
63.06945802161209
 20
74.76840845696493
 30
0.0
 11
63.06945802161209
 21
75.86907512363159
 31
0.0
 12
66.37145802161209
 22
75.31874179029826
 32
0.0
 13
66.37145802161209
 23
75.31874179029826
 33
0.0
  0
SOLID
  5
4B3
330
4AD
100
AcDbEntity
  8
치수문자_일반주서
 62
     0
100
AcDbTrace
 10
57.67345801713063
 20
75.86907512363159
 30
0.0
 11
57.67345801713063
 21
74.76840845696493
 31
0.0
 12
54.37145801713064
 22
75.31874179029826
 32
0.0
 13
54.37145801713064
 23
75.31874179029826
 33
0.0
  0
MTEXT
  5
4B4
330
4AD
100
AcDbEntity
  8
치수문자_일반주서
 62
     0
100
AcDbMText
 10
60.37145801937136
 20
79.69374179029826
 30
0.0
 40
3.5
 41
0.0
 71
     2
 72
     1
  1
\A1;12
  7
SLDTEXTSTYLE0
 73
     1
 44
1.0
  0
POINT
  5
4B5
330
4AD
100
AcDbEntity
  8
Defpoints
 62
     0
100
AcDbPoint
 10
66.37145802161209
 20
51.86706652060439
 30
0.0
  0
POINT
  5
4B6
330
4AD
100
AcDbEntity
  8
Defpoints
 62
     0
100
AcDbPoint
 10
54.37145801713064
 20
51.89680738881175
 30
0.0
  0
POINT
  5
4B7
330
4AD
100
AcDbEntity
  8
Defpoints
 62
     0
100
AcDbPoint
 10
54.37145801713064
 20
75.31874179029826
 30
0.0
  0
ENDBLK
  5
4B8
330
4AD
100
AcDbEntity
  8
0
100
AcDbBlockEnd
  0
BLOCK
  5
513
330
512
100
AcDbEntity
  8
0
100
AcDbBlockBegin
  2
*D26
 70
     1
 10
0.0
 20
0.0
 30
0.0
  3
*D26
  1

  0
LINE
  5
515
330
512
100
AcDbEntity
  8
치수문자_일반주서
 62
     0
370
    -2
100
AcDbLine
 10
123.4595849699925
 20
0.7896482200943356
 30
0.0
 11
149.5151015153154
 21
0.7896482200944328
 31
0.0
  0
LINE
  5
516
330
512
100
AcDbEntity
  8
치수문자_일반주서
 62
     0
370
    -2
100
AcDbLine
 10
123.4595849699925
 20
1.989648220094345
 30
0.0
 11
149.5151015153154
 21
1.989648220094443
 31
0.0
  0
LINE
  5
517
330
512
100
AcDbEntity
  8
치수문자_일반주서
 62
     0
370
    -2
100
AcDbLine
 10
149.5151015153154
 20
-2.512351779905567
 30
0.0
 11
149.5151015153154
 21
-5.814351779905568
 31
0.0
  0
LINE
  5
518
330
512
100
AcDbEntity
  8
치수문자_일반주서
 62
     0
370
    -2
100
AcDbLine
 10
149.5151015153154
 20
5.291648220094443
 30
0.0
 11
149.5151015153154
 21
8.593648220094442
 31
0.0
  0
SOLID
  5
519
330
512
100
AcDbEntity
  8
치수문자_일반주서
 62
     0
100
AcDbTrace
 10
150.0654348486487
 20
-2.512351779905567
 30
0.0
 11
148.9647681819821
 21
-2.512351779905567
 31
0.0
 12
149.5151015153154
 22
0.7896482200944328
 32
0.0
 13
149.5151015153154
 23
0.7896482200944328
 33
0.0
  0
SOLID
  5
51A
330
512
100
AcDbEntity
  8
치수문자_일반주서
 62
     0
100
AcDbTrace
 10
148.9647681819821
 20
5.291648220094443
 30
0.0
 11
150.0654348486487
 21
5.291648220094443
 31
0.0
 12
149.5151015153154
 22
1.989648220094443
 32
0.0
 13
149.5151015153154
 23
1.989648220094443
 33
0.0
  0
MTEXT
  5
51B
330
512
100
AcDbEntity
  8
치수문자_일반주서
 62
     0
100
AcDbMText
 10
145.1401015153154
 20
1.389648220094315
 30
0.0
 40
3.5
 41
0.0
 71
     2
 72
     1
  1
\A1;%%c1.2
  7
SLDTEXTSTYLE0
 11
0.0
 21
1.0
 31
0.0
 73
     1
 44
1.0
  0
POINT
  5
51C
330
512
100
AcDbEntity
  8
Defpoints
 62
     0
100
AcDbPoint
 10
123.3970849699925
 20
0.7896482200943353
 30
0.0
  0
POINT
  5
51D
330
512
100
AcDbEntity
  8
Defpoints
 62
     0
100
AcDbPoint
 10
123.3970849699925
 20
1.989648220094345
 30
0.0
  0
POINT
  5
51E
330
512
100
AcDbEntity
  8
Defpoints
 62
     0
100
AcDbPoint
 10
149.5151015153154
 20
1.989648220094443
 30
0.0
  0
ENDBLK
  5
514
330
512
100
AcDbEntity
  8
0
100
AcDbBlockEnd
  0
BLOCK
  5
520
330
51F
100
AcDbEntity
  8
0
100
AcDbBlockBegin
  2
*D27
 70
     1
 10
0.0
 20
0.0
 30
0.0
  3
*D27
  1

  0
LINE
  5
522
330
51F
100
AcDbEntity
  8
치수문자_일반주서
 62
     0
370
    -2
100
AcDbLine
 10
78.43259133380836
 20
3.952148220094344
 30
0.0
 11
78.43259133380836
 21
32.38964822009437
 31
0.0
  0
LINE
  5
523
330
51F
100
AcDbEntity
  8
치수문자_일반주서
 62
     0
370
    -2
100
AcDbLine
 10
128.4325913338084
 20
2.747156149287733
 30
0.0
 11
128.4325913338084
 21
32.38964822009437
 31
0.0
  0
LINE
  5
524
330
51F
100
AcDbEntity
  8
치수문자_일반주서
 62
     0
370
    -2
100
AcDbLine
 10
81.73459133380837
 20
32.38964822009437
 30
0.0
 11
125.1305913338084
 21
32.38964822009437
 31
0.0
  0
SOLID
  5
525
330
51F
100
AcDbEntity
  8
치수문자_일반주서
 62
     0
100
AcDbTrace
 10
81.73459133380837
 20
32.9399815534277
 30
0.0
 11
81.73459133380837
 21
31.83931488676103
 31
0.0
 12
78.43259133380836
 22
32.38964822009437
 32
0.0
 13
78.43259133380836
 23
32.38964822009437
 33
0.0
  0
SOLID
  5
526
330
51F
100
AcDbEntity
  8
치수문자_일반주서
 62
     0
100
AcDbTrace
 10
125.1305913338084
 20
31.83931488676103
 30
0.0
 11
125.1305913338084
 21
32.9399815534277
 31
0.0
 12
128.4325913338084
 22
32.38964822009437
 32
0.0
 13
128.4325913338084
 23
32.38964822009437
 33
0.0
  0
MTEXT
  5
527
330
51F
100
AcDbEntity
  8
치수문자_일반주서
 62
     0
100
AcDbMText
 10
103.4325913338084
 20
36.76464822009437
 30
0.0
 40
3.5
 41
0.0
 71
     2
 72
     1
  1
\A1;50
  7
SLDTEXTSTYLE0
 73
     1
 44
1.0
  0
POINT
  5
528
330
51F
100
AcDbEntity
  8
Defpoints
 62
     0
100
AcDbPoint
 10
78.43259133380836
 20
3.889648220094344
 30
0.0
  0
POINT
  5
529
330
51F
100
AcDbEntity
  8
Defpoints
 62
     0
100
AcDbPoint
 10
128.4325913338084
 20
2.684656149287733
 30
0.0
  0
POINT
  5
52A
330
51F
100
AcDbEntity
  8
Defpoints
 62
     0
100
AcDbPoint
 10
128.4325913338084
 20
32.38964822009437
 30
0.0
  0
ENDBLK
  5
521
330
51F
100
AcDbEntity
  8
0
100
AcDbBlockEnd
  0
BLOCK
  5
52C
330
52B
100
AcDbEntity
  8
0
100
AcDbBlockBegin
  2
*D28
 70
     1
 10
0.0
 20
0.0
 30
0.0
  3
*D28
  1

  0
LINE
  5
52E
330
52B
100
AcDbEntity
  8
치수문자_일반주서
 62
     0
370
    -2
100
AcDbLine
 10
78.87009133380836
 20
4.389648220094344
 30
0.0
 11
66.43613331219628
 21
4.389648220094296
 31
0.0
  0
LINE
  5
52F
330
52B
100
AcDbEntity
  8
치수문자_일반주서
 62
     0
370
    -2
100
AcDbLine
 10
78.87009133380836
 20
-1.610351779905656
 30
0.0
 11
66.43613331219629
 21
-1.610351779905704
 31
0.0
  0
LINE
  5
530
330
52B
100
AcDbEntity
  8
치수문자_일반주서
 62
     0
370
    -2
100
AcDbLine
 10
66.43613331219629
 20
1.087648220094296
 30
0.0
 11
66.43613331219628
 21
1.691648220094296
 31
0.0
  0
SOLID
  5
531
330
52B
100
AcDbEntity
  8
치수문자_일반주서
 62
     0
100
AcDbTrace
 10
66.98646664552962
 20
1.087648220094297
 30
0.0
 11
65.88579997886296
 21
1.087648220094295
 31
0.0
 12
66.43613331219628
 22
4.389648220094296
 32
0.0
 13
66.43613331219628
 23
4.389648220094296
 33
0.0
  0
SOLID
  5
532
330
52B
100
AcDbEntity
  8
치수문자_일반주서
 62
     0
100
AcDbTrace
 10
65.88579997886295
 20
1.691648220094295
 30
0.0
 11
66.9864666455296
 21
1.691648220094297
 31
0.0
 12
66.43613331219629
 22
-1.610351779905704
 32
0.0
 13
66.43613331219629
 23
-1.610351779905704
 33
0.0
  0
MTEXT
  5
533
330
52B
100
AcDbEntity
  8
치수문자_일반주서
 62
     0
100
AcDbMText
 10
62.06113331219628
 20
1.389648220094333
 30
0.0
 40
3.5
 41
0.0
 71
     2
 72
     1
  1
\A1;%%c6
  7
SLDTEXTSTYLE0
 11
-2.368475785867001E-15
 21
1.0
 31
0.0
 73
     1
 44
1.0
  0
POINT
  5
534
330
52B
100
AcDbEntity
  8
Defpoints
 62
     0
100
AcDbPoint
 10
78.93259133380836
 20
4.389648220094344
 30
0.0
  0
POINT
  5
535
330
52B
100
AcDbEntity
  8
Defpoints
 62
     0
100
AcDbPoint
 10
78.93259133380836
 20
-1.610351779905656
 30
0.0
  0
POINT
  5
536
330
52B
100
AcDbEntity
  8
Defpoints
 62
     0
100
AcDbPoint
 10
66.43613331219629
 20
-1.610351779905703
 30
0.0
  0
ENDBLK
  5
52D
330
52B
100
AcDbEntity
  8
0
100
AcDbBlockEnd
  0
BLOCK
  5
538
330
537
100
AcDbEntity
  8
0
100
AcDbBlockBegin
  2
*D29
 70
     1
 10
0.0
 20
0.0
 30
0.0
  3
*D29
  1

  0
LINE
  5
53A
330
537
100
AcDbEntity
  8
치수문자_일반주서
 62
     0
370
    -2
100
AcDbLine
 10
122.4325913338084
 20
3.071444793490059
 30
0.0
 11
122.4325913338084
 21
17.83135739176181
 31
0.0
  0
LINE
  5
53B
330
537
100
AcDbEntity
  8
치수문자_일반주서
 62
     0
370
    -2
100
AcDbLine
 10
128.4325913338084
 20
2.747156149287733
 30
0.0
 11
128.4325913338084
 21
17.83135739176181
 31
0.0
  0
LINE
  5
53C
330
537
100
AcDbEntity
  8
치수문자_일반주서
 62
     0
370
    -2
100
AcDbLine
 10
125.7345913338084
 20
17.83135739176181
 30
0.0
 11
125.1305913338084
 21
17.83135739176181
 31
0.0
  0
SOLID
  5
53D
330
537
100
AcDbEntity
  8
치수문자_일반주서
 62
     0
100
AcDbTrace
 10
125.7345913338084
 20
18.38169072509514
 30
0.0
 11
125.7345913338084
 21
17.28102405842847
 31
0.0
 12
122.4325913338084
 22
17.83135739176181
 32
0.0
 13
122.4325913338084
 23
17.83135739176181
 33
0.0
  0
SOLID
  5
53E
330
537
100
AcDbEntity
  8
치수문자_일반주서
 62
     0
100
AcDbTrace
 10
125.1305913338084
 20
17.28102405842847
 30
0.0
 11
125.1305913338084
 21
18.38169072509514
 31
0.0
 12
128.4325913338084
 22
17.83135739176181
 32
0.0
 13
128.4325913338084
 23
17.83135739176181
 33
0.0
  0
MTEXT
  5
53F
330
537
100
AcDbEntity
  8
치수문자_일반주서
 62
     0
100
AcDbMText
 10
125.4325913338084
 20
22.20635739176181
 30
0.0
 40
3.5
 41
0.0
 71
     2
 72
     1
  1
\A1;6
  7
SLDTEXTSTYLE0
 73
     1
 44
1.0
  0
POINT
  5
540
330
537
100
AcDbEntity
  8
Defpoints
 62
     0
100
AcDbPoint
 10
122.4325913338084
 20
3.008944793490059
 30
0.0
  0
POINT
  5
541
330
537
100
AcDbEntity
  8
Defpoints
 62
     0
100
AcDbPoint
 10
128.4325913338084
 20
2.684656149287733
 30
0.0
  0
POINT
  5
542
330
537
100
AcDbEntity
  8
Defpoints
 62
     0
100
AcDbPoint
 10
128.4325913338084
 20
17.83135739176181
 30
0.0
  0
ENDBLK
  5
539
330
537
100
AcDbEntity
  8
0
100
AcDbBlockEnd
  0
BLOCK
  5
544
330
543
100
AcDbEntity
  8
0
100
AcDbBlockBegin
  2
*D30
 70
     1
 10
0.0
 20
0.0
 30
0.0
  3
*D30
  1

  0
LINE
  5
546
330
543
100
AcDbEntity
  8
치수문자_일반주서
 62
     0
370
    -2
100
AcDbLine
 10
128.4325913338084
 20
3.347407351886986
 30
0.0
 11
128.4325913338084
 21
26.73658262158086
 31
0.0
  0
LINE
  5
547
330
543
100
AcDbEntity
  8
치수문자_일반주서
 62
     0
370
    -2
100
AcDbLine
 10
116.4325913293269
 20
3.377148220094348
 30
0.0
 11
116.4325913293269
 21
26.73658262158086
 31
0.0
  0
LINE
  5
548
330
543
100
AcDbEntity
  8
치수문자_일반주서
 62
     0
370
    -2
100
AcDbLine
 10
125.1305913338084
 20
26.73658262158086
 30
0.0
 11
119.7345913293269
 21
26.73658262158086
 31
0.0
  0
SOLID
  5
549
330
543
100
AcDbEntity
  8
치수문자_일반주서
 62
     0
100
AcDbTrace
 10
125.1305913338084
 20
26.18624928824752
 30
0.0
 11
125.1305913338084
 21
27.28691595491419
 31
0.0
 12
128.4325913338084
 22
26.73658262158086
 32
0.0
 13
128.4325913338084
 23
26.73658262158086
 33
0.0
  0
SOLID
  5
54A
330
543
100
AcDbEntity
  8
치수문자_일반주서
 62
     0
100
AcDbTrace
 10
119.7345913293269
 20
27.28691595491419
 30
0.0
 11
119.7345913293269
 21
26.18624928824752
 31
0.0
 12
116.4325913293269
 22
26.73658262158086
 32
0.0
 13
116.4325913293269
 23
26.73658262158086
 33
0.0
  0
MTEXT
  5
54B
330
543
100
AcDbEntity
  8
치수문자_일반주서
 62
     0
100
AcDbMText
 10
122.4325913315676
 20
31.11158262158086
 30
0.0
 40
3.5
 41
0.0
 71
     2
 72
     1
  1
\A1;12
  7
SLDTEXTSTYLE0
 73
     1
 44
1.0
  0
POINT
  5
54C
330
543
100
AcDbEntity
  8
Defpoints
 62
     0
100
AcDbPoint
 10
128.4325913338084
 20
3.284907351886986
 30
0.0
  0
POINT
  5
54D
330
543
100
AcDbEntity
  8
Defpoints
 62
     0
100
AcDbPoint
 10
116.4325913293269
 20
3.314648220094348
 30
0.0
  0
POINT
  5
54E
330
543
100
AcDbEntity
  8
Defpoints
 62
     0
100
AcDbPoint
 10
116.4325913293269
 20
26.73658262158086
 30
0.0
  0
ENDBLK
  5
545
330
543
100
AcDbEntity
  8
0
100
AcDbBlockEnd
  0
BLOCK
  5
61F
330
61E
100
AcDbEntity
  8
0
100
AcDbBlockBegin
  2
*D31
 70
     1
 10
0.0
 20
0.0
 30
0.0
  3
*D31
  1

  0
LINE
  5
621
330
61E
100
AcDbEntity
  8
치수문자_일반주서
 62
     0
370
    -2
100
AcDbLine
 10
71.58866092365797
 20
49.37180738881174
 30
0.0
 11
97.64417746898087
 21
49.37180738881184
 31
0.0
  0
LINE
  5
622
330
61E
100
AcDbEntity
  8
치수문자_일반주서
 62
     0
370
    -2
100
AcDbLine
 10
71.58866092365797
 20
50.57180738881175
 30
0.0
 11
97.64417746898087
 21
50.57180738881185
 31
0.0
  0
LINE
  5
623
330
61E
100
AcDbEntity
  8
치수문자_일반주서
 62
     0
370
    -2
100
AcDbLine
 10
97.64417746898087
 20
46.06980738881184
 30
0.0
 11
97.64417746898087
 21
42.76780738881184
 31
0.0
  0
LINE
  5
624
330
61E
100
AcDbEntity
  8
치수문자_일반주서
 62
     0
370
    -2
100
AcDbLine
 10
97.64417746898087
 20
53.87380738881185
 30
0.0
 11
97.64417746898087
 21
57.17580738881185
 31
0.0
  0
SOLID
  5
625
330
61E
100
AcDbEntity
  8
치수문자_일반주서
 62
     0
100
AcDbTrace
 10
98.1945108023142
 20
46.06980738881184
 30
0.0
 11
97.09384413564754
 21
46.06980738881184
 31
0.0
 12
97.64417746898087
 22
49.37180738881184
 32
0.0
 13
97.64417746898087
 23
49.37180738881184
 33
0.0
  0
SOLID
  5
626
330
61E
100
AcDbEntity
  8
치수문자_일반주서
 62
     0
100
AcDbTrace
 10
97.09384413564754
 20
53.87380738881185
 30
0.0
 11
98.1945108023142
 21
53.87380738881185
 31
0.0
 12
97.64417746898087
 22
50.57180738881185
 32
0.0
 13
97.64417746898087
 23
50.57180738881185
 33
0.0
  0
MTEXT
  5
627
330
61E
100
AcDbEntity
  8
치수문자_일반주서
 62
     0
100
AcDbMText
 10
93.26917746898087
 20
49.97180738881172
 30
0.0
 40
3.5
 41
0.0
 71
     2
 72
     1
  1
\A1;%%c1.2
  7
SLDTEXTSTYLE0
 11
0.0
 21
1.0
 31
0.0
 73
     1
 44
1.0
  0
POINT
  5
628
330
61E
100
AcDbEntity
  8
Defpoints
 62
     0
100
AcDbPoint
 10
71.52616092365797
 20
49.37180738881174
 30
0.0
  0
POINT
  5
629
330
61E
100
AcDbEntity
  8
Defpoints
 62
     0
100
AcDbPoint
 10
71.52616092365797
 20
50.57180738881175
 30
0.0
  0
POINT
  5
62A
330
61E
100
AcDbEntity
  8
Defpoints
 62
     0
100
AcDbPoint
 10
97.64417746898087
 20
50.57180738881185
 30
0.0
  0
ENDBLK
  5
620
330
61E
100
AcDbEntity
  8
0
100
AcDbBlockEnd
  0
BLOCK
  5
62C
330
62B
100
AcDbEntity
  8
0
100
AcDbBlockBegin
  2
*D32
 70
     1
 10
0.0
 20
0.0
 30
0.0
  3
*D32
  1

  0
LINE
  5
62E
330
62B
100
AcDbEntity
  8
치수문자_일반주서
 62
     0
370
    -2
100
AcDbLine
 10
16.56166728747381
 20
52.53430738881175
 30
0.0
 11
16.56166728747381
 21
80.97180738881175
 31
0.0
  0
LINE
  5
62F
330
62B
100
AcDbEntity
  8
치수문자_일반주서
 62
     0
370
    -2
100
AcDbLine
 10
76.56166728747381
 20
51.32931531800514
 30
0.0
 11
76.56166728747381
 21
80.97180738881175
 31
0.0
  0
LINE
  5
630
330
62B
100
AcDbEntity
  8
치수문자_일반주서
 62
     0
370
    -2
100
AcDbLine
 10
19.86366728747381
 20
80.97180738881175
 30
0.0
 11
73.2596672874738
 21
80.97180738881175
 31
0.0
  0
SOLID
  5
631
330
62B
100
AcDbEntity
  8
치수문자_일반주서
 62
     0
100
AcDbTrace
 10
19.86366728747381
 20
81.52214072214508
 30
0.0
 11
19.86366728747381
 21
80.42147405547843
 31
0.0
 12
16.56166728747381
 22
80.97180738881175
 32
0.0
 13
16.56166728747381
 23
80.97180738881175
 33
0.0
  0
SOLID
  5
632
330
62B
100
AcDbEntity
  8
치수문자_일반주서
 62
     0
100
AcDbTrace
 10
73.2596672874738
 20
80.42147405547843
 30
0.0
 11
73.2596672874738
 21
81.52214072214508
 31
0.0
 12
76.56166728747381
 22
80.97180738881175
 32
0.0
 13
76.56166728747381
 23
80.97180738881175
 33
0.0
  0
MTEXT
  5
633
330
62B
100
AcDbEntity
  8
치수문자_일반주서
 62
     0
100
AcDbMText
 10
46.56166728747381
 20
85.34680738881175
 30
0.0
 40
3.5
 41
0.0
 71
     2
 72
     1
  1
\A1;60
  7
SLDTEXTSTYLE0
 73
     1
 44
1.0
  0
POINT
  5
634
330
62B
100
AcDbEntity
  8
Defpoints
 62
     0
100
AcDbPoint
 10
16.56166728747381
 20
52.47180738881175
 30
0.0
  0
POINT
  5
635
330
62B
100
AcDbEntity
  8
Defpoints
 62
     0
100
AcDbPoint
 10
76.56166728747381
 20
51.26681531800514
 30
0.0
  0
POINT
  5
636
330
62B
100
AcDbEntity
  8
Defpoints
 62
     0
100
AcDbPoint
 10
76.56166728747381
 20
80.97180738881175
 30
0.0
  0
ENDBLK
  5
62D
330
62B
100
AcDbEntity
  8
0
100
AcDbBlockEnd
  0
BLOCK
  5
638
330
637
100
AcDbEntity
  8
0
100
AcDbBlockBegin
  2
*D33
 70
     1
 10
0.0
 20
0.0
 30
0.0
  3
*D33
  1

  0
LINE
  5
63A
330
637
100
AcDbEntity
  8
치수문자_일반주서
 62
     0
370
    -2
100
AcDbLine
 10
16.99916728747382
 20
52.97180738881175
 30
0.0
 11
4.565209265861728
 21
52.9718073888117
 31
0.0
  0
LINE
  5
63B
330
637
100
AcDbEntity
  8
치수문자_일반주서
 62
     0
370
    -2
100
AcDbLine
 10
16.99916728747382
 20
46.97180738881175
 30
0.0
 11
4.56520926586175
 21
46.9718073888117
 31
0.0
  0
LINE
  5
63C
330
637
100
AcDbEntity
  8
치수문자_일반주서
 62
     0
370
    -2
100
AcDbLine
 10
4.56520926586174
 20
49.6698073888117
 30
0.0
 11
4.565209265861738
 21
50.2738073888117
 31
0.0
  0
SOLID
  5
63D
330
637
100
AcDbEntity
  8
치수문자_일반주서
 62
     0
100
AcDbTrace
 10
5.115542599195074
 20
49.6698073888117
 30
0.0
 11
4.014875932528406
 21
49.6698073888117
 31
0.0
 12
4.565209265861728
 22
52.9718073888117
 32
0.0
 13
4.565209265861728
 23
52.9718073888117
 33
0.0
  0
SOLID
  5
63E
330
637
100
AcDbEntity
  8
치수문자_일반주서
 62
     0
100
AcDbTrace
 10
4.014875932528405
 20
50.2738073888117
 30
0.0
 11
5.115542599195072
 21
50.2738073888117
 31
0.0
 12
4.56520926586175
 22
46.9718073888117
 32
0.0
 13
4.56520926586175
 23
46.9718073888117
 33
0.0
  0
MTEXT
  5
63F
330
637
100
AcDbEntity
  8
치수문자_일반주서
 62
     0
100
AcDbMText
 10
0.1902092658617391
 20
49.97180738881173
 30
0.0
 40
3.5
 41
0.0
 71
     2
 72
     1
  1
\A1;%%c6
  7
SLDTEXTSTYLE0
 11
-3.552713678800505E-15
 21
1.0
 31
0.0
 73
     1
 44
1.0
  0
POINT
  5
640
330
637
100
AcDbEntity
  8
Defpoints
 62
     0
100
AcDbPoint
 10
17.06166728747382
 20
52.97180738881175
 30
0.0
  0
POINT
  5
641
330
637
100
AcDbEntity
  8
Defpoints
 62
     0
100
AcDbPoint
 10
17.06166728747382
 20
46.97180738881175
 30
0.0
  0
POINT
  5
642
330
637
100
AcDbEntity
  8
Defpoints
 62
     0
100
AcDbPoint
 10
4.565209265861739
 20
46.9718073888117
 30
0.0
  0
ENDBLK
  5
639
330
637
100
AcDbEntity
  8
0
100
AcDbBlockEnd
  0
BLOCK
  5
644
330
643
100
AcDbEntity
  8
0
100
AcDbBlockBegin
  2
*D34
 70
     1
 10
0.0
 20
0.0
 30
0.0
  3
*D34
  1

  0
LINE
  5
646
330
643
100
AcDbEntity
  8
치수문자_일반주서
 62
     0
370
    -2
100
AcDbLine
 10
70.56166728747381
 20
51.65360396220746
 30
0.0
 11
70.56166728747381
 21
66.41351656047921
 31
0.0
  0
LINE
  5
647
330
643
100
AcDbEntity
  8
치수문자_일반주서
 62
     0
370
    -2
100
AcDbLine
 10
76.56166728747381
 20
51.32931531800514
 30
0.0
 11
76.56166728747381
 21
66.41351656047921
 31
0.0
  0
LINE
  5
648
330
643
100
AcDbEntity
  8
치수문자_일반주서
 62
     0
370
    -2
100
AcDbLine
 10
73.86366728747382
 20
66.41351656047921
 30
0.0
 11
73.2596672874738
 21
66.41351656047921
 31
0.0
  0
SOLID
  5
649
330
643
100
AcDbEntity
  8
치수문자_일반주서
 62
     0
100
AcDbTrace
 10
73.86366728747382
 20
66.96384989381254
 30
0.0
 11
73.86366728747382
 21
65.86318322714588
 31
0.0
 12
70.56166728747381
 22
66.41351656047921
 32
0.0
 13
70.56166728747381
 23
66.41351656047921
 33
0.0
  0
SOLID
  5
64A
330
643
100
AcDbEntity
  8
치수문자_일반주서
 62
     0
100
AcDbTrace
 10
73.2596672874738
 20
65.86318322714588
 30
0.0
 11
73.2596672874738
 21
66.96384989381254
 31
0.0
 12
76.56166728747381
 22
66.41351656047921
 32
0.0
 13
76.56166728747381
 23
66.41351656047921
 33
0.0
  0
MTEXT
  5
64B
330
643
100
AcDbEntity
  8
치수문자_일반주서
 62
     0
100
AcDbMText
 10
73.56166728747381
 20
70.78851656047921
 30
0.0
 40
3.5
 41
0.0
 71
     2
 72
     1
  1
\A1;6
  7
SLDTEXTSTYLE0
 73
     1
 44
1.0
  0
POINT
  5
64C
330
643
100
AcDbEntity
  8
Defpoints
 62
     0
100
AcDbPoint
 10
70.56166728747381
 20
51.59110396220746
 30
0.0
  0
POINT
  5
64D
330
643
100
AcDbEntity
  8
Defpoints
 62
     0
100
AcDbPoint
 10
76.56166728747381
 20
51.26681531800514
 30
0.0
  0
POINT
  5
64E
330
643
100
AcDbEntity
  8
Defpoints
 62
     0
100
AcDbPoint
 10
76.56166728747381
 20
66.41351656047921
 30
0.0
  0
ENDBLK
  5
645
330
643
100
AcDbEntity
  8
0
100
AcDbBlockEnd
  0
BLOCK
  5
650
330
64F
100
AcDbEntity
  8
0
100
AcDbBlockBegin
  2
*D35
 70
     1
 10
0.0
 20
0.0
 30
0.0
  3
*D35
  1

  0
LINE
  5
652
330
64F
100
AcDbEntity
  8
치수문자_일반주서
 62
     0
370
    -2
100
AcDbLine
 10
76.56166728747381
 20
51.92956652060439
 30
0.0
 11
76.56166728747381
 21
75.31874179029826
 31
0.0
  0
LINE
  5
653
330
64F
100
AcDbEntity
  8
치수문자_일반주서
 62
     0
370
    -2
100
AcDbLine
 10
62.56166728457519
 20
51.95930738881174
 30
0.0
 11
62.56166728457519
 21
75.31874179029826
 31
0.0
  0
LINE
  5
654
330
64F
100
AcDbEntity
  8
치수문자_일반주서
 62
     0
370
    -2
100
AcDbLine
 10
73.2596672874738
 20
75.31874179029826
 30
0.0
 11
65.86366728457519
 21
75.31874179029826
 31
0.0
  0
SOLID
  5
655
330
64F
100
AcDbEntity
  8
치수문자_일반주서
 62
     0
100
AcDbTrace
 10
73.2596672874738
 20
74.76840845696493
 30
0.0
 11
73.2596672874738
 21
75.86907512363159
 31
0.0
 12
76.56166728747381
 22
75.31874179029826
 32
0.0
 13
76.56166728747381
 23
75.31874179029826
 33
0.0
  0
SOLID
  5
656
330
64F
100
AcDbEntity
  8
치수문자_일반주서
 62
     0
100
AcDbTrace
 10
65.86366728457519
 20
75.86907512363159
 30
0.0
 11
65.86366728457519
 21
74.76840845696493
 31
0.0
 12
62.56166728457519
 22
75.31874179029826
 32
0.0
 13
62.56166728457519
 23
75.31874179029826
 33
0.0
  0
MTEXT
  5
657
330
64F
100
AcDbEntity
  8
치수문자_일반주서
 62
     0
100
AcDbMText
 10
69.5616672860245
 20
79.69374179029826
 30
0.0
 40
3.5
 41
0.0
 71
     2
 72
     1
  1
\A1;14
  7
SLDTEXTSTYLE0
 73
     1
 44
1.0
  0
POINT
  5
658
330
64F
100
AcDbEntity
  8
Defpoints
 62
     0
100
AcDbPoint
 10
76.56166728747381
 20
51.86706652060439
 30
0.0
  0
POINT
  5
659
330
64F
100
AcDbEntity
  8
Defpoints
 62
     0
100
AcDbPoint
 10
62.56166728457519
 20
51.89680738881174
 30
0.0
  0
POINT
  5
65A
330
64F
100
AcDbEntity
  8
Defpoints
 62
     0
100
AcDbPoint
 10
62.56166728457519
 20
75.31874179029826
 30
0.0
  0
ENDBLK
  5
651
330
64F
100
AcDbEntity
  8
0
100
AcDbBlockEnd
  0
BLOCK
  5
6AB
330
6AA
100
AcDbEntity
  8
0
100
AcDbBlockBegin
  2
*D36
 70
     1
 10
0.0
 20
0.0
 30
0.0
  3
*D36
  1

  0
LINE
  5
6AD
330
6AA
100
AcDbEntity
  8
치수문자_일반주서
 62
     0
370
    -2
100
AcDbLine
 10
132.798793712616
 20
-0.1506112721088042
 30
0.0
 11
158.8543102579389
 21
-0.150611272108707
 31
0.0
  0
LINE
  5
6AE
330
6AA
100
AcDbEntity
  8
치수문자_일반주서
 62
     0
370
    -2
100
AcDbLine
 10
132.798793712616
 20
1.049388727891206
 30
0.0
 11
158.8543102579389
 21
1.049388727891303
 31
0.0
  0
LINE
  5
6AF
330
6AA
100
AcDbEntity
  8
치수문자_일반주서
 62
     0
370
    -2
100
AcDbLine
 10
158.8543102579389
 20
-3.452611272108707
 30
0.0
 11
158.8543102579389
 21
-6.754611272108708
 31
0.0
  0
LINE
  5
6B0
330
6AA
100
AcDbEntity
  8
치수문자_일반주서
 62
     0
370
    -2
100
AcDbLine
 10
158.8543102579389
 20
4.351388727891303
 30
0.0
 11
158.8543102579389
 21
7.653388727891302
 31
0.0
  0
SOLID
  5
6B1
330
6AA
100
AcDbEntity
  8
치수문자_일반주서
 62
     0
100
AcDbTrace
 10
159.4046435912722
 20
-3.452611272108707
 30
0.0
 11
158.3039769246056
 21
-3.452611272108707
 31
0.0
 12
158.8543102579389
 22
-0.150611272108707
 32
0.0
 13
158.8543102579389
 23
-0.150611272108707
 33
0.0
  0
SOLID
  5
6B2
330
6AA
100
AcDbEntity
  8
치수문자_일반주서
 62
     0
100
AcDbTrace
 10
158.3039769246056
 20
4.351388727891303
 30
0.0
 11
159.4046435912722
 21
4.351388727891303
 31
0.0
 12
158.8543102579389
 22
1.049388727891303
 32
0.0
 13
158.8543102579389
 23
1.049388727891303
 33
0.0
  0
MTEXT
  5
6B3
330
6AA
100
AcDbEntity
  8
치수문자_일반주서
 62
     0
100
AcDbMText
 10
154.4793102579389
 20
0.4493887278911758
 30
0.0
 40
3.5
 41
0.0
 71
     2
 72
     1
  1
\A1;%%c1.2
  7
SLDTEXTSTYLE0
 11
0.0
 21
1.0
 31
0.0
 73
     1
 44
1.0
  0
POINT
  5
6B4
330
6AA
100
AcDbEntity
  8
Defpoints
 62
     0
100
AcDbPoint
 10
132.736293712616
 20
-0.1506112721088044
 30
0.0
  0
POINT
  5
6B5
330
6AA
100
AcDbEntity
  8
Defpoints
 62
     0
100
AcDbPoint
 10
132.736293712616
 20
1.049388727891206
 30
0.0
  0
POINT
  5
6B6
330
6AA
100
AcDbEntity
  8
Defpoints
 62
     0
100
AcDbPoint
 10
158.8543102579389
 20
1.049388727891303
 30
0.0
  0
ENDBLK
  5
6AC
330
6AA
100
AcDbEntity
  8
0
100
AcDbBlockEnd
  0
BLOCK
  5
6B8
330
6B7
100
AcDbEntity
  8
0
100
AcDbBlockBegin
  2
*D37
 70
     1
 10
0.0
 20
0.0
 30
0.0
  3
*D37
  1

  0
LINE
  5
6BA
330
6B7
100
AcDbEntity
  8
치수문자_일반주서
 62
     0
370
    -2
100
AcDbLine
 10
77.77180007643186
 20
3.011888727891204
 30
0.0
 11
77.77180007643186
 21
31.44938872789121
 31
0.0
  0
LINE
  5
6BB
330
6B7
100
AcDbEntity
  8
치수문자_일반주서
 62
     0
370
    -2
100
AcDbLine
 10
137.7718000764319
 20
1.806896657084593
 30
0.0
 11
137.7718000764319
 21
31.44938872789121
 31
0.0
  0
LINE
  5
6BC
330
6B7
100
AcDbEntity
  8
치수문자_일반주서
 62
     0
370
    -2
100
AcDbLine
 10
81.07380007643187
 20
31.44938872789121
 30
0.0
 11
134.4698000764319
 21
31.44938872789121
 31
0.0
  0
SOLID
  5
6BD
330
6B7
100
AcDbEntity
  8
치수문자_일반주서
 62
     0
100
AcDbTrace
 10
81.07380007643187
 20
31.99972206122455
 30
0.0
 11
81.07380007643187
 21
30.89905539455788
 31
0.0
 12
77.77180007643186
 22
31.44938872789121
 32
0.0
 13
77.77180007643186
 23
31.44938872789121
 33
0.0
  0
SOLID
  5
6BE
330
6B7
100
AcDbEntity
  8
치수문자_일반주서
 62
     0
100
AcDbTrace
 10
134.4698000764319
 20
30.89905539455788
 30
0.0
 11
134.4698000764319
 21
31.99972206122455
 31
0.0
 12
137.7718000764319
 22
31.44938872789121
 32
0.0
 13
137.7718000764319
 23
31.44938872789121
 33
0.0
  0
MTEXT
  5
6BF
330
6B7
100
AcDbEntity
  8
치수문자_일반주서
 62
     0
100
AcDbMText
 10
107.7718000764319
 20
35.82438872789121
 30
0.0
 40
3.5
 41
0.0
 71
     2
 72
     1
  1
\A1;60
  7
SLDTEXTSTYLE0
 73
     1
 44
1.0
  0
POINT
  5
6C0
330
6B7
100
AcDbEntity
  8
Defpoints
 62
     0
100
AcDbPoint
 10
77.77180007643186
 20
2.949388727891204
 30
0.0
  0
POINT
  5
6C1
330
6B7
100
AcDbEntity
  8
Defpoints
 62
     0
100
AcDbPoint
 10
137.7718000764319
 20
1.744396657084593
 30
0.0
  0
POINT
  5
6C2
330
6B7
100
AcDbEntity
  8
Defpoints
 62
     0
100
AcDbPoint
 10
137.7718000764319
 20
31.44938872789121
 30
0.0
  0
ENDBLK
  5
6B9
330
6B7
100
AcDbEntity
  8
0
100
AcDbBlockEnd
  0
BLOCK
  5
6C4
330
6C3
100
AcDbEntity
  8
0
100
AcDbBlockBegin
  2
*D38
 70
     1
 10
0.0
 20
0.0
 30
0.0
  3
*D38
  1

  0
LINE
  5
6C6
330
6C3
100
AcDbEntity
  8
치수문자_일반주서
 62
     0
370
    -2
100
AcDbLine
 10
78.20930007643187
 20
3.449388727891204
 30
0.0
 11
65.77534205481979
 21
3.449388727891157
 31
0.0
  0
LINE
  5
6C7
330
6C3
100
AcDbEntity
  8
치수문자_일반주서
 62
     0
370
    -2
100
AcDbLine
 10
78.20930007643187
 20
-2.550611272108789
 30
0.0
 11
65.7753420548198
 21
-2.550611272108836
 31
0.0
  0
LINE
  5
6C8
330
6C3
100
AcDbEntity
  8
치수문자_일반주서
 62
     0
370
    -2
100
AcDbLine
 10
65.7753420548198
 20
0.1473887278911565
 30
0.0
 11
65.77534205481979
 21
0.7513887278911637
 31
0.0
  0
SOLID
  5
6C9
330
6C3
100
AcDbEntity
  8
치수문자_일반주서
 62
     0
100
AcDbTrace
 10
66.32567538815313
 20
0.1473887278911578
 30
0.0
 11
65.22500872148647
 21
0.1473887278911552
 31
0.0
 12
65.77534205481979
 22
3.449388727891157
 32
0.0
 13
65.77534205481979
 23
3.449388727891157
 33
0.0
  0
SOLID
  5
6CA
330
6C3
100
AcDbEntity
  8
치수문자_일반주서
 62
     0
100
AcDbTrace
 10
65.22500872148646
 20
0.7513887278911624
 30
0.0
 11
66.32567538815312
 21
0.7513887278911651
 31
0.0
 12
65.7753420548198
 22
-2.550611272108836
 32
0.0
 13
65.7753420548198
 23
-2.550611272108836
 33
0.0
  0
MTEXT
  5
6CB
330
6C3
100
AcDbEntity
  8
치수문자_일반주서
 62
     0
100
AcDbMText
 10
61.40034205481979
 20
0.4493887278911937
 30
0.0
 40
3.5
 41
0.0
 71
     2
 72
     1
  1
\A1;%%c6
  7
SLDTEXTSTYLE0
 11
-2.368475785867004E-15
 21
1.0
 31
0.0
 73
     1
 44
1.0
  0
POINT
  5
6CC
330
6C3
100
AcDbEntity
  8
Defpoints
 62
     0
100
AcDbPoint
 10
78.27180007643187
 20
3.449388727891204
 30
0.0
  0
POINT
  5
6CD
330
6C3
100
AcDbEntity
  8
Defpoints
 62
     0
100
AcDbPoint
 10
78.27180007643187
 20
-2.550611272108789
 30
0.0
  0
POINT
  5
6CE
330
6C3
100
AcDbEntity
  8
Defpoints
 62
     0
100
AcDbPoint
 10
65.7753420548198
 20
-2.550611272108835
 30
0.0
  0
ENDBLK
  5
6C5
330
6C3
100
AcDbEntity
  8
0
100
AcDbBlockEnd
  0
BLOCK
  5
6D0
330
6CF
100
AcDbEntity
  8
0
100
AcDbBlockBegin
  2
*D39
 70
     1
 10
0.0
 20
0.0
 30
0.0
  3
*D39
  1

  0
LINE
  5
6D2
330
6CF
100
AcDbEntity
  8
치수문자_일반주서
 62
     0
370
    -2
100
AcDbLine
 10
131.7718000764319
 20
2.131185301286919
 30
0.0
 11
131.7718000764319
 21
16.89109789955867
 31
0.0
  0
LINE
  5
6D3
330
6CF
100
AcDbEntity
  8
치수문자_일반주서
 62
     0
370
    -2
100
AcDbLine
 10
137.7718000764319
 20
1.806896657084593
 30
0.0
 11
137.7718000764319
 21
16.89109789955867
 31
0.0
  0
LINE
  5
6D4
330
6CF
100
AcDbEntity
  8
치수문자_일반주서
 62
     0
370
    -2
100
AcDbLine
 10
135.0738000764319
 20
16.89109789955867
 30
0.0
 11
134.4698000764319
 21
16.89109789955867
 31
0.0
  0
SOLID
  5
6D5
330
6CF
100
AcDbEntity
  8
치수문자_일반주서
 62
     0
100
AcDbTrace
 10
135.0738000764319
 20
17.441431232892
 30
0.0
 11
135.0738000764319
 21
16.34076456622533
 31
0.0
 12
131.7718000764319
 22
16.89109789955867
 32
0.0
 13
131.7718000764319
 23
16.89109789955867
 33
0.0
  0
SOLID
  5
6D6
330
6CF
100
AcDbEntity
  8
치수문자_일반주서
 62
     0
100
AcDbTrace
 10
134.4698000764319
 20
16.34076456622533
 30
0.0
 11
134.4698000764319
 21
17.441431232892
 31
0.0
 12
137.7718000764319
 22
16.89109789955867
 32
0.0
 13
137.7718000764319
 23
16.89109789955867
 33
0.0
  0
MTEXT
  5
6D7
330
6CF
100
AcDbEntity
  8
치수문자_일반주서
 62
     0
100
AcDbMText
 10
134.7718000764319
 20
21.26609789955867
 30
0.0
 40
3.5
 41
0.0
 71
     2
 72
     1
  1
\A1;6
  7
SLDTEXTSTYLE0
 73
     1
 44
1.0
  0
POINT
  5
6D8
330
6CF
100
AcDbEntity
  8
Defpoints
 62
     0
100
AcDbPoint
 10
131.7718000764319
 20
2.068685301286919
 30
0.0
  0
POINT
  5
6D9
330
6CF
100
AcDbEntity
  8
Defpoints
 62
     0
100
AcDbPoint
 10
137.7718000764319
 20
1.744396657084593
 30
0.0
  0
POINT
  5
6DA
330
6CF
100
AcDbEntity
  8
Defpoints
 62
     0
100
AcDbPoint
 10
137.7718000764319
 20
16.89109789955867
 30
0.0
  0
ENDBLK
  5
6D1
330
6CF
100
AcDbEntity
  8
0
100
AcDbBlockEnd
  0
BLOCK
  5
6DC
330
6DB
100
AcDbEntity
  8
0
100
AcDbBlockBegin
  2
*D40
 70
     1
 10
0.0
 20
0.0
 30
0.0
  3
*D40
  1

  0
LINE
  5
6DE
330
6DB
100
AcDbEntity
  8
치수문자_일반주서
 62
     0
370
    -2
100
AcDbLine
 10
137.7718000764319
 20
2.407147859683846
 30
0.0
 11
137.7718000764319
 21
25.79632312937772
 31
0.0
  0
LINE
  5
6DF
330
6DB
100
AcDbEntity
  8
치수문자_일반주서
 62
     0
370
    -2
100
AcDbLine
 10
123.7718000735332
 20
2.436888727891201
 30
0.0
 11
123.7718000735332
 21
25.79632312937772
 31
0.0
  0
LINE
  5
6E0
330
6DB
100
AcDbEntity
  8
치수문자_일반주서
 62
     0
370
    -2
100
AcDbLine
 10
134.4698000764319
 20
25.79632312937772
 30
0.0
 11
127.0738000735332
 21
25.79632312937772
 31
0.0
  0
SOLID
  5
6E1
330
6DB
100
AcDbEntity
  8
치수문자_일반주서
 62
     0
100
AcDbTrace
 10
134.4698000764319
 20
25.24598979604438
 30
0.0
 11
134.4698000764319
 21
26.34665646271105
 31
0.0
 12
137.7718000764319
 22
25.79632312937772
 32
0.0
 13
137.7718000764319
 23
25.79632312937772
 33
0.0
  0
SOLID
  5
6E2
330
6DB
100
AcDbEntity
  8
치수문자_일반주서
 62
     0
100
AcDbTrace
 10
127.0738000735332
 20
26.34665646271105
 30
0.0
 11
127.0738000735332
 21
25.24598979604438
 31
0.0
 12
123.7718000735332
 22
25.79632312937772
 32
0.0
 13
123.7718000735332
 23
25.79632312937772
 33
0.0
  0
MTEXT
  5
6E3
330
6DB
100
AcDbEntity
  8
치수문자_일반주서
 62
     0
100
AcDbMText
 10
130.7718000749825
 20
30.17132312937772
 30
0.0
 40
3.5
 41
0.0
 71
     2
 72
     1
  1
\A1;14
  7
SLDTEXTSTYLE0
 73
     1
 44
1.0
  0
POINT
  5
6E4
330
6DB
100
AcDbEntity
  8
Defpoints
 62
     0
100
AcDbPoint
 10
137.7718000764319
 20
2.344647859683846
 30
0.0
  0
POINT
  5
6E5
330
6DB
100
AcDbEntity
  8
Defpoints
 62
     0
100
AcDbPoint
 10
123.7718000735332
 20
2.374388727891201
 30
0.0
  0
POINT
  5
6E6
330
6DB
100
AcDbEntity
  8
Defpoints
 62
     0
100
AcDbPoint
 10
123.7718000735332
 20
25.79632312937772
 30
0.0
  0
ENDBLK
  5
6DD
330
6DB
100
AcDbEntity
  8
0
100
AcDbBlockEnd
  0
BLOCK
  5
7BC
330
7BB
100
AcDbEntity
  8
0
100
AcDbBlockBegin
  2
*D41
 70
     1
 10
0.0
 20
0.0
 30
0.0
  3
*D41
  1

  0
LINE
  5
7BE
330
7BB
100
AcDbEntity
  8
치수문자_일반주서
 62
     0
370
    -2
100
AcDbLine
 10
71.58866092365798
 20
49.37180738881174
 30
0.0
 11
97.64417746898087
 21
49.37180738881184
 31
0.0
  0
LINE
  5
7BF
330
7BB
100
AcDbEntity
  8
치수문자_일반주서
 62
     0
370
    -2
100
AcDbLine
 10
71.58866092365798
 20
50.57180738881175
 30
0.0
 11
97.64417746898087
 21
50.57180738881185
 31
0.0
  0
LINE
  5
7C0
330
7BB
100
AcDbEntity
  8
치수문자_일반주서
 62
     0
370
    -2
100
AcDbLine
 10
97.64417746898087
 20
46.06980738881184
 30
0.0
 11
97.64417746898087
 21
42.76780738881184
 31
0.0
  0
LINE
  5
7C1
330
7BB
100
AcDbEntity
  8
치수문자_일반주서
 62
     0
370
    -2
100
AcDbLine
 10
97.64417746898087
 20
53.87380738881185
 30
0.0
 11
97.64417746898087
 21
57.17580738881185
 31
0.0
  0
SOLID
  5
7C2
330
7BB
100
AcDbEntity
  8
치수문자_일반주서
 62
     0
100
AcDbTrace
 10
98.1945108023142
 20
46.06980738881184
 30
0.0
 11
97.09384413564754
 21
46.06980738881184
 31
0.0
 12
97.64417746898087
 22
49.37180738881184
 32
0.0
 13
97.64417746898087
 23
49.37180738881184
 33
0.0
  0
SOLID
  5
7C3
330
7BB
100
AcDbEntity
  8
치수문자_일반주서
 62
     0
100
AcDbTrace
 10
97.09384413564754
 20
53.87380738881185
 30
0.0
 11
98.1945108023142
 21
53.87380738881185
 31
0.0
 12
97.64417746898087
 22
50.57180738881185
 32
0.0
 13
97.64417746898087
 23
50.57180738881185
 33
0.0
  0
MTEXT
  5
7C4
330
7BB
100
AcDbEntity
  8
치수문자_일반주서
 62
     0
100
AcDbMText
 10
93.26917746898087
 20
49.97180738881172
 30
0.0
 40
3.5
 41
0.0
 71
     2
 72
     1
  1
\A1;%%c1.2
  7
SLDTEXTSTYLE0
 11
0.0
 21
1.0
 31
0.0
 73
     1
 44
1.0
  0
POINT
  5
7C5
330
7BB
100
AcDbEntity
  8
Defpoints
 62
     0
100
AcDbPoint
 10
71.52616092365798
 20
49.37180738881174
 30
0.0
  0
POINT
  5
7C6
330
7BB
100
AcDbEntity
  8
Defpoints
 62
     0
100
AcDbPoint
 10
71.52616092365798
 20
50.57180738881175
 30
0.0
  0
POINT
  5
7C7
330
7BB
100
AcDbEntity
  8
Defpoints
 62
     0
100
AcDbPoint
 10
97.64417746898087
 20
50.57180738881185
 30
0.0
  0
ENDBLK
  5
7BD
330
7BB
100
AcDbEntity
  8
0
100
AcDbBlockEnd
  0
BLOCK
  5
7C9
330
7C8
100
AcDbEntity
  8
0
100
AcDbBlockBegin
  2
*D42
 70
     1
 10
0.0
 20
0.0
 30
0.0
  3
*D42
  1

  0
LINE
  5
7CB
330
7C8
100
AcDbEntity
  8
치수문자_일반주서
 62
     0
370
    -2
100
AcDbLine
 10
16.56166728747382
 20
52.53430738881175
 30
0.0
 11
16.56166728747382
 21
80.97180738881175
 31
0.0
  0
LINE
  5
7CC
330
7C8
100
AcDbEntity
  8
치수문자_일반주서
 62
     0
370
    -2
100
AcDbLine
 10
76.56166728747381
 20
51.32931531800514
 30
0.0
 11
76.56166728747381
 21
80.97180738881175
 31
0.0
  0
LINE
  5
7CD
330
7C8
100
AcDbEntity
  8
치수문자_일반주서
 62
     0
370
    -2
100
AcDbLine
 10
19.86366728747382
 20
80.97180738881175
 30
0.0
 11
73.2596672874738
 21
80.97180738881175
 31
0.0
  0
SOLID
  5
7CE
330
7C8
100
AcDbEntity
  8
치수문자_일반주서
 62
     0
100
AcDbTrace
 10
19.86366728747382
 20
81.52214072214508
 30
0.0
 11
19.86366728747382
 21
80.42147405547843
 31
0.0
 12
16.56166728747382
 22
80.97180738881175
 32
0.0
 13
16.56166728747382
 23
80.97180738881175
 33
0.0
  0
SOLID
  5
7CF
330
7C8
100
AcDbEntity
  8
치수문자_일반주서
 62
     0
100
AcDbTrace
 10
73.2596672874738
 20
80.42147405547843
 30
0.0
 11
73.2596672874738
 21
81.52214072214508
 31
0.0
 12
76.56166728747381
 22
80.97180738881175
 32
0.0
 13
76.56166728747381
 23
80.97180738881175
 33
0.0
  0
MTEXT
  5
7D0
330
7C8
100
AcDbEntity
  8
치수문자_일반주서
 62
     0
100
AcDbMText
 10
46.56166728747382
 20
85.34680738881175
 30
0.0
 40
3.5
 41
0.0
 71
     2
 72
     1
  1
\A1;60
  7
SLDTEXTSTYLE0
 73
     1
 44
1.0
  0
POINT
  5
7D1
330
7C8
100
AcDbEntity
  8
Defpoints
 62
     0
100
AcDbPoint
 10
16.56166728747382
 20
52.47180738881175
 30
0.0
  0
POINT
  5
7D2
330
7C8
100
AcDbEntity
  8
Defpoints
 62
     0
100
AcDbPoint
 10
76.56166728747381
 20
51.26681531800514
 30
0.0
  0
POINT
  5
7D3
330
7C8
100
AcDbEntity
  8
Defpoints
 62
     0
100
AcDbPoint
 10
76.56166728747381
 20
80.97180738881175
 30
0.0
  0
ENDBLK
  5
7CA
330
7C8
100
AcDbEntity
  8
0
100
AcDbBlockEnd
  0
BLOCK
  5
7D5
330
7D4
100
AcDbEntity
  8
0
100
AcDbBlockBegin
  2
*D43
 70
     1
 10
0.0
 20
0.0
 30
0.0
  3
*D43
  1

  0
LINE
  5
7D7
330
7D4
100
AcDbEntity
  8
치수문자_일반주서
 62
     0
370
    -2
100
AcDbLine
 10
16.99916728747381
 20
52.97180738881175
 30
0.0
 11
4.565209265861728
 21
52.9718073888117
 31
0.0
  0
LINE
  5
7D8
330
7D4
100
AcDbEntity
  8
치수문자_일반주서
 62
     0
370
    -2
100
AcDbLine
 10
16.99916728747381
 20
46.97180738881175
 30
0.0
 11
4.56520926586175
 21
46.9718073888117
 31
0.0
  0
LINE
  5
7D9
330
7D4
100
AcDbEntity
  8
치수문자_일반주서
 62
     0
370
    -2
100
AcDbLine
 10
4.56520926586174
 20
49.6698073888117
 30
0.0
 11
4.565209265861738
 21
50.2738073888117
 31
0.0
  0
SOLID
  5
7DA
330
7D4
100
AcDbEntity
  8
치수문자_일반주서
 62
     0
100
AcDbTrace
 10
5.115542599195074
 20
49.6698073888117
 30
0.0
 11
4.014875932528406
 21
49.6698073888117
 31
0.0
 12
4.565209265861728
 22
52.9718073888117
 32
0.0
 13
4.565209265861728
 23
52.9718073888117
 33
0.0
  0
SOLID
  5
7DB
330
7D4
100
AcDbEntity
  8
치수문자_일반주서
 62
     0
100
AcDbTrace
 10
4.014875932528405
 20
50.2738073888117
 30
0.0
 11
5.115542599195072
 21
50.2738073888117
 31
0.0
 12
4.56520926586175
 22
46.9718073888117
 32
0.0
 13
4.56520926586175
 23
46.9718073888117
 33
0.0
  0
MTEXT
  5
7DC
330
7D4
100
AcDbEntity
  8
치수문자_일반주서
 62
     0
100
AcDbMText
 10
0.1902092658617391
 20
49.97180738881173
 30
0.0
 40
3.5
 41
0.0
 71
     2
 72
     1
  1
\A1;%%c6
  7
SLDTEXTSTYLE0
 11
-3.552713678800505E-15
 21
1.0
 31
0.0
 73
     1
 44
1.0
  0
POINT
  5
7DD
330
7D4
100
AcDbEntity
  8
Defpoints
 62
     0
100
AcDbPoint
 10
17.06166728747381
 20
52.97180738881175
 30
0.0
  0
POINT
  5
7DE
330
7D4
100
AcDbEntity
  8
Defpoints
 62
     0
100
AcDbPoint
 10
17.06166728747381
 20
46.97180738881175
 30
0.0
  0
POINT
  5
7DF
330
7D4
100
AcDbEntity
  8
Defpoints
 62
     0
100
AcDbPoint
 10
4.565209265861739
 20
46.9718073888117
 30
0.0
  0
ENDBLK
  5
7D6
330
7D4
100
AcDbEntity
  8
0
100
AcDbBlockEnd
  0
BLOCK
  5
7E1
330
7E0
100
AcDbEntity
  8
0
100
AcDbBlockBegin
  2
*D44
 70
     1
 10
0.0
 20
0.0
 30
0.0
  3
*D44
  1

  0
LINE
  5
7E3
330
7E0
100
AcDbEntity
  8
치수문자_일반주서
 62
     0
370
    -2
100
AcDbLine
 10
70.56166728747382
 20
51.65360396220746
 30
0.0
 11
70.56166728747382
 21
66.41351656047921
 31
0.0
  0
LINE
  5
7E4
330
7E0
100
AcDbEntity
  8
치수문자_일반주서
 62
     0
370
    -2
100
AcDbLine
 10
76.56166728747381
 20
51.32931531800514
 30
0.0
 11
76.56166728747381
 21
66.41351656047921
 31
0.0
  0
LINE
  5
7E5
330
7E0
100
AcDbEntity
  8
치수문자_일반주서
 62
     0
370
    -2
100
AcDbLine
 10
73.86366728747383
 20
66.41351656047921
 30
0.0
 11
73.2596672874738
 21
66.41351656047921
 31
0.0
  0
SOLID
  5
7E6
330
7E0
100
AcDbEntity
  8
치수문자_일반주서
 62
     0
100
AcDbTrace
 10
73.86366728747383
 20
66.96384989381254
 30
0.0
 11
73.86366728747383
 21
65.86318322714588
 31
0.0
 12
70.56166728747382
 22
66.41351656047921
 32
0.0
 13
70.56166728747382
 23
66.41351656047921
 33
0.0
  0
SOLID
  5
7E7
330
7E0
100
AcDbEntity
  8
치수문자_일반주서
 62
     0
100
AcDbTrace
 10
73.2596672874738
 20
65.86318322714588
 30
0.0
 11
73.2596672874738
 21
66.96384989381254
 31
0.0
 12
76.56166728747381
 22
66.41351656047921
 32
0.0
 13
76.56166728747381
 23
66.41351656047921
 33
0.0
  0
MTEXT
  5
7E8
330
7E0
100
AcDbEntity
  8
치수문자_일반주서
 62
     0
100
AcDbMText
 10
73.56166728747382
 20
70.78851656047921
 30
0.0
 40
3.5
 41
0.0
 71
     2
 72
     1
  1
\A1;6
  7
SLDTEXTSTYLE0
 73
     1
 44
1.0
  0
POINT
  5
7E9
330
7E0
100
AcDbEntity
  8
Defpoints
 62
     0
100
AcDbPoint
 10
70.56166728747382
 20
51.59110396220746
 30
0.0
  0
POINT
  5
7EA
330
7E0
100
AcDbEntity
  8
Defpoints
 62
     0
100
AcDbPoint
 10
76.56166728747381
 20
51.26681531800514
 30
0.0
  0
POINT
  5
7EB
330
7E0
100
AcDbEntity
  8
Defpoints
 62
     0
100
AcDbPoint
 10
76.56166728747381
 20
66.41351656047921
 30
0.0
  0
ENDBLK
  5
7E2
330
7E0
100
AcDbEntity
  8
0
100
AcDbBlockEnd
  0
BLOCK
  5
7ED
330
7EC
100
AcDbEntity
  8
0
100
AcDbBlockBegin
  2
*D45
 70
     1
 10
0.0
 20
0.0
 30
0.0
  3
*D45
  1

  0
LINE
  5
7EF
330
7EC
100
AcDbEntity
  8
치수문자_일반주서
 62
     0
370
    -2
100
AcDbLine
 10
76.56166728747381
 20
51.92956652060439
 30
0.0
 11
76.56166728747381
 21
75.31874179029826
 31
0.0
  0
LINE
  5
7F0
330
7EC
100
AcDbEntity
  8
치수문자_일반주서
 62
     0
370
    -2
100
AcDbLine
 10
60.56166728364208
 20
51.95930738881174
 30
0.0
 11
60.56166728364208
 21
75.31874179029826
 31
0.0
  0
LINE
  5
7F1
330
7EC
100
AcDbEntity
  8
치수문자_일반주서
 62
     0
370
    -2
100
AcDbLine
 10
73.2596672874738
 20
75.31874179029826
 30
0.0
 11
63.86366728364208
 21
75.31874179029826
 31
0.0
  0
SOLID
  5
7F2
330
7EC
100
AcDbEntity
  8
치수문자_일반주서
 62
     0
100
AcDbTrace
 10
73.2596672874738
 20
74.76840845696493
 30
0.0
 11
73.2596672874738
 21
75.86907512363159
 31
0.0
 12
76.56166728747381
 22
75.31874179029826
 32
0.0
 13
76.56166728747381
 23
75.31874179029826
 33
0.0
  0
SOLID
  5
7F3
330
7EC
100
AcDbEntity
  8
치수문자_일반주서
 62
     0
100
AcDbTrace
 10
63.86366728364208
 20
75.86907512363159
 30
0.0
 11
63.86366728364208
 21
74.76840845696493
 31
0.0
 12
60.56166728364208
 22
75.31874179029826
 32
0.0
 13
60.56166728364208
 23
75.31874179029826
 33
0.0
  0
MTEXT
  5
7F4
330
7EC
100
AcDbEntity
  8
치수문자_일반주서
 62
     0
100
AcDbMText
 10
68.56166728555795
 20
79.69374179029826
 30
0.0
 40
3.5
 41
0.0
 71
     2
 72
     1
  1
\A1;16
  7
SLDTEXTSTYLE0
 73
     1
 44
1.0
  0
POINT
  5
7F5
330
7EC
100
AcDbEntity
  8
Defpoints
 62
     0
100
AcDbPoint
 10
76.56166728747381
 20
51.86706652060439
 30
0.0
  0
POINT
  5
7F6
330
7EC
100
AcDbEntity
  8
Defpoints
 62
     0
100
AcDbPoint
 10
60.56166728364208
 20
51.89680738881174
 30
0.0
  0
POINT
  5
7F7
330
7EC
100
AcDbEntity
  8
Defpoints
 62
     0
100
AcDbPoint
 10
60.56166728364208
 20
75.31874179029826
 30
0.0
  0
ENDBLK
  5
7EE
330
7EC
100
AcDbEntity
  8
0
100
AcDbBlockEnd
  0
BLOCK
  5
848
330
847
100
AcDbEntity
  8
0
100
AcDbBlockBegin
  2
*D46
 70
     1
 10
0.0
 20
0.0
 30
0.0
  3
*D46
  1

  0
LINE
  5
84A
330
847
100
AcDbEntity
  8
치수문자_일반주서
 62
     0
370
    -2
100
AcDbLine
 10
138.5539859434323
 20
1.377310402721307
 30
0.0
 11
164.6095024887552
 21
1.377310402721404
 31
0.0
  0
LINE
  5
84B
330
847
100
AcDbEntity
  8
치수문자_일반주서
 62
     0
370
    -2
100
AcDbLine
 10
138.5539859434323
 20
2.577310402721317
 30
0.0
 11
164.6095024887552
 21
2.577310402721414
 31
0.0
  0
LINE
  5
84C
330
847
100
AcDbEntity
  8
치수문자_일반주서
 62
     0
370
    -2
100
AcDbLine
 10
164.6095024887552
 20
-1.924689597278596
 30
0.0
 11
164.6095024887552
 21
-5.226689597278596
 31
0.0
  0
LINE
  5
84D
330
847
100
AcDbEntity
  8
치수문자_일반주서
 62
     0
370
    -2
100
AcDbLine
 10
164.6095024887552
 20
5.879310402721414
 30
0.0
 11
164.6095024887552
 21
9.181310402721413
 31
0.0
  0
SOLID
  5
84E
330
847
100
AcDbEntity
  8
치수문자_일반주서
 62
     0
100
AcDbTrace
 10
165.1598358220885
 20
-1.924689597278596
 30
0.0
 11
164.0591691554218
 21
-1.924689597278596
 31
0.0
 12
164.6095024887552
 22
1.377310402721404
 32
0.0
 13
164.6095024887552
 23
1.377310402721404
 33
0.0
  0
SOLID
  5
84F
330
847
100
AcDbEntity
  8
치수문자_일반주서
 62
     0
100
AcDbTrace
 10
164.0591691554218
 20
5.879310402721414
 30
0.0
 11
165.1598358220885
 21
5.879310402721414
 31
0.0
 12
164.6095024887552
 22
2.577310402721414
 32
0.0
 13
164.6095024887552
 23
2.577310402721414
 33
0.0
  0
MTEXT
  5
850
330
847
100
AcDbEntity
  8
치수문자_일반주서
 62
     0
100
AcDbMText
 10
160.2345024887552
 20
1.977310402721287
 30
0.0
 40
3.5
 41
0.0
 71
     2
 72
     1
  1
\A1;%%c1.2
  7
SLDTEXTSTYLE0
 11
0.0
 21
1.0
 31
0.0
 73
     1
 44
1.0
  0
POINT
  5
851
330
847
100
AcDbEntity
  8
Defpoints
 62
     0
100
AcDbPoint
 10
138.4914859434323
 20
1.377310402721307
 30
0.0
  0
POINT
  5
852
330
847
100
AcDbEntity
  8
Defpoints
 62
     0
100
AcDbPoint
 10
138.4914859434323
 20
2.577310402721317
 30
0.0
  0
POINT
  5
853
330
847
100
AcDbEntity
  8
Defpoints
 62
     0
100
AcDbPoint
 10
164.6095024887552
 20
2.577310402721414
 30
0.0
  0
ENDBLK
  5
849
330
847
100
AcDbEntity
  8
0
100
AcDbBlockEnd
  0
BLOCK
  5
855
330
854
100
AcDbEntity
  8
0
100
AcDbBlockBegin
  2
*D47
 70
     1
 10
0.0
 20
0.0
 30
0.0
  3
*D47
  1

  0
LINE
  5
857
330
854
100
AcDbEntity
  8
치수문자_일반주서
 62
     0
370
    -2
100
AcDbLine
 10
83.52699230724812
 20
4.539810402721315
 30
0.0
 11
83.52699230724812
 21
32.97731040272132
 31
0.0
  0
LINE
  5
858
330
854
100
AcDbEntity
  8
치수문자_일반주서
 62
     0
370
    -2
100
AcDbLine
 10
143.5269923072481
 20
3.334818331914704
 30
0.0
 11
143.5269923072481
 21
32.97731040272132
 31
0.0
  0
LINE
  5
859
330
854
100
AcDbEntity
  8
치수문자_일반주서
 62
     0
370
    -2
100
AcDbLine
 10
86.82899230724813
 20
32.97731040272132
 30
0.0
 11
140.2249923072481
 21
32.97731040272132
 31
0.0
  0
SOLID
  5
85A
330
854
100
AcDbEntity
  8
치수문자_일반주서
 62
     0
100
AcDbTrace
 10
86.82899230724813
 20
33.52764373605466
 30
0.0
 11
86.82899230724813
 21
32.42697706938799
 31
0.0
 12
83.52699230724812
 22
32.97731040272132
 32
0.0
 13
83.52699230724812
 23
32.97731040272132
 33
0.0
  0
SOLID
  5
85B
330
854
100
AcDbEntity
  8
치수문자_일반주서
 62
     0
100
AcDbTrace
 10
140.2249923072481
 20
32.42697706938799
 30
0.0
 11
140.2249923072481
 21
33.52764373605466
 31
0.0
 12
143.5269923072481
 22
32.97731040272132
 32
0.0
 13
143.5269923072481
 23
32.97731040272132
 33
0.0
  0
MTEXT
  5
85C
330
854
100
AcDbEntity
  8
치수문자_일반주서
 62
     0
100
AcDbMText
 10
113.5269923072481
 20
37.35231040272132
 30
0.0
 40
3.5
 41
0.0
 71
     2
 72
     1
  1
\A1;60
  7
SLDTEXTSTYLE0
 73
     1
 44
1.0
  0
POINT
  5
85D
330
854
100
AcDbEntity
  8
Defpoints
 62
     0
100
AcDbPoint
 10
83.52699230724812
 20
4.477310402721315
 30
0.0
  0
POINT
  5
85E
330
854
100
AcDbEntity
  8
Defpoints
 62
     0
100
AcDbPoint
 10
143.5269923072481
 20
3.272318331914704
 30
0.0
  0
POINT
  5
85F
330
854
100
AcDbEntity
  8
Defpoints
 62
     0
100
AcDbPoint
 10
143.5269923072481
 20
32.97731040272132
 30
0.0
  0
ENDBLK
  5
856
330
854
100
AcDbEntity
  8
0
100
AcDbBlockEnd
  0
BLOCK
  5
861
330
860
100
AcDbEntity
  8
0
100
AcDbBlockBegin
  2
*D48
 70
     1
 10
0.0
 20
0.0
 30
0.0
  3
*D48
  1

  0
LINE
  5
863
330
860
100
AcDbEntity
  8
치수문자_일반주서
 62
     0
370
    -2
100
AcDbLine
 10
83.96449230724811
 20
4.977310402721315
 30
0.0
 11
71.53053428563604
 21
4.977310402721267
 31
0.0
  0
LINE
  5
864
330
860
100
AcDbEntity
  8
치수문자_일반주서
 62
     0
370
    -2
100
AcDbLine
 10
83.96449230724811
 20
-1.022689597278678
 30
0.0
 11
71.53053428563605
 21
-1.022689597278726
 31
0.0
  0
LINE
  5
865
330
860
100
AcDbEntity
  8
치수문자_일반주서
 62
     0
370
    -2
100
AcDbLine
 10
71.53053428563605
 20
1.675310402721267
 30
0.0
 11
71.53053428563604
 21
2.279310402721274
 31
0.0
  0
SOLID
  5
866
330
860
100
AcDbEntity
  8
치수문자_일반주서
 62
     0
100
AcDbTrace
 10
72.08086761896938
 20
1.675310402721268
 30
0.0
 11
70.98020095230272
 21
1.675310402721266
 31
0.0
 12
71.53053428563604
 22
4.977310402721267
 32
0.0
 13
71.53053428563604
 23
4.977310402721267
 33
0.0
  0
SOLID
  5
867
330
860
100
AcDbEntity
  8
치수문자_일반주서
 62
     0
100
AcDbTrace
 10
70.98020095230271
 20
2.279310402721273
 30
0.0
 11
72.08086761896936
 21
2.279310402721276
 31
0.0
 12
71.53053428563605
 22
-1.022689597278726
 32
0.0
 13
71.53053428563605
 23
-1.022689597278726
 33
0.0
  0
MTEXT
  5
868
330
860
100
AcDbEntity
  8
치수문자_일반주서
 62
     0
100
AcDbMText
 10
67.15553428563604
 20
1.977310402721305
 30
0.0
 40
3.5
 41
0.0
 71
     2
 72
     1
  1
\A1;%%c6
  7
SLDTEXTSTYLE0
 11
-2.368475785867004E-15
 21
1.0
 31
0.0
 73
     1
 44
1.0
  0
POINT
  5
869
330
860
100
AcDbEntity
  8
Defpoints
 62
     0
100
AcDbPoint
 10
84.02699230724811
 20
4.977310402721315
 30
0.0
  0
POINT
  5
86A
330
860
100
AcDbEntity
  8
Defpoints
 62
     0
100
AcDbPoint
 10
84.02699230724811
 20
-1.022689597278678
 30
0.0
  0
POINT
  5
86B
330
860
100
AcDbEntity
  8
Defpoints
 62
     0
100
AcDbPoint
 10
71.53053428563605
 20
-1.022689597278724
 30
0.0
  0
ENDBLK
  5
862
330
860
100
AcDbEntity
  8
0
100
AcDbBlockEnd
  0
BLOCK
  5
86D
330
86C
100
AcDbEntity
  8
0
100
AcDbBlockBegin
  2
*D49
 70
     1
 10
0.0
 20
0.0
 30
0.0
  3
*D49
  1

  0
LINE
  5
86F
330
86C
100
AcDbEntity
  8
치수문자_일반주서
 62
     0
370
    -2
100
AcDbLine
 10
137.5269923072481
 20
3.65910697611703
 30
0.0
 11
137.5269923072481
 21
18.41901957438878
 31
0.0
  0
LINE
  5
870
330
86C
100
AcDbEntity
  8
치수문자_일반주서
 62
     0
370
    -2
100
AcDbLine
 10
143.5269923072481
 20
3.334818331914704
 30
0.0
 11
143.5269923072481
 21
18.41901957438878
 31
0.0
  0
LINE
  5
871
330
86C
100
AcDbEntity
  8
치수문자_일반주서
 62
     0
370
    -2
100
AcDbLine
 10
140.8289923072481
 20
18.41901957438878
 30
0.0
 11
140.2249923072481
 21
18.41901957438878
 31
0.0
  0
SOLID
  5
872
330
86C
100
AcDbEntity
  8
치수문자_일반주서
 62
     0
100
AcDbTrace
 10
140.8289923072481
 20
18.96935290772211
 30
0.0
 11
140.8289923072481
 21
17.86868624105544
 31
0.0
 12
137.5269923072481
 22
18.41901957438878
 32
0.0
 13
137.5269923072481
 23
18.41901957438878
 33
0.0
  0
SOLID
  5
873
330
86C
100
AcDbEntity
  8
치수문자_일반주서
 62
     0
100
AcDbTrace
 10
140.2249923072481
 20
17.86868624105544
 30
0.0
 11
140.2249923072481
 21
18.96935290772211
 31
0.0
 12
143.5269923072481
 22
18.41901957438878
 32
0.0
 13
143.5269923072481
 23
18.41901957438878
 33
0.0
  0
MTEXT
  5
874
330
86C
100
AcDbEntity
  8
치수문자_일반주서
 62
     0
100
AcDbMText
 10
140.5269923072481
 20
22.79401957438878
 30
0.0
 40
3.5
 41
0.0
 71
     2
 72
     1
  1
\A1;6
  7
SLDTEXTSTYLE0
 73
     1
 44
1.0
  0
POINT
  5
875
330
86C
100
AcDbEntity
  8
Defpoints
 62
     0
100
AcDbPoint
 10
137.5269923072481
 20
3.59660697611703
 30
0.0
  0
POINT
  5
876
330
86C
100
AcDbEntity
  8
Defpoints
 62
     0
100
AcDbPoint
 10
143.5269923072481
 20
3.272318331914704
 30
0.0
  0
POINT
  5
877
330
86C
100
AcDbEntity
  8
Defpoints
 62
     0
100
AcDbPoint
 10
143.5269923072481
 20
18.41901957438878
 30
0.0
  0
ENDBLK
  5
86E
330
86C
100
AcDbEntity
  8
0
100
AcDbBlockEnd
  0
BLOCK
  5
879
330
878
100
AcDbEntity
  8
0
100
AcDbBlockBegin
  2
*D50
 70
     1
 10
0.0
 20
0.0
 30
0.0
  3
*D50
  1

  0
LINE
  5
87B
330
878
100
AcDbEntity
  8
치수문자_일반주서
 62
     0
370
    -2
100
AcDbLine
 10
143.5269923072481
 20
3.935069534513957
 30
0.0
 11
143.5269923072481
 21
27.32424480420783
 31
0.0
  0
LINE
  5
87C
330
878
100
AcDbEntity
  8
치수문자_일반주서
 62
     0
370
    -2
100
AcDbLine
 10
127.5269923034164
 20
3.964810402721312
 30
0.0
 11
127.5269923034164
 21
27.32424480420783
 31
0.0
  0
LINE
  5
87D
330
878
100
AcDbEntity
  8
치수문자_일반주서
 62
     0
370
    -2
100
AcDbLine
 10
140.2249923072481
 20
27.32424480420783
 30
0.0
 11
130.8289923034164
 21
27.32424480420783
 31
0.0
  0
SOLID
  5
87E
330
878
100
AcDbEntity
  8
치수문자_일반주서
 62
     0
100
AcDbTrace
 10
140.2249923072481
 20
26.77391147087449
 30
0.0
 11
140.2249923072481
 21
27.87457813754116
 31
0.0
 12
143.5269923072481
 22
27.32424480420783
 32
0.0
 13
143.5269923072481
 23
27.32424480420783
 33
0.0
  0
SOLID
  5
87F
330
878
100
AcDbEntity
  8
치수문자_일반주서
 62
     0
100
AcDbTrace
 10
130.8289923034164
 20
27.87457813754116
 30
0.0
 11
130.8289923034164
 21
26.77391147087449
 31
0.0
 12
127.5269923034164
 22
27.32424480420783
 32
0.0
 13
127.5269923034164
 23
27.32424480420783
 33
0.0
  0
MTEXT
  5
880
330
878
100
AcDbEntity
  8
치수문자_일반주서
 62
     0
100
AcDbMText
 10
135.5269923053322
 20
31.69924480420783
 30
0.0
 40
3.5
 41
0.0
 71
     2
 72
     1
  1
\A1;16
  7
SLDTEXTSTYLE0
 73
     1
 44
1.0
  0
POINT
  5
881
330
878
100
AcDbEntity
  8
Defpoints
 62
     0
100
AcDbPoint
 10
143.5269923072481
 20
3.872569534513957
 30
0.0
  0
POINT
  5
882
330
878
100
AcDbEntity
  8
Defpoints
 62
     0
100
AcDbPoint
 10
127.5269923034164
 20
3.902310402721312
 30
0.0
  0
POINT
  5
883
330
878
100
AcDbEntity
  8
Defpoints
 62
     0
100
AcDbPoint
 10
127.5269923034164
 20
27.32424480420783
 30
0.0
  0
ENDBLK
  5
87A
330
878
100
AcDbEntity
  8
0
100
AcDbBlockEnd
  0
ENDSEC
  0
SECTION
  2
ENTITIES
  0
INSERT
  5
34D
330
1F
100
AcDbEntity
  8
0
  6
Continuous
 62
     7
100
AcDbBlockReference
 66
     1
  2
블럭10
 10
-14.64744943636434
 20
-52.04717430164394
 30
0.0
  0
ATTRIB
  5
34E
330
34D
100
AcDbEntity
  8
FORMAT
 62
     2
100
AcDbText
 10
-30.76671047579988
 20
-49.97180738881175
 30
0.0
 40
4.233333333333333
  1
SEME640400116E [ 4 FLUTE ]
 41
0.75
  7
SLDTEXTSTYLE0
 11
-30.76671047579988
 21
-52.08847405547842
 31
0.0
100
AcDbAttribute
  2
AUTOATTR0
 70
     0
 74
     1
  0
SEQEND
  5
34F
330
34D
100
AcDbEntity
  8
0
  6
Continuous
 62
     7
  0
HATCH
  5
350
330
1F
100
AcDbEntity
  8
중심선
100
AcDbHatch
 10
0.0
 20
0.0
 30
0.0
210
0.0
220
0.0
230
1.0
  2
SOLID
 70
     1
 71
     0
 91
        1
 92
        0
 93
        4
 72
     1
 10
-8.932540131983501
 20
-35.80000000000001
 11
-12.37881537582079
 21
-35.80000000000001
 72
     1
 10
-12.37881537582078
 20
-35.80000000000001
 11
-14.5070452350248
 21
-38.33632558057261
 72
     1
 10
-14.5070452350248
 20
-38.33632558057261
 11
-11.06073690607437
 21
-38.33628615127012
 72
     1
 10
-11.06073690607437
 20
-38.33628615127012
 11
-8.932540131983487
 21
-35.80000000000001
 97
        0
 75
     0
 76
     1
 98
        1
 10
11.79264981257745
 20
-0.0000000000000142
  0
HATCH
  5
351
330
1F
100
AcDbEntity
  8
중심선
100
AcDbHatch
 10
0.0
 20
0.0
 30
0.0
210
0.0
220
0.0
230
1.0
  2
SOLID
 70
     1
 71
     0
 91
        1
 92
        0
 93
        4
 72
     1
 10
-3.919776140947519
 20
-35.80000000000001
 11
-7.366051384784797
 21
-35.80000000000001
 72
     1
 10
-7.366051384784811
 20
-35.80000000000001
 11
-11.89718939314222
 21
-41.20000000000003
 72
     1
 10
-11.89718939314221
 20
-41.20000000000003
 11
-8.450914149304928
 21
-41.20000000000003
 72
     1
 10
-8.450914149304936
 20
-41.20000000000003
 11
-3.919776140947526
 21
-35.80000000000001
 97
        0
 75
     0
 76
     1
 98
        1
 10
11.79264981257745
 20
-0.0000000000000142
  0
HATCH
  5
352
330
1F
100
AcDbEntity
  8
중심선
100
AcDbHatch
 10
0.0
 20
0.0
 30
0.0
210
0.0
220
0.0
230
1.0
  2
SOLID
 70
     1
 71
     0
 91
        1
 92
        0
 93
        4
 72
     1
 10
1.092987850088349
 20
-35.80000000000001
 11
-2.353287393748744
 21
-35.79999999999998
 72
     1
 10
-2.353287393748744
 20
-35.79999999999998
 11
-9.401724295638012
 21
-44.20000000000003
 72
     1
 10
-9.401724295638019
 20
-44.20000000000003
 11
-5.955449051800741
 21
-44.20000000000003
 72
     1
 10
-5.955449051800741
 20
-44.20000000000003
 11
1.092987850088342
 21
-35.80000000000001
 97
        0
 75
     0
 76
     1
 98
        1
 10
11.79264981257745
 20
-0.0000000000000142
  0
HATCH
  5
353
330
1F
100
AcDbEntity
  8
중심선
100
AcDbHatch
 10
0.0
 20
0.0
 30
0.0
210
0.0
220
0.0
230
1.0
  2
SOLID
 70
     1
 71
     0
 91
        1
 92
        0
 93
        6
 72
     3
 10
5.892878281100536
 20
-40.00000000005129
 11
3.960054785062312
 21
1.540882976769353E-10
 40
0.39393394401626
 50
17.09539180608444
 51
320.0019657685085
 73
     0
 72
     1
 10
7.575877936801135
 20
-38.58789400463834
 11
9.881179810502175
 21
-36.6535672945904
 72
     3
 10
5.8928782810477
 20
-40.00000000000016
 11
6.600054785286829
 21
-1.278976924368180E-13
 40
0.636358354079598
 50
39.99873849337434
 51
368.4976242363723
 73
     1
 72
     1
 10
12.31821077294831
 20
-39.03999999993003
 11
4.572945587883616
 21
-39.03999999993003
 72
     1
 10
4.572945587883623
 20
-39.03999999993003
 11
4.572920543437689
 21
-40.95999999992993
 72
     1
 10
4.572920543437704
 20
-40.95999999992993
 11
9.01430031290974
 21
-40.95999999992989
 97
        0
 75
     0
 76
     1
 98
        1
 10
11.79264981257745
 20
-0.0000000000000142
  0
LINE
  5
354
330
1F
100
AcDbEntity
  8
중심선
 48
0.5
100
AcDbLine
 10
-42.98804537803171
 20
0.0000000000000273
 30
0.0
 11
23.01195462196831
 21
0.0000000000000362
 31
0.0
1001
PE_URL
1000

  0
DIMENSION
  5
355
330
1F
100
AcDbEntity
  8
치수문자_일반주서
100
AcDbDimension
  2
*D15
 10
30.0119546219683
 20
2.000000000000037
 30
0.0
 11
30.01195462196825
 21
14.07275000000004
 31
0.0
 70
   160
  1
%%c<>
 71
     2
 42
3.999812162734647
 52
-270.0
  3
SLDDIMSTYLE2
100
AcDbAlignedDimension
 13
20.01195462196829
 23
-1.999812162734646
 33
0.0
 14
20.01195462196829
 24
2.0
 34
0.0
 50
90.0000000000002
100
AcDbRotatedDimension
1001
PE_URL
1000

  0
DIMENSION
  5
356
330
1F
100
AcDbEntity
  8
치수문자_일반주서
100
AcDbDimension
  2
*D16
 10
20.01195462196829
 20
30.00000000000006
 30
0.0
 11
-9.988045378031707
 21
30.00000000000006
 31
0.0
 70
   160
  1
<>
 71
     2
 42
59.99999999999999
  3
SLDDIMSTYLE0
100
AcDbAlignedDimension
 13
-39.9880453780317
 23
2.5
 33
0.0
 14
20.01195462196829
 24
2.0
 34
0.0
100
AcDbRotatedDimension
1001
PE_URL
1000

  0
DIMENSION
  5
357
330
1F
100
AcDbEntity
  8
치수문자_일반주서
100
AcDbDimension
  2
*D17
 10
-49.98804537803178
 20
-3.000000000000039
 30
0.0
 11
-49.98804537803179
 21
0.187656470999102
 31
0.0
 70
   160
  1
%%c<>
 71
     2
 42
6.0
 52
-270.0
  3
SLDDIMSTYLE2
100
AcDbAlignedDimension
 13
-39.48804537803171
 23
3.0
 33
0.0
 14
-39.48804537803171
 24
-3.0
 34
0.0
 50
90.0000000000002
100
AcDbRotatedDimension
1001
PE_URL
1000

1001
ACAD_DSTYLE_DIMFLIPARROW_SYMBOL
1070
   385
1070
     0
1001
ACAD_DSTYLE_DIMFLIPARROW_WHICH_SYMBOL
1070
   386
1070
     3
  0
DIMENSION
  5
358
330
1F
100
AcDbEntity
  8
치수문자_일반주서
100
AcDbDimension
  2
*D18
 10
20.01195462196829
 20
15.30788275874464
 30
0.0
 11
17.0119546219678
 21
15.30788275874464
 31
0.0
 70
   160
  1
<>
 71
     2
 42
6.000000000000938
  3
SLDDIMSTYLE2
100
AcDbAlignedDimension
 13
14.01195462196735
 23
1.619296573383466
 33
0.0
 14
20.01195462196829
 24
2.0
 34
0.0
100
AcDbRotatedDimension
1001
PE_URL
1000

1001
ACAD_DSTYLE_DIMFLIPARROW_SYMBOL
1070
   385
1070
     0
1001
ACAD_DSTYLE_DIMFLIPARROW_WHICH_SYMBOL
1070
   386
1070
     3
  0
DIMENSION
  5
359
330
1F
100
AcDbEntity
  8
치수문자_일반주서
100
AcDbDimension
  2
*D19
 10
4.011954618136556
 20
23.94888346237755
 30
0.0
 11
12.01195462005242
 21
23.94888346237755
 31
0.0
 70
   160
  1
<>
 71
     2
 42
16.00000000383173
  3
SLDDIMSTYLE0
100
AcDbAlignedDimension
 13
20.01195462196829
 23
2.0
 33
0.0
 14
4.011954618136556
 24
1.924999999999997
 34
0.0
100
AcDbRotatedDimension
1001
PE_URL
1000

1001
ACAD_DSTYLE_DIMFLIPARROW_SYMBOL
1070
   385
1070
     0
1001
ACAD_DSTYLE_DIMFLIPARROW_WHICH_SYMBOL
1070
   386
1070
     3
  0
DIMENSION
  5
39B
330
1F
100
AcDbEntity
  8
치수문자_일반주서
100
AcDbDimension
  2
*D20
 10
19.91195462196829
 20
-1.899999999999998
 30
0.0
 11
30.12778531205695
 21
-13.90968065995967
 31
0.0
 70
   164
 71
     5
 42
0.1000000000000161
  3
SLDDIMSTYLE1
100
AcDbRadialDimension
 15
19.97674745130705
 25
-1.976170133689535
 35
0.0
 40
0.0
1001
ACAD_DSTYLE_DIMRADIAL_EXTENSION
1070
   387
1070
     1
1070
   388
1040
4.71238898038469
1070
   390
1040
0.0
1001
PE_URL
1000

  0
LINE
  5
7F9
330
1F
100
AcDbEntity
  8
0
  6
Continuous
 62
     4
370
    25
100
AcDbLine
 10
0.0
 20
-3.000000000000007
 30
0.0
 11
4.011954618136556
 21
-1.925000000000004
 31
0.0
  0
LINE
  5
7FA
330
1F
100
AcDbEntity
  8
0
  6
Continuous
 62
     4
370
    25
100
AcDbLine
 10
4.011954618136556
 20
1.924999999999997
 30
0.0
 11
0.0
 21
3.000000000000007
 31
0.0
  0
LINE
  5
7FB
330
1F
100
AcDbEntity
  8
0
  6
Continuous
 62
     4
370
    25
100
AcDbLine
 10
0.0
 20
3.0
 30
0.0
 11
-39.48804537803171
 21
3.0
 31
0.0
  0
LINE
  5
7FC
330
1F
100
AcDbEntity
  8
0
  6
Continuous
 62
     4
370
    25
100
AcDbLine
 10
-39.48804537803171
 20
-3.0
 30
0.0
 11
0.0
 21
-3.0
 31
0.0
  0
LINE
  5
7FD
330
1F
100
AcDbEntity
  8
0
  6
Continuous
 62
     4
370
    25
100
AcDbLine
 10
-39.48804537803171
 20
3.0
 30
0.0
 11
-39.9880453780317
 21
2.5
 31
0.0
  0
LINE
  5
7FE
330
1F
100
AcDbEntity
  8
0
  6
Continuous
 62
     4
370
    25
100
AcDbLine
 10
-39.9880453780317
 20
-2.499999999999993
 30
0.0
 11
-39.48804537803171
 21
-2.999999999999993
 31
0.0
  0
LINE
  5
7FF
330
1F
100
AcDbEntity
  8
0
  6
Continuous
 62
     4
370
    25
100
AcDbLine
 10
13.12206829847383
 20
1.924999999999997
 30
0.0
 11
4.011954618136556
 21
1.924999999999997
 31
0.0
  0
LINE
  5
800
330
1F
100
AcDbEntity
  8
0
  6
Continuous
 62
     4
370
    25
100
AcDbLine
 10
4.011954618136556
 20
-1.925000000000004
 30
0.0
 11
13.12206829847383
 21
-1.925000000000004
 31
0.0
  0
LINE
  5
801
330
1F
100
AcDbEntity
  8
0
  6
Continuous
 62
     1
370
    25
100
AcDbLine
 10
16.00949452032319
 20
2.0
 30
0.0
 11
15.67718909005819
 21
2.0
 31
0.0
1001
PE_URL
1000

  0
LINE
  5
802
330
1F
100
AcDbEntity
  8
0
  6
Continuous
 62
     1
370
    25
100
AcDbLine
 10
19.84642696436856
 20
-2.0
 30
0.0
 11
19.91195462196828
 21
-2.0
 31
0.0
1001
PE_URL
1000

  0
LINE
  5
803
330
1F
100
AcDbEntity
  8
0
  6
Continuous
 62
     1
370
    25
100
AcDbLine
 10
15.67718909005816
 20
-2.0
 30
0.0
 11
16.00949452032319
 21
-2.0
 31
0.0
1001
PE_URL
1000

  0
ARC
  5
804
330
1F
100
AcDbEntity
  8
0
  6
Continuous
 62
     1
370
    25
100
AcDbCircle
 10
19.91195462196828
 20
-1.899999999999999
 30
0.0
 40
0.1000000000000001
100
AcDbArc
 50
270.0
 51
0.0
1001
PE_URL
1000

  0
ARC
  5
805
330
1F
100
AcDbEntity
  8
0
  6
Continuous
 62
     1
370
    25
100
AcDbCircle
 10
19.91195462196828
 20
1.899999999999999
 30
0.0
 40
0.0999999999999999
100
AcDbArc
 50
0.0000000000040711
 51
90.0
1001
PE_URL
1000

  0
LINE
  5
806
330
1F
100
AcDbEntity
  8
0
  6
Continuous
 62
     1
370
    25
100
AcDbLine
 10
19.91195462196828
 20
2.0
 30
0.0
 11
19.84642696436856
 21
2.0
 31
0.0
1001
PE_URL
1000

  0
LINE
  5
807
330
1F
100
AcDbEntity
  8
0
  6
Continuous
 62
     4
370
    25
100
AcDbLine
 10
4.011954618136556
 20
1.924999999999997
 30
0.0
 11
4.011954618136556
 21
-1.925000000000004
 31
0.0
  0
LINE
  5
808
330
1F
100
AcDbEntity
  8
0
  6
Continuous
 62
     4
370
    25
100
AcDbLine
 10
0.0
 20
3.000000000000007
 30
0.0
 11
0.0
 21
-3.000000000000007
 31
0.0
  0
LINE
  5
809
330
1F
100
AcDbEntity
  8
0
  6
Continuous
 62
     4
370
    25
100
AcDbLine
 10
-39.48804537803171
 20
3.0
 30
0.0
 11
-39.48804537803171
 21
-2.999999999999993
 31
0.0
  0
LINE
  5
80A
330
1F
100
AcDbEntity
  8
0
  6
Continuous
 62
     4
370
    25
100
AcDbLine
 10
-39.9880453780317
 20
2.5
 30
0.0
 11
-39.9880453780317
 21
-2.499999999999993
 31
0.0
  0
SPLINE
  5
80B
330
1F
100
AcDbEntity
  8
0
  6
Continuous
 62
     4
370
    25
100
AcDbSpline
210
0.0
220
0.0
230
1.0
 70
     8
 71
     3
 72
    11
 73
     7
 74
     0
 42
0.000000001
 43
0.00000001
 40
0.0
 40
0.0
 40
0.0
 40
0.0
 40
0.0573915910198119
 40
0.4861211549573555
 40
0.9176951464205466
 40
1.0
 40
1.0
 40
1.0
 40
1.0
 10
13.56200335283935
 20
1.538478519337374
 30
0.0
 10
13.57015376672206
 20
1.536377336021147
 30
0.0
 10
13.63918981433181
 20
1.518579786897455
 30
0.0
 10
13.78806150867501
 20
1.520441701809105
 30
0.0
 10
13.93044634698651
 20
1.542497884798664
 30
0.0
 10
14.00070217301104
 20
1.564317154546337
 30
0.0
 10
14.0119546219683
 20
1.567811814462999
 30
0.0
  0
LINE
  5
80C
330
1F
100
AcDbEntity
  8
0
  6
Continuous
 62
     4
370
    25
100
AcDbLine
 10
13.12206829847383
 20
1.925000000000004
 30
0.0
 11
13.12206829847383
 21
1.839240074940612
 31
0.0
  0
SPLINE
  5
80D
330
1F
100
AcDbEntity
  8
0
  6
Continuous
 62
     4
370
    25
100
AcDbSpline
210
0.0
220
0.0
230
1.0
 70
     8
 71
     3
 72
    10
 73
     6
 74
     0
 42
0.000000001
 43
0.00000001
 40
0.0
 40
0.0
 40
0.0
 40
0.0
 40
0.5
 40
0.5
 40
1.0
 40
1.0
 40
1.0
 40
1.0
 10
13.37271510845892
 20
1.619179313769727
 30
0.0
 10
13.29064362400771
 20
1.65142688549323
 30
0.0
 10
13.22567712515527
 20
1.692336991135129
 30
0.0
 10
13.14123405204174
 20
1.771512203061057
 30
0.0
 10
13.1220682984694
 20
1.809363707590997
 30
0.0
 10
13.12206829846917
 20
1.8392400749402
 30
0.0
  0
SPLINE
  5
80E
330
1F
100
AcDbEntity
  8
0
  6
Continuous
 62
     4
370
    25
100
AcDbSpline
210
0.0
220
0.0
230
1.0
 70
     8
 71
     3
 72
    10
 73
     6
 74
     0
 42
0.000000001
 43
0.00000001
 40
0.0
 40
0.0
 40
0.0
 40
0.0
 40
0.5
 40
0.5
 40
1.0
 40
1.0
 40
1.0
 40
1.0
 10
14.0119546219683
 20
1.323708555973923
 30
0.0
 10
13.90441238666961
 20
1.380055310886419
 30
0.0
 10
13.79679229658313
 20
1.433175838114444
 30
0.0
 10
13.5837359798536
 20
1.531870921288871
 30
0.0
 10
13.47917825540173
 20
1.577347756927473
 30
0.0
 10
13.37271510845892
 20
1.619179313769727
 30
0.0
  0
LINE
  5
80F
330
1F
100
AcDbEntity
  8
0
  6
Continuous
 62
     4
370
    25
100
AcDbLine
 10
14.0119546219683
 20
1.173830740547018
 30
0.0
 11
14.0119546219683
 21
1.116956182860484
 31
0.0
  0
SPLINE
  5
810
330
1F
100
AcDbEntity
  8
0
  6
Continuous
 62
     4
370
    25
100
AcDbSpline
210
0.0
220
0.0
230
1.0
 70
     8
 71
     3
 72
    14
 73
    10
 74
     0
 42
0.000000001
 43
0.00000001
 40
0.0
 40
0.0
 40
0.0
 40
0.0
 40
0.25
 40
0.25
 40
0.5
 40
0.5
 40
0.75
 40
0.75
 40
1.0
 40
1.0
 40
1.0
 40
1.0
 10
13.12206829847383
 20
0.6190054467218644
 30
0.0
 10
13.12206829847383
 20
0.7206928808578397
 30
0.0
 10
13.14380854533186
 20
0.8188555260138486
 30
0.0
 10
13.23863842239786
 20
0.9859123356792239
 30
0.0
 10
13.31167045378734
 20
1.055009574841186
 30
0.0
 10
13.49304114812412
 20
1.149804698979715
 30
0.0
 10
13.59834091007772
 20
1.174704606983155
 30
0.0
 10
13.81064476807313
 20
1.179653255918794
 30
0.0
 10
13.91793353858486
 20
1.159669631239325
 30
0.0
 10
14.0119546219683
 20
1.116956182860477
 30
0.0
  0
LINE
  5
811
330
1F
100
AcDbEntity
  8
0
  6
Continuous
 62
     4
370
    25
100
AcDbLine
 10
13.12206829847383
 20
0.6190054467218644
 30
0.0
 11
13.12206829847383
 21
-0.5681733421522495
 31
0.0
  0
SPLINE
  5
812
330
1F
100
AcDbEntity
  8
0
  6
Continuous
 62
     4
370
    25
100
AcDbSpline
210
0.0
220
0.0
230
1.0
 70
     8
 71
     3
 72
    10
 73
     6
 74
     0
 42
0.000000001
 43
0.00000001
 40
0.0
 40
0.0
 40
0.0
 40
0.0
 40
0.5
 40
0.5
 40
1.0
 40
1.0
 40
1.0
 40
1.0
 10
13.37271510845892
 20
-1.041097185595625
 30
0.0
 10
13.29064362400771
 20
-0.9909437496086397
 30
0.0
 10
13.22567712515527
 20
-0.9218706682355915
 30
0.0
 10
13.14123405204174
 20
-0.7586794678408069
 30
0.0
 10
13.1220682984694
 20
-0.6648864542366084
 30
0.0
 10
13.12206829846917
 20
-0.5681733421535711
 30
0.0
  0
SPLINE
  5
813
330
1F
100
AcDbEntity
  8
0
  6
Continuous
 62
     4
370
    25
100
AcDbSpline
210
0.0
220
0.0
230
1.0
 70
     8
 71
     3
 72
    10
 73
     6
 74
     0
 42
0.000000001
 43
0.00000001
 40
0.0
 40
0.0
 40
0.0
 40
0.0
 40
0.5
 40
0.5
 40
1.0
 40
1.0
 40
1.0
 40
1.0
 10
14.0119546219683
 20
-1.397648260055568
 30
0.0
 10
13.90441238666961
 20
-1.344282414219599
 30
0.0
 10
13.79679229658313
 20
-1.287484759440659
 30
0.0
 10
13.5837359798536
 20
-1.168324214101794
 30
0.0
 10
13.47917825540173
 20
-1.10615623333765
 30
0.0
 10
13.37271510845892
 20
-1.041097185595625
 30
0.0
  0
LINE
  5
814
330
1F
100
AcDbEntity
  8
0
  6
Continuous
 62
     4
370
    25
100
AcDbLine
 10
14.0119546219683
 20
-1.397648260056677
 30
0.0
 11
14.0119546219683
 21
-1.463189364604204
 31
0.0
  0
SPLINE
  5
815
330
1F
100
AcDbEntity
  8
0
  6
Continuous
 62
     4
370
    25
100
AcDbSpline
210
0.0
220
0.0
230
1.0
 70
     8
 71
     3
 72
    14
 73
    10
 74
     0
 42
0.000000001
 43
0.00000001
 40
0.0
 40
0.0
 40
0.0
 40
0.0
 40
0.2500000000000002
 40
0.2500000000000002
 40
0.5000000000000001
 40
0.5000000000000001
 40
0.75
 40
0.75
 40
1.0
 40
1.0
 40
1.0
 40
1.0
 10
13.12206829847383
 20
-1.822760888577733
 30
0.0
 10
13.12206829847383
 20
-1.788228067521622
 30
0.0
 10
13.14380854533186
 20
-1.744718482102634
 30
0.0
 10
13.23863842239786
 20
-1.656062746585853
 30
0.0
 10
13.31167045378734
 20
-1.611186722045097
 30
0.0
 10
13.49304114812412
 20
-1.544965051548154
 30
0.0
 10
13.59834091007772
 20
-1.525025857383383
 30
0.0
 10
13.81064476807313
 20
-1.521201161962338
 30
0.0
 10
13.91793353858486
 20
-1.537381472110738
 30
0.0
 10
14.0119546219683
 20
-1.567811814463013
 30
0.0
  0
LINE
  5
816
330
1F
100
AcDbEntity
  8
0
  6
Continuous
 62
     4
370
    25
100
AcDbLine
 10
13.12206829847383
 20
-1.822760888577733
 30
0.0
 11
13.12206829847383
 21
-1.924999999999997
 31
0.0
  0
SPLINE
  5
817
330
1F
100
AcDbEntity
  8
0
  6
Continuous
 62
     4
370
    25
100
AcDbSpline
210
0.0
220
0.0
230
1.0
 70
     8
 71
     3
 72
    10
 73
     6
 74
     0
 42
0.000000001
 43
0.00000001
 40
0.0
 40
0.0
 40
0.0
 40
0.0
 40
0.5
 40
0.5
 40
1.0
 40
1.0
 40
1.0
 40
1.0
 10
13.37271510845892
 20
-1.619179313769713
 30
0.0
 10
13.29064362400771
 20
-1.651426885493223
 30
0.0
 10
13.22567712515527
 20
-1.692336991135129
 30
0.0
 10
13.14123405204174
 20
-1.771512203061057
 30
0.0
 10
13.1220682984694
 20
-1.809363707590997
 30
0.0
 10
13.12206829846917
 20
-1.8392400749402
 30
0.0
  0
LINE
  5
818
330
1F
100
AcDbEntity
  8
0
  6
Continuous
 62
     4
370
    25
100
AcDbLine
 10
13.56200335283924
 20
-1.538478519337417
 30
0.0
 11
13.37271510845892
 21
-1.619179313769713
 31
0.0
  0
SPLINE
  5
819
330
1F
100
AcDbEntity
  8
0
  6
Continuous
 62
     4
370
    25
100
AcDbSpline
210
0.0
220
0.0
230
1.0
 70
    24
 71
     3
 72
     8
 73
     4
 74
     0
 42
0.000000001
 43
0.00000001
 40
0.0
 40
0.0
 40
0.0
 40
0.0
 40
1.0
 40
1.0
 40
1.0
 40
1.0
 10
14.0119546219683
 20
1.116956182860484
 30
0.0
 10
14.0119546219683
 20
1.037523636948301
 30
0.0
 10
14.0119546219683
 20
0.9510827495595748
 30
0.0
 10
14.0119546219683
 20
0.8569847316855999
 30
0.0
  0
SPLINE
  5
81A
330
1F
100
AcDbEntity
  8
0
  6
Continuous
 62
     4
370
    25
100
AcDbSpline
210
0.0
220
0.0
230
1.0
 70
    24
 71
     3
 72
    14
 73
    10
 74
     0
 42
0.000000001
 43
0.00000001
 40
0.0
 40
0.0
 40
0.0
 40
0.0
 40
0.25
 40
0.25
 40
0.4999999999999999
 40
0.4999999999999999
 40
0.75
 40
0.75
 40
1.0
 40
1.0
 40
1.0
 40
1.0
 10
14.0119546219683
 20
0.8569847316855359
 30
0.0
 10
14.0119546219683
 20
0.7340033981545488
 30
0.0
 10
14.0119546219683
 20
0.5905393207334839
 30
0.0
 10
14.0119546219683
 20
0.2607246563855554
 30
0.0
 10
14.0119546219683
 20
0.0740869209824595
 30
0.0
 10
14.0119546219683
 20
-0.3305406863627951
 30
0.0
 10
14.0119546219683
 20
-0.5485357824354864
 30
0.0
 10
14.0119546219683
 20
-0.9844807824178545
 30
0.0
 10
14.0119546219683
 20
-1.201816973619742
 30
0.0
 10
14.0119546219683
 20
-1.397648260056677
 30
0.0
  0
SPLINE
  5
81B
330
1F
100
AcDbEntity
  8
0
  6
Continuous
 62
     4
370
    25
100
AcDbSpline
210
0.0
220
0.0
230
1.0
 70
    24
 71
     3
 72
     8
 73
     4
 74
     0
 42
0.000000001
 43
0.00000001
 40
0.0
 40
0.0
 40
0.0
 40
0.0
 40
1.0
 40
1.0
 40
1.0
 40
1.0
 10
14.0119546219683
 20
1.567811814462999
 30
0.0
 10
14.0119546219683
 20
1.485154067231555
 30
0.0
 10
14.0119546219683
 20
1.410678747527434
 30
0.0
 10
14.0119546219683
 20
1.345143334001058
 30
0.0
  0
SPLINE
  5
81C
330
1F
100
AcDbEntity
  8
0
  6
Continuous
 62
     1
370
    25
100
AcDbSpline
210
0.0
220
0.0
230
1.0
 70
     8
 71
     3
 72
    14
 73
    10
 74
     0
 42
0.000000001
 43
0.00000001
 40
0.0
 40
0.0
 40
0.0
 40
0.0
 40
0.0000772754389248
 40
0.169047504697475
 40
0.337785099631786
 40
0.5030285244081524
 40
0.668641239311698
 40
0.8346806681889047
 40
0.9999999999999999
 40
0.9999999999999999
 40
0.9999999999999999
 40
0.9999999999999999
 10
17.9304186863022
 20
-1.498935839226853
 30
0.0
 10
17.93031781603807
 20
-1.498992780270903
 30
0.0
 10
17.70965434667642
 20
-1.623556827354342
 30
0.0
 10
17.26775634357028
 20
-1.790898199294269
 30
0.0
 10
16.61071639208799
 20
-1.970227846296481
 30
0.0
 10
15.9589450082122
 20
-2.019493526562378
 30
0.0
 10
15.31004091145527
 20
-1.949168118039601
 30
0.0
 10
14.66000422509606
 20
-1.769083593422359
 30
0.0
 10
14.22765796984578
 20
-1.562789874047922
 30
0.0
 10
14.0119546219683
 20
-1.459867169445324
 30
0.0
  0
SPLINE
  5
81D
330
1F
100
AcDbEntity
  8
0
  6
Continuous
 62
     4
370
    25
100
AcDbSpline
210
0.0
220
0.0
230
1.0
 70
    24
 71
     3
 72
    14
 73
    10
 74
     0
 42
0.000000001
 43
0.00000001
 40
0.0
 40
0.0
 40
0.0
 40
0.0
 40
0.2500000000000001
 40
0.2500000000000001
 40
0.5000000000000001
 40
0.5000000000000001
 40
0.75
 40
0.75
 40
1.0
 40
1.0
 40
1.0
 40
1.0
 10
14.0119546219683
 20
1.173830740547018
 30
0.0
 10
14.0119546219683
 20
1.063928745650259
 30
0.0
 10
14.0119546219683
 20
0.9271298977903584
 30
0.0
 10
14.0119546219683
 20
0.5843600770870339
 30
0.0
 10
14.0119546219683
 20
0.3774877107165011
 30
0.0
 10
14.0119546219683
 20
-0.1012541089996617
 30
0.0
 10
14.0119546219683
 20
-0.3737328000958513
 30
0.0
 10
14.0119546219683
 20
-0.931513116397575
 30
0.0
 10
14.0119546219683
 20
-1.215086916929778
 30
0.0
 10
14.0119546219683
 20
-1.459867169445317
 30
0.0
  0
SPLINE
  5
81E
330
1F
100
AcDbEntity
  8
0
  6
Continuous
 62
     1
370
    25
100
AcDbSpline
210
0.0
220
0.0
230
1.0
 70
     8
 71
     3
 72
    16
 73
    12
 74
     0
 42
0.000000001
 43
0.00000001
 40
0.0
 40
0.0
 40
0.0
 40
0.0
 40
0.11304526511896
 40
0.226540952546999
 40
0.3398384163257177
 40
0.4528390688994471
 40
0.5660656398754349
 40
0.6775886504700872
 40
0.7886259670321392
 40
0.8996830436753741
 40
1.0
 40
1.0
 40
1.0
 40
1.0
 10
14.01195462196733
 20
1.173830740536538
 30
0.0
 10
14.23160393832072
 20
1.032438490029193
 30
0.0
 10
14.67177775100214
 20
0.7490906197845533
 30
0.0
 10
15.33352282045945
 20
0.2601487085048078
 30
0.0
 10
15.99446970399458
 20
-0.2403986392722146
 30
0.0
 10
16.65410719565443
 20
-0.7282127684393913
 30
0.0
 10
17.31083402928016
 20
-1.167484605120229
 30
0.0
 10
17.96487441907038
 20
-1.533365061638627
 30
0.0
 10
18.61302833740351
 20
-1.80433484472276
 30
0.0
 10
19.23953330700101
 20
-1.97243493908136
 30
0.0
 10
19.65109977618764
 20
-1.987464449375707
 30
0.0
 10
19.84642696436856
 20
-1.994597372500692
 30
0.0
  0
SPLINE
  5
81F
330
1F
100
AcDbEntity
  8
0
  6
Continuous
 62
     1
370
    25
100
AcDbSpline
210
0.0
220
0.0
230
1.0
 70
     8
 71
     3
 72
    23
 73
    19
 74
     0
 42
0.000000001
 43
0.00000001
 40
0.0
 40
0.0
 40
0.0
 40
0.0
 40
0.0000266136979112
 40
0.0000266136979112
 40
0.0000266136979112
 40
0.0000532320145229
 40
0.0000532320145229
 40
0.0000532320145229
 40
0.0000798485288652
 40
0.0000798485288652
 40
0.0000798485288652
 40
0.000110113270983
 40
0.000110113270983
 40
0.000110113270983
 40
0.0001466931553061
 40
0.0001466931553061
 40
0.0001466931553061
 40
0.0001724845770937
 40
0.0001724845770937
 40
0.0001724845770937
 40
0.0001724845770937
 10
20.0119546219683
 20
-1.895259131792642
 30
0.0
 10
20.0119546219683
 20
-1.90407351319454
 30
0.0
 10
20.0107672570511
 20
-1.913120892934138
 30
0.0
 10
20.00843553651561
 20
-1.92163778474724
 30
0.0
 10
20.00610292221992
 20
-1.930157941127732
 30
0.0
 10
20.00256824850331
 20
-1.938365830551952
 30
0.0
 10
19.99820262962754
 20
-1.945637972256478
 30
0.0
 10
19.99382761882748
 20
-1.952925758799928
 30
0.0
 10
19.98853005372442
 20
-1.959459924786685
 30
0.0
 10
19.98275462942294
 20
-1.964968801709077
 30
0.0
 10
19.97618768974394
 20
-1.971232663991735
 30
0.0
 10
19.96886918588845
 20
-1.976321761087924
 30
0.0
 10
19.96129306121398
 20
-1.980179709073781
 30
0.0
 10
19.95214671006852
 20
-1.98483725478426
 30
0.0
 10
19.94243193458573
 20
-1.987813256692881
 30
0.0
 10
19.93271206037963
 20
-1.989208910408117
 30
0.0
 10
19.92582331259823
 20
-1.990198049385697
 30
0.0
 10
19.91885412194955
 20
-1.990410393109705
 30
0.0
 10
19.91195462196833
 20
-1.98988594630088
 30
0.0
1001
PE_URL
1000

  0
SPLINE
  5
820
330
1F
100
AcDbEntity
  8
0
  6
Continuous
 62
     1
370
    25
100
AcDbSpline
210
0.0
220
0.0
230
1.0
 70
     8
 71
     3
 72
    34
 73
    30
 74
     0
 42
0.000000001
 43
0.00000001
 40
0.0
 40
0.0
 40
0.0
 40
0.0
 40
0.1249999999999999
 40
0.1249999999999999
 40
0.1874999999999999
 40
0.1874999999999999
 40
0.2499999999999999
 40
0.2499999999999999
 40
0.3124999999999999
 40
0.3124999999999999
 40
0.3749999999999998
 40
0.3749999999999998
 40
0.4374999999999998
 40
0.4374999999999998
 40
0.4999999999999998
 40
0.4999999999999998
 40
0.5624999999999999
 40
0.5624999999999999
 40
0.6249999999999999
 40
0.6249999999999999
 40
0.7500000000000001
 40
0.7500000000000001
 40
0.8125000000000001
 40
0.8125000000000001
 40
0.875
 40
0.875
 40
0.9375
 40
0.9375
 40
1.0
 40
1.0
 40
1.0
 40
1.0
 10
19.91195462196828
 20
-1.989885946298337
 30
0.0
 10
19.66772697952388
 20
-1.971321643369571
 30
0.0
 10
19.41648874722947
 20
-1.926601939869926
 30
0.0
 10
19.05052460531709
 20
-1.8241376727862
 30
0.0
 10
18.92937851293584
 20
-1.784136729525137
 30
0.0
 10
18.68258283634836
 20
-1.692407553936974
 30
0.0
 10
18.55829531114892
 20
-1.640800532126839
 30
0.0
 10
18.31153508742864
 20
-1.527595549699946
 30
0.0
 10
18.19044772638526
 20
-1.466258214860403
 30
0.0
 10
17.94640071101466
 20
-1.33432404026081
 30
0.0
 10
17.82258238281941
 20
-1.263530465582036
 30
0.0
 10
17.57490565403651
 20
-1.114207509131099
 30
0.0
 10
17.45105878818947
 20
-1.035685070409997
 30
0.0
 10
17.20690033108787
 20
-0.873279360207988
 30
0.0
 10
17.08590174562391
 20
-0.7892710364441413
 30
0.0
 10
16.83919935208036
 20
-0.6156377938608486
 30
0.0
 10
16.71491256034588
 20
-0.5263273771587436
 30
0.0
 10
16.46806191751455
 20
-0.3452994584063092
 30
0.0
 10
16.34681774176602
 20
-0.2539205372994502
 30
0.0
 10
15.98102489827755
 20
0.0222732733439202
 30
0.0
 10
15.72978970215433
 20
0.2103188987086497
 30
0.0
 10
15.36328522215268
 20
0.4822336392906195
 30
0.0
 10
15.24241897750116
 20
0.5713050977290877
 30
0.0
 10
14.99581452644401
 20
0.7463789070110494
 30
0.0
 10
14.87153085717929
 20
0.8320126599419666
 30
0.0
 10
14.62459446405728
 20
0.9969907400463924
 30
0.0
 10
14.50317832283102
 20
1.07607840461084
 30
0.0
 10
14.25950602797516
 20
1.227078507246738
 30
0.0
 10
14.13578681582683
 20
1.299265938242677
 30
0.0
 10
14.0119546219683
 20
1.367036154450822
 30
0.0
  0
SPLINE
  5
821
330
1F
100
AcDbEntity
  8
0
  6
Continuous
 62
     4
370
    25
100
AcDbSpline
210
0.0
220
0.0
230
1.0
 70
    24
 71
     3
 72
     9
 73
     5
 74
     0
 42
0.000000001
 43
0.00000001
 40
0.0
 40
0.0
 40
0.0
 40
0.0
 40
0.5523586631188506
 40
1.0
 40
1.0
 40
1.0
 40
1.0
 10
14.0119546219683
 20
1.619296573395715
 30
0.0
 10
14.0119546219683
 20
1.577827165124958
 30
0.0
 10
14.0119546219683
 20
1.502750206909802
 30
0.0
 10
14.0119546219683
 20
1.437575276824276
 30
0.0
 10
14.0119546219683
 20
1.408400283989664
 30
0.0
  0
SPLINE
  5
822
330
1F
100
AcDbEntity
  8
0
  6
Continuous
 62
     1
370
    25
100
AcDbSpline
210
0.0
220
0.0
230
1.0
 70
     8
 71
     3
 72
    34
 73
    30
 74
     0
 42
0.000000001
 43
0.00000001
 40
0.0
 40
0.0
 40
0.0
 40
0.0
 40
0.1249999999999999
 40
0.1249999999999999
 40
0.1874999999999999
 40
0.1874999999999999
 40
0.2499999999999998
 40
0.2499999999999998
 40
0.3124999999999998
 40
0.3124999999999998
 40
0.3749999999999998
 40
0.3749999999999998
 40
0.4374999999999997
 40
0.4374999999999997
 40
0.4999999999999997
 40
0.4999999999999997
 40
0.5624999999999997
 40
0.5624999999999997
 40
0.6249999999999996
 40
0.6249999999999996
 40
0.7499999999999997
 40
0.7499999999999997
 40
0.8124999999999998
 40
0.8124999999999998
 40
0.8749999999999999
 40
0.8749999999999999
 40
0.9374999999999999
 40
0.9374999999999999
 40
1.0
 40
1.0
 40
1.0
 40
1.0
 10
19.91195462196828
 20
-0.0494284661671074
 30
0.0
 10
19.66772697952385
 20
0.1353422326527607
 30
0.0
 10
19.41648874722938
 20
0.3224740146174909
 30
0.0
 10
19.05052460531695
 20
0.5907713295081578
 30
0.0
 10
18.9293785129357
 20
0.6784030626763382
 30
0.0
 10
18.68258283634816
 20
0.8498047990701565
 30
0.0
 10
18.5582953111487
 20
0.9332339712061568
 30
0.0
 10
18.31153508742838
 20
1.093137102035321
 30
0.0
 10
18.19044772638497
 20
1.169338119085516
 30
0.0
 10
17.94640071101435
 20
1.31418927987599
 30
0.0
 10
17.82258238281906
 20
1.382974616729108
 30
0.0
 10
17.57490565403612
 20
1.511155847889739
 30
0.0
 10
17.45105878818907
 20
1.570545758927757
 30
0.0
 10
17.20690033108741
 20
1.678353518206073
 30
0.0
 10
17.08590174562346
 20
1.726922730365452
 30
0.0
 10
16.83919935207985
 20
1.813250435343441
 30
0.0
 10
16.71491256034534
 20
1.850787991940074
 30
0.0
 10
16.46806191751401
 20
1.913517939147596
 30
0.0
 10
16.34681774176545
 20
1.93864828348341
 30
0.0
 10
15.9810248982769
 20
1.995421981722423
 30
0.0
 10
15.72978970215362
 20
2.008105790152271
 30
0.0
 10
15.36328522215194
 20
1.98822983010588
 30
0.0
 10
15.24241897750039
 20
1.975270141380484
 30
0.0
 10
14.99581452644321
 20
1.936551034473119
 30
0.0
 10
14.87153085717847
 20
1.910805395464095
 30
0.0
 10
14.6245944640564
 20
1.847269865951411
 30
0.0
 10
14.50317832283014
 20
1.809634355660926
 30
0.0
 10
14.25950602797423
 20
1.723002397246724
 30
0.0
 10
14.1357868158259
 20
1.673788355062605
 30
0.0
 10
14.01195462196733
 20
1.619296573383473
 30
0.0
  0
SPLINE
  5
823
330
1F
100
AcDbEntity
  8
0
  6
Continuous
 62
     1
370
    25
100
AcDbSpline
210
0.0
220
0.0
230
1.0
 70
     8
 71
     3
 72
    20
 73
    16
 74
     0
 42
0.000000001
 43
0.00000001
 40
0.0
 40
0.0
 40
0.0
 40
0.0
 40
0.0000506952322051
 40
0.0000506952322051
 40
0.0000506952322051
 40
0.000102381756645
 40
0.000102381756645
 40
0.000102381756645
 40
0.0001397947799899
 40
0.0001397947799899
 40
0.0001397947799899
 40
0.0001715242054056
 40
0.0001715242054056
 40
0.0001715242054056
 40
0.0001819247265666
 40
0.0001819247265666
 40
0.0001819247265666
 40
0.0001819247265666
 10
19.91195462196828
 20
-0.0494284661671074
 30
0.0
 10
19.92542935707797
 20
-0.0596227922380947
 30
0.0
 10
19.93891908988326
 20
-0.070108412827885
 30
0.0
 10
19.95136906375666
 20
-0.0799876479914658
 30
0.0
 10
19.96402984546444
 20
-0.0900341622346161
 30
0.0
 10
19.9760283799647
 20
-0.0997794458513894
 30
0.0
 10
19.98590201338561
 20
-0.1081245053351978
 30
0.0
 10
19.9930910802421
 20
-0.1142006059956913
 30
0.0
 10
19.99932963697142
 20
-0.1196876828903726
 30
0.0
 10
20.00384742370505
 20
-0.124039929864324
 30
0.0
 10
20.00768368601746
 20
-0.1277356246867782
 30
0.0
 10
20.01035749710232
 20
-0.1306959453338195
 30
0.0
 10
20.0114204913109
 20
-0.1325912083969669
 30
0.0
 10
20.0117734301582
 20
-0.1332204798976804
 30
0.0
 10
20.0119546219683
 20
-0.1337385986124247
 30
0.0
 10
20.0119546219683
 20
-0.1341373302127664
 30
0.0
1001
PE_URL
1000

  0
LINE
  5
824
330
1F
100
AcDbEntity
  8
0
  6
Continuous
 62
     1
370
    25
100
AcDbLine
 10
20.0119546219683
 20
-0.7374872432550461
 30
0.0
 11
20.0119546219683
 21
-0.1341373302127522
 31
0.0
1001
PE_URL
1000

  0
SPLINE
  5
825
330
1F
100
AcDbEntity
  8
0
  6
Continuous
 62
     1
370
    25
100
AcDbSpline
210
0.0
220
0.0
230
1.0
 70
     8
 71
     3
 72
     8
 73
     4
 74
     0
 42
0.000000001
 43
0.00000001
 40
0.0
 40
0.0
 40
0.0
 40
0.0
 40
1.0
 40
1.0
 40
1.0
 40
1.0
 10
20.0119546219683
 20
-0.7374872432550461
 30
0.0
 10
19.93954472661127
 20
-0.7760829422290669
 30
0.0
 10
19.86763931366715
 20
-0.819547281552417
 30
0.0
 10
19.7961793623262
 20
-0.8673106653611669
 30
0.0
1001
PE_URL
1000

  0
SPLINE
  5
826
330
1F
100
AcDbEntity
  8
0
  6
Continuous
 62
     1
370
    25
100
AcDbSpline
210
0.0
220
0.0
230
1.0
 70
     8
 71
     3
 72
     8
 73
     4
 74
     0
 42
0.000000001
 43
0.00000001
 40
0.0
 40
0.0
 40
0.0
 40
0.0
 40
1.0
 40
1.0
 40
1.0
 40
1.0
 10
20.0119546219683
 20
-0.9133547695838757
 30
0.0
 10
19.94067936465999
 20
-0.899047937379116
 30
0.0
 10
19.86863714859572
 20
-0.8836798561340515
 30
0.0
 10
19.7961793623262
 20
-0.8673106653611669
 30
0.0
1001
PE_URL
1000

  0
LINE
  5
827
330
1F
100
AcDbEntity
  8
0
  6
Continuous
 62
     1
370
    25
100
AcDbLine
 10
20.0119546219683
 20
-1.895259131792642
 30
0.0
 11
20.0119546219683
 21
-0.9133547695838686
 31
0.0
1001
PE_URL
1000

  0
SPLINE
  5
828
330
1F
100
AcDbEntity
  8
0
  6
Continuous
 62
     1
370
    25
100
AcDbSpline
210
0.0
220
0.0
230
1.0
 70
     8
 71
     3
 72
    23
 73
    19
 74
     0
 42
0.000000001
 43
0.00000001
 40
0.0
 40
0.0
 40
0.0
 40
0.0
 40
0.0000266136979112
 40
0.0000266136979112
 40
0.0000266136979112
 40
0.0000532320145229
 40
0.0000532320145229
 40
0.0000532320145229
 40
0.0000798485288652
 40
0.0000798485288652
 40
0.0000798485288652
 40
0.000110113270983
 40
0.000110113270983
 40
0.000110113270983
 40
0.0001466931553061
 40
0.0001466931553061
 40
0.0001466931553061
 40
0.0001724845770937
 40
0.0001724845770937
 40
0.0001724845770937
 40
0.0001724845770937
 10
20.0119546219683
 20
0.1341373302127522
 30
0.0
 10
20.0119546219683
 20
0.1331346094128563
 30
0.0
 10
20.0107672570511
 20
0.1330185887196578
 30
0.0
 10
20.00843553651561
 20
0.133869706625191
 30
0.0
 10
20.00610292221992
 20
0.1347211507684847
 30
0.0
 10
20.00256824850331
 20
0.136560820434326
 30
0.0
 10
19.99820262962754
 20
0.139171651373033
 30
0.0
 10
19.99382761882748
 20
0.1417880990930342
 30
0.0
 10
19.98853005372442
 20
0.1452261424985153
 30
0.0
 10
19.98275462942294
 20
0.149149801513623
 30
0.0
 10
19.97618768974394
 20
0.1536111935652116
 30
0.0
 10
19.96886918588845
 20
0.1587873954342172
 30
0.0
 10
19.96129306121398
 20
0.1642630925347888
 30
0.0
 10
19.95214671006852
 20
0.1708736818004084
 30
0.0
 10
19.94243193458573
 20
0.1780572146047561
 30
0.0
 10
19.93271206037963
 20
0.1853114931963731
 30
0.0
 10
19.92582331259823
 20
0.1904528041325122
 30
0.0
 10
19.91885412194955
 20
0.1956878387408523
 30
0.0
 10
19.91195462196833
 20
0.2008828532364149
 30
0.0
1001
PE_URL
1000

  0
LINE
  5
829
330
1F
100
AcDbEntity
  8
0
  6
Continuous
 62
     1
370
    25
100
AcDbLine
 10
20.0119546219683
 20
-0.1341373302127522
 30
0.0
 11
20.0119546219683
 21
0.1341373302127522
 31
0.0
1001
PE_URL
1000

  0
SPLINE
  5
82A
330
1F
100
AcDbEntity
  8
0
  6
Continuous
 62
     1
370
    25
100
AcDbSpline
210
0.0
220
0.0
230
1.0
 70
     8
 71
     3
 72
    13
 73
     9
 74
     0
 42
0.000000001
 43
0.00000001
 40
0.0
 40
0.0
 40
0.0
 40
0.0
 40
0.1697738135920469
 40
0.3388697441469384
 40
0.5078690636239783
 40
0.6775270403660266
 40
0.8469514359089234
 40
1.0
 40
1.0
 40
1.0
 40
1.0
 10
19.91195462196828
 20
0.2008828532363651
 30
0.0
 10
19.69085333665751
 20
0.3649192842646656
 30
0.0
 10
19.24953359247212
 20
0.6923371718483793
 30
0.0
 10
18.58932113206848
 20
1.138378178721943
 30
0.0
 10
17.92949764465467
 20
1.515820178193231
 30
0.0
 10
17.26781653760392
 20
1.795764728987066
 30
0.0
 10
16.62746684704985
 20
1.970572336088914
 30
0.0
 10
16.208391463016
 20
1.987645580433913
 30
0.0
 10
16.00949452032319
 20
1.995748695604696
 30
0.0
1001
PE_URL
1000

  0
LINE
  5
82B
330
1F
100
AcDbEntity
  8
0
  6
Continuous
 62
     4
370
    25
100
AcDbLine
 10
14.0119546219683
 20
1.173830740547018
 30
0.0
 11
14.0119546219683
 21
1.367036154450822
 31
0.0
  0
SPLINE
  5
82C
330
1F
100
AcDbEntity
  8
0
  6
Continuous
 62
     1
370
    25
100
AcDbSpline
210
0.0
220
0.0
230
1.0
 70
     8
 71
     3
 72
    11
 73
     7
 74
     0
 42
0.000000001
 43
0.00000001
 40
0.0
 40
0.0
 40
0.0
 40
0.0
 40
0.0177099437177426
 40
0.3446286889620365
 40
0.671605612313892
 40
1.0
 40
1.0
 40
1.0
 40
1.0
 10
17.9304186863022
 20
1.498935839226853
 30
0.0
 10
17.94212699428914
 20
1.505457780402175
 30
0.0
 10
18.16996616169757
 20
1.632372245663205
 30
0.0
 10
18.61297581128917
 20
1.798827228313023
 30
0.0
 10
19.26136360779415
 20
1.978343193463537
 30
0.0
 10
19.69477848133755
 20
1.992363698702178
 30
0.0
 10
19.91195462196828
 20
1.99938911338748
 30
0.0
1001
PE_URL
1000

  0
SPLINE
  5
82D
330
1F
100
AcDbEntity
  8
0
  6
Continuous
 62
     1
370
    25
100
AcDbSpline
210
0.0
220
0.0
230
1.0
 70
     8
 71
     3
 72
    20
 73
    16
 74
     0
 42
0.000000001
 43
0.00000001
 40
0.0
 40
0.0
 40
0.0
 40
0.0
 40
0.0000506952322051
 40
0.0000506952322051
 40
0.0000506952322051
 40
0.000102381756645
 40
0.000102381756645
 40
0.000102381756645
 40
0.0001397947799899
 40
0.0001397947799899
 40
0.0001397947799899
 40
0.0001715242054056
 40
0.0001715242054056
 40
0.0001715242054056
 40
0.0001819247265666
 40
0.0001819247265666
 40
0.0001819247265666
 40
0.0001819247265666
 10
19.91195462196828
 20
1.99938911338748
 30
0.0
 10
19.92542935707797
 20
1.999137091458422
 30
0.0
 10
19.93891908988326
 20
1.996038854920776
 30
0.0
 10
19.95136906375666
 20
1.990298197423186
 30
0.0
 10
19.96402984546444
 20
1.984460336864181
 30
0.0
 10
19.9760283799647
 20
1.975666645939896
 30
0.0
 10
19.98590201338561
 20
1.964344993981051
 30
0.0
 10
19.9930910802421
 20
1.956101613921447
 30
0.0
 10
19.99932963697142
 20
1.946297896498336
 30
0.0
 10
20.00384742370505
 20
1.935471884046031
 30
0.0
 10
20.00768368601746
 20
1.926279014613939
 30
0.0
 10
20.01035749710232
 20
1.91611496904045
 30
0.0
 10
20.0114204913109
 20
1.905714875849533
 30
0.0
 10
20.0117734301582
 20
1.902261802565398
 30
0.0
 10
20.0119546219683
 20
1.898764167693614
 30
0.0
 10
20.0119546219683
 20
1.895259131792507
 30
0.0
1001
PE_URL
1000

  0
LINE
  5
82E
330
1F
100
AcDbEntity
  8
0
  6
Continuous
 62
     1
370
    25
100
AcDbLine
 10
20.0119546219683
 20
1.295007929193389
 30
0.0
 11
20.0119546219683
 21
1.895259131792642
 31
0.0
1001
PE_URL
1000

  0
SPLINE
  5
82F
330
1F
100
AcDbEntity
  8
0
  6
Continuous
 62
     1
370
    25
100
AcDbSpline
210
0.0
220
0.0
230
1.0
 70
     8
 71
     3
 72
    12
 73
     8
 74
     0
 42
0.000000001
 43
0.00000001
 40
0.0
 40
0.0
 40
0.0
 40
0.0
 40
0.25
 40
0.25
 40
0.5
 40
0.5
 40
1.0
 40
1.0
 40
1.0
 40
1.0
 10
20.0119546219683
 20
1.295007929193389
 30
0.0
 10
19.98081924161011
 20
1.216680741431254
 30
0.0
 10
19.9431772686425
 20
1.143919867204531
 30
0.0
 10
19.85278269335734
 20
1.011325084635843
 30
0.0
 10
19.7997312384708
 20
0.951827031265374
 30
0.0
 10
19.62626325900243
 20
0.8056759245752332
 30
0.0
 10
19.48738019191569
 20
0.7483685802744944
 30
0.0
 10
19.34575437771787
 20
0.7322244682873915
 30
0.0
1001
PE_URL
1000

  0
SPLINE
  5
830
330
1F
100
AcDbEntity
  8
0
  6
Continuous
 62
     1
370
    25
100
AcDbSpline
210
0.0
220
0.0
230
1.0
 70
     8
 71
     3
 72
     8
 73
     4
 74
     0
 42
0.000000001
 43
0.00000001
 40
0.0
 40
0.0
 40
0.0
 40
0.0
 40
1.0
 40
1.0
 40
1.0
 40
1.0
 10
20.0119546219683
 20
0.3858008244185314
 30
0.0
 10
19.78279147339185
 20
0.5188762838085381
 30
0.0
 10
19.56071971813094
 20
0.634363250861746
 30
0.0
 10
19.34575437771778
 20
0.7322244682872991
 30
0.0
1001
PE_URL
1000

  0
LINE
  5
831
330
1F
100
AcDbEntity
  8
0
  6
Continuous
 62
     1
370
    25
100
AcDbLine
 10
20.0119546219683
 20
0.1341373302127522
 30
0.0
 11
20.0119546219683
 21
0.3858008244185314
 31
0.0
1001
PE_URL
1000

  0
SPLINE
  5
832
330
1F
100
AcDbEntity
  8
0
  6
Continuous
 62
     1
370
    25
100
AcDbSpline
210
0.0
220
0.0
230
1.0
 70
     8
 71
     3
 72
    10
 73
     6
 74
     0
 42
0.000000001
 43
0.00000001
 40
0.0
 40
0.0
 40
0.0
 40
0.0
 40
0.3961087859156708
 40
0.7937958443384725
 40
1.0
 40
1.0
 40
1.0
 40
1.0
 10
14.01195462196733
 20
-1.61929657338348
 30
0.0
 10
14.23159663676824
 20
-1.70577549515405
 30
0.0
 10
14.67175581725209
 20
-1.879077908948439
 30
0.0
 10
15.2275683535313
 20
-1.994740636567805
 30
0.0
 10
15.56274125119134
 20
-1.987139858892434
 30
0.0
 10
15.67718909005816
 20
-1.984544504122624
 30
0.0
  0
LINE
  5
833
330
1F
100
AcDbEntity
  8
0
  6
Continuous
 62
     4
370
    25
100
AcDbLine
 10
14.0119546219683
 20
-1.619296573395722
 30
0.0
 11
14.0119546219683
 21
-1.459867169445317
 31
0.0
  0
LINE
  5
834
330
1F
100
AcDbEntity
  8
0
  6
Continuous
 62
     1
370
    25
100
AcDbLine
 10
20.0119546219683
 20
0.3858008244185314
 30
0.0
 11
20.0119546219683
 21
1.295007929193389
 31
0.0
1001
PE_URL
1000

  0
LINE
  5
835
330
1F
100
AcDbEntity
  8
0
  6
Continuous
 62
     1
370
    25
100
AcDbLine
 10
20.0119546219683
 20
-0.7374872432550461
 30
0.0
 11
20.0119546219683
 21
-0.9133547695838686
 31
0.0
1001
PE_URL
1000

  0
LINE
  5
836
330
1F
100
AcDbEntity
  8
0
  6
Continuous
 62
     1
370
    25
100
AcDbLine
 10
20.0119546219683
 20
-1.899999999999999
 30
0.0
 11
20.0119546219683
 21
-1.895259131792642
 31
0.0
1001
PE_URL
1000

  0
LINE
  5
837
330
1F
100
AcDbEntity
  8
0
  6
Continuous
 62
     1
370
    25
100
AcDbLine
 10
20.0119546219683
 20
1.895259131792642
 30
0.0
 11
20.0119546219683
 21
1.899999999999999
 31
0.0
1001
PE_URL
1000

  0
CIRCLE
  5
839
330
1F
100
AcDbEntity
  8
외형선
100
AcDbCircle
 10
0.0
 20
0.0
 30
0.0
 40
3.000000000000005
  0
INSERT
  5
846
330
1F
100
AcDbEntity
  8
외형선
100
AcDbBlockReference
  2
SW_DOWELSYMBOL_0
 10
0.0
 20
0.0
 30
0.0
  0
ENDSEC
  0
SECTION
  2
OBJECTS
  0
DICTIONARY
  5
C
330
0
100
AcDbDictionary
281
     1
  3
ACAD_DETAILVIEWSTYLE
350
207
  3
ACAD_GROUP
350
D
  3
ACAD_IMAGE_VARS
350
1FD
  3
ACAD_LAYOUT
350
1A
  3
ACAD_MLINESTYLE
350
17
  3
ACAD_PLOTSETTINGS
350
19
  3
ACAD_PLOTSTYLENAME
350
E
  3
ACAD_SCALELIST
350
47
  3
ACAD_SECTIONVIEWSTYLE
350
208
  3
AcDbVariableDictionary
350
202
  3
APPDATA
350
13F
  3
DWGPROPS
350
8AA
  0
DICTIONARY
  5
1C4
330
2
100
AcDbDictionary
280
     1
281
     1
  3
ACAD_LAYERSTATES
360
1C5
  0
DICTIONARY
  5
207
102
{ACAD_REACTORS
330
C
102
}
330
C
100
AcDbDictionary
281
     1
  0
DICTIONARY
  5
D
102
{ACAD_REACTORS
330
C
102
}
330
C
100
AcDbDictionary
281
     1
  0
RASTERVARIABLES
  5
1FD
102
{ACAD_REACTORS
330
C
102
}
330
C
100
AcDbRasterVariables
 90
        0
 70
     1
 71
     1
 72
     1
  0
DICTIONARY
  5
1A
102
{ACAD_REACTORS
330
C
102
}
330
C
100
AcDbDictionary
281
     1
  3
Layout1
350
1E
  3
Layout2
350
26
  3
Model
350
22
  0
DICTIONARY
  5
17
102
{ACAD_REACTORS
330
C
102
}
330
C
100
AcDbDictionary
281
     1
  3
Standard
350
18
  0
DICTIONARY
  5
19
102
{ACAD_REACTORS
330
C
102
}
330
C
100
AcDbDictionary
281
     1
  0
ACDBDICTIONARYWDFLT
  5
E
102
{ACAD_REACTORS
330
C
102
}
330
C
100
AcDbDictionary
281
     1
  3
Normal
350
F
100
AcDbDictionaryWithDefault
340
F
  0
DICTIONARY
  5
47
102
{ACAD_REACTORS
330
C
102
}
330
C
100
AcDbDictionary
281
     1
  3
A0
350
48
  3
A1
350
49
  3
A2
350
4A
  3
A3
350
4B
  3
A4
350
4C
  3
A5
350
4D
  3
A6
350
4E
  3
A7
350
4F
  3
A8
350
50
  3
A9
350
51
  3
B0
350
52
  3
B1
350
53
  3
B2
350
54
  3
B3
350
55
  3
B4
350
56
  3
B5
350
57
  3
B6
350
58
  3
B7
350
59
  3
B8
350
5A
  3
B9
350
5B
  3
C0
350
5C
  3
C1
350
5D
  3
C2
350
5E
  3
C3
350
5F
  3
C4
350
60
  3
C5
350
61
  3
C6
350
62
  3
C7
350
63
  3
C8
350
64
  3
C9
350
65
  3
D0
350
66
  3
D1
350
67
  3
D2
350
68
  0
DICTIONARY
  5
208
102
{ACAD_REACTORS
330
C
102
}
330
C
100
AcDbDictionary
281
     1
  0
DICTIONARY
  5
202
102
{ACAD_REACTORS
330
C
102
}
330
C
100
AcDbDictionary
281
     1
  0
DICTIONARY
  5
13F
102
{ACAD_REACTORS
330
C
102
}
330
C
100
AcDbDictionary
281
     1
  0
XRECORD
  5
8AA
102
{ACAD_REACTORS
330
C
102
}
330
C
100
AcDbXrecord
280
     1
  1
DWGPROPS COOKIE
  2

  3

  4

  6

  7

  8
12015018
  9

300
=
301
=
302
=
303
=
304
=
305
=
306
=
307
=
308
=
309
=
 40
0.0
 41
2458213.091881366
 42
2458267.361174838
  1

 90
        0
  0
DICTIONARY
  5
1C5
102
{ACAD_REACTORS
330
1C4
102
}
330
1C4
100
AcDbDictionary
281
     1
  0
LAYOUT
  5
1E
102
{ACAD_REACTORS
330
1A
102
}
330
1A
100
AcDbPlotSettings
  1

  2
none_device
  4

  6

 40
0.0
 41
0.0
 42
0.0
 43
0.0
 44
0.0
 45
0.0
 46
0.0
 47
0.0
 48
0.0
 49
0.0
140
0.0
141
0.0
142
1.0
143
1.0
 70
   688
 72
     1
 73
     0
 74
     5
  7

 75
    16
147
1.0
148
0.0
149
0.0
100
AcDbLayout
  1
Layout1
 70
     1
 71
     1
 10
0.0
 20
0.0
 11
420.0
 21
297.0
 12
0.0
 22
0.0
 32
0.0
 14
1.000000000000000E+20
 24
1.000000000000000E+20
 34
1.000000000000000E+20
 15
-1.000000000000000E+20
 25
-1.000000000000000E+20
 35
-1.000000000000000E+20
146
0.0
 13
0.0
 23
0.0
 33
0.0
 16
1.0
 26
0.0
 36
0.0
 17
0.0
 27
1.0
 37
0.0
 76
     0
330
1B
  0
LAYOUT
  5
26
102
{ACAD_REACTORS
330
1A
102
}
330
1A
100
AcDbPlotSettings
  1

  2
none_device
  4

  6

 40
0.0
 41
0.0
 42
0.0
 43
0.0
 44
0.0
 45
0.0
 46
0.0
 47
0.0
 48
0.0
 49
0.0
140
0.0
141
0.0
142
1.0
143
1.0
 70
   688
 72
     1
 73
     0
 74
     5
  7

 75
    16
147
1.0
148
0.0
149
0.0
100
AcDbLayout
  1
Layout2
 70
     1
 71
     2
 10
0.0
 20
0.0
 11
0.0
 21
0.0
 12
0.0
 22
0.0
 32
0.0
 14
0.0
 24
0.0
 34
0.0
 15
0.0
 25
0.0
 35
0.0
146
0.0
 13
0.0
 23
0.0
 33
0.0
 16
1.0
 26
0.0
 36
0.0
 17
0.0
 27
1.0
 37
0.0
 76
     0
330
23
  0
LAYOUT
  5
22
102
{ACAD_REACTORS
330
1A
102
}
330
1A
100
AcDbPlotSettings
  1

  2
none_device
  4
ANSI_A_(11.00_x_8.50_Inches)
  6

 40
6.35
 41
19.05
 42
6.35000508
 43
19.05000254
 44
279.4
 45
215.9
 46
146.9802854435656
 47
93.79062655845452
 48
0.0
 49
0.0
140
0.0
141
0.0
142
0.0868510734123721
143
1.0
 70
  1696
 72
     0
 73
     0
 74
     0
  7

 75
     0
147
0.0235690232323232
148
0.0
149
0.0
100
AcDbLayout
  1
Model
 70
     1
 71
     0
 10
0.0
 20
0.0
 11
420.0
 21
297.0
 12
0.0
 22
0.0
 32
0.0
 14
-54.3630453780318
 24
-49.97180738881175
 34
0.0
 15
44.90412285753342
 25
34.37500000000006
 35
0.0
146
0.0
 13
0.0
 23
0.0
 33
0.0
 16
1.0
 26
0.0
 36
0.0
 17
0.0
 27
1.0
 37
0.0
 76
     0
330
1F
331
29
  0
MLINESTYLE
  5
18
102
{ACAD_REACTORS
330
17
102
}
330
17
100
AcDbMlineStyle
  2
Standard
 70
     0
  3

 62
   256
 51
90.0
 52
90.0
 71
     2
 49
0.5
 62
   256
  6
BYLAYER
 49
-0.5
 62
   256
  6
BYLAYER
  0
ACDBPLACEHOLDER
  5
F
102
{ACAD_REACTORS
330
E
102
}
330
E
  0
SCALE
  5
48
102
{ACAD_REACTORS
330
47
102
}
330
47
100
AcDbScale
 70
     0
300
1:1
140
1.0
141
1.0
290
     1
  0
SCALE
  5
49
102
{ACAD_REACTORS
330
47
102
}
330
47
100
AcDbScale
 70
     0
300
1:2
140
1.0
141
2.0
290
     0
  0
SCALE
  5
4A
102
{ACAD_REACTORS
330
47
102
}
330
47
100
AcDbScale
 70
     0
300
1:4
140
1.0
141
4.0
290
     0
  0
SCALE
  5
4B
102
{ACAD_REACTORS
330
47
102
}
330
47
100
AcDbScale
 70
     0
300
1:5
140
1.0
141
5.0
290
     0
  0
SCALE
  5
4C
102
{ACAD_REACTORS
330
47
102
}
330
47
100
AcDbScale
 70
     0
300
1:8
140
1.0
141
8.0
290
     0
  0
SCALE
  5
4D
102
{ACAD_REACTORS
330
47
102
}
330
47
100
AcDbScale
 70
     0
300
1:10
140
1.0
141
10.0
290
     0
  0
SCALE
  5
4E
102
{ACAD_REACTORS
330
47
102
}
330
47
100
AcDbScale
 70
     0
300
1:16
140
1.0
141
16.0
290
     0
  0
SCALE
  5
4F
102
{ACAD_REACTORS
330
47
102
}
330
47
100
AcDbScale
 70
     0
300
1:20
140
1.0
141
20.0
290
     0
  0
SCALE
  5
50
102
{ACAD_REACTORS
330
47
102
}
330
47
100
AcDbScale
 70
     0
300
1:30
140
1.0
141
30.0
290
     0
  0
SCALE
  5
51
102
{ACAD_REACTORS
330
47
102
}
330
47
100
AcDbScale
 70
     0
300
1:40
140
1.0
141
40.0
290
     0
  0
SCALE
  5
52
102
{ACAD_REACTORS
330
47
102
}
330
47
100
AcDbScale
 70
     0
300
1:50
140
1.0
141
50.0
290
     0
  0
SCALE
  5
53
102
{ACAD_REACTORS
330
47
102
}
330
47
100
AcDbScale
 70
     0
300
1:100
140
1.0
141
100.0
290
     0
  0
SCALE
  5
54
102
{ACAD_REACTORS
330
47
102
}
330
47
100
AcDbScale
 70
     0
300
2:1
140
2.0
141
1.0
290
     0
  0
SCALE
  5
55
102
{ACAD_REACTORS
330
47
102
}
330
47
100
AcDbScale
 70
     0
300
4:1
140
4.0
141
1.0
290
     0
  0
SCALE
  5
56
102
{ACAD_REACTORS
330
47
102
}
330
47
100
AcDbScale
 70
     0
300
8:1
140
8.0
141
1.0
290
     0
  0
SCALE
  5
57
102
{ACAD_REACTORS
330
47
102
}
330
47
100
AcDbScale
 70
     0
300
10:1
140
10.0
141
1.0
290
     0
  0
SCALE
  5
58
102
{ACAD_REACTORS
330
47
102
}
330
47
100
AcDbScale
 70
     0
300
100:1
140
100.0
141
1.0
290
     0
  0
SCALE
  5
59
102
{ACAD_REACTORS
330
47
102
}
330
47
100
AcDbScale
 70
     0
300
1/128" = 1'-0"
140
0.0078125
141
12.0
290
     0
  0
SCALE
  5
5A
102
{ACAD_REACTORS
330
47
102
}
330
47
100
AcDbScale
 70
     0
300
1/64" = 1'-0"
140
0.015625
141
12.0
290
     0
  0
SCALE
  5
5B
102
{ACAD_REACTORS
330
47
102
}
330
47
100
AcDbScale
 70
     0
300
1/32" = 1'-0"
140
0.03125
141
12.0
290
     0
  0
SCALE
  5
5C
102
{ACAD_REACTORS
330
47
102
}
330
47
100
AcDbScale
 70
     0
300
1/16" = 1'-0"
140
0.0625
141
12.0
290
     0
  0
SCALE
  5
5D
102
{ACAD_REACTORS
330
47
102
}
330
47
100
AcDbScale
 70
     0
300
3/32" = 1'-0"
140
0.09375
141
12.0
290
     0
  0
SCALE
  5
5E
102
{ACAD_REACTORS
330
47
102
}
330
47
100
AcDbScale
 70
     0
300
1/8" = 1'-0"
140
0.125
141
12.0
290
     0
  0
SCALE
  5
5F
102
{ACAD_REACTORS
330
47
102
}
330
47
100
AcDbScale
 70
     0
300
3/16" = 1'-0"
140
0.1875
141
12.0
290
     0
  0
SCALE
  5
60
102
{ACAD_REACTORS
330
47
102
}
330
47
100
AcDbScale
 70
     0
300
1/4" = 1'-0"
140
0.25
141
12.0
290
     0
  0
SCALE
  5
61
102
{ACAD_REACTORS
330
47
102
}
330
47
100
AcDbScale
 70
     0
300
3/8" = 1'-0"
140
0.375
141
12.0
290
     0
  0
SCALE
  5
62
102
{ACAD_REACTORS
330
47
102
}
330
47
100
AcDbScale
 70
     0
300
1/2" = 1'-0"
140
0.5
141
12.0
290
     0
  0
SCALE
  5
63
102
{ACAD_REACTORS
330
47
102
}
330
47
100
AcDbScale
 70
     0
300
3/4" = 1'-0"
140
0.75
141
12.0
290
     0
  0
SCALE
  5
64
102
{ACAD_REACTORS
330
47
102
}
330
47
100
AcDbScale
 70
     0
300
1" = 1'-0"
140
1.0
141
12.0
290
     0
  0
SCALE
  5
65
102
{ACAD_REACTORS
330
47
102
}
330
47
100
AcDbScale
 70
     0
300
1-1/2" = 1'-0"
140
1.5
141
12.0
290
     0
  0
SCALE
  5
66
102
{ACAD_REACTORS
330
47
102
}
330
47
100
AcDbScale
 70
     0
300
3" = 1'-0"
140
3.0
141
12.0
290
     0
  0
SCALE
  5
67
102
{ACAD_REACTORS
330
47
102
}
330
47
100
AcDbScale
 70
     0
300
6" = 1'-0"
140
6.0
141
12.0
290
     0
  0
SCALE
  5
68
102
{ACAD_REACTORS
330
47
102
}
330
47
100
AcDbScale
 70
     0
300
1'-0" = 1'-0"
140
12.0
141
12.0
290
     0
  0
ENDSEC
  0
EOF
