  0
SECTION
  2
HEADER
  9
$ACADVER
  1
AC1015
  9
$ACADMAINTVER
 70
     6
  9
$DWGCODEPAGE
  3
ANSI_949
  9
$INSBASE
 10
0.0
 20
0.0
 30
0.0
  9
$EXTMIN
 10
-52.70805878542155
 20
-49.97180738881175
 30
0.0
  9
$EXTMAX
 10
200.2211810816306
 20
33.37500000000001
 30
0.0
  9
$LIMMIN
 10
0.0
 20
0.0
  9
$LIMMAX
 10
420.0
 20
297.0
  9
$ORTHOMODE
 70
     0
  9
$REGENMODE
 70
     1
  9
$FILLMODE
 70
     1
  9
$QTEXTMODE
 70
     0
  9
$MIRRTEXT
 70
     1
  9
$LTSCALE
 40
1.0
  9
$ATTMODE
 70
     1
  9
$TEXTSIZE
 40
3.5
  9
$TRACEWID
 40
1.0
  9
$TEXTSTYLE
  7
Standard
  9
$CLAYER
  8
0
  9
$CELTYPE
  6
ByLayer
  9
$CECOLOR
 62
   256
  9
$CELTSCALE
 40
1.0
  9
$DISPSILH
 70
     0
  9
$DIMSCALE
 40
1.0
  9
$DIMASZ
 40
3.302
  9
$DIMEXO
 40
1.0
  9
$DIMDLI
 40
3.75
  9
$DIMRND
 40
0.0
  9
$DIMDLE
 40
0.0
  9
$DIMEXE
 40
1.0
  9
$DIMTP
 40
0.0
  9
$DIMTM
 40
0.0
  9
$DIMTXT
 40
2.5
  9
$DIMCEN
 40
2.5
  9
$DIMTSZ
 40
0.0
  9
$DIMTOL
 70
     0
  9
$DIMLIM
 70
     0
  9
$DIMTIH
 70
     1
  9
$DIMTOH
 70
     1
  9
$DIMSE1
 70
     0
  9
$DIMSE2
 70
     0
  9
$DIMTAD
 70
     1
  9
$DIMZIN
 70
     0
  9
$DIMBLK
  1

  9
$DIMASO
 70
     1
  9
$DIMSHO
 70
     1
  9
$DIMPOST
  1

  9
$DIMAPOST
  1

  9
$DIMALT
 70
     0
  9
$DIMALTD
 70
     3
  9
$DIMALTF
 40
0.0393700787401575
  9
$DIMLFAC
 40
1.0
  9
$DIMTOFL
 70
     1
  9
$DIMTVP
 40
0.0
  9
$DIMTIX
 70
     0
  9
$DIMSOXD
 70
     0
  9
$DIMSAH
 70
     0
  9
$DIMBLK1
  1

  9
$DIMBLK2
  1

  9
$DIMSTYLE
  2
ISO-25
  9
$DIMCLRD
 70
     0
  9
$DIMCLRE
 70
     0
  9
$DIMCLRT
 70
     0
  9
$DIMTFAC
 40
1.0
  9
$DIMGAP
 40
1.524
  9
$DIMJUST
 70
     0
  9
$DIMSD1
 70
     0
  9
$DIMSD2
 70
     0
  9
$DIMTOLJ
 70
     0
  9
$DIMTZIN
 70
     0
  9
$DIMALTZ
 70
     0
  9
$DIMALTTZ
 70
     0
  9
$DIMUPT
 70
     0
  9
$DIMDEC
 70
     2
  9
$DIMTDEC
 70
     2
  9
$DIMALTU
 70
     2
  9
$DIMALTTD
 70
     3
  9
$DIMTXSTY
  7
Standard
  9
$DIMAUNIT
 70
     0
  9
$DIMADEC
 70
     2
  9
$DIMALTRND
 40
0.0
  9
$DIMAZIN
 70
     0
  9
$DIMDSEP
 70
    44
  9
$DIMATFIT
 70
     3
  9
$DIMFRAC
 70
     0
  9
$DIMLDRBLK
  1

  9
$DIMLUNIT
 70
     2
  9
$DIMLWD
 70
    -2
  9
$DIMLWE
 70
    -2
  9
$DIMTMOVE
 70
     0
  9
$LUNITS
 70
     2
  9
$LUPREC
 70
     2
  9
$SKETCHINC
 40
1.0
  9
$FILLETRAD
 40
10.0
  9
$AUNITS
 70
     0
  9
$AUPREC
 70
     2
  9
$MENU
  1
.
  9
$ELEVATION
 40
0.0
  9
$PELEVATION
 40
0.0
  9
$THICKNESS
 40
0.0
  9
$LIMCHECK
 70
     0
  9
$CHAMFERA
 40
0.0
  9
$CHAMFERB
 40
0.0
  9
$CHAMFERC
 40
0.0
  9
$CHAMFERD
 40
0.0
  9
$SKPOLY
 70
     0
  9
$TDCREATE
 40
2458260.56662691
  9
$TDUCREATE
 40
2458260.19162691
  9
$TDUPDATE
 40
2458271.436053623
  9
$TDUUPDATE
 40
2458271.061053623
  9
$TDINDWG
 40
0.0075257292
  9
$TDUSRTIMER
 40
0.0029444097
  9
$USRTIMER
 70
     1
  9
$ANGBASE
 50
0.0
  9
$ANGDIR
 70
     0
  9
$PDMODE
 70
     0
  9
$PDSIZE
 40
-1.0
  9
$PLINEWID
 40
0.0
  9
$SPLFRAME
 70
     0
  9
$SPLINETYPE
 70
     6
  9
$SPLINESEGS
 70
     8
  9
$HANDSEED
  5
68E
  9
$SURFTAB1
 70
     6
  9
$SURFTAB2
 70
     6
  9
$SURFTYPE
 70
     6
  9
$SURFU
 70
     6
  9
$SURFV
 70
     6
  9
$UCSBASE
  2

  9
$UCSNAME
  2

  9
$UCSORG
 10
0.0
 20
0.0
 30
0.0
  9
$UCSXDIR
 10
1.0
 20
0.0
 30
0.0
  9
$UCSYDIR
 10
0.0
 20
1.0
 30
0.0
  9
$UCSORTHOREF
  2

  9
$UCSORTHOVIEW
 70
     0
  9
$UCSORGTOP
 10
0.0
 20
0.0
 30
0.0
  9
$UCSORGBOTTOM
 10
0.0
 20
0.0
 30
0.0
  9
$UCSORGLEFT
 10
0.0
 20
0.0
 30
0.0
  9
$UCSORGRIGHT
 10
0.0
 20
0.0
 30
0.0
  9
$UCSORGFRONT
 10
0.0
 20
0.0
 30
0.0
  9
$UCSORGBACK
 10
0.0
 20
0.0
 30
0.0
  9
$PUCSBASE
  2

  9
$PUCSNAME
  2

  9
$PUCSORG
 10
0.0
 20
0.0
 30
0.0
  9
$PUCSXDIR
 10
1.0
 20
0.0
 30
0.0
  9
$PUCSYDIR
 10
0.0
 20
1.0
 30
0.0
  9
$PUCSORTHOREF
  2

  9
$PUCSORTHOVIEW
 70
     0
  9
$PUCSORGTOP
 10
0.0
 20
0.0
 30
0.0
  9
$PUCSORGBOTTOM
 10
0.0
 20
0.0
 30
0.0
  9
$PUCSORGLEFT
 10
0.0
 20
0.0
 30
0.0
  9
$PUCSORGRIGHT
 10
0.0
 20
0.0
 30
0.0
  9
$PUCSORGFRONT
 10
0.0
 20
0.0
 30
0.0
  9
$PUCSORGBACK
 10
0.0
 20
0.0
 30
0.0
  9
$USERI1
 70
     0
  9
$USERI2
 70
     0
  9
$USERI3
 70
     0
  9
$USERI4
 70
     0
  9
$USERI5
 70
     0
  9
$USERR1
 40
0.0
  9
$USERR2
 40
0.0
  9
$USERR3
 40
0.0
  9
$USERR4
 40
0.0
  9
$USERR5
 40
0.0
  9
$WORLDVIEW
 70
     1
  9
$SHADEDGE
 70
     3
  9
$SHADEDIF
 70
    70
  9
$TILEMODE
 70
     1
  9
$MAXACTVP
 70
    64
  9
$PINSBASE
 10
0.0
 20
0.0
 30
0.0
  9
$PLIMCHECK
 70
     0
  9
$PEXTMIN
 10
1.000000000000000E+20
 20
1.000000000000000E+20
 30
1.000000000000000E+20
  9
$PEXTMAX
 10
-1.000000000000000E+20
 20
-1.000000000000000E+20
 30
-1.000000000000000E+20
  9
$PLIMMIN
 10
0.0
 20
0.0
  9
$PLIMMAX
 10
0.0
 20
0.0
  9
$UNITMODE
 70
     0
  9
$VISRETAIN
 70
     1
  9
$PLINEGEN
 70
     0
  9
$PSLTSCALE
 70
     1
  9
$TREEDEPTH
 70
  3020
  9
$CMLSTYLE
  2
Standard
  9
$CMLJUST
 70
     0
  9
$CMLSCALE
 40
20.0
  9
$PROXYGRAPHICS
 70
     1
  9
$MEASUREMENT
 70
     1
  9
$CELWEIGHT
370
    -1
  9
$ENDCAPS
280
     0
  9
$JOINSTYLE
280
     0
  9
$LWDISPLAY
290
     1
  9
$INSUNITS
 70
     4
  9
$HYPERLINKBASE
  1

  9
$STYLESHEET
  1

  9
$XEDIT
290
     1
  9
$CEPSNTYPE
380
     0
  9
$PSTYLEMODE
290
     1
  9
$FINGERPRINTGUID
  2
{3302A753-AD44-43E8-AC2B-EFEEE30307AC}
  9
$VERSIONGUID
  2
{FAEB1C32-E019-11D5-929B-00C0DF256EC4}
  9
$EXTNAMES
290
     1
  9
$PSVPSCALE
 40
0.0
  9
$OLESTARTUP
290
     0
  0
ENDSEC
  0
SECTION
  2
CLASSES
  0
CLASS
  1
ACDBDICTIONARYWDFLT
  2
AcDbDictionaryWithDefault
  3
ObjectDBX Classes
 90
        0
280
     0
281
     0
  0
CLASS
  1
VISUALSTYLE
  2
AcDbVisualStyle
  3
ObjectDBX Classes
 90
     4095
280
     0
281
     0
  0
CLASS
  1
MATERIAL
  2
AcDbMaterial
  3
ObjectDBX Classes
 90
     1153
280
     0
281
     0
  0
CLASS
  1
SCALE
  2
AcDbScale
  3
ObjectDBX Classes
 90
     1153
280
     0
281
     0
  0
CLASS
  1
TABLESTYLE
  2
AcDbTableStyle
  3
ObjectDBX Classes
 90
     4095
280
     0
281
     0
  0
CLASS
  1
MLEADERSTYLE
  2
AcDbMLeaderStyle
  3
ACDB_MLEADERSTYLE_CLASS
 90
     4095
280
     0
281
     0
  0
CLASS
  1
SUN
  2
AcDbSun
  3
SCENEOE
 90
     1153
280
     0
281
     0
  0
CLASS
  1
ACDBPLACEHOLDER
  2
AcDbPlaceHolder
  3
ObjectDBX Classes
 90
        0
280
     0
281
     0
  0
CLASS
  1
LAYOUT
  2
AcDbLayout
  3
ObjectDBX Classes
 90
        0
280
     0
281
     0
  0
CLASS
  1
RASTERVARIABLES
  2
AcDbRasterVariables
  3
ISM
 90
        0
280
     0
281
     0
  0
CLASS
  1
DICTIONARYVAR
  2
AcDbDictionaryVar
  3
ObjectDBX Classes
 90
        0
280
     0
281
     0
  0
CLASS
  1
DIMASSOC
  2
AcDbDimAssoc
  3
"AcDbDimAssoc|Product Desc:     AcDim ARX App For Dimension|Company:          Autodesk, Inc.|WEB Address:      www.autodesk.com"
 90
        0
280
     0
281
     0
  0
ENDSEC
  0
SECTION
  2
TABLES
  0
TABLE
  2
VPORT
  5
8
330
0
100
AcDbSymbolTable
 70
     1
  0
VPORT
  5
29
330
8
100
AcDbSymbolTableRecord
100
AcDbViewportTableRecord
  2
*Active
 70
     0
 10
0.0
 20
0.0
 11
1.0
 21
1.0
 12
13.47297397778149
 22
-12.99793065123212
 13
0.0
 23
0.0
 14
10.0
 24
10.0
 15
10.0
 25
10.0
 16
0.0
 26
0.0
 36
1.0
 17
0.0
 27
0.0
 37
0.0
 40
118.6225424964421
 41
2.174863387978142
 42
50.0
 43
0.0
 44
0.0
 50
0.0
 51
0.0
 71
    16
 72
  2000
 73
     1
 74
     3
 75
     0
 76
     0
 77
     0
 78
     0
281
     0
 65
     1
110
0.0
120
0.0
130
0.0
111
1.0
121
0.0
131
0.0
112
0.0
122
1.0
132
0.0
 79
     0
146
0.0
  0
ENDTAB
  0
TABLE
  2
LTYPE
  5
5
330
0
100
AcDbSymbolTable
 70
     6
  0
LTYPE
  5
14
330
5
100
AcDbSymbolTableRecord
100
AcDbLinetypeTableRecord
  2
ByBlock
 70
     0
  3

 72
    65
 73
     0
 40
0.0
  0
LTYPE
  5
15
330
5
100
AcDbSymbolTableRecord
100
AcDbLinetypeTableRecord
  2
ByLayer
 70
     0
  3

 72
    65
 73
     0
 40
0.0
  0
LTYPE
  5
16
330
5
100
AcDbSymbolTableRecord
100
AcDbLinetypeTableRecord
  2
Continuous
 70
     0
  3
Solid line
 72
    65
 73
     0
 40
0.0
  0
LTYPE
  5
6E
330
5
100
AcDbSymbolTableRecord
100
AcDbLinetypeTableRecord
  2
HIDDEN
 70
     0
  3
Hidden __ __ __ __ __ __ __ __ __ __ __ __ __ __
 72
    65
 73
     2
 40
1.905
 49
1.27
 74
     0
 49
-0.635
 74
     0
  0
LTYPE
  5
6F
330
5
100
AcDbSymbolTableRecord
100
AcDbLinetypeTableRecord
  2
PHANTOM
 70
     0
  3
Phantom ______  __  __  ______  __  __  ______
 72
    65
 73
     6
 40
12.7
 49
6.35
 74
     0
 49
-1.27
 74
     0
 49
1.27
 74
     0
 49
-1.27
 74
     0
 49
1.27
 74
     0
 49
-1.27
 74
     0
  0
LTYPE
  5
70
330
5
100
AcDbSymbolTableRecord
100
AcDbLinetypeTableRecord
  2
CENTER
 70
     0
  3
Center ____ _ ____ _ ____ _ ____ _ ____ _ ____
 72
    65
 73
     4
 40
10.16
 49
6.35
 74
     0
 49
-1.27
 74
     0
 49
1.27
 74
     0
 49
-1.27
 74
     0
  0
LTYPE
  5
71
330
5
100
AcDbSymbolTableRecord
100
AcDbLinetypeTableRecord
  2
CENTERX2
 70
     0
  3
Center (2x) ________  __  ________  __  _____
 72
    65
 73
     4
 40
20.32
 49
12.7
 74
     0
 49
-2.54
 74
     0
 49
2.54
 74
     0
 49
-2.54
 74
     0
  0
LTYPE
  5
72
330
5
100
AcDbSymbolTableRecord
100
AcDbLinetypeTableRecord
  2
DOT2
 70
     0
  3
Dot (.5x) ........................................
 72
    65
 73
     2
 40
0.635
 49
0.0
 74
     0
 49
-0.635
 74
     0
  0
ENDTAB
  0
TABLE
  2
LAYER
  5
2
102
{ACAD_XDICTIONARY
360
3E6
102
}
330
0
100
AcDbSymbolTable
 70
    18
  0
LAYER
  5
10
330
2
100
AcDbSymbolTableRecord
100
AcDbLayerTableRecord
  2
0
 70
     0
 62
     7
  6
Continuous
370
    -3
390
F
  0
LAYER
  5
73
330
2
100
AcDbSymbolTableRecord
100
AcDbLayerTableRecord
  2
FORMAT
 70
     0
 62
     2
  6
Continuous
370
    -3
390
F
  0
LAYER
  5
74
330
2
100
AcDbSymbolTableRecord
100
AcDbLayerTableRecord
  2
외형선
 70
     0
 62
     4
  6
Continuous
370
    35
390
F
  0
LAYER
  5
75
330
2
100
AcDbSymbolTableRecord
100
AcDbLayerTableRecord
  2
숨은선
 70
     0
 62
     2
  6
HIDDEN
370
    25
390
F
  0
LAYER
  5
76
330
2
100
AcDbSymbolTableRecord
100
AcDbLayerTableRecord
  2
중심선
 70
     0
 62
     1
  6
CENTERX2
370
    -3
390
F
  0
LAYER
  5
77
330
2
100
AcDbSymbolTableRecord
100
AcDbLayerTableRecord
  2
파단선
 70
     0
 62
     4
  6
Continuous
370
    -3
390
F
  0
LAYER
  5
78
330
2
100
AcDbSymbolTableRecord
100
AcDbLayerTableRecord
  2
해칭선
 70
     0
 62
     3
  6
Continuous
370
    -3
390
F
  0
LAYER
  5
79
330
2
100
AcDbSymbolTableRecord
100
AcDbLayerTableRecord
  2
가는실선
 70
     0
 62
     4
  6
Continuous
370
    -3
390
F
  0
LAYER
  5
7A
330
2
100
AcDbSymbolTableRecord
100
AcDbLayerTableRecord
  2
치수_보조선
 70
     0
 62
     4
  6
Continuous
370
    -3
390
F
  0
LAYER
  5
7B
330
2
100
AcDbSymbolTableRecord
100
AcDbLayerTableRecord
  2
치수문자_일반주서
 70
     0
 62
     7
  6
Continuous
370
    25
390
F
  0
LAYER
  5
7C
330
2
100
AcDbSymbolTableRecord
100
AcDbLayerTableRecord
  2
개별주서
 70
     0
 62
   100
  6
Continuous
370
    35
390
F
  0
LAYER
  5
7D
330
2
100
AcDbSymbolTableRecord
100
AcDbLayerTableRecord
  2
중간선
 70
     0
 62
     2
  6
Continuous
370
    25
390
F
  0
LAYER
  5
7E
330
2
100
AcDbSymbolTableRecord
100
AcDbLayerTableRecord
  2
윤곽선
 70
     0
 62
     3
  6
Continuous
370
    50
390
F
  0
LAYER
  5
7F
330
2
100
AcDbSymbolTableRecord
100
AcDbLayerTableRecord
  2
중심마크
 70
     0
 62
   100
  6
Continuous
370
    35
390
F
  0
LAYER
  5
80
330
2
100
AcDbSymbolTableRecord
100
AcDbLayerTableRecord
  2
가상선
 70
     0
 62
     4
  6
PHANTOM
370
    -3
390
F
  0
LAYER
  5
81
330
2
100
AcDbSymbolTableRecord
100
AcDbLayerTableRecord
  2
특수지정선
 70
     0
 62
     5
  6
CENTERX2
370
    70
390
F
  0
LAYER
  5
14A
330
2
100
AcDbSymbolTableRecord
100
AcDbLayerTableRecord
  2
Defpoints
 70
     0
 62
     7
  6
Continuous
290
     0
370
    -3
390
F
  0
LAYER
  5
4BD
330
2
100
AcDbSymbolTableRecord
100
AcDbLayerTableRecord
  2
참조1
 70
     0
 62
    -4
  6
Continuous
370
    -3
390
F
  0
ENDTAB
  0
TABLE
  2
STYLE
  5
3
330
0
100
AcDbSymbolTable
 70
     2
  0
STYLE
  5
11
330
3
100
AcDbSymbolTableRecord
100
AcDbTextStyleTableRecord
  2
Standard
 70
     0
 40
0.0
 41
1.0
 50
0.0
 71
     0
 42
3.5
  3
txt
  4

  0
STYLE
  5
97
330
3
100
AcDbSymbolTableRecord
100
AcDbTextStyleTableRecord
  2
SLDTEXTSTYLE0
 70
     0
 40
0.0
 41
0.75
 50
0.0
 71
     0
 42
3.5
  3
TXT
  4

  0
ENDTAB
  0
TABLE
  2
VIEW
  5
6
330
0
100
AcDbSymbolTable
 70
     0
  0
ENDTAB
  0
TABLE
  2
UCS
  5
7
330
0
100
AcDbSymbolTable
 70
     0
  0
ENDTAB
  0
TABLE
  2
APPID
  5
9
330
0
100
AcDbSymbolTable
 70
     5
  0
APPID
  5
12
330
9
100
AcDbSymbolTableRecord
100
AcDbRegAppTableRecord
  2
ACAD
 70
     0
  0
APPID
  5
15E
330
9
100
AcDbSymbolTableRecord
100
AcDbRegAppTableRecord
  2
ACAD_DSTYLE_DIMFLIPARROW_SYMBOL
 70
     0
  0
APPID
  5
15F
330
9
100
AcDbSymbolTableRecord
100
AcDbRegAppTableRecord
  2
ACAD_DSTYLE_DIMFLIPARROW_WHICH_SYMBOL
 70
     0
  0
APPID
  5
334
330
9
100
AcDbSymbolTableRecord
100
AcDbRegAppTableRecord
  2
PE_URL
 70
     0
  0
APPID
  5
351
330
9
100
AcDbSymbolTableRecord
100
AcDbRegAppTableRecord
  2
ACAD_DSTYLE_DIMRADIAL_EXTENSION
 70
     0
  0
ENDTAB
  0
TABLE
  2
DIMSTYLE
  5
A
330
0
100
AcDbSymbolTable
 70
     5
100
AcDbDimStyleTable
  0
DIMSTYLE
105
27
330
A
100
AcDbSymbolTableRecord
100
AcDbDimStyleTableRecord
  2
ISO-25
 70
     0
 41
2.5
 42
0.625
 43
3.75
 44
1.25
 73
     0
 74
     0
 77
     1
 78
     8
140
2.5
141
2.5
143
0.03937007874016
147
0.625
171
     3
172
     1
178
     0
271
     2
272
     2
274
     3
278
    44
283
     0
284
     8
340
11
  0
DIMSTYLE
105
ED
102
{ACAD_REACTORS
330
2F2
330
2F5
330
2F3
330
2F6
330
2F4
330
53F
330
556
330
56F
330
680
102
}
330
A
100
AcDbSymbolTableRecord
100
AcDbDimStyleTableRecord
  2
SLDDIMSTYLE0
 70
     0
 41
3.302
 44
0.0
 45
0.000000001
 73
     0
 74
     0
 77
     1
 78
    12
 79
     3
140
3.5
147
0.875
172
     1
173
     1
178
     0
271
     1
272
     1
276
     2
284
    12
289
     0
340
97
  0
DIMSTYLE
105
FB
102
{ACAD_REACTORS
330
54C
102
}
330
A
100
AcDbSymbolTableRecord
100
AcDbDimStyleTableRecord
  2
SLDDIMSTYLE1
 70
     0
 41
3.302
 44
0.0
 45
0.000000001
 73
     0
 74
     0
 77
     1
 78
    12
 79
     3
140
3.5
147
0.875
173
     1
178
     0
271
     2
272
     2
276
     2
284
    12
340
97
  0
DIMSTYLE
105
106
102
{ACAD_REACTORS
330
563
102
}
330
A
100
AcDbSymbolTableRecord
100
AcDbDimStyleTableRecord
  2
SLDDIMSTYLE2
 70
     0
 41
3.302
 44
0.0
 45
0.000000001
 73
     0
 74
     0
 77
     1
 78
    12
 79
     3
140
3.5
147
0.875
172
     1
173
     1
178
     0
271
     2
272
     2
276
     2
284
    12
289
     0
340
97
  0
DIMSTYLE
105
4C4
102
{ACAD_REACTORS
330
57B
102
}
330
A
100
AcDbSymbolTableRecord
100
AcDbDimStyleTableRecord
  2
SLDDIMSTYLE3
 70
     0
 41
3.302
 44
0.0
 45
0.000000001
 73
     0
 74
     0
 77
     1
140
3.5
141
0.0
147
0.875
173
     1
178
     0
271
     2
272
     2
276
     2
284
    12
340
97
  0
ENDTAB
  0
TABLE
  2
BLOCK_RECORD
  5
1
330
0
100
AcDbSymbolTable
 70
    42
  0
BLOCK_RECORD
  5
1F
330
1
100
AcDbSymbolTableRecord
100
AcDbBlockTableRecord
  2
*Model_Space
340
22
  0
BLOCK_RECORD
  5
1B
330
1
100
AcDbSymbolTableRecord
100
AcDbBlockTableRecord
  2
*Paper_Space
340
1E
  0
BLOCK_RECORD
  5
23
330
1
100
AcDbSymbolTableRecord
100
AcDbBlockTableRecord
  2
*Paper_Space0
340
26
  0
BLOCK_RECORD
  5
82
330
1
100
AcDbSymbolTableRecord
100
AcDbBlockTableRecord
  2
블럭10
340
0
102
{BLKREFS
331
E5
331
520
331
0
102
}
  0
BLOCK_RECORD
  5
EE
330
1
100
AcDbSymbolTableRecord
100
AcDbBlockTableRecord
  2
_D
340
0
  0
BLOCK_RECORD
  5
FC
330
1
100
AcDbSymbolTableRecord
100
AcDbBlockTableRecord
  2
_D_1
340
0
  0
BLOCK_RECORD
  5
107
330
1
100
AcDbSymbolTableRecord
100
AcDbBlockTableRecord
  2
_D_2
340
0
  0
BLOCK_RECORD
  5
114
330
1
100
AcDbSymbolTableRecord
100
AcDbBlockTableRecord
  2
_D_3
340
0
  0
BLOCK_RECORD
  5
11F
330
1
100
AcDbSymbolTableRecord
100
AcDbBlockTableRecord
  2
SW_DOWELSYMBOL_0
340
0
102
{BLKREFS
331
0
331
58A
331
62D
102
}
  0
BLOCK_RECORD
  5
266
330
1
100
AcDbSymbolTableRecord
100
AcDbBlockTableRecord
  2
_D_4
340
0
  0
BLOCK_RECORD
  5
27A
330
1
100
AcDbSymbolTableRecord
100
AcDbBlockTableRecord
  2
*D8
340
0
  0
BLOCK_RECORD
  5
286
330
1
100
AcDbSymbolTableRecord
100
AcDbBlockTableRecord
  2
*D9
340
0
  0
BLOCK_RECORD
  5
292
330
1
100
AcDbSymbolTableRecord
100
AcDbBlockTableRecord
  2
*D10
340
0
  0
BLOCK_RECORD
  5
29E
330
1
100
AcDbSymbolTableRecord
100
AcDbBlockTableRecord
  2
*D11
340
0
  0
BLOCK_RECORD
  5
2F8
330
1
100
AcDbSymbolTableRecord
100
AcDbBlockTableRecord
  2
*D12
340
0
  0
BLOCK_RECORD
  5
304
330
1
100
AcDbSymbolTableRecord
100
AcDbBlockTableRecord
  2
*D13
340
0
  0
BLOCK_RECORD
  5
310
330
1
100
AcDbSymbolTableRecord
100
AcDbBlockTableRecord
  2
*D14
340
0
  0
BLOCK_RECORD
  5
31C
330
1
100
AcDbSymbolTableRecord
100
AcDbBlockTableRecord
  2
*D15
340
0
  0
BLOCK_RECORD
  5
328
330
1
100
AcDbSymbolTableRecord
100
AcDbBlockTableRecord
  2
*D16
340
0
  0
BLOCK_RECORD
  5
355
330
1
100
AcDbSymbolTableRecord
100
AcDbBlockTableRecord
  2
*D17
340
0
  0
BLOCK_RECORD
  5
38B
330
1
100
AcDbSymbolTableRecord
100
AcDbBlockTableRecord
  2
*D18
340
0
  0
BLOCK_RECORD
  5
398
330
1
100
AcDbSymbolTableRecord
100
AcDbBlockTableRecord
  2
*D19
340
0
  0
BLOCK_RECORD
  5
3A5
330
1
100
AcDbSymbolTableRecord
100
AcDbBlockTableRecord
  2
*D20
340
0
  0
BLOCK_RECORD
  5
3B2
330
1
100
AcDbSymbolTableRecord
100
AcDbBlockTableRecord
  2
*D21
340
0
  0
BLOCK_RECORD
  5
3D6
330
1
100
AcDbSymbolTableRecord
100
AcDbBlockTableRecord
  2
*D22
340
0
  0
BLOCK_RECORD
  5
40E
330
1
100
AcDbSymbolTableRecord
100
AcDbBlockTableRecord
  2
*D23
340
0
  0
BLOCK_RECORD
  5
41A
330
1
100
AcDbSymbolTableRecord
100
AcDbBlockTableRecord
  2
*D24
340
0
  0
BLOCK_RECORD
  5
426
330
1
100
AcDbSymbolTableRecord
100
AcDbBlockTableRecord
  2
*D25
340
0
  0
BLOCK_RECORD
  5
432
330
1
100
AcDbSymbolTableRecord
100
AcDbBlockTableRecord
  2
*D26
340
0
  0
BLOCK_RECORD
  5
441
330
1
100
AcDbSymbolTableRecord
100
AcDbBlockTableRecord
  2
*D27
340
0
  0
BLOCK_RECORD
  5
57C
330
1
100
AcDbSymbolTableRecord
100
AcDbBlockTableRecord
  2
_D_5
340
0
  0
BLOCK_RECORD
  5
593
330
1
100
AcDbSymbolTableRecord
100
AcDbBlockTableRecord
  2
*D30
340
0
  0
BLOCK_RECORD
  5
59F
330
1
100
AcDbSymbolTableRecord
100
AcDbBlockTableRecord
  2
*D31
340
0
  0
BLOCK_RECORD
  5
5AB
330
1
100
AcDbSymbolTableRecord
100
AcDbBlockTableRecord
  2
*D32
340
0
  0
BLOCK_RECORD
  5
5BA
330
1
100
AcDbSymbolTableRecord
100
AcDbBlockTableRecord
  2
*D33
340
0
  0
BLOCK_RECORD
  5
5C9
330
1
100
AcDbSymbolTableRecord
100
AcDbBlockTableRecord
  2
*D34
340
0
  0
BLOCK_RECORD
  5
62E
330
1
100
AcDbSymbolTableRecord
100
AcDbBlockTableRecord
  2
*D35
340
0
  0
BLOCK_RECORD
  5
63A
330
1
100
AcDbSymbolTableRecord
100
AcDbBlockTableRecord
  2
*D36
340
0
  0
BLOCK_RECORD
  5
646
330
1
100
AcDbSymbolTableRecord
100
AcDbBlockTableRecord
  2
*D37
340
0
  0
BLOCK_RECORD
  5
655
330
1
100
AcDbSymbolTableRecord
100
AcDbBlockTableRecord
  2
*D38
340
0
  0
BLOCK_RECORD
  5
664
330
1
100
AcDbSymbolTableRecord
100
AcDbBlockTableRecord
  2
*D39
340
0
  0
BLOCK_RECORD
  5
673
330
1
100
AcDbSymbolTableRecord
100
AcDbBlockTableRecord
  2
*D40
340
0
  0
BLOCK_RECORD
  5
683
330
1
100
AcDbSymbolTableRecord
100
AcDbBlockTableRecord
  2
*D41
340
0
  0
ENDTAB
  0
ENDSEC
  0
SECTION
  2
BLOCKS
  0
BLOCK
  5
20
330
1F
100
AcDbEntity
  8
0
100
AcDbBlockBegin
  2
*Model_Space
 70
     0
 10
0.0
 20
0.0
 30
0.0
  3
*Model_Space
  1
*Model_Space
  0
ENDBLK
  5
21
330
1F
100
AcDbEntity
  8
0
100
AcDbBlockEnd
  0
BLOCK
  5
1C
330
1B
100
AcDbEntity
 67
     1
  8
0
100
AcDbBlockBegin
  2
*Paper_Space
 70
     0
 10
0.0
 20
0.0
 30
0.0
  3
*Paper_Space
  1
*Paper_Space
  0
ENDBLK
  5
1D
330
1B
100
AcDbEntity
 67
     1
  8
0
100
AcDbBlockEnd
  0
BLOCK
  5
24
330
23
100
AcDbEntity
  8
0
100
AcDbBlockBegin
  2
*Paper_Space0
 70
     0
 10
0.0
 20
0.0
 30
0.0
  3
*Paper_Space0
  1
*Paper_Space0
  0
ENDBLK
  5
25
330
23
100
AcDbEntity
  8
0
100
AcDbBlockEnd
  0
BLOCK
  5
83
330
82
100
AcDbEntity
  8
0
100
AcDbBlockBegin
  2
블럭10
 70
     2
 10
0.0
 20
0.0
 30
0.0
  3
블럭10
  1
블럭10
  0
ELLIPSE
  5
85
330
82
100
AcDbEntity
  8
중심선
100
AcDbEllipse
 10
20.54032771741204
 20
12.0471743016438
 30
0.0
 11
6.600054785286829
 21
-1.261213355974178E-13
 31
0.0
210
0.0
220
0.0
230
1.0
 40
0.636358354079598
 41
0.9219305317359503
 42
6.513795318482858
  0
ELLIPSE
  5
86
330
82
100
AcDbEntity
  8
중심선
100
AcDbEllipse
 10
20.54032771746488
 20
12.04717430159265
 30
0.0
 11
3.960054785062283
 21
1.540847449632565E-10
 31
0.0
210
0.0
220
0.0
230
1.0
 40
0.3939339440162632
 41
1.131841032648279
 42
5.62031148352944
  0
LINE
  5
87
330
82
100
AcDbEntity
  8
중심선
100
AcDbLine
 10
2.268634060543552
 20
16.24717430164393
 30
0.0
 11
5.714909304380834
 21
16.24717430164393
 31
0.0
  0
LINE
  5
88
330
82
100
AcDbEntity
  8
중심선
100
AcDbLine
 10
5.245725140726316
 20
7.84717430164391
 30
0.0
 11
8.692000384563599
 21
7.84717430164391
 31
0.0
  0
LINE
  5
89
330
82
100
AcDbEntity
  8
중심선
100
AcDbLine
 10
15.74043728645272
 20
16.24717430164393
 30
0.0
 11
8.692000384563599
 21
7.84717430164391
 31
0.0
  0
LINE
  5
8A
330
82
100
AcDbEntity
  8
중심선
100
AcDbLine
 10
0.1404042013395286
 20
13.71084872107135
 30
0.0
 11
3.58671253028996
 21
13.71088815037384
 31
0.0
  0
LINE
  5
8B
330
82
100
AcDbEntity
  8
중심선
100
AcDbLine
 10
2.750260043222114
 20
10.84717430164391
 30
0.0
 11
6.196535287059397
 21
10.84717430164391
 31
0.0
  0
LINE
  5
8C
330
82
100
AcDbEntity
  8
중심선
100
AcDbLine
 10
12.29416204261559
 20
16.24717430164393
 30
0.0
 11
5.245725140726316
 21
7.84717430164391
 31
0.0
  0
LINE
  5
8D
330
82
100
AcDbEntity
  8
중심선
100
AcDbLine
 10
10.72767329541681
 20
16.24717430164393
 30
0.0
 11
6.196535287059397
 21
10.84717430164391
 31
0.0
  0
LINE
  5
8E
330
82
100
AcDbEntity
  8
중심선
100
AcDbLine
 10
7.28139805157953
 20
16.24717430164393
 30
0.0
 11
2.750260043222114
 21
10.84717430164391
 31
0.0
  0
LINE
  5
8F
330
82
100
AcDbEntity
  8
중심선
100
AcDbLine
 10
5.714909304380834
 20
16.24717430164393
 30
0.0
 11
3.58671253028996
 21
13.71088815037384
 31
0.0
  0
LINE
  5
90
330
82
100
AcDbEntity
  8
중심선
100
AcDbLine
 10
2.268634060543552
 20
16.24717430164393
 30
0.0
 11
0.1404042013395286
 21
13.71084872107135
 31
0.0
  0
LINE
  5
91
330
82
100
AcDbEntity
  8
중심선
100
AcDbLine
 10
7.28139805157953
 20
16.24717430164393
 30
0.0
 11
10.72767329541681
 21
16.24717430164393
 31
0.0
  0
LINE
  5
92
330
82
100
AcDbEntity
  8
중심선
100
AcDbLine
 10
12.29416204261559
 20
16.24717430164393
 30
0.0
 11
15.74043728645272
 21
16.24717430164393
 31
0.0
  0
LINE
  5
93
330
82
100
AcDbEntity
  8
중심선
100
AcDbLine
 10
19.22036997980202
 20
11.08717430171403
 30
0.0
 11
23.66174974927406
 21
11.08717430171406
 31
0.0
  0
LINE
  5
94
330
82
100
AcDbEntity
  8
중심선
100
AcDbLine
 10
19.22039502424796
 20
13.00717430171391
 30
0.0
 11
19.22036997980202
 21
11.08717430171403
 31
0.0
  0
LINE
  5
95
330
82
100
AcDbEntity
  8
중심선
100
AcDbLine
 10
19.22039502424796
 20
13.00717430171391
 30
0.0
 11
26.96566020931264
 21
13.00717430171391
 31
0.0
  0
LINE
  5
96
330
82
100
AcDbEntity
  8
중심선
100
AcDbLine
 10
22.22332737316547
 20
13.45928029700563
 30
0.0
 11
24.52862924686651
 21
15.39360700705356
 31
0.0
  0
ATTDEF
  5
98
330
82
100
AcDbEntity
  8
FORMAT
 62
     2
100
AcDbText
 10
-16.11926103943555
 20
2.075366912832191
 30
0.0
 40
4.233333333333333
  1
SEME7201506E [ 4 FLUTE ]
 41
0.75
  7
SLDTEXTSTYLE0
 11
-16.11926103943555
 21
-0.0412997538344756
 31
0.0
100
AcDbAttributeDefinition
  3

  2
AUTOATTR0
 70
     0
 74
     1
  0
ENDBLK
  5
84
330
82
100
AcDbEntity
  8
0
100
AcDbBlockEnd
  0
BLOCK
  5
EF
330
EE
100
AcDbEntity
  8
0
100
AcDbBlockBegin
  2
_D
 70
     0
 10
0.0
 20
0.0
 30
0.0
  3
_D
  1
_D
  0
LINE
  5
F1
330
EE
100
AcDbEntity
  8
치수문자_일반주서
 62
     0
370
    -2
100
AcDbLine
 10
15.45961431702996
 20
-0.7500000000000057
 30
0.0
 11
23.39711431702994
 21
-0.7499999999999787
 31
0.0
  0
LINE
  5
F2
330
EE
100
AcDbEntity
  8
치수문자_일반주서
 62
     0
370
    -2
100
AcDbLine
 10
15.45961431702996
 20
0.7500000000000061
 30
0.0
 11
23.39711431702993
 21
0.7500000000000355
 31
0.0
  0
LINE
  5
F3
330
EE
100
AcDbEntity
  8
치수문자_일반주서
 62
     0
370
    -2
100
AcDbLine
 10
23.39711431702993
 20
0.7500000000000355
 30
0.0
 11
23.39711431702989
 21
19.47900000000003
 31
0.0
  0
LINE
  5
F4
330
EE
100
AcDbEntity
  8
치수문자_일반주서
 62
     0
370
    -2
100
AcDbLine
 10
23.39711431702994
 20
-0.7499999999999787
 30
0.0
 11
23.39711431702993
 21
0.7500000000000355
 31
0.0
  0
LINE
  5
F5
330
EE
100
AcDbEntity
  8
치수문자_일반주서
 62
     0
370
    -2
100
AcDbLine
 10
23.39711431702995
 20
-3.249999999999979
 30
0.0
 11
23.39711431702995
 21
-5.749999999999979
 31
0.0
  0
LINE
  5
F6
330
EE
100
AcDbEntity
  8
치수문자_일반주서
 62
     0
370
    -2
100
AcDbLine
 10
23.39711431702993
 20
3.250000000000036
 30
0.0
 11
23.39711431702992
 21
5.750000000000036
 31
0.0
  0
SOLID
  5
F7
330
EE
100
AcDbEntity
  8
치수문자_일반주서
 62
     0
100
AcDbTrace
 10
23.81378098369661
 20
-3.249999999999978
 30
0.0
 11
22.98044765036328
 21
-3.24999999999998
 31
0.0
 12
23.39711431702994
 22
-0.7499999999999787
 32
0.0
 13
23.39711431702994
 23
-0.7499999999999787
 33
0.0
  0
SOLID
  5
F8
330
EE
100
AcDbEntity
  8
치수문자_일반주서
 62
     0
100
AcDbTrace
 10
22.98044765036326
 20
3.250000000000035
 30
0.0
 11
23.8137809836966
 21
3.250000000000036
 31
0.0
 12
23.39711431702993
 22
0.7500000000000355
 32
0.0
 13
23.39711431702993
 23
0.7500000000000355
 33
0.0
  0
MTEXT
  5
F9
330
EE
100
AcDbEntity
  8
치수문자_일반주서
 62
     0
100
AcDbMText
 10
20.0221143170299
 20
16.10400000000002
 30
0.0
 40
2.5
 41
0.0
 71
     2
 72
     1
  1
\A1;%%c1.5
  7
SLDTEXTSTYLE0
 11
-2.368475785866982E-15
 21
1.0
 31
0.0
 73
     1
 44
1.0
  0
POINT
  5
14B
330
EE
100
AcDbEntity
  8
Defpoints
 62
     0
100
AcDbPoint
 10
15.39711431702996
 20
-0.7500000000000059
 30
0.0
  0
POINT
  5
14C
330
EE
100
AcDbEntity
  8
Defpoints
 62
     0
100
AcDbPoint
 10
15.39711431702996
 20
0.7500000000000059
 30
0.0
  0
POINT
  5
14D
330
EE
100
AcDbEntity
  8
Defpoints
 62
     0
100
AcDbPoint
 10
23.39711431702993
 20
0.7500000000000357
 30
0.0
  0
ENDBLK
  5
F0
330
EE
100
AcDbEntity
  8
0
100
AcDbBlockEnd
  0
BLOCK
  5
FD
330
FC
100
AcDbEntity
  8
0
100
AcDbBlockBegin
  2
_D_1
 70
     0
 10
0.0
 20
0.0
 30
0.0
  3
_D_1
  1
_D_1
  0
LINE
  5
FF
330
FC
100
AcDbEntity
  8
치수문자_일반주서
 62
     0
370
    -2
100
AcDbLine
 10
-44.60288568297005
 20
2.562499999999994
 30
0.0
 11
-44.60288568297005
 21
20.38913260158164
 31
0.0
  0
LINE
  5
100
330
FC
100
AcDbEntity
  8
치수문자_일반주서
 62
     0
370
    -2
100
AcDbLine
 10
15.39711431702995
 20
0.8125000000000016
 30
0.0
 11
15.39711431702995
 21
20.38913260158164
 31
0.0
  0
LINE
  5
101
330
FC
100
AcDbEntity
  8
치수문자_일반주서
 62
     0
370
    -2
100
AcDbLine
 10
-42.10288568297005
 20
20.38913260158164
 30
0.0
 11
12.89711431702995
 21
20.38913260158164
 31
0.0
  0
SOLID
  5
102
330
FC
100
AcDbEntity
  8
치수문자_일반주서
 62
     0
100
AcDbTrace
 10
-42.10288568297005
 20
20.80579926824831
 30
0.0
 11
-42.10288568297005
 21
19.97246593491497
 31
0.0
 12
-44.60288568297005
 22
20.38913260158164
 32
0.0
 13
-44.60288568297005
 23
20.38913260158164
 33
0.0
  0
SOLID
  5
103
330
FC
100
AcDbEntity
  8
치수문자_일반주서
 62
     0
100
AcDbTrace
 10
12.89711431702995
 20
19.97246593491497
 30
0.0
 11
12.89711431702995
 21
20.80579926824831
 31
0.0
 12
15.39711431702995
 22
20.38913260158164
 32
0.0
 13
15.39711431702995
 23
20.38913260158164
 33
0.0
  0
MTEXT
  5
104
330
FC
100
AcDbEntity
  8
치수문자_일반주서
 62
     0
100
AcDbMText
 10
-14.60288568297005
 20
23.76413260158164
 30
0.0
 40
2.5
 41
0.0
 71
     2
 72
     1
  1
\A1;60
  7
SLDTEXTSTYLE0
 73
     1
 44
1.0
  0
POINT
  5
155
330
FC
100
AcDbEntity
  8
Defpoints
 62
     0
100
AcDbPoint
 10
-44.60288568297005
 20
2.499999999999994
 30
0.0
  0
POINT
  5
156
330
FC
100
AcDbEntity
  8
Defpoints
 62
     0
100
AcDbPoint
 10
15.39711431702995
 20
0.7500000000000016
 30
0.0
  0
POINT
  5
157
330
FC
100
AcDbEntity
  8
Defpoints
 62
     0
100
AcDbPoint
 10
15.39711431702995
 20
20.38913260158164
 30
0.0
  0
ENDBLK
  5
FE
330
FC
100
AcDbEntity
  8
0
100
AcDbBlockEnd
  0
BLOCK
  5
108
330
107
100
AcDbEntity
  8
0
100
AcDbBlockBegin
  2
_D_2
 70
     0
 10
0.0
 20
0.0
 30
0.0
  3
_D_2
  1
_D_2
  0
LINE
  5
10A
330
107
100
AcDbEntity
  8
치수문자_일반주서
 62
     0
370
    -2
100
AcDbLine
 10
-44.16538568297004
 20
3.000000000000004
 30
0.0
 11
-52.60288568297007
 21
2.999999999999972
 31
0.0
  0
LINE
  5
10B
330
107
100
AcDbEntity
  8
치수문자_일반주서
 62
     0
370
    -2
100
AcDbLine
 10
-44.16538568297004
 20
-3.000000000000003
 30
0.0
 11
-52.60288568297005
 21
-3.000000000000034
 31
0.0
  0
LINE
  5
10C
330
107
100
AcDbEntity
  8
치수문자_일반주서
 62
     0
370
    -2
100
AcDbLine
 10
-52.60288568297007
 20
2.999999999999972
 30
0.0
 11
-52.60288568297011
 21
15.10399999999998
 31
0.0
  0
LINE
  5
10D
330
107
100
AcDbEntity
  8
치수문자_일반주서
 62
     0
370
    -2
100
AcDbLine
 10
-52.60288568297007
 20
2.999999999999972
 30
0.0
 11
-52.60288568297005
 21
-3.000000000000034
 31
0.0
  0
LINE
  5
10E
330
107
100
AcDbEntity
  8
치수문자_일반주서
 62
     0
370
    -2
100
AcDbLine
 10
-52.60288568297008
 20
5.499999999999972
 30
0.0
 11
-52.60288568297008
 21
7.999999999999972
 31
0.0
  0
LINE
  5
10F
330
107
100
AcDbEntity
  8
치수문자_일반주서
 62
     0
370
    -2
100
AcDbLine
 10
-52.60288568297004
 20
-5.500000000000034
 30
0.0
 11
-52.60288568297003
 21
-8.000000000000034
 31
0.0
  0
SOLID
  5
110
330
107
100
AcDbEntity
  8
치수문자_일반주서
 62
     0
100
AcDbTrace
 10
-53.01955234963674
 20
5.49999999999997
 30
0.0
 11
-52.18621901630341
 21
5.499999999999973
 31
0.0
 12
-52.60288568297007
 22
2.999999999999972
 32
0.0
 13
-52.60288568297007
 23
2.999999999999972
 33
0.0
  0
SOLID
  5
111
330
107
100
AcDbEntity
  8
치수문자_일반주서
 62
     0
100
AcDbTrace
 10
-52.18621901630338
 20
-5.500000000000032
 30
0.0
 11
-53.0195523496367
 21
-5.500000000000036
 31
0.0
 12
-52.60288568297005
 22
-3.000000000000034
 32
0.0
 13
-52.60288568297005
 23
-3.000000000000034
 33
0.0
  0
MTEXT
  5
112
330
107
100
AcDbEntity
  8
치수문자_일반주서
 62
     0
100
AcDbMText
 10
-55.9778856829701
 20
12.66649999999997
 30
0.0
 40
2.5
 41
0.0
 71
     2
 72
     1
  1
\A1;%%c6
  7
SLDTEXTSTYLE0
 11
-3.552713678800497E-15
 21
1.0
 31
0.0
 73
     1
 44
1.0
  0
POINT
  5
14E
330
107
100
AcDbEntity
  8
Defpoints
 62
     0
100
AcDbPoint
 10
-44.10288568297004
 20
3.000000000000004
 30
0.0
  0
POINT
  5
150
330
107
100
AcDbEntity
  8
Defpoints
 62
     0
100
AcDbPoint
 10
-44.10288568297004
 20
-3.000000000000002
 30
0.0
  0
POINT
  5
151
330
107
100
AcDbEntity
  8
Defpoints
 62
     0
100
AcDbPoint
 10
-52.60288568297005
 20
-3.000000000000034
 30
0.0
  0
ENDBLK
  5
109
330
107
100
AcDbEntity
  8
0
100
AcDbBlockEnd
  0
BLOCK
  5
115
330
114
100
AcDbEntity
  8
0
100
AcDbBlockBegin
  2
_D_3
 70
     0
 10
0.0
 20
0.0
 30
0.0
  3
_D_3
  1
_D_3
  0
LINE
  5
117
330
114
100
AcDbEntity
  8
치수문자_일반주서
 62
     0
370
    -2
100
AcDbLine
 10
9.397114317029953
 20
0.7753026673412241
 30
0.0
 11
9.397114317029953
 21
11.55872096992887
 31
0.0
  0
LINE
  5
118
330
114
100
AcDbEntity
  8
치수문자_일반주서
 62
     0
370
    -2
100
AcDbLine
 10
15.39711431702995
 20
0.812500000000002
 30
0.0
 11
15.39711431702995
 21
11.55872096992887
 31
0.0
  0
LINE
  5
119
330
114
100
AcDbEntity
  8
치수문자_일반주서
 62
     0
370
    -2
100
AcDbLine
 10
9.397114317029953
 20
11.55872096992887
 30
0.0
 11
15.39711431702995
 21
11.55872096992887
 31
0.0
  0
LINE
  5
11A
330
114
100
AcDbEntity
  8
치수문자_일반주서
 62
     0
370
    -2
100
AcDbLine
 10
6.897114317029953
 20
11.55872096992887
 30
0.0
 11
4.397114317029953
 21
11.55872096992887
 31
0.0
  0
LINE
  5
11B
330
114
100
AcDbEntity
  8
치수문자_일반주서
 62
     0
370
    -2
100
AcDbLine
 10
17.89711431702995
 20
11.55872096992887
 30
0.0
 11
20.39711431702995
 21
11.55872096992887
 31
0.0
  0
SOLID
  5
11C
330
114
100
AcDbEntity
  8
치수문자_일반주서
 62
     0
100
AcDbTrace
 10
6.897114317029953
 20
11.1420543032622
 30
0.0
 11
6.897114317029953
 21
11.97538763659554
 31
0.0
 12
9.397114317029953
 22
11.55872096992887
 32
0.0
 13
9.397114317029953
 23
11.55872096992887
 33
0.0
  0
SOLID
  5
11D
330
114
100
AcDbEntity
  8
치수문자_일반주서
 62
     0
100
AcDbTrace
 10
17.89711431702995
 20
11.97538763659554
 30
0.0
 11
17.89711431702995
 21
11.1420543032622
 31
0.0
 12
15.39711431702995
 22
11.55872096992887
 32
0.0
 13
15.39711431702995
 23
11.55872096992887
 33
0.0
  0
MTEXT
  5
11E
330
114
100
AcDbEntity
  8
치수문자_일반주서
 62
     0
100
AcDbMText
 10
12.39711431702995
 20
14.93372096992887
 30
0.0
 40
2.5
 41
0.0
 71
     2
 72
     1
  1
\A1;6
  7
SLDTEXTSTYLE0
 73
     1
 44
1.0
  0
POINT
  5
154
330
114
100
AcDbEntity
  8
Defpoints
 62
     0
100
AcDbPoint
 10
9.397114317029953
 20
0.7128026673412241
 30
0.0
  0
POINT
  5
158
330
114
100
AcDbEntity
  8
Defpoints
 62
     0
100
AcDbPoint
 10
15.39711431702995
 20
0.750000000000002
 30
0.0
  0
POINT
  5
159
330
114
100
AcDbEntity
  8
Defpoints
 62
     0
100
AcDbPoint
 10
15.39711431702995
 20
11.55872096992887
 30
0.0
  0
ENDBLK
  5
116
330
114
100
AcDbEntity
  8
0
100
AcDbBlockEnd
  0
BLOCK
  5
120
330
11F
100
AcDbEntity
  8
0
100
AcDbBlockBegin
  2
SW_DOWELSYMBOL_0
 70
     0
 10
0.0
 20
0.0
 30
0.0
  3
SW_DOWELSYMBOL_0
  1
SW_DOWELSYMBOL_0
  0
CIRCLE
  5
122
330
11F
100
AcDbEntity
  8
해칭선
 62
     0
100
AcDbCircle
 10
0.0
 20
0.0
 30
0.0
 40
3.0
  0
HATCH
  5
123
330
11F
100
AcDbEntity
  8
0
  6
Continuous
 62
     0
370
    18
100
AcDbHatch
 10
0.0
 20
0.0
 30
0.0
210
0.0
220
0.0
230
1.0
  2
SOLID
 70
     1
 71
     0
 91
        1
 92
        0
 93
        3
 72
     2
 10
0.0
 20
0.0
 40
3.0
 50
0.0
 51
90.0
 73
     1
 72
     1
 10
0.0
 20
3.0
 11
0.0
 21
0.0
 72
     1
 10
0.0
 20
0.0
 11
3.0
 21
0.0
 97
        0
 75
     0
 76
     1
 98
        1
 10
0.0
 20
0.0
  0
HATCH
  5
124
330
11F
100
AcDbEntity
  8
0
  6
Continuous
 62
     0
370
    18
100
AcDbHatch
 10
0.0
 20
0.0
 30
0.0
210
0.0
220
0.0
230
1.0
  2
SOLID
 70
     1
 71
     0
 91
        1
 92
        0
 93
        3
 72
     2
 10
0.0
 20
0.0
 40
3.0
 50
180.0
 51
270.0000000000007
 73
     1
 72
     1
 10
0.0
 20
-3.0
 11
0.0
 21
0.0
 72
     1
 10
0.0
 20
0.0
 11
-3.0
 21
0.0
 97
        0
 75
     0
 76
     1
 98
        1
 10
0.0
 20
0.0
  0
ENDBLK
  5
121
330
11F
100
AcDbEntity
  8
0
100
AcDbBlockEnd
  0
BLOCK
  5
267
330
266
100
AcDbEntity
  8
0
100
AcDbBlockBegin
  2
_D_4
 70
     0
 10
0.0
 20
0.0
 30
0.0
  3
_D_4
  1

  0
LINE
  5
268
330
266
100
AcDbEntity
  8
치수문자_일반주서
 62
     0
370
    -2
100
AcDbLine
 10
66.56166728747384
 20
50.53151558149541
 30
0.0
 11
66.56166728747384
 21
73.92069085118928
 31
0.0
  0
LINE
  5
269
330
266
100
AcDbEntity
  8
치수문자_일반주서
 62
     0
370
    -2
100
AcDbLine
 10
63.56166727665808
 20
50.60930738881174
 30
0.0
 11
63.56166727665808
 21
73.92069085118928
 31
0.0
  0
LINE
  5
26A
330
266
100
AcDbEntity
  8
치수문자_일반주서
 62
     0
370
    -2
100
AcDbLine
 10
63.25966728747384
 20
73.92069085118928
 30
0.0
 11
66.86366727665809
 21
73.92069085118928
 31
0.0
  0
SOLID
  5
26B
330
266
100
AcDbEntity
  8
치수문자_일반주서
 62
     0
100
AcDbTrace
 10
63.25966728747384
 20
73.37035751785595
 30
0.0
 11
63.25966728747384
 21
74.4710241845226
 31
0.0
 12
66.56166728747384
 22
73.92069085118928
 32
0.0
 13
66.56166728747384
 23
73.92069085118928
 33
0.0
  0
SOLID
  5
26C
330
266
100
AcDbEntity
  8
치수문자_일반주서
 62
     0
100
AcDbTrace
 10
66.86366727665809
 20
74.4710241845226
 30
0.0
 11
66.86366727665809
 21
73.37035751785595
 31
0.0
 12
63.56166727665808
 22
73.92069085118928
 32
0.0
 13
63.56166727665808
 23
73.92069085118928
 33
0.0
  0
MTEXT
  5
26D
330
266
100
AcDbEntity
  8
치수문자_일반주서
 62
     0
100
AcDbMText
 10
65.06166728206595
 20
78.29569085118928
 30
0.0
 40
3.5
 41
0.0
 71
     2
 72
     1
  1
\A1;3
  7
SLDTEXTSTYLE0
 73
     1
 44
1.0
  0
POINT
  5
26E
330
266
100
AcDbEntity
  8
Defpoints
 62
     0
100
AcDbPoint
 10
66.56166728747384
 20
50.46901558149541
 30
0.0
  0
POINT
  5
26F
330
266
100
AcDbEntity
  8
Defpoints
 62
     0
100
AcDbPoint
 10
63.56166727665808
 20
50.54680738881174
 30
0.0
  0
POINT
  5
2AA
330
266
100
AcDbEntity
  8
Defpoints
 62
     0
100
AcDbPoint
 10
63.56166727665808
 20
73.92069085118928
 30
0.0
  0
ENDBLK
  5
270
330
266
100
AcDbEntity
  8
0
100
AcDbBlockEnd
  0
BLOCK
  5
27B
330
27A
100
AcDbEntity
  8
0
100
AcDbBlockBegin
  2
*D8
 70
     1
 10
0.0
 20
0.0
 30
0.0
  3
*D8
  1

  0
LINE
  5
27D
330
27A
100
AcDbEntity
  8
치수문자_일반주서
 62
     0
370
    -2
100
AcDbLine
 10
65.788660923658
 20
49.37180738881174
 30
0.0
 11
91.84417746898089
 21
49.37180738881184
 31
0.0
  0
LINE
  5
27E
330
27A
100
AcDbEntity
  8
치수문자_일반주서
 62
     0
370
    -2
100
AcDbLine
 10
65.788660923658
 20
50.57180738881175
 30
0.0
 11
91.84417746898089
 21
50.57180738881185
 31
0.0
  0
LINE
  5
27F
330
27A
100
AcDbEntity
  8
치수문자_일반주서
 62
     0
370
    -2
100
AcDbLine
 10
91.84417746898089
 20
52.67380738881184
 30
0.0
 11
91.84417746898089
 21
47.26980738881185
 31
0.0
  0
SOLID
  5
280
330
27A
100
AcDbEntity
  8
치수문자_일반주서
 62
     0
100
AcDbTrace
 10
91.29384413564756
 20
52.67380738881184
 30
0.0
 11
92.39451080231422
 21
52.67380738881184
 31
0.0
 12
91.84417746898089
 22
49.37180738881184
 32
0.0
 13
91.84417746898089
 23
49.37180738881184
 33
0.0
  0
SOLID
  5
281
330
27A
100
AcDbEntity
  8
치수문자_일반주서
 62
     0
100
AcDbTrace
 10
92.39451080231422
 20
47.26980738881185
 30
0.0
 11
91.29384413564756
 21
47.26980738881185
 31
0.0
 12
91.84417746898089
 22
50.57180738881185
 32
0.0
 13
91.84417746898089
 23
50.57180738881185
 33
0.0
  0
MTEXT
  5
282
330
27A
100
AcDbEntity
  8
치수문자_일반주서
 62
     0
100
AcDbMText
 10
87.46917746898089
 20
49.97180738881172
 30
0.0
 40
3.5
 41
0.0
 71
     2
 72
     1
  1
\A1;%%c1.2
  7
SLDTEXTSTYLE0
 11
0.0
 21
1.0
 31
0.0
 73
     1
 44
1.0
  0
POINT
  5
283
330
27A
100
AcDbEntity
  8
Defpoints
 62
     0
100
AcDbPoint
 10
65.726160923658
 20
49.37180738881174
 30
0.0
  0
POINT
  5
284
330
27A
100
AcDbEntity
  8
Defpoints
 62
     0
100
AcDbPoint
 10
65.726160923658
 20
50.57180738881175
 30
0.0
  0
POINT
  5
285
330
27A
100
AcDbEntity
  8
Defpoints
 62
     0
100
AcDbPoint
 10
91.84417746898089
 20
50.57180738881185
 30
0.0
  0
ENDBLK
  5
27C
330
27A
100
AcDbEntity
  8
0
100
AcDbBlockEnd
  0
BLOCK
  5
287
330
286
100
AcDbEntity
  8
0
100
AcDbBlockBegin
  2
*D9
 70
     1
 10
0.0
 20
0.0
 30
0.0
  3
*D9
  1

  0
LINE
  5
289
330
286
100
AcDbEntity
  8
치수문자_일반주서
 62
     0
370
    -2
100
AcDbLine
 10
16.56166728747382
 20
51.53430738881175
 30
0.0
 11
16.56166728747382
 21
79.97180738881177
 31
0.0
  0
LINE
  5
28A
330
286
100
AcDbEntity
  8
치수문자_일반주서
 62
     0
370
    -2
100
AcDbLine
 10
66.56166728747384
 20
50.42280976756956
 30
0.0
 11
66.56166728747384
 21
79.97180738881177
 31
0.0
  0
LINE
  5
28B
330
286
100
AcDbEntity
  8
치수문자_일반주서
 62
     0
370
    -2
100
AcDbLine
 10
19.86366728747382
 20
79.97180738881177
 30
0.0
 11
63.25966728747384
 21
79.97180738881177
 31
0.0
  0
SOLID
  5
28C
330
286
100
AcDbEntity
  8
치수문자_일반주서
 62
     0
100
AcDbTrace
 10
19.86366728747382
 20
80.5221407221451
 30
0.0
 11
19.86366728747382
 21
79.42147405547844
 31
0.0
 12
16.56166728747382
 22
79.97180738881177
 32
0.0
 13
16.56166728747382
 23
79.97180738881177
 33
0.0
  0
SOLID
  5
28D
330
286
100
AcDbEntity
  8
치수문자_일반주서
 62
     0
100
AcDbTrace
 10
63.25966728747384
 20
79.42147405547844
 30
0.0
 11
63.25966728747384
 21
80.5221407221451
 31
0.0
 12
66.56166728747384
 22
79.97180738881177
 32
0.0
 13
66.56166728747384
 23
79.97180738881177
 33
0.0
  0
MTEXT
  5
28E
330
286
100
AcDbEntity
  8
치수문자_일반주서
 62
     0
100
AcDbMText
 10
41.56166728747383
 20
84.34680738881177
 30
0.0
 40
3.5
 41
0.0
 71
     2
 72
     1
  1
\A1;50
  7
SLDTEXTSTYLE0
 73
     1
 44
1.0
  0
POINT
  5
28F
330
286
100
AcDbEntity
  8
Defpoints
 62
     0
100
AcDbPoint
 10
16.56166728747382
 20
51.47180738881175
 30
0.0
  0
POINT
  5
290
330
286
100
AcDbEntity
  8
Defpoints
 62
     0
100
AcDbPoint
 10
66.56166728747384
 20
50.36030976756956
 30
0.0
  0
POINT
  5
291
330
286
100
AcDbEntity
  8
Defpoints
 62
     0
100
AcDbPoint
 10
66.56166728747384
 20
79.97180738881177
 30
0.0
  0
ENDBLK
  5
288
330
286
100
AcDbEntity
  8
0
100
AcDbBlockEnd
  0
BLOCK
  5
293
330
292
100
AcDbEntity
  8
0
100
AcDbBlockBegin
  2
*D10
 70
     1
 10
0.0
 20
0.0
 30
0.0
  3
*D10
  1

  0
LINE
  5
295
330
292
100
AcDbEntity
  8
치수문자_일반주서
 62
     0
370
    -2
100
AcDbLine
 10
16.99916728747382
 20
51.97180738881175
 30
0.0
 11
4.565209265861746
 21
51.9718073888117
 31
0.0
  0
LINE
  5
296
330
292
100
AcDbEntity
  8
치수문자_일반주서
 62
     0
370
    -2
100
AcDbLine
 10
16.99916728747382
 20
47.97180738881175
 30
0.0
 11
4.56520926586176
 21
47.9718073888117
 31
0.0
  0
LINE
  5
297
330
292
100
AcDbEntity
  8
치수문자_일반주서
 62
     0
370
    -2
100
AcDbLine
 10
4.565209265861758
 20
48.6698073888117
 30
0.0
 11
4.565209265861749
 21
51.2738073888117
 31
0.0
  0
SOLID
  5
298
330
292
100
AcDbEntity
  8
치수문자_일반주서
 62
     0
100
AcDbTrace
 10
5.115542599195091
 20
48.6698073888117
 30
0.0
 11
4.014875932528424
 21
48.6698073888117
 31
0.0
 12
4.565209265861746
 22
51.9718073888117
 32
0.0
 13
4.565209265861746
 23
51.9718073888117
 33
0.0
  0
SOLID
  5
299
330
292
100
AcDbEntity
  8
치수문자_일반주서
 62
     0
100
AcDbTrace
 10
4.014875932528415
 20
51.2738073888117
 30
0.0
 11
5.115542599195082
 21
51.2738073888117
 31
0.0
 12
4.56520926586176
 22
47.9718073888117
 32
0.0
 13
4.56520926586176
 23
47.9718073888117
 33
0.0
  0
MTEXT
  5
29A
330
292
100
AcDbEntity
  8
치수문자_일반주서
 62
     0
100
AcDbMText
 10
0.1902092658617534
 20
49.97180738881173
 30
0.0
 40
3.5
 41
0.0
 71
     2
 72
     1
  1
\A1;%%c4
  7
SLDTEXTSTYLE0
 11
-3.552713678800507E-15
 21
1.0
 31
0.0
 73
     1
 44
1.0
  0
POINT
  5
29B
330
292
100
AcDbEntity
  8
Defpoints
 62
     0
100
AcDbPoint
 10
17.06166728747382
 20
51.97180738881175
 30
0.0
  0
POINT
  5
29C
330
292
100
AcDbEntity
  8
Defpoints
 62
     0
100
AcDbPoint
 10
17.06166728747382
 20
47.97180738881175
 30
0.0
  0
POINT
  5
29D
330
292
100
AcDbEntity
  8
Defpoints
 62
     0
100
AcDbPoint
 10
4.565209265861753
 20
47.9718073888117
 30
0.0
  0
ENDBLK
  5
294
330
292
100
AcDbEntity
  8
0
100
AcDbBlockEnd
  0
BLOCK
  5
29F
330
29E
100
AcDbEntity
  8
0
100
AcDbBlockBegin
  2
*D11
 70
     1
 10
0.0
 20
0.0
 30
0.0
  3
*D11
  1

  0
LINE
  5
2A1
330
29E
100
AcDbEntity
  8
치수문자_일반주서
 62
     0
370
    -2
100
AcDbLine
 10
64.76166728747384
 20
50.51977754928462
 30
0.0
 11
64.76166728747384
 21
65.27969014755637
 31
0.0
  0
LINE
  5
2A2
330
29E
100
AcDbEntity
  8
치수문자_일반주서
 62
     0
370
    -2
100
AcDbLine
 10
66.56166728747384
 20
50.42280976756956
 30
0.0
 11
66.56166728747384
 21
65.27969014755637
 31
0.0
  0
LINE
  5
2A3
330
29E
100
AcDbEntity
  8
치수문자_일반주서
 62
     0
370
    -2
100
AcDbLine
 10
68.06366728747385
 20
65.27969014755637
 30
0.0
 11
63.25966728747384
 21
65.27969014755637
 31
0.0
  0
SOLID
  5
2A4
330
29E
100
AcDbEntity
  8
치수문자_일반주서
 62
     0
100
AcDbTrace
 10
68.06366728747385
 20
65.8300234808897
 30
0.0
 11
68.06366728747385
 21
64.72935681422304
 31
0.0
 12
64.76166728747384
 22
65.27969014755637
 32
0.0
 13
64.76166728747384
 23
65.27969014755637
 33
0.0
  0
SOLID
  5
2A5
330
29E
100
AcDbEntity
  8
치수문자_일반주서
 62
     0
100
AcDbTrace
 10
63.25966728747384
 20
64.72935681422304
 30
0.0
 11
63.25966728747384
 21
65.8300234808897
 31
0.0
 12
66.56166728747384
 22
65.27969014755637
 32
0.0
 13
66.56166728747384
 23
65.27969014755637
 33
0.0
  0
MTEXT
  5
2A6
330
29E
100
AcDbEntity
  8
치수문자_일반주서
 62
     0
100
AcDbMText
 10
65.66166728747383
 20
69.65469014755637
 30
0.0
 40
3.5
 41
0.0
 71
     2
 72
     1
  1
\A1;1.8
  7
SLDTEXTSTYLE0
 73
     1
 44
1.0
  0
POINT
  5
2A7
330
29E
100
AcDbEntity
  8
Defpoints
 62
     0
100
AcDbPoint
 10
64.76166728747384
 20
50.45727754928462
 30
0.0
  0
POINT
  5
2A8
330
29E
100
AcDbEntity
  8
Defpoints
 62
     0
100
AcDbPoint
 10
66.56166728747384
 20
50.36030976756956
 30
0.0
  0
POINT
  5
2A9
330
29E
100
AcDbEntity
  8
Defpoints
 62
     0
100
AcDbPoint
 10
66.56166728747384
 20
65.27969014755637
 30
0.0
  0
ENDBLK
  5
2A0
330
29E
100
AcDbEntity
  8
0
100
AcDbBlockEnd
  0
BLOCK
  5
2F9
330
2F8
100
AcDbEntity
  8
0
100
AcDbBlockBegin
  2
*D12
 70
     1
 10
0.0
 20
0.0
 30
0.0
  3
*D12
  1

  0
LINE
  5
2FB
330
2F8
100
AcDbEntity
  8
치수문자_일반주서
 62
     0
370
    -2
100
AcDbLine
 10
8.729441214578515
 20
-0.4999999999999982
 30
0.0
 11
16.66694121457855
 21
-0.499999999999968
 31
0.0
  0
LINE
  5
2FC
330
2F8
100
AcDbEntity
  8
치수문자_일반주서
 62
     0
370
    -2
100
AcDbLine
 10
8.729441214578515
 20
0.5000000000000002
 30
0.0
 11
16.66694121457855
 21
0.5000000000000302
 31
0.0
  0
LINE
  5
2FD
330
2F8
100
AcDbEntity
  8
치수문자_일반주서
 62
     0
370
    -2
100
AcDbLine
 10
16.66694121457855
 20
-0.499999999999968
 30
0.0
 11
16.66694121457851
 21
11.10000000000003
 31
0.0
  0
LINE
  5
2FE
330
2F8
100
AcDbEntity
  8
치수문자_일반주서
 62
     0
370
    -2
100
AcDbLine
 10
16.66694121457855
 20
-0.499999999999968
 30
0.0
 11
16.66694121457855
 21
0.5000000000000302
 31
0.0
  0
LINE
  5
2FF
330
2F8
100
AcDbEntity
  8
치수문자_일반주서
 62
     0
370
    -2
100
AcDbLine
 10
16.66694121457856
 20
-2.999999999999968
 30
0.0
 11
16.66694121457857
 21
-5.499999999999968
 31
0.0
  0
LINE
  5
300
330
2F8
100
AcDbEntity
  8
치수문자_일반주서
 62
     0
370
    -2
100
AcDbLine
 10
16.66694121457854
 20
3.00000000000003
 30
0.0
 11
16.66694121457853
 21
5.50000000000003
 31
0.0
  0
SOLID
  5
301
330
2F8
100
AcDbEntity
  8
치수문자_일반주서
 62
     0
100
AcDbTrace
 10
17.08360788124523
 20
-2.999999999999967
 30
0.0
 11
16.25027454791189
 21
-2.999999999999969
 31
0.0
 12
16.66694121457855
 22
-0.499999999999968
 32
0.0
 13
16.66694121457855
 23
-0.499999999999968
 33
0.0
  0
SOLID
  5
302
330
2F8
100
AcDbEntity
  8
치수문자_일반주서
 62
     0
100
AcDbTrace
 10
16.25027454791187
 20
3.000000000000029
 30
0.0
 11
17.0836078812452
 21
3.000000000000032
 31
0.0
 12
16.66694121457855
 22
0.5000000000000302
 32
0.0
 13
16.66694121457855
 23
0.5000000000000302
 33
0.0
  0
MTEXT
  5
303
330
2F8
100
AcDbEntity
  8
치수문자_일반주서
 62
     0
100
AcDbMText
 10
13.29194121457852
 20
8.975000000000021
 30
0.0
 40
2.5
 41
0.0
 71
     2
 72
     1
  1
\A1;%%c1
  7
SLDTEXTSTYLE0
 11
-3.552713678800506E-15
 21
1.0
 31
0.0
 73
     1
 44
1.0
  0
POINT
  5
344
330
2F8
100
AcDbEntity
  8
Defpoints
 62
     0
100
AcDbPoint
 10
8.666941214578515
 20
-0.4999999999999984
 30
0.0
  0
POINT
  5
345
330
2F8
100
AcDbEntity
  8
Defpoints
 62
     0
100
AcDbPoint
 10
8.666941214578515
 20
0.5
 30
0.0
  0
POINT
  5
346
330
2F8
100
AcDbEntity
  8
Defpoints
 62
     0
100
AcDbPoint
 10
16.66694121457855
 20
0.5000000000000299
 30
0.0
  0
ENDBLK
  5
2FA
330
2F8
100
AcDbEntity
  8
0
100
AcDbBlockEnd
  0
BLOCK
  5
305
330
304
100
AcDbEntity
  8
0
100
AcDbBlockBegin
  2
*D13
 70
     1
 10
0.0
 20
0.0
 30
0.0
  3
*D13
  1

  0
LINE
  5
307
330
304
100
AcDbEntity
  8
치수문자_일반주서
 62
     0
370
    -2
100
AcDbLine
 10
-41.3330587854215
 20
1.662500000000001
 30
0.0
 11
-41.3330587854215
 21
30.00000000000002
 31
0.0
  0
LINE
  5
308
330
304
100
AcDbEntity
  8
치수문자_일반주서
 62
     0
370
    -2
100
AcDbLine
 10
8.666941214578515
 20
0.5625
 30
0.0
 11
8.666941214578515
 21
30.00000000000002
 31
0.0
  0
LINE
  5
309
330
304
100
AcDbEntity
  8
치수문자_일반주서
 62
     0
370
    -2
100
AcDbLine
 10
-38.8330587854215
 20
30.00000000000002
 30
0.0
 11
6.166941214578515
 21
30.00000000000002
 31
0.0
  0
SOLID
  5
30A
330
304
100
AcDbEntity
  8
치수문자_일반주서
 62
     0
100
AcDbTrace
 10
-38.8330587854215
 20
30.41666666666669
 30
0.0
 11
-38.8330587854215
 21
29.58333333333335
 31
0.0
 12
-41.3330587854215
 22
30.00000000000002
 32
0.0
 13
-41.3330587854215
 23
30.00000000000002
 33
0.0
  0
SOLID
  5
30B
330
304
100
AcDbEntity
  8
치수문자_일반주서
 62
     0
100
AcDbTrace
 10
6.166941214578515
 20
29.58333333333335
 30
0.0
 11
6.166941214578515
 21
30.41666666666669
 31
0.0
 12
8.666941214578515
 22
30.00000000000002
 32
0.0
 13
8.666941214578515
 23
30.00000000000002
 33
0.0
  0
MTEXT
  5
30C
330
304
100
AcDbEntity
  8
치수문자_일반주서
 62
     0
100
AcDbMText
 10
-16.33305878542149
 20
33.37500000000001
 30
0.0
 40
2.5
 41
0.0
 71
     2
 72
     1
  1
\A1;50
  7
SLDTEXTSTYLE0
 73
     1
 44
1.0
  0
POINT
  5
30D
330
304
100
AcDbEntity
  8
Defpoints
 62
     0
100
AcDbPoint
 10
-41.3330587854215
 20
1.600000000000001
 30
0.0
  0
POINT
  5
30E
330
304
100
AcDbEntity
  8
Defpoints
 62
     0
100
AcDbPoint
 10
8.666941214578515
 20
0.5
 30
0.0
  0
POINT
  5
30F
330
304
100
AcDbEntity
  8
Defpoints
 62
     0
100
AcDbPoint
 10
8.666941214578515
 20
30.00000000000002
 30
0.0
  0
ENDBLK
  5
306
330
304
100
AcDbEntity
  8
0
100
AcDbBlockEnd
  0
BLOCK
  5
311
330
310
100
AcDbEntity
  8
0
100
AcDbBlockBegin
  2
*D14
 70
     1
 10
0.0
 20
0.0
 30
0.0
  3
*D14
  1

  0
LINE
  5
313
330
310
100
AcDbEntity
  8
치수문자_일반주서
 62
     0
370
    -2
100
AcDbLine
 10
-40.99555878542149
 20
2.0
 30
0.0
 11
-49.33305878542151
 21
1.999999999999969
 31
0.0
  0
LINE
  5
314
330
310
100
AcDbEntity
  8
치수문자_일반주서
 62
     0
370
    -2
100
AcDbLine
 10
-40.99555878542149
 20
-2.0
 30
0.0
 11
-49.3330587854215
 21
-2.00000000000003
 31
0.0
  0
LINE
  5
315
330
310
100
AcDbEntity
  8
치수문자_일반주서
 62
     0
370
    -2
100
AcDbLine
 10
-49.33305878542151
 20
1.999999999999969
 30
0.0
 11
-49.33305878542155
 21
11.87499999999997
 31
0.0
  0
LINE
  5
316
330
310
100
AcDbEntity
  8
치수문자_일반주서
 62
     0
370
    -2
100
AcDbLine
 10
-49.33305878542151
 20
1.999999999999969
 30
0.0
 11
-49.3330587854215
 21
-2.00000000000003
 31
0.0
  0
LINE
  5
317
330
310
100
AcDbEntity
  8
치수문자_일반주서
 62
     0
370
    -2
100
AcDbLine
 10
-49.33305878542152
 20
4.499999999999969
 30
0.0
 11
-49.33305878542153
 21
6.999999999999969
 31
0.0
  0
LINE
  5
318
330
310
100
AcDbEntity
  8
치수문자_일반주서
 62
     0
370
    -2
100
AcDbLine
 10
-49.33305878542149
 20
-4.50000000000003
 30
0.0
 11
-49.33305878542149
 21
-7.00000000000003
 31
0.0
  0
SOLID
  5
319
330
310
100
AcDbEntity
  8
치수문자_일반주서
 62
     0
100
AcDbTrace
 10
-49.74972545208819
 20
4.499999999999967
 30
0.0
 11
-48.91639211875486
 21
4.499999999999971
 31
0.0
 12
-49.33305878542151
 22
1.999999999999969
 32
0.0
 13
-49.33305878542151
 23
1.999999999999969
 33
0.0
  0
SOLID
  5
31A
330
310
100
AcDbEntity
  8
치수문자_일반주서
 62
     0
100
AcDbTrace
 10
-48.91639211875483
 20
-4.500000000000028
 30
0.0
 11
-49.74972545208816
 21
-4.500000000000032
 31
0.0
 12
-49.3330587854215
 22
-2.00000000000003
 32
0.0
 13
-49.3330587854215
 23
-2.00000000000003
 33
0.0
  0
MTEXT
  5
31B
330
310
100
AcDbEntity
  8
치수문자_일반주서
 62
     0
100
AcDbMText
 10
-52.70805878542154
 20
9.437499999999957
 30
0.0
 40
2.5
 41
0.0
 71
     2
 72
     1
  1
\A1;%%c4
  7
SLDTEXTSTYLE0
 11
-3.552713678800500E-15
 21
1.0
 31
0.0
 73
     1
 44
1.0
  0
POINT
  5
341
330
310
100
AcDbEntity
  8
Defpoints
 62
     0
100
AcDbPoint
 10
-40.93305878542149
 20
2.0
 30
0.0
  0
POINT
  5
342
330
310
100
AcDbEntity
  8
Defpoints
 62
     0
100
AcDbPoint
 10
-40.93305878542149
 20
-2.0
 30
0.0
  0
POINT
  5
343
330
310
100
AcDbEntity
  8
Defpoints
 62
     0
100
AcDbPoint
 10
-49.3330587854215
 20
-2.000000000000032
 30
0.0
  0
ENDBLK
  5
312
330
310
100
AcDbEntity
  8
0
100
AcDbBlockEnd
  0
BLOCK
  5
31D
330
31C
100
AcDbEntity
  8
0
100
AcDbBlockBegin
  2
*D15
 70
     1
 10
0.0
 20
0.0
 30
0.0
  3
*D15
  1

  0
LINE
  5
31F
330
31C
100
AcDbEntity
  8
치수문자_일반주서
 62
     0
370
    -2
100
AcDbLine
 10
7.16694121457823
 20
0.5621058104002188
 30
0.0
 11
7.16694121457823
 21
15.30788275874462
 31
0.0
  0
LINE
  5
320
330
31C
100
AcDbEntity
  8
치수문자_일반주서
 62
     0
370
    -2
100
AcDbLine
 10
8.666941214578515
 20
0.5625
 30
0.0
 11
8.666941214578515
 21
15.30788275874462
 31
0.0
  0
LINE
  5
321
330
31C
100
AcDbEntity
  8
치수문자_일반주서
 62
     0
370
    -2
100
AcDbLine
 10
7.16694121457823
 20
15.30788275874462
 30
0.0
 11
18.54194121457851
 21
15.30788275874462
 31
0.0
  0
LINE
  5
322
330
31C
100
AcDbEntity
  8
치수문자_일반주서
 62
     0
370
    -2
100
AcDbLine
 10
7.16694121457823
 20
15.30788275874462
 30
0.0
 11
8.666941214578515
 21
15.30788275874462
 31
0.0
  0
LINE
  5
323
330
31C
100
AcDbEntity
  8
치수문자_일반주서
 62
     0
370
    -2
100
AcDbLine
 10
4.66694121457823
 20
15.30788275874462
 30
0.0
 11
2.16694121457823
 21
15.30788275874462
 31
0.0
  0
SOLID
  5
324
330
31C
100
AcDbEntity
  8
치수문자_일반주서
 62
     0
100
AcDbTrace
 10
4.66694121457823
 20
14.89121609207795
 30
0.0
 11
4.66694121457823
 21
15.72454942541128
 31
0.0
 12
7.16694121457823
 22
15.30788275874462
 32
0.0
 13
7.16694121457823
 23
15.30788275874462
 33
0.0
  0
SOLID
  5
325
330
31C
100
AcDbEntity
  8
치수문자_일반주서
 62
     0
100
AcDbTrace
 10
11.16694121457851
 20
15.72454942541128
 30
0.0
 11
11.16694121457851
 21
14.89121609207795
 31
0.0
 12
8.666941214578515
 22
15.30788275874462
 32
0.0
 13
8.666941214578515
 23
15.30788275874462
 33
0.0
  0
MTEXT
  5
326
330
31C
100
AcDbEntity
  8
치수문자_일반주서
 62
     0
100
AcDbMText
 10
16.10444121457851
 20
18.68288275874462
 30
0.0
 40
2.5
 41
0.0
 71
     2
 72
     1
  1
\A1;1.5
  7
SLDTEXTSTYLE0
 73
     1
 44
1.0
  0
POINT
  5
327
330
31C
100
AcDbEntity
  8
Defpoints
 62
     0
100
AcDbPoint
 10
7.16694121457823
 20
0.4996058104002188
 30
0.0
  0
POINT
  5
34A
330
31C
100
AcDbEntity
  8
Defpoints
 62
     0
100
AcDbPoint
 10
8.666941214578515
 20
0.5
 30
0.0
  0
POINT
  5
34B
330
31C
100
AcDbEntity
  8
Defpoints
 62
     0
100
AcDbPoint
 10
8.666941214578515
 20
15.30788275874462
 30
0.0
  0
ENDBLK
  5
31E
330
31C
100
AcDbEntity
  8
0
100
AcDbBlockEnd
  0
BLOCK
  5
329
330
328
100
AcDbEntity
  8
0
100
AcDbBlockBegin
  2
*D16
 70
     1
 10
0.0
 20
0.0
 30
0.0
  3
*D16
  1

  0
LINE
  5
32B
330
328
100
AcDbEntity
  8
치수문자_일반주서
 62
     0
370
    -2
100
AcDbLine
 10
8.666941214578515
 20
0.5625
 30
0.0
 11
8.666941214578515
 21
23.94888346237753
 31
0.0
  0
LINE
  5
32C
330
328
100
AcDbEntity
  8
치수문자_일반주서
 62
     0
370
    -2
100
AcDbLine
 10
5.666941214578515
 20
0.5375000000000014
 30
0.0
 11
5.666941214578515
 21
23.94888346237753
 31
0.0
  0
LINE
  5
32D
330
328
100
AcDbEntity
  8
치수문자_일반주서
 62
     0
370
    -2
100
AcDbLine
 10
8.666941214578515
 20
23.94888346237753
 30
0.0
 11
-2.333058785421485
 21
23.94888346237753
 31
0.0
  0
LINE
  5
32E
330
328
100
AcDbEntity
  8
치수문자_일반주서
 62
     0
370
    -2
100
AcDbLine
 10
8.666941214578515
 20
23.94888346237753
 30
0.0
 11
5.666941214578515
 21
23.94888346237753
 31
0.0
  0
LINE
  5
32F
330
328
100
AcDbEntity
  8
치수문자_일반주서
 62
     0
370
    -2
100
AcDbLine
 10
11.16694121457851
 20
23.94888346237753
 30
0.0
 11
13.66694121457851
 21
23.94888346237753
 31
0.0
  0
SOLID
  5
330
330
328
100
AcDbEntity
  8
치수문자_일반주서
 62
     0
100
AcDbTrace
 10
11.16694121457851
 20
24.36555012904419
 30
0.0
 11
11.16694121457851
 21
23.53221679571086
 31
0.0
 12
8.666941214578515
 22
23.94888346237753
 32
0.0
 13
8.666941214578515
 23
23.94888346237753
 33
0.0
  0
SOLID
  5
331
330
328
100
AcDbEntity
  8
치수문자_일반주서
 62
     0
100
AcDbTrace
 10
3.166941214578515
 20
23.53221679571086
 30
0.0
 11
3.166941214578515
 21
24.36555012904419
 31
0.0
 12
5.666941214578515
 22
23.94888346237753
 32
0.0
 13
5.666941214578515
 23
23.94888346237753
 33
0.0
  0
MTEXT
  5
332
330
328
100
AcDbEntity
  8
치수문자_일반주서
 62
     0
100
AcDbMText
 10
-0.8330587854214855
 20
27.32388346237753
 30
0.0
 40
2.5
 41
0.0
 71
     2
 72
     1
  1
\A1;3
  7
SLDTEXTSTYLE0
 73
     1
 44
1.0
  0
POINT
  5
333
330
328
100
AcDbEntity
  8
Defpoints
 62
     0
100
AcDbPoint
 10
8.666941214578515
 20
0.5
 30
0.0
  0
POINT
  5
34C
330
328
100
AcDbEntity
  8
Defpoints
 62
     0
100
AcDbPoint
 10
5.666941214578515
 20
0.4750000000000014
 30
0.0
  0
POINT
  5
34D
330
328
100
AcDbEntity
  8
Defpoints
 62
     0
100
AcDbPoint
 10
5.666941214578515
 20
23.94888346237753
 30
0.0
  0
ENDBLK
  5
32A
330
328
100
AcDbEntity
  8
0
100
AcDbBlockEnd
  0
BLOCK
  5
356
330
355
100
AcDbEntity
  8
0
100
AcDbBlockBegin
  2
*D17
 70
     1
 10
0.0
 20
0.0
 30
0.0
  3
*D17
  1

  0
LINE
  5
358
330
355
100
AcDbEntity
  8
치수문자_일반주서
 62
     0
370
    -2
100
AcDbLine
 10
9.786112474499294
 20
-2.574021205089231
 30
0.0
 11
17.46258289723206
 21
-12.72821192559577
 31
0.0
  0
MTEXT
  5
359
330
355
100
AcDbEntity
  8
치수문자_일반주서
 62
     0
100
AcDbMText
 10
17.21661673698671
 20
-8.879124084234633
 30
0.0
 40
2.5
 41
0.0
 71
     5
 72
     1
  1
\A1;R0.1
  7
SLDTEXTSTYLE0
 11
0.6030538703453378
 21
-0.7977004634958592
 31
0.0
 73
     1
 44
1.0
  0
SOLID
  5
35A
330
355
100
AcDbEntity
  8
치수문자_일반주서
 62
     0
100
AcDbTrace
 10
10.11848766762257
 20
-2.322748759112006
 30
0.0
 11
9.45373728137602
 21
-2.825293651066455
 31
0.0
 12
8.278477798635949
 22
-0.5797700463495824
 32
0.0
 13
8.278477798635949
 23
-0.5797700463495824
 33
0.0
  0
POINT
  5
35B
330
355
100
AcDbEntity
  8
Defpoints
 62
     0
100
AcDbPoint
 10
8.278477798635949
 20
-0.5797700463495824
 30
0.0
  0
POINT
  5
35C
330
355
100
AcDbEntity
  8
Defpoints
 62
     0
100
AcDbPoint
 10
8.218172411601415
 20
-0.4999999999999964
 30
0.0
  0
ENDBLK
  5
357
330
355
100
AcDbEntity
  8
0
100
AcDbBlockEnd
  0
BLOCK
  5
38C
330
38B
100
AcDbEntity
  8
0
100
AcDbBlockBegin
  2
*D18
 70
     1
 10
0.0
 20
0.0
 30
0.0
  3
*D18
  1

  0
LINE
  5
38D
330
38B
100
AcDbEntity
  8
치수문자_일반주서
 62
     0
370
    -2
100
AcDbLine
 10
3.0
 20
19.73986656605671
 30
0.0
 11
3.0
 21
48.17736656605673
 31
0.0
  0
LINE
  5
38E
330
38B
100
AcDbEntity
  8
치수문자_일반주서
 62
     0
370
    -2
100
AcDbLine
 10
62.99999999251592
 20
19.73986656605672
 30
0.0
 11
62.99999999251592
 21
48.17736656605673
 31
0.0
  0
LINE
  5
38F
330
38B
100
AcDbEntity
  8
치수문자_일반주서
 62
     0
370
    -2
100
AcDbLine
 10
6.302
 20
48.17736656605673
 30
0.0
 11
59.69799999251592
 21
48.17736656605673
 31
0.0
  0
SOLID
  5
390
330
38B
100
AcDbEntity
  8
치수문자_일반주서
 62
     0
100
AcDbTrace
 10
6.302
 20
48.72769989939007
 30
0.0
 11
6.302
 21
47.6270332327234
 31
0.0
 12
3.0
 22
48.17736656605673
 32
0.0
 13
3.0
 23
48.17736656605673
 33
0.0
  0
SOLID
  5
391
330
38B
100
AcDbEntity
  8
치수문자_일반주서
 62
     0
100
AcDbTrace
 10
59.69799999251592
 20
47.6270332327234
 30
0.0
 11
59.69799999251592
 21
48.72769989939007
 31
0.0
 12
62.99999999251592
 22
48.17736656605673
 32
0.0
 13
62.99999999251592
 23
48.17736656605673
 33
0.0
  0
MTEXT
  5
392
330
38B
100
AcDbEntity
  8
치수문자_일반주서
 62
     0
100
AcDbMText
 10
33.00000000000001
 20
52.55236656605673
 30
0.0
 40
3.5
 41
0.0
 71
     2
 72
     1
  1
\A1;60
  7
SLDTEXTSTYLE0
 73
     1
 44
1.0
  0
POINT
  5
393
330
38B
100
AcDbEntity
  8
Defpoints
 62
     0
100
AcDbPoint
 10
3.0
 20
19.67736656605671
 30
0.0
  0
POINT
  5
394
330
38B
100
AcDbEntity
  8
Defpoints
 62
     0
100
AcDbPoint
 10
62.99999999251592
 20
19.67736656605672
 30
0.0
  0
POINT
  5
395
330
38B
100
AcDbEntity
  8
Defpoints
 62
     0
100
AcDbPoint
 10
62.99999999251592
 20
48.17736656605673
 30
0.0
  0
ENDBLK
  5
396
330
38B
100
AcDbEntity
  8
0
100
AcDbBlockEnd
  0
BLOCK
  5
399
330
398
100
AcDbEntity
  8
0
100
AcDbBlockBegin
  2
*D19
 70
     1
 10
0.0
 20
0.0
 30
0.0
  3
*D19
  1

  0
LINE
  5
39A
330
398
100
AcDbEntity
  8
치수문자_일반주서
 62
     0
370
    -2
100
AcDbLine
 10
54.99999999999999
 20
19.20290151287988
 30
0.0
 11
54.99999999999999
 21
33.96281411115162
 31
0.0
  0
LINE
  5
39B
330
398
100
AcDbEntity
  8
치수문자_일반주서
 62
     0
370
    -2
100
AcDbLine
 10
62.99999999251592
 20
19.73986656605672
 30
0.0
 11
62.99999999251592
 21
33.96281411115162
 31
0.0
  0
LINE
  5
39C
330
398
100
AcDbEntity
  8
치수문자_일반주서
 62
     0
370
    -2
100
AcDbLine
 10
58.30199999999999
 20
33.96281411115162
 30
0.0
 11
59.69799999251592
 21
33.96281411115162
 31
0.0
  0
SOLID
  5
39D
330
398
100
AcDbEntity
  8
치수문자_일반주서
 62
     0
100
AcDbTrace
 10
58.30199999999999
 20
34.51314744448495
 30
0.0
 11
58.30199999999999
 21
33.41248077781828
 31
0.0
 12
54.99999999999999
 22
33.96281411115162
 32
0.0
 13
54.99999999999999
 23
33.96281411115162
 33
0.0
  0
SOLID
  5
39E
330
398
100
AcDbEntity
  8
치수문자_일반주서
 62
     0
100
AcDbTrace
 10
59.69799999251592
 20
33.41248077781828
 30
0.0
 11
59.69799999251592
 21
34.51314744448495
 31
0.0
 12
62.99999999251592
 22
33.96281411115162
 32
0.0
 13
62.99999999251592
 23
33.96281411115162
 33
0.0
  0
MTEXT
  5
39F
330
398
100
AcDbEntity
  8
치수문자_일반주서
 62
     0
100
AcDbMText
 10
58.99999999999999
 20
38.33781411115162
 30
0.0
 40
3.5
 41
0.0
 71
     2
 72
     1
  1
\A1;8
  7
SLDTEXTSTYLE0
 73
     1
 44
1.0
  0
POINT
  5
3A0
330
398
100
AcDbEntity
  8
Defpoints
 62
     0
100
AcDbPoint
 10
54.99999999999999
 20
19.14040151287988
 30
0.0
  0
POINT
  5
3A1
330
398
100
AcDbEntity
  8
Defpoints
 62
     0
100
AcDbPoint
 10
62.99999999251592
 20
19.67736656605672
 30
0.0
  0
POINT
  5
3A2
330
398
100
AcDbEntity
  8
Defpoints
 62
     0
100
AcDbPoint
 10
62.99999999251592
 20
33.96281411115162
 30
0.0
  0
ENDBLK
  5
3A3
330
398
100
AcDbEntity
  8
0
100
AcDbBlockEnd
  0
BLOCK
  5
3A6
330
3A5
100
AcDbEntity
  8
0
100
AcDbBlockBegin
  2
*D20
 70
     1
 10
0.0
 20
0.0
 30
0.0
  3
*D20
  1

  0
LINE
  5
3A7
330
3A5
100
AcDbEntity
  8
치수문자_일반주서
 62
     0
370
    -2
100
AcDbLine
 10
62.99999999251592
 20
19.73986656605672
 30
0.0
 11
62.99999999251592
 21
42.92218321881005
 31
0.0
  0
LINE
  5
3A8
330
3A5
100
AcDbEntity
  8
치수문자_일반주서
 62
     0
370
    -2
100
AcDbLine
 10
47.99999998739524
 20
19.66486656605671
 30
0.0
 11
47.99999998739524
 21
42.92218321881005
 31
0.0
  0
LINE
  5
3A9
330
3A5
100
AcDbEntity
  8
치수문자_일반주서
 62
     0
370
    -2
100
AcDbLine
 10
59.69799999251592
 20
42.92218321881005
 30
0.0
 11
51.30199998739524
 21
42.92218321881005
 31
0.0
  0
SOLID
  5
3AA
330
3A5
100
AcDbEntity
  8
치수문자_일반주서
 62
     0
100
AcDbTrace
 10
59.69799999251592
 20
42.37184988547671
 30
0.0
 11
59.69799999251592
 21
43.47251655214338
 31
0.0
 12
62.99999999251592
 22
42.92218321881005
 32
0.0
 13
62.99999999251592
 23
42.92218321881005
 33
0.0
  0
SOLID
  5
3AB
330
3A5
100
AcDbEntity
  8
치수문자_일반주서
 62
     0
100
AcDbTrace
 10
51.30199998739524
 20
43.47251655214338
 30
0.0
 11
51.30199998739524
 21
42.37184988547671
 31
0.0
 12
47.99999998739524
 22
42.92218321881005
 32
0.0
 13
47.99999998739524
 23
42.92218321881005
 33
0.0
  0
MTEXT
  5
3AC
330
3A5
100
AcDbEntity
  8
치수문자_일반주서
 62
     0
100
AcDbMText
 10
55.49999999369761
 20
47.29718321881005
 30
0.0
 40
3.5
 41
0.0
 71
     2
 72
     1
  1
\A1;15
  7
SLDTEXTSTYLE0
 73
     1
 44
1.0
  0
POINT
  5
3AD
330
3A5
100
AcDbEntity
  8
Defpoints
 62
     0
100
AcDbPoint
 10
62.99999999251592
 20
19.67736656605672
 30
0.0
  0
POINT
  5
3AE
330
3A5
100
AcDbEntity
  8
Defpoints
 62
     0
100
AcDbPoint
 10
47.99999998739524
 20
19.60236656605671
 30
0.0
  0
POINT
  5
3AF
330
3A5
100
AcDbEntity
  8
Defpoints
 62
     0
100
AcDbPoint
 10
47.99999998739524
 20
42.92218321881005
 30
0.0
  0
ENDBLK
  5
3B0
330
3A5
100
AcDbEntity
  8
0
100
AcDbBlockEnd
  0
BLOCK
  5
3B3
330
3B2
100
AcDbEntity
  8
0
100
AcDbBlockBegin
  2
*D21
 70
     1
 10
0.0
 20
0.0
 30
0.0
  3
*D21
  1

  0
LINE
  5
3B4
330
3B2
100
AcDbEntity
  8
치수문자_일반주서
 62
     0
370
    -2
100
AcDbLine
 10
63.06249999251592
 20
14.67736656605672
 30
0.0
 11
72.99999999251585
 21
14.67736656605676
 31
0.0
  0
LINE
  5
3B5
330
3B2
100
AcDbEntity
  8
치수문자_일반주서
 62
     0
370
    -2
100
AcDbLine
 10
63.06249999251592
 20
19.67736656605672
 30
0.0
 11
72.99999999251584
 21
19.67736656605675
 31
0.0
  0
LINE
  5
3B6
330
3B2
100
AcDbEntity
  8
치수문자_일반주서
 62
     0
370
    -2
100
AcDbLine
 10
72.99999999251585
 20
14.67736656605676
 30
0.0
 11
72.9999999925158
 21
32.40636656605676
 31
0.0
  0
LINE
  5
3B7
330
3B2
100
AcDbEntity
  8
치수문자_일반주서
 62
     0
370
    -2
100
AcDbLine
 10
72.99999999251585
 20
14.67736656605676
 30
0.0
 11
72.99999999251584
 21
19.67736656605675
 31
0.0
  0
LINE
  5
3B8
330
3B2
100
AcDbEntity
  8
치수문자_일반주서
 62
     0
370
    -2
100
AcDbLine
 10
72.99999999251587
 20
11.37536656605676
 30
0.0
 11
72.99999999251588
 21
8.073366566056757
 31
0.0
  0
LINE
  5
3B9
330
3B2
100
AcDbEntity
  8
치수문자_일반주서
 62
     0
370
    -2
100
AcDbLine
 10
72.99999999251582
 20
22.97936656605675
 30
0.0
 11
72.99999999251581
 21
26.28136656605675
 31
0.0
  0
SOLID
  5
3BA
330
3B2
100
AcDbEntity
  8
치수문자_일반주서
 62
     0
100
AcDbTrace
 10
73.5503333258492
 20
11.37536656605676
 30
0.0
 11
72.44966665918254
 21
11.37536656605675
 31
0.0
 12
72.99999999251585
 22
14.67736656605676
 32
0.0
 13
72.99999999251585
 23
14.67736656605676
 33
0.0
  0
SOLID
  5
3BB
330
3B2
100
AcDbEntity
  8
치수문자_일반주서
 62
     0
100
AcDbTrace
 10
72.4496666591825
 20
22.97936656605675
 30
0.0
 11
73.55033332584915
 21
22.97936656605675
 31
0.0
 12
72.99999999251584
 22
19.67736656605675
 32
0.0
 13
72.99999999251584
 23
19.67736656605675
 33
0.0
  0
MTEXT
  5
3BC
330
3B2
100
AcDbEntity
  8
치수문자_일반주서
 62
     0
100
AcDbMText
 10
68.62499999251581
 20
29.34386656605675
 30
0.0
 40
3.5
 41
0.0
 71
     2
 72
     1
  1
\A1;%%c5
  7
SLDTEXTSTYLE0
 11
-2.842170943040400E-15
 21
1.0
 31
0.0
 73
     1
 44
1.0
  0
POINT
  5
3BD
330
3B2
100
AcDbEntity
  8
Defpoints
 62
     0
100
AcDbPoint
 10
62.99999999251592
 20
14.67736656605672
 30
0.0
  0
POINT
  5
3BE
330
3B2
100
AcDbEntity
  8
Defpoints
 62
     0
100
AcDbPoint
 10
62.99999999251592
 20
19.67736656605672
 30
0.0
  0
POINT
  5
3BF
330
3B2
100
AcDbEntity
  8
Defpoints
 62
     0
100
AcDbPoint
 10
72.99999999251585
 20
19.67736656605676
 30
0.0
  0
ENDBLK
  5
3C0
330
3B2
100
AcDbEntity
  8
0
100
AcDbBlockEnd
  0
BLOCK
  5
3D7
330
3D6
100
AcDbEntity
  8
0
100
AcDbBlockBegin
  2
*D22
 70
     1
 10
0.0
 20
0.0
 30
0.0
  3
*D22
  1

  0
LINE
  5
3D8
330
3D6
100
AcDbEntity
  8
치수문자_일반주서
 62
     0
370
    -2
100
AcDbLine
 10
64.577355649156
 20
12.23288656224042
 30
0.0
 11
73.73069598949081
 21
0.0000000000000253
 31
0.0
  0
MTEXT
  5
3D9
330
3D6
100
AcDbEntity
  8
치수문자_일반주서
 62
     0
100
AcDbMText
 10
74.25979914066517
 20
3.674411497834389
 30
0.0
 40
3.5
 41
0.0
 71
     5
 72
     1
  1
\A1;R1
  7
SLDTEXTSTYLE0
 11
0.5991063517447639
 21
-0.8006694569540412
 31
0.0
 73
     1
 44
1.0
  0
SOLID
  5
3DA
330
3D6
100
AcDbEntity
  8
치수문자_일반주서
 62
     0
100
AcDbTrace
 10
65.01799074029971
 20
12.56259475781729
 30
0.0
 11
64.1367205580123
 21
11.90317836666356
 31
0.0
 12
62.5991064756948
 22
14.87669710910267
 32
0.0
 13
62.5991064756948
 23
14.87669710910267
 33
0.0
  0
LINE
  5
3DB
330
3D6
100
AcDbEntity
  8
치수문자_일반주서
 62
     0
100
AcDbLine
 10
61.95500012395003
 20
15.67736656605671
 30
0.0
 11
62.04500012395003
 21
15.67736656605671
 31
0.0
  0
LINE
  5
3DC
330
3D6
100
AcDbEntity
  8
치수문자_일반주서
 62
     0
100
AcDbLine
 10
62.00000012395003
 20
15.63236656605671
 30
0.0
 11
62.00000012395003
 21
15.72236656605671
 31
0.0
  0
ARC
  5
3DD
330
3D6
100
AcDbEntity
  8
치수문자_일반주서
 62
     0
370
    -2
100
AcDbCircle
 10
62.00000012395003
 20
15.67736656605671
 30
0.0
 40
1.000000000000003
100
AcDbArc
 50
306.8059215790152
 51
311.6965780078229
  0
POINT
  5
3EA
330
3D6
100
AcDbEntity
  8
Defpoints
 62
     0
100
AcDbPoint
 10
62.5991064756948
 20
14.87669710910267
 30
0.0
  0
POINT
  5
3EB
330
3D6
100
AcDbEntity
  8
Defpoints
 62
     0
100
AcDbPoint
 10
62.00000012395003
 20
15.67736656605671
 30
0.0
  0
ENDBLK
  5
3DE
330
3D6
100
AcDbEntity
  8
0
100
AcDbBlockEnd
  0
BLOCK
  5
40F
330
40E
100
AcDbEntity
  8
0
100
AcDbBlockBegin
  2
*D23
 70
     1
 10
0.0
 20
0.0
 30
0.0
  3
*D23
  1

  0
LINE
  5
411
330
40E
100
AcDbEntity
  8
치수문자_일반주서
 62
     0
370
    -2
100
AcDbLine
 10
50.41816574599102
 20
12.60582688057601
 30
0.0
 11
50.41816574599102
 21
41.04332688057603
 31
0.0
  0
LINE
  5
412
330
40E
100
AcDbEntity
  8
치수문자_일반주서
 62
     0
370
    -2
100
AcDbLine
 10
110.4181657385069
 20
12.60582688057602
 30
0.0
 11
110.4181657385069
 21
41.04332688057603
 31
0.0
  0
LINE
  5
413
330
40E
100
AcDbEntity
  8
치수문자_일반주서
 62
     0
370
    -2
100
AcDbLine
 10
53.72016574599102
 20
41.04332688057603
 30
0.0
 11
107.1161657385069
 21
41.04332688057603
 31
0.0
  0
SOLID
  5
414
330
40E
100
AcDbEntity
  8
치수문자_일반주서
 62
     0
100
AcDbTrace
 10
53.72016574599102
 20
41.59366021390937
 30
0.0
 11
53.72016574599102
 21
40.4929935472427
 31
0.0
 12
50.41816574599102
 22
41.04332688057603
 32
0.0
 13
50.41816574599102
 23
41.04332688057603
 33
0.0
  0
SOLID
  5
415
330
40E
100
AcDbEntity
  8
치수문자_일반주서
 62
     0
100
AcDbTrace
 10
107.1161657385069
 20
40.4929935472427
 30
0.0
 11
107.1161657385069
 21
41.59366021390937
 31
0.0
 12
110.4181657385069
 22
41.04332688057603
 32
0.0
 13
110.4181657385069
 23
41.04332688057603
 33
0.0
  0
MTEXT
  5
416
330
40E
100
AcDbEntity
  8
치수문자_일반주서
 62
     0
100
AcDbMText
 10
80.41816574599103
 20
45.41832688057603
 30
0.0
 40
3.5
 41
0.0
 71
     2
 72
     1
  1
\A1;60
  7
SLDTEXTSTYLE0
 73
     1
 44
1.0
  0
POINT
  5
417
330
40E
100
AcDbEntity
  8
Defpoints
 62
     0
100
AcDbPoint
 10
50.41816574599102
 20
12.54332688057601
 30
0.0
  0
POINT
  5
418
330
40E
100
AcDbEntity
  8
Defpoints
 62
     0
100
AcDbPoint
 10
110.4181657385069
 20
12.54332688057602
 30
0.0
  0
POINT
  5
419
330
40E
100
AcDbEntity
  8
Defpoints
 62
     0
100
AcDbPoint
 10
110.4181657385069
 20
41.04332688057603
 30
0.0
  0
ENDBLK
  5
410
330
40E
100
AcDbEntity
  8
0
100
AcDbBlockEnd
  0
BLOCK
  5
41B
330
41A
100
AcDbEntity
  8
0
100
AcDbBlockBegin
  2
*D24
 70
     1
 10
0.0
 20
0.0
 30
0.0
  3
*D24
  1

  0
LINE
  5
41D
330
41A
100
AcDbEntity
  8
치수문자_일반주서
 62
     0
370
    -2
100
AcDbLine
 10
102.418165745991
 20
12.06886182739918
 30
0.0
 11
102.418165745991
 21
26.82877442567091
 31
0.0
  0
LINE
  5
41E
330
41A
100
AcDbEntity
  8
치수문자_일반주서
 62
     0
370
    -2
100
AcDbLine
 10
110.4181657385069
 20
12.60582688057602
 30
0.0
 11
110.4181657385069
 21
26.82877442567091
 31
0.0
  0
LINE
  5
41F
330
41A
100
AcDbEntity
  8
치수문자_일반주서
 62
     0
370
    -2
100
AcDbLine
 10
105.720165745991
 20
26.82877442567091
 30
0.0
 11
107.1161657385069
 21
26.82877442567091
 31
0.0
  0
SOLID
  5
420
330
41A
100
AcDbEntity
  8
치수문자_일반주서
 62
     0
100
AcDbTrace
 10
105.720165745991
 20
27.37910775900425
 30
0.0
 11
105.720165745991
 21
26.27844109233758
 31
0.0
 12
102.418165745991
 22
26.82877442567091
 32
0.0
 13
102.418165745991
 23
26.82877442567091
 33
0.0
  0
SOLID
  5
421
330
41A
100
AcDbEntity
  8
치수문자_일반주서
 62
     0
100
AcDbTrace
 10
107.1161657385069
 20
26.27844109233758
 30
0.0
 11
107.1161657385069
 21
27.37910775900425
 31
0.0
 12
110.4181657385069
 22
26.82877442567091
 32
0.0
 13
110.4181657385069
 23
26.82877442567091
 33
0.0
  0
MTEXT
  5
422
330
41A
100
AcDbEntity
  8
치수문자_일반주서
 62
     0
100
AcDbMText
 10
106.418165745991
 20
31.20377442567091
 30
0.0
 40
3.5
 41
0.0
 71
     2
 72
     1
  1
\A1;8
  7
SLDTEXTSTYLE0
 73
     1
 44
1.0
  0
POINT
  5
423
330
41A
100
AcDbEntity
  8
Defpoints
 62
     0
100
AcDbPoint
 10
102.418165745991
 20
12.00636182739918
 30
0.0
  0
POINT
  5
424
330
41A
100
AcDbEntity
  8
Defpoints
 62
     0
100
AcDbPoint
 10
110.4181657385069
 20
12.54332688057602
 30
0.0
  0
POINT
  5
425
330
41A
100
AcDbEntity
  8
Defpoints
 62
     0
100
AcDbPoint
 10
110.4181657385069
 20
26.82877442567091
 30
0.0
  0
ENDBLK
  5
41C
330
41A
100
AcDbEntity
  8
0
100
AcDbBlockEnd
  0
BLOCK
  5
427
330
426
100
AcDbEntity
  8
0
100
AcDbBlockBegin
  2
*D25
 70
     1
 10
0.0
 20
0.0
 30
0.0
  3
*D25
  1

  0
LINE
  5
429
330
426
100
AcDbEntity
  8
치수문자_일반주서
 62
     0
370
    -2
100
AcDbLine
 10
110.4181657385069
 20
12.60582688057602
 30
0.0
 11
110.4181657385069
 21
35.78814353332935
 31
0.0
  0
LINE
  5
42A
330
426
100
AcDbEntity
  8
치수문자_일반주서
 62
     0
370
    -2
100
AcDbLine
 10
95.41816573338626
 20
12.53082688057601
 30
0.0
 11
95.41816573338626
 21
35.78814353332935
 31
0.0
  0
LINE
  5
42B
330
426
100
AcDbEntity
  8
치수문자_일반주서
 62
     0
370
    -2
100
AcDbLine
 10
107.1161657385069
 20
35.78814353332935
 30
0.0
 11
98.72016573338627
 21
35.78814353332935
 31
0.0
  0
SOLID
  5
42C
330
426
100
AcDbEntity
  8
치수문자_일반주서
 62
     0
100
AcDbTrace
 10
107.1161657385069
 20
35.23781019999601
 30
0.0
 11
107.1161657385069
 21
36.33847686666268
 31
0.0
 12
110.4181657385069
 22
35.78814353332935
 32
0.0
 13
110.4181657385069
 23
35.78814353332935
 33
0.0
  0
SOLID
  5
42D
330
426
100
AcDbEntity
  8
치수문자_일반주서
 62
     0
100
AcDbTrace
 10
98.72016573338627
 20
36.33847686666268
 30
0.0
 11
98.72016573338627
 21
35.23781019999601
 31
0.0
 12
95.41816573338626
 22
35.78814353332935
 32
0.0
 13
95.41816573338626
 23
35.78814353332935
 33
0.0
  0
MTEXT
  5
42E
330
426
100
AcDbEntity
  8
치수문자_일반주서
 62
     0
100
AcDbMText
 10
102.9181657396886
 20
40.16314353332935
 30
0.0
 40
3.5
 41
0.0
 71
     2
 72
     1
  1
\A1;15
  7
SLDTEXTSTYLE0
 73
     1
 44
1.0
  0
POINT
  5
42F
330
426
100
AcDbEntity
  8
Defpoints
 62
     0
100
AcDbPoint
 10
110.4181657385069
 20
12.54332688057602
 30
0.0
  0
POINT
  5
430
330
426
100
AcDbEntity
  8
Defpoints
 62
     0
100
AcDbPoint
 10
95.41816573338626
 20
12.46832688057601
 30
0.0
  0
POINT
  5
431
330
426
100
AcDbEntity
  8
Defpoints
 62
     0
100
AcDbPoint
 10
95.41816573338626
 20
35.78814353332935
 30
0.0
  0
ENDBLK
  5
428
330
426
100
AcDbEntity
  8
0
100
AcDbBlockEnd
  0
BLOCK
  5
433
330
432
100
AcDbEntity
  8
0
100
AcDbBlockBegin
  2
*D26
 70
     1
 10
0.0
 20
0.0
 30
0.0
  3
*D26
  1

  0
LINE
  5
435
330
432
100
AcDbEntity
  8
치수문자_일반주서
 62
     0
370
    -2
100
AcDbLine
 10
110.4806657385069
 20
7.543326880576018
 30
0.0
 11
120.4181657385069
 21
7.543326880576055
 31
0.0
  0
LINE
  5
436
330
432
100
AcDbEntity
  8
치수문자_일반주서
 62
     0
370
    -2
100
AcDbLine
 10
110.4806657385069
 20
12.54332688057602
 30
0.0
 11
120.4181657385069
 21
12.54332688057606
 31
0.0
  0
LINE
  5
437
330
432
100
AcDbEntity
  8
치수문자_일반주서
 62
     0
370
    -2
100
AcDbLine
 10
120.4181657385069
 20
7.543326880576055
 30
0.0
 11
120.4181657385068
 21
25.27232688057606
 31
0.0
  0
LINE
  5
438
330
432
100
AcDbEntity
  8
치수문자_일반주서
 62
     0
370
    -2
100
AcDbLine
 10
120.4181657385069
 20
7.543326880576055
 30
0.0
 11
120.4181657385069
 21
12.54332688057606
 31
0.0
  0
LINE
  5
439
330
432
100
AcDbEntity
  8
치수문자_일반주서
 62
     0
370
    -2
100
AcDbLine
 10
120.4181657385069
 20
4.241326880576056
 30
0.0
 11
120.4181657385069
 21
0.9393268805760555
 31
0.0
  0
LINE
  5
43A
330
432
100
AcDbEntity
  8
치수문자_일반주서
 62
     0
370
    -2
100
AcDbLine
 10
120.4181657385068
 20
15.84532688057605
 30
0.0
 11
120.4181657385068
 21
19.14732688057606
 31
0.0
  0
SOLID
  5
43B
330
432
100
AcDbEntity
  8
치수문자_일반주서
 62
     0
100
AcDbTrace
 10
120.9684990718402
 20
4.241326880576057
 30
0.0
 11
119.8678324051736
 21
4.241326880576054
 31
0.0
 12
120.4181657385069
 22
7.543326880576055
 32
0.0
 13
120.4181657385069
 23
7.543326880576055
 33
0.0
  0
SOLID
  5
43C
330
432
100
AcDbEntity
  8
치수문자_일반주서
 62
     0
100
AcDbTrace
 10
119.8678324051735
 20
15.84532688057605
 30
0.0
 11
120.9684990718402
 21
15.84532688057606
 31
0.0
 12
120.4181657385069
 22
12.54332688057606
 32
0.0
 13
120.4181657385069
 23
12.54332688057606
 33
0.0
  0
MTEXT
  5
43D
330
432
100
AcDbEntity
  8
치수문자_일반주서
 62
     0
100
AcDbMText
 10
116.0431657385068
 20
22.20982688057605
 30
0.0
 40
3.5
 41
0.0
 71
     2
 72
     1
  1
\A1;%%c5
  7
SLDTEXTSTYLE0
 11
-2.842170943040401E-15
 21
1.0
 31
0.0
 73
     1
 44
1.0
  0
POINT
  5
43E
330
432
100
AcDbEntity
  8
Defpoints
 62
     0
100
AcDbPoint
 10
110.4181657385069
 20
7.543326880576018
 30
0.0
  0
POINT
  5
43F
330
432
100
AcDbEntity
  8
Defpoints
 62
     0
100
AcDbPoint
 10
110.4181657385069
 20
12.54332688057602
 30
0.0
  0
POINT
  5
440
330
432
100
AcDbEntity
  8
Defpoints
 62
     0
100
AcDbPoint
 10
120.4181657385069
 20
12.54332688057606
 30
0.0
  0
ENDBLK
  5
434
330
432
100
AcDbEntity
  8
0
100
AcDbBlockEnd
  0
BLOCK
  5
442
330
441
100
AcDbEntity
  8
0
100
AcDbBlockBegin
  2
*D27
 70
     1
 10
0.0
 20
0.0
 30
0.0
  3
*D27
  1

  0
LINE
  5
444
330
441
100
AcDbEntity
  8
치수문자_일반주서
 62
     0
370
    -2
100
AcDbLine
 10
111.995521395147
 20
5.098846876759723
 30
0.0
 11
121.1488617354818
 21
-7.134039685480667
 31
0.0
  0
MTEXT
  5
445
330
441
100
AcDbEntity
  8
치수문자_일반주서
 62
     0
100
AcDbMText
 10
121.6779648866562
 20
-3.459628187646303
 30
0.0
 40
3.5
 41
0.0
 71
     5
 72
     1
  1
\A1;R1
  7
SLDTEXTSTYLE0
 11
0.5991063517447639
 21
-0.8006694569540412
 31
0.0
 73
     1
 44
1.0
  0
SOLID
  5
446
330
441
100
AcDbEntity
  8
치수문자_일반주서
 62
     0
100
AcDbTrace
 10
112.4361564862907
 20
5.428555072336591
 30
0.0
 11
111.5548863040033
 21
4.769138681182854
 31
0.0
 12
110.0172722216858
 22
7.742657423621967
 32
0.0
 13
110.0172722216858
 23
7.742657423621967
 33
0.0
  0
LINE
  5
447
330
441
100
AcDbEntity
  8
치수문자_일반주서
 62
     0
100
AcDbLine
 10
109.373165869941
 20
8.54332688057601
 30
0.0
 11
109.4631658699411
 21
8.54332688057601
 31
0.0
  0
LINE
  5
448
330
441
100
AcDbEntity
  8
치수문자_일반주서
 62
     0
100
AcDbLine
 10
109.418165869941
 20
8.49832688057601
 30
0.0
 11
109.418165869941
 21
8.58832688057601
 31
0.0
  0
ARC
  5
449
330
441
100
AcDbEntity
  8
치수문자_일반주서
 62
     0
370
    -2
100
AcDbCircle
 10
109.418165869941
 20
8.54332688057601
 30
0.0
 40
1.000000000000003
100
AcDbArc
 50
306.8059215790152
 51
311.6965780078229
  0
POINT
  5
44A
330
441
100
AcDbEntity
  8
Defpoints
 62
     0
100
AcDbPoint
 10
110.0172722216858
 20
7.742657423621967
 30
0.0
  0
POINT
  5
44B
330
441
100
AcDbEntity
  8
Defpoints
 62
     0
100
AcDbPoint
 10
109.418165869941
 20
8.54332688057601
 30
0.0
  0
ENDBLK
  5
443
330
441
100
AcDbEntity
  8
0
100
AcDbBlockEnd
  0
BLOCK
  5
57D
330
57C
100
AcDbEntity
  8
0
100
AcDbBlockBegin
  2
_D_5
 70
     0
 10
0.0
 20
0.0
 30
0.0
  3
_D_5
  1

  0
LINE
  5
57E
330
57C
100
AcDbEntity
  8
치수문자_일반주서
 62
     0
370
    -2
100
AcDbLine
 10
66.55469180935262
 20
46.88709759063113
 30
0.0
 11
79.24039295577684
 21
30.5876428425206
 31
0.0
  0
MTEXT
  5
57F
330
57C
100
AcDbEntity
  8
치수문자_일반주서
 62
     0
100
AcDbMText
 10
76.7813500063179
 20
40.87036416387888
 30
0.0
 40
3.5
 41
0.0
 71
     1
 72
     1
  1
\A1;R0.10
  7
SLDTEXTSTYLE0
 11
0.6141923996151843
 21
-0.7891563192770759
 31
0.0
 73
     1
 44
1.0
  0
SOLID
  5
580
330
57C
100
AcDbEntity
  8
치수문자_일반주서
 62
     0
100
AcDbTrace
 10
66.98899083706144
 20
47.22510814121935
 30
0.0
 11
66.1203927816438
 21
46.54908704004291
 31
0.0
 12
64.52662850582328
 22
49.49289175688403
 32
0.0
 13
64.52662850582328
 23
49.49289175688403
 33
0.0
  0
POINT
  5
581
330
57C
100
AcDbEntity
  8
Defpoints
 62
     0
100
AcDbPoint
 10
64.52662850582328
 20
49.49289175688403
 30
0.0
  0
POINT
  5
5D8
330
57C
100
AcDbEntity
  8
Defpoints
 62
     0
100
AcDbPoint
 10
64.46520926586176
 20
49.57180738881175
 30
0.0
  0
ENDBLK
  5
582
330
57C
100
AcDbEntity
  8
0
100
AcDbBlockEnd
  0
BLOCK
  5
594
330
593
100
AcDbEntity
  8
0
100
AcDbBlockBegin
  2
*D30
 70
     1
 10
0.0
 20
0.0
 30
0.0
  3
*D30
  1

  0
LINE
  5
596
330
593
100
AcDbEntity
  8
치수문자_일반주서
 62
     0
370
    -2
100
AcDbLine
 10
14.90270926586177
 20
47.97180738881174
 30
0.0
 11
4.565209265861732
 21
47.9718073888117
 31
0.0
  0
LINE
  5
597
330
593
100
AcDbEntity
  8
치수문자_일반주서
 62
     0
370
    -2
100
AcDbLine
 10
14.90270926586177
 20
51.97180738881175
 30
0.0
 11
4.565209265861718
 21
51.9718073888117
 31
0.0
  0
LINE
  5
598
330
593
100
AcDbEntity
  8
치수문자_일반주서
 62
     0
370
    -2
100
AcDbLine
 10
4.56520926586172
 20
51.2738073888117
 30
0.0
 11
4.565209265861729
 21
48.66980738881171
 31
0.0
  0
SOLID
  5
599
330
593
100
AcDbEntity
  8
치수문자_일반주서
 62
     0
100
AcDbTrace
 10
4.014875932528387
 20
51.2738073888117
 30
0.0
 11
5.115542599195054
 21
51.2738073888117
 31
0.0
 12
4.565209265861732
 22
47.9718073888117
 32
0.0
 13
4.565209265861732
 23
47.9718073888117
 33
0.0
  0
SOLID
  5
59A
330
593
100
AcDbEntity
  8
치수문자_일반주서
 62
     0
100
AcDbTrace
 10
5.115542599195063
 20
48.66980738881171
 30
0.0
 11
4.014875932528396
 21
48.66980738881171
 31
0.0
 12
4.565209265861718
 22
51.9718073888117
 32
0.0
 13
4.565209265861718
 23
51.9718073888117
 33
0.0
  0
MTEXT
  5
59B
330
593
100
AcDbEntity
  8
치수문자_일반주서
 62
     0
100
AcDbMText
 10
0.1902092658617249
 20
49.97180738881173
 30
0.0
 40
3.5
 41
0.0
 71
     2
 72
     1
  1
\A1;%%c4
  7
SLDTEXTSTYLE0
 11
-3.552713678800488E-15
 21
1.0
 31
0.0
 73
     1
 44
1.0
  0
POINT
  5
59C
330
593
100
AcDbEntity
  8
Defpoints
 62
     0
100
AcDbPoint
 10
14.96520926586177
 20
47.97180738881174
 30
0.0
  0
POINT
  5
59D
330
593
100
AcDbEntity
  8
Defpoints
 62
     0
100
AcDbPoint
 10
14.96520926586177
 20
51.97180738881175
 30
0.0
  0
POINT
  5
59E
330
593
100
AcDbEntity
  8
Defpoints
 62
     0
100
AcDbPoint
 10
4.565209265861725
 20
51.97180738881171
 30
0.0
  0
ENDBLK
  5
595
330
593
100
AcDbEntity
  8
0
100
AcDbBlockEnd
  0
BLOCK
  5
5A0
330
59F
100
AcDbEntity
  8
0
100
AcDbBlockBegin
  2
*D31
 70
     1
 10
0.0
 20
0.0
 30
0.0
  3
*D31
  1

  0
LINE
  5
5A2
330
59F
100
AcDbEntity
  8
치수문자_일반주서
 62
     0
370
    -2
100
AcDbLine
 10
64.56520926586175
 20
50.27874336744414
 30
0.0
 11
64.56520926586175
 21
87.78787545854104
 31
0.0
  0
LINE
  5
5A3
330
59F
100
AcDbEntity
  8
치수문자_일반주서
 62
     0
370
    -2
100
AcDbLine
 10
14.56520926586175
 20
51.63430738881175
 30
0.0
 11
14.56520926586175
 21
87.78787545854104
 31
0.0
  0
LINE
  5
5A4
330
59F
100
AcDbEntity
  8
치수문자_일반주서
 62
     0
370
    -2
100
AcDbLine
 10
61.26320926586175
 20
87.78787545854104
 30
0.0
 11
17.86720926586175
 21
87.78787545854104
 31
0.0
  0
SOLID
  5
5A5
330
59F
100
AcDbEntity
  8
치수문자_일반주서
 62
     0
100
AcDbTrace
 10
61.26320926586175
 20
87.23754212520771
 30
0.0
 11
61.26320926586175
 21
88.33820879187437
 31
0.0
 12
64.56520926586175
 22
87.78787545854104
 32
0.0
 13
64.56520926586175
 23
87.78787545854104
 33
0.0
  0
SOLID
  5
5A6
330
59F
100
AcDbEntity
  8
치수문자_일반주서
 62
     0
100
AcDbTrace
 10
17.86720926586175
 20
88.33820879187437
 30
0.0
 11
17.86720926586175
 21
87.23754212520771
 31
0.0
 12
14.56520926586175
 22
87.78787545854104
 32
0.0
 13
14.56520926586175
 23
87.78787545854104
 33
0.0
  0
MTEXT
  5
5A7
330
59F
100
AcDbEntity
  8
치수문자_일반주서
 62
     0
100
AcDbMText
 10
39.56520926586175
 20
92.16287545854104
 30
0.0
 40
3.5
 41
0.0
 71
     2
 72
     1
  1
\A1;50
  7
SLDTEXTSTYLE0
 73
     1
 44
1.0
  0
POINT
  5
5A8
330
59F
100
AcDbEntity
  8
Defpoints
 62
     0
100
AcDbPoint
 10
64.56520926586175
 20
50.21624336744414
 30
0.0
  0
POINT
  5
5A9
330
59F
100
AcDbEntity
  8
Defpoints
 62
     0
100
AcDbPoint
 10
14.56520926586175
 20
51.57180738881175
 30
0.0
  0
POINT
  5
5AA
330
59F
100
AcDbEntity
  8
Defpoints
 62
     0
100
AcDbPoint
 10
14.56520926586175
 20
87.78787545854104
 30
0.0
  0
ENDBLK
  5
5A1
330
59F
100
AcDbEntity
  8
0
100
AcDbBlockEnd
  0
BLOCK
  5
5AC
330
5AB
100
AcDbEntity
  8
0
100
AcDbBlockBegin
  2
*D32
 70
     1
 10
0.0
 20
0.0
 30
0.0
  3
*D32
  1

  0
LINE
  5
5AE
330
5AB
100
AcDbEntity
  8
치수문자_일반주서
 62
     0
370
    -2
100
AcDbLine
 10
63.82583935404711
 20
50.47180738881175
 30
0.0
 11
81.28939978073635
 21
50.47180738881181
 31
0.0
  0
LINE
  5
5AF
330
5AB
100
AcDbEntity
  8
치수문자_일반주서
 62
     0
370
    -2
100
AcDbLine
 10
63.82583935404711
 20
49.47180738881175
 30
0.0
 11
81.28939978073635
 21
49.47180738881181
 31
0.0
  0
LINE
  5
5B0
330
5AB
100
AcDbEntity
  8
치수문자_일반주서
 62
     0
370
    -2
100
AcDbLine
 10
81.28939978073635
 20
50.47180738881181
 30
0.0
 11
81.28939978073635
 21
62.32580738881181
 31
0.0
  0
LINE
  5
5B1
330
5AB
100
AcDbEntity
  8
치수문자_일반주서
 62
     0
370
    -2
100
AcDbLine
 10
81.28939978073635
 20
50.47180738881181
 30
0.0
 11
81.28939978073635
 21
49.47180738881181
 31
0.0
  0
LINE
  5
5B2
330
5AB
100
AcDbEntity
  8
치수문자_일반주서
 62
     0
370
    -2
100
AcDbLine
 10
81.28939978073635
 20
53.77380738881181
 30
0.0
 11
81.28939978073635
 21
57.07580738881181
 31
0.0
  0
LINE
  5
5B3
330
5AB
100
AcDbEntity
  8
치수문자_일반주서
 62
     0
370
    -2
100
AcDbLine
 10
81.28939978073635
 20
46.16980738881181
 30
0.0
 11
81.28939978073635
 21
42.86780738881181
 31
0.0
  0
SOLID
  5
5B4
330
5AB
100
AcDbEntity
  8
치수문자_일반주서
 62
     0
100
AcDbTrace
 10
80.73906644740302
 20
53.77380738881181
 30
0.0
 11
81.83973311406967
 21
53.77380738881181
 31
0.0
 12
81.28939978073635
 22
50.47180738881181
 32
0.0
 13
81.28939978073635
 23
50.47180738881181
 33
0.0
  0
SOLID
  5
5B5
330
5AB
100
AcDbEntity
  8
치수문자_일반주서
 62
     0
100
AcDbTrace
 10
81.83973311406967
 20
46.16980738881181
 30
0.0
 11
80.73906644740302
 21
46.16980738881181
 31
0.0
 12
81.28939978073635
 22
49.47180738881181
 32
0.0
 13
81.28939978073635
 23
49.47180738881181
 33
0.0
  0
MTEXT
  5
5B6
330
5AB
100
AcDbEntity
  8
치수문자_일반주서
 62
     0
100
AcDbMText
 10
76.91439978073635
 20
59.70080738881181
 30
0.0
 40
3.5
 41
0.0
 71
     2
 72
     1
  1
\A1;%%c1
  7
SLDTEXTSTYLE0
 11
0.0
 21
1.0
 31
0.0
 73
     1
 44
1.0
  0
POINT
  5
5B7
330
5AB
100
AcDbEntity
  8
Defpoints
 62
     0
100
AcDbPoint
 10
63.76333935404711
 20
50.47180738881175
 30
0.0
  0
POINT
  5
5B8
330
5AB
100
AcDbEntity
  8
Defpoints
 62
     0
100
AcDbPoint
 10
63.76333935404711
 20
49.47180738881175
 30
0.0
  0
POINT
  5
5B9
330
5AB
100
AcDbEntity
  8
Defpoints
 62
     0
100
AcDbPoint
 10
81.28939978073635
 20
49.47180738881181
 30
0.0
  0
ENDBLK
  5
5AD
330
5AB
100
AcDbEntity
  8
0
100
AcDbBlockEnd
  0
BLOCK
  5
5BB
330
5BA
100
AcDbEntity
  8
0
100
AcDbBlockBegin
  2
*D33
 70
     1
 10
0.0
 20
0.0
 30
0.0
  3
*D33
  1

  0
LINE
  5
5BD
330
5BA
100
AcDbEntity
  8
치수문자_일반주서
 62
     0
370
    -2
100
AcDbLine
 10
64.56520926586175
 20
50.43073020897984
 30
0.0
 11
64.56520926586175
 21
64.8010475778459
 31
0.0
  0
LINE
  5
5BE
330
5BA
100
AcDbEntity
  8
치수문자_일반주서
 62
     0
370
    -2
100
AcDbLine
 10
63.0652092658615
 20
50.53391319921197
 30
0.0
 11
63.0652092658615
 21
64.8010475778459
 31
0.0
  0
LINE
  5
5BF
330
5BA
100
AcDbEntity
  8
치수문자_일반주서
 62
     0
370
    -2
100
AcDbLine
 10
64.56520926586175
 20
64.8010475778459
 30
0.0
 11
77.29420926586175
 21
64.8010475778459
 31
0.0
  0
LINE
  5
5C0
330
5BA
100
AcDbEntity
  8
치수문자_일반주서
 62
     0
370
    -2
100
AcDbLine
 10
64.56520926586175
 20
64.8010475778459
 30
0.0
 11
63.0652092658615
 21
64.8010475778459
 31
0.0
  0
LINE
  5
5C1
330
5BA
100
AcDbEntity
  8
치수문자_일반주서
 62
     0
370
    -2
100
AcDbLine
 10
67.86720926586176
 20
64.8010475778459
 30
0.0
 11
71.16920926586177
 21
64.8010475778459
 31
0.0
  0
LINE
  5
5C2
330
5BA
100
AcDbEntity
  8
치수문자_일반주서
 62
     0
370
    -2
100
AcDbLine
 10
59.7632092658615
 20
64.8010475778459
 30
0.0
 11
56.4612092658615
 21
64.8010475778459
 31
0.0
  0
SOLID
  5
5C3
330
5BA
100
AcDbEntity
  8
치수문자_일반주서
 62
     0
100
AcDbTrace
 10
67.86720926586176
 20
65.35138091117923
 30
0.0
 11
67.86720926586176
 21
64.25071424451258
 31
0.0
 12
64.56520926586175
 22
64.8010475778459
 32
0.0
 13
64.56520926586175
 23
64.8010475778459
 33
0.0
  0
SOLID
  5
5C4
330
5BA
100
AcDbEntity
  8
치수문자_일반주서
 62
     0
100
AcDbTrace
 10
59.7632092658615
 20
64.25071424451258
 30
0.0
 11
59.7632092658615
 21
65.35138091117923
 31
0.0
 12
63.0652092658615
 22
64.8010475778459
 32
0.0
 13
63.0652092658615
 23
64.8010475778459
 33
0.0
  0
MTEXT
  5
5C5
330
5BA
100
AcDbEntity
  8
치수문자_일반주서
 62
     0
100
AcDbMText
 10
74.23170926586175
 20
69.1760475778459
 30
0.0
 40
3.5
 41
0.0
 71
     2
 72
     1
  1
\A1;1.5
  7
SLDTEXTSTYLE0
 73
     1
 44
1.0
  0
POINT
  5
5C6
330
5BA
100
AcDbEntity
  8
Defpoints
 62
     0
100
AcDbPoint
 10
64.56520926586175
 20
50.36823020897984
 30
0.0
  0
POINT
  5
5C7
330
5BA
100
AcDbEntity
  8
Defpoints
 62
     0
100
AcDbPoint
 10
63.0652092658615
 20
50.47141319921197
 30
0.0
  0
POINT
  5
5C8
330
5BA
100
AcDbEntity
  8
Defpoints
 62
     0
100
AcDbPoint
 10
63.0652092658615
 20
64.8010475778459
 30
0.0
  0
ENDBLK
  5
5BC
330
5BA
100
AcDbEntity
  8
0
100
AcDbBlockEnd
  0
BLOCK
  5
5CA
330
5C9
100
AcDbEntity
  8
0
100
AcDbBlockBegin
  2
*D34
 70
     1
 10
0.0
 20
0.0
 30
0.0
  3
*D34
  1

  0
LINE
  5
5CC
330
5C9
100
AcDbEntity
  8
치수문자_일반주서
 62
     0
370
    -2
100
AcDbLine
 10
64.56520926586175
 20
50.43073020897984
 30
0.0
 11
64.56520926586175
 21
81.33743557922358
 31
0.0
  0
LINE
  5
5CD
330
5C9
100
AcDbEntity
  8
치수문자_일반주서
 62
     0
370
    -2
100
AcDbLine
 10
61.56520926586175
 20
50.50930738881174
 30
0.0
 11
61.56520926586175
 21
81.33743557922358
 31
0.0
  0
LINE
  5
5CE
330
5C9
100
AcDbEntity
  8
치수문자_일반주서
 62
     0
370
    -2
100
AcDbLine
 10
64.56520926586175
 20
81.33743557922358
 30
0.0
 11
74.66920926586175
 21
81.33743557922358
 31
0.0
  0
LINE
  5
5CF
330
5C9
100
AcDbEntity
  8
치수문자_일반주서
 62
     0
370
    -2
100
AcDbLine
 10
64.56520926586175
 20
81.33743557922358
 30
0.0
 11
61.56520926586175
 21
81.33743557922358
 31
0.0
  0
LINE
  5
5D0
330
5C9
100
AcDbEntity
  8
치수문자_일반주서
 62
     0
370
    -2
100
AcDbLine
 10
67.86720926586176
 20
81.33743557922358
 30
0.0
 11
71.16920926586177
 21
81.33743557922358
 31
0.0
  0
LINE
  5
5D1
330
5C9
100
AcDbEntity
  8
치수문자_일반주서
 62
     0
370
    -2
100
AcDbLine
 10
58.26320926586175
 20
81.33743557922358
 30
0.0
 11
54.96120926586175
 21
81.33743557922358
 31
0.0
  0
SOLID
  5
5D2
330
5C9
100
AcDbEntity
  8
치수문자_일반주서
 62
     0
100
AcDbTrace
 10
67.86720926586176
 20
81.88776891255691
 30
0.0
 11
67.86720926586176
 21
80.78710224589025
 31
0.0
 12
64.56520926586175
 22
81.33743557922358
 32
0.0
 13
64.56520926586175
 23
81.33743557922358
 33
0.0
  0
SOLID
  5
5D3
330
5C9
100
AcDbEntity
  8
치수문자_일반주서
 62
     0
100
AcDbTrace
 10
58.26320926586175
 20
80.78710224589025
 30
0.0
 11
58.26320926586175
 21
81.88776891255691
 31
0.0
 12
61.56520926586175
 22
81.33743557922358
 32
0.0
 13
61.56520926586175
 23
81.33743557922358
 33
0.0
  0
MTEXT
  5
5D4
330
5C9
100
AcDbEntity
  8
치수문자_일반주서
 62
     0
100
AcDbMText
 10
72.91920926586175
 20
85.71243557922358
 30
0.0
 40
3.5
 41
0.0
 71
     2
 72
     1
  1
\A1;3
  7
SLDTEXTSTYLE0
 73
     1
 44
1.0
  0
POINT
  5
5D5
330
5C9
100
AcDbEntity
  8
Defpoints
 62
     0
100
AcDbPoint
 10
64.56520926586175
 20
50.36823020897984
 30
0.0
  0
POINT
  5
5D6
330
5C9
100
AcDbEntity
  8
Defpoints
 62
     0
100
AcDbPoint
 10
61.56520926586175
 20
50.44680738881174
 30
0.0
  0
POINT
  5
5D7
330
5C9
100
AcDbEntity
  8
Defpoints
 62
     0
100
AcDbPoint
 10
61.56520926586175
 20
81.33743557922358
 30
0.0
  0
ENDBLK
  5
5CB
330
5C9
100
AcDbEntity
  8
0
100
AcDbBlockEnd
  0
BLOCK
  5
62F
330
62E
100
AcDbEntity
  8
0
100
AcDbBlockBegin
  2
*D35
 70
     1
 10
0.0
 20
0.0
 30
0.0
  3
*D35
  1

  0
LINE
  5
631
330
62E
100
AcDbEntity
  8
치수문자_일반주서
 62
     0
370
    -2
100
AcDbLine
 10
80.04519726628499
 20
-1.091383165351488
 30
0.0
 11
69.70769726628495
 21
-1.091383165351527
 31
0.0
  0
LINE
  5
632
330
62E
100
AcDbEntity
  8
치수문자_일반주서
 62
     0
370
    -2
100
AcDbLine
 10
80.04519726628499
 20
2.908616834648519
 30
0.0
 11
69.70769726628494
 21
2.90861683464848
 31
0.0
  0
LINE
  5
633
330
62E
100
AcDbEntity
  8
치수문자_일반주서
 62
     0
370
    -2
100
AcDbLine
 10
69.70769726628494
 20
2.210616834648473
 30
0.0
 11
69.70769726628495
 21
-0.3933831653515196
 31
0.0
  0
SOLID
  5
634
330
62E
100
AcDbEntity
  8
치수문자_일반주서
 62
     0
100
AcDbTrace
 10
69.15736393295161
 20
2.210616834648472
 30
0.0
 11
70.25803059961827
 21
2.210616834648475
 31
0.0
 12
69.70769726628495
 22
-1.091383165351527
 32
0.0
 13
69.70769726628495
 23
-1.091383165351527
 33
0.0
  0
SOLID
  5
635
330
62E
100
AcDbEntity
  8
치수문자_일반주서
 62
     0
100
AcDbTrace
 10
70.25803059961828
 20
-0.3933831653515177
 30
0.0
 11
69.15736393295163
 21
-0.3933831653515216
 31
0.0
 12
69.70769726628494
 22
2.90861683464848
 32
0.0
 13
69.70769726628494
 23
2.90861683464848
 33
0.0
  0
MTEXT
  5
636
330
62E
100
AcDbEntity
  8
치수문자_일반주서
 62
     0
100
AcDbMText
 10
65.33269726628494
 20
0.908616834648497
 30
0.0
 40
3.5
 41
0.0
 71
     2
 72
     1
  1
\A1;%%c4
  7
SLDTEXTSTYLE0
 11
-3.552713678800495E-15
 21
1.0
 31
0.0
 73
     1
 44
1.0
  0
POINT
  5
637
330
62E
100
AcDbEntity
  8
Defpoints
 62
     0
100
AcDbPoint
 10
80.10769726628499
 20
-1.091383165351488
 30
0.0
  0
POINT
  5
638
330
62E
100
AcDbEntity
  8
Defpoints
 62
     0
100
AcDbPoint
 10
80.10769726628499
 20
2.90861683464852
 30
0.0
  0
POINT
  5
639
330
62E
100
AcDbEntity
  8
Defpoints
 62
     0
100
AcDbPoint
 10
69.70769726628492
 20
2.90861683464848
 30
0.0
  0
ENDBLK
  5
630
330
62E
100
AcDbEntity
  8
0
100
AcDbBlockEnd
  0
BLOCK
  5
63B
330
63A
100
AcDbEntity
  8
0
100
AcDbBlockBegin
  2
*D36
 70
     1
 10
0.0
 20
0.0
 30
0.0
  3
*D36
  1

  0
LINE
  5
63D
330
63A
100
AcDbEntity
  8
치수문자_일반주서
 62
     0
370
    -2
100
AcDbLine
 10
129.707697266285
 20
1.215552813280908
 30
0.0
 11
129.707697266285
 21
38.72468490437781
 31
0.0
  0
LINE
  5
63E
330
63A
100
AcDbEntity
  8
치수문자_일반주서
 62
     0
370
    -2
100
AcDbLine
 10
79.70769726628497
 20
2.571116834648521
 30
0.0
 11
79.70769726628497
 21
38.72468490437781
 31
0.0
  0
LINE
  5
63F
330
63A
100
AcDbEntity
  8
치수문자_일반주서
 62
     0
370
    -2
100
AcDbLine
 10
126.405697266285
 20
38.72468490437781
 30
0.0
 11
83.00969726628497
 21
38.72468490437781
 31
0.0
  0
SOLID
  5
640
330
63A
100
AcDbEntity
  8
치수문자_일반주서
 62
     0
100
AcDbTrace
 10
126.405697266285
 20
38.17435157104448
 30
0.0
 11
126.405697266285
 21
39.27501823771114
 31
0.0
 12
129.707697266285
 22
38.72468490437781
 32
0.0
 13
129.707697266285
 23
38.72468490437781
 33
0.0
  0
SOLID
  5
641
330
63A
100
AcDbEntity
  8
치수문자_일반주서
 62
     0
100
AcDbTrace
 10
83.00969726628497
 20
39.27501823771114
 30
0.0
 11
83.00969726628497
 21
38.17435157104448
 31
0.0
 12
79.70769726628497
 22
38.72468490437781
 32
0.0
 13
79.70769726628497
 23
38.72468490437781
 33
0.0
  0
MTEXT
  5
642
330
63A
100
AcDbEntity
  8
치수문자_일반주서
 62
     0
100
AcDbMText
 10
104.707697266285
 20
43.09968490437781
 30
0.0
 40
3.5
 41
0.0
 71
     2
 72
     1
  1
\A1;50
  7
SLDTEXTSTYLE0
 73
     1
 44
1.0
  0
POINT
  5
643
330
63A
100
AcDbEntity
  8
Defpoints
 62
     0
100
AcDbPoint
 10
129.707697266285
 20
1.153052813280908
 30
0.0
  0
POINT
  5
644
330
63A
100
AcDbEntity
  8
Defpoints
 62
     0
100
AcDbPoint
 10
79.70769726628497
 20
2.508616834648521
 30
0.0
  0
POINT
  5
645
330
63A
100
AcDbEntity
  8
Defpoints
 62
     0
100
AcDbPoint
 10
79.70769726628497
 20
38.72468490437781
 30
0.0
  0
ENDBLK
  5
63C
330
63A
100
AcDbEntity
  8
0
100
AcDbBlockEnd
  0
BLOCK
  5
647
330
646
100
AcDbEntity
  8
0
100
AcDbBlockBegin
  2
*D37
 70
     1
 10
0.0
 20
0.0
 30
0.0
  3
*D37
  1

  0
LINE
  5
649
330
646
100
AcDbEntity
  8
치수문자_일반주서
 62
     0
370
    -2
100
AcDbLine
 10
128.9683273544703
 20
1.40861683464852
 30
0.0
 11
146.4318877811596
 21
1.408616834648585
 31
0.0
  0
LINE
  5
64A
330
646
100
AcDbEntity
  8
치수문자_일반주서
 62
     0
370
    -2
100
AcDbLine
 10
128.9683273544703
 20
0.4086168346485197
 30
0.0
 11
146.4318877811596
 21
0.4086168346485852
 31
0.0
  0
LINE
  5
64B
330
646
100
AcDbEntity
  8
치수문자_일반주서
 62
     0
370
    -2
100
AcDbLine
 10
146.4318877811596
 20
1.408616834648585
 30
0.0
 11
146.4318877811596
 21
13.26261683464858
 31
0.0
  0
LINE
  5
64C
330
646
100
AcDbEntity
  8
치수문자_일반주서
 62
     0
370
    -2
100
AcDbLine
 10
146.4318877811596
 20
1.408616834648585
 30
0.0
 11
146.4318877811596
 21
0.4086168346485852
 31
0.0
  0
LINE
  5
64D
330
646
100
AcDbEntity
  8
치수문자_일반주서
 62
     0
370
    -2
100
AcDbLine
 10
146.4318877811596
 20
4.710616834648585
 30
0.0
 11
146.4318877811596
 21
8.012616834648584
 31
0.0
  0
LINE
  5
64E
330
646
100
AcDbEntity
  8
치수문자_일반주서
 62
     0
370
    -2
100
AcDbLine
 10
146.4318877811596
 20
-2.893383165351415
 30
0.0
 11
146.4318877811596
 21
-6.195383165351415
 31
0.0
  0
SOLID
  5
64F
330
646
100
AcDbEntity
  8
치수문자_일반주서
 62
     0
100
AcDbTrace
 10
145.8815544478262
 20
4.710616834648585
 30
0.0
 11
146.9822211144929
 21
4.710616834648585
 31
0.0
 12
146.4318877811596
 22
1.408616834648585
 32
0.0
 13
146.4318877811596
 23
1.408616834648585
 33
0.0
  0
SOLID
  5
650
330
646
100
AcDbEntity
  8
치수문자_일반주서
 62
     0
100
AcDbTrace
 10
146.9822211144929
 20
-2.893383165351415
 30
0.0
 11
145.8815544478262
 21
-2.893383165351415
 31
0.0
 12
146.4318877811596
 22
0.4086168346485852
 32
0.0
 13
146.4318877811596
 23
0.4086168346485852
 33
0.0
  0
MTEXT
  5
651
330
646
100
AcDbEntity
  8
치수문자_일반주서
 62
     0
100
AcDbMText
 10
142.0568877811596
 20
10.63761683464858
 30
0.0
 40
3.5
 41
0.0
 71
     2
 72
     1
  1
\A1;%%c1
  7
SLDTEXTSTYLE0
 11
0.0
 21
1.0
 31
0.0
 73
     1
 44
1.0
  0
POINT
  5
652
330
646
100
AcDbEntity
  8
Defpoints
 62
     0
100
AcDbPoint
 10
128.9058273544703
 20
1.40861683464852
 30
0.0
  0
POINT
  5
653
330
646
100
AcDbEntity
  8
Defpoints
 62
     0
100
AcDbPoint
 10
128.9058273544703
 20
0.4086168346485195
 30
0.0
  0
POINT
  5
654
330
646
100
AcDbEntity
  8
Defpoints
 62
     0
100
AcDbPoint
 10
146.4318877811596
 20
0.408616834648585
 30
0.0
  0
ENDBLK
  5
648
330
646
100
AcDbEntity
  8
0
100
AcDbBlockEnd
  0
BLOCK
  5
656
330
655
100
AcDbEntity
  8
0
100
AcDbBlockBegin
  2
*D38
 70
     1
 10
0.0
 20
0.0
 30
0.0
  3
*D38
  1

  0
LINE
  5
658
330
655
100
AcDbEntity
  8
치수문자_일반주서
 62
     0
370
    -2
100
AcDbLine
 10
129.707697266285
 20
1.367539654816611
 30
0.0
 11
129.707697266285
 21
15.73785702368268
 31
0.0
  0
LINE
  5
659
330
655
100
AcDbEntity
  8
치수문자_일반주서
 62
     0
370
    -2
100
AcDbLine
 10
128.2076972662847
 20
1.470722645048738
 30
0.0
 11
128.2076972662847
 21
15.73785702368268
 31
0.0
  0
LINE
  5
65A
330
655
100
AcDbEntity
  8
치수문자_일반주서
 62
     0
370
    -2
100
AcDbLine
 10
129.707697266285
 20
15.73785702368268
 30
0.0
 11
142.436697266285
 21
15.73785702368268
 31
0.0
  0
LINE
  5
65B
330
655
100
AcDbEntity
  8
치수문자_일반주서
 62
     0
370
    -2
100
AcDbLine
 10
129.707697266285
 20
15.73785702368268
 30
0.0
 11
128.2076972662847
 21
15.73785702368268
 31
0.0
  0
LINE
  5
65C
330
655
100
AcDbEntity
  8
치수문자_일반주서
 62
     0
370
    -2
100
AcDbLine
 10
133.009697266285
 20
15.73785702368268
 30
0.0
 11
136.311697266285
 21
15.73785702368268
 31
0.0
  0
LINE
  5
65D
330
655
100
AcDbEntity
  8
치수문자_일반주서
 62
     0
370
    -2
100
AcDbLine
 10
124.9056972662847
 20
15.73785702368268
 30
0.0
 11
121.6036972662847
 21
15.73785702368268
 31
0.0
  0
SOLID
  5
65E
330
655
100
AcDbEntity
  8
치수문자_일반주서
 62
     0
100
AcDbTrace
 10
133.009697266285
 20
16.28819035701601
 30
0.0
 11
133.009697266285
 21
15.18752369034935
 31
0.0
 12
129.707697266285
 22
15.73785702368268
 32
0.0
 13
129.707697266285
 23
15.73785702368268
 33
0.0
  0
SOLID
  5
65F
330
655
100
AcDbEntity
  8
치수문자_일반주서
 62
     0
100
AcDbTrace
 10
124.9056972662847
 20
15.18752369034935
 30
0.0
 11
124.9056972662847
 21
16.28819035701601
 31
0.0
 12
128.2076972662847
 22
15.73785702368268
 32
0.0
 13
128.2076972662847
 23
15.73785702368268
 33
0.0
  0
MTEXT
  5
660
330
655
100
AcDbEntity
  8
치수문자_일반주서
 62
     0
100
AcDbMText
 10
139.374197266285
 20
20.11285702368268
 30
0.0
 40
3.5
 41
0.0
 71
     2
 72
     1
  1
\A1;1.5
  7
SLDTEXTSTYLE0
 73
     1
 44
1.0
  0
POINT
  5
661
330
655
100
AcDbEntity
  8
Defpoints
 62
     0
100
AcDbPoint
 10
129.707697266285
 20
1.305039654816611
 30
0.0
  0
POINT
  5
662
330
655
100
AcDbEntity
  8
Defpoints
 62
     0
100
AcDbPoint
 10
128.2076972662847
 20
1.408222645048738
 30
0.0
  0
POINT
  5
663
330
655
100
AcDbEntity
  8
Defpoints
 62
     0
100
AcDbPoint
 10
128.2076972662847
 20
15.73785702368268
 30
0.0
  0
ENDBLK
  5
657
330
655
100
AcDbEntity
  8
0
100
AcDbBlockEnd
  0
BLOCK
  5
665
330
664
100
AcDbEntity
  8
0
100
AcDbBlockBegin
  2
*D39
 70
     1
 10
0.0
 20
0.0
 30
0.0
  3
*D39
  1

  0
LINE
  5
667
330
664
100
AcDbEntity
  8
치수문자_일반주서
 62
     0
370
    -2
100
AcDbLine
 10
129.707697266285
 20
1.367539654816611
 30
0.0
 11
129.707697266285
 21
32.27424502506035
 31
0.0
  0
LINE
  5
668
330
664
100
AcDbEntity
  8
치수문자_일반주서
 62
     0
370
    -2
100
AcDbLine
 10
126.707697266285
 20
1.446116834648514
 30
0.0
 11
126.707697266285
 21
32.27424502506035
 31
0.0
  0
LINE
  5
669
330
664
100
AcDbEntity
  8
치수문자_일반주서
 62
     0
370
    -2
100
AcDbLine
 10
129.707697266285
 20
32.27424502506035
 30
0.0
 11
139.811697266285
 21
32.27424502506035
 31
0.0
  0
LINE
  5
66A
330
664
100
AcDbEntity
  8
치수문자_일반주서
 62
     0
370
    -2
100
AcDbLine
 10
129.707697266285
 20
32.27424502506035
 30
0.0
 11
126.707697266285
 21
32.27424502506035
 31
0.0
  0
LINE
  5
66B
330
664
100
AcDbEntity
  8
치수문자_일반주서
 62
     0
370
    -2
100
AcDbLine
 10
133.009697266285
 20
32.27424502506035
 30
0.0
 11
136.311697266285
 21
32.27424502506035
 31
0.0
  0
LINE
  5
66C
330
664
100
AcDbEntity
  8
치수문자_일반주서
 62
     0
370
    -2
100
AcDbLine
 10
123.405697266285
 20
32.27424502506035
 30
0.0
 11
120.103697266285
 21
32.27424502506035
 31
0.0
  0
SOLID
  5
66D
330
664
100
AcDbEntity
  8
치수문자_일반주서
 62
     0
100
AcDbTrace
 10
133.009697266285
 20
32.82457835839369
 30
0.0
 11
133.009697266285
 21
31.72391169172702
 31
0.0
 12
129.707697266285
 22
32.27424502506035
 32
0.0
 13
129.707697266285
 23
32.27424502506035
 33
0.0
  0
SOLID
  5
66E
330
664
100
AcDbEntity
  8
치수문자_일반주서
 62
     0
100
AcDbTrace
 10
123.405697266285
 20
31.72391169172702
 30
0.0
 11
123.405697266285
 21
32.82457835839369
 31
0.0
 12
126.707697266285
 22
32.27424502506035
 32
0.0
 13
126.707697266285
 23
32.27424502506035
 33
0.0
  0
MTEXT
  5
66F
330
664
100
AcDbEntity
  8
치수문자_일반주서
 62
     0
100
AcDbMText
 10
138.061697266285
 20
36.64924502506035
 30
0.0
 40
3.5
 41
0.0
 71
     2
 72
     1
  1
\A1;3
  7
SLDTEXTSTYLE0
 73
     1
 44
1.0
  0
POINT
  5
670
330
664
100
AcDbEntity
  8
Defpoints
 62
     0
100
AcDbPoint
 10
129.707697266285
 20
1.305039654816611
 30
0.0
  0
POINT
  5
671
330
664
100
AcDbEntity
  8
Defpoints
 62
     0
100
AcDbPoint
 10
126.707697266285
 20
1.383616834648514
 30
0.0
  0
POINT
  5
672
330
664
100
AcDbEntity
  8
Defpoints
 62
     0
100
AcDbPoint
 10
126.707697266285
 20
32.27424502506035
 30
0.0
  0
ENDBLK
  5
666
330
664
100
AcDbEntity
  8
0
100
AcDbBlockEnd
  0
BLOCK
  5
674
330
673
100
AcDbEntity
  8
0
100
AcDbBlockBegin
  2
*D40
 70
     1
 10
0.0
 20
0.0
 30
0.0
  3
*D40
  1

  0
LINE
  5
676
330
673
100
AcDbEntity
  8
치수문자_일반주서
 62
     0
370
    -2
100
AcDbLine
 10
131.6971798097761
 20
-2.176092963531869
 30
0.0
 11
144.3828809562022
 21
-18.47554771164098
 31
0.0
  0
MTEXT
  5
677
330
673
100
AcDbEntity
  8
치수문자_일반주서
 62
     0
100
AcDbMText
 10
141.9238380067421
 20
-8.192826390282974
 30
0.0
 40
3.5
 41
0.0
 71
     1
 72
     1
  1
\A1;R0.10
  7
SLDTEXTSTYLE0
 11
0.6141923996152727
 21
-0.7891563192770068
 31
0.0
 73
     1
 44
1.0
  0
SOLID
  5
678
330
673
100
AcDbEntity
  8
치수문자_일반주서
 62
     0
100
AcDbTrace
 10
132.1314788374849
 20
-1.838082412943597
 30
0.0
 11
131.2628807820673
 21
-2.514103514120141
 31
0.0
 12
129.6691165062465
 22
0.4297012027208069
 32
0.0
 13
129.6691165062465
 23
0.4297012027208069
 33
0.0
  0
POINT
  5
679
330
673
100
AcDbEntity
  8
Defpoints
 62
     0
100
AcDbPoint
 10
129.6691165062465
 20
0.4297012027208069
 30
0.0
  0
POINT
  5
67A
330
673
100
AcDbEntity
  8
Defpoints
 62
     0
100
AcDbPoint
 10
129.607697266285
 20
0.5086168346485209
 30
0.0
  0
ENDBLK
  5
675
330
673
100
AcDbEntity
  8
0
100
AcDbBlockEnd
  0
BLOCK
  5
684
330
683
100
AcDbEntity
  8
0
100
AcDbBlockBegin
  2
*D41
 70
     1
 10
0.0
 20
0.0
 30
0.0
  3
*D41
  1

  0
LINE
  5
686
330
683
100
AcDbEntity
  8
치수문자_일반주서
 62
     0
370
    -2
100
AcDbLine
 10
10.34461993988556
 20
-2.297329267573415
 30
0.0
 11
20.68907459799897
 21
-13.33803999922406
 31
0.0
  0
MTEXT
  5
687
330
683
100
AcDbEntity
  8
치수문자_일반주서
 62
     0
100
AcDbMText
 10
20.03904432742643
 20
-9.536272356424279
 30
0.0
 40
2.5
 41
0.0
 71
     5
 72
     1
  1
\A1;R0.1
  7
SLDTEXTSTYLE0
 11
0.6837225866565618
 21
-0.7297420259897742
 31
0.0
 73
     1
 44
1.0
  0
SOLID
  5
688
330
683
100
AcDbEntity
  8
치수문자_일반주서
 62
     0
100
AcDbTrace
 10
10.6486791173813
 20
-2.012444856466514
 30
0.0
 11
10.04056076238982
 21
-2.582213678680316
 31
0.0
 12
8.635313473244151
 22
-0.4729742025989797
 32
0.0
 13
8.635313473244151
 23
-0.4729742025989797
 33
0.0
  0
POINT
  5
689
330
683
100
AcDbEntity
  8
Defpoints
 62
     0
100
AcDbPoint
 10
8.635313473244151
 20
-0.4729742025989797
 30
0.0
  0
POINT
  5
68A
330
683
100
AcDbEntity
  8
Defpoints
 62
     0
100
AcDbPoint
 10
8.566941214578492
 20
-0.3999999999999986
 30
0.0
  0
ENDBLK
  5
685
330
683
100
AcDbEntity
  8
0
100
AcDbBlockEnd
  0
ENDSEC
  0
SECTION
  2
ENTITIES
  0
INSERT
  5
E5
330
1F
100
AcDbEntity
  8
0
  6
Continuous
 62
     7
100
AcDbBlockReference
 66
     1
  2
블럭10
 10
-14.64744943636435
 20
-52.04717430164394
 30
0.0
  0
ATTRIB
  5
E6
330
E5
100
AcDbEntity
  8
FORMAT
 62
     2
100
AcDbText
 10
-30.7667104757999
 20
-49.97180738881175
 30
0.0
 40
4.233333333333333
  1
SEME640100103E [ 4 FLUTE ]
 41
0.75
  7
SLDTEXTSTYLE0
 11
-30.7667104757999
 21
-52.08847405547842
 31
0.0
100
AcDbAttribute
  2
AUTOATTR0
 70
     0
 74
     1
  0
SEQEND
  5
E7
330
E5
100
AcDbEntity
  8
0
  6
Continuous
 62
     7
  0
HATCH
  5
E8
330
1F
100
AcDbEntity
  8
중심선
100
AcDbHatch
 10
0.0
 20
0.0
 30
0.0
210
0.0
220
0.0
230
1.0
  2
SOLID
 70
     1
 71
     0
 91
        1
 92
        0
 93
        4
 72
     1
 10
-8.932540131983508
 20
-35.80000000000001
 11
-12.3788153758208
 21
-35.80000000000001
 72
     1
 10
-12.3788153758208
 20
-35.80000000000001
 11
-14.50704523502482
 21
-38.33632558057261
 72
     1
 10
-14.50704523502482
 20
-38.33632558057261
 11
-11.06073690607439
 21
-38.33628615127012
 72
     1
 10
-11.06073690607439
 20
-38.33628615127012
 11
-8.932540131983508
 21
-35.80000000000001
 97
        0
 75
     0
 76
     1
 98
        1
 10
11.79264981257742
 20
-0.0000000000000142
  0
HATCH
  5
E9
330
1F
100
AcDbEntity
  8
중심선
100
AcDbHatch
 10
0.0
 20
0.0
 30
0.0
210
0.0
220
0.0
230
1.0
  2
SOLID
 70
     1
 71
     0
 91
        1
 92
        0
 93
        4
 72
     1
 10
-3.919776140947537
 20
-35.80000000000001
 11
-7.366051384784818
 21
-35.80000000000001
 72
     1
 10
-7.366051384784818
 20
-35.80000000000001
 11
-11.89718939314223
 21
-41.20000000000003
 72
     1
 10
-11.89718939314223
 20
-41.20000000000003
 11
-8.450914149304946
 21
-41.20000000000003
 72
     1
 10
-8.450914149304946
 20
-41.20000000000003
 11
-3.919776140947537
 21
-35.80000000000001
 97
        0
 75
     0
 76
     1
 98
        1
 10
11.79264981257742
 20
-0.0000000000000142
  0
HATCH
  5
EA
330
1F
100
AcDbEntity
  8
중심선
100
AcDbHatch
 10
0.0
 20
0.0
 30
0.0
210
0.0
220
0.0
230
1.0
  2
SOLID
 70
     1
 71
     0
 91
        1
 92
        0
 93
        4
 72
     1
 10
1.092987850088333
 20
-35.80000000000001
 11
-2.353287393748756
 21
-35.79999999999998
 72
     1
 10
-2.353287393748756
 20
-35.79999999999998
 11
-9.401724295638026
 21
-44.20000000000003
 72
     1
 10
-9.401724295638026
 20
-44.20000000000003
 11
-5.955449051800748
 21
-44.20000000000003
 72
     1
 10
-5.955449051800748
 20
-44.20000000000003
 11
1.092987850088333
 21
-35.80000000000001
 97
        0
 75
     0
 76
     1
 98
        1
 10
11.79264981257742
 20
-0.0000000000000142
  0
HATCH
  5
EB
330
1F
100
AcDbEntity
  8
중심선
100
AcDbHatch
 10
0.0
 20
0.0
 30
0.0
210
0.0
220
0.0
230
1.0
  2
SOLID
 70
     1
 71
     0
 91
        1
 92
        0
 93
        6
 72
     3
 10
5.892878281100534
 20
-40.00000000005129
 11
3.960054785062285
 21
1.540882976769353E-10
 40
0.3939339440162626
 50
17.09539180608438
 51
320.0019657685082
 73
     0
 72
     1
 10
7.575877936801103
 20
-38.58789400463834
 11
9.88117981050214
 21
-36.6535672945904
 72
     3
 10
5.892878281047688
 20
-40.00000000000016
 11
6.600054785286828
 21
-1.278976924368180E-13
 40
0.6363583540795982
 50
39.9987384933743
 51
368.4976242363724
 73
     1
 72
     1
 10
12.3182107729483
 20
-39.03999999993003
 11
4.572945587883611
 21
-39.03999999993003
 72
     1
 10
4.572945587883611
 20
-39.03999999993003
 11
4.572920543437677
 21
-40.95999999992993
 72
     1
 10
4.572920543437677
 20
-40.95999999992993
 11
9.014300312909715
 21
-40.95999999992989
 97
        0
 75
     0
 76
     1
 98
        1
 10
11.79264981257742
 20
-0.0000000000000142
  0
LINE
  5
2E9
330
1F
100
AcDbEntity
  8
중심선
 48
0.5
100
AcDbLine
 10
-42.83305878542151
 20
-0.0000000000000067
 30
0.0
 11
10.16694121457851
 21
0.0000000000000015
 31
0.0
1001
PE_URL
1000

  0
DIMENSION
  5
2F2
330
1F
100
AcDbEntity
  8
치수문자_일반주서
100
AcDbDimension
  2
*D12
 10
16.66694121457855
 20
0.5000000000000302
 30
0.0
 11
16.66694121457852
 21
8.975000000000032
 31
0.0
 70
   160
  1
%%c<>
 71
     2
 42
0.9999999999999984
 52
-270.0
  3
SLDDIMSTYLE0
100
AcDbAlignedDimension
 13
8.666941214578515
 23
-0.4999999999999984
 33
0.0
 14
8.666941214578515
 24
0.5
 34
0.0
 50
90.0000000000002
100
AcDbRotatedDimension
1001
PE_URL
1000

1001
ACAD
1000
DSTYLE
1002
{
1070
    41
1040
2.5
1070
   140
1040
2.5
1002
}
  0
DIMENSION
  5
2F3
330
1F
100
AcDbEntity
  8
치수문자_일반주서
100
AcDbDimension
  2
*D13
 10
8.666941214578515
 20
30.00000000000002
 30
0.0
 11
-16.33305878542149
 21
32.12500000000001
 31
0.0
 70
    32
  1
<>
 71
     2
 42
50.00000000000001
  3
SLDDIMSTYLE0
100
AcDbAlignedDimension
 13
-41.3330587854215
 23
1.600000000000001
 33
0.0
 14
8.666941214578515
 24
0.5
 34
0.0
100
AcDbRotatedDimension
1001
PE_URL
1000

1001
ACAD
1000
DSTYLE
1002
{
1070
   280
1070
     0
1070
    41
1040
2.5
1070
   140
1040
2.5
1002
}
  0
DIMENSION
  5
2F4
330
1F
100
AcDbEntity
  8
치수문자_일반주서
100
AcDbDimension
  2
*D14
 10
-49.3330587854215
 20
-2.00000000000003
 30
0.0
 11
-49.33305878542154
 21
9.437499999999968
 31
0.0
 70
   160
  1
%%c<>
 71
     2
 42
4.0
 52
-270.0
  3
SLDDIMSTYLE0
100
AcDbAlignedDimension
 13
-40.93305878542149
 23
2.0
 33
0.0
 14
-40.93305878542149
 24
-2.0
 34
0.0
 50
90.0000000000002
100
AcDbRotatedDimension
1001
PE_URL
1000

1001
ACAD
1000
DSTYLE
1002
{
1070
    41
1040
2.5
1070
   140
1040
2.5
1002
}
  0
DIMENSION
  5
2F5
330
1F
100
AcDbEntity
  8
치수문자_일반주서
100
AcDbDimension
  2
*D15
 10
8.666941214578515
 20
15.30788275874462
 30
0.0
 11
16.10444121457851
 21
17.43288275874462
 31
0.0
 70
    32
  1
<>
 71
     2
 42
1.500000000000284
  3
SLDDIMSTYLE0
100
AcDbAlignedDimension
 13
7.16694121457823
 23
0.4996058104002188
 33
0.0
 14
8.666941214578515
 24
0.5
 34
0.0
100
AcDbRotatedDimension
1001
PE_URL
1000

1001
ACAD
1000
DSTYLE
1002
{
1070
   280
1070
     0
1070
    41
1040
2.5
1070
   140
1040
2.5
1002
}
  0
DIMENSION
  5
2F6
330
1F
100
AcDbEntity
  8
치수문자_일반주서
100
AcDbDimension
  2
*D16
 10
5.666941214578515
 20
23.94888346237753
 30
0.0
 11
-0.8330587854214855
 21
26.07388346237753
 31
0.0
 70
    32
  1
<>
 71
     2
 42
3.0
  3
SLDDIMSTYLE0
100
AcDbAlignedDimension
 13
8.666941214578515
 23
0.5
 33
0.0
 14
5.666941214578515
 24
0.4750000000000014
 34
0.0
100
AcDbRotatedDimension
1001
PE_URL
1000

1001
ACAD
1000
DSTYLE
1002
{
1070
   280
1070
     0
1070
    41
1040
2.5
1070
   140
1040
2.5
1002
}
  0
LINE
  5
5DA
330
1F
100
AcDbEntity
  8
외형선
  6
Continuous
 62
     1
370
    15
100
AcDbLine
 10
8.42143437200221
 20
0.0816122193659012
 30
0.0
 11
8.388295290763438
 21
0.0994352489137285
 31
0.0
  0
LINE
  5
5DB
330
1F
100
AcDbEntity
  8
외형선
  6
Continuous
 62
     1
370
    15
100
AcDbLine
 10
7.86478099032874
 20
0.5
 30
0.0
 11
7.20118290486235
 21
0.5
 31
0.0
  0
LINE
  5
5DC
330
1F
100
AcDbEntity
  8
외형선
  6
Continuous
 62
     1
370
    15
100
AcDbLine
 10
7.20118290486235
 20
-0.5
 30
0.0
 11
7.86478099032874
 21
-0.5
 31
0.0
1001
PE_URL
1000

  0
ARC
  5
5DD
102
{ACAD_REACTORS
102
}
330
1F
100
AcDbEntity
  8
외형선
  6
Continuous
 62
     1
370
    15
100
AcDbCircle
 10
8.566941214578492
 20
-0.3999999999999986
 30
0.0
 40
0.1000000000000049
100
AcDbArc
 50
271.2236502272807
 51
0.0
  0
LWPOLYLINE
  5
5DE
330
1F
100
AcDbEntity
  8
외형선
  6
Continuous
 62
     1
370
    15
100
AcDbPolyline
 90
        3
 70
   128
 43
0.0
 10
8.666941214578515
 20
0.3999999999999986
 10
8.665019742618824
 20
0.41950903220161
 10
8.664870155540541
 20
0.4202465434593421
  0
LWPOLYLINE
  5
5DF
330
1F
100
AcDbEntity
  8
외형선
  6
Continuous
 62
     1
370
    15
100
AcDbPolyline
 90
        3
 70
   128
 43
0.0
 10
8.595117468478577
 20
0.4959484169549455
 10
8.586450246780117
 20
0.4980785280403239
 10
8.566941214578492
 20
0.5
  0
LINE
  5
5E0
330
1F
100
AcDbEntity
  8
외형선
  6
Continuous
370
    15
100
AcDbLine
 10
-40.93305878542149
 20
-2.0
 30
0.0
 11
0.0
 21
-2.0
 31
0.0
  0
LINE
  5
5E1
330
1F
100
AcDbEntity
  8
외형선
  6
Continuous
370
    15
100
AcDbLine
 10
0.0
 20
2.0
 30
0.0
 11
-40.93305878542149
 21
2.0
 31
0.0
  0
LINE
  5
5E2
330
1F
100
AcDbEntity
  8
외형선
  6
Continuous
370
    15
100
AcDbLine
 10
-40.93305878542149
 20
2.0
 30
0.0
 11
-41.3330587854215
 21
1.600000000000001
 31
0.0
  0
LINE
  5
5E3
330
1F
100
AcDbEntity
  8
외형선
  6
Continuous
370
    15
100
AcDbLine
 10
-41.3330587854215
 20
-1.600000000000009
 30
0.0
 11
-40.93305878542149
 21
-2.0
 31
0.0
  0
LINE
  5
5E4
330
1F
100
AcDbEntity
  8
외형선
  6
Continuous
370
    15
100
AcDbLine
 10
0.0
 20
-2.0
 30
0.0
 11
2.801941214578505
 21
-0.9801767997297546
 31
0.0
  0
LINE
  5
5E5
330
1F
100
AcDbEntity
  8
외형선
  6
Continuous
370
    15
100
AcDbLine
 10
2.801941214578505
 20
0.9801767997297475
 30
0.0
 11
0.0
 21
2.0
 31
0.0
  0
LINE
  5
5E6
330
1F
100
AcDbEntity
  8
외형선
  6
Continuous
370
    15
100
AcDbLine
 10
2.801941214578505
 20
-0.9801767997297546
 30
0.0
 11
5.666941214578515
 21
-0.4750000000000014
 31
0.0
  0
LINE
  5
5E7
330
1F
100
AcDbEntity
  8
외형선
  6
Continuous
370
    15
100
AcDbLine
 10
5.666941214578515
 20
0.4749999999999943
 30
0.0
 11
2.801941214578505
 21
0.9801767997297475
 31
0.0
  0
LINE
  5
5E8
330
1F
100
AcDbEntity
  8
외형선
  6
Continuous
370
    15
100
AcDbLine
 10
5.666941214578515
 20
-0.4750000000000014
 30
0.0
 11
6.967018678943475
 21
-0.4750000000000014
 31
0.0
  0
LINE
  5
5E9
330
1F
100
AcDbEntity
  8
외형선
  6
Continuous
370
    15
100
AcDbLine
 10
6.967018678943475
 20
0.4750000000000014
 30
0.0
 11
5.666941214578515
 21
0.4750000000000014
 31
0.0
  0
LINE
  5
5EA
330
1F
100
AcDbEntity
  8
외형선
  6
Continuous
 62
     1
370
    15
100
AcDbLine
 10
8.666941214578515
 20
-0.3166244658108823
 30
0.0
 11
8.666941214578515
 21
-0.0533755341891151
 31
0.0
  0
SPLINE
  5
5EB
330
1F
100
AcDbEntity
  8
외형선
  6
Continuous
 62
     1
370
    15
100
AcDbSpline
210
0.0
220
0.0
230
1.0
 70
     8
 71
     3
 72
    23
 73
    19
 74
     0
 42
0.000000001
 43
0.00000001
 40
0.0
 40
0.0
 40
0.0
 40
0.0
 40
0.0000422864240186
 40
0.0000422864240186
 40
0.0000422864240186
 40
0.0000847238681777
 40
0.0000847238681777
 40
0.0000847238681777
 40
0.0001132807208552
 40
0.0001132807208552
 40
0.0001132807208552
 40
0.0001373668204428
 40
0.0001373668204428
 40
0.0001373668204428
 40
0.0001615400647866
 40
0.0001615400647866
 40
0.0001615400647866
 40
0.0001696136184341
 40
0.0001696136184341
 40
0.0001696136184341
 40
0.0001696136184341
 10
8.566941214578492
 20
-0.3621931703454138
 30
0.0
 10
8.579155988201649
 20
-0.3670425927259728
 30
0.0
 10
8.591314660069315
 20
-0.3704645034749561
 30
0.0
 10
8.60262983155053
 20
-0.3719424429331468
 30
0.0
 10
8.61396398061163
 20
-0.3734228611619059
 30
0.0
 10
8.624840165300384
 20
-0.3729925770895477
 30
0.0
 10
8.634318637478515
 20
-0.3699335926936058
 30
0.0
 10
8.640738838343907
 20
-0.3678616032530115
 30
0.0
 10
8.64667053813281
 20
-0.364513152047742
 30
0.0
 10
8.651596442361836
 20
-0.3597628644927795
 30
0.0
 10
8.655754542161276
 20
-0.355753007863143
 30
0.0
 10
8.659281508005279
 20
-0.3506278006653289
 30
0.0
 10
8.661828721185685
 20
-0.3446486430123983
 30
0.0
 10
8.664382249248064
 20
-0.338654662228393
 30
0.0
 10
8.666006574870437
 20
-0.331637823640726
 30
0.0
 10
8.666628557731684
 20
-0.3242598634749285
 30
0.0
 10
8.66683915278611
 20
-0.3217617851201808
 30
0.0
 10
8.666941214578486
 20
-0.3192080932470844
 30
0.0
 10
8.666941214578486
 20
-0.3166244658108823
 30
0.0
  0
SPLINE
  5
5EC
330
1F
100
AcDbEntity
  8
외형선
  6
Continuous
 62
     1
370
    15
100
AcDbSpline
210
0.0
220
0.0
230
1.0
 70
     8
 71
     3
 72
    16
 73
    12
 74
     0
 42
0.000000001
 43
0.00000001
 40
0.0
 40
0.0
 40
0.0
 40
0.0
 40
0.1249999999999958
 40
0.1249999999999958
 40
0.2499999999999916
 40
0.2499999999999916
 40
0.4999999999999943
 40
0.4999999999999943
 40
0.7499999999999971
 40
0.7499999999999971
 40
1.0
 40
1.0
 40
1.0
 40
1.0
 10
8.566941214571045
 20
-0.362193170342465
 30
0.0
 10
8.508458685924893
 20
-0.3389748535696384
 30
0.0
 10
8.449009910029446
 20
-0.3131401535623937
 30
0.0
 10
8.331795892712023
 20
-0.257800167982758
 30
0.0
 10
8.275332705780045
 20
-0.2285434791135117
 30
0.0
 10
8.101439669302664
 20
-0.1360133605999252
 30
0.0
 10
7.981939326322276
 20
-0.0682469835823696
 30
0.0
 10
7.752840179908617
 20
0.06553990226476
 30
0.0
 10
7.631293451616187
 20
0.1337489510715031
 30
0.0
 10
7.402697100960296
 20
0.2568205129019958
 30
0.0
 10
7.282672112809308
 20
0.3139224715545765
 30
0.0
 10
7.166941214578202
 20
0.3604415443669993
 30
0.0
  0
SPLINE
  5
5ED
330
1F
100
AcDbEntity
  8
외형선
  6
Continuous
370
    15
100
AcDbSpline
210
0.0
220
0.0
230
1.0
 70
    24
 71
     3
 72
    12
 73
     8
 74
     0
 42
0.000000001
 43
0.00000001
 40
0.0
 40
0.0
 40
0.0
 40
0.0
 40
0.2305818922650009
 40
0.4679842535661279
 40
0.6964100737878282
 40
0.9314602582706095
 40
1.0
 40
1.0
 40
1.0
 40
1.0
 10
7.166941214578259
 20
0.4996058104002188
 30
0.0
 10
7.166941214578344
 20
0.4884781517479055
 30
0.0
 10
7.166941214578571
 20
0.4658936852176581
 30
0.0
 10
7.166941214578486
 20
0.432012341951399
 30
0.0
 10
7.166941214578486
 20
0.3992459455026918
 30
0.0
 10
7.166941214578571
 20
0.375174787268179
 30
0.0
 10
7.166941214578515
 20
0.3631551486566593
 30
0.0
 10
7.166941214578515
 20
0.3604415443668501
 30
0.0
  0
SPLINE
  5
5EE
330
1F
100
AcDbEntity
  8
외형선
  6
Continuous
 62
     1
370
    15
100
AcDbSpline
210
0.0
220
0.0
230
1.0
 70
     8
 71
     3
 72
    16
 73
    12
 74
     0
 42
0.000000001
 43
0.00000001
 40
0.0
 40
0.0
 40
0.0
 40
0.0
 40
0.1249999999999958
 40
0.1249999999999958
 40
0.2499999999999917
 40
0.2499999999999917
 40
0.4999999999999944
 40
0.4999999999999944
 40
0.7499999999999972
 40
0.7499999999999972
 40
1.0
 40
1.0
 40
1.0
 40
1.0
 10
8.566941214571074
 20
-0.0023560670552669
 30
0.0
 10
8.508458685924893
 20
0.031322860583586
 30
0.0
 10
8.449009910029474
 20
0.0652009088331553
 30
0.0
 10
8.331795892712023
 20
0.1312931030276232
 30
0.0
 10
8.275332705780045
 20
0.163272372491889
 30
0.0
 10
8.101439669302692
 20
0.2561015787008785
 30
0.0
 10
7.981939326322276
 20
0.3131514717691033
 30
0.0
 10
7.752840179908617
 20
0.4061002002407648
 30
0.0
 10
7.631293451616216
 20
0.4434147354433193
 30
0.0
 10
7.402697100960324
 20
0.4910247255687068
 30
0.0
 10
7.282672112809337
 20
0.5022705774764304
 30
0.0
 10
7.16694121457823
 20
0.4996058104002188
 30
0.0
  0
SPLINE
  5
5EF
330
1F
100
AcDbEntity
  8
외형선
  6
Continuous
 62
     1
370
    15
100
AcDbSpline
210
0.0
220
0.0
230
1.0
 70
     8
 71
     3
 72
    20
 73
    16
 74
     0
 42
0.000000001
 43
0.00000001
 40
0.0
 40
0.0
 40
0.0
 40
0.0
 40
0.0000364980248467
 40
0.0000364980248467
 40
0.0000364980248467
 40
0.0000730321841727
 40
0.0000730321841727
 40
0.0000730321841727
 40
0.0001089254966694
 40
0.0001089254966694
 40
0.0001089254966694
 40
0.0001446447213736
 40
0.0001446447213736
 40
0.0001446447213736
 40
0.0001678854795605
 40
0.0001678854795605
 40
0.0001678854795605
 40
0.0001678854795605
 10
8.666941214578515
 20
-0.0533755341891151
 30
0.0
 10
8.666941214578515
 20
-0.0511497701686068
 30
0.0
 10
8.664864642486464
 20
-0.0491169217998788
 30
0.0
 10
8.66085027910492
 20
-0.0469204547110564
 30
0.0
 10
8.6568334867452
 20
-0.0447226586018843
 30
0.0
 10
8.650765934671199
 20
-0.0422753767917499
 30
0.0
 10
8.64329225695468
 20
-0.0392592367378057
 30
0.0
 10
8.635946532484752
 20
-0.0362947345690401
 30
0.0
 10
8.627052419277987
 20
-0.0326803134140619
 30
0.0
 10
8.61752845086869
 20
-0.0284037116997169
 30
0.0
 10
8.608041217408072
 20
-0.0241436052883728
 30
0.0
 10
8.597696468702338
 20
-0.0191168991305162
 30
0.0
 10
8.587359093232806
 20
-0.0136510817806368
 30
0.0
 10
8.580580798007617
 20
-0.0100671040337019
 30
0.0
 10
8.573713708504442
 20
-0.0062562119087204
 30
0.0
 10
8.56694121457852
 20
-0.0023560670595444
 30
0.0
  0
SPLINE
  5
5F0
330
1F
100
AcDbEntity
  8
외형선
  6
Continuous
 62
     1
370
    15
100
AcDbSpline
210
0.0
220
0.0
230
1.0
 70
     8
 71
     3
 72
    10
 73
     6
 74
     0
 42
0.000000001
 43
0.00000001
 40
0.0
 40
0.0
 40
0.0
 40
0.0
 40
0.3731744806032391
 40
0.7463506980464427
 40
1.0
 40
1.0
 40
1.0
 40
1.0
 10
7.166941214578202
 20
-0.3465283438542031
 30
0.0
 10
7.297435925085949
 20
-0.3934915275132909
 30
0.0
 10
7.558425953453821
 20
-0.4874181134089426
 30
0.0
 10
7.908130453520755
 20
-0.5154564918627287
 30
0.0
 10
8.127300846628202
 20
-0.4730521199900579
 30
0.0
 10
8.215989669115999
 20
-0.455892896262803
 30
0.0
  0
SPLINE
  5
5F1
330
1F
100
AcDbEntity
  8
외형선
  6
Continuous
370
    15
100
AcDbSpline
210
0.0
220
0.0
230
1.0
 70
    24
 71
     3
 72
    23
 73
    19
 74
     0
 42
0.000000001
 43
0.00000001
 40
0.0
 40
0.0
 40
0.0
 40
0.0
 40
0.0095416110934895
 40
0.0782110014482608
 40
0.1488718087753137
 40
0.2175411991301353
 40
0.2882020064572406
 40
0.3568713968108464
 40
0.4275322041358449
 40
0.4962015944916632
 40
0.566862401819854
 40
0.6355317921748634
 40
0.7061925995021755
 40
0.7748619898573226
 40
0.8455227971848446
 40
0.9141921875374275
 40
0.9848529948667554
 40
1.0
 40
1.0
 40
1.0
 40
1.0
 10
7.166941214578486
 20
0.0196883880370109
 30
0.0
 10
7.166941214578486
 20
0.019560278831392
 30
0.0
 10
7.166941214578515
 20
0.0185101889495343
 30
0.0
 10
7.166941214578515
 20
0.01108268923943
 30
0.0
 10
7.166941214578515
 20
-0.0025415610170398
 30
0.0
 10
7.166941214578515
 20
-0.0218517016332669
 30
0.0
 10
7.166941214578486
 20
-0.0452372843148794
 30
0.0
 10
7.166941214578543
 20
-0.0726495829029474
 30
0.0
 10
7.166941214578515
 20
-0.1027679062528293
 30
0.0
 10
7.166941214578458
 20
-0.1352956201013527
 30
0.0
 10
7.166941214578571
 20
-0.168722965476654
 30
0.0
 10
7.166941214578458
 20
-0.2027061575021918
 30
0.0
 10
7.166941214578486
 20
-0.235672334884292
 30
0.0
 10
7.166941214578486
 20
-0.2672783125806575
 30
0.0
 10
7.166941214578543
 20
-0.2960735924187574
 30
0.0
 10
7.166941214578543
 20
-0.3217128668458571
 30
0.0
 10
7.166941214578543
 20
-0.3376633058376228
 30
0.0
 10
7.166941214578515
 20
-0.3451982560051121
 30
0.0
 10
7.166941214578486
 20
-0.3465283438559794
 30
0.0
  0
SPLINE
  5
5F2
330
1F
100
AcDbEntity
  8
외형선
  6
Continuous
 62
     1
370
    15
100
AcDbSpline
210
0.0
220
0.0
230
1.0
 70
     8
 71
     3
 72
    16
 73
    12
 74
     0
 42
0.000000001
 43
0.00000001
 40
0.0
 40
0.0
 40
0.0
 40
0.0
 40
0.1250000000000042
 40
0.1250000000000042
 40
0.2500000000000084
 40
0.2500000000000084
 40
0.5000000000000056
 40
0.5000000000000056
 40
0.7500000000000028
 40
0.7500000000000028
 40
1.0
 40
1.0
 40
1.0
 40
1.0
 10
8.566941214571074
 20
-0.4999944489172208
 30
0.0
 10
8.508458685924921
 20
-0.5001531503028787
 30
0.0
 10
8.449009910029474
 20
-0.4968749772962937
 30
0.0
 10
8.331795892712023
 20
-0.4836300473225847
 30
0.0
 10
8.275332705780045
 20
-0.473782373327353
 30
0.0
 10
8.101439669302692
 20
-0.4346520458553442
 30
0.0
 10
7.981939326322276
 20
-0.3954882061798983
 30
0.0
 10
7.752840179908617
 20
-0.2992614122518233
 30
0.0
 10
7.631293451616187
 20
-0.2405236649322831
 30
0.0
 10
7.402697100960296
 20
-0.1155983558745604
 30
0.0
 10
7.282672112809337
 20
-0.0472183862773008
 30
0.0
 10
7.16694121457823
 20
0.0198502950692898
 30
0.0
  0
SPLINE
  5
5F3
330
1F
100
AcDbEntity
  8
외형선
  6
Continuous
 62
     1
370
    15
100
AcDbSpline
210
0.0
220
0.0
230
1.0
 70
     8
 71
     3
 72
    23
 73
    19
 74
     0
 42
0.000000001
 43
0.00000001
 40
0.0
 40
0.0
 40
0.0
 40
0.0
 40
0.0000422864240186
 40
0.0000422864240186
 40
0.0000422864240186
 40
0.0000847238681777
 40
0.0000847238681777
 40
0.0000847238681777
 40
0.0001132807208552
 40
0.0001132807208552
 40
0.0001132807208552
 40
0.0001373668204428
 40
0.0001373668204428
 40
0.0001373668204428
 40
0.0001615400647866
 40
0.0001615400647866
 40
0.0001615400647866
 40
0.0001696136184341
 40
0.0001696136184341
 40
0.0001696136184341
 40
0.0001696136184341
 10
8.566941214578492
 20
0.3446971240888672
 30
0.0
 10
8.579155988201649
 20
0.3396015559984775
 30
0.0
 10
8.591314660069315
 20
0.3324918343704155
 30
0.0
 10
8.60262983155053
 20
0.3242174766574735
 30
0.0
 10
8.61396398061163
 20
0.3159292413568551
 30
0.0
 10
8.624840165300384
 20
0.3061905809677441
 30
0.0
 10
8.634318637478515
 20
0.2961830539453985
 30
0.0
 10
8.640738838343907
 20
0.2894045001403285
 30
0.0
 10
8.64667053813281
 20
0.2823409908075334
 30
0.0
 10
8.651596442361836
 20
0.275660336142451
 30
0.0
 10
8.655754542161276
 20
0.2700210001887697
 30
0.0
 10
8.659281508005279
 20
0.2645306027727656
 30
0.0
 10
8.661828721185685
 20
0.2597418416693174
 30
0.0
 10
8.664382249248064
 20
0.2549412085869633
 30
0.0
 10
8.666006574870437
 20
0.2507324838457379
 30
0.0
 10
8.666628557731684
 20
0.2474654928282973
 30
0.0
 10
8.66683915278611
 20
0.2463593334885346
 30
0.0
 10
8.666941214578486
 20
0.2453487784457309
 30
0.0
 10
8.666941214578486
 20
0.2444359786323886
 30
0.0
  0
LINE
  5
5F4
330
1F
100
AcDbEntity
  8
외형선
  6
Continuous
 62
     1
370
    15
100
AcDbLine
 10
8.666941214578515
 20
-0.0533755341891151
 30
0.0
 11
8.666941214578515
 21
0.2444359786323886
 31
0.0
  0
LINE
  5
5F5
330
1F
100
AcDbEntity
  8
외형선
  6
Continuous
370
    15
100
AcDbLine
 10
7.166941214578259
 20
0.0198502950692969
 30
0.0
 11
7.166941214578486
 21
0.3604415443695146
 31
0.0
  0
SPLINE
  5
5F6
330
1F
100
AcDbEntity
  8
외형선
  6
Continuous
 62
     1
370
    15
100
AcDbSpline
210
0.0
220
0.0
230
1.0
 70
     8
 71
     3
 72
    10
 73
     6
 74
     0
 42
0.000000001
 43
0.00000001
 40
0.0
 40
0.0
 40
0.0
 40
0.0
 40
0.1212160448109816
 40
0.5611027829947033
 40
1.0
 40
1.0
 40
1.0
 40
1.0
 10
7.86478099032874
 20
0.4913770688707331
 30
0.0
 10
7.893159847575788
 20
0.4940577071162977
 30
0.0
 10
8.024524105536528
 20
0.5064662424891253
 30
0.0
 10
8.258649159241315
 20
0.4571737814930259
 30
0.0
 10
8.464254367430556
 20
0.3821611882017848
 30
0.0
 10
8.566941214571045
 20
0.3446971240919652
 30
0.0
  0
LINE
  5
5F7
330
1F
100
AcDbEntity
  8
외형선
  6
Continuous
 62
     1
370
    15
100
AcDbLine
 10
8.566941214571074
 20
0.4999944489172137
 30
0.0
 11
8.215989669115942
 21
0.4558928962628102
 31
0.0
  0
SPLINE
  5
5F8
330
1F
100
AcDbEntity
  8
외형선
  6
Continuous
 62
     1
370
    15
100
AcDbSpline
210
0.0
220
0.0
230
1.0
 70
     8
 71
     3
 72
    20
 73
    16
 74
     0
 42
0.000000001
 43
0.00000001
 40
0.0
 40
0.0
 40
0.0
 40
0.0
 40
0.0000364980248467
 40
0.0000364980248467
 40
0.0000364980248467
 40
0.0000730321841727
 40
0.0000730321841727
 40
0.0000730321841727
 40
0.0001089254966694
 40
0.0001089254966694
 40
0.0001089254966694
 40
0.0001446447213736
 40
0.0001446447213736
 40
0.0001446447213736
 40
0.0001678854795605
 40
0.0001678854795605
 40
0.0001678854795605
 40
0.0001678854795605
 10
8.666941214578515
 20
0.3964228201680911
 30
0.0
 10
8.666941214578515
 20
0.4083834945658253
 30
0.0
 10
8.664864642486464
 20
0.4205527085116927
 30
0.0
 10
8.66085027910492
 20
0.4318253380404258
 30
0.0
 10
8.6568334867452
 20
0.4431047883196655
 30
0.0
 10
8.650765934671199
 20
0.4537942955125018
 30
0.0
 10
8.64329225695468
 20
0.4629177799217317
 30
0.0
 10
8.635946532484752
 20
0.4718850655364761
 30
0.0
 10
8.627052419277987
 20
0.4795854884065349
 30
0.0
 10
8.61752845086869
 20
0.4854305594847119
 30
0.0
 10
8.608041217408072
 20
0.4912530855084469
 30
0.0
 10
8.597696468702338
 20
0.4953993646972137
 30
0.0
 10
8.587359093232806
 20
0.4977061858364848
 30
0.0
 10
8.580580798007617
 20
0.4992187858924453
 30
0.0
 10
8.573713708504442
 20
0.4999760707075467
 30
0.0
 10
8.56694121457852
 20
0.4999944489171995
 30
0.0
  0
LINE
  5
5F9
330
1F
100
AcDbEntity
  8
외형선
  6
Continuous
 62
     1
370
    15
100
AcDbLine
 10
8.666941214578515
 20
0.2444359786323886
 30
0.0
 11
8.666941214578515
 21
0.3964228201680911
 31
0.0
  0
LINE
  5
5FA
330
1F
100
AcDbEntity
  8
외형선
  6
Continuous
 62
     1
370
    15
100
AcDbLine
 10
7.20118290486235
 20
-0.4969056577302808
 30
0.0
 11
7.16694121457823
 21
-0.4996058104002259
 31
0.0
1001
PE_URL
1000

  0
LINE
  5
5FB
330
1F
100
AcDbEntity
  8
외형선
  6
Continuous
370
    15
100
AcDbLine
 10
7.166941214578259
 20
-0.4996058104002259
 30
0.0
 11
7.166941214578486
 21
-0.3465283438559794
 31
0.0
  0
LINE
  5
5FC
330
1F
100
AcDbEntity
  8
외형선
  6
Continuous
 62
     1
370
    15
100
AcDbLine
 10
8.666941214578515
 20
-0.3999999999999986
 30
0.0
 11
8.666941214578515
 21
-0.3166244658108823
 31
0.0
  0
LINE
  5
5FD
330
1F
100
AcDbEntity
  8
외형선
  6
Continuous
 62
     1
370
    15
100
AcDbLine
 10
8.666941214578515
 20
0.3964228201680911
 30
0.0
 11
8.666941214578515
 21
0.3999999999999986
 31
0.0
  0
LINE
  5
5FE
330
1F
100
AcDbEntity
  8
외형선
  6
Continuous
370
    15
100
AcDbLine
 10
0.0
 20
0.0
 30
0.0
 11
0.0
 21
2.0
 31
0.0
  0
LINE
  5
5FF
330
1F
100
AcDbEntity
  8
외형선
  6
Continuous
370
    15
100
AcDbLine
 10
0.0
 20
-2.0
 30
0.0
 11
0.0
 21
0.0
 31
0.0
  0
LINE
  5
600
330
1F
100
AcDbEntity
  8
외형선
  6
Continuous
370
    15
100
AcDbLine
 10
-40.93305878542149
 20
0.0
 30
0.0
 11
-40.93305878542149
 21
2.0
 31
0.0
  0
LINE
  5
601
330
1F
100
AcDbEntity
  8
외형선
  6
Continuous
370
    15
100
AcDbLine
 10
-40.93305878542149
 20
-2.0
 30
0.0
 11
-40.93305878542149
 21
0.0
 31
0.0
  0
LINE
  5
602
330
1F
100
AcDbEntity
  8
외형선
  6
Continuous
370
    15
100
AcDbLine
 10
-41.3330587854215
 20
0.0
 30
0.0
 11
-41.3330587854215
 21
1.600000000000001
 31
0.0
  0
LINE
  5
603
330
1F
100
AcDbEntity
  8
외형선
  6
Continuous
370
    15
100
AcDbLine
 10
-41.3330587854215
 20
-1.600000000000009
 30
0.0
 11
-41.3330587854215
 21
0.0
 31
0.0
  0
LINE
  5
604
330
1F
100
AcDbEntity
  8
외형선
  6
Continuous
370
    15
100
AcDbLine
 10
2.801941214578505
 20
0.0
 30
0.0
 11
2.801941214578505
 21
0.9801767997297475
 31
0.0
  0
LINE
  5
605
330
1F
100
AcDbEntity
  8
외형선
  6
Continuous
370
    15
100
AcDbLine
 10
2.801941214578505
 20
-0.9801767997297546
 30
0.0
 11
2.801941214578505
 21
0.0
 31
0.0
  0
LINE
  5
606
330
1F
100
AcDbEntity
  8
외형선
  6
Continuous
370
    15
100
AcDbLine
 10
5.666941214578515
 20
0.0
 30
0.0
 11
5.666941214578515
 21
0.4749999999999943
 31
0.0
  0
LINE
  5
607
330
1F
100
AcDbEntity
  8
외형선
  6
Continuous
370
    15
100
AcDbLine
 10
5.666941214578515
 20
-0.4750000000000014
 30
0.0
 11
5.666941214578515
 21
0.0
 31
0.0
  0
LINE
  5
608
330
1F
100
AcDbEntity
  8
외형선
  6
Continuous
370
    15
100
AcDbLine
 10
6.967018678943475
 20
0.4071504606198175
 30
0.0
 11
6.967018678943475
 21
0.4750000000000014
 31
0.0
  0
SPLINE
  5
609
330
1F
100
AcDbEntity
  8
외형선
  6
Continuous
370
    15
100
AcDbSpline
210
0.0
220
0.0
230
1.0
 70
     8
 71
     3
 72
     8
 73
     4
 74
     0
 42
0.000000001
 43
0.00000001
 40
0.0
 40
0.0
 40
0.0
 40
0.0
 40
1.0
 40
1.0
 40
1.0
 40
1.0
 10
7.166941214578515
 20
0.3399994981486429
 30
0.0
 10
7.100276305504821
 20
0.3656494536764896
 30
0.0
 10
7.034828727480487
 20
0.3881192606969108
 30
0.0
 10
6.967018678943475
 20
0.4071457461921355
 30
0.0
  0
SPLINE
  5
60A
330
1F
100
AcDbEntity
  8
외형선
  6
Continuous
370
    15
100
AcDbSpline
210
0.0
220
0.0
230
1.0
 70
     8
 71
     3
 72
     8
 73
     4
 74
     0
 42
0.000000001
 43
0.00000001
 40
0.0
 40
0.0
 40
0.0
 40
0.0
 40
1.0
 40
1.0
 40
1.0
 40
1.0
 10
7.166941214578515
 20
0.0223330171724712
 30
0.0
 10
7.100276305504821
 20
0.0590234901065898
 30
0.0
 10
7.034828727480487
 20
0.0952965617081389
 30
0.0
 10
6.967018678943475
 20
0.1308079590647822
 30
0.0
  0
SPLINE
  5
60B
330
1F
100
AcDbEntity
  8
외형선
  6
Continuous
370
    15
100
AcDbSpline
210
0.0
220
0.0
230
1.0
 70
     8
 71
     3
 72
     8
 73
     4
 74
     0
 42
0.000000001
 43
0.00000001
 40
0.0
 40
0.0
 40
0.0
 40
0.0
 40
1.0
 40
1.0
 40
1.0
 40
1.0
 10
7.166941214578515
 20
-0.3317006802204006
 30
0.0
 10
7.100276305504821
 20
-0.3054089885626965
 30
0.0
 10
7.034828727480487
 20
-0.2763204328184088
 30
0.0
 10
6.967018678943475
 20
-0.24465760024502
 30
0.0
  0
LINE
  5
60C
330
1F
100
AcDbEntity
  8
외형선
  6
Continuous
370
    15
100
AcDbLine
 10
7.166941214578515
 20
-0.3465283438559794
 30
0.0
 11
7.166941214578515
 21
-0.3317006802204006
 31
0.0
  0
SPLINE
  5
60D
330
1F
100
AcDbEntity
  8
외형선
  6
Continuous
370
    15
100
AcDbSpline
210
0.0
220
0.0
230
1.0
 70
     8
 71
     3
 72
     8
 73
     4
 74
     0
 42
0.000000001
 43
0.00000001
 40
0.0
 40
0.0
 40
0.0
 40
0.0
 40
1.0
 40
1.0
 40
1.0
 40
1.0
 10
7.166941214578515
 20
-0.4744746951566299
 30
0.0
 10
7.100276305504821
 20
-0.4727477137802367
 30
0.0
 10
7.034828727480487
 20
-0.4668062847086318
 30
0.0
 10
6.967018678943475
 20
-0.4566336363489967
 30
0.0
  0
LINE
  5
60E
330
1F
100
AcDbEntity
  8
외형선
  6
Continuous
370
    15
100
AcDbLine
 10
6.967018678943475
 20
-0.4750000000000014
 30
0.0
 11
6.967018678943475
 21
-0.456623527393667
 31
0.0
  0
SPLINE
  5
60F
330
1F
100
AcDbEntity
  8
외형선
  6
Continuous
370
    15
100
AcDbSpline
210
0.0
220
0.0
230
1.0
 70
     8
 71
     3
 72
     8
 73
     4
 74
     0
 42
0.000000001
 43
0.00000001
 40
0.0
 40
0.0
 40
0.0
 40
0.0
 40
1.0
 40
1.0
 40
1.0
 40
1.0
 10
7.166941214578515
 20
0.4744746951566228
 30
0.0
 10
7.100276305504821
 20
0.4727477137802367
 30
0.0
 10
7.034828727480487
 20
0.4668062847086318
 30
0.0
 10
6.967018678943475
 20
0.4566336363489896
 30
0.0
  0
LINE
  5
610
330
1F
100
AcDbEntity
  8
외형선
  6
Continuous
370
    15
100
AcDbLine
 10
6.967018678943475
 20
-0.2446497545820776
 30
0.0
 11
6.967018678943475
 21
0.1308432429686945
 31
0.0
  0
SPLINE
  5
611
330
1F
100
AcDbEntity
  8
외형선
  6
Continuous
370
    15
100
AcDbSpline
210
0.0
220
0.0
230
1.0
 70
    24
 71
     3
 72
    14
 73
    10
 74
     0
 42
0.000000001
 43
0.00000001
 40
0.0
 40
0.0
 40
0.0
 40
0.0
 40
0.1271637431303421
 40
0.2745599933157231
 40
0.4219562434833111
 40
0.569352493675815
 40
0.7167487438558082
 40
0.8641449940358225
 40
1.0
 40
1.0
 40
1.0
 40
1.0
 10
7.166941214578515
 20
-0.3317006802204006
 30
0.0
 10
7.166941214578515
 20
-0.318084866848352
 30
0.0
 10
7.166941214578486
 20
-0.2886868833005849
 30
0.0
 10
7.166941214578515
 20
-0.2281610685630753
 30
0.0
 10
7.166941214578515
 20
-0.1602416058414704
 30
0.0
 10
7.166941214578515
 20
-0.0938197488362746
 30
0.0
 10
7.166941214578486
 20
-0.0374333146008823
 30
0.0
 10
7.166941214578515
 20
0.0039794087484211
 30
0.0
 10
7.166941214578458
 20
0.0141544465718013
 30
0.0
 10
7.166941214578458
 20
0.0190346714399965
 30
0.0
  0
SPLINE
  5
612
330
1F
100
AcDbEntity
  8
외형선
  6
Continuous
370
    15
100
AcDbSpline
210
0.0
220
0.0
230
1.0
 70
    24
 71
     3
 72
    13
 73
     9
 74
     0
 42
0.000000001
 43
0.00000001
 40
0.0
 40
0.0
 40
0.0
 40
0.0
 40
0.0668747314497658
 40
0.3017036783042646
 40
0.5299144959859051
 40
0.7647434428403985
 40
0.8819399634602146
 40
1.0
 40
1.0
 40
1.0
 40
1.0
 10
7.166941214578515
 20
0.3399994981486358
 30
0.0
 10
7.166941214578515
 20
0.3423889229975146
 30
0.0
 10
7.166941214578543
 20
0.3531687534403432
 30
0.0
 10
7.166941214578458
 20
0.3756980200135516
 30
0.0
 10
7.166941214578515
 20
0.4069335859204202
 30
0.0
 10
7.166941214578429
 20
0.4345954361314384
 30
0.0
 10
7.166941214578515
 20
0.4573219053928383
 30
0.0
 10
7.166941214578515
 20
0.4687431245981415
 30
0.0
 10
7.166941214578515
 20
0.4744746951566299
 30
0.0
  0
LINE
  5
614
330
1F
100
AcDbEntity
  8
참조1
100
AcDbLine
 10
104.7071838987287
 20
-1.591383165351459
 30
0.0
 11
104.7071838987288
 21
-39.09138316535148
 31
0.0
  0
LINE
  5
615
330
1F
100
AcDbEntity
  8
참조1
100
AcDbLine
 10
104.7071838987288
 20
-39.09138316535148
 30
0.0
 11
89.5488404519763
 21
-39.09138316535148
 31
0.0
  0
CIRCLE
  5
616
330
1F
100
AcDbEntity
  8
해칭선
100
AcDbCircle
 10
0.0
 20
-0.0010749287238951
 30
0.0
 40
3.000000000000001
  0
LINE
  5
626
330
1F
100
AcDbEntity
  8
참조1
100
AcDbLine
 10
187.5211810816306
 20
8.348616834648517
 30
0.0
 11
187.5211810816306
 21
-6.531383165351485
 31
0.0
  0
LINE
  5
627
330
1F
100
AcDbEntity
  8
참조1
100
AcDbLine
 10
200.2211810816306
 20
6.348616834648517
 30
0.0
 11
187.5211810816306
 21
6.348616834648517
 31
0.0
  0
SOLID
  5
628
330
1F
100
AcDbEntity
  8
참조1
100
AcDbTrace
 10
187.5211810816306
 20
6.348616834648517
 30
0.0
 11
193.8711810816306
 21
5.332616834648519
 31
0.0
 12
193.8711810816306
 22
7.364616834648523
 32
0.0
 13
193.8711810816306
 23
7.364616834648523
 33
0.0
  0
LINE
  5
629
330
1F
100
AcDbEntity
  8
참조1
100
AcDbLine
 10
200.2211810816306
 20
-4.531383165351485
 30
0.0
 11
187.5211810816306
 21
-4.531383165351485
 31
0.0
  0
SOLID
  5
62A
330
1F
100
AcDbEntity
  8
참조1
100
AcDbTrace
 10
187.5211810816306
 20
-4.531383165351485
 30
0.0
 11
193.8711810816306
 21
-5.547383165351484
 31
0.0
 12
193.8711810816306
 22
-3.515383165351487
 32
0.0
 13
193.8711810816306
 23
-3.515383165351487
 33
0.0
  0
MTEXT
  5
62B
330
1F
100
AcDbEntity
  8
참조1
100
AcDbMText
 10
196.9186711741008
 20
11.89683347929845
 30
0.0
 40
3.5
 41
0.0
 71
     1
 72
     1
  1
A
  7
SLDTEXTSTYLE0
 73
     1
 44
1.0
  0
MTEXT
  5
62C
330
1F
100
AcDbEntity
  8
참조1
100
AcDbMText
 10
196.9186711741008
 20
1.016833479298448
 30
0.0
 40
3.5
 41
0.0
 71
     1
 72
     1
  1
A
  7
SLDTEXTSTYLE0
 73
     1
 44
1.0
  0
INSERT
  5
62D
330
1F
100
AcDbEntity
  8
해칭선
100
AcDbBlockReference
  2
SW_DOWELSYMBOL_0
 10
0.0
 20
-0.0010749287238951
 30
0.0
  0
DIMENSION
  5
680
102
{ACAD_REACTORS
102
}
102
{ACAD_XDICTIONARY
360
681
102
}
330
1F
100
AcDbEntity
  8
치수문자_일반주서
100
AcDbDimension
  2
*D41
 10
8.566941214578492
 20
-0.3999999999999986
 30
0.0
 11
18.48834252219816
 21
-10.98918285306947
 31
0.0
 70
   164
 71
     5
 42
0.1000000000000051
  3
SLDDIMSTYLE0
100
AcDbRadialDimension
 15
8.635313473244151
 25
-0.4729742025989797
 35
0.0
 40
0.0
1001
ACAD
1000
DSTYLE
1002
{
1070
    41
1040
2.5
1070
   141
1040
0.0
1070
   172
1070
     0
1070
   140
1040
2.5
1070
    78
1070
     8
1002
}
1001
ACAD_DSTYLE_DIMRADIAL_EXTENSION
1070
   387
1070
     1
1070
   388
1040
4.733745705743515
1070
   390
1040
0.0
1001
PE_URL
1000

  0
ENDSEC
  0
SECTION
  2
OBJECTS
  0
DICTIONARY
  5
C
330
0
100
AcDbDictionary
281
     1
  3
ACAD_DETAILVIEWSTYLE
350
33C
  3
ACAD_GROUP
350
D
  3
ACAD_IMAGE_VARS
350
149
  3
ACAD_LAYOUT
350
1A
  3
ACAD_MLINESTYLE
350
17
  3
ACAD_PLOTSETTINGS
350
19
  3
ACAD_PLOTSTYLENAME
350
E
  3
ACAD_SCALELIST
350
47
  3
ACAD_SECTIONVIEWSTYLE
350
33D
  3
AcDbVariableDictionary
350
337
  3
APPDATA
350
147
  3
DimOffsetDictionary
350
182
  3
DWGPROPS
350
68D
  0
DICTIONARY
  5
3E6
330
2
100
AcDbDictionary
280
     1
281
     1
  3
ACAD_LAYERSTATES
360
3E7
  3
ACLYDICTIONARY
360
67D
  0
DICTIONARY
  5
681
330
680
100
AcDbDictionary
280
     1
281
     1
  0
DICTIONARY
  5
33C
102
{ACAD_REACTORS
330
C
102
}
330
C
100
AcDbDictionary
281
     1
  0
DICTIONARY
  5
D
102
{ACAD_REACTORS
330
C
102
}
330
C
100
AcDbDictionary
281
     1
  0
RASTERVARIABLES
  5
149
102
{ACAD_REACTORS
330
C
102
}
330
C
100
AcDbRasterVariables
 90
        0
 70
     1
 71
     1
 72
     1
  0
DICTIONARY
  5
1A
102
{ACAD_REACTORS
330
C
102
}
330
C
100
AcDbDictionary
281
     1
  3
Layout1
350
1E
  3
Layout2
350
26
  3
Model
350
22
  0
DICTIONARY
  5
17
102
{ACAD_REACTORS
330
C
102
}
330
C
100
AcDbDictionary
281
     1
  3
Standard
350
18
  0
DICTIONARY
  5
19
102
{ACAD_REACTORS
330
C
102
}
330
C
100
AcDbDictionary
281
     1
  0
ACDBDICTIONARYWDFLT
  5
E
102
{ACAD_REACTORS
330
C
102
}
330
C
100
AcDbDictionary
281
     1
  3
Normal
350
F
100
AcDbDictionaryWithDefault
340
F
  0
DICTIONARY
  5
47
102
{ACAD_REACTORS
330
C
102
}
330
C
100
AcDbDictionary
281
     1
  3
A0
350
48
  3
A1
350
49
  3
A2
350
4A
  3
A3
350
4B
  3
A4
350
4C
  3
A5
350
4D
  3
A6
350
4E
  3
A7
350
4F
  3
A8
350
50
  3
A9
350
51
  3
B0
350
52
  3
B1
350
53
  3
B2
350
54
  3
B3
350
55
  3
B4
350
56
  3
B5
350
57
  3
B6
350
58
  3
B7
350
59
  3
B8
350
5A
  3
B9
350
5B
  3
C0
350
5C
  3
C1
350
5D
  3
C2
350
5E
  3
C3
350
5F
  3
C4
350
60
  3
C5
350
61
  3
C6
350
62
  3
C7
350
63
  3
C8
350
64
  3
C9
350
65
  3
D0
350
66
  3
D1
350
67
  3
D2
350
68
  0
DICTIONARY
  5
33D
102
{ACAD_REACTORS
330
C
102
}
330
C
100
AcDbDictionary
281
     1
  0
DICTIONARY
  5
337
102
{ACAD_REACTORS
330
C
102
}
330
C
100
AcDbDictionary
281
     1
  0
DICTIONARY
  5
147
102
{ACAD_REACTORS
330
C
102
}
330
C
100
AcDbDictionary
281
     1
  0
DICTIONARY
  5
182
102
{ACAD_REACTORS
330
C
102
}
330
C
100
AcDbDictionary
281
     1
  3
DIMRAILANGLE
350
185
  3
DIMRAILFIRSTOFFSET
350
183
  3
DIMRAILOFFSET
350
184
  3
DIMRAILSENABLED
350
186
  0
XRECORD
  5
68D
102
{ACAD_REACTORS
330
C
102
}
330
C
100
AcDbXrecord
280
     1
  1
DWGPROPS COOKIE
  2

  3

  4

  6

  7

  8
12015018
  9

300
=
301
=
302
=
303
=
304
=
305
=
306
=
307
=
308
=
309
=
 40
0.0
 41
2458260.19162691
 42
2458271.061053623
  1

 90
        0
  0
DICTIONARY
  5
3E7
102
{ACAD_REACTORS
330
3E6
102
}
330
3E6
100
AcDbDictionary
281
     1
  0
DICTIONARY
  5
67D
102
{ACAD_REACTORS
330
3E6
102
}
330
3E6
100
AcDbDictionary
281
     1
1001
ACAD
1000
<All
  0
LAYOUT
  5
1E
102
{ACAD_REACTORS
330
1A
102
}
330
1A
100
AcDbPlotSettings
  1

  2
none_device
  4

  6

 40
0.0
 41
0.0
 42
0.0
 43
0.0
 44
0.0
 45
0.0
 46
0.0
 47
0.0
 48
0.0
 49
0.0
140
0.0
141
0.0
142
1.0
143
1.0
 70
   688
 72
     1
 73
     0
 74
     5
  7

 75
    16
147
1.0
148
0.0
149
0.0
100
AcDbLayout
  1
Layout1
 70
     1
 71
     1
 10
0.0
 20
0.0
 11
420.0
 21
297.0
 12
0.0
 22
0.0
 32
0.0
 14
1.000000000000000E+20
 24
1.000000000000000E+20
 34
1.000000000000000E+20
 15
-1.000000000000000E+20
 25
-1.000000000000000E+20
 35
-1.000000000000000E+20
146
0.0
 13
0.0
 23
0.0
 33
0.0
 16
1.0
 26
0.0
 36
0.0
 17
0.0
 27
1.0
 37
0.0
 76
     0
330
1B
  0
LAYOUT
  5
26
102
{ACAD_REACTORS
330
1A
102
}
330
1A
100
AcDbPlotSettings
  1

  2
none_device
  4

  6

 40
0.0
 41
0.0
 42
0.0
 43
0.0
 44
0.0
 45
0.0
 46
0.0
 47
0.0
 48
0.0
 49
0.0
140
0.0
141
0.0
142
1.0
143
1.0
 70
   688
 72
     1
 73
     0
 74
     5
  7

 75
    16
147
1.0
148
0.0
149
0.0
100
AcDbLayout
  1
Layout2
 70
     1
 71
     2
 10
0.0
 20
0.0
 11
0.0
 21
0.0
 12
0.0
 22
0.0
 32
0.0
 14
0.0
 24
0.0
 34
0.0
 15
0.0
 25
0.0
 35
0.0
146
0.0
 13
0.0
 23
0.0
 33
0.0
 16
1.0
 26
0.0
 36
0.0
 17
0.0
 27
1.0
 37
0.0
 76
     0
330
23
  0
LAYOUT
  5
22
102
{ACAD_REACTORS
330
1A
102
}
330
1A
100
AcDbPlotSettings
  1

  2
none_device
  4
ANSI_A_(11.00_x_8.50_Inches)
  6

 40
6.35
 41
19.05
 42
6.35000508
 43
19.05000254
 44
279.4
 45
215.9
 46
170.4533743893095
 47
125.3847137330092
 48
0.0
 49
0.0
140
0.0
141
0.0
142
0.1112850254374008
143
1.0
 70
  1696
 72
     0
 73
     0
 74
     0
  7

 75
     0
147
0.0235690232323232
148
0.0
149
0.0
100
AcDbLayout
  1
Model
 70
     1
 71
     0
 10
0.0
 20
0.0
 11
420.0
 21
297.0
 12
0.0
 22
0.0
 32
0.0
 14
-52.70805878542155
 24
-49.97180738881175
 34
0.0
 15
200.2211810816306
 25
33.37500000000001
 35
0.0
146
0.0
 13
0.0
 23
0.0
 33
0.0
 16
1.0
 26
0.0
 36
0.0
 17
0.0
 27
1.0
 37
0.0
 76
     0
330
1F
331
29
  0
MLINESTYLE
  5
18
102
{ACAD_REACTORS
330
17
102
}
330
17
100
AcDbMlineStyle
  2
Standard
 70
     0
  3

 62
   256
 51
90.0
 52
90.0
 71
     2
 49
0.5
 62
   256
  6
BYLAYER
 49
-0.5
 62
   256
  6
BYLAYER
  0
ACDBPLACEHOLDER
  5
F
102
{ACAD_REACTORS
330
E
102
}
330
E
  0
SCALE
  5
48
102
{ACAD_REACTORS
330
47
102
}
330
47
100
AcDbScale
 70
     0
300
1:1
140
1.0
141
1.0
290
     1
  0
SCALE
  5
49
102
{ACAD_REACTORS
330
47
102
}
330
47
100
AcDbScale
 70
     0
300
1:2
140
1.0
141
2.0
290
     0
  0
SCALE
  5
4A
102
{ACAD_REACTORS
330
47
102
}
330
47
100
AcDbScale
 70
     0
300
1:4
140
1.0
141
4.0
290
     0
  0
SCALE
  5
4B
102
{ACAD_REACTORS
330
47
102
}
330
47
100
AcDbScale
 70
     0
300
1:5
140
1.0
141
5.0
290
     0
  0
SCALE
  5
4C
102
{ACAD_REACTORS
330
47
102
}
330
47
100
AcDbScale
 70
     0
300
1:8
140
1.0
141
8.0
290
     0
  0
SCALE
  5
4D
102
{ACAD_REACTORS
330
47
102
}
330
47
100
AcDbScale
 70
     0
300
1:10
140
1.0
141
10.0
290
     0
  0
SCALE
  5
4E
102
{ACAD_REACTORS
330
47
102
}
330
47
100
AcDbScale
 70
     0
300
1:16
140
1.0
141
16.0
290
     0
  0
SCALE
  5
4F
102
{ACAD_REACTORS
330
47
102
}
330
47
100
AcDbScale
 70
     0
300
1:20
140
1.0
141
20.0
290
     0
  0
SCALE
  5
50
102
{ACAD_REACTORS
330
47
102
}
330
47
100
AcDbScale
 70
     0
300
1:30
140
1.0
141
30.0
290
     0
  0
SCALE
  5
51
102
{ACAD_REACTORS
330
47
102
}
330
47
100
AcDbScale
 70
     0
300
1:40
140
1.0
141
40.0
290
     0
  0
SCALE
  5
52
102
{ACAD_REACTORS
330
47
102
}
330
47
100
AcDbScale
 70
     0
300
1:50
140
1.0
141
50.0
290
     0
  0
SCALE
  5
53
102
{ACAD_REACTORS
330
47
102
}
330
47
100
AcDbScale
 70
     0
300
1:100
140
1.0
141
100.0
290
     0
  0
SCALE
  5
54
102
{ACAD_REACTORS
330
47
102
}
330
47
100
AcDbScale
 70
     0
300
2:1
140
2.0
141
1.0
290
     0
  0
SCALE
  5
55
102
{ACAD_REACTORS
330
47
102
}
330
47
100
AcDbScale
 70
     0
300
4:1
140
4.0
141
1.0
290
     0
  0
SCALE
  5
56
102
{ACAD_REACTORS
330
47
102
}
330
47
100
AcDbScale
 70
     0
300
8:1
140
8.0
141
1.0
290
     0
  0
SCALE
  5
57
102
{ACAD_REACTORS
330
47
102
}
330
47
100
AcDbScale
 70
     0
300
10:1
140
10.0
141
1.0
290
     0
  0
SCALE
  5
58
102
{ACAD_REACTORS
330
47
102
}
330
47
100
AcDbScale
 70
     0
300
100:1
140
100.0
141
1.0
290
     0
  0
SCALE
  5
59
102
{ACAD_REACTORS
330
47
102
}
330
47
100
AcDbScale
 70
     0
300
1/128" = 1'-0"
140
0.0078125
141
12.0
290
     0
  0
SCALE
  5
5A
102
{ACAD_REACTORS
330
47
102
}
330
47
100
AcDbScale
 70
     0
300
1/64" = 1'-0"
140
0.015625
141
12.0
290
     0
  0
SCALE
  5
5B
102
{ACAD_REACTORS
330
47
102
}
330
47
100
AcDbScale
 70
     0
300
1/32" = 1'-0"
140
0.03125
141
12.0
290
     0
  0
SCALE
  5
5C
102
{ACAD_REACTORS
330
47
102
}
330
47
100
AcDbScale
 70
     0
300
1/16" = 1'-0"
140
0.0625
141
12.0
290
     0
  0
SCALE
  5
5D
102
{ACAD_REACTORS
330
47
102
}
330
47
100
AcDbScale
 70
     0
300
3/32" = 1'-0"
140
0.09375
141
12.0
290
     0
  0
SCALE
  5
5E
102
{ACAD_REACTORS
330
47
102
}
330
47
100
AcDbScale
 70
     0
300
1/8" = 1'-0"
140
0.125
141
12.0
290
     0
  0
SCALE
  5
5F
102
{ACAD_REACTORS
330
47
102
}
330
47
100
AcDbScale
 70
     0
300
3/16" = 1'-0"
140
0.1875
141
12.0
290
     0
  0
SCALE
  5
60
102
{ACAD_REACTORS
330
47
102
}
330
47
100
AcDbScale
 70
     0
300
1/4" = 1'-0"
140
0.25
141
12.0
290
     0
  0
SCALE
  5
61
102
{ACAD_REACTORS
330
47
102
}
330
47
100
AcDbScale
 70
     0
300
3/8" = 1'-0"
140
0.375
141
12.0
290
     0
  0
SCALE
  5
62
102
{ACAD_REACTORS
330
47
102
}
330
47
100
AcDbScale
 70
     0
300
1/2" = 1'-0"
140
0.5
141
12.0
290
     0
  0
SCALE
  5
63
102
{ACAD_REACTORS
330
47
102
}
330
47
100
AcDbScale
 70
     0
300
3/4" = 1'-0"
140
0.75
141
12.0
290
     0
  0
SCALE
  5
64
102
{ACAD_REACTORS
330
47
102
}
330
47
100
AcDbScale
 70
     0
300
1" = 1'-0"
140
1.0
141
12.0
290
     0
  0
SCALE
  5
65
102
{ACAD_REACTORS
330
47
102
}
330
47
100
AcDbScale
 70
     0
300
1-1/2" = 1'-0"
140
1.5
141
12.0
290
     0
  0
SCALE
  5
66
102
{ACAD_REACTORS
330
47
102
}
330
47
100
AcDbScale
 70
     0
300
3" = 1'-0"
140
3.0
141
12.0
290
     0
  0
SCALE
  5
67
102
{ACAD_REACTORS
330
47
102
}
330
47
100
AcDbScale
 70
     0
300
6" = 1'-0"
140
6.0
141
12.0
290
     0
  0
SCALE
  5
68
102
{ACAD_REACTORS
330
47
102
}
330
47
100
AcDbScale
 70
     0
300
1'-0" = 1'-0"
140
12.0
141
12.0
290
     0
  0
DICTIONARYVAR
  5
185
102
{ACAD_REACTORS
330
182
102
}
330
182
100
DictionaryVariables
280
     0
  1
0.261799
  0
DICTIONARYVAR
  5
183
102
{ACAD_REACTORS
330
182
102
}
330
182
100
DictionaryVariables
280
     0
  1
0.400000
  0
DICTIONARYVAR
  5
184
102
{ACAD_REACTORS
330
182
102
}
330
182
100
DictionaryVariables
280
     0
  1
0.250000
  0
DICTIONARYVAR
  5
186
102
{ACAD_REACTORS
330
182
102
}
330
182
100
DictionaryVariables
280
     0
  1
0
  0
ENDSEC
  0
EOF
